  0
SECTION
  2
HEADER
  9
$ACADVER
  1
AC1015
  9
$ACADMAINTVER
 70
    20
  9
$DWGCODEPAGE
  3
ANSI_1250
  9
$INSBASE
 10
0.0
 20
0.0
 30
0.0
  9
$EXTMIN
 10
-45.29395638600135
 20
1070.50354412673
 30
0.0
  9
$EXTMAX
 10
2970.072864725258
 20
3724.59548200537
 30
0.0
  9
$LIMMIN
 10
0.0
 20
0.0
  9
$LIMMAX
 10
3150.0
 20
4455.0
  9
$ORTHOMODE
 70
     0
  9
$REGENMODE
 70
     1
  9
$FILLMODE
 70
     1
  9
$QTEXTMODE
 70
     0
  9
$MIRRTEXT
 70
     0
  9
$LTSCALE
 40
15.0
  9
$ATTMODE
 70
     1
  9
$TEXTSIZE
 40
0.2
  9
$TRACEWID
 40
0.05
  9
$TEXTSTYLE
  7
Standard
  9
$CLAYER
  8
0
  9
$CELTYPE
  6
ByLayer
  9
$CECOLOR
 62
   256
  9
$CELTSCALE
 40
1.0
  9
$DISPSILH
 70
     0
  9
$DIMSCALE
 40
1.0
  9
$DIMASZ
 40
3.5
  9
$DIMEXO
 40
1.0
  9
$DIMDLI
 40
10.0
  9
$DIMRND
 40
0.0
  9
$DIMDLE
 40
0.0
  9
$DIMEXE
 40
1.0
  9
$DIMTP
 40
0.1
  9
$DIMTM
 40
0.1
  9
$DIMTXT
 40
3.5
  9
$DIMCEN
 40
0.0
  9
$DIMTSZ
 40
0.0
  9
$DIMTOL
 70
     0
  9
$DIMLIM
 70
     0
  9
$DIMTIH
 70
     0
  9
$DIMTOH
 70
     0
  9
$DIMSE1
 70
     0
  9
$DIMSE2
 70
     0
  9
$DIMTAD
 70
     1
  9
$DIMZIN
 70
     8
  9
$DIMBLK
  1

  9
$DIMASO
 70
     1
  9
$DIMSHO
 70
     1
  9
$DIMPOST
  1

  9
$DIMAPOST
  1
"
  9
$DIMALT
 70
     0
  9
$DIMALTD
 70
     2
  9
$DIMALTF
 40
0.0393701
  9
$DIMLFAC
 40
1.0
  9
$DIMTOFL
 70
     1
  9
$DIMTVP
 40
0.0
  9
$DIMTIX
 70
     0
  9
$DIMSOXD
 70
     0
  9
$DIMSAH
 70
     0
  9
$DIMBLK1
  1

  9
$DIMBLK2
  1

  9
$DIMSTYLE
  2
AM_ISO
  9
$DIMCLRD
 70
   256
  9
$DIMCLRE
 70
   256
  9
$DIMCLRT
 70
     2
  9
$DIMTFAC
 40
0.71
  9
$DIMGAP
 40
1.5
  9
$DIMJUST
 70
     0
  9
$DIMSD1
 70
     0
  9
$DIMSD2
 70
     0
  9
$DIMTOLJ
 70
     0
  9
$DIMTZIN
 70
     8
  9
$DIMALTZ
 70
     0
  9
$DIMALTTZ
 70
     0
  9
$DIMUPT
 70
     0
  9
$DIMDEC
 70
     0
  9
$DIMTDEC
 70
     3
  9
$DIMALTU
 70
     2
  9
$DIMALTTD
 70
     4
  9
$DIMTXSTY
  7
Standard
  9
$DIMAUNIT
 70
     0
  9
$DIMADEC
 70
     0
  9
$DIMALTRND
 40
0.0
  9
$DIMAZIN
 70
     2
  9
$DIMDSEP
 70
    46
  9
$DIMATFIT
 70
     3
  9
$DIMFRAC
 70
     0
  9
$DIMLDRBLK
  1

  9
$DIMLUNIT
 70
     2
  9
$DIMLWD
 70
    -1
  9
$DIMLWE
 70
    -1
  9
$DIMTMOVE
 70
     0
  9
$LUNITS
 70
     2
  9
$LUPREC
 70
     4
  9
$SKETCHINC
 40
0.1
  9
$FILLETRAD
 40
0.0
  9
$AUNITS
 70
     0
  9
$AUPREC
 70
     0
  9
$MENU
  1
.
  9
$ELEVATION
 40
0.0
  9
$PELEVATION
 40
0.0
  9
$THICKNESS
 40
0.0
  9
$LIMCHECK
 70
     0
  9
$CHAMFERA
 40
0.0
  9
$CHAMFERB
 40
0.0
  9
$CHAMFERC
 40
0.0
  9
$CHAMFERD
 40
0.0
  9
$SKPOLY
 70
     0
  9
$TDCREATE
 40
2456766.338223229
  9
$TDUCREATE
 40
2456766.254889896
  9
$TDUPDATE
 40
2459858.501443403
  9
$TDUUPDATE
 40
2459858.418110069
  9
$TDINDWG
 40
0.0042868403
  9
$TDUSRTIMER
 40
0.0042868403
  9
$USRTIMER
 70
     1
  9
$ANGBASE
 50
0.0
  9
$ANGDIR
 70
     0
  9
$PDMODE
 70
     0
  9
$PDSIZE
 40
0.0
  9
$PLINEWID
 40
0.0
  9
$SPLFRAME
 70
     0
  9
$SPLINETYPE
 70
     6
  9
$SPLINESEGS
 70
     8
  9
$HANDSEED
  5
84A
  9
$SURFTAB1
 70
     6
  9
$SURFTAB2
 70
     6
  9
$SURFTYPE
 70
     6
  9
$SURFU
 70
     6
  9
$SURFV
 70
     6
  9
$UCSBASE
  2

  9
$UCSNAME
  2

  9
$UCSORG
 10
0.0
 20
0.0
 30
0.0
  9
$UCSXDIR
 10
1.0
 20
0.0
 30
0.0
  9
$UCSYDIR
 10
0.0
 20
1.0
 30
0.0
  9
$UCSORTHOREF
  2

  9
$UCSORTHOVIEW
 70
     0
  9
$UCSORGTOP
 10
0.0
 20
0.0
 30
0.0
  9
$UCSORGBOTTOM
 10
0.0
 20
0.0
 30
0.0
  9
$UCSORGLEFT
 10
0.0
 20
0.0
 30
0.0
  9
$UCSORGRIGHT
 10
0.0
 20
0.0
 30
0.0
  9
$UCSORGFRONT
 10
0.0
 20
0.0
 30
0.0
  9
$UCSORGBACK
 10
0.0
 20
0.0
 30
0.0
  9
$PUCSBASE
  2

  9
$PUCSNAME
  2

  9
$PUCSORG
 10
0.0
 20
0.0
 30
0.0
  9
$PUCSXDIR
 10
1.0
 20
0.0
 30
0.0
  9
$PUCSYDIR
 10
0.0
 20
1.0
 30
0.0
  9
$PUCSORTHOREF
  2

  9
$PUCSORTHOVIEW
 70
     0
  9
$PUCSORGTOP
 10
0.0
 20
0.0
 30
0.0
  9
$PUCSORGBOTTOM
 10
0.0
 20
0.0
 30
0.0
  9
$PUCSORGLEFT
 10
0.0
 20
0.0
 30
0.0
  9
$PUCSORGRIGHT
 10
0.0
 20
0.0
 30
0.0
  9
$PUCSORGFRONT
 10
0.0
 20
0.0
 30
0.0
  9
$PUCSORGBACK
 10
0.0
 20
0.0
 30
0.0
  9
$USERI1
 70
     0
  9
$USERI2
 70
     0
  9
$USERI3
 70
     0
  9
$USERI4
 70
     0
  9
$USERI5
 70
     0
  9
$USERR1
 40
0.0
  9
$USERR2
 40
0.0
  9
$USERR3
 40
0.0
  9
$USERR4
 40
0.0
  9
$USERR5
 40
0.0
  9
$WORLDVIEW
 70
     1
  9
$SHADEDGE
 70
     3
  9
$SHADEDIF
 70
    70
  9
$TILEMODE
 70
     1
  9
$MAXACTVP
 70
    48
  9
$PINSBASE
 10
0.0
 20
0.0
 30
0.0
  9
$PLIMCHECK
 70
     0
  9
$PEXTMIN
 10
0.0
 20
0.0
 30
0.0
  9
$PEXTMAX
 10
3150.0
 20
4455.0
 30
0.0
  9
$PLIMMIN
 10
0.0
 20
0.0
  9
$PLIMMAX
 10
3150.0
 20
4455.0
  9
$UNITMODE
 70
     0
  9
$VISRETAIN
 70
     1
  9
$PLINEGEN
 70
     0
  9
$PSLTSCALE
 70
     1
  9
$TREEDEPTH
 70
  3020
  9
$CMLSTYLE
  2
Standard
  9
$CMLJUST
 70
     0
  9
$CMLSCALE
 40
1.0
  9
$PROXYGRAPHICS
 70
     1
  9
$MEASUREMENT
 70
     1
  9
$CELWEIGHT
370
    -1
  9
$ENDCAPS
280
     0
  9
$JOINSTYLE
280
     0
  9
$LWDISPLAY
290
     0
  9
$INSUNITS
 70
     4
  9
$HYPERLINKBASE
  1

  9
$STYLESHEET
  1

  9
$XEDIT
290
     1
  9
$CEPSNTYPE
380
     0
  9
$PSTYLEMODE
290
     1
  9
$FINGERPRINTGUID
  2
{C9C867E1-6094-40DB-9F60-D41248AF8405}
  9
$VERSIONGUID
  2
{CB6E5AEA-A8EE-4A14-BE09-27A3C0F51E15}
  9
$EXTNAMES
290
     1
  9
$PSVPSCALE
 40
0.0
  9
$OLESTARTUP
290
     0
  0
ENDSEC
  0
SECTION
  2
CLASSES
  0
CLASS
  1
ACDBDICTIONARYWDFLT
  2
AcDbDictionaryWithDefault
  3
ObjectDBX Classes
 90
        0
280
     0
281
     0
  0
CLASS
  1
MATERIAL
  2
AcDbMaterial
  3
ObjectDBX Classes
 90
     1153
280
     0
281
     0
  0
CLASS
  1
VISUALSTYLE
  2
AcDbVisualStyle
  3
ObjectDBX Classes
 90
     4095
280
     0
281
     0
  0
CLASS
  1
SCALE
  2
AcDbScale
  3
ObjectDBX Classes
 90
     1153
280
     0
281
     0
  0
CLASS
  1
TABLESTYLE
  2
AcDbTableStyle
  3
ObjectDBX Classes
 90
     4095
280
     0
281
     0
  0
CLASS
  1
MLEADERSTYLE
  2
AcDbMLeaderStyle
  3
ACDB_MLEADERSTYLE_CLASS
 90
     4095
280
     0
281
     0
  0
CLASS
  1
IMAGE
  2
AcDbRasterImage
  3
ISM
 90
    34943
280
     0
281
     1
  0
CLASS
  1
IMAGEDEF
  2
AcDbRasterImageDef
  3
ISM
 90
    32768
280
     0
281
     0
  0
CLASS
  1
IMAGEDEF_REACTOR
  2
AcDbRasterImageDefReactor
  3
ISM
 90
    32769
280
     0
281
     0
  0
CLASS
  1
RASTERVARIABLES
  2
AcDbRasterVariables
  3
ISM
 90
        0
280
     0
281
     0
  0
CLASS
  1
SORTENTSTABLE
  2
AcDbSortentsTable
  3
ObjectDBX Classes
 90
        0
280
     0
281
     0
  0
CLASS
  1
DICTIONARYVAR
  2
AcDbDictionaryVar
  3
ObjectDBX Classes
 90
        0
280
     0
281
     0
  0
CLASS
  1
ACME_DOCUMENT
  2
AcMeDbDoc
  3
AcMeServices
 90
     1024
280
     0
281
     0
  0
CLASS
  1
AMGSETTINGSOBJ
  2
AmgSettingsObj
  3
"AcadM|Product Description: AutoCAD Mechanical|Company: Autodesk, Inc."
 90
     1024
280
     0
281
     0
  0
CLASS
  1
ACMESCOPE
  2
AcMeScope
  3
AcMeServices
 90
     1024
280
     0
281
     0
  0
CLASS
  1
ACMECOMMANDHISTORY
  2
AcMeCommandHistory
  3
AcMeServices
 90
     1024
280
     0
281
     0
  0
CLASS
  1
ACIMSYSVARMAN
  2
AcImSysVarManager
  3
AcMeServices
 90
     1024
280
     0
281
     0
  0
CLASS
  1
ACIMINTSYSVAR
  2
AcImIntSysVar
  3
AcMeServices
 90
     1024
280
     0
281
     0
  0
CLASS
  1
ACMESTATEMGR
  2
AcMeStateMgr
  3
AcMeServices
 90
     1024
280
     0
281
     0
  0
CLASS
  1
ACDBENTITYCACHE
  2
AcMeEntityCache
  3
AcMeServices
 90
     1024
280
     0
281
     0
  0
CLASS
  1
ACGREFMASTER
  2
AcGrefMaster
  3
AcAttribServices
 90
     1024
280
     0
281
     0
  0
CLASS
  1
AM_DRAWING_MGR
  2
AcDmDwgMgr
  3
AcMechDwgViewMgmt
 90
     1024
280
     0
281
     0
  0
CLASS
  1
AM_DWG_DOCUMENT
  2
AcDmDwgDocument
  3
AcMechDwgViewMgmt
 90
     1024
280
     0
281
     0
  0
CLASS
  1
AM_DWG_SHEET
  2
AcDmSheet
  3
AcMechDwgViewMgmt
 90
     1024
280
     0
281
     0
  0
CLASS
  1
AM_VIEWDIMPARMAP
  2
AcDmViewDimParMap
  3
AcMechDwgViewMgmt
 90
     1024
280
     0
281
     0
  0
CLASS
  1
AMDTINTERNALREACTOR
  2
AmdtInternalReactor
  3
AcMeServices
 90
     1024
280
     0
281
     0
  0
CLASS
  1
ACIMREALSYSVAR
  2
AcImRealSysVar
  3
AcMeServices
 90
     1024
280
     0
281
     0
  0
CLASS
  1
AM_DWGMGR_NAME
  2
AcDmDwgMgrName
  3
AcMechDwgViewMgmt
 90
     1024
280
     0
281
     0
  0
CLASS
  1
ACME_DATABASE
  2
AcMeDbDatabase
  3
AcMeServices
 90
     1024
280
     0
281
     0
  0
CLASS
  1
ACRFINSADJUSTERMGR
  2
AcRfInsAdjusterMgr
  3
AcMeServices
 90
     1024
280
     0
281
     0
  0
CLASS
  1
ACGREFACADMASTER
  2
AcGrefacadMaster
  3
AcGrefServices
 90
     1024
280
     0
281
     0
  0
CLASS
  1
AMDTMENUSTATEMGR
  2
AmdtMenuStateMgr
  3
McadcomServices
 90
     1024
280
     0
281
     0
  0
CLASS
  1
AMDTMCOMMENUSTATE
  2
AmdtMcomMenuState
  3
McadcomServices
 90
     1024
280
     0
281
     0
  0
CLASS
  1
AMIMASTER
  2
AmiMaster
  3
AmiServices
 90
     1024
280
     0
281
     0
  0
CLASS
  1
MAPIAMMOUDLE
  2
MApiAmModule
  3
MApiAmServices
 90
     1024
280
     0
281
     0
  0
CLASS
  1
ACIMSTRSYSVAR
  2
AcImStrSysVar
  3
AcMeServices
 90
     1024
280
     0
281
     0
  0
CLASS
  1
AMDTDMMENUSTATE
  2
AmdtDmMenuState
  3
AcMechDwgViewMgmt
 90
     1024
280
     0
281
     0
  0
CLASS
  1
AMDTAMMENUSTATE
  2
AmdtAmMenuState
  3
DesignerAssemblies
 90
     1024
280
     0
281
     0
  0
CLASS
  1
ACAMPROJECT
  2
AcAmProject
  3
DesignerAssemblies
 90
     1024
280
     0
281
     0
  0
CLASS
  1
ACAMGRCOMPDEF
  2
AcAmGrCompDef
  3
DesignerAssemblies
 90
     1024
280
     0
281
     0
  0
CLASS
  1
ACAMCOMPDEF
  2
AcAmCompDef
  3
DesignerAssemblies
 90
     1024
280
     0
281
     0
  0
CLASS
  1
ACAMCOMPDEFMGR
  2
AcAmCompDefMgr
  3
DesignerAssemblies
 90
     1024
280
     0
281
     0
  0
CLASS
  1
AMCONTEXTMGR
  2
AcAmContextMgr
  3
DesignerAssemblies
 90
     1024
280
     0
281
     0
  0
CLASS
  1
ACAMCONTEXTMODELER
  2
AcAmContextModeler
  3
DesignerAssemblies
 90
     1024
280
     0
281
     0
  0
CLASS
  1
ACMDATADICTIONARY
  2
AcmDataDictionary
  3
"AcmSymBB|Product Description: AutoCAD Mechanical|Company: Autodesk, Inc."
 90
     1024
280
     0
281
     0
  0
CLASS
  1
ACAMGRCOMPDEFSET
  2
AcAmGrCompDefSet
  3
DesignerAssemblies
 90
     1024
280
     0
281
     0
  0
CLASS
  1
AMDTBROWSERDBTAB
  2
AmdtBrowserDbTab
  3
McadcomServices
 90
     1024
280
     0
281
     0
  0
CLASS
  1
CBROWSERAPPOBJECT
  2
CBrowserAppObject
  3
McadcomServices
 90
     1024
280
     0
281
     0
  0
CLASS
  1
DM_PLACEHOLDER
  2
AcDmSelsetPlaceholder
  3
AcMechDwgViewMgmt
 90
     1024
280
     0
281
     0
  0
CLASS
  1
EXACXREFPANELOBJECT
  2
ExAcXREFPanelObject
  3
EXAC_ESW
 90
    33793
280
     0
281
     0
  0
CLASS
  1
NPOCOLLECTION
  2
AcDbImpNonPersistentObjectsCollection
  3
ObjectDBX Classes
 90
    33921
280
     0
281
     0
  0
CLASS
  1
ACMSTANDARDISO
  2
AcmStandardISO
  3
"Amdt_StdImp|Product Description: AutoCAD Mechanical|Company: Autodesk, Inc."
 90
     1024
280
     0
281
     0
  0
CLASS
  1
AMDTEDGESTANDARDISO13715
  2
AmdtEdgeStdISO13715
  3
"Amdt_StdImp|Product Description: AutoCAD Mechanical|Company: Autodesk, Inc."
 90
     1024
280
     0
281
     0
  0
CLASS
  1
ACMSURFSTANDARDISO2002
  2
AcmSurfTextStdISO2002
  3
"Amdt_StdImp|Product Description: AutoCAD Mechanical|Company: Autodesk, Inc."
 90
     1024
280
     0
281
     0
  0
CLASS
  1
ACMFCFSTANDARDISO
  2
AcmFCFStdISO
  3
"Amdt_StdImp|Product Description: AutoCAD Mechanical|Company: Autodesk, Inc."
 90
     1024
280
     0
281
     0
  0
CLASS
  1
ACMWELDSTANDARDISO
  2
AcmWeldingStdISO
  3
"Amdt_StdImp|Product Description: AutoCAD Mechanical|Company: Autodesk, Inc."
 90
     1024
280
     0
281
     0
  0
CLASS
  1
ACMIDSTANDARDISO
  2
AcmIdStdISO
  3
"Amdt_StdImp|Product Description: AutoCAD Mechanical|Company: Autodesk, Inc."
 90
     1024
280
     0
281
     0
  0
CLASS
  1
ACMDATUMSTANDARDISO
  2
AcmDatumStdISO
  3
"Amdt_StdImp|Product Description: AutoCAD Mechanical|Company: Autodesk, Inc."
 90
     1024
280
     0
281
     0
  0
CLASS
  1
ACMBOMSTANDARDISO
  2
AcmBOMStdISO
  3
"Amdt_StdImp|Product Description: AutoCAD Mechanical|Company: Autodesk, Inc."
 90
     1024
280
     0
281
     0
  0
CLASS
  1
ACMDETAILSTANDARDISO
  2
AmdtDetailSymStdISO
  3
"Amdt_StdImp|Product Description: AutoCAD Mechanical|Company: Autodesk, Inc."
 90
     1024
280
     0
281
     0
  0
CLASS
  1
ACMSECTIONSTANDARDISO2001
  2
AmdtSectionSymStdISO2001
  3
"Amdt_StdImp|Product Description: AutoCAD Mechanical|Company: Autodesk, Inc."
 90
     1024
280
     0
281
     0
  0
CLASS
  1
ACMCENTERLINESTANDARDISO
  2
AmdtCenterLineStdISO
  3
"Amdt_StdImp|Product Description: AutoCAD Mechanical|Company: Autodesk, Inc."
 90
     1024
280
     0
281
     0
  0
CLASS
  1
ACMTHREADLINESTANDARDISO
  2
AmdtThreadLineStdISO
  3
"Amdt_StdImp|Product Description: AutoCAD Mechanical|Company: Autodesk, Inc."
 90
     1024
280
     0
281
     0
  0
CLASS
  1
ACMNOTESTANDARDISO
  2
AmdtNoteStdISO
  3
"Amdt_StdImp|Product Description: AutoCAD Mechanical|Company: Autodesk, Inc."
 90
     1024
280
     0
281
     0
  0
CLASS
  1
ACMTAPERSTANDARDISO
  2
AcmTaperStdISO
  3
"Amdt_StdImp|Product Description: AutoCAD Mechanical|Company: Autodesk, Inc."
 90
     1024
280
     0
281
     0
  0
CLASS
  1
ACMANOOTATIONVIEWSTANDARDISO
  2
AmdtAnViewStdISO
  3
"Amdt_StdImp|Product Description: AutoCAD Mechanical|Company: Autodesk, Inc."
 90
     1024
280
     0
281
     0
  0
CLASS
  1
ACAMGLAYSTD
  2
AcAmgLayStd
  3
"AmgLay|Product Description: AutoCAD Mechanical|Company: Autodesk, Inc."
 90
     1024
280
     0
281
     0
  0
CLASS
  1
ACAMGDIMSTD
  2
AcAmgDimStd
  3
"AmgDim|Product Description: AutoCAD Mechanical|Company: Autodesk, Inc."
 90
     1024
280
     0
281
     0
  0
CLASS
  1
AMGOBJPROPCFG
  2
AmgObjPropCfg
  3
"AmgLay|Product Description: AutoCAD Mechanical|Company: Autodesk, Inc."
 90
     1025
280
     0
281
     0
  0
CLASS
  1
ACAMGHOLECHARTSTDISO
  2
AcAmgHoleChartStdISO
  3
AmgDim|Product Description: AutoCAD Mechanical|Company: Autodesk, Inc.
 90
     1024
280
     0
281
     0
  0
CLASS
  1
ACAMGTITLESTD
  2
AcAmgTitleStd
  3
"AmgTitle|Product Description: AutoCAD Mechanical|Company: Autodesk, Inc."
 90
     4095
280
     0
281
     0
  0
CLASS
  1
AMDTNOTETEMPLATEDB
  2
AmdtNoteTemplateDB
  3
AcmSymBB|Product Description: AutoCAD Mechanical|Company: Autodesk, Inc.
 90
     1024
280
     0
281
     0
  0
CLASS
  1
ACAMGFILTERDAT
  2
AcAmgFilterDat
  3
"AcadM|Product Description: AutoCAD Mechanical|Company: Autodesk, Inc."
 90
     1024
280
     0
281
     0
  0
CLASS
  1
ACDBASSOCNETWORK
  2
AcDbAssocNetwork
  3
ObjectDBX Classes
 90
    33793
280
     0
281
     0
  0
CLASS
  1
ACDBASSOC2DCONSTRAINTGROUP
  2
AcDbAssoc2dConstraintGroup
  3
ObjectDBX Classes
 90
    33793
280
     0
281
     0
  0
CLASS
  1
ACDBASSOCGEOMDEPENDENCY
  2
AcDbAssocGeomDependency
  3
ObjectDBX Classes
 90
    33793
280
     0
281
     0
  0
CLASS
  1
DIMASSOC
  2
AcDbDimAssoc
  3
"AcDbDimAssoc|Product Desc:     AcDim ARX App For Dimension|Company:          Autodesk, Inc.|WEB Address:      www.autodesk.com"
 90
        0
280
     0
281
     0
  0
CLASS
  1
CAMSSTRUCTBTNSTATE
  2
StructBtnState
  3
DesignerAssemblies
 90
     1024
280
     0
281
     0
  0
CLASS
  1
CELLSTYLEMAP
  2
AcDbCellStyleMap
  3
ObjectDBX Classes
 90
     1152
280
     0
281
     0
  0
CLASS
  1
ACAD_PROXY_OBJECT_WRAPPER
  2
AcDbProxyObjectWrapper
  3
ObjectDBX Classes
 90
        0
280
     0
281
     0
  0
CLASS
  1
XRECORD
  2
AcDbXrecord
  3
ObjectDBX Classes
 90
        0
280
     0
281
     0
  0
CLASS
  1
ACDBPLACEHOLDER
  2
AcDbPlaceHolder
  3
ObjectDBX Classes
 90
        0
280
     0
281
     0
  0
CLASS
  1
LAYOUT
  2
AcDbLayout
  3
ObjectDBX Classes
 90
        0
280
     0
281
     0
  0
ENDSEC
  0
SECTION
  2
TABLES
  0
TABLE
  2
VPORT
  5
8
102
{ACAD_XDICTIONARY
360
71D
102
}
330
0
100
AcDbSymbolTable
 70
     1
  0
VPORT
  5
57
330
8
100
AcDbSymbolTableRecord
100
AcDbViewportTableRecord
  2
*Active
 70
     0
 10
0.0
 20
0.0
 11
1.0
 21
1.0
 12
2368.035002732391
 22
2327.786358122565
 13
0.0
 23
0.0
 14
37.5
 24
37.5
 15
150.0
 25
150.0
 16
0.0
 26
0.0
 36
1.0
 17
0.0
 27
0.0
 37
0.0
 40
3655.329723376221
 41
2.40253164556962
 42
50.0
 43
0.0
 44
0.0
 50
0.0
 51
0.0
 71
     0
 72
   100
 73
     1
 74
     1
 75
     0
 76
     0
 77
     0
 78
     0
281
     0
 65
     1
110
0.0
120
0.0
130
0.0
111
1.0
121
0.0
131
0.0
112
0.0
122
1.0
132
0.0
 79
     0
146
0.0
  0
ENDTAB
  0
TABLE
  2
LTYPE
  5
5
330
0
100
AcDbSymbolTable
 70
    69
  0
LTYPE
  5
5B
330
5
100
AcDbSymbolTableRecord
100
AcDbLinetypeTableRecord
  2
ByBlock
 70
     0
  3

 72
    65
 73
     0
 40
0.0
  0
LTYPE
  5
5C
330
5
100
AcDbSymbolTableRecord
100
AcDbLinetypeTableRecord
  2
ByLayer
 70
     0
  3

 72
    65
 73
     0
 40
0.0
  0
LTYPE
  5
5D
330
5
100
AcDbSymbolTableRecord
100
AcDbLinetypeTableRecord
  2
Continuous
 70
     0
  3
Solid line
 72
    65
 73
     0
 40
0.0
  0
LTYPE
  5
86
330
5
100
AcDbSymbolTableRecord
100
AcDbLinetypeTableRecord
  2
CENTER
 70
     0
  3
Center ____ _ ____ _ ____ _ ____ _ ____ _ ____
 72
    65
 73
     4
 40
50.8
 49
31.75
 74
     0
 49
-6.349999999999999
 74
     0
 49
6.349999999999999
 74
     0
 49
-6.349999999999999
 74
     0
  0
LTYPE
  5
93
330
5
100
AcDbSymbolTableRecord
100
AcDbLinetypeTableRecord
  2
HIDDEN
 70
     0
  3
Hidden __ __ __ __ __ __ __ __ __ __ __ __ __ _
 72
    65
 73
     2
 40
9.524999999999998
 49
6.349999999999999
 74
     0
 49
-3.174999999999999
 74
     0
  0
LTYPE
  5
97
330
5
100
AcDbSymbolTableRecord
100
AcDbLinetypeTableRecord
  2
PHANTOM2
 70
     0
  3
Phantom (.5x) ___ _ _ ___ _ _ ___ _ _ ___ _ _
 72
    65
 73
     6
 40
31.75
 49
15.875
 74
     0
 49
-3.174999999999999
 74
     0
 49
3.174999999999999
 74
     0
 49
-3.174999999999999
 74
     0
 49
3.174999999999999
 74
     0
 49
-3.174999999999999
 74
     0
  0
LTYPE
  5
388
330
5
100
AcDbSymbolTableRecord
100
AcDbLinetypeTableRecord
  2
AM_ISO02W050
 70
     0
  3
__ __ __ __ __ __ __ __ __ __ __ __ __ __ __
 72
    65
 73
     2
 40
7.5
 49
6.0
 74
     0
 49
-1.5
 74
     0
  0
LTYPE
  5
389
330
5
100
AcDbSymbolTableRecord
100
AcDbLinetypeTableRecord
  2
AM_ISO08W050
 70
     0
  3
____ . ____ . ____ . ____ . ____ . ____ . ____
 72
    65
 73
     4
 40
18.0
 49
12.0
 74
     0
 49
-1.5
 74
     0
 49
3.0
 74
     0
 49
-1.5
 74
     0
  0
LTYPE
  5
38A
330
5
100
AcDbSymbolTableRecord
100
AcDbLinetypeTableRecord
  2
AM_ISO09W050
 70
     0
  3
_____ . . _____ . . _____ . . ____ .. ____
 72
    65
 73
     6
 40
22.5
 49
12.0
 74
     0
 49
-1.5
 74
     0
 49
3.0
 74
     0
 49
-1.5
 74
     0
 49
3.0
 74
     0
 49
-1.5
 74
     0
  0
LTYPE
  5
38B
330
5
100
AcDbSymbolTableRecord
100
AcDbLinetypeTableRecord
  2
Amconstr
 70
     0
  3
_______________________
 72
    65
 73
     2
 40
9999.0
 49
9999.0
 74
     0
 49
0.0
 74
     0
  0
LTYPE
  5
38C
330
5
100
AcDbSymbolTableRecord
100
AcDbLinetypeTableRecord
  2
AM_ISO08W050x2
 70
     0
  3
__ . __ . __ . __ . __ . __
 72
    65
 73
     4
 40
9.0
 49
6.0
 74
     0
 49
-0.75
 74
     0
 49
1.5
 74
     0
 49
-0.75
 74
     0
  0
LTYPE
  5
38D
330
5
100
AcDbSymbolTableRecord
100
AcDbLinetypeTableRecord
  2
AM_ISO02W050x2
 70
     0
  3
 _ _ _ _ _ _ _ _ _ _ _ _
 72
    65
 73
     2
 40
3.75
 49
3.0
 74
     0
 49
-0.75
 74
     0
  0
LTYPE
  5
390
330
5
100
AcDbSymbolTableRecord
100
AcDbLinetypeTableRecord
  2
Amzigzag
 70
     0
  3
/\/-/\/-/\/-/\/-/\/-/\/
 72
    65
 73
     2
 40
11.0001
 49
0.0001
 74
     4
 75
   136
340
38F
 46
0.04
 50
0.0
 44
0.0
 45
0.0
 49
-11.0
 74
     0
  0
LTYPE
  5
39F
330
5
100
AcDbSymbolTableRecord
100
AcDbLinetypeTableRecord
  2
ACISOWELD
 70
     0
  3
_ _ _ _ _
 72
    65
 73
     2
 40
2.0
 49
2.0
 74
     0
 49
-1.0
 74
     0
  0
LTYPE
  5
3A0
330
5
100
AcDbSymbolTableRecord
100
AcDbLinetypeTableRecord
  2
ACISOTGB
 70
     0
  3
__ . . __ . .
 72
    65
 73
     6
 40
9.0
 49
4.0
 74
     0
 49
-1.0
 74
     0
 49
1.0
 74
     0
 49
-1.0
 74
     0
 49
1.0
 74
     0
 49
-1.0
 74
     0
  0
LTYPE
  5
3A1
330
5
100
AcDbSymbolTableRecord
100
AcDbLinetypeTableRecord
  2
ACISOTGL
 70
     0
  3
_ _ _ _ _
 72
    65
 73
     2
 40
3.0
 49
2.0
 74
     0
 49
-1.0
 74
     0
  0
ENDTAB
  0
TABLE
  2
LAYER
  5
2
102
{ACAD_XDICTIONARY
360
608
102
}
330
0
100
AcDbSymbolTable
 70
     6
  0
LAYER
  5
54
330
2
100
AcDbSymbolTableRecord
100
AcDbLayerTableRecord
  2
0
 70
     0
 62
     7
  6
Continuous
370
    -3
390
F
  0
LAYER
  5
C4
330
2
100
AcDbSymbolTableRecord
100
AcDbLayerTableRecord
  2
Widoczne (ISO)
 70
     0
 62
     7
  6
Continuous
370
    40
390
F
  0
LAYER
  5
3BE
330
2
100
AcDbSymbolTableRecord
100
AcDbLayerTableRecord
  2
AM_5
 70
     0
 62
     3
  6
Continuous
370
    25
390
F
1001
AcAecLayerStandard
1000

1000

  0
LAYER
  5
3C7
330
2
100
AcDbSymbolTableRecord
100
AcDbLayerTableRecord
  2
Defpoints
 70
     0
 62
     7
  6
Continuous
290
     0
370
    -3
390
F
  0
ENDTAB
  0
TABLE
  2
STYLE
  5
3
330
0
100
AcDbSymbolTable
 70
    11
  0
STYLE
  5
55
330
3
100
AcDbSymbolTableRecord
100
AcDbTextStyleTableRecord
  2
Standard
 70
     0
 40
0.0
 41
1.0
 50
0.0
 71
     0
 42
0.2
  3
tahoma.ttf
  4

1001
ACAD
1000
Tahoma
1071
      256
  0
STYLE
  5
38F
330
3
100
AcDbSymbolTableRecord
100
AcDbTextStyleTableRecord
  2

 70
     1
 40
0.0
 41
1.0
 50
0.0
 71
     0
 42
0.2
  3
genltshp.shx
  4

  0
STYLE
  5
39E
330
3
100
AcDbSymbolTableRecord
100
AcDbTextStyleTableRecord
  2
ACISOGDT
 70
     0
 40
0.0
 41
1.0
 50
0.0
 71
     0
 42
0.2
  3
amgdt.shx
  4

  0
ENDTAB
  0
TABLE
  2
VIEW
  5
6
330
0
100
AcDbSymbolTable
 70
     0
  0
ENDTAB
  0
TABLE
  2
UCS
  5
7
330
0
100
AcDbSymbolTable
 70
     0
  0
ENDTAB
  0
TABLE
  2
APPID
  5
9
330
0
100
AcDbSymbolTable
 70
    21
  0
APPID
  5
56
330
9
100
AcDbSymbolTableRecord
100
AcDbRegAppTableRecord
  2
ACAD
 70
     0
  0
APPID
  5
5E
330
9
100
AcDbSymbolTableRecord
100
AcDbRegAppTableRecord
  2
AcadAnnotative
 70
     0
  0
APPID
  5
13E
330
9
100
AcDbSymbolTableRecord
100
AcDbRegAppTableRecord
  2
AcadAnnoPO
 70
     0
  0
APPID
  5
31E
330
9
100
AcDbSymbolTableRecord
100
AcDbRegAppTableRecord
  2
MCAD_NO_VIS
 70
     0
  0
APPID
  5
31F
330
9
100
AcDbSymbolTableRecord
100
AcDbRegAppTableRecord
  2
ACAD_TEMP_GRAPHIC
 70
     0
  0
APPID
  5
34A
330
9
100
AcDbSymbolTableRecord
100
AcDbRegAppTableRecord
  2
AD_DRAW
 70
     0
  0
APPID
  5
34D
330
9
100
AcDbSymbolTableRecord
100
AcDbRegAppTableRecord
  2
ACATTRIBSERVICES
 70
     0
  0
APPID
  5
366
330
9
100
AcDbSymbolTableRecord
100
AcDbRegAppTableRecord
  2
DESIGNERASSEMBLIES
 70
     0
  0
APPID
  5
36B
330
9
100
AcDbSymbolTableRecord
100
AcDbRegAppTableRecord
  2
ACADM_DIM_EDIT
 70
     0
  0
APPID
  5
36C
330
9
100
AcDbSymbolTableRecord
100
AcDbRegAppTableRecord
  2
AMDT_DM_ADJ
 70
     0
  0
APPID
  5
385
330
9
100
AcDbSymbolTableRecord
100
AcDbRegAppTableRecord
  2
ACAD_DSTYLE_DIMJAG
 70
     0
  0
APPID
  5
386
330
9
100
AcDbSymbolTableRecord
100
AcDbRegAppTableRecord
  2
ACAD_DSTYLE_DIMBREAK
 70
     0
  0
APPID
  5
3BF
330
9
100
AcDbSymbolTableRecord
100
AcDbRegAppTableRecord
  2
AcAecLayerStandard
 70
     0
  0
APPID
  5
3DF
330
9
100
AcDbSymbolTableRecord
100
AcDbRegAppTableRecord
  2
ACAD_DSTYLE_DIMINSPECT
 70
     0
  0
APPID
  5
3F2
330
9
100
AcDbSymbolTableRecord
100
AcDbRegAppTableRecord
  2
GENIUS_GENDTOL_13
 70
     0
  0
APPID
  5
3F3
330
9
100
AcDbSymbolTableRecord
100
AcDbRegAppTableRecord
  2
ACAD_EXEMPT_FROM_CAD_STANDARDS
 70
     0
  0
APPID
  5
761
330
9
100
AcDbSymbolTableRecord
100
AcDbRegAppTableRecord
  2
ACAD_MLEADERVER
 70
     0
  0
APPID
  5
772
330
9
100
AcDbSymbolTableRecord
100
AcDbRegAppTableRecord
  2
ACAD_DSTYLE_DIMARC_LENGTH_SYMBOL
 70
     0
  0
APPID
  5
773
330
9
100
AcDbSymbolTableRecord
100
AcDbRegAppTableRecord
  2
ACAD_DSTYLE_DIM_LINETYPE
 70
     0
  0
APPID
  5
774
330
9
100
AcDbSymbolTableRecord
100
AcDbRegAppTableRecord
  2
ACAD_DSTYLE_DIM_EXT1_LINETYPE
 70
     0
  0
APPID
  5
775
330
9
100
AcDbSymbolTableRecord
100
AcDbRegAppTableRecord
  2
ACAD_DSTYLE_DIM_EXT2_LINETYPE
 70
     0
  0
ENDTAB
  0
TABLE
  2
DIMSTYLE
  5
A
330
0
100
AcDbSymbolTable
 70
    23
100
AcDbDimStyleTable
 71
     0
  0
DIMSTYLE
105
384
102
{ACAD_REACTORS
330
373
102
}
330
A
100
AcDbSymbolTableRecord
100
AcDbDimStyleTableRecord
  2
AM_ISO
 70
     0
  4
"
 40
15.0
 41
3.5
 42
1.0
 43
10.0
 44
1.0
 47
0.1
 48
0.1
 73
     0
 74
     0
 77
     1
 78
     8
 79
     2
140
3.5
141
0.0
143
0.0393701
146
0.71
147
1.5
172
     1
176
   256
177
   256
178
     2
271
     2
272
     3
274
     4
283
     0
284
     8
340
55
371
    -1
372
    -1
1001
ACAD_DSTYLE_DIMJAG
1070
   388
1040
1.5
1001
ACAD_DSTYLE_DIMBREAK
1070
   391
1040
3.75
1001
ACAD_DSTYLE_DIMARC_LENGTH_SYMBOL
1070
   379
1070
     1
1001
ACAD_DSTYLE_DIM_LINETYPE
1070
   380
1005
5B
1001
ACAD_DSTYLE_DIM_EXT1_LINETYPE
1070
   381
1005
5B
1001
ACAD_DSTYLE_DIM_EXT2_LINETYPE
1070
   382
1005
5B
  0
DIMSTYLE
105
391
330
A
100
AcDbSymbolTableRecord
100
AcDbDimStyleTableRecord
  2
AM_ISO$3
 70
     0
  4
"
 40
15.0
 41
3.5
 42
1.0
 43
10.0
 44
1.0
 47
0.1
 48
0.1
 73
     0
 77
     1
 78
     8
 79
     2
140
3.5
141
0.0
143
0.0393701
146
0.71
147
1.5
176
   256
177
   256
178
     2
271
     2
272
     3
274
     4
283
     0
284
     8
288
     1
289
     0
340
55
371
    -1
372
    -1
1001
ACAD_DSTYLE_DIMBREAK
1070
   391
1040
3.75
1001
ACAD_DSTYLE_DIMJAG
1070
   388
1040
1.5
1001
ACAD_DSTYLE_DIMARC_LENGTH_SYMBOL
1070
   379
1070
     1
1001
ACAD_DSTYLE_DIM_LINETYPE
1070
   380
1005
5B
1001
ACAD_DSTYLE_DIM_EXT1_LINETYPE
1070
   381
1005
5B
1001
ACAD_DSTYLE_DIM_EXT2_LINETYPE
1070
   382
1005
5B
  0
DIMSTYLE
105
392
330
A
100
AcDbSymbolTableRecord
100
AcDbDimStyleTableRecord
  2
AM_ISO$4
 70
     0
  4
"
 40
15.0
 41
3.5
 42
1.0
 43
10.0
 44
1.0
 47
0.1
 48
0.1
 73
     0
 77
     1
 78
     8
 79
     2
140
3.5
141
0.0
143
0.0393701
146
0.71
147
1.5
176
   256
177
   256
178
     2
271
     2
272
     3
274
     4
283
     0
284
     8
288
     1
289
     0
340
55
371
    -1
372
    -1
1001
ACAD_DSTYLE_DIMBREAK
1070
   391
1040
3.75
1001
ACAD_DSTYLE_DIMJAG
1070
   388
1040
1.5
1001
ACAD_DSTYLE_DIMARC_LENGTH_SYMBOL
1070
   379
1070
     1
1001
ACAD_DSTYLE_DIM_LINETYPE
1070
   380
1005
5B
1001
ACAD_DSTYLE_DIM_EXT1_LINETYPE
1070
   381
1005
5B
1001
ACAD_DSTYLE_DIM_EXT2_LINETYPE
1070
   382
1005
5B
  0
DIMSTYLE
105
393
330
A
100
AcDbSymbolTableRecord
100
AcDbDimStyleTableRecord
  2
AM_ISO$6
 70
     0
  4
"
 40
15.0
 41
3.5
 42
1.0
 43
10.0
 44
1.0
 47
0.1
 48
0.1
 73
     0
 74
     0
 78
     8
 79
     2
140
3.5
141
0.0
143
0.0393701
146
0.71
147
1.5
172
     1
176
   256
177
   256
178
     2
271
     2
272
     3
274
     4
283
     0
284
     8
340
55
371
    -1
372
    -1
1001
ACAD_DSTYLE_DIMBREAK
1070
   391
1040
3.75
1001
ACAD_DSTYLE_DIMJAG
1070
   388
1040
1.5
1001
ACAD_DSTYLE_DIMARC_LENGTH_SYMBOL
1070
   379
1070
     1
1001
ACAD_DSTYLE_DIM_LINETYPE
1070
   380
1005
5B
1001
ACAD_DSTYLE_DIM_EXT1_LINETYPE
1070
   381
1005
5B
1001
ACAD_DSTYLE_DIM_EXT2_LINETYPE
1070
   382
1005
5B
  0
DIMSTYLE
105
394
330
A
100
AcDbSymbolTableRecord
100
AcDbDimStyleTableRecord
  2
AM_ISO$7
 70
     0
  4
"
 40
15.0
 41
3.5
 42
1.0
 43
10.0
 44
1.0
 47
0.1
 48
0.1
 73
     0
 74
     0
 77
     1
 78
     8
 79
     2
140
3.5
141
0.0
143
0.0393701
146
0.71
147
1.5
172
     1
176
   256
177
   256
178
     2
271
     2
272
     3
274
     4
283
     0
284
     8
340
55
371
    -1
372
    -1
1001
ACAD_DSTYLE_DIMBREAK
1070
   391
1040
3.75
1001
ACAD_DSTYLE_DIMJAG
1070
   388
1040
1.5
1001
ACAD_DSTYLE_DIMARC_LENGTH_SYMBOL
1070
   379
1070
     1
1001
ACAD_DSTYLE_DIM_LINETYPE
1070
   380
1005
5B
1001
ACAD_DSTYLE_DIM_EXT1_LINETYPE
1070
   381
1005
5B
1001
ACAD_DSTYLE_DIM_EXT2_LINETYPE
1070
   382
1005
5B
  0
DIMSTYLE
105
395
330
A
100
AcDbSymbolTableRecord
100
AcDbDimStyleTableRecord
  2
AM_ISO$SF
 70
     0
  4
"
 40
15.0
 41
3.5
 42
1.0
 43
10.0
 44
1.0
 47
0.1
 48
0.1
 73
     0
 74
     0
 75
     1
 76
     1
 77
     1
 78
     8
 79
     2
140
3.5
141
0.0
143
0.0393701
146
0.71
147
1.5
172
     1
176
   256
177
   256
178
     2
271
     2
272
     3
274
     4
283
     0
284
     8
340
55
371
    -1
372
    -1
1001
ACAD_DSTYLE_DIMBREAK
1070
   391
1040
3.75
1001
ACAD_DSTYLE_DIMJAG
1070
   388
1040
1.5
1001
ACAD_DSTYLE_DIMARC_LENGTH_SYMBOL
1070
   379
1070
     1
1001
ACAD_DSTYLE_DIM_LINETYPE
1070
   380
1005
5B
1001
ACAD_DSTYLE_DIM_EXT1_LINETYPE
1070
   381
1005
5B
1001
ACAD_DSTYLE_DIM_EXT2_LINETYPE
1070
   382
1005
5B
  0
DIMSTYLE
105
39A
330
A
100
AcDbSymbolTableRecord
100
AcDbDimStyleTableRecord
  2
AM_ISO$SH
 70
     0
  4
"
 40
15.0
 41
3.5
 42
1.0
 43
10.0
 44
1.0
 47
0.1
 48
0.1
 73
     0
 74
     0
 75
     1
 76
     1
 77
     1
 78
     8
 79
     2
140
3.5
141
0.0
143
0.0393701
144
2.0
146
0.71
147
1.5
172
     1
173
     1
176
   256
177
   256
178
     2
271
     2
272
     3
274
     4
283
     0
284
     8
340
55
341
396
343
396
371
    -1
372
    -1
1001
ACAD_DSTYLE_DIMBREAK
1070
   391
1040
3.75
1001
ACAD_DSTYLE_DIMJAG
1070
   388
1040
1.5
1001
ACAD_DSTYLE_DIMARC_LENGTH_SYMBOL
1070
   379
1070
     1
1001
ACAD_DSTYLE_DIM_LINETYPE
1070
   380
1005
5B
1001
ACAD_DSTYLE_DIM_EXT1_LINETYPE
1070
   381
1005
5B
1001
ACAD_DSTYLE_DIM_EXT2_LINETYPE
1070
   382
1005
5B
  0
DIMSTYLE
105
3C4
102
{ACAD_REACTORS
330
3C6
330
435
330
49E
330
519
330
545
330
598
330
5B9
330
5DA
102
}
330
A
100
AcDbSymbolTableRecord
100
AcDbDimStyleTableRecord
  2
AM_ISO$0
 70
     0
  4
"
 40
15.0
 41
3.5
 42
1.0
 43
10.0
 44
1.0
 47
0.1
 48
0.1
 73
     0
 74
     0
 77
     1
 78
     8
 79
     2
140
3.5
141
0.0
143
0.0393701
146
0.71
147
1.5
172
     1
176
   256
177
   256
178
     2
271
     2
272
     3
274
     4
283
     0
284
     8
340
55
371
    -1
372
    -1
1001
ACAD_DSTYLE_DIMBREAK
1070
   391
1040
3.75
1001
ACAD_DSTYLE_DIMJAG
1070
   388
1040
1.5
1001
ACAD_DSTYLE_DIMARC_LENGTH_SYMBOL
1070
   379
1070
     1
1001
ACAD_DSTYLE_DIM_LINETYPE
1070
   380
1005
5B
1001
ACAD_DSTYLE_DIM_EXT1_LINETYPE
1070
   381
1005
5B
1001
ACAD_DSTYLE_DIM_EXT2_LINETYPE
1070
   382
1005
5B
  0
ENDTAB
  0
TABLE
  2
BLOCK_RECORD
  5
1
330
0
100
AcDbSymbolTable
 70
    18
  0
BLOCK_RECORD
  5
6C
102
{ACAD_XDICTIONARY
360
2AE
102
}
330
1
100
AcDbSymbolTableRecord
100
AcDbBlockTableRecord
  2
*Model_Space
340
6F
  0
BLOCK_RECORD
  5
68
102
{ACAD_XDICTIONARY
360
69B
102
}
330
1
100
AcDbSymbolTableRecord
100
AcDbBlockTableRecord
  2
*Paper_Space
340
6B
  0
BLOCK_RECORD
  5
70
102
{ACAD_XDICTIONARY
360
69D
102
}
330
1
100
AcDbSymbolTableRecord
100
AcDbBlockTableRecord
  2
*Paper_Space0
340
73
  0
BLOCK_RECORD
  5
396
330
1
100
AcDbSymbolTableRecord
100
AcDbBlockTableRecord
  2
GENAXEH
340
0
  0
BLOCK_RECORD
  5
3C8
330
1
100
AcDbSymbolTableRecord
100
AcDbBlockTableRecord
  2
*D8
340
0
  0
BLOCK_RECORD
  5
436
330
1
100
AcDbSymbolTableRecord
100
AcDbBlockTableRecord
  2
*D9
340
0
  0
BLOCK_RECORD
  5
49F
330
1
100
AcDbSymbolTableRecord
100
AcDbBlockTableRecord
  2
*D10
340
0
  0
BLOCK_RECORD
  5
51A
330
1
100
AcDbSymbolTableRecord
100
AcDbBlockTableRecord
  2
*D11
340
0
  0
BLOCK_RECORD
  5
546
330
1
100
AcDbSymbolTableRecord
100
AcDbBlockTableRecord
  2
*D12
340
0
  0
BLOCK_RECORD
  5
599
330
1
100
AcDbSymbolTableRecord
100
AcDbBlockTableRecord
  2
*D13
340
0
  0
BLOCK_RECORD
  5
5BA
330
1
100
AcDbSymbolTableRecord
100
AcDbBlockTableRecord
  2
*D14
340
0
  0
BLOCK_RECORD
  5
5DB
330
1
100
AcDbSymbolTableRecord
100
AcDbBlockTableRecord
  2
*D15
340
0
  0
BLOCK_RECORD
  5
624
102
{ACAD_XDICTIONARY
360
625
102
}
330
1
100
AcDbSymbolTableRecord
100
AcDbBlockTableRecord
  2
*U16
340
0
102
{BLKREFS
331
635
102
}
  0
BLOCK_RECORD
  5
7AC
330
1
100
AcDbSymbolTableRecord
100
AcDbBlockTableRecord
  2
107-108_Lawka-EKO-z-oparciem
340
0
310
2800000020000000200000000100080000000000000400000000000000000000000000000000000000000000000080000080000000808000800000008000800080800000C0C0C000C0DCC000F0CAA6000020400000206000002080000020A0000020C0000020E00000400000004020000040400000406000004080000040A0
310
000040C0000040E00000600000006020000060400000606000006080000060A0000060C0000060E00000800000008020000080400000806000008080000080A0000080C0000080E00000A0000000A0200000A0400000A0600000A0800000A0A00000A0C00000A0E00000C0000000C0200000C0400000C0600000C0800000C0
310
A00000C0C00000C0E00000E0000000E0200000E0400000E0600000E0800000E0A00000E0C00000E0E00040000000400020004000400040006000400080004000A0004000C0004000E00040200000402020004020400040206000402080004020A0004020C0004020E000404000004040200040404000404060004040800040
310
40A0004040C0004040E00040600000406020004060400040606000406080004060A0004060C0004060E00040800000408020004080400040806000408080004080A0004080C0004080E00040A0000040A0200040A0400040A0600040A0800040A0A00040A0C00040A0E00040C0000040C0200040C0400040C0600040C08000
310
40C0A00040C0C00040C0E00040E0000040E0200040E0400040E0600040E0800040E0A00040E0C00040E0E00080000000800020008000400080006000800080008000A0008000C0008000E00080200000802020008020400080206000802080008020A0008020C0008020E00080400000804020008040400080406000804080
310
008040A0008040C0008040E00080600000806020008060400080606000806080008060A0008060C0008060E00080800000808020008080400080806000808080008080A0008080C0008080E00080A0000080A0200080A0400080A0600080A0800080A0A00080A0C00080A0E00080C0000080C0200080C0400080C0600080C0
310
800080C0A00080C0C00080C0E00080E0000080E0200080E0400080E0600080E0800080E0A00080E0C00080E0E000C0000000C0002000C0004000C0006000C0008000C000A000C000C000C000E000C0200000C0202000C0204000C0206000C0208000C020A000C020C000C020E000C0400000C0402000C0404000C0406000C0
310
408000C040A000C040C000C040E000C0600000C0602000C0604000C0606000C0608000C060A000C060C000C060E000C0800000C0802000C0804000C0806000C0808000C080A000C080C000C080E000C0A00000C0A02000C0A04000C0A06000C0A08000C0A0A000C0A0C000C0A0E000C0C00000C0C02000C0C04000C0C06000
310
C0C08000C0C0A000F0FBFF00A4A0A000808080000000FF0000FF000000FFFF00FF000000FF00FF00FFFF0000FFFFFF0049494949494949494949494949494949494949494949494949494949494949494949494949494949494949494949494949494949494949494949494949494949494949494949494949494949494949
310
49494949494949494949494949494949494949494949494949494949494949494949494949494949494949494949494949494949494949494949494949494949494949494949494949494949494949494949494949494949494949494949494949494949494949494949494949494949494949494949494949494949494949
310
49494949494949494949494949494949494949494949494949494949494949494949494949494949494949494949494949494949494949494949494949494949494949494949494949494949494949494949494949494949494949494949494949494949494949494949494949494949494949494949494949494949494949
310
4949494949494949494949494949494949494949FFFFFFFFFFFFFFFFFFFFFFFFFFFFFFFFFFFFFFFFFFFFFFFFFFFFFFFFFFFF4949FF4949FFFF4949494949494949494949494949494949494949FFFF4949FF4949FFFFFFFFFFFFFFFFFFFFFFFFFFFFFFFFFFFFFFFFFFFFFFFFFFFFFFFFFFFF4949FF4949FFFF494949494949
310
4949494949494949494949494949FFFF4949FF4949FF4949FFFF4949494949494949494949494949494949494949FFFF4949FF4949FFFFFFFFFFFFFFFFFFFFFFFFFFFFFFFFFFFFFFFFFFFFFFFFFFFFFFFFFFFF4949494949FFFF4949494949494949494949494949494949494949FFFF4949494949FFFFFFFFFFFFFFFFFFFF
310
FFFFFFFFFFFFFFFFFFFFFFFFFFFFFFFFFFFFFFFF4949FFFFFFFFFFFFFFFFFFFFFFFFFFFFFFFFFFFFFFFFFFFFFFFFFFFFFFFFFFFF4949494949FFFF4949494949494949494949494949494949494949FFFF49494949494949494949494949494949494949494949494949494949494949494949494949494949494949494949
310
49494949494949494949494949494949494949494949494949494949494949494949494949494949494949494949494949494949494949494949494949494949494949494949494949494949494949494949494949494949494949494949494949494949494949494949494949494949494949494949494949494949494949
310
49494949494949494949494949494949494949494949494949494949494949494949494949494949494949494949494949494949494949494949494949494949494949494949494949494949494949494949494949494949494949494949494949494949494949494949494949494949494949494949494949494949494949
310
4949494949494949494949494949494949494949494949494949494949494949494949494949494949494949494949494949494949494949
102
{BLKREFS
331
807
102
}
1001
ACAD
1000
DesignCenter Data
1002
{
1070
     1
1070
     4
1002
}
  0
ENDTAB
  0
ENDSEC
  0
SECTION
  2
BLOCKS
  0
BLOCK
  5
6D
330
6C
100
AcDbEntity
  8
0
100
AcDbBlockBegin
  2
*Model_Space
 70
     0
 10
0.0
 20
0.0
 30
0.0
  3
*Model_Space
  1

  0
ENDBLK
  5
6E
330
6C
100
AcDbEntity
  8
0
100
AcDbBlockEnd
  0
BLOCK
  5
69
330
68
100
AcDbEntity
 67
     1
  8
0
100
AcDbBlockBegin
  2
*Paper_Space
 70
     0
 10
0.0
 20
0.0
 30
0.0
  3
*Paper_Space
  1

  0
ENDBLK
  5
6A
330
68
100
AcDbEntity
 67
     1
  8
0
100
AcDbBlockEnd
  0
BLOCK
  5
71
330
70
100
AcDbEntity
 67
     1
  8
0
100
AcDbBlockBegin
  2
*Paper_Space0
 70
     0
 10
0.0
 20
0.0
 30
0.0
  3
*Paper_Space0
  1

  0
ENDBLK
  5
72
330
70
100
AcDbEntity
 67
     1
  8
0
100
AcDbBlockEnd
  0
BLOCK
  5
398
330
396
100
AcDbEntity
  8
0
100
AcDbBlockBegin
  2
GENAXEH
 70
     0
 10
0.0
 20
0.0
 30
0.0
  3
GENAXEH
  1

  0
LINE
  5
397
330
396
100
AcDbEntity
  8
0
100
AcDbLine
 10
-1.0
 20
0.0
 30
0.0
 11
1.0
 21
0.0
 31
0.0
  0
ENDBLK
  5
399
330
396
100
AcDbEntity
  8
0
100
AcDbBlockEnd
  0
BLOCK
  5
3C9
330
3C8
100
AcDbEntity
  8
0
100
AcDbBlockBegin
  2
*D8
 70
     1
 10
0.0
 20
0.0
 30
0.0
  3
*D8
  1

  0
LINE
  5
42C
330
3C8
100
AcDbEntity
  8
AM_5
  6
ByBlock
100
AcDbLine
 10
723.3235107198423
 20
2491.407475395409
 30
0.0
 11
723.3235107198423
 21
2311.407474395409
 31
0.0
  0
LINE
  5
42D
330
3C8
100
AcDbEntity
  8
AM_5
  6
ByBlock
100
AcDbLine
 10
1223.323510719842
 20
2491.407475395409
 30
0.0
 11
1223.323510719842
 21
2311.407474395409
 31
0.0
  0
LINE
  5
42E
330
3C8
100
AcDbEntity
  8
AM_5
  6
ByBlock
100
AcDbLine
 10
775.8235107198422
 20
2326.407474395409
 30
0.0
 11
1170.823510719842
 21
2326.407474395409
 31
0.0
  0
SOLID
  5
42F
330
3C8
100
AcDbEntity
  8
AM_5
100
AcDbTrace
 10
775.8235107198422
 20
2335.157474395409
 30
0.0
 11
775.8235107198422
 21
2317.657474395409
 31
0.0
 12
723.3235107198423
 22
2326.407474395409
 32
0.0
 13
723.3235107198423
 23
2326.407474395409
 33
0.0
  0
SOLID
  5
430
330
3C8
100
AcDbEntity
  8
AM_5
100
AcDbTrace
 10
1170.823510719842
 20
2335.157474395409
 30
0.0
 11
1170.823510719842
 21
2317.657474395409
 31
0.0
 12
1223.323510719842
 22
2326.407474395409
 32
0.0
 13
1223.323510719842
 23
2326.407474395409
 33
0.0
  0
MTEXT
  5
431
330
3C8
100
AcDbEntity
  8
AM_5
 62
     2
100
AcDbMText
 10
973.3235107198423
 20
2376.232860560621
 30
0.0
 40
52.5
 41
0.0
 71
     5
 72
     1
  1
{\fISOCPEUR|b0|i0|c0|p34;%%C}500
 73
     1
 44
1.0
1001
ACAD
1000
MTEXTBEGIN
1070
    73
1070
     1
1070
    44
1040
1.0
1070
    74
1070
     0
1000
MTEXTEND
  0
POINT
  5
432
330
3C8
100
AcDbEntity
  8
Defpoints
 62
     0
100
AcDbPoint
 10
723.3235107198423
 20
2506.407475395409
 30
0.0
  0
POINT
  5
433
330
3C8
100
AcDbEntity
  8
Defpoints
 62
     0
100
AcDbPoint
 10
1223.323510719842
 20
2506.407475395409
 30
0.0
  0
POINT
  5
434
330
3C8
100
AcDbEntity
  8
Defpoints
 62
     0
100
AcDbPoint
 10
1223.323510719842
 20
2326.407474395409
 30
0.0
  0
ENDBLK
  5
3CA
330
3C8
100
AcDbEntity
  8
0
100
AcDbBlockEnd
  0
BLOCK
  5
437
330
436
100
AcDbEntity
  8
0
100
AcDbBlockBegin
  2
*D9
 70
     1
 10
0.0
 20
0.0
 30
0.0
  3
*D9
  1

  0
LINE
  5
495
330
436
100
AcDbEntity
  8
AM_5
  6
ByBlock
100
AcDbLine
 10
1884.706043613994
 20
2491.407475395408
 30
0.0
 11
1884.706043613994
 21
2311.407475395407
 31
0.0
  0
LINE
  5
496
330
436
100
AcDbEntity
  8
AM_5
  6
ByBlock
100
AcDbLine
 10
2384.706043613994
 20
2491.407475395408
 30
0.0
 11
2384.706043613994
 21
2311.407475395407
 31
0.0
  0
LINE
  5
497
330
436
100
AcDbEntity
  8
AM_5
  6
ByBlock
100
AcDbLine
 10
1937.206043613995
 20
2326.407475395408
 30
0.0
 11
2332.206043613994
 21
2326.407475395408
 31
0.0
  0
SOLID
  5
498
330
436
100
AcDbEntity
  8
AM_5
100
AcDbTrace
 10
1937.206043613995
 20
2335.157475395408
 30
0.0
 11
1937.206043613995
 21
2317.657475395408
 31
0.0
 12
1884.706043613994
 22
2326.407475395408
 32
0.0
 13
1884.706043613994
 23
2326.407475395408
 33
0.0
  0
SOLID
  5
499
330
436
100
AcDbEntity
  8
AM_5
100
AcDbTrace
 10
2332.206043613994
 20
2335.157475395408
 30
0.0
 11
2332.206043613994
 21
2317.657475395408
 31
0.0
 12
2384.706043613994
 22
2326.407475395408
 32
0.0
 13
2384.706043613994
 23
2326.407475395408
 33
0.0
  0
MTEXT
  5
49A
330
436
100
AcDbEntity
  8
AM_5
 62
     2
100
AcDbMText
 10
2134.706043613995
 20
2376.232861560619
 30
0.0
 40
52.5
 41
0.0
 71
     5
 72
     1
  1
{\fISOCPEUR|b0|i0|c0|p34;%%C}500
 73
     1
 44
1.0
1001
ACAD
1000
MTEXTBEGIN
1070
    73
1070
     1
1070
    44
1040
1.0
1070
    74
1070
     0
1000
MTEXTEND
  0
POINT
  5
49B
330
436
100
AcDbEntity
  8
Defpoints
 62
     0
100
AcDbPoint
 10
1884.706043613994
 20
2506.407475395408
 30
0.0
  0
POINT
  5
49C
330
436
100
AcDbEntity
  8
Defpoints
 62
     0
100
AcDbPoint
 10
2384.706043613994
 20
2506.407475395408
 30
0.0
  0
POINT
  5
49D
330
436
100
AcDbEntity
  8
Defpoints
 62
     0
100
AcDbPoint
 10
2384.706043613994
 20
2326.407475395408
 30
0.0
  0
ENDBLK
  5
438
330
436
100
AcDbEntity
  8
0
100
AcDbBlockEnd
  0
BLOCK
  5
4A0
330
49F
100
AcDbEntity
  8
0
100
AcDbBlockBegin
  2
*D10
 70
     1
 10
0.0
 20
0.0
 30
0.0
  3
*D10
  1

  0
LINE
  5
5FB
330
49F
100
AcDbEntity
  8
AM_5
  6
ByBlock
100
AcDbLine
 10
799.0147691153445
 20
3334.407702243054
 30
0.0
 11
715.7130307862608
 21
3334.407702243054
 31
0.0
  0
LINE
  5
5FC
330
49F
100
AcDbEntity
  8
AM_5
  6
ByBlock
100
AcDbLine
 10
799.0147691153445
 20
2864.507475395408
 30
0.0
 11
715.7130307862607
 21
2864.507475395408
 31
0.0
  0
LINE
  5
5FD
330
49F
100
AcDbEntity
  8
AM_5
  6
ByBlock
100
AcDbLine
 10
730.7130307862608
 20
3281.907702243053
 30
0.0
 11
730.7130307862608
 21
2917.007475395407
 31
0.0
  0
SOLID
  5
5FE
330
49F
100
AcDbEntity
  8
AM_5
100
AcDbTrace
 10
721.9630307862607
 20
3281.907702243053
 30
0.0
 11
739.4630307862607
 21
3281.907702243053
 31
0.0
 12
730.7130307862609
 22
3334.407702243054
 32
0.0
 13
730.7130307862609
 23
3334.407702243054
 33
0.0
  0
SOLID
  5
5FF
330
49F
100
AcDbEntity
  8
AM_5
100
AcDbTrace
 10
721.9630307862607
 20
2917.007475395407
 30
0.0
 11
739.4630307862607
 21
2917.007475395407
 31
0.0
 12
730.7130307862608
 22
2864.507475395408
 32
0.0
 13
730.7130307862608
 23
2864.507475395408
 33
0.0
  0
MTEXT
  5
600
330
49F
100
AcDbEntity
  8
AM_5
 62
     2
100
AcDbMText
 10
680.8876446210488
 20
3099.457588819231
 30
0.0
 40
52.5
 41
0.0
 71
     5
 72
     1
  1
470
 11
0.0000000000000001
 21
1.0
 31
0.0
 73
     1
 44
1.0
1001
ACAD
1000
MTEXTBEGIN
1070
    73
1070
     1
1070
    44
1040
1.0
1070
    74
1070
     0
1000
MTEXTEND
  0
POINT
  5
601
330
49F
100
AcDbEntity
  8
Defpoints
 62
     0
100
AcDbPoint
 10
814.0147691153444
 20
3334.407702243054
 30
0.0
  0
POINT
  5
602
330
49F
100
AcDbEntity
  8
Defpoints
 62
     0
100
AcDbPoint
 10
814.0147691153444
 20
2864.507475395408
 30
0.0
  0
POINT
  5
603
330
49F
100
AcDbEntity
  8
Defpoints
 62
     0
100
AcDbPoint
 10
730.7130307862608
 20
2864.507475395408
 30
0.0
  0
ENDBLK
  5
4A1
330
49F
100
AcDbEntity
  8
0
100
AcDbBlockEnd
  0
BLOCK
  5
51B
330
51A
100
AcDbEntity
  8
0
100
AcDbBlockBegin
  2
*D11
 70
     1
 10
0.0
 20
0.0
 30
0.0
  3
*D11
  1

  0
LINE
  5
53C
330
51A
100
AcDbEntity
  8
AM_5
  6
ByBlock
100
AcDbLine
 10
938.3235107198414
 20
2864.507475395409
 30
0.0
 11
715.1132033959917
 21
2864.507475395409
 31
0.0
  0
LINE
  5
53D
330
51A
100
AcDbEntity
  8
AM_5
  6
ByBlock
100
AcDbLine
 10
938.3235107198403
 20
2664.40747539541
 30
0.0
 11
715.1132033959916
 21
2664.40747539541
 31
0.0
  0
LINE
  5
53E
330
51A
100
AcDbEntity
  8
AM_5
  6
ByBlock
100
AcDbLine
 10
730.1132033959916
 20
2812.007475395409
 30
0.0
 11
730.1132033959916
 21
2716.90747539541
 31
0.0
  0
SOLID
  5
53F
330
51A
100
AcDbEntity
  8
AM_5
100
AcDbTrace
 10
721.3632033959916
 20
2812.007475395409
 30
0.0
 11
738.8632033959916
 21
2812.007475395409
 31
0.0
 12
730.1132033959917
 22
2864.507475395409
 32
0.0
 13
730.1132033959917
 23
2864.507475395409
 33
0.0
  0
SOLID
  5
540
330
51A
100
AcDbEntity
  8
AM_5
100
AcDbTrace
 10
721.3632033959916
 20
2716.90747539541
 30
0.0
 11
738.8632033959916
 21
2716.90747539541
 31
0.0
 12
730.1132033959916
 22
2664.40747539541
 32
0.0
 13
730.1132033959916
 23
2664.40747539541
 33
0.0
  0
MTEXT
  5
541
330
51A
100
AcDbEntity
  8
AM_5
 62
     2
100
AcDbMText
 10
680.2701879493826
 20
2768.422277660253
 30
0.0
 40
52.5
 41
0.0
 71
     5
 72
     1
  1
200
 11
0.0000000000000001
 21
1.0
 31
0.0
 73
     1
 44
1.0
1001
ACAD
1000
MTEXTBEGIN
1070
    73
1070
     1
1070
    44
1040
1.0
1070
    74
1070
     0
1000
MTEXTEND
  0
POINT
  5
542
330
51A
100
AcDbEntity
  8
Defpoints
 62
     0
100
AcDbPoint
 10
953.3235107198414
 20
2864.507475395409
 30
0.0
  0
POINT
  5
543
330
51A
100
AcDbEntity
  8
Defpoints
 62
     0
100
AcDbPoint
 10
953.3235107198404
 20
2664.40747539541
 30
0.0
  0
POINT
  5
544
330
51A
100
AcDbEntity
  8
Defpoints
 62
     0
100
AcDbPoint
 10
730.1132033959916
 20
2664.40747539541
 30
0.0
  0
ENDBLK
  5
51C
330
51A
100
AcDbEntity
  8
0
100
AcDbBlockEnd
  0
BLOCK
  5
547
330
546
100
AcDbEntity
  8
0
100
AcDbBlockBegin
  2
*D12
 70
     1
 10
0.0
 20
0.0
 30
0.0
  3
*D12
  1

  0
LINE
  5
58D
330
546
100
AcDbEntity
  8
AM_5
  6
ByBlock
100
AcDbLine
 10
2050.064102523287
 20
2656.407475395408
 30
0.0
 11
1689.706042613994
 21
2656.407475395408
 31
0.0
  0
LINE
  5
58E
330
546
100
AcDbEntity
  8
AM_5
  6
ByBlock
100
AcDbLine
 10
2050.064102523287
 20
2506.407475395408
 30
0.0
 11
1689.706042613994
 21
2506.407475395408
 31
0.0
  0
LINE
  5
58F
330
546
100
AcDbEntity
  8
AM_5
  6
ByBlock
100
AcDbLine
 10
1704.706042613994
 20
2708.907475395407
 30
0.0
 11
1704.706042613994
 21
2761.407475395408
 31
0.0
  0
LINE
  5
590
330
546
100
AcDbEntity
  8
AM_5
  6
ByBlock
100
AcDbLine
 10
1704.706042613994
 20
2453.907475395408
 30
0.0
 11
1704.706042613994
 21
2249.045151688222
 31
0.0
  0
LINE
  5
591
330
546
100
AcDbEntity
  8
AM_5
  6
ByBlock
100
AcDbLine
 10
1704.706042613994
 20
2656.407475395408
 30
0.0
 11
1704.706042613994
 21
2506.407475395408
 31
0.0
  0
SOLID
  5
592
330
546
100
AcDbEntity
  8
AM_5
100
AcDbTrace
 10
1695.956042613994
 20
2708.907475395407
 30
0.0
 11
1713.456042613994
 21
2708.907475395407
 31
0.0
 12
1704.706042613994
 22
2656.407475395408
 32
0.0
 13
1704.706042613994
 23
2656.407475395408
 33
0.0
  0
SOLID
  5
593
330
546
100
AcDbEntity
  8
AM_5
100
AcDbTrace
 10
1695.956042613994
 20
2453.907475395408
 30
0.0
 11
1713.456042613994
 21
2453.907475395408
 31
0.0
 12
1704.706042613994
 22
2506.407475395408
 32
0.0
 13
1704.706042613994
 23
2506.407475395408
 33
0.0
  0
MTEXT
  5
594
330
546
100
AcDbEntity
  8
AM_5
 62
     2
100
AcDbMText
 10
1654.880656448782
 20
2325.226313541815
 30
0.0
 40
52.5
 41
0.0
 71
     5
 72
     1
  1
150
 11
0.0000000000000001
 21
1.0
 31
0.0
 73
     1
 44
1.0
1001
ACAD
1000
MTEXTBEGIN
1070
    73
1070
     1
1070
    44
1040
1.0
1070
    74
1070
     0
1000
MTEXTEND
  0
POINT
  5
595
330
546
100
AcDbEntity
  8
Defpoints
 62
     0
100
AcDbPoint
 10
2065.064102523287
 20
2656.407475395408
 30
0.0
  0
POINT
  5
596
330
546
100
AcDbEntity
  8
Defpoints
 62
     0
100
AcDbPoint
 10
2065.064102523287
 20
2506.407475395408
 30
0.0
  0
POINT
  5
597
330
546
100
AcDbEntity
  8
Defpoints
 62
     0
100
AcDbPoint
 10
1704.706042613994
 20
2506.407475395408
 30
0.0
  0
ENDBLK
  5
548
330
546
100
AcDbEntity
  8
0
100
AcDbBlockEnd
  0
BLOCK
  5
59A
330
599
100
AcDbEntity
  8
0
100
AcDbBlockBegin
  2
*D13
 70
     1
 10
0.0
 20
0.0
 30
0.0
  3
*D13
  1

  0
LINE
  5
5B0
330
599
100
AcDbEntity
  8
AM_5
  6
ByBlock
100
AcDbLine
 10
886.0658376770842
 20
3724.59548200537
 30
0.0
 11
565.713030786262
 21
3724.59548200537
 31
0.0
  0
LINE
  5
5B1
330
599
100
AcDbEntity
  8
AM_5
  6
ByBlock
100
AcDbLine
 10
886.0658376770842
 20
2864.507475395408
 30
0.0
 11
565.7130307862619
 21
2864.507475395408
 31
0.0
  0
LINE
  5
5B2
330
599
100
AcDbEntity
  8
AM_5
  6
ByBlock
100
AcDbLine
 10
580.713030786262
 20
3672.095482005369
 30
0.0
 11
580.7130307862619
 21
2917.007475395407
 31
0.0
  0
SOLID
  5
5B3
330
599
100
AcDbEntity
  8
AM_5
100
AcDbTrace
 10
571.963030786262
 20
3672.095482005369
 30
0.0
 11
589.463030786262
 21
3672.095482005369
 31
0.0
 12
580.713030786262
 22
3724.59548200537
 32
0.0
 13
580.713030786262
 23
3724.59548200537
 33
0.0
  0
SOLID
  5
5B4
330
599
100
AcDbEntity
  8
AM_5
100
AcDbTrace
 10
571.9630307862619
 20
2917.007475395407
 30
0.0
 11
589.4630307862619
 21
2917.007475395407
 31
0.0
 12
580.7130307862619
 22
2864.507475395408
 32
0.0
 13
580.7130307862619
 23
2864.507475395408
 33
0.0
  0
MTEXT
  5
5B5
330
599
100
AcDbEntity
  8
AM_5
 62
     2
100
AcDbMText
 10
530.7642396512715
 20
3294.551478700389
 30
0.0
 40
52.5
 41
0.0
 71
     5
 72
     1
  1
860
 11
0.0000000000000001
 21
1.0
 31
0.0
 73
     1
 44
1.0
1001
ACAD
1000
MTEXTBEGIN
1070
    73
1070
     1
1070
    44
1040
1.0
1070
    74
1070
     0
1000
MTEXTEND
  0
POINT
  5
5B6
330
599
100
AcDbEntity
  8
Defpoints
 62
     0
100
AcDbPoint
 10
901.0658376770843
 20
3724.59548200537
 30
0.0
  0
POINT
  5
5B7
330
599
100
AcDbEntity
  8
Defpoints
 62
     0
100
AcDbPoint
 10
901.0658376770843
 20
2864.507475395408
 30
0.0
  0
POINT
  5
5B8
330
599
100
AcDbEntity
  8
Defpoints
 62
     0
100
AcDbPoint
 10
580.7130307862619
 20
2864.507475395408
 30
0.0
  0
ENDBLK
  5
59B
330
599
100
AcDbEntity
  8
0
100
AcDbBlockEnd
  0
BLOCK
  5
5BB
330
5BA
100
AcDbEntity
  8
0
100
AcDbBlockBegin
  2
*D14
 70
     1
 10
0.0
 20
0.0
 30
0.0
  3
*D14
  1

  0
LINE
  5
7F5
330
5BA
100
AcDbEntity
  8
AM_5
  6
ByBlock
100
AcDbLine
 10
804.0147771664667
 20
1377.69616917751
 30
0.0
 11
804.0147771664667
 21
1197.69616917751
 31
0.0
  0
LINE
  5
7F6
330
5BA
100
AcDbEntity
  8
AM_5
  6
ByBlock
100
AcDbLine
 10
2304.014777166466
 20
1377.69616917751
 30
0.0
 11
2304.014777166466
 21
1197.69616917751
 31
0.0
  0
LINE
  5
7F7
330
5BA
100
AcDbEntity
  8
AM_5
  6
ByBlock
100
AcDbLine
 10
856.5147771664667
 20
1212.69616917751
 30
0.0
 11
2251.514777166466
 21
1212.69616917751
 31
0.0
  0
SOLID
  5
7F8
330
5BA
100
AcDbEntity
  8
AM_5
100
AcDbTrace
 10
856.5147771664667
 20
1221.44616917751
 30
0.0
 11
856.5147771664667
 21
1203.94616917751
 31
0.0
 12
804.0147771664667
 22
1212.69616917751
 32
0.0
 13
804.0147771664667
 23
1212.69616917751
 33
0.0
  0
SOLID
  5
7F9
330
5BA
100
AcDbEntity
  8
AM_5
100
AcDbTrace
 10
2251.514777166466
 20
1221.44616917751
 30
0.0
 11
2251.514777166466
 21
1203.94616917751
 31
0.0
 12
2304.014777166466
 22
1212.69616917751
 32
0.0
 13
2304.014777166466
 23
1212.69616917751
 33
0.0
  0
MTEXT
  5
7FA
330
5BA
100
AcDbEntity
  8
AM_5
 62
     2
100
AcDbMText
 10
1554.014777166466
 20
1262.521555342721
 30
0.0
 40
52.5
 41
0.0
 71
     5
 72
     1
  1
1500
 73
     1
 44
1.0
1001
ACAD
1000
MTEXTBEGIN
1070
    73
1070
     1
1070
    44
1040
1.0
1070
    74
1070
     0
1000
MTEXTEND
  0
POINT
  5
7FB
330
5BA
100
AcDbEntity
  8
Defpoints
 62
     0
100
AcDbPoint
 10
804.0147771664667
 20
1392.69616917751
 30
0.0
  0
POINT
  5
7FC
330
5BA
100
AcDbEntity
  8
Defpoints
 62
     0
100
AcDbPoint
 10
2304.014777166466
 20
1392.69616917751
 30
0.0
  0
POINT
  5
7FD
330
5BA
100
AcDbEntity
  8
Defpoints
 62
     0
100
AcDbPoint
 10
2304.014777166466
 20
1212.69616917751
 30
0.0
  0
ENDBLK
  5
5BC
330
5BA
100
AcDbEntity
  8
0
100
AcDbBlockEnd
  0
BLOCK
  5
5DC
330
5DB
100
AcDbEntity
  8
0
100
AcDbBlockBegin
  2
*D15
 70
     1
 10
0.0
 20
0.0
 30
0.0
  3
*D15
  1

  0
LINE
  5
7FE
330
5DB
100
AcDbEntity
  8
AM_5
  6
ByBlock
100
AcDbLine
 10
906.6288269692341
 20
1373.367142823904
 30
0.0
 11
726.6288269692338
 21
1373.367142823904
 31
0.0
  0
LINE
  5
7FF
330
5DB
100
AcDbEntity
  8
AM_5
  6
ByBlock
100
AcDbLine
 10
958.3235107193864
 20
1899.798617521934
 30
0.0
 11
726.6288269692339
 21
1899.798617521934
 31
0.0
  0
LINE
  5
800
330
5DB
100
AcDbEntity
  8
AM_5
  6
ByBlock
100
AcDbLine
 10
741.6288269692338
 20
1425.867142823905
 30
0.0
 11
741.6288269692339
 21
1847.298617521934
 31
0.0
  0
SOLID
  5
801
330
5DB
100
AcDbEntity
  8
AM_5
100
AcDbTrace
 10
732.8788269692338
 20
1425.867142823905
 30
0.0
 11
750.3788269692338
 21
1425.867142823905
 31
0.0
 12
741.6288269692338
 22
1373.367142823904
 32
0.0
 13
741.6288269692338
 23
1373.367142823904
 33
0.0
  0
SOLID
  5
802
330
5DB
100
AcDbEntity
  8
AM_5
100
AcDbTrace
 10
732.8788269692339
 20
1847.298617521934
 30
0.0
 11
750.3788269692339
 21
1847.298617521934
 31
0.0
 12
741.6288269692339
 22
1899.798617521934
 32
0.0
 13
741.6288269692339
 23
1899.798617521934
 33
0.0
  0
MTEXT
  5
803
330
5DB
100
AcDbEntity
  8
AM_5
 62
     2
100
AcDbMText
 10
691.7858115226252
 20
1636.58288017292
 30
0.0
 40
52.5
 41
0.0
 71
     5
 72
     1
  1
526
 11
0.0000000000000001
 21
1.0
 31
0.0
 73
     1
 44
1.0
1001
ACAD
1000
MTEXTBEGIN
1070
    73
1070
     1
1070
    44
1040
1.0
1070
    74
1070
     0
1000
MTEXTEND
  0
POINT
  5
804
330
5DB
100
AcDbEntity
  8
Defpoints
 62
     0
100
AcDbPoint
 10
921.6288269692341
 20
1373.367142823904
 30
0.0
  0
POINT
  5
805
330
5DB
100
AcDbEntity
  8
Defpoints
 62
     0
100
AcDbPoint
 10
973.3235107193863
 20
1899.798617521934
 30
0.0
  0
POINT
  5
806
330
5DB
100
AcDbEntity
  8
Defpoints
 62
     0
100
AcDbPoint
 10
741.6288269692339
 20
1899.798617521934
 30
0.0
  0
ENDBLK
  5
5DD
330
5DB
100
AcDbEntity
  8
0
100
AcDbBlockEnd
  0
BLOCK
  5
627
330
624
100
AcDbEntity
  8
0
100
AcDbBlockBegin
  2
*U16
 70
     1
 10
0.0
 20
0.0
 30
0.0
  3
*U16
  1

  0
TEXT
  5
628
330
624
100
AcDbEntity
  8
0
100
AcDbText
 10
-1236.591510492589
 20
1223.480144401045
 30
0.0
 40
27.58
  1
nr. kat: 107, 108
100
AcDbText
  0
TEXT
  5
629
330
624
100
AcDbEntity
  8
0
100
AcDbText
 10
-1234.516990680635
 20
1174.049770548347
 30
0.0
 40
27.58
  1
Ławka EKO z oparciem
100
AcDbText
  0
TEXT
  5
62A
330
624
100
AcDbEntity
  8
0
100
AcDbText
 10
-1236.869347967405
 20
1127.508906433729
 30
0.0
 40
27.58
  1
Data utworzenia: 18-04-2014
100
AcDbText
  0
TEXT
  5
62B
330
624
100
AcDbEntity
  8
0
100
AcDbText
 10
-1236.869347967405
 20
1034.334565712887
 30
0.0
 40
27.58
  1
Muller Jelcz-Laskowice Sp. z o.o.
100
AcDbText
  0
ENDBLK
  5
62C
330
624
100
AcDbEntity
  8
0
100
AcDbBlockEnd
  0
BLOCK
  5
7AD
330
7AC
100
AcDbEntity
  8
0
100
AcDbBlockBegin
  2
107-108_Lawka-EKO-z-oparciem
 70
     0
 10
0.0
 20
0.0
 30
0.0
  3
107-108_Lawka-EKO-z-oparciem
  1

  0
LINE
  5
7AF
330
7AC
100
AcDbEntity
  8
Widoczne (ISO)
100
AcDbLine
 10
560.691266447078
 20
123.0944427821448
 30
0.0
 11
560.6912664470767
 21
72.99995652136022
 31
0.0
  0
LINE
  5
7B0
330
7AC
100
AcDbEntity
  8
Widoczne (ISO)
100
AcDbLine
 10
600.6912664470758
 20
-0.0000000000954969
 30
0.0
 11
600.6912664470775
 21
123.0944427821448
 31
0.0
  0
LINE
  5
7B1
330
7AC
100
AcDbEntity
  8
Widoczne (ISO)
100
AcDbLine
 10
-600.6912664470767
 20
123.0944427821437
 30
0.0
 11
-600.6912664470791
 21
-0.0000000000968612
 31
0.0
  0
LINE
  5
7B2
330
7AC
100
AcDbEntity
  8
Widoczne (ISO)
100
AcDbLine
 10
-560.6912664470777
 20
72.99995652135908
 30
0.0
 11
-560.6912664470767
 21
123.0944427821437
 31
0.0
  0
ELLIPSE
  5
7B3
330
7AC
100
AcDbEntity
  8
Widoczne (ISO)
100
AcDbEllipse
 10
588.6912664470766
 20
72.99994041821197
 30
0.0
 11
9.999999999999966
 21
0.0000000000000104
 31
0.0
210
0.0
220
0.0
230
1.0
 40
0.00001
 41
0.0034606613421938
 42
1.57252666853607
  0
LINE
  5
7B4
330
7AC
100
AcDbEntity
  8
Widoczne (ISO)
100
AcDbLine
 10
598.6912664470767
 20
72.99994041821197
 30
0.0
 11
598.6912664470767
 21
-0.0000000000104592
 31
0.0
  0
LINE
  5
7B5
330
7AC
100
AcDbEntity
  8
Widoczne (ISO)
100
AcDbLine
 10
598.6912664470767
 20
-120.0000434783837
 30
0.0
 11
598.6912664470767
 21
-144.9999999998224
 31
0.0
  0
LINE
  5
7B6
330
7AC
100
AcDbEntity
  8
Widoczne (ISO)
100
AcDbLine
 10
588.6912664470771
 20
72.99995652136885
 30
0.0
 11
560.0009048137542
 21
72.99995652136885
 31
0.0
  0
LINE
  5
7B7
330
7AC
100
AcDbEntity
  8
Widoczne (ISO)
100
AcDbLine
 10
560.0009048137542
 20
72.99995652136885
 30
0.0
 11
560.0009048137542
 21
-0.0000000000079581
 31
0.0
  0
LINE
  5
7B8
330
7AC
100
AcDbEntity
  8
Widoczne (ISO)
100
AcDbLine
 10
560.0009048137537
 20
-120.0000434783808
 30
0.0
 11
560.0009048137537
 21
-144.9999999998197
 31
0.0
  0
LINE
  5
7B9
330
7AC
100
AcDbEntity
  8
Widoczne (ISO)
100
AcDbLine
 10
-749.9999999999992
 20
160.2704425179861
 30
0.0
 11
-749.9999999999994
 21
131.8003475566781
 31
0.0
  0
LINE
  5
7BA
330
7AC
100
AcDbEntity
  8
Widoczne (ISO)
100
AcDbLine
 10
750.0000000000007
 20
131.8003475566797
 30
0.0
 11
750.0000000000007
 21
160.2704425179879
 31
0.0
  0
SPLINE
  5
7BB
330
7AC
100
AcDbEntity
  8
Widoczne (ISO)
100
AcDbSpline
210
0.0
220
0.0
230
1.0
 70
     8
 71
     3
 72
    18
 73
    14
 74
     0
 42
0.0000000001
 43
0.0000000001
 40
-0.0000000000000001
 40
-0.0000000000000001
 40
-0.0000000000000001
 40
-0.0000000000000001
 40
0.26179938779915
 40
0.26179938779915
 40
0.5235987755983001
 40
0.5235987755983001
 40
0.7787323499286165
 40
0.7787323499286165
 40
1.040531737727766
 40
1.040531737727766
 40
1.302331125526916
 40
1.302331125526916
 40
1.30899693899575
 40
1.30899693899575
 40
1.30899693899575
 40
1.30899693899575
 10
750.0000000000007
 20
131.8003475566797
 30
0.0
 10
750.0000000000007
 20
130.9271584563191
 30
0.0
 10
749.8809124918782
 20
130.0348712414227
 30
0.0
 10
749.3596135801547
 20
128.2905710863128
 30
0.0
 10
748.9552197188793
 20
127.4395236619268
 30
0.0
 10
747.8838158048663
 20
125.9243297159507
 30
0.0
 10
747.2243361199819
 20
125.2589861535421
 30
0.0
 10
745.7177061646191
 20
124.1741059895484
 30
0.0
 10
744.8692691671901
 20
123.762166456125
 30
0.0
 10
743.1273227194126
 20
123.2265585210409
 30
0.0
 10
742.2348584743374
 20
123.1007158925754
 30
0.0
 10
741.3385716501336
 20
123.0945194957733
 30
0.0
 10
741.3163279576636
 20
123.0944427821937
 30
0.0
 10
741.2940952255133
 20
123.0944427821937
 30
0.0
  0
SPLINE
  5
7BC
330
7AC
100
AcDbEntity
  8
Widoczne (ISO)
100
AcDbSpline
210
0.0
220
0.0
230
1.0
 70
     8
 71
     3
 72
    18
 73
    14
 74
     0
 42
0.0000000001
 43
0.0000000001
 40
-0.0000000000000002
 40
-0.0000000000000002
 40
-0.0000000000000002
 40
-0.0000000000000002
 40
0.2617993877991505
 40
0.2617993877991505
 40
0.5235987755983014
 40
0.5235987755983014
 40
0.7787323499286178
 40
0.7787323499286178
 40
1.040531737727768
 40
1.040531737727768
 40
1.302331125526919
 40
1.302331125526919
 40
1.308996938995753
 40
1.308996938995753
 40
1.308996938995753
 40
1.308996938995753
 10
-749.9999999999994
 20
131.8003475566781
 30
0.0
 10
-749.9999999999994
 20
130.9271584563175
 30
0.0
 10
-749.880912491877
 20
130.0348712414209
 30
0.0
 10
-749.3596135801537
 20
128.2905710863108
 30
0.0
 10
-748.955219718878
 20
127.4395236619252
 30
0.0
 10
-747.8838158048651
 20
125.9243297159489
 30
0.0
 10
-747.224336119981
 20
125.2589861535405
 30
0.0
 10
-745.7177061646181
 20
124.1741059895469
 30
0.0
 10
-744.8692691671888
 20
123.7621664561234
 30
0.0
 10
-743.1273227194115
 20
123.2265585210393
 30
0.0
 10
-742.2348584743361
 20
123.1007158925738
 30
0.0
 10
-741.3385716501324
 20
123.0945194957717
 30
0.0
 10
-741.316327957662
 20
123.0944427821921
 30
0.0
 10
-741.2940952255119
 20
123.0944427821921
 30
0.0
  0
LINE
  5
7BD
330
7AC
100
AcDbEntity
  8
Widoczne (ISO)
100
AcDbLine
 10
-741.2940952255121
 20
123.0944427821921
 30
0.0
 11
741.2940952255133
 21
123.0944427821937
 31
0.0
  0
LINE
  5
7BE
330
7AC
100
AcDbEntity
  8
Widoczne (ISO)
100
AcDbLine
 10
-749.9999999999992
 20
186.3504398277889
 30
0.0
 11
-749.9999999999992
 21
160.2704425179861
 31
0.0
  0
ELLIPSE
  5
7BF
330
7AC
100
AcDbEntity
  8
Widoczne (ISO)
100
AcDbEllipse
 10
-744.9999999999992
 20
186.3504398277889
 30
0.0
 11
-4.999999999999953
 21
-0.0000000000000053
 31
0.0
210
0.0
220
0.0
230
1.0
 40
0.2588190451027997
 41
4.712388980384689
 42
6.28318530717962
  0
LINE
  5
7C0
330
7AC
100
AcDbEntity
  8
Widoczne (ISO)
100
AcDbLine
 10
750.0000000000007
 20
160.2704425179879
 30
0.0
 11
750.0000000000007
 21
186.3504398277905
 31
0.0
  0
ELLIPSE
  5
7C1
330
7AC
100
AcDbEntity
  8
Widoczne (ISO)
100
AcDbEllipse
 10
745.0000000000011
 20
186.3504398277905
 30
0.0
 11
5.0
 21
-0.0000000000000062
 31
0.0
210
0.0
220
0.0
230
1.0
 40
0.2588190451027996
 41
0.0000000000003731
 42
1.570796326795056
  0
LINE
  5
7C2
330
7AC
100
AcDbEntity
  8
Widoczne (ISO)
100
AcDbLine
 10
-744.9999999999992
 20
187.6445350533029
 30
0.0
 11
745.0000000000011
 21
187.6445350533044
 31
0.0
  0
LINE
  5
7C3
330
7AC
100
AcDbEntity
  8
Widoczne (ISO)
100
AcDbLine
 10
750.0000000000002
 20
-259.9999999996756
 30
0.0
 11
750.0000000000002
 21
-149.9999999998179
 31
0.0
  0
LINE
  5
7C4
102
{ACAD_REACTORS
330
5C7
102
}
330
7AC
100
AcDbEntity
  8
Widoczne (ISO)
100
AcDbLine
 10
-749.9999999999996
 20
-149.9999999998195
 30
0.0
 11
-749.9999999999996
 21
-259.9999999996772
 31
0.0
  0
ARC
  5
7C5
330
7AC
100
AcDbEntity
  8
Widoczne (ISO)
100
AcDbCircle
 10
-744.9999999999922
 20
-149.9999999998228
 30
0.0
 40
5.000000000010075
100
AcDbArc
 50
89.99999999774622
 51
180.0
  0
ARC
  5
7C6
330
7AC
100
AcDbEntity
  8
Widoczne (ISO)
100
AcDbCircle
 10
744.9999999999934
 20
-149.9999999998206
 30
0.0
 40
5.000000000008912
100
AcDbArc
 50
0.0
 51
89.99999999859303
  0
LINE
  5
7C7
330
7AC
100
AcDbEntity
  8
Widoczne (ISO)
100
AcDbLine
 10
744.9999999999934
 20
-144.9999999998115
 30
0.0
 11
-744.9999999999932
 21
-144.9999999998128
 31
0.0
  0
LINE
  5
7C8
102
{ACAD_REACTORS
330
5C7
102
}
330
7AC
100
AcDbEntity
  8
Widoczne (ISO)
100
AcDbLine
 10
750.0000000000002
 20
-260.0000434781991
 30
0.0
 11
750.0000000000002
 21
-259.9999999996756
 31
0.0
  0
ARC
  5
7C9
330
7AC
100
AcDbEntity
  8
Widoczne (ISO)
100
AcDbCircle
 10
745.0000000000002
 20
-260.0000434781991
 30
0.0
 40
4.999999999999953
100
AcDbArc
 50
270.0
 51
0.0
  0
LINE
  5
7CA
330
7AC
100
AcDbEntity
  8
Widoczne (ISO)
100
AcDbLine
 10
-749.9999999999998
 20
-259.9999999996772
 30
0.0
 11
-749.9999999999998
 21
-260.0000434782007
 31
0.0
  0
ARC
  5
7CB
330
7AC
100
AcDbEntity
  8
Widoczne (ISO)
100
AcDbCircle
 10
-744.9999999999999
 20
-260.0000434782007
 30
0.0
 40
5.0
100
AcDbArc
 50
180.0
 51
270.0
  0
LINE
  5
7CC
102
{ACAD_REACTORS
330
5E8
102
}
330
7AC
100
AcDbEntity
  8
Widoczne (ISO)
100
AcDbLine
 10
745.0000000000002
 20
-265.0000434781928
 30
0.0
 11
-744.9999999999999
 21
-265.0000434781944
 31
0.0
  0
LINE
  5
7CD
330
7AC
100
AcDbEntity
  8
Widoczne (ISO)
100
AcDbLine
 10
749.9999999999998
 20
-114.9999999998633
 30
0.0
 11
749.9999999999998
 21
-5.000000000005684
 31
0.0
  0
LINE
  5
7CE
330
7AC
100
AcDbEntity
  8
Widoczne (ISO)
100
AcDbLine
 10
-750.0
 20
-5.000000000007275
 30
0.0
 11
-750.0
 21
-114.9999999998649
 31
0.0
  0
ARC
  5
7CF
330
7AC
100
AcDbEntity
  8
Widoczne (ISO)
100
AcDbCircle
 10
-744.9999999999927
 20
-5.000000000010913
 30
0.0
 40
5.000000000010075
100
AcDbArc
 50
89.9999999977332
 51
180.0
  0
ARC
  5
7D0
330
7AC
100
AcDbEntity
  8
Widoczne (ISO)
100
AcDbCircle
 10
744.9999999999934
 20
-5.000000000008412
 30
0.0
 40
5.000000000008912
100
AcDbArc
 50
0.0
 51
89.99999999859303
  0
LINE
  5
7D1
330
7AC
100
AcDbEntity
  8
Widoczne (ISO)
100
AcDbLine
 10
744.9999999999934
 20
0.0000000000006821
 30
0.0
 11
-744.9999999999932
 21
-0.0000000000006821
 31
0.0
  0
LINE
  5
7D2
330
7AC
100
AcDbEntity
  8
Widoczne (ISO)
100
AcDbLine
 10
749.9999999999998
 20
-115.0000434783869
 30
0.0
 11
749.9999999999998
 21
-114.9999999998633
 31
0.0
  0
ARC
  5
7D3
330
7AC
100
AcDbEntity
  8
Widoczne (ISO)
100
AcDbCircle
 10
744.9999999999997
 20
-115.0000434783869
 30
0.0
 40
4.999999999999953
100
AcDbArc
 50
270.0
 51
0.0
  0
LINE
  5
7D4
330
7AC
100
AcDbEntity
  8
Widoczne (ISO)
100
AcDbLine
 10
-750.0
 20
-114.9999999998649
 30
0.0
 11
-750.0
 21
-115.0000434783885
 31
0.0
  0
ARC
  5
7D5
330
7AC
100
AcDbEntity
  8
Widoczne (ISO)
100
AcDbCircle
 10
-745.0000000000002
 20
-115.0000434783885
 30
0.0
 40
5.0
100
AcDbArc
 50
180.0
 51
270.0
  0
LINE
  5
7D6
330
7AC
100
AcDbEntity
  8
Widoczne (ISO)
100
AcDbLine
 10
744.9999999999997
 20
-120.0000434783806
 30
0.0
 11
-745.0000000000002
 21
-120.0000434783822
 31
0.0
  0
ELLIPSE
  5
7D7
330
7AC
100
AcDbEntity
  8
Widoczne (ISO)
100
AcDbEllipse
 10
-588.6912664470774
 20
72.99994041821105
 30
0.0
 11
-9.999999999999966
 21
0.0000000000000019
 31
0.0
210
0.0
220
0.0
230
1.0
 40
0.00001
 41
4.714604388621099
 42
6.287616084343648
  0
LINE
  5
7D8
330
7AC
100
AcDbEntity
  8
Widoczne (ISO)
100
AcDbLine
 10
-598.6912664470771
 20
72.99994041821105
 30
0.0
 11
-598.6912664470771
 21
-0.0000000000118234
 31
0.0
  0
LINE
  5
7D9
330
7AC
100
AcDbEntity
  8
Widoczne (ISO)
100
AcDbLine
 10
-598.6912664470771
 20
-120.0000434783849
 30
0.0
 11
-598.6912664470769
 21
-144.9999999998238
 31
0.0
  0
LINE
  5
7DA
330
7AC
100
AcDbEntity
  8
Widoczne (ISO)
100
AcDbLine
 10
-560.0009048137543
 20
72.99995652136795
 30
0.0
 11
-560.0009048137542
 21
-0.0000000000086402
 31
0.0
  0
LINE
  5
7DB
330
7AC
100
AcDbEntity
  8
Widoczne (ISO)
100
AcDbLine
 10
-560.0009048137541
 20
-120.0000434783819
 30
0.0
 11
-560.000904813754
 21
-144.9999999998208
 31
0.0
  0
LINE
  5
7DC
330
7AC
100
AcDbEntity
  8
Widoczne (ISO)
100
AcDbLine
 10
-588.6912664470774
 20
72.99995652136795
 30
0.0
 11
-560.0009048137543
 21
72.99995652136795
 31
0.0
  0
ELLIPSE
  5
7DD
330
7AC
100
AcDbEntity
  8
Widoczne (ISO)
100
AcDbEllipse
 10
-579.9999999999994
 20
135.5049671107172
 30
0.0
 11
-12.325
 21
-0.0000000000000061
 31
0.0
210
0.0
220
0.0
230
1.0
 40
0.2588190451027996
 41
2.815801373838886
 42
6.608976586930484
  0
ELLIPSE
  5
7DE
330
7AC
100
AcDbEntity
  8
Widoczne (ISO)
100
AcDbEllipse
 10
-579.9999999999994
 20
136.3761367744425
 30
0.0
 11
-12.32499999999999
 21
-0.0000000000000026
 31
0.0
210
0.0
220
0.0
230
1.0
 40
0.2588190451027996
 41
3.141592653589809
 42
6.283185307179603
  0
ARC
  5
7DF
330
7AC
100
AcDbEntity
  8
Widoczne (ISO)
100
AcDbCircle
 10
-579.9999999999993
 20
149.7252316937565
 30
0.0
 40
19.20000000000004
100
AcDbArc
 50
232.5434018276655
 51
307.4565981723345
  0
LINE
  5
7E0
330
7AC
100
AcDbEntity
  8
Widoczne (ISO)
100
AcDbLine
 10
-592.3249999999992
 20
135.5049671107172
 30
0.0
 11
-592.3249999999992
 21
136.3761367744425
 31
0.0
  0
LINE
  5
7E1
330
7AC
100
AcDbEntity
  8
Widoczne (ISO)
100
AcDbLine
 10
-567.6749999999993
 20
135.5049671107172
 30
0.0
 11
-567.6749999999993
 21
136.3761367744425
 31
0.0
  0
CIRCLE
  5
7E2
330
7AC
100
AcDbEntity
  8
Widoczne (ISO)
100
AcDbCircle
 10
-579.9999999999991
 20
-204.9999824442457
 30
0.0
 40
12.32499999999553
  0
CIRCLE
  5
7E3
330
7AC
100
AcDbEntity
  8
Widoczne (ISO)
100
AcDbCircle
 10
580.0000000000011
 20
-204.9999824442445
 30
0.0
 40
12.32499999999553
  0
CIRCLE
  5
7E4
330
7AC
100
AcDbEntity
  8
Widoczne (ISO)
100
AcDbCircle
 10
-579.9999999999994
 20
-59.99998244443372
 30
0.0
 40
12.32499999999553
  0
CIRCLE
  5
7E5
330
7AC
100
AcDbEntity
  8
Widoczne (ISO)
100
AcDbCircle
 10
580.0000000000006
 20
-59.99998244443259
 30
0.0
 40
12.32499999999553
  0
ELLIPSE
  5
7E6
330
7AC
100
AcDbEntity
  8
Widoczne (ISO)
100
AcDbEllipse
 10
580.0000000000002
 20
135.5049671107183
 30
0.0
 11
-12.325
 21
-0.0000000000000217
 31
0.0
210
0.0
220
0.0
230
1.0
 40
0.2588190451027998
 41
2.8158013738388
 42
6.60897658693048
  0
ELLIPSE
  5
7E7
330
7AC
100
AcDbEntity
  8
Widoczne (ISO)
100
AcDbEllipse
 10
580.0000000000002
 20
136.3761367744439
 30
0.0
 11
-12.325
 21
-0.000000000000022
 31
0.0
210
0.0
220
0.0
230
1.0
 40
0.2588190451027998
 41
3.141592653589787
 42
6.28318530717958
  0
ARC
  5
7E8
330
7AC
100
AcDbEntity
  8
Widoczne (ISO)
100
AcDbCircle
 10
580.0000000000002
 20
149.7252316937579
 30
0.0
 40
19.2
100
AcDbArc
 50
232.5434018276655
 51
307.4565981723345
  0
LINE
  5
7E9
330
7AC
100
AcDbEntity
  8
Widoczne (ISO)
100
AcDbLine
 10
567.6750000000004
 20
135.5049671107183
 30
0.0
 11
567.6750000000004
 21
136.3761367744439
 31
0.0
  0
LINE
  5
7EA
330
7AC
100
AcDbEntity
  8
Widoczne (ISO)
100
AcDbLine
 10
592.325
 20
135.5049671107187
 30
0.0
 11
592.325
 21
136.3761367744439
 31
0.0
  0
LINE
  5
7EB
330
7AC
100
AcDbEntity
  8
Widoczne (ISO)
100
AcDbLine
 10
-560.69126644708
 20
187.644535053299
 30
0.0
 11
-560.69126644708
 21
258.3973570461242
 31
0.0
  0
LINE
  5
7EC
330
7AC
100
AcDbEntity
  8
Widoczne (ISO)
100
AcDbLine
 10
-600.6912664470799
 20
258.3973570461244
 30
0.0
 11
-600.6912664470799
 21
187.644535053299
 31
0.0
  0
SPLINE
  5
7ED
330
7AC
100
AcDbEntity
  8
Widoczne (ISO)
100
AcDbSpline
210
0.0
220
0.0
230
1.0
 70
     8
 71
     3
 72
    18
 73
    14
 74
     0
 42
0.0000000001
 43
0.0000000001
 40
-0.2617993877991563
 40
-0.2617993877991563
 40
-0.2617993877991563
 40
-0.2617993877991563
 40
-0.2094395102393251
 40
-0.2094395102393251
 40
-0.1570796326794938
 40
-0.1570796326794938
 40
-0.1132770153412296
 40
-0.1132770153412296
 40
-0.0703677758757564
 40
-0.0703677758757564
 40
-0.0194798085298114
 40
-0.0194798085298114
 40
0.0
 40
0.0
 40
0.0
 40
0.0
 10
-563.7253406207908
 20
261.4314312198353
 30
0.0
 10
-563.5185203443012
 20
261.4314312198353
 30
0.0
 10
-563.2703264826139
 20
261.4121864064805
 30
0.0
 10
-562.69126905595
 20
261.2664248861695
 30
0.0
 10
-562.3578897295645
 20
261.1348669208733
 30
0.0
 10
-561.7682638135433
 20
260.7408828273512
 30
0.0
 10
-561.5137624875874
 20
260.5034992869034
 30
0.0
 10
-561.117596997636
 20
259.9848687842696
 30
0.0
 10
-560.9742997040735
 20
259.7089537310792
 30
0.0
 10
-560.7675790346148
 20
259.1495486250451
 30
0.0
 10
-560.7200088384911
 20
258.875517258371
 30
0.0
 10
-560.6941270764168
 20
258.5566818304144
 30
0.0
 10
-560.6912664470798
 20
258.4743018285387
 30
0.0
 10
-560.6912664470798
 20
258.3973570461242
 30
0.0
  0
SPLINE
  5
7EE
330
7AC
100
AcDbEntity
  8
Widoczne (ISO)
100
AcDbSpline
210
0.0
220
0.0
230
1.0
 70
     8
 71
     3
 72
    18
 73
    14
 74
     0
 42
0.0000000001
 43
0.0000000001
 40
-0.2617993877991555
 40
-0.2617993877991555
 40
-0.2617993877991555
 40
-0.2617993877991555
 40
-0.2094395102393244
 40
-0.2094395102393244
 40
-0.1570796326794932
 40
-0.1570796326794932
 40
-0.1132770153412295
 40
-0.1132770153412295
 40
-0.0703677758757566
 40
-0.0703677758757566
 40
-0.0194798085298115
 40
-0.0194798085298115
 40
0.0000000000000002
 40
0.0000000000000002
 40
0.0000000000000002
 40
0.0000000000000002
 10
-597.6571922733691
 20
261.4314312198353
 30
0.0
 10
-597.8640125498584
 20
261.4314312198353
 30
0.0
 10
-598.1122064115457
 20
261.4121864064805
 30
0.0
 10
-598.6912638382099
 20
261.2664248861697
 30
0.0
 10
-599.0246431645955
 20
261.1348669208735
 30
0.0
 10
-599.6142690806166
 20
260.7408828273515
 30
0.0
 10
-599.8687704065723
 20
260.5034992869034
 30
0.0
 10
-600.2649358965237
 20
259.9848687842696
 30
0.0
 10
-600.4082331900864
 20
259.7089537310792
 30
0.0
 10
-600.6149538595447
 20
259.1495486250451
 30
0.0
 10
-600.6625240556688
 20
258.8755172583713
 30
0.0
 10
-600.6884058177432
 20
258.5566818304144
 30
0.0
 10
-600.6912664470799
 20
258.474301828539
 30
0.0
 10
-600.6912664470799
 20
258.3973570461244
 30
0.0
  0
LINE
  5
7EF
102
{ACAD_REACTORS
330
5E8
102
}
330
7AC
100
AcDbEntity
  8
Widoczne (ISO)
100
AcDbLine
 10
-597.657192273369
 20
261.4314312198353
 30
0.0
 11
-563.7253406207908
 21
261.4314312198353
 31
0.0
  0
LINE
  5
7F0
330
7AC
100
AcDbEntity
  8
Widoczne (ISO)
100
AcDbLine
 10
600.6912664470762
 20
187.6445350533004
 30
0.0
 11
600.6912664470762
 21
258.3973570461199
 31
0.0
  0
LINE
  5
7F1
330
7AC
100
AcDbEntity
  8
Widoczne (ISO)
100
AcDbLine
 10
560.6912664470762
 20
258.3973570461199
 30
0.0
 11
560.6912664470762
 21
187.6445350533004
 31
0.0
  0
SPLINE
  5
7F2
330
7AC
100
AcDbEntity
  8
Widoczne (ISO)
100
AcDbSpline
210
0.0
220
0.0
230
1.0
 70
     8
 71
     3
 72
    18
 73
    14
 74
     0
 42
0.0000000001
 43
0.0000000001
 40
-0.2617993877991476
 40
-0.2617993877991476
 40
-0.2617993877991476
 40
-0.2617993877991476
 40
-0.2094395102393181
 40
-0.2094395102393181
 40
-0.1570796326794886
 40
-0.1570796326794886
 40
-0.1132770153412259
 40
-0.1132770153412259
 40
-0.0703677758757542
 40
-0.0703677758757542
 40
-0.0194798085298111
 40
-0.0194798085298111
 40
0.0
 40
0.0
 40
0.0
 40
0.0
 10
597.6571922733653
 20
261.431431219831
 30
0.0
 10
597.8640125498547
 20
261.431431219831
 30
0.0
 10
598.1122064115417
 20
261.4121864064764
 30
0.0
 10
598.6912638382057
 20
261.2664248861652
 30
0.0
 10
599.0246431645917
 20
261.1348669208689
 30
0.0
 10
599.6142690806125
 20
260.7408828273469
 30
0.0
 10
599.8687704065685
 20
260.5034992868993
 30
0.0
 10
600.2649358965197
 20
259.9848687842652
 30
0.0
 10
600.4082331900824
 20
259.7089537310749
 30
0.0
 10
600.6149538595411
 20
259.1495486250408
 30
0.0
 10
600.6625240556648
 20
258.8755172583669
 30
0.0
 10
600.6884058177391
 20
258.5566818304101
 30
0.0
 10
600.6912664470762
 20
258.4743018285347
 30
0.0
 10
600.6912664470762
 20
258.3973570461199
 30
0.0
  0
SPLINE
  5
7F3
330
7AC
100
AcDbEntity
  8
Widoczne (ISO)
100
AcDbSpline
210
0.0
220
0.0
230
1.0
 70
     8
 71
     3
 72
    18
 73
    14
 74
     0
 42
0.0000000001
 43
0.0000000001
 40
-0.2617993877991473
 40
-0.2617993877991473
 40
-0.2617993877991473
 40
-0.2617993877991473
 40
-0.2094395102393177
 40
-0.2094395102393177
 40
-0.1570796326794883
 40
-0.1570796326794883
 40
-0.1132770153412259
 40
-0.1132770153412259
 40
-0.0703677758757544
 40
-0.0703677758757544
 40
-0.0194798085298112
 40
-0.0194798085298112
 40
0.0000000000000002
 40
0.0000000000000002
 40
0.0000000000000002
 40
0.0000000000000002
 10
563.7253406207872
 20
261.431431219831
 30
0.0
 10
563.5185203442977
 20
261.431431219831
 30
0.0
 10
563.2703264826102
 20
261.4121864064764
 30
0.0
 10
562.6912690559463
 20
261.2664248861652
 30
0.0
 10
562.3578897295608
 20
261.1348669208692
 30
0.0
 10
561.7682638135395
 20
260.7408828273469
 30
0.0
 10
561.513762487584
 20
260.5034992868993
 30
0.0
 10
561.1175969976322
 20
259.9848687842652
 30
0.0
 10
560.9742997040696
 20
259.7089537310746
 30
0.0
 10
560.7675790346113
 20
259.1495486250408
 30
0.0
 10
560.7200088384872
 20
258.8755172583667
 30
0.0
 10
560.694127076413
 20
258.5566818304101
 30
0.0
 10
560.6912664470762
 20
258.4743018285347
 30
0.0
 10
560.6912664470762
 20
258.3973570461199
 30
0.0
  0
LINE
  5
7F4
330
7AC
100
AcDbEntity
  8
Widoczne (ISO)
100
AcDbLine
 10
563.7253406207872
 20
261.431431219831
 30
0.0
 11
597.6571922733653
 21
261.431431219831
 31
0.0
  0
ENDBLK
  5
7AE
330
7AC
100
AcDbEntity
  8
0
100
AcDbBlockEnd
  0
ENDSEC
  0
SECTION
  2
ENTITIES
  0
LINE
  5
152
330
6C
100
AcDbEntity
  8
Widoczne (ISO)
100
AcDbLine
 10
2074.706043613995
 20
2664.407475395407
 30
0.0
 11
2084.706043613996
 21
2664.407475395407
 31
0.0
  0
LINE
  5
153
330
6C
100
AcDbEntity
  8
Widoczne (ISO)
100
AcDbLine
 10
2184.706043613995
 20
2664.407475395407
 30
0.0
 11
2194.706043613995
 21
2664.407475395407
 31
0.0
  0
LINE
  5
154
330
6C
100
AcDbEntity
  8
Widoczne (ISO)
100
AcDbLine
 10
2074.706043613995
 20
2664.407475395407
 30
0.0
 11
2074.706043613995
 21
2656.407475395408
 31
0.0
  0
LINE
  5
155
330
6C
100
AcDbEntity
  8
Widoczne (ISO)
100
AcDbLine
 10
2080.989925795411
 20
2656.407475395408
 30
0.0
 11
2075.422161432581
 21
2656.407475395408
 31
0.0
  0
LINE
  5
156
330
6C
100
AcDbEntity
  8
Widoczne (ISO)
100
AcDbLine
 10
2193.989925795411
 20
2656.407475395408
 30
0.0
 11
2188.422161432578
 21
2656.407475395408
 31
0.0
  0
LINE
  5
157
330
6C
100
AcDbEntity
  8
Widoczne (ISO)
100
AcDbLine
 10
2194.706043613995
 20
2656.407475395408
 30
0.0
 11
2194.706043613995
 21
2664.407475395407
 31
0.0
  0
LINE
  5
158
330
6C
100
AcDbEntity
  8
Widoczne (ISO)
100
AcDbLine
 10
2184.706043613995
 20
2664.407475395407
 30
0.0
 11
2084.706043613996
 21
2664.407475395407
 31
0.0
  0
LINE
  5
159
330
6C
100
AcDbEntity
  8
Widoczne (ISO)
100
AcDbLine
 10
913.3235107198407
 20
2664.40747539541
 30
0.0
 11
923.3235107198407
 21
2664.40747539541
 31
0.0
  0
LINE
  5
15A
330
6C
100
AcDbEntity
  8
Widoczne (ISO)
100
AcDbLine
 10
1023.32351071984
 20
2664.40747539541
 30
0.0
 11
1033.32351071984
 21
2664.40747539541
 31
0.0
  0
LINE
  5
15B
330
6C
100
AcDbEntity
  8
Widoczne (ISO)
100
AcDbLine
 10
913.3235107198407
 20
2664.40747539541
 30
0.0
 11
913.3235107198407
 21
2656.40747539541
 31
0.0
  0
LINE
  5
15C
330
6C
100
AcDbEntity
  8
Widoczne (ISO)
100
AcDbLine
 10
919.6073929012552
 20
2656.40747539541
 30
0.0
 11
914.0396285384255
 21
2656.40747539541
 31
0.0
  0
LINE
  5
15D
330
6C
100
AcDbEntity
  8
Widoczne (ISO)
100
AcDbLine
 10
1032.607392901252
 20
2656.40747539541
 30
0.0
 11
1027.039628538432
 21
2656.40747539541
 31
0.0
  0
LINE
  5
15E
330
6C
100
AcDbEntity
  8
Widoczne (ISO)
100
AcDbLine
 10
1033.32351071984
 20
2656.40747539541
 30
0.0
 11
1033.32351071984
 21
2664.40747539541
 31
0.0
  0
LINE
  5
15F
330
6C
100
AcDbEntity
  8
Widoczne (ISO)
100
AcDbLine
 10
1023.32351071984
 20
2664.40747539541
 30
0.0
 11
923.3235107198407
 21
2664.40747539541
 31
0.0
  0
LINE
  5
160
330
6C
100
AcDbEntity
  8
Widoczne (ISO)
100
AcDbLine
 10
2114.706043613999
 20
3601.355526895799
 30
0.0
 11
2114.706043613999
 21
3336.407702243049
 31
0.0
  0
LINE
  5
161
330
6C
100
AcDbEntity
  8
Widoczne (ISO)
100
AcDbLine
 10
2114.706043613998
 20
3294.407174059639
 30
0.0
 11
2114.706043613996
 21
2864.507475395409
 31
0.0
  0
LINE
  5
162
330
6C
100
AcDbEntity
  8
Widoczne (ISO)
100
AcDbLine
 10
2114.706043613996
 20
2864.407475395408
 30
0.0
 11
2114.706043613995
 21
2664.407475395407
 31
0.0
  0
LINE
  5
163
330
6C
100
AcDbEntity
  8
Widoczne (ISO)
100
AcDbLine
 10
2154.706043613995
 20
2664.407475395407
 30
0.0
 11
2154.706043613996
 21
2864.407475395408
 31
0.0
  0
LINE
  5
164
330
6C
100
AcDbEntity
  8
Widoczne (ISO)
100
AcDbLine
 10
2154.706043613996
 20
2864.507475395409
 30
0.0
 11
2154.706043613998
 21
3299.40752510839
 31
0.0
  0
LINE
  5
165
330
6C
100
AcDbEntity
  8
Widoczne (ISO)
100
AcDbLine
 10
2154.706043613998
 20
3336.407702243049
 30
0.0
 11
2154.706043614
 21
3601.355526895799
 31
0.0
  0
LINE
  5
166
330
6C
100
AcDbEntity
  8
Widoczne (ISO)
100
AcDbLine
 10
953.3235107198452
 20
3601.355526895803
 30
0.0
 11
953.3235107198438
 21
3336.407702243052
 31
0.0
  0
LINE
  5
167
102
{ACAD_REACTORS
330
528
102
}
330
6C
100
AcDbEntity
  8
Widoczne (ISO)
100
AcDbLine
 10
953.3235107198436
 20
3299.407525108394
 30
0.0
 11
953.3235107198414
 21
2864.507475395409
 31
0.0
  0
LINE
  5
168
102
{ACAD_REACTORS
330
528
102
}
330
6C
100
AcDbEntity
  8
Widoczne (ISO)
100
AcDbLine
 10
953.3235107198413
 20
2864.407475395408
 30
0.0
 11
953.3235107198404
 21
2664.40747539541
 31
0.0
  0
LINE
  5
169
330
6C
100
AcDbEntity
  8
Widoczne (ISO)
100
AcDbLine
 10
993.3235107198402
 20
2664.40747539541
 30
0.0
 11
993.3235107198413
 21
2864.407475395408
 31
0.0
  0
LINE
  5
16A
330
6C
100
AcDbEntity
  8
Widoczne (ISO)
100
AcDbLine
 10
993.3235107198413
 20
2864.507475395409
 30
0.0
 11
993.3235107198434
 21
3294.407174059642
 31
0.0
  0
LINE
  5
16B
330
6C
100
AcDbEntity
  8
Widoczne (ISO)
100
AcDbLine
 10
993.3235107198438
 20
3336.407702243052
 30
0.0
 11
993.323510719845
 21
3601.355526895802
 31
0.0
  0
ARC
  5
16C
330
6C
100
AcDbEntity
  8
Widoczne (ISO)
100
AcDbCircle
 10
2142.706043613998
 20
3287.407686140385
 30
0.0
 40
9.999999999999971
100
AcDbArc
 50
0.0
 51
90.0
  0
ARC
  5
16D
330
6C
100
AcDbEntity
  8
Widoczne (ISO)
100
AcDbCircle
 10
2142.706043613998
 20
3287.407686140385
 30
0.0
 40
4.999999999999984
100
AcDbArc
 50
0.0
 51
90.0
  0
LINE
  5
16E
330
6C
100
AcDbEntity
  8
Widoczne (ISO)
100
AcDbLine
 10
2134.015681980674
 20
3297.407686140372
 30
0.0
 11
2142.706043613998
 21
3297.407686140372
 31
0.0
  0
LINE
  5
16F
330
6C
100
AcDbEntity
  8
Widoczne (ISO)
100
AcDbLine
 10
2134.015681980674
 20
3292.407686140379
 30
0.0
 11
2142.706043613998
 21
3292.407686140379
 31
0.0
  0
ELLIPSE
  5
170
330
6C
100
AcDbEntity
  8
Widoczne (ISO)
100
AcDbEllipse
 10
2134.015681980674
 20
3297.407653934064
 30
0.0
 11
-19.99999999999992
 21
0.0000000000000572
 31
0.0
210
0.0
220
0.0
230
1.0
 40
0.00001
 41
4.711311711181757
 42
6.281030770765688
  0
LINE
  5
171
330
6C
100
AcDbEntity
  8
Widoczne (ISO)
100
AcDbLine
 10
2114.015681980675
 20
3292.407174059639
 30
0.0
 11
2114.015681980675
 21
3292.40765393407
 31
0.0
  0
LINE
  5
172
330
6C
100
AcDbEntity
  8
Widoczne (ISO)
100
AcDbLine
 10
2114.015681980675
 20
3297.407653934064
 30
0.0
 11
2114.015681980675
 21
3292.40765393407
 31
0.0
  0
ELLIPSE
  5
173
330
6C
100
AcDbEntity
  8
Widoczne (ISO)
100
AcDbEllipse
 10
2134.015681980674
 20
3292.40765393407
 30
0.0
 11
-19.99999999999992
 21
0.0000000000000572
 31
0.0
210
0.0
220
0.0
230
1.0
 40
0.00001
 41
4.711311711181757
 42
6.281030770765688
  0
LINE
  5
174
330
6C
100
AcDbEntity
  8
Widoczne (ISO)
100
AcDbLine
 10
2124.014777166914
 20
3292.407174059639
 30
0.0
 11
2114.015681980675
 21
3292.407174059639
 31
0.0
  0
LINE
  5
175
330
6C
100
AcDbEntity
  8
Widoczne (ISO)
100
AcDbLine
 10
2152.706043613997
 20
3219.792427387908
 30
0.0
 11
2147.706043613997
 21
3219.792427387908
 31
0.0
  0
LINE
  5
176
330
6C
100
AcDbEntity
  8
Widoczne (ISO)
100
AcDbLine
 10
2147.706043613997
 20
3261.749367001845
 30
0.0
 11
2147.706043613997
 21
3219.792427387908
 31
0.0
  0
LINE
  5
177
330
6C
100
AcDbEntity
  8
Widoczne (ISO)
100
AcDbLine
 10
2152.706043613997
 20
3261.749367001845
 30
0.0
 11
2152.706043613997
 21
3219.792427387908
 31
0.0
  0
LINE
  5
178
330
6C
100
AcDbEntity
  8
Widoczne (ISO)
100
AcDbLine
 10
2147.706043613997
 20
3267.407601220602
 30
0.0
 11
2147.706043613997
 21
3261.749367001845
 31
0.0
  0
LINE
  5
179
330
6C
100
AcDbEntity
  8
Widoczne (ISO)
100
AcDbLine
 10
2152.706043613997
 20
3267.407601220602
 30
0.0
 11
2152.706043613997
 21
3261.749367001845
 31
0.0
  0
LINE
  5
17A
330
6C
100
AcDbEntity
  8
Widoczne (ISO)
100
AcDbLine
 10
2152.706043613997
 20
3267.407601220602
 30
0.0
 11
2147.706043613997
 21
3267.407601220602
 31
0.0
  0
LINE
  5
17B
330
6C
100
AcDbEntity
  8
Widoczne (ISO)
100
AcDbLine
 10
2147.706043613997
 20
3267.407601220601
 30
0.0
 11
2147.706043613997
 21
3286.159831917036
 31
0.0
  0
LINE
  5
17C
330
6C
100
AcDbEntity
  8
Widoczne (ISO)
100
AcDbLine
 10
2152.706043613997
 20
3267.407601220601
 30
0.0
 11
2152.706043613997
 21
3286.159831917036
 31
0.0
  0
LINE
  5
17D
330
6C
100
AcDbEntity
  8
Widoczne (ISO)
100
AcDbLine
 10
2147.706043613997
 20
3286.530781326633
 30
0.0
 11
2147.706043613997
 21
3286.159831917036
 31
0.0
  0
LINE
  5
17E
330
6C
100
AcDbEntity
  8
Widoczne (ISO)
100
AcDbLine
 10
2152.706043613997
 20
3286.530781326633
 30
0.0
 11
2152.706043613997
 21
3286.159831917036
 31
0.0
  0
LINE
  5
17F
330
6C
100
AcDbEntity
  8
Widoczne (ISO)
100
AcDbLine
 10
2152.706043613997
 20
3286.530781326633
 30
0.0
 11
2147.706043613997
 21
3286.530781326633
 31
0.0
  0
LINE
  5
180
330
6C
100
AcDbEntity
  8
Widoczne (ISO)
100
AcDbLine
 10
2147.706043613997
 20
3287.407686140385
 30
0.0
 11
2147.706043613997
 21
3286.530781326633
 31
0.0
  0
LINE
  5
181
330
6C
100
AcDbEntity
  8
Widoczne (ISO)
100
AcDbLine
 10
2152.706043613997
 20
3287.407686140385
 30
0.0
 11
2152.706043613997
 21
3286.530781326633
 31
0.0
  0
LINE
  5
182
330
6C
100
AcDbEntity
  8
Widoczne (ISO)
100
AcDbLine
 10
804.014777166922
 20
3719.425111136815
 30
0.0
 11
804.0147771669216
 21
3613.173270245017
 31
0.0
  0
LINE
  5
183
330
6C
100
AcDbEntity
  8
Widoczne (ISO)
100
AcDbLine
 10
2304.014777166922
 20
3613.173270245013
 30
0.0
 11
2304.014777166922
 21
3719.425111136811
 31
0.0
  0
SPLINE
  5
184
330
6C
100
AcDbEntity
  8
Widoczne (ISO)
100
AcDbSpline
210
0.0
220
0.0
230
1.0
 70
     8
 71
     3
 72
    18
 73
    14
 74
     0
 42
0.0000000001
 43
0.0000000001
 40
0.0000000000000002
 40
0.0000000000000002
 40
0.0000000000000002
 40
0.0000000000000002
 40
0.052359877559829
 40
0.052359877559829
 40
0.1047197551196576
 40
0.1047197551196576
 40
0.1488159801463116
 40
0.1488159801463116
 40
0.1920453471665093
 40
0.1920453471665093
 40
0.2432393132166103
 40
0.2432393132166103
 40
0.2617993877991437
 40
0.2617993877991437
 40
0.2617993877991437
 40
0.2617993877991437
 10
2304.014777166922
 20
3719.425111136811
 30
0.0
 10
2304.014777166922
 20
3719.784869079306
 30
0.0
 10
2303.981179043025
 20
3720.21211147006
 30
0.0
 10
2303.732153610816
 20
3721.201398804888
 30
0.0
 10
2303.508324206033
 20
3721.767636681613
 30
0.0
 10
2302.838476490923
 20
3722.770112616836
 30
0.0
 10
2302.433269705057
 20
3723.203494370868
 30
0.0
 10
2301.547426857379
 20
3723.877093613416
 30
0.0
 10
2301.075900665443
 20
3724.120042637576
 30
0.0
 10
2300.119204370528
 20
3724.469392265438
 30
0.0
 10
2299.649617858378
 20
3724.549182729509
 30
0.0
 10
2299.107488612604
 20
3724.590957575767
 30
0.0
 10
2298.971930168849
 20
3724.595482005366
 30
0.0
 10
2298.844406298367
 20
3724.595482005366
 30
0.0
  0
SPLINE
  5
185
330
6C
100
AcDbEntity
  8
Widoczne (ISO)
100
AcDbSpline
210
0.0
220
0.0
230
1.0
 70
     8
 71
     3
 72
    18
 73
    14
 74
     0
 42
0.0000000001
 43
0.0000000001
 40
0.0000000000000002
 40
0.0000000000000002
 40
0.0000000000000002
 40
0.0000000000000002
 40
0.0523598775598284
 40
0.0523598775598284
 40
0.1047197551196566
 40
0.1047197551196566
 40
0.1488159801463109
 40
0.1488159801463109
 40
0.192045347166509
 40
0.192045347166509
 40
0.2432393132166105
 40
0.2432393132166105
 40
0.2617993877991411
 40
0.2617993877991411
 40
0.2617993877991411
 40
0.2617993877991411
 10
804.014777166922
 20
3719.425111136814
 30
0.0
 10
804.014777166922
 20
3719.78486907931
 30
0.0
 10
804.0483752908189
 20
3720.212111470064
 30
0.0
 10
804.2974007230283
 20
3721.201398804892
 30
0.0
 10
804.5212301278104
 20
3721.767636681617
 30
0.0
 10
805.1910778429204
 20
3722.77011261684
 30
0.0
 10
805.5962846287867
 20
3723.203494370871
 30
0.0
 10
806.4821274764641
 20
3723.87709361342
 30
0.0
 10
806.9536536684008
 20
3724.12004263758
 30
0.0
 10
807.9103499633164
 20
3724.469392265441
 30
0.0
 10
808.3799364754655
 20
3724.549182729513
 30
0.0
 10
808.9220657212401
 20
3724.590957575772
 30
0.0
 10
809.0576241649952
 20
3724.59548200537
 30
0.0
 10
809.1851480354767
 20
3724.59548200537
 30
0.0
  0
LINE
  5
186
102
{ACAD_REACTORS
330
5A6
102
}
330
6C
100
AcDbEntity
  8
Widoczne (ISO)
100
AcDbLine
 10
2298.844406298367
 20
3724.595482005366
 30
0.0
 11
809.1851480354765
 21
3724.59548200537
 31
0.0
  0
LINE
  5
187
330
6C
100
AcDbEntity
  8
Widoczne (ISO)
100
AcDbLine
 10
809.0147771669215
 20
3601.355526895804
 30
0.0
 11
2299.014777166922
 21
3601.3555268958
 31
0.0
  0
LINE
  5
188
330
6C
100
AcDbEntity
  8
Widoczne (ISO)
100
AcDbLine
 10
804.0147771669216
 20
3613.173270245017
 30
0.0
 11
804.0147771669216
 21
3606.185156027249
 31
0.0
  0
ELLIPSE
  5
189
330
6C
100
AcDbEntity
  8
Widoczne (ISO)
100
AcDbEllipse
 10
809.0147771669215
 20
3606.185156027249
 30
0.0
 11
-5.0
 21
0.0000000000000564
 31
0.0
210
0.0
220
0.0
230
1.0
 40
0.9659258262890693
 41
0.000000000000012
 42
1.570796326794934
  0
ELLIPSE
  5
18A
330
6C
100
AcDbEntity
  8
Widoczne (ISO)
100
AcDbEllipse
 10
2299.014777166922
 20
3606.185156027245
 30
0.0
 11
4.999999999999953
 21
-0.0000000000000135
 31
0.0
210
0.0
220
0.0
230
1.0
 40
0.9659258262890697
 41
4.712388980384692
 42
6.283185307179588
  0
LINE
  5
18B
330
6C
100
AcDbEntity
  8
Widoczne (ISO)
100
AcDbLine
 10
2304.014777166922
 20
3606.185156027245
 30
0.0
 11
2304.014777166922
 21
3613.173270245013
 31
0.0
  0
LINE
  5
18C
330
6C
100
AcDbEntity
  8
Widoczne (ISO)
100
AcDbLine
 10
2299.014777166922
 20
3297.40752510839
 30
0.0
 11
2142.762794065165
 21
3297.40752510839
 31
0.0
  0
LINE
  5
18D
330
6C
100
AcDbEntity
  8
Widoczne (ISO)
100
AcDbLine
 10
2114.015681980675
 20
3297.40752510839
 30
0.0
 11
994.0138723531676
 21
3297.407525108393
 31
0.0
  0
LINE
  5
18E
330
6C
100
AcDbEntity
  8
Widoczne (ISO)
100
AcDbLine
 10
965.2667602685992
 20
3297.407525108393
 30
0.0
 11
809.0147771669208
 21
3297.407525108393
 31
0.0
  0
LINE
  5
18F
330
6C
100
AcDbEntity
  8
Widoczne (ISO)
100
AcDbLine
 10
2304.014777166921
 20
3297.407533159967
 30
0.0
 11
2304.014777166921
 21
3297.407710294661
 31
0.0
  0
LINE
  5
190
330
6C
100
AcDbEntity
  8
Widoczne (ISO)
100
AcDbLine
 10
804.0147771669213
 20
3297.407710294665
 30
0.0
 11
804.0147771669209
 21
3297.40753315997
 31
0.0
  0
LINE
  5
191
330
6C
100
AcDbEntity
  8
Widoczne (ISO)
100
AcDbLine
 10
2299.014777166922
 20
3297.407718346238
 30
0.0
 11
809.0147771669212
 21
3297.407718346241
 31
0.0
  0
ELLIPSE
  5
192
330
6C
100
AcDbEntity
  8
Widoczne (ISO)
100
AcDbEllipse
 10
2299.014777166922
 20
3297.407533159967
 30
0.0
 11
5.0
 21
-0.0000000000000132
 31
0.0
210
0.0
220
0.0
230
1.0
 40
0.00001
 41
4.709302098654568
 42
6.277011628790901
  0
LINE
  5
193
330
6C
100
AcDbEntity
  8
Widoczne (ISO)
100
AcDbLine
 10
2304.014777166921
 20
3297.407710294661
 30
0.0
 11
2304.014777166921
 21
3324.407710294626
 31
0.0
  0
ELLIPSE
  5
194
330
6C
100
AcDbEntity
  8
Widoczne (ISO)
100
AcDbEllipse
 10
2299.014777166922
 20
3297.407710294661
 30
0.0
 11
4.999999999999953
 21
-0.0000000000000132
 31
0.0
210
0.0
220
0.0
230
1.0
 40
0.00001
 41
0.0003382778419549
 42
1.570796326794896
  0
ELLIPSE
  5
195
330
6C
100
AcDbEntity
  8
Widoczne (ISO)
100
AcDbEllipse
 10
809.014777166921
 20
3297.40753315997
 30
0.0
 11
-4.999999999999953
 21
0.0000000000000132
 31
0.0
210
0.0
220
0.0
230
1.0
 40
0.00001
 41
0.0003382778419549
 42
1.570796326794896
  0
LINE
  5
196
330
6C
100
AcDbEntity
  8
Widoczne (ISO)
100
AcDbLine
 10
804.0147771669213
 20
3324.40771029463
 30
0.0
 11
804.0147771669213
 21
3297.407710294665
 31
0.0
  0
ELLIPSE
  5
197
330
6C
100
AcDbEntity
  8
Widoczne (ISO)
100
AcDbEllipse
 10
809.0147771669212
 20
3297.407710294665
 30
0.0
 11
-5.0
 21
0.0000000000000132
 31
0.0
210
0.0
220
0.0
230
1.0
 40
0.00001
 41
4.709302098654568
 42
6.277011628790901
  0
SPLINE
  5
198
330
6C
100
AcDbEntity
  8
Widoczne (ISO)
100
AcDbSpline
210
0.0
220
0.0
230
1.0
 70
     8
 71
     3
 72
    18
 73
    14
 74
     0
 42
0.0000000001
 43
0.0000000001
 40
0.0000000000000002
 40
0.0000000000000002
 40
0.0000000000000002
 40
0.0000000000000002
 40
0.2862167003959875
 40
0.2862167003959875
 40
0.5781366692729964
 40
0.5781366692729964
 40
0.8857208474088089
 40
0.8857208474088089
 40
1.199880112767788
 40
1.199880112767788
 40
1.514039378126767
 40
1.514039378126767
 40
1.570794716479507
 40
1.570794716479507
 40
1.570794716479507
 40
1.570794716479507
 10
804.0147771669213
 20
3324.40771029463
 30
0.0
 10
804.0147771669213
 20
3325.361765962616
 30
0.0
 10
804.1522349551803
 20
3326.315715459943
 30
0.0
 10
804.6963098321251
 20
3328.164440491113
 30
0.0
 10
805.1082082065819
 20
3329.057428683855
 30
0.0
 10
806.2002349533154
 20
3330.731009242463
 30
0.0
 10
806.8935174850045
 20
3331.502696524874
 30
0.0
 10
808.4983869613175
 20
3332.81401761993
 30
0.0
 10
809.4141044250662
 20
3333.34808816659
 30
0.0
 10
811.3660731158656
 20
3334.107239970447
 30
0.0
 10
812.4020089159495
 20
3334.332198565507
 30
0.0
 10
813.6364002213596
 20
3334.402332188362
 30
0.0
 10
813.8255846541705
 20
3334.407702242971
 30
0.0
 10
814.014769115344
 20
3334.407702243054
 30
0.0
  0
SPLINE
  5
199
330
6C
100
AcDbEntity
  8
Widoczne (ISO)
100
AcDbSpline
210
0.0
220
0.0
230
1.0
 70
     8
 71
     3
 72
    18
 73
    14
 74
     0
 42
0.0000000001
 43
0.0000000001
 40
0.0000000000000004
 40
0.0000000000000004
 40
0.0000000000000004
 40
0.0000000000000004
 40
0.2862167003959875
 40
0.2862167003959875
 40
0.5781366692729961
 40
0.5781366692729961
 40
0.8857208474088082
 40
0.8857208474088082
 40
1.199880112767787
 40
1.199880112767787
 40
1.514039378126766
 40
1.514039378126766
 40
1.570794716479511
 40
1.570794716479511
 40
1.570794716479511
 40
1.570794716479511
 10
2304.014777166922
 20
3324.407710294626
 30
0.0
 10
2304.014777166921
 20
3325.361765962612
 30
0.0
 10
2303.877319378663
 20
3326.31571545994
 30
0.0
 10
2303.333244501718
 20
3328.164440491109
 30
0.0
 10
2302.921346127261
 20
3329.057428683851
 30
0.0
 10
2301.829319380528
 20
3330.731009242459
 30
0.0
 10
2301.136036848839
 20
3331.50269652487
 30
0.0
 10
2299.531167372525
 20
3332.814017619926
 30
0.0
 10
2298.615449908777
 20
3333.348088166585
 30
0.0
 10
2296.663481217978
 20
3334.107239970443
 30
0.0
 10
2295.627545417894
 20
3334.332198565503
 30
0.0
 10
2294.393154112484
 20
3334.402332188358
 30
0.0
 10
2294.203969679674
 20
3334.407702243048
 30
0.0
 10
2294.014785218498
 20
3334.407702243048
 30
0.0
  0
LINE
  5
19A
102
{ACAD_REACTORS
330
4AC
102
}
330
6C
100
AcDbEntity
  8
Widoczne (ISO)
100
AcDbLine
 10
814.0147691153444
 20
3334.407702243054
 30
0.0
 11
2294.014785218498
 21
3334.407702243048
 31
0.0
  0
ARC
  5
19B
330
6C
100
AcDbEntity
  8
Widoczne (ISO)
100
AcDbCircle
 10
965.3235107198442
 20
3287.407686140389
 30
0.0
 40
9.999999999999968
100
AcDbArc
 50
90.0
 51
180.0
  0
ARC
  5
19C
330
6C
100
AcDbEntity
  8
Widoczne (ISO)
100
AcDbCircle
 10
965.3235107198442
 20
3287.407686140389
 30
0.0
 40
4.999999999999984
100
AcDbArc
 50
90.0
 51
180.0
  0
LINE
  5
19D
330
6C
100
AcDbEntity
  8
Widoczne (ISO)
100
AcDbLine
 10
974.0138723531673
 20
3292.407686140382
 30
0.0
 11
965.3235107198442
 21
3292.407686140382
 31
0.0
  0
LINE
  5
19E
330
6C
100
AcDbEntity
  8
Widoczne (ISO)
100
AcDbLine
 10
974.0138723531673
 20
3297.407686140375
 30
0.0
 11
965.3235107198442
 21
3297.407686140375
 31
0.0
  0
ELLIPSE
  5
19F
330
6C
100
AcDbEntity
  8
Widoczne (ISO)
100
AcDbEllipse
 10
974.0138723531673
 20
3297.407653934067
 30
0.0
 11
19.99999999999992
 21
-0.000000000000069
 31
0.0
210
0.0
220
0.0
230
1.0
 40
0.00001
 41
0.0028111108840919
 42
1.57220188892936
  0
LINE
  5
1A0
330
6C
100
AcDbEntity
  8
Widoczne (ISO)
100
AcDbLine
 10
994.0138723531667
 20
3292.407174059643
 30
0.0
 11
994.0138723531674
 21
3292.407653934074
 31
0.0
  0
LINE
  5
1A1
330
6C
100
AcDbEntity
  8
Widoczne (ISO)
100
AcDbLine
 10
994.0138723531672
 20
3297.407653934067
 30
0.0
 11
994.0138723531672
 21
3292.407653934074
 31
0.0
  0
ELLIPSE
  5
1A2
330
6C
100
AcDbEntity
  8
Widoczne (ISO)
100
AcDbEllipse
 10
974.0138723531673
 20
3292.407653934074
 30
0.0
 11
19.99999999999992
 21
-0.000000000000069
 31
0.0
210
0.0
220
0.0
230
1.0
 40
0.00001
 41
0.0028111108840919
 42
1.57220188892936
  0
LINE
  5
1A3
330
6C
100
AcDbEntity
  8
Widoczne (ISO)
100
AcDbLine
 10
984.0147771669133
 20
3292.407174059643
 30
0.0
 11
994.0138723531667
 21
3292.407174059643
 31
0.0
  0
LINE
  5
1A4
330
6C
100
AcDbEntity
  8
Widoczne (ISO)
100
AcDbLine
 10
955.3235107198432
 20
3219.792427387912
 30
0.0
 11
960.3235107198432
 21
3219.792427387912
 31
0.0
  0
LINE
  5
1A5
330
6C
100
AcDbEntity
  8
Widoczne (ISO)
100
AcDbLine
 10
960.323510719844
 20
3261.749367001848
 30
0.0
 11
960.3235107198434
 21
3219.792427387913
 31
0.0
  0
LINE
  5
1A6
330
6C
100
AcDbEntity
  8
Widoczne (ISO)
100
AcDbLine
 10
955.3235107198439
 20
3261.749367001848
 30
0.0
 11
955.3235107198434
 21
3219.792427387913
 31
0.0
  0
LINE
  5
1A7
330
6C
100
AcDbEntity
  8
Widoczne (ISO)
100
AcDbLine
 10
960.3235107198441
 20
3267.407601220606
 30
0.0
 11
960.323510719844
 21
3261.749367001848
 31
0.0
  0
LINE
  5
1A8
330
6C
100
AcDbEntity
  8
Widoczne (ISO)
100
AcDbLine
 10
955.3235107198442
 20
3267.407601220606
 30
0.0
 11
960.3235107198441
 21
3267.407601220606
 31
0.0
  0
LINE
  5
1A9
330
6C
100
AcDbEntity
  8
Widoczne (ISO)
100
AcDbLine
 10
955.3235107198442
 20
3267.407601220606
 30
0.0
 11
955.3235107198439
 21
3261.749367001848
 31
0.0
  0
LINE
  5
1AA
330
6C
100
AcDbEntity
  8
Widoczne (ISO)
100
AcDbLine
 10
960.3235107198441
 20
3267.407601220604
 30
0.0
 11
960.3235107198443
 21
3286.15983191704
 31
0.0
  0
LINE
  5
1AB
330
6C
100
AcDbEntity
  8
Widoczne (ISO)
100
AcDbLine
 10
955.3235107198442
 20
3267.407601220604
 30
0.0
 11
955.3235107198442
 21
3286.15983191704
 31
0.0
  0
LINE
  5
1AC
330
6C
100
AcDbEntity
  8
Widoczne (ISO)
100
AcDbLine
 10
960.3235107198443
 20
3286.530781326636
 30
0.0
 11
960.3235107198443
 21
3286.15983191704
 31
0.0
  0
LINE
  5
1AD
330
6C
100
AcDbEntity
  8
Widoczne (ISO)
100
AcDbLine
 10
955.3235107198442
 20
3286.530781326636
 30
0.0
 11
960.3235107198443
 21
3286.530781326636
 31
0.0
  0
LINE
  5
1AE
330
6C
100
AcDbEntity
  8
Widoczne (ISO)
100
AcDbLine
 10
955.3235107198442
 20
3286.530781326636
 30
0.0
 11
955.3235107198442
 21
3286.15983191704
 31
0.0
  0
LINE
  5
1AF
330
6C
100
AcDbEntity
  8
Widoczne (ISO)
100
AcDbLine
 10
960.3235107198443
 20
3287.407686140389
 30
0.0
 11
960.3235107198443
 21
3286.530781326636
 31
0.0
  0
LINE
  5
1B0
330
6C
100
AcDbEntity
  8
Widoczne (ISO)
100
AcDbLine
 10
955.3235107198442
 20
3287.407686140389
 30
0.0
 11
955.3235107198442
 21
3286.530781326636
 31
0.0
  0
ELLIPSE
  5
1B1
330
6C
100
AcDbEntity
  8
Widoczne (ISO)
100
AcDbEllipse
 10
974.0147771669217
 20
3669.120810349806
 30
0.0
 11
12.32499999999999
 21
-0.0000000000022503
 31
0.0
210
0.0
220
0.0
230
1.0
 40
0.9659258262890693
 41
0.0
 42
6.283185307179586
  0
ELLIPSE
  5
1B2
330
6C
100
AcDbEntity
  8
Widoczne (ISO)
100
AcDbEllipse
 10
974.0147771669217
 20
3668.887381141941
 30
0.0
 11
12.32499999999999
 21
-0.0000000000001604
 31
0.0
210
0.0
220
0.0
230
1.0
 40
0.9659258262890693
 41
3.141592653589801
 42
6.283185307179594
  0
LINE
  5
1B3
330
6C
100
AcDbEntity
  8
Widoczne (ISO)
100
AcDbLine
 10
986.3397771669218
 20
3669.120810349806
 30
0.0
 11
986.3397771669218
 21
3668.887381141941
 31
0.0
  0
LINE
  5
1B4
330
6C
100
AcDbEntity
  8
Widoczne (ISO)
100
AcDbLine
 10
961.6897771669217
 20
3669.120810349806
 30
0.0
 11
961.6897771669217
 21
3668.887381141941
 31
0.0
  0
ELLIPSE
  5
1B5
330
6C
100
AcDbEntity
  8
Widoczne (ISO)
100
AcDbEllipse
 10
974.0147771669219
 20
3335.309522929219
 30
0.0
 11
12.325
 21
-0.0000000000000358
 31
0.0
210
0.0
220
0.0
230
1.0
 40
0.00001
 41
0.0000000000000303
 42
3.141592653589823
  0
ARC
  5
1B6
330
6C
100
AcDbEntity
  8
Widoczne (ISO)
100
AcDbCircle
 10
974.0147771669221
 20
3320.587621727286
 30
0.0
 40
19.20000000000001
100
AcDbArc
 50
50.06433219887996
 51
129.9356678011216
  0
LINE
  5
1B7
330
6C
100
AcDbEntity
  8
Widoczne (ISO)
100
AcDbLine
 10
986.3397771669221
 20
3335.309522929219
 30
0.0
 11
986.3397771669221
 21
3334.407702243052
 31
0.0
  0
LINE
  5
1B8
330
6C
100
AcDbEntity
  8
Widoczne (ISO)
100
AcDbLine
 10
961.689777166922
 20
3335.309522929219
 30
0.0
 11
961.689777166922
 21
3334.407702243052
 31
0.0
  0
ELLIPSE
  5
1B9
330
6C
100
AcDbEntity
  8
Widoczne (ISO)
100
AcDbEllipse
 10
2134.014777166922
 20
3335.309522929216
 30
0.0
 11
12.325
 21
-0.0000000000000358
 31
0.0
210
0.0
220
0.0
230
1.0
 40
0.00001
 41
0.0000428070332826
 42
3.141635460623075
  0
ARC
  5
1BA
330
6C
100
AcDbEntity
  8
Widoczne (ISO)
100
AcDbCircle
 10
2134.014777166922
 20
3320.587621727284
 30
0.0
 40
19.20000000000001
100
AcDbArc
 50
50.06433219888026
 51
129.9356678011214
  0
LINE
  5
1BB
330
6C
100
AcDbEntity
  8
Widoczne (ISO)
100
AcDbLine
 10
2146.339777166923
 20
3335.309522929216
 30
0.0
 11
2146.339777166923
 21
3334.407702243049
 31
0.0
  0
LINE
  5
1BC
330
6C
100
AcDbEntity
  8
Widoczne (ISO)
100
AcDbLine
 10
2121.689777166922
 20
3335.309522929216
 30
0.0
 11
2121.689777166922
 21
3334.407702243049
 31
0.0
  0
ELLIPSE
  5
1BD
330
6C
100
AcDbEntity
  8
Widoczne (ISO)
100
AcDbEllipse
 10
2134.014777166922
 20
3669.120810349803
 30
0.0
 11
12.32499999999999
 21
-0.0000000000000697
 31
0.0
210
0.0
220
0.0
230
1.0
 40
0.9659258262890697
 41
0.0
 42
6.283185307179586
  0
ELLIPSE
  5
1BE
330
6C
100
AcDbEntity
  8
Widoczne (ISO)
100
AcDbEllipse
 10
2134.014777166922
 20
3668.887381141937
 30
0.0
 11
12.325
 21
-0.0000000000001456
 31
0.0
210
0.0
220
0.0
230
1.0
 40
0.9659258262890697
 41
3.141592653589805
 42
6.283185307179598
  0
LINE
  5
1BF
330
6C
100
AcDbEntity
  8
Widoczne (ISO)
100
AcDbLine
 10
2146.339777166922
 20
3669.120810349803
 30
0.0
 11
2146.339777166922
 21
3668.887381141937
 31
0.0
  0
LINE
  5
1C0
330
6C
100
AcDbEntity
  8
Widoczne (ISO)
100
AcDbLine
 10
2121.689777166921
 20
3669.120810349803
 30
0.0
 11
2121.689777166921
 21
3668.887381141937
 31
0.0
  0
ELLIPSE
  5
1C1
330
6C
100
AcDbEntity
  8
Widoczne (ISO)
100
AcDbEllipse
 10
974.0147771669212
 20
3290.407621727322
 30
0.0
 11
-7.299999999999998
 21
0.0000000000000252
 31
0.0
210
0.0
220
0.0
230
1.0
 40
0.00001
 41
3.141579818352775
 42
6.283166895942477
  0
SPLINE
  5
1C2
330
6C
100
AcDbEntity
  8
Widoczne (ISO)
100
AcDbSpline
210
0.0
220
0.0
230
1.0
 70
    12
 71
     2
 72
     6
 73
     3
 74
     0
 42
0.0000000001
 43
0.0000000001
 40
0.0
 40
0.0
 40
0.0
 40
0.4685677750201958
 40
0.4685677750201958
 40
0.4685677750201958
 10
964.777172859887
 20
3283.122152907146
 30
0.0
 41
1.0
 10
966.0147771669212
 20
3282.407625179192
 30
0.0
 41
1.037954849302033
 10
967.0865739366456
 20
3282.407628168592
 30
0.0
 41
1.0
  0
SPLINE
  5
1C3
330
6C
100
AcDbEntity
  8
Widoczne (ISO)
100
AcDbSpline
210
0.0
220
0.0
230
1.0
 70
    28
 71
     2
 72
     6
 73
     3
 74
     0
 42
0.0000000001
 43
0.0000000001
 40
0.9371328370253904
 40
0.9371328370253904
 40
0.9371328370253904
 40
0.9371355500403888
 40
0.9371355500403888
 40
0.9371355500403888
 10
964.7771877353195
 20
3283.12214431879
 30
0.0
 41
1.000000439515838
 10
964.7771802976095
 20
3283.122148612954
 30
0.0
 41
1.000000219759191
 10
964.777172859887
 20
3283.122152907146
 30
0.0
 41
1.0
  0
ELLIPSE
  5
1C4
330
6C
100
AcDbEntity
  8
Widoczne (ISO)
100
AcDbEllipse
 10
974.0147771669212
 20
3282.40762172733
 30
0.0
 11
-8.000000000000017
 21
0.0000000000000276
 31
0.0
210
0.0
220
0.0
230
1.0
 40
0.00001
 41
5.759586549115907
 42
6.283188120112965
  0
SPLINE
  5
1C5
330
6C
100
AcDbEntity
  8
Widoczne (ISO)
100
AcDbSpline
210
0.0
220
0.0
230
1.0
 70
    12
 71
     2
 72
     6
 73
     3
 74
     0
 42
0.0000000001
 43
0.0000000001
 40
0.0
 40
0.0
 40
0.0
 40
0.4685677750201963
 40
0.4685677750201963
 40
0.4685677750201963
 10
969.3959750134039
 20
3283.122165789669
 30
0.0
 41
1.0
 10
971.8711836274721
 20
3282.407634609853
 30
0.0
 41
1.037954849302013
 10
974.0147771669212
 20
3282.407634609853
 30
0.0
 41
1.0
  0
SPLINE
  5
1C6
330
6C
100
AcDbEntity
  8
Widoczne (ISO)
100
AcDbSpline
210
0.0
220
0.0
230
1.0
 70
    12
 71
     2
 72
     6
 73
     3
 74
     0
 42
0.0000000001
 43
0.0000000001
 40
0.4685677750201958
 40
0.4685677750201958
 40
0.4685677750201958
 40
0.9371355500403913
 40
0.9371355500403913
 40
0.9371355500403913
 10
967.0865739366456
 20
3282.407628168592
 30
0.0
 41
1.0
 10
968.1583707063701
 20
3282.407631157992
 30
0.0
 41
1.037954849302056
 10
969.3959750134041
 20
3283.122165789669
 30
0.0
 41
1.0
  0
ELLIPSE
  5
1C7
330
6C
100
AcDbEntity
  8
Widoczne (ISO)
100
AcDbEllipse
 10
974.0147771669212
 20
3282.40762172733
 30
0.0
 11
-8.000000000000001
 21
0.0000000000000287
 31
0.0
210
0.0
220
0.0
230
1.0
 40
0.00001
 41
4.712388980384689
 42
5.75990682348175
  0
SPLINE
  5
1C8
330
6C
100
AcDbEntity
  8
Widoczne (ISO)
100
AcDbSpline
210
0.0
220
0.0
230
1.0
 70
    12
 71
     2
 72
     6
 73
     3
 74
     0
 42
0.0000000001
 43
0.0000000001
 40
0.4685677750201953
 40
0.4685677750201953
 40
0.4685677750201953
 40
0.93713555004039
 40
0.93713555004039
 40
0.93713555004039
 10
980.9429803971966
 20
3282.407628168592
 30
0.0
 41
1.0
 10
982.014777166921
 20
3282.407625179192
 30
0.0
 41
1.037954849302059
 10
983.2523814739552
 20
3283.122152907146
 30
0.0
 41
1.0
  0
ELLIPSE
  5
1C9
330
6C
100
AcDbEntity
  8
Widoczne (ISO)
100
AcDbEllipse
 10
974.0147771669212
 20
3282.40762172733
 30
0.0
 11
7.999999999999995
 21
-0.0000000000000276
 31
0.0
210
0.0
220
0.0
230
1.0
 40
0.00001
 41
5.927852302314693
 42
6.806865825962882
  0
SPLINE
  5
1CA
330
6C
100
AcDbEntity
  8
Widoczne (ISO)
100
AcDbSpline
210
0.0
220
0.0
230
1.0
 70
    28
 71
     2
 72
     6
 73
     3
 74
     0
 42
0.0000000001
 43
0.0000000001
 40
0.0
 40
0.0
 40
0.0
 40
0.0000027130149933
 40
0.0000027130149933
 40
0.0000027130149933
 10
983.2523814739552
 20
3283.122152907146
 30
0.0
 41
1.0
 10
983.2523740362329
 20
3283.122148612954
 30
0.0
 41
1.000000219759191
 10
983.2523665985227
 20
3283.12214431879
 30
0.0
 41
1.000000439515837
  0
SPLINE
  5
1CB
330
6C
100
AcDbEntity
  8
Widoczne (ISO)
100
AcDbSpline
210
0.0
220
0.0
230
1.0
 70
    12
 71
     2
 72
     6
 73
     3
 74
     0
 42
0.0000000001
 43
0.0000000001
 40
0.4685677750201963
 40
0.4685677750201963
 40
0.4685677750201963
 40
0.9371355500403925
 40
0.9371355500403925
 40
0.9371355500403925
 10
974.0147771669212
 20
3282.407634609853
 30
0.0
 41
1.0
 10
976.1583707063701
 20
3282.407634609853
 30
0.0
 41
1.037954849302005
 10
978.6335793204381
 20
3283.122165789669
 30
0.0
 41
1.0
  0
ELLIPSE
  5
1CC
330
6C
100
AcDbEntity
  8
Widoczne (ISO)
100
AcDbEllipse
 10
974.0147771669212
 20
3282.40762172733
 30
0.0
 11
-7.999999999999994
 21
0.000000000000029
 31
0.0
210
0.0
220
0.0
230
1.0
 40
0.00001
 41
3.665191413942659
 42
4.712388968188346
  0
SPLINE
  5
1CD
330
6C
100
AcDbEntity
  8
Widoczne (ISO)
100
AcDbSpline
210
0.0
220
0.0
230
1.0
 70
    12
 71
     2
 72
     6
 73
     3
 74
     0
 42
0.0000000001
 43
0.0000000001
 40
0.0
 40
0.0
 40
0.0
 40
0.4685677750201953
 40
0.4685677750201953
 40
0.4685677750201953
 10
978.6335793204381
 20
3283.122165789669
 30
0.0
 41
1.0
 10
979.8711836274721
 20
3282.407631157992
 30
0.0
 41
1.037954849302061
 10
980.9429803971966
 20
3282.407628168592
 30
0.0
 41
1.0
  0
SPLINE
  5
1CE
330
6C
100
AcDbEntity
  8
Widoczne (ISO)
100
AcDbSpline
210
0.0
220
0.0
230
1.0
 70
    12
 71
     2
 72
     6
 73
     3
 74
     0
 42
0.0000000001
 43
0.0000000001
 40
0.0
 40
0.0
 40
0.0
 40
0.9347463033101737
 40
0.9347463033101737
 40
0.9347463033101737
 10
969.3959750134041
 20
3289.288958241598
 30
0.0
 41
1.0
 10
967.0865795149419
 20
3290.622281913053
 30
0.0
 41
1.154700106896703
 10
964.7771877353195
 20
3289.28895394743
 30
0.0
 41
1.000000862962692
  0
SPLINE
  5
1CF
330
6C
100
AcDbEntity
  8
Widoczne (ISO)
100
AcDbSpline
210
0.0
220
0.0
230
1.0
 70
    12
 71
     2
 72
     6
 73
     3
 74
     0
 42
0.0000000001
 43
0.0000000001
 40
0.0
 40
0.0
 40
0.0
 40
0.9347489104623377
 40
0.9347489104623377
 40
0.9347489104623377
 10
978.6335793204383
 20
3289.288958241598
 30
0.0
 41
1.0
 10
974.0147771669212
 20
3290.62229157493
 30
0.0
 41
1.154700538379253
 10
969.3959750134041
 20
3289.288958241598
 30
0.0
 41
1.0
  0
SPLINE
  5
1D0
330
6C
100
AcDbEntity
  8
Widoczne (ISO)
100
AcDbSpline
210
0.0
220
0.0
230
1.0
 70
    12
 71
     2
 72
     6
 73
     3
 74
     0
 42
0.0000000001
 43
0.0000000001
 40
0.0000026071521665
 40
0.0000026071521665
 40
0.0000026071521665
 40
0.9347489104623369
 40
0.9347489104623369
 40
0.9347489104623369
 10
983.2523665985226
 20
3289.28895394743
 30
0.0
 41
1.000000862962693
 10
980.9429748189005
 20
3290.622281913052
 30
0.0
 41
1.154700106896701
 10
978.6335793204381
 20
3289.288958241598
 30
0.0
 41
1.0
  0
LINE
  5
1D1
330
6C
100
AcDbEntity
  8
Widoczne (ISO)
100
AcDbLine
 10
966.0147771669523
 20
3282.407621727294
 30
0.0
 11
964.7771877353195
 21
3283.12214431879
 31
0.0
  0
LINE
  5
1D2
330
6C
100
AcDbEntity
  8
Widoczne (ISO)
100
AcDbLine
 10
982.0147771668899
 20
3282.407621727294
 30
0.0
 11
983.2523665985227
 21
3283.12214431879
 31
0.0
  0
LINE
  5
1D3
330
6C
100
AcDbEntity
  8
Widoczne (ISO)
100
AcDbLine
 10
981.3147771668928
 20
3290.407621727355
 30
0.0
 11
983.2523665985227
 21
3289.28895394743
 31
0.0
  0
LINE
  5
1D4
330
6C
100
AcDbEntity
  8
Widoczne (ISO)
100
AcDbLine
 10
966.7147771669494
 20
3290.407621727355
 30
0.0
 11
964.7771877353195
 21
3289.28895394743
 31
0.0
  0
LINE
  5
1D5
330
6C
100
AcDbEntity
  8
Widoczne (ISO)
100
AcDbLine
 10
983.252381473955
 20
3289.288945359074
 30
0.0
 11
983.252381473955
 21
3283.122152907146
 31
0.0
  0
LINE
  5
1D6
330
6C
100
AcDbEntity
  8
Widoczne (ISO)
100
AcDbLine
 10
978.6335793204381
 20
3289.288958241598
 30
0.0
 11
978.6335793204381
 21
3283.122165789669
 31
0.0
  0
LINE
  5
1D7
330
6C
100
AcDbEntity
  8
Widoczne (ISO)
100
AcDbLine
 10
969.3959750134041
 20
3289.288958241598
 30
0.0
 11
969.3959750134041
 21
3283.122165789669
 31
0.0
  0
LINE
  5
1D8
330
6C
100
AcDbEntity
  8
Widoczne (ISO)
100
AcDbLine
 10
964.7771728598872
 20
3289.288945359074
 30
0.0
 11
964.777172859887
 21
3283.122152907146
 31
0.0
  0
ELLIPSE
  5
1D9
330
6C
100
AcDbEntity
  8
Widoczne (ISO)
100
AcDbEllipse
 10
974.0147771669212
 20
3282.40762172733
 30
0.0
 11
7.499999999999987
 21
-0.0000000000000343
 31
0.0
210
0.0
220
0.0
230
1.0
 40
0.00001
 41
0.3930101942920956
 42
2.748582465328944
  0
LINE
  5
1DA
330
6C
100
AcDbEntity
  8
Widoczne (ISO)
100
AcDbLine
 10
981.5147771669211
 20
3282.40762172733
 30
0.0
 11
981.5147771669211
 21
3279.907621727333
 31
0.0
  0
LINE
  5
1DB
330
6C
100
AcDbEntity
  8
Widoczne (ISO)
100
AcDbLine
 10
966.5147771669211
 20
3282.40762172733
 30
0.0
 11
966.5147771669211
 21
3279.907621727333
 31
0.0
  0
ARC
  5
1DC
330
6C
100
AcDbEntity
  8
Widoczne (ISO)
100
AcDbCircle
 10
974.0147771669212
 20
3279.907621727333
 30
0.0
 40
7.500000000002238
100
AcDbArc
 50
180.0
 51
0.0
  0
ELLIPSE
  5
1DD
330
6C
100
AcDbEntity
  8
Widoczne (ISO)
100
AcDbEllipse
 10
2134.014777166921
 20
3290.407621727319
 30
0.0
 11
-7.299999999999998
 21
0.0000000000000252
 31
0.0
210
0.0
220
0.0
230
1.0
 40
0.00001
 41
3.141579818352775
 42
6.283166895942477
  0
SPLINE
  5
1DE
330
6C
100
AcDbEntity
  8
Widoczne (ISO)
100
AcDbSpline
210
0.0
220
0.0
230
1.0
 70
    12
 71
     2
 72
     6
 73
     3
 74
     0
 42
0.0000000001
 43
0.0000000001
 40
0.0
 40
0.0
 40
0.0
 40
0.4685677750201958
 40
0.4685677750201958
 40
0.4685677750201958
 10
2124.777172859888
 20
3283.122152907143
 30
0.0
 41
1.0
 10
2126.014777166921
 20
3282.407625179189
 30
0.0
 41
1.037954849302033
 10
2127.086573936646
 20
3282.407628168588
 30
0.0
 41
1.0
  0
SPLINE
  5
1DF
330
6C
100
AcDbEntity
  8
Widoczne (ISO)
100
AcDbSpline
210
0.0
220
0.0
230
1.0
 70
    28
 71
     2
 72
     6
 73
     3
 74
     0
 42
0.0000000001
 43
0.0000000001
 40
0.9371328370253904
 40
0.9371328370253904
 40
0.9371328370253904
 40
0.9371355500403888
 40
0.9371355500403888
 40
0.9371355500403888
 10
2124.77718773532
 20
3283.122144318787
 30
0.0
 41
1.000000439515838
 10
2124.77718029761
 20
3283.122148612952
 30
0.0
 41
1.000000219759191
 10
2124.777172859888
 20
3283.122152907143
 30
0.0
 41
1.0
  0
ELLIPSE
  5
1E0
330
6C
100
AcDbEntity
  8
Widoczne (ISO)
100
AcDbEllipse
 10
2134.014777166921
 20
3282.407621727327
 30
0.0
 11
-8.000000000000017
 21
0.0000000000000276
 31
0.0
210
0.0
220
0.0
230
1.0
 40
0.00001
 41
5.759586549115898
 42
6.283188120112965
  0
SPLINE
  5
1E1
330
6C
100
AcDbEntity
  8
Widoczne (ISO)
100
AcDbSpline
210
0.0
220
0.0
230
1.0
 70
    12
 71
     2
 72
     6
 73
     3
 74
     0
 42
0.0000000001
 43
0.0000000001
 40
0.0
 40
0.0
 40
0.0
 40
0.4685677750201963
 40
0.4685677750201963
 40
0.4685677750201963
 10
2129.395975013404
 20
3283.122165789666
 30
0.0
 41
1.0
 10
2131.871183627472
 20
3282.40763460985
 30
0.0
 41
1.037954849302013
 10
2134.014777166921
 20
3282.40763460985
 30
0.0
 41
1.0
  0
SPLINE
  5
1E2
330
6C
100
AcDbEntity
  8
Widoczne (ISO)
100
AcDbSpline
210
0.0
220
0.0
230
1.0
 70
    12
 71
     2
 72
     6
 73
     3
 74
     0
 42
0.0000000001
 43
0.0000000001
 40
0.4685677750201958
 40
0.4685677750201958
 40
0.4685677750201958
 40
0.9371355500403913
 40
0.9371355500403913
 40
0.9371355500403913
 10
2127.086573936646
 20
3282.407628168588
 30
0.0
 41
1.0
 10
2128.15837070637
 20
3282.407631157989
 30
0.0
 41
1.037954849302056
 10
2129.395975013404
 20
3283.122165789666
 30
0.0
 41
1.0
  0
ELLIPSE
  5
1E3
330
6C
100
AcDbEntity
  8
Widoczne (ISO)
100
AcDbEllipse
 10
2134.014777166921
 20
3282.407621727327
 30
0.0
 11
-8.000000000000001
 21
0.0000000000000287
 31
0.0
210
0.0
220
0.0
230
1.0
 40
0.00001
 41
4.712388980384689
 42
5.759906823481758
  0
SPLINE
  5
1E4
330
6C
100
AcDbEntity
  8
Widoczne (ISO)
100
AcDbSpline
210
0.0
220
0.0
230
1.0
 70
    12
 71
     2
 72
     6
 73
     3
 74
     0
 42
0.0000000001
 43
0.0000000001
 40
0.4685677750201953
 40
0.4685677750201953
 40
0.4685677750201953
 40
0.93713555004039
 40
0.93713555004039
 40
0.93713555004039
 10
2140.942980397197
 20
3282.407628168588
 30
0.0
 41
1.0
 10
2142.014777166921
 20
3282.407625179189
 30
0.0
 41
1.037954849302059
 10
2143.252381473955
 20
3283.122152907143
 30
0.0
 41
1.0
  0
ELLIPSE
  5
1E5
330
6C
100
AcDbEntity
  8
Widoczne (ISO)
100
AcDbEllipse
 10
2134.014777166921
 20
3282.407621727327
 30
0.0
 11
7.999999999999994
 21
-0.0000000000000276
 31
0.0
210
0.0
220
0.0
230
1.0
 40
0.00001
 41
5.927852302314687
 42
6.806865825962882
  0
SPLINE
  5
1E6
330
6C
100
AcDbEntity
  8
Widoczne (ISO)
100
AcDbSpline
210
0.0
220
0.0
230
1.0
 70
    28
 71
     2
 72
     6
 73
     3
 74
     0
 42
0.0000000001
 43
0.0000000001
 40
0.0
 40
0.0
 40
0.0
 40
0.0000027130149933
 40
0.0000027130149933
 40
0.0000027130149933
 10
2143.252381473955
 20
3283.122152907143
 30
0.0
 41
1.0
 10
2143.252374036233
 20
3283.122148612952
 30
0.0
 41
1.000000219759191
 10
2143.252366598523
 20
3283.122144318787
 30
0.0
 41
1.000000439515837
  0
SPLINE
  5
1E7
330
6C
100
AcDbEntity
  8
Widoczne (ISO)
100
AcDbSpline
210
0.0
220
0.0
230
1.0
 70
    12
 71
     2
 72
     6
 73
     3
 74
     0
 42
0.0000000001
 43
0.0000000001
 40
0.4685677750201963
 40
0.4685677750201963
 40
0.4685677750201963
 40
0.9371355500403925
 40
0.9371355500403925
 40
0.9371355500403925
 10
2134.014777166921
 20
3282.40763460985
 30
0.0
 41
1.0
 10
2136.15837070637
 20
3282.40763460985
 30
0.0
 41
1.037954849302005
 10
2138.633579320438
 20
3283.122165789666
 30
0.0
 41
1.0
  0
ELLIPSE
  5
1E8
330
6C
100
AcDbEntity
  8
Widoczne (ISO)
100
AcDbEllipse
 10
2134.014777166921
 20
3282.407621727327
 30
0.0
 11
-7.999999999999994
 21
0.000000000000029
 31
0.0
210
0.0
220
0.0
230
1.0
 40
0.00001
 41
3.665191413942659
 42
4.712388968188346
  0
SPLINE
  5
1E9
330
6C
100
AcDbEntity
  8
Widoczne (ISO)
100
AcDbSpline
210
0.0
220
0.0
230
1.0
 70
    12
 71
     2
 72
     6
 73
     3
 74
     0
 42
0.0000000001
 43
0.0000000001
 40
0.0
 40
0.0
 40
0.0
 40
0.4685677750201953
 40
0.4685677750201953
 40
0.4685677750201953
 10
2138.633579320438
 20
3283.122165789666
 30
0.0
 41
1.0
 10
2139.871183627472
 20
3282.407631157989
 30
0.0
 41
1.037954849302061
 10
2140.942980397197
 20
3282.407628168588
 30
0.0
 41
1.0
  0
SPLINE
  5
1EA
330
6C
100
AcDbEntity
  8
Widoczne (ISO)
100
AcDbSpline
210
0.0
220
0.0
230
1.0
 70
    12
 71
     2
 72
     6
 73
     3
 74
     0
 42
0.0000000001
 43
0.0000000001
 40
0.0
 40
0.0
 40
0.0
 40
0.9347463033101737
 40
0.9347463033101737
 40
0.9347463033101737
 10
2129.395975013404
 20
3289.288958241594
 30
0.0
 41
1.0
 10
2127.086579514941
 20
3290.622281913049
 30
0.0
 41
1.154700106896703
 10
2124.77718773532
 20
3289.288953947427
 30
0.0
 41
1.000000862962692
  0
SPLINE
  5
1EB
330
6C
100
AcDbEntity
  8
Widoczne (ISO)
100
AcDbSpline
210
0.0
220
0.0
230
1.0
 70
    12
 71
     2
 72
     6
 73
     3
 74
     0
 42
0.0000000001
 43
0.0000000001
 40
0.0
 40
0.0
 40
0.0
 40
0.9347489104623377
 40
0.9347489104623377
 40
0.9347489104623377
 10
2138.633579320438
 20
3289.288958241594
 30
0.0
 41
1.0
 10
2134.014777166921
 20
3290.622291574926
 30
0.0
 41
1.154700538379253
 10
2129.395975013404
 20
3289.288958241594
 30
0.0
 41
1.0
  0
SPLINE
  5
1EC
330
6C
100
AcDbEntity
  8
Widoczne (ISO)
100
AcDbSpline
210
0.0
220
0.0
230
1.0
 70
    12
 71
     2
 72
     6
 73
     3
 74
     0
 42
0.0000000001
 43
0.0000000001
 40
0.0000026071521665
 40
0.0000026071521665
 40
0.0000026071521665
 40
0.9347489104623369
 40
0.9347489104623369
 40
0.9347489104623369
 10
2143.252366598523
 20
3289.288953947427
 30
0.0
 41
1.000000862962693
 10
2140.942974818901
 20
3290.622281913049
 30
0.0
 41
1.154700106896701
 10
2138.633579320438
 20
3289.288958241594
 30
0.0
 41
1.0
  0
LINE
  5
1ED
330
6C
100
AcDbEntity
  8
Widoczne (ISO)
100
AcDbLine
 10
2126.014777166952
 20
3282.407621727291
 30
0.0
 11
2124.77718773532
 21
3283.122144318787
 31
0.0
  0
LINE
  5
1EE
330
6C
100
AcDbEntity
  8
Widoczne (ISO)
100
AcDbLine
 10
2142.01477716689
 20
3282.407621727291
 30
0.0
 11
2143.252366598523
 21
3283.122144318787
 31
0.0
  0
LINE
  5
1EF
330
6C
100
AcDbEntity
  8
Widoczne (ISO)
100
AcDbLine
 10
2141.314777166893
 20
3290.407621727351
 30
0.0
 11
2143.252366598523
 21
3289.288953947427
 31
0.0
  0
LINE
  5
1F0
330
6C
100
AcDbEntity
  8
Widoczne (ISO)
100
AcDbLine
 10
2126.714777166949
 20
3290.407621727351
 30
0.0
 11
2124.77718773532
 21
3289.288953947427
 31
0.0
  0
LINE
  5
1F1
330
6C
100
AcDbEntity
  8
Widoczne (ISO)
100
AcDbLine
 10
2143.252381473955
 20
3289.288945359071
 30
0.0
 11
2143.252381473955
 21
3283.122152907142
 31
0.0
  0
LINE
  5
1F2
330
6C
100
AcDbEntity
  8
Widoczne (ISO)
100
AcDbLine
 10
2138.633579320438
 20
3289.288958241594
 30
0.0
 11
2138.633579320438
 21
3283.122165789666
 31
0.0
  0
LINE
  5
1F3
330
6C
100
AcDbEntity
  8
Widoczne (ISO)
100
AcDbLine
 10
2129.395975013404
 20
3289.288958241594
 30
0.0
 11
2129.395975013404
 21
3283.122165789666
 31
0.0
  0
LINE
  5
1F4
330
6C
100
AcDbEntity
  8
Widoczne (ISO)
100
AcDbLine
 10
2124.777172859888
 20
3289.288945359071
 30
0.0
 11
2124.777172859888
 21
3283.122152907143
 31
0.0
  0
ELLIPSE
  5
1F5
330
6C
100
AcDbEntity
  8
Widoczne (ISO)
100
AcDbEllipse
 10
2134.014777166921
 20
3282.407621727327
 30
0.0
 11
7.499999999999987
 21
-0.0000000000000353
 31
0.0
210
0.0
220
0.0
230
1.0
 40
0.00001
 41
0.3930101943645585
 42
2.748582465426309
  0
LINE
  5
1F6
330
6C
100
AcDbEntity
  8
Widoczne (ISO)
100
AcDbLine
 10
2141.514777166921
 20
3282.407621727327
 30
0.0
 11
2141.514777166921
 21
3279.90762172733
 31
0.0
  0
LINE
  5
1F7
330
6C
100
AcDbEntity
  8
Widoczne (ISO)
100
AcDbLine
 10
2126.514777166921
 20
3282.407621727327
 30
0.0
 11
2126.514777166921
 21
3279.90762172733
 31
0.0
  0
ARC
  5
1F8
330
6C
100
AcDbEntity
  8
Widoczne (ISO)
100
AcDbCircle
 10
2134.014777166921
 20
3279.90762172733
 30
0.0
 40
7.500000000002238
100
AcDbArc
 50
180.0
 51
0.0
  0
ELLIPSE
  5
1F9
330
6C
100
AcDbEntity
  8
Widoczne (ISO)
100
AcDbEllipse
 10
974.0147771669134
 20
3290.407621727322
 30
0.0
 11
-9.999999999999996
 21
0.0000000000000345
 31
0.0
210
0.0
220
0.0
230
1.0
 40
0.00001
 41
2.389121086504337
 42
7.035656905836433
  0
LINE
  5
1FA
330
6C
100
AcDbEntity
  8
Widoczne (ISO)
100
AcDbLine
 10
984.0147771669133
 20
3292.407621727321
 30
0.0
 11
984.0147771669133
 21
3290.407621727322
 31
0.0
  0
LINE
  5
1FB
330
6C
100
AcDbEntity
  8
Widoczne (ISO)
100
AcDbLine
 10
964.0147771669134
 20
3292.233369147733
 30
0.0
 11
964.0147771669134
 21
3290.407621727322
 31
0.0
  0
ELLIPSE
  5
1FC
330
6C
100
AcDbEntity
  8
Widoczne (ISO)
100
AcDbEllipse
 10
2134.014777166914
 20
3290.407621727319
 30
0.0
 11
-9.999999999999996
 21
0.0000000000000345
 31
0.0
210
0.0
220
0.0
230
1.0
 40
0.00001
 41
2.389078303826156
 42
7.035614120817387
  0
LINE
  5
1FD
330
6C
100
AcDbEntity
  8
Widoczne (ISO)
100
AcDbLine
 10
2144.014777166914
 20
3292.233369147734
 30
0.0
 11
2144.014777166914
 21
3290.407621727319
 31
0.0
  0
LINE
  5
1FE
330
6C
100
AcDbEntity
  8
Widoczne (ISO)
100
AcDbLine
 10
2124.014777166914
 20
3292.407621727317
 30
0.0
 11
2124.014777166914
 21
3290.407621727319
 31
0.0
  0
ELLIPSE
  5
1FF
330
6C
100
AcDbEntity
  8
Widoczne (ISO)
100
AcDbEllipse
 10
974.0147771669134
 20
3290.407388231589
 30
0.0
 11
-9.999999999999998
 21
0.0000000000000345
 31
0.0
210
0.0
220
0.0
230
1.0
 40
0.00001
 41
5.530767323118148
 42
7.035597708222457
  0
ELLIPSE
  5
200
330
6C
100
AcDbEntity
  8
Widoczne (ISO)
100
AcDbEllipse
 10
974.0147771669134
 20
3290.407388231589
 30
0.0
 11
9.999999999999996
 21
-0.0000000000000345
 31
0.0
210
0.0
220
0.0
230
1.0
 40
0.00001
 41
5.53073011395999
 42
7.035560496883699
  0
LINE
  5
201
330
6C
100
AcDbEntity
  8
Widoczne (ISO)
100
AcDbLine
 10
984.0147771669133
 20
3290.407621727322
 30
0.0
 11
984.0147771669133
 21
3290.407388231589
 31
0.0
  0
LINE
  5
202
330
6C
100
AcDbEntity
  8
Widoczne (ISO)
100
AcDbLine
 10
964.0147771669134
 20
3290.407621727322
 30
0.0
 11
964.0147771669134
 21
3290.407388231589
 31
0.0
  0
ELLIPSE
  5
203
330
6C
100
AcDbEntity
  8
Widoczne (ISO)
100
AcDbEllipse
 10
2134.014777166914
 20
3290.407388231586
 30
0.0
 11
-9.999999999999992
 21
0.0000000000000345
 31
0.0
210
0.0
220
0.0
230
1.0
 40
0.00001
 41
5.530724537758356
 42
7.035554920356632
  0
ELLIPSE
  5
204
330
6C
100
AcDbEntity
  8
Widoczne (ISO)
100
AcDbEllipse
 10
2134.014777166914
 20
3290.407388231586
 30
0.0
 11
9.999999999999996
 21
-0.0000000000000345
 31
0.0
210
0.0
220
0.0
230
1.0
 40
0.00001
 41
5.530730113959997
 42
7.035560496883699
  0
LINE
  5
205
330
6C
100
AcDbEntity
  8
Widoczne (ISO)
100
AcDbLine
 10
2144.014777166913
 20
3290.407621727319
 30
0.0
 11
2144.014777166913
 21
3290.407388231586
 31
0.0
  0
LINE
  5
206
330
6C
100
AcDbEntity
  8
Widoczne (ISO)
100
AcDbLine
 10
2124.014777166914
 20
3290.407621727319
 30
0.0
 11
2124.014777166914
 21
3290.407388231586
 31
0.0
  0
LINE
  5
207
330
6C
100
AcDbEntity
  8
Widoczne (ISO)
100
AcDbLine
 10
1223.323510719842
 20
2506.407475395409
 30
0.0
 11
723.3235107198425
 21
2506.407475395409
 31
0.0
  0
LINE
  5
208
330
6C
100
AcDbEntity
  8
Widoczne (ISO)
100
AcDbLine
 10
914.0396285384252
 20
2656.40747539541
 30
0.0
 11
893.3235107198425
 21
2656.407475395409
 31
0.0
  0
LINE
  5
209
330
6C
100
AcDbEntity
  8
Widoczne (ISO)
100
AcDbLine
 10
1027.039628538433
 20
2656.40747539541
 30
0.0
 11
919.6073929012552
 21
2656.40747539541
 31
0.0
  0
LINE
  5
20A
330
6C
100
AcDbEntity
  8
Widoczne (ISO)
100
AcDbLine
 10
1053.323510719842
 20
2656.407475395409
 30
0.0
 11
1032.607392901252
 21
2656.40747539541
 31
0.0
  0
LINE
  5
20B
102
{ACAD_REACTORS
330
3D5
102
}
330
6C
100
AcDbEntity
  8
Widoczne (ISO)
100
AcDbLine
 10
723.3235107198423
 20
2506.407475395409
 30
0.0
 11
723.3235107198423
 21
2581.407475395409
 31
0.0
  0
LINE
  5
20C
102
{ACAD_REACTORS
330
3D5
102
}
330
6C
100
AcDbEntity
  8
Widoczne (ISO)
100
AcDbLine
 10
1223.323510719842
 20
2506.407475395409
 30
0.0
 11
1223.323510719842
 21
2581.407475395409
 31
0.0
  0
SPLINE
  5
20D
330
6C
100
AcDbEntity
  8
Widoczne (ISO)
100
AcDbSpline
210
0.0
220
0.0
230
1.0
 70
     8
 71
     3
 72
    18
 73
    14
 74
     0
 42
0.0000000001
 43
0.0000000001
 40
1.570796326794896
 40
1.570796326794896
 40
1.570796326794896
 40
1.570796326794896
 40
1.884955592153876
 40
1.884955592153876
 40
2.199114857512855
 40
2.199114857512855
 40
2.513274122871834
 40
2.513274122871834
 40
2.827433388230813
 40
2.827433388230813
 40
3.024391875520829
 40
3.024391875520829
 40
3.141592653589793
 40
3.141592653589793
 40
3.141592653589793
 40
3.141592653589793
 10
893.3235107198425
 20
2656.407475395409
 30
0.0
 10
875.5211523495004
 20
2656.407475395409
 30
0.0
 10
857.7216706096368
 20
2655.163727915953
 30
0.0
 10
823.8595727425659
 20
2650.30970031914
 30
0.0
 10
807.8024282916818
 20
2646.700204549757
 30
0.0
 10
778.997607368562
 20
2637.467295397305
 30
0.0
 10
766.2545853822144
 20
2631.845373932739
 30
0.0
 10
745.326657969989
 20
2619.137364701951
 30
0.0
 10
737.1451342260552
 20
2612.053330385384
 30
0.0
 10
728.1949701633233
 20
2599.90078365411
 30
0.0
 10
725.7948198434537
 20
2595.067607207826
 30
0.0
 10
723.7131428993879
 20
2587.267505091031
 30
0.0
 10
723.3235107198423
 20
2584.337494847134
 30
0.0
 10
723.3235107198423
 20
2581.407475395409
 30
0.0
  0
SPLINE
  5
20E
330
6C
100
AcDbEntity
  8
Widoczne (ISO)
100
AcDbSpline
210
0.0
220
0.0
230
1.0
 70
     8
 71
     3
 72
    18
 73
    14
 74
     0
 42
0.0000000001
 43
0.0000000001
 40
1.570796326794896
 40
1.570796326794896
 40
1.570796326794896
 40
1.570796326794896
 40
1.884955592153876
 40
1.884955592153876
 40
2.199114857512855
 40
2.199114857512855
 40
2.513274122871834
 40
2.513274122871834
 40
2.827433388230813
 40
2.827433388230813
 40
3.024391875520829
 40
3.024391875520829
 40
3.141592653589793
 40
3.141592653589793
 40
3.141592653589793
 40
3.141592653589793
 10
1053.323510719842
 20
2656.407475395409
 30
0.0
 10
1071.125869090184
 20
2656.407475395409
 30
0.0
 10
1088.925350830048
 20
2655.163727915953
 30
0.0
 10
1122.787448697119
 20
2650.30970031914
 30
0.0
 10
1138.844593148003
 20
2646.700204549757
 30
0.0
 10
1167.649414071123
 20
2637.467295397305
 30
0.0
 10
1180.392436057471
 20
2631.845373932739
 30
0.0
 10
1201.320363469696
 20
2619.137364701951
 30
0.0
 10
1209.50188721363
 20
2612.053330385384
 30
0.0
 10
1218.452051276362
 20
2599.90078365411
 30
0.0
 10
1220.852201596231
 20
2595.067607207826
 30
0.0
 10
1222.933878540297
 20
2587.267505091031
 30
0.0
 10
1223.323510719842
 20
2584.337494847134
 30
0.0
 10
1223.323510719842
 20
2581.407475395409
 30
0.0
  0
LINE
  5
20F
102
{ACAD_REACTORS
330
555
102
}
330
6C
100
AcDbEntity
  8
Widoczne (ISO)
100
AcDbLine
 10
2384.706043613994
 20
2506.407475395408
 30
0.0
 11
1884.706043613994
 21
2506.407475395408
 31
0.0
  0
LINE
  5
210
102
{ACAD_REACTORS
330
555
102
}
330
6C
100
AcDbEntity
  8
Widoczne (ISO)
100
AcDbLine
 10
2075.42216143258
 20
2656.407475395408
 30
0.0
 11
2054.706043613995
 21
2656.407475395408
 31
0.0
  0
LINE
  5
211
330
6C
100
AcDbEntity
  8
Widoczne (ISO)
100
AcDbLine
 10
2188.422161432578
 20
2656.407475395408
 30
0.0
 11
2080.98992579541
 21
2656.407475395408
 31
0.0
  0
LINE
  5
212
330
6C
100
AcDbEntity
  8
Widoczne (ISO)
100
AcDbLine
 10
2214.706043613995
 20
2656.407475395408
 30
0.0
 11
2193.989925795411
 21
2656.407475395408
 31
0.0
  0
LINE
  5
213
102
{ACAD_REACTORS
330
443
102
}
330
6C
100
AcDbEntity
  8
Widoczne (ISO)
100
AcDbLine
 10
1884.706043613994
 20
2506.407475395408
 30
0.0
 11
1884.706043613994
 21
2581.407475395407
 31
0.0
  0
LINE
  5
214
102
{ACAD_REACTORS
330
443
102
}
330
6C
100
AcDbEntity
  8
Widoczne (ISO)
100
AcDbLine
 10
2384.706043613994
 20
2506.407475395408
 30
0.0
 11
2384.706043613994
 21
2581.407475395407
 31
0.0
  0
SPLINE
  5
215
330
6C
100
AcDbEntity
  8
Widoczne (ISO)
100
AcDbSpline
210
0.0
220
0.0
230
1.0
 70
     8
 71
     3
 72
    18
 73
    14
 74
     0
 42
0.0000000001
 43
0.0000000001
 40
1.570796326794896
 40
1.570796326794896
 40
1.570796326794896
 40
1.570796326794896
 40
1.884955592153876
 40
1.884955592153876
 40
2.199114857512855
 40
2.199114857512855
 40
2.513274122871834
 40
2.513274122871834
 40
2.827433388230813
 40
2.827433388230813
 40
3.024391875520829
 40
3.024391875520829
 40
3.141592653589793
 40
3.141592653589793
 40
3.141592653589793
 40
3.141592653589793
 10
2054.706043613995
 20
2656.407475395408
 30
0.0
 10
2036.903685243652
 20
2656.407475395408
 30
0.0
 10
2019.104203503789
 20
2655.163727915951
 30
0.0
 10
1985.242105636718
 20
2650.309700319138
 30
0.0
 10
1969.184961185834
 20
2646.700204549755
 30
0.0
 10
1940.380140262714
 20
2637.467295397302
 30
0.0
 10
1927.637118276366
 20
2631.845373932737
 30
0.0
 10
1906.709190864141
 20
2619.137364701949
 30
0.0
 10
1898.527667120207
 20
2612.053330385383
 30
0.0
 10
1889.577503057475
 20
2599.900783654109
 30
0.0
 10
1887.177352737606
 20
2595.067607207824
 30
0.0
 10
1885.095675793539
 20
2587.267505091029
 30
0.0
 10
1884.706043613994
 20
2584.337494847132
 30
0.0
 10
1884.706043613994
 20
2581.407475395407
 30
0.0
  0
SPLINE
  5
216
330
6C
100
AcDbEntity
  8
Widoczne (ISO)
100
AcDbSpline
210
0.0
220
0.0
230
1.0
 70
     8
 71
     3
 72
    18
 73
    14
 74
     0
 42
0.0000000001
 43
0.0000000001
 40
1.570796326794896
 40
1.570796326794896
 40
1.570796326794896
 40
1.570796326794896
 40
1.884955592153876
 40
1.884955592153876
 40
2.199114857512855
 40
2.199114857512855
 40
2.513274122871834
 40
2.513274122871834
 40
2.827433388230813
 40
2.827433388230813
 40
3.024391875520829
 40
3.024391875520829
 40
3.141592653589793
 40
3.141592653589793
 40
3.141592653589793
 40
3.141592653589793
 10
2214.706043613995
 20
2656.407475395408
 30
0.0
 10
2232.508401984337
 20
2656.407475395408
 30
0.0
 10
2250.3078837242
 20
2655.163727915951
 30
0.0
 10
2284.169981591271
 20
2650.309700319138
 30
0.0
 10
2300.227126042155
 20
2646.700204549755
 30
0.0
 10
2329.031946965275
 20
2637.467295397302
 30
0.0
 10
2341.774968951623
 20
2631.845373932737
 30
0.0
 10
2362.702896363848
 20
2619.137364701949
 30
0.0
 10
2370.884420107782
 20
2612.053330385383
 30
0.0
 10
2379.834584170513
 20
2599.900783654109
 30
0.0
 10
2382.234734490383
 20
2595.067607207824
 30
0.0
 10
2384.316411434449
 20
2587.267505091029
 30
0.0
 10
2384.706043613994
 20
2584.337494847132
 30
0.0
 10
2384.706043613994
 20
2581.407475395407
 30
0.0
  0
LINE
  5
217
330
6C
100
AcDbEntity
  8
Widoczne (ISO)
100
AcDbLine
 10
2077.706043613996
 20
2666.907475395408
 30
0.0
 11
2101.706043613996
 21
2666.907475395408
 31
0.0
  0
LINE
  5
218
330
6C
100
AcDbEntity
  8
Widoczne (ISO)
100
AcDbLine
 10
2077.706043613996
 20
2664.407475395407
 30
0.0
 11
2077.706043613996
 21
2666.907475395408
 31
0.0
  0
LINE
  5
219
330
6C
100
AcDbEntity
  8
Widoczne (ISO)
100
AcDbLine
 10
2101.706043613996
 20
2664.407475395407
 30
0.0
 11
2101.706043613996
 21
2666.907475395408
 31
0.0
  0
LINE
  5
21A
330
6C
100
AcDbEntity
  8
Widoczne (ISO)
100
AcDbLine
 10
2167.706043613995
 20
2666.907475395408
 30
0.0
 11
2191.706043613995
 21
2666.907475395408
 31
0.0
  0
LINE
  5
21B
330
6C
100
AcDbEntity
  8
Widoczne (ISO)
100
AcDbLine
 10
2167.706043613995
 20
2664.407475395407
 30
0.0
 11
2167.706043613995
 21
2666.907475395408
 31
0.0
  0
LINE
  5
21C
330
6C
100
AcDbEntity
  8
Widoczne (ISO)
100
AcDbLine
 10
2191.706043613995
 20
2664.407475395407
 30
0.0
 11
2191.706043613995
 21
2666.907475395408
 31
0.0
  0
LINE
  5
21D
330
6C
100
AcDbEntity
  8
Widoczne (ISO)
100
AcDbLine
 10
916.3235107198401
 20
2666.90747539541
 30
0.0
 11
940.3235107198401
 21
2666.90747539541
 31
0.0
  0
LINE
  5
21E
330
6C
100
AcDbEntity
  8
Widoczne (ISO)
100
AcDbLine
 10
916.3235107198401
 20
2664.40747539541
 30
0.0
 11
916.3235107198401
 21
2666.90747539541
 31
0.0
  0
LINE
  5
21F
330
6C
100
AcDbEntity
  8
Widoczne (ISO)
100
AcDbLine
 10
940.3235107198401
 20
2664.40747539541
 30
0.0
 11
940.3235107198401
 21
2666.90747539541
 31
0.0
  0
LINE
  5
220
330
6C
100
AcDbEntity
  8
Widoczne (ISO)
100
AcDbLine
 10
1006.32351071984
 20
2666.90747539541
 30
0.0
 11
1030.32351071984
 21
2666.90747539541
 31
0.0
  0
LINE
  5
221
330
6C
100
AcDbEntity
  8
Widoczne (ISO)
100
AcDbLine
 10
1006.32351071984
 20
2664.40747539541
 30
0.0
 11
1006.32351071984
 21
2666.90747539541
 31
0.0
  0
LINE
  5
222
330
6C
100
AcDbEntity
  8
Widoczne (ISO)
100
AcDbLine
 10
1030.32351071984
 20
2664.40747539541
 30
0.0
 11
1030.32351071984
 21
2666.90747539541
 31
0.0
  0
LINE
  5
223
330
6C
100
AcDbEntity
  8
Widoczne (ISO)
100
AcDbLine
 10
936.9235107198401
 20
2676.90747539541
 30
0.0
 11
919.72351071984
 21
2676.90747539541
 31
0.0
  0
SPLINE
  5
224
330
6C
100
AcDbEntity
  8
Widoczne (ISO)
100
AcDbSpline
210
0.0
220
0.0
230
1.0
 70
    12
 71
     2
 72
     6
 73
     3
 74
     0
 42
0.0000000001
 43
0.0000000001
 40
0.0
 40
0.0
 40
0.0
 40
1.110014331174024
 40
1.110014331174024
 40
1.110014331174024
 10
933.8083382771415
 20
2675.539354377108
 30
0.0
 41
1.0
 10
928.32351071984
 20
2677.122687710441
 30
0.0
 41
1.154700538379251
 10
922.8386831625387
 20
2675.539354377108
 30
0.0
 41
1.0
  0
SPLINE
  5
225
330
6C
100
AcDbEntity
  8
Widoczne (ISO)
100
AcDbSpline
210
0.0
220
0.0
230
1.0
 70
    12
 71
     2
 72
     6
 73
     3
 74
     0
 42
0.0000000001
 43
0.0000000001
 40
0.0
 40
0.0
 40
0.0
 40
1.110014331174023
 40
1.110014331174023
 40
1.110014331174023
 10
939.293165834443
 20
2675.539354377108
 30
0.0
 41
1.0
 10
936.5507520557924
 20
2677.122687710441
 30
0.0
 41
1.154700538379253
 10
933.8083382771415
 20
2675.539354377108
 30
0.0
 41
1.0
  0
SPLINE
  5
226
330
6C
100
AcDbEntity
  8
Widoczne (ISO)
100
AcDbSpline
210
0.0
220
0.0
230
1.0
 70
    12
 71
     2
 72
     6
 73
     3
 74
     0
 42
0.0000000001
 43
0.0000000001
 40
0.0
 40
0.0
 40
0.0
 40
1.110014331174022
 40
1.110014331174022
 40
1.110014331174022
 10
922.8386831625387
 20
2675.539354377108
 30
0.0
 41
1.0
 10
920.096269383888
 20
2677.122687710441
 30
0.0
 41
1.154700538379252
 10
917.3538556052372
 20
2675.539354377108
 30
0.0
 41
1.0
  0
SPLINE
  5
227
330
6C
100
AcDbEntity
  8
Widoczne (ISO)
100
AcDbSpline
210
0.0
220
0.0
230
1.0
 70
    12
 71
     2
 72
     6
 73
     3
 74
     0
 42
0.0000000001
 43
0.0000000001
 40
0.0
 40
0.0
 40
0.0
 40
1.110014331174023
 40
1.110014331174023
 40
1.110014331174023
 10
933.8083382771415
 20
2668.275596413713
 30
0.0
 41
1.0
 10
936.5507520557921
 20
2666.692263080379
 30
0.0
 41
1.154700538379248
 10
939.293165834443
 20
2668.275596413713
 30
0.0
 41
1.0
  0
SPLINE
  5
228
330
6C
100
AcDbEntity
  8
Widoczne (ISO)
100
AcDbSpline
210
0.0
220
0.0
230
1.0
 70
    12
 71
     2
 72
     6
 73
     3
 74
     0
 42
0.0000000001
 43
0.0000000001
 40
0.0
 40
0.0
 40
0.0
 40
1.110014331174024
 40
1.110014331174024
 40
1.110014331174024
 10
922.8386831625387
 20
2668.275596413713
 30
0.0
 41
1.0
 10
928.32351071984
 20
2666.692263080379
 30
0.0
 41
1.154700538379249
 10
933.8083382771415
 20
2668.275596413713
 30
0.0
 41
1.0
  0
SPLINE
  5
229
330
6C
100
AcDbEntity
  8
Widoczne (ISO)
100
AcDbSpline
210
0.0
220
0.0
230
1.0
 70
    12
 71
     2
 72
     6
 73
     3
 74
     0
 42
0.0000000001
 43
0.0000000001
 40
0.0
 40
0.0
 40
0.0
 40
1.110014331174022
 40
1.110014331174022
 40
1.110014331174022
 10
917.3538556052372
 20
2668.275596413713
 30
0.0
 41
1.0
 10
920.0962693838878
 20
2666.692263080379
 30
0.0
 41
1.154700538379253
 10
922.8386831625387
 20
2668.275596413713
 30
0.0
 41
1.0
  0
LINE
  5
22A
330
6C
100
AcDbEntity
  8
Widoczne (ISO)
100
AcDbLine
 10
936.9235107198401
 20
2676.90747539541
 30
0.0
 11
939.293165834443
 21
2675.539354377108
 31
0.0
  0
LINE
  5
22B
330
6C
100
AcDbEntity
  8
Widoczne (ISO)
100
AcDbLine
 10
919.72351071984
 20
2676.90747539541
 30
0.0
 11
917.3538556052372
 21
2675.539354377108
 31
0.0
  0
LINE
  5
22C
330
6C
100
AcDbEntity
  8
Widoczne (ISO)
100
AcDbLine
 10
919.72351071984
 20
2666.90747539541
 30
0.0
 11
917.3538556052372
 21
2668.275596413713
 31
0.0
  0
LINE
  5
22D
330
6C
100
AcDbEntity
  8
Widoczne (ISO)
100
AcDbLine
 10
936.9235107198401
 20
2666.90747539541
 30
0.0
 11
939.293165834443
 21
2668.275596413713
 31
0.0
  0
LINE
  5
22E
330
6C
100
AcDbEntity
  8
Widoczne (ISO)
100
AcDbLine
 10
939.293165834443
 20
2675.539354377108
 30
0.0
 11
939.293165834443
 21
2668.275596413713
 31
0.0
  0
LINE
  5
22F
330
6C
100
AcDbEntity
  8
Widoczne (ISO)
100
AcDbLine
 10
933.8083382771415
 20
2675.539354377108
 30
0.0
 11
933.8083382771415
 21
2668.275596413713
 31
0.0
  0
LINE
  5
230
330
6C
100
AcDbEntity
  8
Widoczne (ISO)
100
AcDbLine
 10
922.8386831625385
 20
2675.539354377108
 30
0.0
 11
922.8386831625385
 21
2668.275596413713
 31
0.0
  0
LINE
  5
231
330
6C
100
AcDbEntity
  8
Widoczne (ISO)
100
AcDbLine
 10
917.3538556052372
 20
2675.539354377108
 30
0.0
 11
917.3538556052372
 21
2668.275596413713
 31
0.0
  0
LINE
  5
232
330
6C
100
AcDbEntity
  8
Widoczne (ISO)
100
AcDbLine
 10
1026.92351071984
 20
2676.90747539541
 30
0.0
 11
1009.72351071984
 21
2676.90747539541
 31
0.0
  0
SPLINE
  5
233
330
6C
100
AcDbEntity
  8
Widoczne (ISO)
100
AcDbSpline
210
0.0
220
0.0
230
1.0
 70
    12
 71
     2
 72
     6
 73
     3
 74
     0
 42
0.0000000001
 43
0.0000000001
 40
0.0
 40
0.0
 40
0.0
 40
1.110014331174024
 40
1.110014331174024
 40
1.110014331174024
 10
1023.808338277141
 20
2675.539354377108
 30
0.0
 41
1.0
 10
1018.32351071984
 20
2677.122687710441
 30
0.0
 41
1.154700538379251
 10
1012.838683162539
 20
2675.539354377108
 30
0.0
 41
1.0
  0
SPLINE
  5
234
330
6C
100
AcDbEntity
  8
Widoczne (ISO)
100
AcDbSpline
210
0.0
220
0.0
230
1.0
 70
    12
 71
     2
 72
     6
 73
     3
 74
     0
 42
0.0000000001
 43
0.0000000001
 40
0.0
 40
0.0
 40
0.0
 40
1.110014331174023
 40
1.110014331174023
 40
1.110014331174023
 10
1029.293165834443
 20
2675.539354377108
 30
0.0
 41
1.0
 10
1026.550752055792
 20
2677.122687710441
 30
0.0
 41
1.154700538379253
 10
1023.808338277141
 20
2675.539354377108
 30
0.0
 41
1.0
  0
SPLINE
  5
235
330
6C
100
AcDbEntity
  8
Widoczne (ISO)
100
AcDbSpline
210
0.0
220
0.0
230
1.0
 70
    12
 71
     2
 72
     6
 73
     3
 74
     0
 42
0.0000000001
 43
0.0000000001
 40
0.0
 40
0.0
 40
0.0
 40
1.110014331174022
 40
1.110014331174022
 40
1.110014331174022
 10
1012.838683162539
 20
2675.539354377108
 30
0.0
 41
1.0
 10
1010.096269383888
 20
2677.122687710441
 30
0.0
 41
1.154700538379252
 10
1007.353855605237
 20
2675.539354377108
 30
0.0
 41
1.0
  0
SPLINE
  5
236
330
6C
100
AcDbEntity
  8
Widoczne (ISO)
100
AcDbSpline
210
0.0
220
0.0
230
1.0
 70
    12
 71
     2
 72
     6
 73
     3
 74
     0
 42
0.0000000001
 43
0.0000000001
 40
0.0
 40
0.0
 40
0.0
 40
1.110014331174023
 40
1.110014331174023
 40
1.110014331174023
 10
1023.808338277141
 20
2668.275596413713
 30
0.0
 41
1.0
 10
1026.550752055792
 20
2666.692263080379
 30
0.0
 41
1.154700538379248
 10
1029.293165834443
 20
2668.275596413713
 30
0.0
 41
1.0
  0
SPLINE
  5
237
330
6C
100
AcDbEntity
  8
Widoczne (ISO)
100
AcDbSpline
210
0.0
220
0.0
230
1.0
 70
    12
 71
     2
 72
     6
 73
     3
 74
     0
 42
0.0000000001
 43
0.0000000001
 40
0.0
 40
0.0
 40
0.0
 40
1.110014331174024
 40
1.110014331174024
 40
1.110014331174024
 10
1012.838683162539
 20
2668.275596413713
 30
0.0
 41
1.0
 10
1018.32351071984
 20
2666.692263080379
 30
0.0
 41
1.154700538379249
 10
1023.808338277141
 20
2668.275596413713
 30
0.0
 41
1.0
  0
SPLINE
  5
238
330
6C
100
AcDbEntity
  8
Widoczne (ISO)
100
AcDbSpline
210
0.0
220
0.0
230
1.0
 70
    12
 71
     2
 72
     6
 73
     3
 74
     0
 42
0.0000000001
 43
0.0000000001
 40
0.0
 40
0.0
 40
0.0
 40
1.110014331174022
 40
1.110014331174022
 40
1.110014331174022
 10
1007.353855605237
 20
2668.275596413713
 30
0.0
 41
1.0
 10
1010.096269383888
 20
2666.692263080379
 30
0.0
 41
1.154700538379253
 10
1012.838683162539
 20
2668.275596413713
 30
0.0
 41
1.0
  0
LINE
  5
239
330
6C
100
AcDbEntity
  8
Widoczne (ISO)
100
AcDbLine
 10
1026.92351071984
 20
2676.90747539541
 30
0.0
 11
1029.293165834443
 21
2675.539354377108
 31
0.0
  0
LINE
  5
23A
330
6C
100
AcDbEntity
  8
Widoczne (ISO)
100
AcDbLine
 10
1009.72351071984
 20
2676.90747539541
 30
0.0
 11
1007.353855605237
 21
2675.539354377108
 31
0.0
  0
LINE
  5
23B
330
6C
100
AcDbEntity
  8
Widoczne (ISO)
100
AcDbLine
 10
1009.72351071984
 20
2666.90747539541
 30
0.0
 11
1007.353855605237
 21
2668.275596413713
 31
0.0
  0
LINE
  5
23C
330
6C
100
AcDbEntity
  8
Widoczne (ISO)
100
AcDbLine
 10
1026.92351071984
 20
2666.90747539541
 30
0.0
 11
1029.293165834443
 21
2668.275596413713
 31
0.0
  0
LINE
  5
23D
330
6C
100
AcDbEntity
  8
Widoczne (ISO)
100
AcDbLine
 10
1029.293165834443
 20
2675.539354377108
 30
0.0
 11
1029.293165834443
 21
2668.275596413713
 31
0.0
  0
LINE
  5
23E
330
6C
100
AcDbEntity
  8
Widoczne (ISO)
100
AcDbLine
 10
1023.808338277141
 20
2675.539354377108
 30
0.0
 11
1023.808338277141
 21
2668.275596413713
 31
0.0
  0
LINE
  5
23F
330
6C
100
AcDbEntity
  8
Widoczne (ISO)
100
AcDbLine
 10
1012.838683162538
 20
2675.539354377108
 30
0.0
 11
1012.838683162538
 21
2668.275596413713
 31
0.0
  0
LINE
  5
240
330
6C
100
AcDbEntity
  8
Widoczne (ISO)
100
AcDbLine
 10
1007.353855605237
 20
2675.539354377108
 30
0.0
 11
1007.353855605237
 21
2668.275596413713
 31
0.0
  0
LINE
  5
241
330
6C
100
AcDbEntity
  8
Widoczne (ISO)
100
AcDbLine
 10
2098.306043613995
 20
2676.907475395408
 30
0.0
 11
2081.106043613995
 21
2676.907475395408
 31
0.0
  0
SPLINE
  5
242
330
6C
100
AcDbEntity
  8
Widoczne (ISO)
100
AcDbSpline
210
0.0
220
0.0
230
1.0
 70
    12
 71
     2
 72
     6
 73
     3
 74
     0
 42
0.0000000001
 43
0.0000000001
 40
0.0
 40
0.0
 40
0.0
 40
1.110014331174024
 40
1.110014331174024
 40
1.110014331174024
 10
2095.190871171297
 20
2675.539354377106
 30
0.0
 41
1.0
 10
2089.706043613995
 20
2677.122687710439
 30
0.0
 41
1.154700538379251
 10
2084.221216056694
 20
2675.539354377106
 30
0.0
 41
1.0
  0
SPLINE
  5
243
330
6C
100
AcDbEntity
  8
Widoczne (ISO)
100
AcDbSpline
210
0.0
220
0.0
230
1.0
 70
    12
 71
     2
 72
     6
 73
     3
 74
     0
 42
0.0000000001
 43
0.0000000001
 40
0.0
 40
0.0
 40
0.0
 40
1.110014331174023
 40
1.110014331174023
 40
1.110014331174023
 10
2100.675698728598
 20
2675.539354377106
 30
0.0
 41
1.0
 10
2097.933284949947
 20
2677.122687710439
 30
0.0
 41
1.154700538379253
 10
2095.190871171297
 20
2675.539354377106
 30
0.0
 41
1.0
  0
SPLINE
  5
244
330
6C
100
AcDbEntity
  8
Widoczne (ISO)
100
AcDbSpline
210
0.0
220
0.0
230
1.0
 70
    12
 71
     2
 72
     6
 73
     3
 74
     0
 42
0.0000000001
 43
0.0000000001
 40
0.0
 40
0.0
 40
0.0
 40
1.110014331174022
 40
1.110014331174022
 40
1.110014331174022
 10
2084.221216056694
 20
2675.539354377106
 30
0.0
 41
1.0
 10
2081.478802278043
 20
2677.122687710439
 30
0.0
 41
1.154700538379252
 10
2078.736388499393
 20
2675.539354377106
 30
0.0
 41
1.0
  0
SPLINE
  5
245
330
6C
100
AcDbEntity
  8
Widoczne (ISO)
100
AcDbSpline
210
0.0
220
0.0
230
1.0
 70
    12
 71
     2
 72
     6
 73
     3
 74
     0
 42
0.0000000001
 43
0.0000000001
 40
0.0
 40
0.0
 40
0.0
 40
1.110014331174023
 40
1.110014331174023
 40
1.110014331174023
 10
2095.190871171297
 20
2668.275596413711
 30
0.0
 41
1.0
 10
2097.933284949948
 20
2666.692263080378
 30
0.0
 41
1.154700538379248
 10
2100.675698728598
 20
2668.275596413711
 30
0.0
 41
1.0
  0
SPLINE
  5
246
330
6C
100
AcDbEntity
  8
Widoczne (ISO)
100
AcDbSpline
210
0.0
220
0.0
230
1.0
 70
    12
 71
     2
 72
     6
 73
     3
 74
     0
 42
0.0000000001
 43
0.0000000001
 40
0.0
 40
0.0
 40
0.0
 40
1.110014331174024
 40
1.110014331174024
 40
1.110014331174024
 10
2084.221216056694
 20
2668.275596413711
 30
0.0
 41
1.0
 10
2089.706043613996
 20
2666.692263080378
 30
0.0
 41
1.154700538379249
 10
2095.190871171297
 20
2668.275596413711
 30
0.0
 41
1.0
  0
SPLINE
  5
247
330
6C
100
AcDbEntity
  8
Widoczne (ISO)
100
AcDbSpline
210
0.0
220
0.0
230
1.0
 70
    12
 71
     2
 72
     6
 73
     3
 74
     0
 42
0.0000000001
 43
0.0000000001
 40
0.0
 40
0.0
 40
0.0
 40
1.110014331174022
 40
1.110014331174022
 40
1.110014331174022
 10
2078.736388499393
 20
2668.275596413711
 30
0.0
 41
1.0
 10
2081.478802278043
 20
2666.692263080378
 30
0.0
 41
1.154700538379253
 10
2084.221216056694
 20
2668.275596413711
 30
0.0
 41
1.0
  0
LINE
  5
248
330
6C
100
AcDbEntity
  8
Widoczne (ISO)
100
AcDbLine
 10
2098.306043613995
 20
2676.907475395408
 30
0.0
 11
2100.675698728598
 21
2675.539354377106
 31
0.0
  0
LINE
  5
249
330
6C
100
AcDbEntity
  8
Widoczne (ISO)
100
AcDbLine
 10
2081.106043613995
 20
2676.907475395408
 30
0.0
 11
2078.736388499393
 21
2675.539354377106
 31
0.0
  0
LINE
  5
24A
330
6C
100
AcDbEntity
  8
Widoczne (ISO)
100
AcDbLine
 10
2081.106043613995
 20
2666.907475395408
 30
0.0
 11
2078.736388499393
 21
2668.275596413711
 31
0.0
  0
LINE
  5
24B
330
6C
100
AcDbEntity
  8
Widoczne (ISO)
100
AcDbLine
 10
2098.306043613995
 20
2666.907475395408
 30
0.0
 11
2100.675698728598
 21
2668.275596413711
 31
0.0
  0
LINE
  5
24C
330
6C
100
AcDbEntity
  8
Widoczne (ISO)
100
AcDbLine
 10
2100.675698728598
 20
2675.539354377106
 30
0.0
 11
2100.675698728598
 21
2668.275596413711
 31
0.0
  0
LINE
  5
24D
330
6C
100
AcDbEntity
  8
Widoczne (ISO)
100
AcDbLine
 10
2095.190871171297
 20
2675.539354377106
 30
0.0
 11
2095.190871171297
 21
2668.275596413711
 31
0.0
  0
LINE
  5
24E
330
6C
100
AcDbEntity
  8
Widoczne (ISO)
100
AcDbLine
 10
2084.221216056694
 20
2675.539354377106
 30
0.0
 11
2084.221216056694
 21
2668.275596413711
 31
0.0
  0
LINE
  5
24F
330
6C
100
AcDbEntity
  8
Widoczne (ISO)
100
AcDbLine
 10
2078.736388499393
 20
2675.539354377106
 30
0.0
 11
2078.736388499393
 21
2668.275596413711
 31
0.0
  0
LINE
  5
250
330
6C
100
AcDbEntity
  8
Widoczne (ISO)
100
AcDbLine
 10
2188.306043613995
 20
2676.907475395408
 30
0.0
 11
2171.106043613995
 21
2676.907475395408
 31
0.0
  0
SPLINE
  5
251
330
6C
100
AcDbEntity
  8
Widoczne (ISO)
100
AcDbSpline
210
0.0
220
0.0
230
1.0
 70
    12
 71
     2
 72
     6
 73
     3
 74
     0
 42
0.0000000001
 43
0.0000000001
 40
0.0
 40
0.0
 40
0.0
 40
1.110014331174024
 40
1.110014331174024
 40
1.110014331174024
 10
2185.190871171297
 20
2675.539354377106
 30
0.0
 41
1.0
 10
2179.706043613995
 20
2677.122687710439
 30
0.0
 41
1.154700538379251
 10
2174.221216056694
 20
2675.539354377106
 30
0.0
 41
1.0
  0
SPLINE
  5
252
330
6C
100
AcDbEntity
  8
Widoczne (ISO)
100
AcDbSpline
210
0.0
220
0.0
230
1.0
 70
    12
 71
     2
 72
     6
 73
     3
 74
     0
 42
0.0000000001
 43
0.0000000001
 40
0.0
 40
0.0
 40
0.0
 40
1.110014331174023
 40
1.110014331174023
 40
1.110014331174023
 10
2190.675698728598
 20
2675.539354377106
 30
0.0
 41
1.0
 10
2187.933284949947
 20
2677.122687710439
 30
0.0
 41
1.154700538379253
 10
2185.190871171297
 20
2675.539354377106
 30
0.0
 41
1.0
  0
SPLINE
  5
253
330
6C
100
AcDbEntity
  8
Widoczne (ISO)
100
AcDbSpline
210
0.0
220
0.0
230
1.0
 70
    12
 71
     2
 72
     6
 73
     3
 74
     0
 42
0.0000000001
 43
0.0000000001
 40
0.0
 40
0.0
 40
0.0
 40
1.110014331174022
 40
1.110014331174022
 40
1.110014331174022
 10
2174.221216056694
 20
2675.539354377106
 30
0.0
 41
1.0
 10
2171.478802278043
 20
2677.122687710439
 30
0.0
 41
1.154700538379252
 10
2168.736388499393
 20
2675.539354377106
 30
0.0
 41
1.0
  0
SPLINE
  5
254
330
6C
100
AcDbEntity
  8
Widoczne (ISO)
100
AcDbSpline
210
0.0
220
0.0
230
1.0
 70
    12
 71
     2
 72
     6
 73
     3
 74
     0
 42
0.0000000001
 43
0.0000000001
 40
0.0
 40
0.0
 40
0.0
 40
1.110014331174023
 40
1.110014331174023
 40
1.110014331174023
 10
2185.190871171297
 20
2668.275596413711
 30
0.0
 41
1.0
 10
2187.933284949947
 20
2666.692263080378
 30
0.0
 41
1.154700538379248
 10
2190.675698728598
 20
2668.275596413711
 30
0.0
 41
1.0
  0
SPLINE
  5
255
330
6C
100
AcDbEntity
  8
Widoczne (ISO)
100
AcDbSpline
210
0.0
220
0.0
230
1.0
 70
    12
 71
     2
 72
     6
 73
     3
 74
     0
 42
0.0000000001
 43
0.0000000001
 40
0.0
 40
0.0
 40
0.0
 40
1.110014331174024
 40
1.110014331174024
 40
1.110014331174024
 10
2174.221216056694
 20
2668.275596413711
 30
0.0
 41
1.0
 10
2179.706043613995
 20
2666.692263080378
 30
0.0
 41
1.154700538379249
 10
2185.190871171297
 20
2668.275596413711
 30
0.0
 41
1.0
  0
SPLINE
  5
256
330
6C
100
AcDbEntity
  8
Widoczne (ISO)
100
AcDbSpline
210
0.0
220
0.0
230
1.0
 70
    12
 71
     2
 72
     6
 73
     3
 74
     0
 42
0.0000000001
 43
0.0000000001
 40
0.0
 40
0.0
 40
0.0
 40
1.110014331174022
 40
1.110014331174022
 40
1.110014331174022
 10
2168.736388499393
 20
2668.275596413711
 30
0.0
 41
1.0
 10
2171.478802278043
 20
2666.692263080378
 30
0.0
 41
1.154700538379253
 10
2174.221216056694
 20
2668.275596413711
 30
0.0
 41
1.0
  0
LINE
  5
257
330
6C
100
AcDbEntity
  8
Widoczne (ISO)
100
AcDbLine
 10
2188.306043613995
 20
2676.907475395408
 30
0.0
 11
2190.675698728598
 21
2675.539354377106
 31
0.0
  0
LINE
  5
258
330
6C
100
AcDbEntity
  8
Widoczne (ISO)
100
AcDbLine
 10
2171.106043613995
 20
2676.907475395408
 30
0.0
 11
2168.736388499393
 21
2675.539354377106
 31
0.0
  0
LINE
  5
259
330
6C
100
AcDbEntity
  8
Widoczne (ISO)
100
AcDbLine
 10
2171.106043613995
 20
2666.907475395408
 30
0.0
 11
2168.736388499393
 21
2668.275596413711
 31
0.0
  0
LINE
  5
25A
330
6C
100
AcDbEntity
  8
Widoczne (ISO)
100
AcDbLine
 10
2188.306043613995
 20
2666.907475395408
 30
0.0
 11
2190.675698728598
 21
2668.275596413711
 31
0.0
  0
LINE
  5
25B
330
6C
100
AcDbEntity
  8
Widoczne (ISO)
100
AcDbLine
 10
2190.675698728598
 20
2675.539354377106
 30
0.0
 11
2190.675698728598
 21
2668.275596413711
 31
0.0
  0
LINE
  5
25C
330
6C
100
AcDbEntity
  8
Widoczne (ISO)
100
AcDbLine
 10
2185.190871171297
 20
2675.539354377106
 30
0.0
 11
2185.190871171297
 21
2668.275596413711
 31
0.0
  0
LINE
  5
25D
330
6C
100
AcDbEntity
  8
Widoczne (ISO)
100
AcDbLine
 10
2174.221216056694
 20
2675.539354377106
 30
0.0
 11
2174.221216056694
 21
2668.275596413711
 31
0.0
  0
LINE
  5
25E
330
6C
100
AcDbEntity
  8
Widoczne (ISO)
100
AcDbLine
 10
2168.736388499393
 20
2675.539354377106
 30
0.0
 11
2168.736388499393
 21
2668.275596413711
 31
0.0
  0
LINE
  5
262
102
{ACAD_REACTORS
330
4AC
330
5A6
102
}
330
6C
100
AcDbEntity
  8
Widoczne (ISO)
100
AcDbLine
 10
-45.29395638600135
 20
2864.507475395408
 30
0.0
 11
2954.706043613995
 21
2864.507475395408
 31
0.0
  0
DIMENSION
  5
3C6
102
{ACAD_XDICTIONARY
360
3D4
102
}
102
{ACAD_REACTORS
330
3D5
102
}
330
6C
100
AcDbEntity
  8
AM_5
100
AcDbDimension
  2
*D8
 10
1223.323510719842
 20
2326.407474395409
 30
0.0
 11
973.3235107198423
 21
2376.232860560621
 31
0.0
 70
    32
  1
{\fISOCPEUR|b0|i0|c0|p34;%%C}<>
 71
     5
 42
-1.0
  3
AM_ISO$0
100
AcDbAlignedDimension
 13
723.3235107198423
 23
2506.407475395409
 33
0.0
 14
1223.323510719842
 24
2506.407475395409
 34
0.0
 50
0.0000000000001132
100
AcDbRotatedDimension
1001
ACAD_DSTYLE_DIMINSPECT
1070
   396
1000
100%
1070
   395
1000

1070
   394
1070
    33
1070
   393
1070
     0
  0
DIMENSION
  5
435
102
{ACAD_XDICTIONARY
360
442
102
}
102
{ACAD_REACTORS
330
443
102
}
330
6C
100
AcDbEntity
  8
AM_5
100
AcDbDimension
  2
*D9
 10
2384.706043613994
 20
2326.407475395408
 30
0.0
 11
2134.706043613995
 21
2376.232861560619
 31
0.0
 70
    32
  1
{\fISOCPEUR|b0|i0|c0|p34;%%C}<>
 71
     5
 42
-1.0
  3
AM_ISO$0
100
AcDbAlignedDimension
 13
1884.706043613994
 23
2506.407475395408
 33
0.0
 14
2384.706043613994
 24
2506.407475395408
 34
0.0
 50
0.0000000000001132
100
AcDbRotatedDimension
1001
ACAD_DSTYLE_DIMINSPECT
1070
   396
1000
100%
1070
   395
1000

1070
   394
1070
    33
1070
   393
1070
     0
  0
DIMENSION
  5
49E
102
{ACAD_XDICTIONARY
360
4AB
102
}
102
{ACAD_REACTORS
330
4AC
102
}
330
6C
100
AcDbEntity
  8
AM_5
100
AcDbDimension
  2
*D10
 10
730.7130307862608
 20
2864.507475395408
 30
0.0
 11
680.8876446210488
 21
3099.457588819231
 31
0.0
 70
    32
  1
<>
 71
     5
 42
-1.0
  3
AM_ISO$0
100
AcDbAlignedDimension
 13
814.0147691153444
 23
3334.407702243054
 33
0.0
 14
814.0147691153444
 24
2864.507475395408
 34
0.0
 50
89.99999999999984
100
AcDbRotatedDimension
1001
ACAD
1000
DSTYLE
1002
{
1070
   271
1070
     0
1002
}
1001
ACAD_DSTYLE_DIMINSPECT
1070
   396
1000
100%
1070
   395
1000

1070
   394
1070
    33
1070
   393
1070
     0
  0
DIMENSION
  5
519
102
{ACAD_XDICTIONARY
360
527
102
}
102
{ACAD_REACTORS
330
528
102
}
330
6C
100
AcDbEntity
  8
AM_5
100
AcDbDimension
  2
*D11
 10
730.1132033959916
 20
2664.40747539541
 30
0.0
 11
730.1132033959911
 21
2768.422277660253
 31
0.0
 70
   160
 71
     5
 42
-1.0
  3
AM_ISO$0
100
AcDbAlignedDimension
 13
953.3235107198414
 23
2864.507475395409
 33
0.0
 14
953.3235107198404
 24
2664.40747539541
 34
0.0
 50
90.00000000000003
100
AcDbRotatedDimension
1001
ACAD
1000
DSTYLE
1002
{
1070
   271
1070
     0
1002
}
1001
ACAD_DSTYLE_DIMINSPECT
1070
   396
1000
100%
1070
   395
1000

1070
   394
1070
    33
1070
   393
1070
     0
  0
DIMENSION
  5
545
102
{ACAD_XDICTIONARY
360
554
102
}
102
{ACAD_REACTORS
330
555
102
}
330
6C
100
AcDbEntity
  8
AM_5
100
AcDbDimension
  2
*D12
 10
1704.706042613994
 20
2506.407475395408
 30
0.0
 11
1654.880656448782
 21
2325.226313541815
 31
0.0
 70
    32
  1
<>
 71
     5
 42
-1.0
  3
AM_ISO$0
100
AcDbAlignedDimension
 13
2065.064102523287
 23
2656.407475395408
 33
0.0
 14
2065.064102523287
 24
2506.407475395408
 34
0.0
 50
90.00000000000003
100
AcDbRotatedDimension
1001
ACAD
1000
DSTYLE
1002
{
1070
   271
1070
     0
1002
}
1001
ACAD_DSTYLE_DIMINSPECT
1070
   396
1000
100%
1070
   395
1000

1070
   394
1070
    33
1070
   393
1070
     0
  0
DIMENSION
  5
598
102
{ACAD_XDICTIONARY
360
5A5
102
}
102
{ACAD_REACTORS
330
5A6
102
}
330
6C
100
AcDbEntity
  8
AM_5
100
AcDbDimension
  2
*D13
 10
580.7130307862619
 20
2864.507475395408
 30
0.0
 11
530.7642396512715
 21
3294.551478700389
 31
0.0
 70
    32
 71
     5
 42
-1.0
  3
AM_ISO$0
100
AcDbAlignedDimension
 13
901.0658376770843
 23
3724.59548200537
 33
0.0
 14
901.0658376770843
 24
2864.507475395408
 34
0.0
 50
89.99999999999984
100
AcDbRotatedDimension
1001
ACAD
1000
DSTYLE
1002
{
1070
   271
1070
     0
1002
}
1001
ACAD_DSTYLE_DIMINSPECT
1070
   396
1000
100%
1070
   395
1000

1070
   394
1070
    33
1070
   393
1070
     0
  0
DIMENSION
  5
5B9
330
6C
100
AcDbEntity
  8
AM_5
100
AcDbDimension
  2
*D14
 10
2304.014777166466
 20
1212.69616917751
 30
0.0
 11
1554.014777166466
 21
1262.521555342721
 31
0.0
 70
    32
 71
     5
 42
1500.0
  3
AM_ISO$0
100
AcDbAlignedDimension
 13
804.0147771664667
 23
1392.69616917751
 33
0.0
 14
2304.014777166466
 24
1392.69616917751
 34
0.0
 50
0.0000000000001132
100
AcDbRotatedDimension
1001
ACAD
1000
DSTYLE
1002
{
1070
   271
1070
     0
1002
}
1001
ACAD_DSTYLE_DIMINSPECT
1070
   396
1000
100%
1070
   395
1000

1070
   394
1070
    33
1070
   393
1070
     0
  0
DIMENSION
  5
5DA
330
6C
100
AcDbEntity
  8
AM_5
100
AcDbDimension
  2
*D15
 10
741.6288269692339
 20
1899.798617521934
 30
0.0
 11
691.7858115226252
 21
1636.58288017292
 31
0.0
 70
    32
 71
     5
 42
526.4314746980294
  3
AM_ISO$0
100
AcDbAlignedDimension
 13
921.6288269692341
 23
1373.367142823904
 33
0.0
 14
973.3235107193863
 24
1899.798617521934
 34
0.0
 50
90.00000000000007
100
AcDbRotatedDimension
1001
ACAD
1000
DSTYLE
1002
{
1070
   271
1070
     0
1002
}
1001
ACAD_DSTYLE_DIMINSPECT
1070
   396
1000
100%
1070
   395
1000

1070
   394
1070
    33
1070
   393
1070
     0
  0
INSERT
  5
635
330
6C
100
AcDbEntity
  8
0
100
AcDbBlockReference
  2
*U16
 10
3661.491682135242
 20
44.00399520363452
 30
0.0
  0
INSERT
  5
807
330
6C
100
AcDbEntity
  8
0
100
AcDbBlockReference
  2
107-108_Lawka-EKO-z-oparciem
 10
1554.014777166466
 20
1638.367186302099
 30
0.0
  0
ENDSEC
  0
SECTION
  2
OBJECTS
  0
DICTIONARY
  5
C
330
0
100
AcDbDictionary
281
     1
  3
ACAD_2007HEADERVARS_RT
350
80C
  3
ACAD_COLOR
350
63
  3
ACAD_GROUP
350
D
  3
ACAD_IMAGE_DICT
350
122
  3
ACAD_IMAGE_VARS
350
2AD
  3
ACAD_LAYOUT
350
62
  3
ACAD_MATERIAL
350
10
  3
ACAD_MLEADERSTYLE
350
66
  3
ACAD_MLINESTYLE
350
5F
  3
ACAD_PLOTSETTINGS
350
61
  3
ACAD_PLOTSTYLENAME
350
E
  3
ACAD_SCALELIST
350
42
  3
ACAD_TABLESTYLE
350
64
  3
ACAD_VISUALSTYLE
350
29
  3
ACDB_RECOMPOSE_DATA
350
80A
  3
ACDBHEADERROUNDTRIPXREC
350
6F6
  3
AcDbVariableDictionary
350
2E5
  3
AcmDictionary
350
367
  3
AMG
350
319
  3
AMGSNAPSETTINGS
350
3A8
  3
DWGPROPS
350
80B
  0
DICTIONARY
  5
71D
330
8
100
AcDbDictionary
280
     1
281
     1
  0
DICTIONARY
  5
608
330
2
100
AcDbDictionary
280
     1
281
     1
  3
ACAD_LAYERSTATES
360
609
  0
DICTIONARY
  5
2AE
330
6C
100
AcDbDictionary
280
     1
281
     1
  3
ACAD_LAYOUTSELFREF
360
765
  3
ACAD_SORTENTS
360
2AF
  0
DICTIONARY
  5
69B
330
68
100
AcDbDictionary
280
     1
281
     1
  3
ACAD_LAYOUTSELFREF
360
762
  0
DICTIONARY
  5
69D
330
70
100
AcDbDictionary
280
     1
281
     1
  3
ACAD_LAYOUTSELFREF
360
767
  0
DICTIONARY
  5
625
330
624
100
AcDbDictionary
280
     1
281
     1
  3
ACAD_SORTENTS
360
643
  0
DICTIONARY
  5
3D4
330
3C6
100
AcDbDictionary
280
     1
281
     1
  3
ACAD_DIMASSOC
360
3D5
  0
DICTIONARY
  5
442
330
435
100
AcDbDictionary
280
     1
281
     1
  3
ACAD_DIMASSOC
360
443
  0
DICTIONARY
  5
4AB
330
49E
100
AcDbDictionary
280
     1
281
     1
  3
ACAD_DIMASSOC
360
4AC
  0
DICTIONARY
  5
527
330
519
100
AcDbDictionary
280
     1
281
     1
  3
ACAD_DIMASSOC
360
528
  0
DICTIONARY
  5
554
330
545
100
AcDbDictionary
280
     1
281
     1
  3
ACAD_DIMASSOC
360
555
  0
DICTIONARY
  5
5A5
330
598
100
AcDbDictionary
280
     1
281
     1
  3
ACAD_DIMASSOC
360
5A6
  0
DICTIONARY
  5
80C
102
{ACAD_REACTORS
330
C
102
}
330
C
100
AcDbDictionary
281
     1
  3
DIMARCSYM
350
80D
  3
DIMLTEX1
350
80F
  3
DIMLTEX2
350
810
  3
DIMLTYPE
350
80E
  0
DICTIONARY
  5
63
102
{ACAD_REACTORS
330
C
102
}
330
C
100
AcDbDictionary
281
     1
  0
DICTIONARY
  5
D
102
{ACAD_REACTORS
330
C
102
}
330
C
100
AcDbDictionary
281
     1
  0
DICTIONARY
  5
122
102
{ACAD_REACTORS
330
C
102
}
330
C
100
AcDbDictionary
281
     1
  0
RASTERVARIABLES
  5
2AD
102
{ACAD_REACTORS
330
C
102
}
330
C
100
AcDbRasterVariables
 90
        0
 70
     0
 71
     1
 72
     1
  0
DICTIONARY
  5
62
102
{ACAD_REACTORS
330
C
102
}
330
C
100
AcDbDictionary
281
     1
  3
Layout1
350
6B
  3
Layout2
350
73
  3
Model
350
6F
  0
DICTIONARY
  5
10
102
{ACAD_REACTORS
330
C
102
}
330
C
100
AcDbDictionary
281
     1
  3
ByBlock
350
19
  3
ByLayer
350
11
  3
Global
350
21
  0
DICTIONARY
  5
66
102
{ACAD_REACTORS
330
C
102
}
330
C
100
AcDbDictionary
281
     1
  3
Standard
350
67
  0
DICTIONARY
  5
5F
102
{ACAD_REACTORS
330
C
102
}
330
C
100
AcDbDictionary
281
     1
  3
Standard
350
60
  0
DICTIONARY
  5
61
102
{ACAD_REACTORS
330
C
102
}
330
C
100
AcDbDictionary
281
     1
  0
ACDBDICTIONARYWDFLT
  5
E
102
{ACAD_REACTORS
330
C
102
}
330
C
100
AcDbDictionary
281
     1
  3
Normal
350
F
100
AcDbDictionaryWithDefault
340
F
  0
DICTIONARY
  5
42
102
{ACAD_REACTORS
330
C
102
}
330
C
100
AcDbDictionary
281
     1
  3
*A1
350
3C3
  3
A0
350
43
  3
A1
350
44
  3
A2
350
45
  3
A3
350
46
  3
A4
350
47
  3
A5
350
48
  3
A6
350
49
  3
A7
350
4A
  3
A8
350
4B
  3
A9
350
4C
  3
B0
350
4D
  3
B1
350
4E
  3
B2
350
4F
  3
B3
350
50
  3
B4
350
51
  3
B5
350
52
  3
B6
350
53
  0
DICTIONARY
  5
64
102
{ACAD_REACTORS
330
C
102
}
330
C
100
AcDbDictionary
281
     1
  3
Standard
350
65
  0
DICTIONARY
  5
29
102
{ACAD_REACTORS
330
C
102
}
330
C
100
AcDbDictionary
281
     1
  3
2dWireframe
350
2F
  3
Basic
350
2E
  3
Brighten
350
35
  3
ColorChange
350
39
  3
Conceptual
350
32
  3
Dim
350
34
  3
EdgeColorOff
350
41
  3
Facepattern
350
38
  3
Flat
350
2A
  3
FlatWithEdges
350
2B
  3
Gouraud
350
2C
  3
GouraudWithEdges
350
2D
  3
Hidden
350
31
  3
JitterOff
350
3F
  3
Linepattern
350
37
  3
OverhangOff
350
40
  3
Realistic
350
33
  3
Shaded
350
3E
  3
Shaded with edges
350
3D
  3
Shades of Gray
350
3A
  3
Sketchy
350
3B
  3
Thicken
350
36
  3
Wireframe
350
30
  3
X-Ray
350
3C
  0
XRECORD
  5
80A
102
{ACAD_REACTORS
330
C
102
}
330
C
100
AcDbXrecord
280
     1
 90
        1
330
65
  0
DICTIONARY
  5
6F6
102
{ACAD_REACTORS
330
C
102
}
330
C
100
AcDbDictionary
281
     1
  3
CEPSNTYPE
350
700
  3
DIMSTYLEDATA
350
704
  3
FINGERPRINTGUID
350
701
  3
HYPERLINKBASE
350
6F9
  3
INSUNITS
350
6FF
  3
LAYOUTDICT
350
6FB
  3
LWETCUNION
350
6FE
  3
PLOTSETDICT
350
6FC
  3
PLOTSTYLNAMDICT
350
6FD
  3
PSVPSCALE
350
703
  3
PUCSBASE
350
707
  3
PUCSORGBACK
350
70D
  3
PUCSORGBOTTOM
350
709
  3
PUCSORGFRONT
350
70C
  3
PUCSORGLEFT
350
70A
  3
PUCSORGRIGHT
350
70B
  3
PUCSORGTOP
350
708
  3
PUCSORTHOREF
350
705
  3
PUCSORTHOVIEW
350
706
  3
STYLESHEET
350
6FA
  3
TSTACKALIGN
350
6F7
  3
TSTACKSIZE
350
6F8
  3
UCSBASE
350
710
  3
UCSORGBACK
350
716
  3
UCSORGBOTTOM
350
712
  3
UCSORGFRONT
350
715
  3
UCSORGLEFT
350
713
  3
UCSORGRIGHT
350
714
  3
UCSORGTOP
350
711
  3
UCSORTHOREF
350
70E
  3
UCSORTHOVIEW
350
70F
  3
VERSIONGUID
350
702
  0
DICTIONARY
  5
2E5
102
{ACAD_REACTORS
330
C
102
}
330
C
100
AcDbDictionary
281
     1
  3
CANNOSCALE
350
2E8
  3
CMLEADERSTYLE
350
2E7
  3
CTABLESTYLE
350
2E6
  3
DIMASSOC
350
791
  3
HIDETEXT
350
790
  3
INDEXCTL
350
78F
  3
LAYEREVAL
350
78C
  3
LAYERNOTIFY
350
78D
  3
LIGHTINGUNITS
350
78B
  3
MSLTSCALE
350
78A
  3
SORTENTS
350
78E
  3
XCLIPFRAME
350
808
  0
DICTIONARY
  5
367
102
{ACAD_REACTORS
330
C
102
}
330
C
100
AcDbDictionary
281
     1
  3
AcmStdDictionary
350
372
  0
DICTIONARY
  5
319
102
{ACAD_REACTORS
330
C
102
}
330
C
100
AcDbDictionary
281
     1
  0
DICTIONARY
  5
3A8
102
{ACAD_REACTORS
330
C
102
}
330
C
100
AcDbDictionary
281
     1
  0
XRECORD
  5
80B
102
{ACAD_REACTORS
330
C
102
}
330
C
100
AcDbXrecord
280
     1
  1
DWGPROPS COOKIE
  2

  3

  4
Maruszak Marcin
  6

  7

  8
GRAFIK
  9

300
Menadżer=
301
Firma=
302
Kategoria=
303
Numer części=
304
Opis=
305
Projekt=
306
Projektant=Maruszak Marcin
307
Inżynier=
308
Zatwierdził=
309
Centrum kosztów=
 40
0.0042867013888889
 41
2456766.338223229
 42
2459858.501443403
  1

 90
       16
300
Dostawca=
300
Stan użytkownika=
300
Stan projektu=PracaWToku
300
Sprawdził=
300
Zatwierdził konstrukcję=
300
Zatwierdził do produkcji=
  0
DICTIONARY
  5
609
102
{ACAD_REACTORS
330
608
102
}
330
608
100
AcDbDictionary
281
     1
  0
XRECORD
  5
765
102
{ACAD_REACTORS
330
2AE
102
}
330
2AE
100
AcDbXrecord
280
     1
340
6C
  0
SORTENTSTABLE
  5
2AF
102
{ACAD_REACTORS
330
2AE
102
}
330
2AE
100
AcDbSortentsTable
330
6C
331
1B4
  5
1B4
331
22E
  5
22E
331
1EF
  5
1EF
331
1B0
  5
1B0
331
22A
  5
22A
331
1EB
  5
1EB
331
226
  5
226
331
1AC
  5
1AC
331
222
  5
222
331
1A8
  5
1A8
331
177
  5
177
331
173
  5
173
331
1E7
  5
1E7
331
21E
  5
21E
331
25D
  5
25D
331
1A4
  5
1A4
331
1E3
  5
1E3
331
21A
  5
21A
331
259
  5
259
331
1A0
  5
1A0
331
1DF
  5
1DF
331
19C
  5
19C
331
255
  5
255
331
216
  5
216
331
1DB
  5
1DB
331
198
  5
198
331
251
  5
251
331
212
  5
212
331
16F
  5
16F
331
16B
  5
16B
331
167
  5
167
331
163
  5
163
331
1D7
  5
1D7
331
1D3
  5
1D3
331
24D
  5
24D
331
20E
  5
20E
331
194
  5
194
331
190
  5
190
331
20A
  5
20A
331
249
  5
249
331
1CF
  5
1CF
331
1CB
  5
1CB
331
18C
  5
18C
331
245
  5
245
331
206
  5
206
331
188
  5
188
331
241
  5
241
331
202
  5
202
331
15F
  5
15F
331
15B
  5
15B
331
157
  5
157
331
153
  5
153
331
1C7
  5
1C7
331
1C3
  5
1C3
331
23D
  5
23D
331
1FE
  5
1FE
331
184
  5
184
331
180
  5
180
331
1FA
  5
1FA
331
239
  5
239
331
1BF
  5
1BF
331
1BB
  5
1BB
331
17C
  5
17C
331
235
  5
235
331
1F6
  5
1F6
331
178
  5
178
331
231
  5
231
331
1F2
  5
1F2
331
1B7
  5
1B7
331
1B3
  5
1B3
331
22D
  5
22D
331
1AF
  5
1AF
331
229
  5
229
331
1EE
  5
1EE
331
1AB
  5
1AB
331
225
  5
225
331
1EA
  5
1EA
331
221
  5
221
331
176
  5
176
331
172
  5
172
331
1E6
  5
1E6
331
1A7
  5
1A7
331
21D
  5
21D
331
25C
  5
25C
331
1A3
  5
1A3
331
1E2
  5
1E2
331
1DE
  5
1DE
331
219
  5
219
331
258
  5
258
331
19F
  5
19F
331
19B
  5
19B
331
254
  5
254
331
215
  5
215
331
1DA
  5
1DA
331
250
  5
250
331
211
  5
211
331
16E
  5
16E
331
16A
  5
16A
331
166
  5
166
331
162
  5
162
331
1D6
  5
1D6
331
197
  5
197
331
1D2
  5
1D2
331
24C
  5
24C
331
20D
  5
20D
331
193
  5
193
331
1CE
  5
1CE
331
209
  5
209
331
248
  5
248
331
18F
  5
18F
331
18B
  5
18B
331
244
  5
244
331
205
  5
205
331
1CA
  5
1CA
331
240
  5
240
331
201
  5
201
331
15E
  5
15E
331
15A
  5
15A
331
156
  5
156
331
152
  5
152
331
187
  5
187
331
1C6
  5
1C6
331
1C2
  5
1C2
331
23C
  5
23C
331
1FD
  5
1FD
331
183
  5
183
331
1BE
  5
1BE
331
1F9
  5
1F9
331
238
  5
238
331
17F
  5
17F
331
1BA
  5
1BA
331
17B
  5
17B
331
234
  5
234
331
1F5
  5
1F5
331
230
  5
230
331
1F1
  5
1F1
331
1B6
  5
1B6
331
1B2
  5
1B2
331
22C
  5
22C
331
1ED
  5
1ED
331
1AE
  5
1AE
331
228
  5
228
331
1E9
  5
1E9
331
1AA
  5
1AA
331
224
  5
224
331
220
  5
220
331
175
  5
175
331
171
  5
171
331
1A6
  5
1A6
331
1E5
  5
1E5
331
21C
  5
21C
331
25B
  5
25B
331
1A2
  5
1A2
331
1E1
  5
1E1
331
1DD
  5
1DD
331
19E
  5
19E
331
218
  5
218
331
257
  5
257
331
19A
  5
19A
331
253
  5
253
331
214
  5
214
331
1D9
  5
1D9
331
210
  5
210
331
16D
  5
16D
331
169
  5
169
331
165
  5
165
331
161
  5
161
331
1D5
  5
1D5
331
24F
  5
24F
331
196
  5
196
331
1D1
  5
1D1
331
192
  5
192
331
20C
  5
20C
331
24B
  5
24B
331
1CD
  5
1CD
331
18E
  5
18E
331
208
  5
208
331
247
  5
247
331
18A
  5
18A
331
243
  5
243
331
204
  5
204
331
1C9
  5
1C9
331
200
  5
200
331
15D
  5
15D
331
159
  5
159
331
155
  5
155
331
1C5
  5
1C5
331
23F
  5
23F
331
186
  5
186
331
1C1
  5
1C1
331
23B
  5
23B
331
1FC
  5
1FC
331
182
  5
182
331
1BD
  5
1BD
331
17E
  5
17E
331
1F8
  5
1F8
331
237
  5
237
331
17A
  5
17A
331
233
  5
233
331
1F4
  5
1F4
331
1B9
  5
1B9
331
1F0
  5
1F0
331
22F
  5
22F
331
1B5
  5
1B5
331
1B1
  5
1B1
331
22B
  5
22B
331
1EC
  5
1EC
331
227
  5
227
331
1AD
  5
1AD
331
1E8
  5
1E8
331
262
  5
262
331
223
  5
223
331
1A9
  5
1A9
331
174
  5
174
331
170
  5
170
331
21F
  5
21F
331
25E
  5
25E
331
1A5
  5
1A5
331
1E4
  5
1E4
331
21B
  5
21B
331
25A
  5
25A
331
1A1
  5
1A1
331
1E0
  5
1E0
331
1DC
  5
1DC
331
19D
  5
19D
331
256
  5
256
331
217
  5
217
331
199
  5
199
331
252
  5
252
331
213
  5
213
331
1D8
  5
1D8
331
16C
  5
16C
331
168
  5
168
331
164
  5
164
331
160
  5
160
331
1D4
  5
1D4
331
24E
  5
24E
331
20F
  5
20F
331
195
  5
195
331
1D0
  5
1D0
331
191
  5
191
331
20B
  5
20B
331
24A
  5
24A
331
1CC
  5
1CC
331
18D
  5
18D
331
246
  5
246
331
207
  5
207
331
189
  5
189
331
242
  5
242
331
203
  5
203
331
1C8
  5
1C8
331
15C
  5
15C
331
158
  5
158
331
154
  5
154
331
1C4
  5
1C4
331
23E
  5
23E
331
1FF
  5
1FF
331
185
  5
185
331
1C0
  5
1C0
331
181
  5
181
331
1FB
  5
1FB
331
23A
  5
23A
331
1BC
  5
1BC
331
17D
  5
17D
331
1F7
  5
1F7
331
236
  5
236
331
179
  5
179
331
232
  5
232
331
1F3
  5
1F3
331
1B8
  5
1B8
  0
XRECORD
  5
762
102
{ACAD_REACTORS
330
69B
102
}
330
69B
100
AcDbXrecord
280
     1
340
68
  0
XRECORD
  5
767
102
{ACAD_REACTORS
330
69D
102
}
330
69D
100
AcDbXrecord
280
     1
340
70
  0
SORTENTSTABLE
  5
643
102
{ACAD_REACTORS
330
625
102
}
330
625
100
AcDbSortentsTable
330
624
  0
DIMASSOC
  5
3D5
102
{ACAD_REACTORS
330
3D4
102
}
330
3D4
100
AcDbDimAssoc
330
3C6
 90
        3
 70
     0
 71
     0
  1
AcDbOsnapPointRef
 72
    13
331
20B
 73
     0
 91
        0
 40
0.0
 10
0.0
 20
0.0
 30
2.000000000000000E+50
 75
     0
  1
AcDbOsnapPointRef
 72
    13
331
20C
 73
     0
 91
        0
 40
0.0
 10
0.0
 20
0.0
 30
2.000000000000000E+50
 75
     0
  0
DIMASSOC
  5
443
102
{ACAD_REACTORS
330
442
102
}
330
442
100
AcDbDimAssoc
330
435
 90
        3
 70
     0
 71
     0
  1
AcDbOsnapPointRef
 72
    13
331
213
 73
     0
 91
        0
 40
0.0
 10
0.0
 20
0.0
 30
2.000000000000000E+50
 75
     0
  1
AcDbOsnapPointRef
 72
    13
331
214
 73
     0
 91
        0
 40
0.0
 10
0.0
 20
0.0
 30
2.000000000000000E+50
 75
     0
  0
DIMASSOC
  5
4AC
102
{ACAD_REACTORS
330
4AB
102
}
330
4AB
100
AcDbDimAssoc
330
49E
 90
        3
 70
     0
 71
     0
  1
AcDbOsnapPointRef
 72
    13
331
19A
 73
     0
 91
        0
 40
0.0
 10
0.0
 20
0.0
 30
2.000000000000000E+50
 75
     0
  1
AcDbOsnapPointRef
 72
     8
331
262
 73
     0
 91
        0
 40
0.2864362418337823
 10
0.0
 20
0.0
 30
0.0
 75
     1
  1
AcDbOsnapPointRef
 72
    13
331
19A
 73
     0
 91
        0
 40
0.0
 10
0.0
 20
0.0
 30
2.000000000000000E+50
 75
     0
  0
DIMASSOC
  5
528
102
{ACAD_REACTORS
330
527
102
}
330
527
100
AcDbDimAssoc
330
519
 90
        3
 70
     0
 71
     0
  1
AcDbOsnapPointRef
 72
     1
331
167
 73
     0
 91
        0
 40
0.0
 10
0.0
 20
0.0
 30
2.000000000000000E+50
 75
     0
  1
AcDbOsnapPointRef
 72
     1
331
168
 73
     0
 91
        0
 40
0.0
 10
0.0
 20
0.0
 30
2.000000000000000E+50
 75
     0
  0
DIMASSOC
  5
555
102
{ACAD_REACTORS
330
554
102
}
330
554
100
AcDbDimAssoc
330
545
 90
        3
 70
     0
 71
     0
  1
AcDbOsnapPointRef
 72
     2
331
210
 73
     0
 91
        0
 40
0.0
 10
0.0
 20
0.0
 30
0.0
 75
     0
  1
AcDbOsnapPointRef
 72
     8
331
20F
 73
     0
 91
        0
 40
0.6392838821814145
 10
0.0
 20
0.0
 30
0.0
 75
     1
  1
AcDbOsnapPointRef
 72
     2
331
210
 73
     0
 91
        0
 40
0.0
 10
0.0
 20
0.0
 30
0.0
 75
     0
  0
DIMASSOC
  5
5A6
102
{ACAD_REACTORS
330
5A5
102
}
330
5A5
100
AcDbDimAssoc
330
598
 90
        3
 70
     0
 71
     0
  1
AcDbOsnapPointRef
 72
    10
331
186
 73
     0
 91
        0
 40
0.9383210025165414
 10
0.0
 20
0.0
 30
0.0
 75
     0
  1
AcDbOsnapPointRef
 72
     8
331
262
 73
     0
 91
        0
 40
0.3154532646876956
 10
0.0
 20
0.0
 30
0.0
 75
     1
  1
AcDbOsnapPointRef
 72
    10
331
186
 73
     0
 91
        0
 40
0.9383210025165414
 10
0.0
 20
0.0
 30
0.0
 75
     0
  0
XRECORD
  5
80D
102
{ACAD_REACTORS
330
80C
102
}
330
80C
100
AcDbXrecord
280
     1
 70
     1
  0
XRECORD
  5
80F
102
{ACAD_REACTORS
330
80C
102
}
330
80C
100
AcDbXrecord
280
     1
340
5B
  0
XRECORD
  5
810
102
{ACAD_REACTORS
330
80C
102
}
330
80C
100
AcDbXrecord
280
     1
340
5B
  0
XRECORD
  5
80E
102
{ACAD_REACTORS
330
80C
102
}
330
80C
100
AcDbXrecord
280
     1
340
5B
  0
LAYOUT
  5
6B
102
{ACAD_XDICTIONARY
360
845
102
}
102
{ACAD_REACTORS
330
62
102
}
330
62
100
AcDbPlotSettings
  1

  2

  4

  6

 40
0.0
 41
0.0
 42
0.0
 43
0.0
 44
0.0
 45
0.0
 46
0.0
 47
0.0
 48
0.0
 49
0.0
140
0.0
141
0.0
142
1.0
143
1.0
 70
   688
 72
     0
 73
     0
 74
     5
  7

 75
    16
147
1.0
148
0.0
149
0.0
100
AcDbLayout
  1
Layout1
 70
     1
 71
     1
 10
0.0
 20
0.0
 11
3150.0
 21
4455.0
 12
0.0
 22
0.0
 32
0.0
 14
0.0
 24
0.0
 34
0.0
 15
3150.0
 25
4455.0
 35
0.0
146
0.0
 13
0.0
 23
0.0
 33
0.0
 16
1.0
 26
0.0
 36
0.0
 17
0.0
 27
1.0
 37
0.0
 76
     0
330
68
  0
LAYOUT
  5
73
102
{ACAD_XDICTIONARY
360
848
102
}
102
{ACAD_REACTORS
330
62
102
}
330
62
100
AcDbPlotSettings
  1

  2

  4

  6

 40
0.0
 41
0.0
 42
0.0
 43
0.0
 44
0.0
 45
0.0
 46
0.0
 47
0.0
 48
0.0
 49
0.0
140
0.0
141
0.0
142
1.0
143
1.0
 70
   688
 72
     0
 73
     0
 74
     5
  7

 75
    16
147
1.0
148
0.0
149
0.0
100
AcDbLayout
  1
Layout2
 70
     1
 71
     2
 10
0.0
 20
0.0
 11
12.0
 21
9.0
 12
0.0
 22
0.0
 32
0.0
 14
0.0
 24
0.0
 34
0.0
 15
0.0
 25
0.0
 35
0.0
146
0.0
 13
0.0
 23
0.0
 33
0.0
 16
1.0
 26
0.0
 36
0.0
 17
0.0
 27
1.0
 37
0.0
 76
     0
330
70
  0
LAYOUT
  5
6F
102
{ACAD_XDICTIONARY
360
60E
102
}
102
{ACAD_REACTORS
330
62
102
}
330
62
100
AcDbPlotSettings
  1

  2

  4

  6

 40
0.0
 41
0.0
 42
0.0
 43
0.0
 44
0.0
 45
0.0
 46
0.0
 47
0.0
 48
0.0
 49
0.0
140
0.0
141
0.0
142
1.0
143
1.0
 70
  1712
 72
     0
 73
     0
 74
     0
  7

 75
     0
147
1.0
148
0.0
149
0.0
100
AcDbLayout
  1
Model
 70
     1
 71
     0
 10
0.0
 20
0.0
 11
12.0
 21
9.0
 12
0.0
 22
0.0
 32
0.0
 14
0.0
 24
0.0
 34
0.0
 15
0.0
 25
0.0
 35
0.0
146
0.0
 13
0.0
 23
0.0
 33
0.0
 16
1.0
 26
0.0
 36
0.0
 17
0.0
 27
1.0
 37
0.0
 76
     0
330
6C
331
57
  0
MATERIAL
  5
19
102
{ACAD_XDICTIONARY
360
1A
102
}
102
{ACAD_REACTORS
330
10
102
}
330
10
100
AcDbMaterial
  1
ByBlock
 72
     0
 43
0.0208333333333333
 43
0.0
 43
0.0
 43
0.0
 43
0.0
 43
0.0208333333333333
 43
0.0
 43
0.0
 43
0.0
 43
0.0
 43
1.0
 43
0.0
 43
0.0
 43
0.0
 43
0.0
 43
1.0
 77
     0
 47
0.0208333333333333
 47
0.0
 47
0.0
 47
0.0
 47
0.0
 47
0.0208333333333333
 47
0.0
 47
0.0
 47
0.0
 47
0.0
 47
1.0
 47
0.0
 47
0.0
 47
0.0
 47
0.0
 47
1.0
171
     0
 49
0.0208333333333333
 49
0.0
 49
0.0
 49
0.0
 49
0.0
 49
0.0208333333333333
 49
0.0
 49
0.0
 49
0.0
 49
0.0
 49
1.0
 49
0.0
 49
0.0
 49
0.0
 49
0.0
 49
1.0
175
     0
142
0.0208333333333333
142
0.0
142
0.0
142
0.0
142
0.0
142
0.0208333333333333
142
0.0
142
0.0
142
0.0
142
0.0
142
1.0
142
0.0
142
0.0
142
0.0
142
0.0
142
1.0
179
     0
144
0.0208333333333333
144
0.0
144
0.0
144
0.0
144
0.0
144
0.0208333333333333
144
0.0
144
0.0
144
0.0
144
0.0
144
1.0
144
0.0
144
0.0
144
0.0
144
0.0
144
1.0
147
0.0208333333333333
147
0.0
147
0.0
147
0.0
147
0.0
147
0.0208333333333333
147
0.0
147
0.0
147
0.0
147
0.0
147
1.0
147
0.0
147
0.0
147
0.0
147
0.0
147
1.0
  0
MATERIAL
  5
11
102
{ACAD_XDICTIONARY
360
12
102
}
102
{ACAD_REACTORS
330
10
102
}
330
10
100
AcDbMaterial
  1
ByLayer
 72
     0
 43
0.0208333333333333
 43
0.0
 43
0.0
 43
0.0
 43
0.0
 43
0.0208333333333333
 43
0.0
 43
0.0
 43
0.0
 43
0.0
 43
1.0
 43
0.0
 43
0.0
 43
0.0
 43
0.0
 43
1.0
 77
     0
 47
0.0208333333333333
 47
0.0
 47
0.0
 47
0.0
 47
0.0
 47
0.0208333333333333
 47
0.0
 47
0.0
 47
0.0
 47
0.0
 47
1.0
 47
0.0
 47
0.0
 47
0.0
 47
0.0
 47
1.0
171
     0
 49
0.0208333333333333
 49
0.0
 49
0.0
 49
0.0
 49
0.0
 49
0.0208333333333333
 49
0.0
 49
0.0
 49
0.0
 49
0.0
 49
1.0
 49
0.0
 49
0.0
 49
0.0
 49
0.0
 49
1.0
175
     0
142
0.0208333333333333
142
0.0
142
0.0
142
0.0
142
0.0
142
0.0208333333333333
142
0.0
142
0.0
142
0.0
142
0.0
142
1.0
142
0.0
142
0.0
142
0.0
142
0.0
142
1.0
179
     0
144
0.0208333333333333
144
0.0
144
0.0
144
0.0
144
0.0
144
0.0208333333333333
144
0.0
144
0.0
144
0.0
144
0.0
144
1.0
144
0.0
144
0.0
144
0.0
144
0.0
144
1.0
147
0.0208333333333333
147
0.0
147
0.0
147
0.0
147
0.0
147
0.0208333333333333
147
0.0
147
0.0
147
0.0
147
0.0
147
1.0
147
0.0
147
0.0
147
0.0
147
0.0
147
1.0
  0
MATERIAL
  5
21
102
{ACAD_XDICTIONARY
360
22
102
}
102
{ACAD_REACTORS
330
10
102
}
330
10
100
AcDbMaterial
  1
Global
 72
     0
 43
0.0208333333333333
 43
0.0
 43
0.0
 43
0.0
 43
0.0
 43
0.0208333333333333
 43
0.0
 43
0.0
 43
0.0
 43
0.0
 43
1.0
 43
0.0
 43
0.0
 43
0.0
 43
0.0
 43
1.0
 77
     0
 47
0.0208333333333333
 47
0.0
 47
0.0
 47
0.0
 47
0.0
 47
0.0208333333333333
 47
0.0
 47
0.0
 47
0.0
 47
0.0
 47
1.0
 47
0.0
 47
0.0
 47
0.0
 47
0.0
 47
1.0
171
     0
 49
0.0208333333333333
 49
0.0
 49
0.0
 49
0.0
 49
0.0
 49
0.0208333333333333
 49
0.0
 49
0.0
 49
0.0
 49
0.0
 49
1.0
 49
0.0
 49
0.0
 49
0.0
 49
0.0
 49
1.0
175
     0
142
0.0208333333333333
142
0.0
142
0.0
142
0.0
142
0.0
142
0.0208333333333333
142
0.0
142
0.0
142
0.0
142
0.0
142
1.0
142
0.0
142
0.0
142
0.0
142
0.0
142
1.0
179
     0
144
0.0208333333333333
144
0.0
144
0.0
144
0.0
144
0.0
144
0.0208333333333333
144
0.0
144
0.0
144
0.0
144
0.0
144
1.0
144
0.0
144
0.0
144
0.0
144
0.0
144
1.0
147
0.0208333333333333
147
0.0
147
0.0
147
0.0
147
0.0
147
0.0208333333333333
147
0.0
147
0.0
147
0.0
147
0.0
147
1.0
147
0.0
147
0.0
147
0.0
147
0.0
147
1.0
  0
MLEADERSTYLE
  5
67
102
{ACAD_REACTORS
330
66
102
}
330
66
100
AcDbMLeaderStyle
170
     2
171
     1
172
     0
 90
        2
 40
0.0
 41
0.0
173
     1
 91
-1056964608
340
5B
 92
       -2
290
     1
 42
0.09
291
     1
 43
0.36
  3
Standard
 44
0.18
300

342
55
174
     1
178
     6
175
     1
176
     0
 93
-1056964608
 45
0.18
292
     0
297
     0
 46
0.18
 94
-1056964608
 47
1.0
 49
1.0
140
1.0
293
     1
141
0.0
294
     1
177
     0
142
1.0
295
     0
296
     0
143
0.125
1001
ACAD_MLEADERVER
1070
     2
  0
MLINESTYLE
  5
60
102
{ACAD_REACTORS
330
5F
102
}
330
5F
100
AcDbMlineStyle
  2
STANDARD
 70
     0
  3

 62
   256
 51
90.0
 52
90.0
 71
     2
 49
0.5
 62
   256
  6
BYLAYER
 49
-0.5
 62
   256
  6
BYLAYER
  0
ACDBPLACEHOLDER
  5
F
102
{ACAD_REACTORS
330
E
102
}
330
E
  0
SCALE
  5
3C3
102
{ACAD_REACTORS
330
42
102
}
330
42
100
AcDbScale
 70
     0
300
1:15
140
1.0
141
15.0
290
     0
  0
SCALE
  5
43
102
{ACAD_REACTORS
330
42
102
}
330
42
100
AcDbScale
 70
     0
300
1:1
140
1.0
141
1.0
290
     1
  0
SCALE
  5
44
102
{ACAD_REACTORS
330
42
102
}
330
42
100
AcDbScale
 70
     0
300
1/128" = 1'-0"
140
0.0078125
141
12.0
290
     0
  0
SCALE
  5
45
102
{ACAD_REACTORS
330
42
102
}
330
42
100
AcDbScale
 70
     0
300
1/64" = 1'-0"
140
0.015625
141
12.0
290
     0
  0
SCALE
  5
46
102
{ACAD_REACTORS
330
42
102
}
330
42
100
AcDbScale
 70
     0
300
1/32" = 1'-0"
140
0.03125
141
12.0
290
     0
  0
SCALE
  5
47
102
{ACAD_REACTORS
330
42
102
}
330
42
100
AcDbScale
 70
     0
300
1/16" = 1'-0"
140
0.0625
141
12.0
290
     0
  0
SCALE
  5
48
102
{ACAD_REACTORS
330
42
102
}
330
42
100
AcDbScale
 70
     0
300
3/32" = 1'-0"
140
0.09375
141
12.0
290
     0
  0
SCALE
  5
49
102
{ACAD_REACTORS
330
42
102
}
330
42
100
AcDbScale
 70
     0
300
1/8" = 1'-0"
140
0.125
141
12.0
290
     0
  0
SCALE
  5
4A
102
{ACAD_REACTORS
330
42
102
}
330
42
100
AcDbScale
 70
     0
300
3/16" = 1'-0"
140
0.1875
141
12.0
290
     0
  0
SCALE
  5
4B
102
{ACAD_REACTORS
330
42
102
}
330
42
100
AcDbScale
 70
     0
300
1/4" = 1'-0"
140
0.25
141
12.0
290
     0
  0
SCALE
  5
4C
102
{ACAD_REACTORS
330
42
102
}
330
42
100
AcDbScale
 70
     0
300
3/8" = 1'-0"
140
0.375
141
12.0
290
     0
  0
SCALE
  5
4D
102
{ACAD_REACTORS
330
42
102
}
330
42
100
AcDbScale
 70
     0
300
1/2" = 1'-0"
140
0.5
141
12.0
290
     0
  0
SCALE
  5
4E
102
{ACAD_REACTORS
330
42
102
}
330
42
100
AcDbScale
 70
     0
300
3/4" = 1'-0"
140
0.75
141
12.0
290
     0
  0
SCALE
  5
4F
102
{ACAD_REACTORS
330
42
102
}
330
42
100
AcDbScale
 70
     0
300
1" = 1'-0"
140
1.0
141
12.0
290
     0
  0
SCALE
  5
50
102
{ACAD_REACTORS
330
42
102
}
330
42
100
AcDbScale
 70
     0
300
1-1/2" = 1'-0"
140
1.5
141
12.0
290
     0
  0
SCALE
  5
51
102
{ACAD_REACTORS
330
42
102
}
330
42
100
AcDbScale
 70
     0
300
3" = 1'-0"
140
3.0
141
12.0
290
     0
  0
SCALE
  5
52
102
{ACAD_REACTORS
330
42
102
}
330
42
100
AcDbScale
 70
     0
300
6" = 1'-0"
140
6.0
141
12.0
290
     0
  0
SCALE
  5
53
102
{ACAD_REACTORS
330
42
102
}
330
42
100
AcDbScale
 70
     0
300
1'-0" = 1'-0"
140
12.0
141
12.0
290
     0
  0
TABLESTYLE
  5
65
102
{ACAD_XDICTIONARY
360
685
102
}
102
{ACAD_REACTORS
330
64
102
}
330
64
100
AcDbTableStyle
  3
Standard
 70
     0
 71
     0
 40
0.06
 41
0.06
280
     0
281
     0
  7
Standard
140
0.18
170
     2
 62
     0
 63
     7
283
     0
274
    -2
284
     1
 64
     0
275
    -2
285
     1
 65
     0
276
    -2
286
     1
 66
     0
277
    -2
287
     1
 67
     0
278
    -2
288
     1
 68
     0
279
    -2
289
     1
 69
     0
  7
Standard
140
0.25
170
     5
 62
     0
 63
     7
283
     0
274
    -2
284
     1
 64
     0
275
    -2
285
     1
 65
     0
276
    -2
286
     1
 66
     0
277
    -2
287
     1
 67
     0
278
    -2
288
     1
 68
     0
279
    -2
289
     1
 69
     0
  7
Standard
140
0.18
170
     5
 62
     0
 63
     7
283
     0
274
    -2
284
     1
 64
     0
275
    -2
285
     1
 65
     0
276
    -2
286
     1
 66
     0
277
    -2
287
     1
 67
     0
278
    -2
288
     1
 68
     0
279
    -2
289
     1
 69
     0
  0
VISUALSTYLE
  5
2F
102
{ACAD_XDICTIONARY
360
81E
102
}
102
{ACAD_REACTORS
330
29
102
}
330
29
100
AcDbVisualStyle
  2
2dWireframe
 70
     4
 71
     0
 72
     2
 73
     0
 90
        0
 40
-0.6
 41
-30.0
 62
     5
 63
     7
 74
     1
 91
        4
 64
     7
 65
   257
 75
     1
175
     1
 42
1.0
 92
        0
 66
   257
 43
1.0
 76
     1
 77
     6
 78
     2
 67
     7
 79
     5
170
     0
171
     0
290
     0
174
     0
 93
        1
 44
0.0
173
     0
291
     0
 45
0.0
1001
ACAD
1000
AcDbSavedByObjectVersion
1070
     0
  0
VISUALSTYLE
  5
2E
102
{ACAD_XDICTIONARY
360
81C
102
}
102
{ACAD_REACTORS
330
29
102
}
330
29
100
AcDbVisualStyle
  2
Basic
 70
     7
 71
     1
 72
     0
 73
     1
 90
        0
 40
-0.6
 41
-30.0
 62
     5
 63
     7
 74
     0
 91
        4
 64
     7
 65
   257
 75
     1
175
     1
 42
1.0
 92
        8
 66
     7
 43
1.0
 76
     1
 77
     6
 78
     2
 67
     7
 79
     5
170
     0
171
     0
290
     0
174
     0
 93
        1
 44
0.0
173
     0
291
     1
 45
0.0
1001
ACAD
1000
AcDbSavedByObjectVersion
1070
     0
  0
VISUALSTYLE
  5
35
102
{ACAD_XDICTIONARY
360
82A
102
}
102
{ACAD_REACTORS
330
29
102
}
330
29
100
AcDbVisualStyle
  2
Brighten
 70
    12
 71
     2
 72
     2
 73
     0
 90
        0
 40
-0.6
 41
-30.0
 62
     5
 63
     7
 74
     1
 91
        4
 64
     7
 65
   257
 75
     1
175
     1
 42
1.0
 92
        8
 66
     7
 43
1.0
 76
     1
 77
     6
 78
     2
 67
     7
 79
     5
170
     0
171
     0
290
     0
174
     0
 93
        1
 44
50.0
173
     0
291
     1
 45
0.0
1001
ACAD
1000
AcDbSavedByObjectVersion
1070
     0
  0
VISUALSTYLE
  5
39
102
{ACAD_XDICTIONARY
360
832
102
}
102
{ACAD_REACTORS
330
29
102
}
330
29
100
AcDbVisualStyle
  2
ColorChange
 70
    16
 71
     2
 72
     2
 73
     3
 90
        0
 40
-0.6
 41
-30.0
 62
     5
 63
     8
 74
     1
 91
        4
 64
     7
 65
   257
 75
     1
175
     1
 42
1.0
 92
        8
 66
     8
 43
1.0
 76
     1
 77
     6
 78
     2
 67
     7
 79
     5
170
     0
171
     0
290
     0
174
     0
 93
        1
 44
0.0
173
     0
291
     1
 45
0.0
1001
ACAD
1000
AcDbSavedByObjectVersion
1070
     0
  0
VISUALSTYLE
  5
32
102
{ACAD_XDICTIONARY
360
824
102
}
102
{ACAD_REACTORS
330
29
102
}
330
29
100
AcDbVisualStyle
  2
Conceptual
 70
     9
 71
     3
 72
     2
 73
     0
 90
        0
 40
-0.6
 41
-30.0
 62
     5
 63
     7
 74
     2
 91
        2
 64
     7
 65
   257
 75
     1
175
     1
 42
179.0
 92
        8
 66
     7
 43
1.0
 76
     1
 77
     6
 78
     2
 67
     7
 79
     3
170
     0
171
     0
290
     0
174
     0
 93
        1
 44
0.0
173
     0
291
     0
 45
0.0
1001
ACAD
1000
AcDbSavedByObjectVersion
1070
     0
  0
VISUALSTYLE
  5
34
102
{ACAD_XDICTIONARY
360
828
102
}
102
{ACAD_REACTORS
330
29
102
}
330
29
100
AcDbVisualStyle
  2
Dim
 70
    11
 71
     2
 72
     2
 73
     0
 90
        0
 40
-0.6
 41
-30.0
 62
     5
 63
     7
 74
     1
 91
        4
 64
     7
 65
   257
 75
     1
175
     1
 42
1.0
 92
        8
 66
     7
 43
1.0
 76
     1
 77
     6
 78
     2
 67
     7
 79
     5
170
     0
171
     0
290
     0
174
     0
 93
        1
 44
-50.0
173
     0
291
     1
 45
0.0
1001
ACAD
1000
AcDbSavedByObjectVersion
1070
     0
  0
VISUALSTYLE
  5
41
102
{ACAD_XDICTIONARY
360
842
102
}
102
{ACAD_REACTORS
330
29
102
}
330
29
100
AcDbVisualStyle
  2
EdgeColorOff
 70
    22
 71
     2
 72
     2
 73
     0
 90
        0
 40
-0.6
 41
-30.0
 62
     5
 63
     7
 74
     1
 91
        4
 64
     7
 65
   257
 75
     1
175
     1
 42
1.0
 92
        8
 66
     7
 43
1.0
 76
     1
 77
     6
 78
     2
 67
     7
 79
     5
170
     0
171
     0
290
     0
174
     0
 93
        1
 44
0.0
173
     0
291
     1
 45
0.0
1001
ACAD
1000
AcDbSavedByObjectVersion
1070
     0
  0
VISUALSTYLE
  5
38
102
{ACAD_XDICTIONARY
360
830
102
}
102
{ACAD_REACTORS
330
29
102
}
330
29
100
AcDbVisualStyle
  2
Facepattern
 70
    15
 71
     2
 72
     2
 73
     0
 90
        0
 40
-0.6
 41
-30.0
 62
     5
 63
     7
 74
     1
 91
        4
 64
     7
 65
   257
 75
     1
175
     1
 42
1.0
 92
        8
 66
     7
 43
1.0
 76
     1
 77
     6
 78
     2
 67
     7
 79
     5
170
     0
171
     0
290
     0
174
     0
 93
        1
 44
0.0
173
     0
291
     1
 45
0.0
1001
ACAD
1000
AcDbSavedByObjectVersion
1070
     0
  0
VISUALSTYLE
  5
2A
102
{ACAD_XDICTIONARY
360
814
102
}
102
{ACAD_REACTORS
330
29
102
}
330
29
100
AcDbVisualStyle
  2
Flat
 70
     0
 71
     2
 72
     1
 73
     1
 90
        2
 40
-0.6
 41
30.0
 62
     5
 63
     7
 74
     0
 91
        0
 64
     7
 65
   257
 75
     1
175
     1
 42
1.0
 92
        8
 66
     7
 43
1.0
 76
     1
 77
     6
 78
     2
 67
     7
 79
     5
170
     0
171
     0
290
     0
174
     0
 93
       13
 44
0.0
173
     0
291
     1
 45
0.0
1001
ACAD
1000
AcDbSavedByObjectVersion
1070
     0
  0
VISUALSTYLE
  5
2B
102
{ACAD_XDICTIONARY
360
816
102
}
102
{ACAD_REACTORS
330
29
102
}
330
29
100
AcDbVisualStyle
  2
FlatWithEdges
 70
     1
 71
     2
 72
     1
 73
     1
 90
        2
 40
-0.6
 41
30.0
 62
     5
 63
     7
 74
     1
 91
        0
 64
     7
 65
   257
 75
     1
175
     1
 42
1.0
 92
        0
 66
   257
 43
1.0
 76
     1
 77
     6
 78
     2
 67
     7
 79
     5
170
     0
171
     0
290
     0
174
     0
 93
       13
 44
0.0
173
     0
291
     1
 45
0.0
1001
ACAD
1000
AcDbSavedByObjectVersion
1070
     0
  0
VISUALSTYLE
  5
2C
102
{ACAD_XDICTIONARY
360
818
102
}
102
{ACAD_REACTORS
330
29
102
}
330
29
100
AcDbVisualStyle
  2
Gouraud
 70
     2
 71
     2
 72
     2
 73
     1
 90
        2
 40
-0.6
 41
30.0
 62
     5
 63
     7
 74
     0
 91
        0
 64
     7
 65
   257
 75
     1
175
     1
 42
1.0
 92
        0
 66
     7
 43
1.0
 76
     1
 77
     6
 78
     2
 67
     7
 79
     5
170
     0
171
     0
290
     0
174
     0
 93
       13
 44
0.0
173
     0
291
     1
 45
0.0
1001
ACAD
1000
AcDbSavedByObjectVersion
1070
     0
  0
VISUALSTYLE
  5
2D
102
{ACAD_XDICTIONARY
360
81A
102
}
102
{ACAD_REACTORS
330
29
102
}
330
29
100
AcDbVisualStyle
  2
GouraudWithEdges
 70
     3
 71
     2
 72
     2
 73
     1
 90
        2
 40
-0.6
 41
30.0
 62
     5
 63
     7
 74
     1
 91
        0
 64
     7
 65
   257
 75
     1
175
     1
 42
1.0
 92
        0
 66
   257
 43
1.0
 76
     1
 77
     6
 78
     2
 67
     7
 79
     5
170
     0
171
     0
290
     0
174
     0
 93
       13
 44
0.0
173
     0
291
     1
 45
0.0
1001
ACAD
1000
AcDbSavedByObjectVersion
1070
     0
  0
VISUALSTYLE
  5
31
102
{ACAD_XDICTIONARY
360
822
102
}
102
{ACAD_REACTORS
330
29
102
}
330
29
100
AcDbVisualStyle
  2
Hidden
 70
     6
 71
     1
 72
     2
 73
     2
 90
        0
 40
-0.6
 41
-30.0
 62
     5
 63
     7
 74
     2
 91
        2
 64
     7
 65
   257
 75
     2
175
     1
 42
40.0
 92
        0
 66
   257
 43
1.0
 76
     1
 77
     6
 78
     2
 67
     7
 79
     3
170
     0
171
     0
290
     0
174
     0
 93
        1
 44
0.0
173
     0
291
     0
 45
0.0
1001
ACAD
1000
AcDbSavedByObjectVersion
1070
     0
  0
VISUALSTYLE
  5
3F
102
{ACAD_XDICTIONARY
360
83E
102
}
102
{ACAD_REACTORS
330
29
102
}
330
29
100
AcDbVisualStyle
  2
JitterOff
 70
    20
 71
     2
 72
     2
 73
     0
 90
        0
 40
-0.6
 41
-30.0
 62
     5
 63
     7
 74
     1
 91
        4
 64
     7
 65
   257
 75
     1
175
     1
 42
1.0
 92
       10
 66
     7
 43
1.0
 76
     1
 77
     6
 78
     2
 67
     7
 79
     5
170
     0
171
     0
290
     0
174
     0
 93
        1
 44
0.0
173
     0
291
     1
 45
0.0
1001
ACAD
1000
AcDbSavedByObjectVersion
1070
     0
  0
VISUALSTYLE
  5
37
102
{ACAD_XDICTIONARY
360
82E
102
}
102
{ACAD_REACTORS
330
29
102
}
330
29
100
AcDbVisualStyle
  2
Linepattern
 70
    14
 71
     2
 72
     2
 73
     0
 90
        0
 40
-0.6
 41
-30.0
 62
     5
 63
     7
 74
     1
 91
        4
 64
     7
 65
   257
 75
     7
175
     7
 42
1.0
 92
        8
 66
     7
 43
1.0
 76
     1
 77
     6
 78
     2
 67
     7
 79
     5
170
     0
171
     0
290
     0
174
     0
 93
        1
 44
0.0
173
     0
291
     1
 45
0.0
1001
ACAD
1000
AcDbSavedByObjectVersion
1070
     0
  0
VISUALSTYLE
  5
40
102
{ACAD_XDICTIONARY
360
840
102
}
102
{ACAD_REACTORS
330
29
102
}
330
29
100
AcDbVisualStyle
  2
OverhangOff
 70
    21
 71
     2
 72
     2
 73
     0
 90
        0
 40
-0.6
 41
-30.0
 62
     5
 63
     7
 74
     1
 91
        4
 64
     7
 65
   257
 75
     1
175
     1
 42
1.0
 92
        9
 66
     7
 43
1.0
 76
     1
 77
     6
 78
     2
 67
     7
 79
     5
170
     0
171
     0
290
     0
174
     0
 93
        1
 44
0.0
173
     0
291
     1
 45
0.0
1001
ACAD
1000
AcDbSavedByObjectVersion
1070
     0
  0
VISUALSTYLE
  5
33
102
{ACAD_XDICTIONARY
360
826
102
}
102
{ACAD_REACTORS
330
29
102
}
330
29
100
AcDbVisualStyle
  2
Realistic
 70
     8
 71
     2
 72
     2
 73
     0
 90
        2
 40
-0.6
 41
30.0
 62
     5
 63
     7
 74
     0
 91
        0
 64
     7
 65
   257
 75
     1
175
     1
 42
1.0
 92
        8
 66
   257
 43
1.0
 76
     1
 77
     6
 78
     2
 67
     7
 79
     3
170
     0
171
     0
290
     0
174
     0
 93
       13
 44
0.0
173
     0
291
     0
 45
0.0
1001
ACAD
1000
AcDbSavedByObjectVersion
1070
     0
  0
VISUALSTYLE
  5
3E
102
{ACAD_XDICTIONARY
360
83C
102
}
102
{ACAD_REACTORS
330
29
102
}
330
29
100
AcDbVisualStyle
  2
Shaded
 70
    27
 71
     2
 72
     2
 73
     1
 90
        2
 40
-0.6
 41
30.0
 62
     5
 63
     7
 74
     0
 91
        4
 64
     7
 65
   257
 75
     1
175
     1
 42
1.0
 92
        8
 66
   257
 43
1.0
 76
     1
 77
     6
 78
     2
 67
     8
 79
     3
170
     0
171
     0
290
     0
174
     0
 93
        5
 44
0.0
173
     0
291
     0
 45
0.0
1001
ACAD
1000
AcDbSavedByObjectVersion
1070
     0
  0
VISUALSTYLE
  5
3D
102
{ACAD_XDICTIONARY
360
83A
102
}
102
{ACAD_REACTORS
330
29
102
}
330
29
100
AcDbVisualStyle
  2
Shaded with edges
 70
    26
 71
     2
 72
     2
 73
     1
 90
        2
 40
-0.6
 41
30.0
 62
     5
 63
     7
 74
     1
 91
       10
 64
     7
 65
   257
 75
     2
175
     1
 42
1.0
 92
        8
 66
   257
 43
1.0
 76
     1
 77
     6
 78
     2
 67
     7
 79
     3
170
     0
171
     0
290
     0
174
     0
 93
        5
 44
0.0
173
     0
291
     0
 45
0.0
1001
ACAD
1000
AcDbSavedByObjectVersion
1070
     0
  0
VISUALSTYLE
  5
3A
102
{ACAD_XDICTIONARY
360
834
102
}
102
{ACAD_REACTORS
330
29
102
}
330
29
100
AcDbVisualStyle
  2
Shades of Gray
 70
    23
 71
     2
 72
     2
 73
     3
 90
        0
 40
-0.6
 41
-30.0
 62
     5
 63
     7
 74
     2
 91
        2
 64
     7
 65
     7
 75
     1
175
     1
 42
40.0
 92
        8
 66
     7
 43
1.0
 76
     1
 77
     6
 78
     2
 67
     7
 79
     3
170
     0
171
     0
290
     0
174
     0
 93
        1
 44
0.0
173
     0
291
     0
 45
0.0
1001
ACAD
1000
AcDbSavedByObjectVersion
1070
     0
  0
VISUALSTYLE
  5
3B
102
{ACAD_XDICTIONARY
360
836
102
}
102
{ACAD_REACTORS
330
29
102
}
330
29
100
AcDbVisualStyle
  2
Sketchy
 70
    24
 71
     1
 72
     2
 73
     2
 90
        0
 40
-0.6
 41
-30.0
 62
     5
 63
     7
 74
     2
 91
        2
 64
     7
 65
     7
 75
     1
175
     1
 42
40.0
 92
       11
 66
     7
 43
1.0
 76
     1
 77
     6
 78
     2
 67
     7
 79
     6
170
     0
171
     0
290
     0
174
     0
 93
        1
 44
0.0
173
     0
291
     0
 45
0.0
1001
ACAD
1000
AcDbSavedByObjectVersion
1070
     0
  0
VISUALSTYLE
  5
36
102
{ACAD_XDICTIONARY
360
82C
102
}
102
{ACAD_REACTORS
330
29
102
}
330
29
100
AcDbVisualStyle
  2
Thicken
 70
    13
 71
     2
 72
     2
 73
     0
 90
        0
 40
-0.6
 41
-30.0
 62
     5
 63
     7
 74
     1
 91
        4
 64
     7
 65
   257
 75
     1
175
     1
 42
1.0
 92
       12
 66
     7
 43
1.0
 76
     1
 77
     6
 78
     2
 67
     7
 79
     5
170
     0
171
     0
290
     0
174
     0
 93
        1
 44
0.0
173
     0
291
     1
 45
0.0
1001
ACAD
1000
AcDbSavedByObjectVersion
1070
     0
  0
VISUALSTYLE
  5
30
102
{ACAD_XDICTIONARY
360
820
102
}
102
{ACAD_REACTORS
330
29
102
}
330
29
100
AcDbVisualStyle
  2
Wireframe
 70
     5
 71
     0
 72
     2
 73
     0
 90
        0
 40
-0.6
 41
-30.0
 62
     5
 63
     7
 74
     1
 91
        4
 64
     7
 65
   257
 75
     1
175
     1
 42
1.0
 92
        0
 66
   257
 43
1.0
 76
     1
 77
     6
 78
     2
 67
     7
 79
     3
170
     0
171
     0
290
     0
174
     0
 93
        1
 44
0.0
173
     0
291
     0
 45
0.0
1001
ACAD
1000
AcDbSavedByObjectVersion
1070
     0
  0
VISUALSTYLE
  5
3C
102
{ACAD_XDICTIONARY
360
838
102
}
102
{ACAD_REACTORS
330
29
102
}
330
29
100
AcDbVisualStyle
  2
X-Ray
 70
    25
 71
     2
 72
     2
 73
     1
 90
        1
 40
0.5
 41
-30.0
 62
     5
 63
     7
 74
     1
 91
        0
 64
     7
 65
   257
 75
     1
175
     1
 42
1.0
 92
        8
 66
     7
 43
1.0
 76
     1
 77
     6
 78
     2
 67
     7
 79
     3
170
     0
171
     0
290
     0
174
     0
 93
       13
 44
0.0
173
     0
291
     0
 45
0.0
1001
ACAD
1000
AcDbSavedByObjectVersion
1070
     0
  0
XRECORD
  5
700
102
{ACAD_REACTORS
330
6F6
102
}
330
6F6
100
AcDbXrecord
280
     1
 90
        0
  0
XRECORD
  5
704
102
{ACAD_REACTORS
330
6F6
102
}
330
6F6
100
AcDbXrecord
280
     1
1000
DSTYLE
1002
{
1070
    79
 70
     2
1070
   371
 70
    -1
1070
   372
 70
    -1
1002
}
  0
XRECORD
  5
701
102
{ACAD_REACTORS
330
6F6
102
}
330
6F6
100
AcDbXrecord
280
     1
  1
{C9C867E1-6094-40DB-9F60-D41248AF8405}
  0
XRECORD
  5
6F9
102
{ACAD_REACTORS
330
6F6
102
}
330
6F6
100
AcDbXrecord
280
     1
  1

  0
XRECORD
  5
6FF
102
{ACAD_REACTORS
330
6F6
102
}
330
6F6
100
AcDbXrecord
280
     1
 90
        4
  0
XRECORD
  5
6FB
102
{ACAD_REACTORS
330
6F6
102
}
330
6F6
100
AcDbXrecord
280
     1
340
62
  0
XRECORD
  5
6FE
102
{ACAD_REACTORS
330
6F6
102
}
330
6F6
100
AcDbXrecord
280
     1
 90
    10781
  0
XRECORD
  5
6FC
102
{ACAD_REACTORS
330
6F6
102
}
330
6F6
100
AcDbXrecord
280
     1
340
61
  0
XRECORD
  5
6FD
102
{ACAD_REACTORS
330
6F6
102
}
330
6F6
100
AcDbXrecord
280
     1
340
E
  0
XRECORD
  5
703
102
{ACAD_REACTORS
330
6F6
102
}
330
6F6
100
AcDbXrecord
280
     1
 40
0.0
  0
XRECORD
  5
707
102
{ACAD_REACTORS
330
6F6
102
}
330
6F6
100
AcDbXrecord
280
     1
340
0
  0
XRECORD
  5
70D
102
{ACAD_REACTORS
330
6F6
102
}
330
6F6
100
AcDbXrecord
280
     1
 10
0.0
 20
0.0
 30
0.0
  0
XRECORD
  5
709
102
{ACAD_REACTORS
330
6F6
102
}
330
6F6
100
AcDbXrecord
280
     1
 10
0.0
 20
0.0
 30
0.0
  0
XRECORD
  5
70C
102
{ACAD_REACTORS
330
6F6
102
}
330
6F6
100
AcDbXrecord
280
     1
 10
0.0
 20
0.0
 30
0.0
  0
XRECORD
  5
70A
102
{ACAD_REACTORS
330
6F6
102
}
330
6F6
100
AcDbXrecord
280
     1
 10
0.0
 20
0.0
 30
0.0
  0
XRECORD
  5
70B
102
{ACAD_REACTORS
330
6F6
102
}
330
6F6
100
AcDbXrecord
280
     1
 10
0.0
 20
0.0
 30
0.0
  0
XRECORD
  5
708
102
{ACAD_REACTORS
330
6F6
102
}
330
6F6
100
AcDbXrecord
280
     1
 10
0.0
 20
0.0
 30
0.0
  0
XRECORD
  5
705
102
{ACAD_REACTORS
330
6F6
102
}
330
6F6
100
AcDbXrecord
280
     1
340
0
  0
XRECORD
  5
706
102
{ACAD_REACTORS
330
6F6
102
}
330
6F6
100
AcDbXrecord
280
     1
 70
     0
  0
XRECORD
  5
6FA
102
{ACAD_REACTORS
330
6F6
102
}
330
6F6
100
AcDbXrecord
280
     1
  1

  0
XRECORD
  5
6F7
102
{ACAD_REACTORS
330
6F6
102
}
330
6F6
100
AcDbXrecord
280
     1
 90
        1
  0
XRECORD
  5
6F8
102
{ACAD_REACTORS
330
6F6
102
}
330
6F6
100
AcDbXrecord
280
     1
 90
       70
  0
XRECORD
  5
710
102
{ACAD_REACTORS
330
6F6
102
}
330
6F6
100
AcDbXrecord
280
     1
340
0
  0
XRECORD
  5
716
102
{ACAD_REACTORS
330
6F6
102
}
330
6F6
100
AcDbXrecord
280
     1
 10
0.0
 20
0.0
 30
0.0
  0
XRECORD
  5
712
102
{ACAD_REACTORS
330
6F6
102
}
330
6F6
100
AcDbXrecord
280
     1
 10
0.0
 20
0.0
 30
0.0
  0
XRECORD
  5
715
102
{ACAD_REACTORS
330
6F6
102
}
330
6F6
100
AcDbXrecord
280
     1
 10
0.0
 20
0.0
 30
0.0
  0
XRECORD
  5
713
102
{ACAD_REACTORS
330
6F6
102
}
330
6F6
100
AcDbXrecord
280
     1
 10
0.0
 20
0.0
 30
0.0
  0
XRECORD
  5
714
102
{ACAD_REACTORS
330
6F6
102
}
330
6F6
100
AcDbXrecord
280
     1
 10
0.0
 20
0.0
 30
0.0
  0
XRECORD
  5
711
102
{ACAD_REACTORS
330
6F6
102
}
330
6F6
100
AcDbXrecord
280
     1
 10
0.0
 20
0.0
 30
0.0
  0
XRECORD
  5
70E
102
{ACAD_REACTORS
330
6F6
102
}
330
6F6
100
AcDbXrecord
280
     1
340
0
  0
XRECORD
  5
70F
102
{ACAD_REACTORS
330
6F6
102
}
330
6F6
100
AcDbXrecord
280
     1
 70
     0
  0
XRECORD
  5
702
102
{ACAD_REACTORS
330
6F6
102
}
330
6F6
100
AcDbXrecord
280
     1
  1
{C9249674-E207-45A3-AD45-92D8921E1039}
  0
DICTIONARYVAR
  5
2E8
102
{ACAD_REACTORS
330
2E5
102
}
330
2E5
100
DictionaryVariables
280
     0
  1
1:15
  0
DICTIONARYVAR
  5
2E7
102
{ACAD_REACTORS
330
2E5
102
}
330
2E5
100
DictionaryVariables
280
     0
  1
STANDARD
  0
DICTIONARYVAR
  5
2E6
102
{ACAD_REACTORS
330
2E5
102
}
330
2E5
100
DictionaryVariables
280
     0
  1
STANDARD
  0
DICTIONARYVAR
  5
791
102
{ACAD_REACTORS
330
2E5
102
}
330
2E5
100
DictionaryVariables
280
     0
  1
2
  0
DICTIONARYVAR
  5
790
102
{ACAD_REACTORS
330
2E5
102
}
330
2E5
100
DictionaryVariables
280
     0
  1
1
  0
DICTIONARYVAR
  5
78F
102
{ACAD_REACTORS
330
2E5
102
}
330
2E5
100
DictionaryVariables
280
     0
  1
0
  0
DICTIONARYVAR
  5
78C
102
{ACAD_REACTORS
330
2E5
102
}
330
2E5
100
DictionaryVariables
280
     0
  1
0
  0
DICTIONARYVAR
  5
78D
102
{ACAD_REACTORS
330
2E5
102
}
330
2E5
100
DictionaryVariables
280
     0
  1
0
  0
DICTIONARYVAR
  5
78B
102
{ACAD_REACTORS
330
2E5
102
}
330
2E5
100
DictionaryVariables
280
     0
  1
2
  0
DICTIONARYVAR
  5
78A
102
{ACAD_REACTORS
330
2E5
102
}
330
2E5
100
DictionaryVariables
280
     0
  1
1
  0
DICTIONARYVAR
  5
78E
102
{ACAD_REACTORS
330
2E5
102
}
330
2E5
100
DictionaryVariables
280
     0
  1
127
  0
DICTIONARYVAR
  5
808
102
{ACAD_REACTORS
330
2E5
102
}
330
2E5
100
DictionaryVariables
280
     0
  1
2
  0
DICTIONARY
  5
372
102
{ACAD_REACTORS
330
367
102
}
330
367
100
AcDbDictionary
281
     1
  0
DICTIONARY
  5
845
330
6B
100
AcDbDictionary
280
     1
281
     1
  3
ACAD_XREC_ROUNDTRIP
360
846
  0
DICTIONARY
  5
848
330
73
100
AcDbDictionary
280
     1
281
     1
  3
ACAD_XREC_ROUNDTRIP
360
849
  0
DICTIONARY
  5
60E
330
6F
100
AcDbDictionary
280
     1
281
     1
  3
ACAD_XREC_ROUNDTRIP
360
847
  3
ADSK_XREC_LAYOUTTHUMBNAIL
360
60F
  0
DICTIONARY
  5
1A
330
19
100
AcDbDictionary
280
     1
281
     1
  3
ACAD_XREC_ROUNDTRIP
360
812
  3
BUMPTILE
360
1C
  3
DIFFUSETILE
360
1B
  3
OPACITYTILE
360
1F
  3
REFLECTIONTILE
360
1E
  3
REFRACTIONTILE
360
20
  3
SPECULARTILE
360
1D
  0
DICTIONARY
  5
12
330
11
100
AcDbDictionary
280
     1
281
     1
  3
ACAD_XREC_ROUNDTRIP
360
811
  3
BUMPTILE
360
14
  3
DIFFUSETILE
360
13
  3
OPACITYTILE
360
17
  3
REFLECTIONTILE
360
16
  3
REFRACTIONTILE
360
18
  3
SPECULARTILE
360
15
  0
DICTIONARY
  5
22
330
21
100
AcDbDictionary
280
     1
281
     1
  3
ACAD_XREC_ROUNDTRIP
360
813
  3
BUMPTILE
360
24
  3
DIFFUSETILE
360
23
  3
OPACITYTILE
360
27
  3
REFLECTIONTILE
360
26
  3
REFRACTIONTILE
360
28
  3
SPECULARTILE
360
25
  0
DICTIONARY
  5
685
330
65
100
AcDbDictionary
280
     1
281
     1
  3
ACAD_ROUNDTRIP_2008_TABLESTYLE_CELLSTYLEMAP
360
809
  3
ACAD_XREC_ROUNDTRIP
360
844
  0
DICTIONARY
  5
81E
330
2F
100
AcDbDictionary
280
     1
281
     1
  3
ACAD_XREC_ROUNDTRIP
360
81F
  0
DICTIONARY
  5
81C
330
2E
100
AcDbDictionary
280
     1
281
     1
  3
ACAD_XREC_ROUNDTRIP
360
81D
  0
DICTIONARY
  5
82A
330
35
100
AcDbDictionary
280
     1
281
     1
  3
ACAD_XREC_ROUNDTRIP
360
82B
  0
DICTIONARY
  5
832
330
39
100
AcDbDictionary
280
     1
281
     1
  3
ACAD_XREC_ROUNDTRIP
360
833
  0
DICTIONARY
  5
824
330
32
100
AcDbDictionary
280
     1
281
     1
  3
ACAD_XREC_ROUNDTRIP
360
825
  0
DICTIONARY
  5
828
330
34
100
AcDbDictionary
280
     1
281
     1
  3
ACAD_XREC_ROUNDTRIP
360
829
  0
DICTIONARY
  5
842
330
41
100
AcDbDictionary
280
     1
281
     1
  3
ACAD_XREC_ROUNDTRIP
360
843
  0
DICTIONARY
  5
830
330
38
100
AcDbDictionary
280
     1
281
     1
  3
ACAD_XREC_ROUNDTRIP
360
831
  0
DICTIONARY
  5
814
330
2A
100
AcDbDictionary
280
     1
281
     1
  3
ACAD_XREC_ROUNDTRIP
360
815
  0
DICTIONARY
  5
816
330
2B
100
AcDbDictionary
280
     1
281
     1
  3
ACAD_XREC_ROUNDTRIP
360
817
  0
DICTIONARY
  5
818
330
2C
100
AcDbDictionary
280
     1
281
     1
  3
ACAD_XREC_ROUNDTRIP
360
819
  0
DICTIONARY
  5
81A
330
2D
100
AcDbDictionary
280
     1
281
     1
  3
ACAD_XREC_ROUNDTRIP
360
81B
  0
DICTIONARY
  5
822
330
31
100
AcDbDictionary
280
     1
281
     1
  3
ACAD_XREC_ROUNDTRIP
360
823
  0
DICTIONARY
  5
83E
330
3F
100
AcDbDictionary
280
     1
281
     1
  3
ACAD_XREC_ROUNDTRIP
360
83F
  0
DICTIONARY
  5
82E
330
37
100
AcDbDictionary
280
     1
281
     1
  3
ACAD_XREC_ROUNDTRIP
360
82F
  0
DICTIONARY
  5
840
330
40
100
AcDbDictionary
280
     1
281
     1
  3
ACAD_XREC_ROUNDTRIP
360
841
  0
DICTIONARY
  5
826
330
33
100
AcDbDictionary
280
     1
281
     1
  3
ACAD_XREC_ROUNDTRIP
360
827
  0
DICTIONARY
  5
83C
330
3E
100
AcDbDictionary
280
     1
281
     1
  3
ACAD_XREC_ROUNDTRIP
360
83D
  0
DICTIONARY
  5
83A
330
3D
100
AcDbDictionary
280
     1
281
     1
  3
ACAD_XREC_ROUNDTRIP
360
83B
  0
DICTIONARY
  5
834
330
3A
100
AcDbDictionary
280
     1
281
     1
  3
ACAD_XREC_ROUNDTRIP
360
835
  0
DICTIONARY
  5
836
330
3B
100
AcDbDictionary
280
     1
281
     1
  3
ACAD_XREC_ROUNDTRIP
360
837
  0
DICTIONARY
  5
82C
330
36
100
AcDbDictionary
280
     1
281
     1
  3
ACAD_XREC_ROUNDTRIP
360
82D
  0
DICTIONARY
  5
820
330
30
100
AcDbDictionary
280
     1
281
     1
  3
ACAD_XREC_ROUNDTRIP
360
821
  0
DICTIONARY
  5
838
330
3C
100
AcDbDictionary
280
     1
281
     1
  3
ACAD_XREC_ROUNDTRIP
360
839
  0
XRECORD
  5
846
102
{ACAD_REACTORS
330
845
102
}
330
845
100
AcDbXrecord
280
     1
102
SHADEPLOT
 70
     0
102
SHADEPLOTRESLEVEL
 70
     2
102
SHADEPLOTCUSTOMDPI
 70
   300
  0
XRECORD
  5
849
102
{ACAD_REACTORS
330
848
102
}
330
848
100
AcDbXrecord
280
     1
102
SHADEPLOT
 70
     0
102
SHADEPLOTRESLEVEL
 70
     2
102
SHADEPLOTCUSTOMDPI
 70
   300
  0
XRECORD
  5
847
102
{ACAD_REACTORS
330
60E
102
}
330
60E
100
AcDbXrecord
280
     1
102
SHADEPLOT
 70
     0
102
SHADEPLOTRESLEVEL
 70
     2
102
SHADEPLOTCUSTOMDPI
 70
   300
  0
XRECORD
  5
60F
102
{ACAD_REACTORS
330
60E
102
}
330
60E
100
AcDbXrecord
280
     1
310
280000000001000075000000010008000000000000750000000000000000000000010000000000003028210000000000FFFFFF000000000000000000000000000000000000000000000000000000000000000000330000006600000099000000CC000000FF00000000330000333300006633000099330000CC330000FF3300
310
0000660000336600006666000099660000CC660000FF66000000990000339900006699000099990000CC990000FF99000000CC000033CC000066CC000099CC0000CCCC0000FFCC000000FF000033FF000066FF000099FF0000CCFF0000FFFF000000003300330033006600330099003300CC003300FF003300003333003333
310
33006633330099333300CC333300FF33330000663300336633006666330099663300CC663300FF66330000993300339933006699330099993300CC993300FF99330000CC330033CC330066CC330099CC3300CCCC3300FFCC330000FF330033FF330066FF330099FF3300CCFF3300FFFF330000006600330066006600660099
310
006600CC006600FF00660000336600333366006633660099336600CC336600FF33660000666600336666006666660099666600CC666600FF66660000996600339966006699660099996600CC996600FF99660000CC660033CC660066CC660099CC6600CCCC6600FFCC660000FF660033FF660066FF660099FF6600CCFF6600
310
FFFF660000009900330099006600990099009900CC009900FF00990000339900333399006633990099339900CC339900FF33990000669900336699006666990099669900CC669900FF66990000999900339999006699990099999900CC999900FF99990000CC990033CC990066CC990099CC9900CCCC9900FFCC990000FF99
310
0033FF990066FF990099FF9900CCFF9900FFFF99000000CC003300CC006600CC009900CC00CC00CC00FF00CC000033CC003333CC006633CC009933CC00CC33CC00FF33CC000066CC003366CC006666CC009966CC00CC66CC00FF66CC000099CC003399CC006699CC009999CC00CC99CC00FF99CC0000CCCC0033CCCC0066CC
310
CC0099CCCC00CCCCCC00FFCCCC0000FFCC0033FFCC0066FFCC0099FFCC00CCFFCC00FFFFCC000000FF003300FF006600FF009900FF00CC00FF00FF00FF000033FF003333FF006633FF009933FF00CC33FF00FF33FF000066FF003366FF006666FF009966FF00CC66FF00FF66FF000099FF003399FF006699FF009999FF00CC
310
99FF00FF99FF0000CCFF0033CCFF0066CCFF0099CCFF00CCCCFF00FFCCFF0000FFFF0033FFFF0066FFFF0099FFFF00CCFFFF00FFFFFF00000000000D0D0D001A1A1A00282828003535350043434300505050005D5D5D006B6B6B00787878008686860093939300A1A1A100AEAEAE00BBBBBB00C9C9C900D6D6D600E4E4E400
310
F1F1F100FFFFFF000000000000000000000000000000000000000000000000000000000000000000000000000000000000000000000000000000000000000000000000000000000000000000000000000000000000000000000000000000000000000000000000000000000000000000000000000000000000000000000000
310
00000000000000000000000000000000000000000000000000000000000000000000000000000000000000000000000000000000000000000000000000000000000000000000000000000000000000000000000000000000000000000000000000000000000000000000000000000000000000000000000000000000000000
310
00000000000000000000000000000000000000000000000000000000000000000000000000000000000000000000000000000000000000000000000000000000000000000000000000000000000000000000000000000000000000000000000000000000000000000000000000000000000000000000000000000000000000
310
00000000000000000000000000000000000000000000000000000000000000000000000000000000000000000000000000000000000000000000000000000000000000000000000000000000000000000000000000000000000000000000000000000000000000000000000000000000000000000000000000000000000000
310
00000000000000000000000000000000000000000000000000000000000000000000000000000000000000000000000000000000000000000000000000000000000000000000000000000000000000000000000000000000000000000000000000000000000000000000000000000000000000000000000000000000000000
310
00000000000000000000000000000000000000000000000000000000000000000000000000000000000000000000000000000000000000000000000000000000000000000000000000000000000000000000000000000000000000000000000000000000000000000000000000000000000000000000000000000000000000
310
00000000000000000000000000000000000000000000000000000000000000000000000000000000000000000000000000000000000000000000000000000000000000000000000000000000000000000000000000000000000000000000000000000000000000000000000000000000000000000000000000000000000000
310
00000000000000000000000000000000000000000000000000000000000000000000000000000000000000000000000000000000000000000000000000000000000000000000000000000000000000000000000000000000000000000000000000000000000000000000000000000000000000000000000000000000000000
310
00000000000000000000000000000000000000000000000000000000000000000000000000000000000000000000000000000000000000000000000000000000000000000000000000000000000000000000000000000000000000000000000000000000000000000000000000000000000000000000000000000000000000
310
00000000000000000000000000000000000000000000000000000000000000000000000000000000000000000000000000000000000000000000000000000000000000000000000000000000000000000000000000000000000000000000000000000000000000000000000000000000000000000000000000000000000000
310
00000000000000000000000000000000000000000000000000000000000000000000000000000000000000000000000000000000000000000000000000000000000000000000000000000000000000000000000000000000000000000000000000000000000000000000000000000000000000000000000000000000000000
310
00000000000000000000000000000000000000000000000000000000000000000000000000000000000000000000000000000000000000000000000000000000000000000000000000000000000000000000000000000000000000000000000000000000000000000000000000000000000000000000000000000000000000
310
00000000000000000000000000000000000000000000000000000000000000000000000000000000000000000000000000000000000000000000000000000000000000000000000000000000000000000000000000000000000000000000000000000000000000000000000000000000000000000000000000000000000000
310
00000000000000000000000000000000000000000000000000000000000000000000000000000000000000000000000000000000000000000000000000000000000000000000000000000000000000000000000000000000000000000000000000000000000000000000000000000000000000000000000000000000000000
310
00000000000000000000000000000000000000000000000000000000000000000000000000000000000000000000000000000000000000000000000000000000000000000000000000000000000000000000000000000000000000000000000000000000000000000000000000000000000000000000000000000000000000
310
00000000000000000000000000000000000000000000000000000000000000000000000000000000000000000000000000000000000000000000000000000000000000000000000000000000000000000000000000000000000000000000000000000000000000000000000000000000000000000000000000000000000000
310
00000000000000000000000000000000000000000000000000000000000000000000000000000000000000000000000000000000000000000000000000000000000000000000000000000000000000000000000000000000000000000000000000000000000000000000000000000000000000000000000000000000000000
310
00000000000000000000000000000000000000000000000000000000000000000000000000000000000000000000000000000000000000000000000000000000000000000000000000000000000000000000000000000000000000000000000000000000000000000000000000000000000000000000000000000000000000
310
00000000000000000000000000000000000000000000000000000000000000000000000000000000000000000000000000000000000000000000000000000000000000000000000000000000000000000000000000000000000000000000000000000000000000000000000000000000000000000000000000000000000000
310
00000000000000000000000000000000000000000000000000000000000000000000000000000000000000000000000000000000000000000000000000000000000000000000000000000000000000000000000000000000000000000000000000000000000000000000000000000000000000000000000000000000000000
310
00000000000000000000000000000000000000000000000000000000000000000000000000000000000000000000000000000000000000000000000000000000000000000000000000000000000000000000000000000000000000000000000000000000000000000000000000000000000000000000000000000000000000
310
00000000000000000000000000000000000000000000000000000000000000000000000000000000000000000000000000000000000000000000000000000000000000000000000000000000000000000000000000000000000000000000000000000000000000000000000000000000000000000000000000000000000000
310
00000000000000000000000000000000000000000000000000000000000000000000000000000000000000000000000000000000000000000000000000000000000000000000000000000000000000000000000000000000000000000000000000000000000000000000000000000000000000000000000000000000000000
310
00000000000000000000000000000000000000000000000000000000000000000000000000000000000000000000000000000000000000000000000000000000000000000000000000000000000000000000000000000000000000000000000000000000000000000000000000000000000000000000000000000000000000
310
00000000000000000000000000000000000000000000000000000000000000000000000000000000000000000000000000000000000000000000000000000000000000000000000000000000000000000000000000000000000000000000000000000000000000000000000000000000000000000000000000000000000000
310
00000000000000000000000000000000000000000000000000000000000000000000000000000000000000000000000000000000000000000000000000000000000000000000000000000000000000000000000000000000000000000000000000000000000000000000000000000000000000000000000000000000000000
310
00000000000000000000000000000000000000000000000000000000000000000000000000000000000000000000000000000000000000000000000000000000000000000000000000000000000000000000000000000000000000000000000000000000000000000000000000000000000000000000000000000000000000
310
00000000000000000000000000000000000000000000000000000000000000000000000000000000000000000000000000000000000000000000000000000000000000000000000000000000000000000000000000000000000000000000000000000000000000000000000000000000000000000000000000000000000000
310
00000000000000000000000000000000000000000000000000000000000000000000000000000000000000000000000000000000000000000000000000000000000000000000000000000000000000000000000000000000000000000000000000000000000000000000000000000000000000000000000000000000000000
310
00000000000000000000000000000000000000000000000000000000000000000000000000000000000000000000000000000000000000000000000000000000000000000000000000000000000000000000000000000000000000000000000000000000000000000000000000000000000000000000000000000000000000
310
00000000000000000000000000000000000000000000000000000000000000000000000000000000000000000000000000000000000000000000000000000000000000000000000000000000000000000000000000000000000000000000000000000000000000000000000000000000000000000000000000000000000000
310
00000000000000000000000000000000000000000000000000000000000000000000000000000000000000000000000000000000000000000000000000000000000000000000000000000000000000000000000000000000000000000000000000000000000000000000000000000000000000000000000000000000000000
310
00000000000000000000000000000000000000000000000000000000000000000000000000000000000000000000000000000000000000000000000000000000000000000000000000000000000000000000000000000000000000000000000000000000000000000000000000000000000000000000000000000000000000
310
00000000000000000000000000000000000000000000000000000000000000000000000000000000000000000000000000000000000000000000000000000000000000000000000000000000000000000000000000000000000000000000000000000000000000000000000000000000000000000000000000000000000000
310
00000000000000000000000000000000000000000000000000000000000000000000000000000000000000000000000000000000000000000000000000000000000000000000000000000000000000000000000000000000000000000000000000000000000000000000000000000000000000000000000000000000000000
310
00000000000000000000000000000000000000000000000000000000000000000000000000000000000000000000000000000000000000000000000000000000000000000000000000000000000000000000000000000000000000000000000000000000000000000000000000000000000000000000000000000000000000
310
00000000000000000000000000000000000000000000000000000000000000000000000000000000000000000000000000000000000000000000000000000000000000000000000000000000000000000000000000000000000000000000000000000000000000000000000000000000000000000000000000000000000000
310
00000000000000000000000000000000000000000000000000000000000000000000000000000000000000000000000000000000000000000000000000000000000000000000000000000000000000000000000000000000000000000000000000000000000000000000000000000000000000000000000000000000000000
310
00000000000000000000000000000000000000000000000000000000000000000000000000000000000000000000000000000000000000000000000000000000000000000000000000000000000000000000000000000000000000000000000000000000000000000000000000000000000000000000000000000000000000
310
00000000000000000000000000000000000000000000000000000000000000000000000000000000000000000000000000000000000000000000000000000000000000000000000000000000000000000000000000000000000000000000000000000000000000000000000000000000000000000000000000000000000000
310
00000000000000000000000000000000000000000000000000000000000000000000000000000000000000000000000000000000000000000000000000000000000000000000000000000000000000000000000000000000000000000000000000000000000000000000000000000000000000000000000000000000000000
310
00000000000000000000000000000000000000000000000000000000000000000000000000000000000000000000000000000000000000000000000000000000000000000000000000000000000000000000000000000000000000000000000000000000000000000000000000000000000000000000000000000000000000
310
00000000000000000000000000000000000000000000000000000000000000000000000000000000000000000000000000000000000000000000000000000000000000000000000000000000000000000000000000000000000000000000000000000000000000000000000000000000000000000000000000000000000000
310
00000000000000000000000000000000000000000000000000000000000000000000000000000000000000000000000000000000000000000000000000000000000000000000000000000000000000000000000000000000000000000000000000000000000000000000000000000000000000000000000000000000000000
310
00000000000000000000000000000000000000000000000000000000000000000000000000000000000000000000000000000000000000000000000000000000000000000000000000000000000000000000000000000000000000000000000000000000000000000000000000000000000000000000000000000000000000
310
00000000000000000000000000000000000000000000000000000000000000000000000000000000000000000000000000000000000000000000000000000000000000000000000000000000000000000000000000000000000000000000000000000000000000000000000000000000000000000000000000000000000000
310
00000000000000000000000000000000000000000000000000000000000000000000000000000000000000000000000000000000000000000000000000000000000000000000000000000000000000000000000000000000000000000000000000000000000000000000000000000000000000000000000000000000000000
310
00000000000000000000000000000000000000000000000000000000000000000000000000000000000000000000000000000000000000000000000000000000000000000000000000000000000000000000000000000000000000000000000000000000000000000000000000000000000000000000000000000000000000
310
00000000000000000000000000000000000000000000000000000000000000000000000000000000000000000000000000000000000000000000000000000000000000000000000000000000000000000000000000000000000000000000000000000000000000000000000000000000000000000000000000000000000000
310
00000000000000000000000000000000000000000000000000000000000000000000000000000000000000000000000000000000000000000000000000000000000000000000000000000000000000000000000000000000000000000000000000000000000000000000000000000000000000000000000000000000000000
310
00000000000000000000000000000000000000000000000000000000000000000000000000000000000000000000000000000000000000000000000000000000000000000000000000000000000000000000000000000000000000000000000000000000000000000000000000000000000000000000000000000000000000
310
00000000000000000000000000000000000000000000000000000000000000000000000000000000000000000000000000000000000000000000000000000000000000000000000000000000000000000000000000000000000000000000000000000000000000000000000000000000000000000000000000000000000000
310
00000000000000000000000000000000000000000000000000000000000000000000000000000000000000000000000000000000000000000000000000000000000000000000000000000000000000000000000000000000000000000000000000000000000000000000000000000000000000000000000000000000000000
310
00000000000000000000000000000000000000000000000000000000000000000000000000000000000000000000000000000000000000000000000000000000000000000000000000000000000000000000000000000000000000000000000000000000000000000000000000000000000000000000000000000000000000
310
00000000000000000000000000000000000000000000000000000000000000000000000000000000000000000000000000000000000000000000000000000000000000000000000000000000000000000000000000000000000000000000000000000000000000000000000000000000000000000000000000000000000000
310
00000000000000000000000000000000000000000000000000000000000000000000000000000000000000000000000000000000000000000000000000000000000000000000000000000000000000000000000000000000000000000000000000000000000000000000000000000000000000000000F5F5F5F5F5F5F5F5F5
310
F5F5F5F5F5F500000000000000000000000000000000000000000000000000000000000000000000000000000000000000000000000000000000000000000000000000000000000000000000000000000000000000000000000000000000000000000000000000000000000000000000000000000000000000000000000000
310
00000000000000000000000000000000000000000000000000000000000000000000000000000000000000000000000000000000000000000000000000000000000000000000000000000000000000000000000000000000000000000000000000000000000000000000000000000000000000000000000000000000000000
310
00000000000000000000000000000000000000000000000000000000000000000000000000000000000000000000000000000000000000000000000000000000000000000000000000000000000000000000000000000000000000000000000000000000000000000000000000000000000000000000000000000000000000
310
00000000000000000000000000000000000000000000000000000000000000000000000000000000000000000000000000000000000000000000000000000000000000000000000000000000000000000000000000000000000000000000000000000000000000000000000000000000000000000000000000000000000000
310
00000000000000000000000000000000000000000000000000000000000000000000000000000000000000000000000000000000000000000000000000000000000000000000000000000000000000000000000000000000000000000000000000000000000000000000000000000000000000000000000000000000000000
310
00000000000000000000000000000000000000000000000000000000000000000000000000000000000000000000000000000000000000000000000000000000000000000000000000000000000000000000000000000000000000000000000000000000000000000000000000000000000000000000000000000000F5F5F5
310
F5F5F5F5F5F5F5F5F5F5F50000000000000000000000000000000000000000000000000000000000000000000000000000000000000000000000000000000000000000000000000000000000000000000000000000000000000000000000000000000000000000000000000000000000000000000000000000000000000000
310
000000000000000000000000000000000000000000000000000000000000000000000000000000000000000000000000000000000000000000000000000000000000000000000000000000000000000028282828282828282828282828282828282828DCDCDCDC2828282828282828282828282828282828282828000000F5
310
F5F5F5F5F5F5F5F5F5F5000000000000000000000000000000000000000000000000000000000000000000000000000000000000000000000000000000000000000000000000000000000000000000000000000000000000000000000000000000000000000000000000000000000000000000000000000000000000000000
310
0000000000000000000000000000000000000000000000000000000000000000000000000000000000000000000000000000000000000000000000000000000000000000000000000000000000000000000028000000000000000000000000000000000000DCDCDCDC00000000000000000000000000000000000000280000
310
00F5F5F5F5F5F5F5F500000000000000000000000000000000000000000000000000000000000000000000000000000000000000000000000000000000000000000000000000000000000000000000000000000000000000000000000000000000000000000000000000000000000000000000000000000000000000000000
310
00000000000000000000000000000000000000000000000000000000000000000000000000000000000000000000000000000000000000000000000000000000000000000000000000000000000000000000000028000000000000000000000000000000000000DCDCDCDC0000000000000000000000000000000000000028
310
000000F5F5F5F5F5F5F5F50000000000000000000000000000000000000000000000000000000000000000000000000000000000000000000000000000000000000000000000000000000000000000000000000000000000000000000000000000000000000000000000000000000000000000000000000000000000000000
310
00000000000000000000000000000000000000000000000000000000000000000000000000000000000000000000000000000000000000000000000000000000000000000000000000000000000000000000000000002800000000000000000000000000000000000000000000000000000000000000000000000000000000
310
00280000000000000000000000000000000000000000000000000000000000000000000000000000000000000000000000000000000000000000000000000000000000000000000000000000000000000000000000000000000000000000000000000000000000000000000000000000000000000000000000000000000000
310
00000000000000000000000000000000000000000000000000000000000000000000000000000000000000000000000000000000000000000000000000000000000000000000000000000000000000000000000000000000280000000000000000000000000000000000000000000000000000000000000000000000000000
310
00000028000000000000000000000000000000000000000000000000000000000000000000000000000000000000000000000000000000000000000000000000000000000000000000000000000000000000000000000000000000000000000000000000000000000000000000000000000000000000000000000000000000
310
00000000000000000000000000000000000000000000000000000000000000000000000000000000000000000000000000000000000000000000000000000000000000000000000000000000000000000000000000000000282828282828F5F5F5F5F5F5F5F5F5F5F5F5F5F5F5F5F5F5F5F5F5F5F5F5F5F5F5F5F5F5F5F5F5
310
F5F5F5F5F52800000000000000000000000000000000000000000000000000000000000000000000000000000000000000000000000000000000000000000000000000000000000000000000000000000000000000000000000000000000000000000000000000000000000000000000000000000000000000000000000000
310
0000000000000000000000000000000000000000000000000000000000000000000000000000000000000000000000000000000000000000000000000000000000000000000000000000000000000000000000000000000000002800F5000000F5F50000000000000000000000000000000000000000000000000000000000
310
0000F5F5000000F50000000000000000000000000000000000000000000000000000000000000000000000000000000000000000000000000000000000000000000000000000000000000000000000000000000000000000000000000000000000000000000000000000000000000000000000000000000000000000000000
310
00000000000000000000000000000000000000000000000000000000000000000000000000000000000000000000000000000000000000000000000000000000000000000000000000000000000000000000000000000000000000002800F5000000F5F5000000000000000000000000000000000000000000000000000000
310
00000000F5F5000000F5000000000000000000000000000000000000000000000000000000000000000000000000000000000000000000000000000000000000000000000000000000000000000000000000000000000000000000000000000000000000000000000000000000000000000000000000000000000000000000
310
000000000000000000000000000000000000000000000000000000000000000000000000000000000000000000000000000000000000000000000000000000000000000000000000000000000000000000000000000000000000000000002800F5F5F5F5F5F5F5F5F5F5F5F5F5F5F5F5F5F5F5F5F5F5F5F5F5F5F5F5F5F5F5
310
F5F5F5F5F5F5F5F5F5F5F5F500000000000000000000000000000000000000000000000000000000000000000000000000000000000000000000000000000000000000000000000000000000000000000000000000000000000000000000000000000000000000000000000000000000000000000000000000000000000000
310
0000000000000000000000000000000000000000000000000000000000000000000000000000000000000000000000000000000000000000000000000000000000000000000000000000000000000000000000000000000000000000000000002800F5F5F5F5F5F5F5F5F5F5F5F5F5F5F5F5F5F5F5F5F5F5F5F5F5F5F5F5F5
310
F5F5F5F5F5F5F5F5F5F5F5F5F5F50000000000000000000000000000000000000000000000000000000000000000000000000000000000000000000000000000000000000000000000000000000000000000000000000000000000000000000000000000000000000000000000000000000000000000000000000000000000
310
0000000000000000000000000000000000000000000000000000000000000000000000000000000000000000000000000000000000000000000000000000000000000000000000000000000000000000000000000000000000000000000000DCDCDC2800F5000000F5F5000000000000000000000000000000000000000000
310
00000000000000000000F5F5000000F5000000000000000000000000000000000000000000000000000000000000000000000000000000000000000000000000000000000000000000000000000000000000000000000000000000000000000000000000000000000000000000000000000000000000000000000000000000
310
00000000000000000000000000000000000000000000000000000000000000000000000000000000000000000000000000000000000000000000000000000000000000000000000000000000000000000000000000000000000000000000000000DCDCDC2800F5000000F5F500000000000000000000000000000000000000
310
000000000000000000000000F5F5000000F500000000000000000000000000000000000000000000000000000000000000000000000000000000000000000000000000000000000000000000000000000000000000000000000000000000000000000000000000000000000000000000000000000000000000000000000000
310
000000000000000000000000000000000000000000000000000000000000000000000000000000000000000000000000000000000000000000000000000000000000000000000000000000000000000000000000000000000000000000000000000000DCDCDC2800F5F5F5F5F5F5F5F5F5F5F5F5F5F5F5F5F5F5F5F5F5F5F5
310
F5F5F5F5F5F5F5F5F5F5F5F5F5F5F5F5F5F5F5F50000000000000000000000000000000000000000000000000000000000000000000000000000000000000000000000000000000000000000000000000000000000000000000000000000000000000000000000000000000000000000000000000000000000000000000000
310
0000000000000000000000000000000000000000000000000000000000000000000000000000000000000000000000000000000000000000000000000000000000000000000000000000000000000000000000000000000000000000000000000000000000DCDCDC280000000000F5F5000000000000000000000000000000
310
00000000000000000000000000000000F5F500000000000000000000000000000000000000000000000000000000000000000000000000000000000000000000000000000000000000000000000000000000000000000000000000000000000000000000000000000000000000000000000000000000000000000000000000
310
00000000000000000000000000000000000000000000000000000000000000000000000000000000000000000000000000000000000000000000000000000000000000000000000000000000000000000000000000000000000000000000000000000000000000000000280000000000F5F500000000000000000000000000
310
000000000000000000000000000000000000F5F50000000000000000000000000000000000000000000000000000000000000000000000000000000000000000000000000000000000000000000000000000000000000000000000000000000000000000000000000000000000000000000000000000000000000000000000
310
0000000000000000000000000000000000000000000000000000000000000000000000000000000000000000000000000000000000000000000000000000000000000000000000000000000000000000000000000000000000000000000000000000000000000000000000002800F5F5F5F5F5F5F5F5F5F5F5F5F5F5F5F5F5
310
F5F5F5F5F5F5F5F5F5F5F5F5F5F5F5F5F5F5F5F5F5F5F5F5F5F50000000000000000000000000000000000000000000000000000000000000000000000000000000000000000000000000000000000000000000000000000000000000000000000000000000000000000000000000000000000000000000000000000000000
310
00000000000000000000000000000000000000000000000000000000000000000000000000000000000000000000000000000000000000000000000000000000000000000000000000000000000000000000000000000000000000000000000000000000000000000000000000002800F5000000F5F5000000000000000000
310
00000000000000000000000000000000000000000000F5F5000000F5000000000000000000000000000000000000000000000000000000000000000000000000000000000000000000000000000000000000000000000000000000000000000000000000000000000000000000000000000000000000000000000000000000
310
000000000000000000000000000000000000000000000000000000000000000000000000000000000000000000000000000000000000000000000000000000000000000000000000000000000000000000000000000000000000000000000000000000000000000000000000000000002800F5F5F5F5F5F5F5F5F5F5F5F5F5
310
F5F5F5F5F5F5F5F5F5F5F5F5F5F5F5F5F5F5F5F5F5F5F5F5F5F5F5F5F5F500000000000000000000000000000000000000000000000000000000000000000000000000000000000000000000000000000000000000000000000000000000000000000000000000000000000000000000000000000000000000000000000000
310
000000000000000000000000000000000000000000000000000000000000000000000000000000000000000000000000000000000000000000000000000000000000000000000000000000000000000000000000000000000000000000000000000000000000000000000000000000000000280000000000F5F50000000000
310
0000000000000000000000000000000000000000000000000000F5F5000000000000000000000000000000000000000000000000000000000000000000000000000000000000000000000000000000000000000000000000000000000000000000000000000000000000000000000000000000000000000000000000000000
310
00000000000000000000000000000000000000000000000000000000000000000000000000000000000000000000000000000000000000000000000000000000000000000000000000000000000000000000000000000000000000000000000000000000000000000000000000000000000000002828282828282828000000
310
00000000000000000000000000000000000000000000000000000000F5F500000000000000000000000000000000000000000000000000000000000000000000000000000000000000000000000000000000000000000000000000000000000000000000000000000000000000000000000000000000000000000000000000
310
00000000000000000000000000000000000000000000000000000000000000000000000000000000000000000000000000000000000000000000000000000000000000000000000000000000000000000000000000000000000000000000000000000000000000000000000000000000000000000000000000000000000000
310
00000000000000000000000000000000000000000000000000000000000000000000000000000000000000000000000000000000000000000000000000000000000000000000000000000000000000000000000000000000000000000000000000000000000000000000000000000000000000000000000000000000000000
310
00000000000000000000000000000000000000000000000000000000000000000000000000000000000000000000000000000000000000000000000000000000000000000000000000000000000000000000000000000000000000000000000000000000000000000000000000000000000000000000000000000000000000
310
00000000000000000000000000000000000000000000000000000000000000000000000000000000000000000000000000000000000000000000000000000000000000000000000000000000000000000000000000000000000000000000000000000000000000000000000000000000000000000000000000000000000000
310
00000000000000000000000000000000000000000000000000000000000000000000000000000000000000000000000000000000000000000000000000000000000000000000000000000000000000000000000000000000000000000000000000000000000000000000000000000000000000000000000000000000000000
310
00000000000000000000000000000000000000000000000000000000000000000000000000000000000000000000000000000000000000000000000000000000000000000000000000000000000000000000000000000000000000000000000000000000000000000000000000000000000000000000000000000000000000
310
00000000000000000000000000000000000000000000000000000000000000000000000000000000000000000000000000000000000000000000000000000000000000000000000000000000000000000000000000000000000000000000000000000000000000000000000000000000000000000000000000000000000000
310
00000000000000000000000000000000000000000000000000000000000000000000000000000000000000000000000000000000000000000000000000000000000000000000000000000000000000000000000000000000000000000000000000000000000000000000000000000000000000000000000000000000000000
310
00000000000000000000000000000000000000000000000000000000000000000000000000000000000000000000000000000000000000000000000000000000000000000000000000000000000000000000000000000000000000000000000000000000000000000000000000000000000000000000000000000000000000
310
00000000000000000000000000000000000000000000000000000000000000000000000000000000000000000000000000000000000000000000000000000000000000000000000000000000000000000000000000000000000000000000000000000000000000000000000000000000000000000000000000000000000000
310
00000000000000000000000000000000000000000000000000000000000000000000000000000000000000000000000000000000000000000000000000000000000000000000000000000000000000000000000000000000000000000000000000000000000000000000000000000000000000000000000000000000000000
310
00000000000000000000000000000000000000000000000000000000000000000000000000000000000000000000000000000000000000000000000000000000000000000000000000000000000000000000000000000000000000000000000000000000000000000000000000000000000000000000000000000000000000
310
00000000000000000000000000000000000000000000000000000000000000000000000000000000000000000000000000000000000000000000000000000000000000000000000000000000000000000000000000000000000000000000000000000000000000000000000000000000000000000000000000000000000000
310
00000000000000000000000000000000000000000000000000000000000000000000000000000000000000000000000000000000000000000000000000000000000000000000000000000000000000000000000000000000000000000000000000000000000000000000000000000000000000000000000000000000000000
310
00000000000000000000000000000000000000000000000000000000000000000000000000000000000000000000000000000000000000000000000000000000000000000000000000000000000000000000000000000000000000000000000000000000000000000000000000000000000000000000000000000000000000
310
00000000000000000000000000000000000000000000000000000000000000000000000000000000000000000000000000000000000000000000000000000000000000000000000000000000000000000000000000000000000000000000000000000000000000000000000000000000000000000000000000000000000000
310
00000000000000000000000000000000000000000000000000000000000000000000000000000000000000000000000000000000000000000000000000000000000000000000000000000000000000000000000000000000000000000000000000000000000000000000000000000000000000000000000000000000000000
310
00000000000000000000000000000000000000000000000000000000000000000000000000000000000000000000000000000000000000000000000000000000000000000000000000000000000000000000000000000000000000000000000000000000000000000000000000000000000000000000000000000000000000
310
00000000000000000000000000000000000000000000000000000000000000000000000000000000000000000000000000000000000000000000000000000000000000000000000000000000000000000000000000000000000000000000000000000000000000000000000000000000000000000000000000000000000000
310
00000000000000000000000000000000000000000000000000000000000000000000000028000000000000000000000000000000000000000000000000000000000000000000000000000000000000000000000000000000000000000000000000000000000000000000000000000000000000000000000000000000000000
310
00000000000000000000000000000000000000000000000000000000000000000000000000000000000000000000000000000000000000000000000000000000000000000000000000000000000000000000000000000000000000000000000000000000000000000000000000000000000000000000000000000000000000
310
000000000000000000000000000000000000000000000000000000000000000000000000DCDC2800000000000000000000000000000000000000000000000000000000000000000000000000000000000000000000000000000000000000000000000000000000000000000000000000000000000000000000000000000000
310
00000000000000000000000000000000000000000000000000000000000000000000000000000000000000000000000000000000000000000000000000000000000000000000000000000000000000000000000000000000000000000000000000000000000000000000000000000000000000000000000000000000000000
310
0000000000000000000000000028282828DCDCDC282828282828282800000000000000000000DCDC28000000002828282828DCDC282828282828282828000000000000000000000000000000000000000000000000000000000000000000000000000000000000000000000000000000000000000000000000000000000000
310
00000000000000000000000000000000000000000000000000000000000000000000000000000000000000000000000000000000000000000000000000000000000000000000000000000000000000000000000000000000000000000000000000000000000000000000000000000000000000000000000000000000000000
310
00000000000000000000000000000028280000DCDCDCDCDC00000028282800000000000000000000DCDC28000000002828280000DCDCDCDCDC00000028282800000000000000000000000000000000000000000000000000000000000000000000000000000000000000000000000000000000000000000000000000000000
310
00000000000000000000000000000000000000000000000000000000000000000000000000000000000000000000000000000000000000000000000000000000000000000000000000000000000000000000000000000000000000000000000000000000000000000000000000000000000000000000000000000000000000
310
000000000000000000000000000000000028000000DCDCDCDCDC00000000002800000000000000000000000028000000002800000000DCDCDCDCDC0000000000280000000000000000000000000000000000000000000000000000000000000000000000000000000000000000000000000000000000000000000000000000
310
00000000000000000000000000000000000000000000000000000000000000000000000000000000000000000000000000000000000000000000000000000000000000000000000000000000000000000000000000000000000000000000000000000000000000000000000000000000000000000000000000000000000000
310
00000000000000000000000000000000000000280000000000000000000000000028000000000000000000000000280000000028000000000000000000000000000028000000000000000000000000000000000000000000000000000000000000000000000000000000000000000000000000000000000000000000000000
310
00000000000000000000000000000000000000000000000000000000000000000000000000000000000000000000000000000000000000000000000000000000000000000000000000000000000000000000000000000000000000000000000000000000000000000000000000000000000000000000000000000000000000
310
00000000000000000000000000000000000000000028000000000000000000000000002800000000000000000000000028280000002800000000000000000000000000002800000000000000000000000000000000000000000000000000000000000000000000000000000000000000000000000000000000000000000000
310
00000000000000000000000000000000000000000000000000000000000000000000000000000000000000000000000000000000000000000000000000000000000000000000000000000000000000000000000000000000000000000000000000000000000000000000000000000000000000000000000000000000000000
310
000000000000000000000000000000000000000000000028F5F5F5F5F5F5F5F5F5F5F5F5F5280000000000000000000000002828282828282828282828F5F5F5F5F5F5F5F5F5280000000000000000000000000000000000000000000000000000000000000000000000000000000000000000000000000000000000000000
310
00000000000000000000000000000000000000000000000000000000000000000000000000000000000000000000000000000000000000000000000000000000000000000000000000000000000000000000000000000000000000000000000000000000000000000000000000000000000000000000000000000000000000
310
00000000000000000000000000000000000000000000000000F500000000000000000000000000F50000000000000000000000002800000000F50000000000000000000000000000F5000000000000000000000000000000000000000000000000000000000000000000000000000000000000000000000000000000000000
310
00000000000000000000000000000000000000000000000000000000000000000000000000000000000000000000000000000000000000000000000000000000000000000000000000000000000000000000000000000000000000000000000000000000000000000000000000000000000000000000000000000000000000
310
000000000000000000000000000000000000000000000000000000F500000000000000000000000000F50000000000000000000000002800000000F50000000000000000000000000000F500000000000000000000000000000000000000000000000000000000000000000000000000000000000000000000000000000000
310
00000000000000000000000000000000000000000000000000000000000000000000000000000000000000000000000000000000000000000000000000000000000000000000000000000000000000000000000000000000000000000000000000000000000000000000000000000000000000000000000000000000000000
310
0000000000000000000000000000000000000000000000000000000000F5000000000000000000000000F5F50000000000000000000000002800000000F5F5000000000000000000000000F5F50000000000000000000000000000000000000000000000000000000000000000000000000000000000000000000000000000
310
00000000000000000000000000000000000000000000000000000000000000000000000000000000000000000000000000000000000000000000000000000000000000000000000000000000000000000000000000000000000000000000000000000000000000000000000000000000000000000000000000000000000000
310
00000000000000000000000000000000000000000000000000000000000000F5F5F50000000000000000F5F5F500000000000000000000000000280000000000F5F5F50000000000000000F5F5F500000000000000000000000000000000000000000000000000000000000000000000000000000000000000000000000000
310
00000000000000000000000000000000000000000000000000000000000000000000000000000000000000000000000000000000000000000000000000000000000000000000000000000000000000000000000000000000000000000000000000000000000000000000000000000000000000000000000000000000000000
310
00000000000000000000000000000000000000000000000000000000000000002828282828282828F5F5F5F5000000000000000000000000000000002828282828282828282828F5F5F5F5F5F50000000000000000000000000000000000000000000000000000000000000000000000000000000000000000000000000000
310
00000000000000000000000000000000000000000000000000000000000000000000000000000000000000000000000000000000000000000000000000000000000000000000000000000000000000000000000000000000000000000000000000000000000000000000000000000000000000000000000000000000000000
310
0000000000000000000000000000000000000000000000000000000000000000DCDC28280000000000F5F500000000000000000000000000000000000000282800000000000000000000F5F5000000000000000000000000000000000000000000000000000000000000000000000000000000000000000000000000000000
310
00000000000000000000000000000000000000000000000000000000000000000000000000000000000000000000000000000000000000000000000000000000000000000000000000000000000000000000000000000000000000000000000000000000000000000000000000000000000000000000000000000000000000
310
00000000000000000000000000000000000000000000000000000000000000000000DCDC00280000000000F5F500000000000000000000000000000000000000280000000000000000000000F5F500000000000000000000000000000000000000000000000000000000000000000000000000000000000000000000000000
310
00000000000000000000000000000000000000000000000000000000000000000000000000000000000000000000000000000000000000000000000000000000000000000000000000000000000000000000000000000000000000000000000000000000000000000000000000000000000000000000000000000000000000
310
000000000000000000000000000000000000000000000000000000000000000000000000DCDC00280000000000F5F500000000000000000000000000000000000000280000000000000000000000F5F50000000000000000000000000000000000000000000000000000000000000000000000000000000000000000000000
310
00000000000000000000000000000000000000000000000000000000000000000000000000000000000000000000000000000000000000000000000000000000000000000000000000000000000000000000000000000000000000000000000000000000000000000000000000000000000000000000000000000000000000
310
0000000000000000000000000000000000000000000000000000000000000000000000000000000028280000000000F5F500000000000000000000000000000000000000000000000000000000000000F5F5000000000000000000000000000000000000000000000000000000000000000000000000000000000000000000
310
00000000000000000000000000000000000000000000000000000000000000000000000000000000000000000000000000000000000000000000000000000000000000000000000000000000000000000000000000000000000000000000000000000000000000000000000000000000000000000000000000000000000000
310
000000000000000000000000000000000000000000F5F5F5F5F5F5F5F5F5F5F5F5F5F5F5F5F5282828282828282828282828F5F5F5F5F5F5F5F5F5F5F5F5F5F5F5F5F5F5F5F5F5F5F5F5F5F5F5F5F5F5F5F5F5F5F5F5F5F5F5F5F5F5F5F5F5F5F5F5F5F5F5F5F5F5F5F5F50000000000000000000000000000000000000000
310
00000000000000000000000000000000000000000000000000000000000000000000000000000000000000000000000000000000000000000000000000000000000000000000000000000000000000000000000000000000000000000000000000000000000000000000000000000000000000000000000000000000000000
310
000000000000000000000000000000000000000000000000000000000000000000000000000000002828000000280000000000F5F500000000000000000000000000000000000000000000000000000000000000F5F50000000000000000000000000000000000000000000000000000000000000000000000000000000000
310
00000000000000000000000000000000000000000000000000000000000000000000000000000000000000000000000000000000000000000000000000000000000000000000000000000000000000000000000000000000000000000000000000000000000000000000000000000000000000000000000000000000000000
310
0000000000000000000000000000000000000000000000000000000000000000000000000000000000002828000028280000000000F5F500000000000000000000000000000000000000000000000000000000000000F5F5000000000000000000000000000000000000000000000000000000000000000000000000000000
310
00000000000000000000000000000000000000000000000000000000000000000000000000000000000000000000000000000000000000000000000000000000000000000000000000000000000000000000000000000000000000000000000000000000000000000000000000000000000000000000000000000000000000
310
00000000000000000000000000000000000000000000000000000000000000000000000000000000000000002800000000280000000000F5F500000000000000000000000000000000000000000000000000000000000000F5F500000000000000000000000000000000000000000000000000000000000000000000000000
310
00000000000000000000000000000000000000000000000000000000000000000000000000000000000000000000000000000000000000000000000000000000000000000000000000000000000000000000000000000000000000000000000000000000000000000000000000000000000000000000000000000000000000
310
000000000000000000000000000000000000000000000000000000000000000000000000000000000000000000002800000000280000000000F5F500000000000000000000000000000000000000000000000000000000000000F5F50000000000000000000000000000000000000000000000000000000000000000000000
310
00000000000000000000000000000000000000000000000000000000000000000000000000000000000000000000000000000000000000000000000000000000000000000000000000000000000000000000000000000000000000000000000000000000000000000000000000000000000000000000000000000000000000
310
0000000000000000000000000000000000000000000000000000000000000000000000000000000000000000000000002800DCDC00280000000000F5F500000000000000000000000000000000000000000000000000000000000000F5F5000000000000000000000000000000000000000000000000000000000000000000
310
00000000000000000000000000000000000000000000000000000000000000000000000000000000000000000000000000000000000000000000000000000000000000000000000000000000000000000000000000000000000000000000000000000000000000000000000000000000000000000000000000000000000000
310
00000000000000000000000000000000000000000000000000000000000000000000000000000000000000000000000000002800DCDC00280000000000F5F500000000000000000000000000000000000000000000000000000000000000F5F500000000000000000000000000000000000000000000000000000000000000
310
00000000000000000000000000000000000000000000000000000000000000000000000000000000000000000000000000000000000000000000000000000000000000000000000000000000000000000000000000000000000000000000000000000000000000000000000000000000000000000000000000000000000000
310
000000000000000000000000000000000000000000000000000000000000000000000000000000000000000000000000000000002800DCDC00280000000000F5F500000000000000000000000000000000000000000000000000000000000000F5F50000000000000000000000000000000000000000000000000000000000
310
00000000000000000000000000000000000000000000000000000000000000000000000000000000000000000000000000000000000000000000000000000000000000000000000000000000000000000000000000000000000000000000000000000000000000000000000000000000000000000000000000000000000000
310
0000000000000000000000000000000000000000000000000000000000000000000000000000000000000000000000000000000000002800DCDC00280000000000F5F500000000000000000000000000000000000000000000000000000000000000F5F5000000000000000000000000000000000000000000000000000000
310
00000000000000000000000000000000000000000000000000000000000000000000000000000000000000000000000000000000000000000000000000000000000000000000000000000000000000000000000000000000000000000000000000000000000000000000000000000000000000000000000000000000000000
310
00000000000000000000000000000000000000000000000000000000000000000000000000000000000000000000000000000000000000002800000000280000000000F5F500000000000000000000000000000000000000000000000000000000000000F5F500000000000000000000000000000000000000000000000000
310
00000000000000000000000000000000000000000000000000000000000000000000000000000000000000000000000000000000000000000000000000000000000000000000000000000000000000000000000000000000000000000000000000000000000000000000000000000000000000000000000000000000000000
310
000000000000000000000000000000000000000000000000000000000000000000000000000000000000000000000000000000000000000000002800000000280000000000F5F500000000000000000000000000000000000000000000000000000000000000F5F50000000000000000000000000000000000000000000000
310
00000000000000000000000000000000000000000000000000000000000000000000000000000000000000000000000000000000000000000000000000000000000000000000000000000000000000000000000000000000000000000000000000000000000000000000000000000000000000000000000000000000000000
310
00000000000000000000000000000000000000000000000000000000000000000000000000000000000000000000000000000000000000000000DCDC2800000000280000000000F5F500000000000000000000000000000000000000000000000000000000000000F5F5000000000000000000000000000000000000000000
310
00000000000000000000000000000000000000000000000000000000000000000000000000000000000000000000000000000000000000000000000000000000000000000000000000000000000000000000000000000000000000000000000000000000000000000000000000000000000000000000000000000000000000
310
000000000000000000000000000000000000000000000000000000000000000000000000000000000000000000000000000000000000000000000000DCDC2800000028280000000000F5F500000000000000000000000000000000000000000000000000000000000000F5F500000000000000000000000000000000000000
310
00000000000000000000000000000000000000000000000000000000000000000000000000000000000000000000000000000000000000000000000000000000000000000000000000000000000000000000000000000000000000000000000000000000000000000000000000000000000000000000000000000000000000
310
0000000000000000000000000000000000000000000000000000000000000000000000000000000000000000000000000000000000000000000000000000DCDC28000000002800F5F5F5F5F5F5F5F5F5F5F5F5F5F5F5F5F5F5F5F5F5F5F5F5F5F5F5F5F5F5F5F5F5F5F5F5F5F5F5F5F5F5F500000000000000000000000000
310
00000000000000000000000000000000000000000000000000000000000000000000000000000000000000000000000000000000000000000000000000000000000000000000000000000000000000000000000000000000000000000000000000000000000000000000000000000000000000000000000000000000000000
310
0000000000000000000000000000000000000000000000000000000000000000000000000000000000000000000000000000000000000000000000000000000000002800000028282828F5F5F5F5F5F5F5F5F5F5F5F5F5F5F5F5F5F5F5F5F5F5F5F5F5F5F5F5F5F5F5F5F5F5F5F5F5F5F5F5F5F50000000000000000000000
310
00000000000000000000000000000000000000000000000000000000000000000000000000000000000000000000000000000000000000000000000000000000000000000000000000000000000000000000000000000000000000000000000000000000000000000000000000000000000000000000000000000000000000
310
00000000000000000000000000000000000000000000000000000000000000000000000000000000000000000000000000000000000000000000000000000000000000002800000000000000000000F5F500000000000000000000000000000000000000000000000000000000000000F5F500000000000000000000000000
310
00000000000000000000000000000000000000000000000000000000000000000000000000000000000000000000000000000000000000000000000000000000000000000000000000000000000000000000000000000000000000000000000000000000000000000000000000000000000000000000000000000000000000
310
000000000000000000000000000000000000000000000000000000000000000000000000000000000000000000000000000000000000000000000000000000000000000000002800000000000000000000F5F500000000000000000000000000000000000000000000000000000000000000F5F50000000000000000000000
310
00000000000000000000000000000000000000000000000000000000000000000000000000000000000000000000000000000000000000000000000000000000000000000000000000000000000000000000000000000000000000000000000000000000000000000000000000000000000000000000000000000000000000
310
0000000000000000000000000000000000000000000000000000000000000000000000000000000000000000000000000000000000000000000000000000000000000000000000002800000000000000000000F5F500000000000000000000000000000000000000000000000000000000000000F5F5000000000000000000
310
00000000000000000000000000000000000000000000000000000000000000000000000000000000000000000000000000000000000000000000000000000000000000000000000000000000000000000000000000000000000000000000000000000000000000000000000000000000000000000000000000000000000000
310
00000000000000000000000000000000000000000000000000000000000000000000000000000000000000000000000000000000000000000000000000000000000000000000000000002800000000000000000000F5F500000000000000000000000000000000000000000000000000000000000000F5F500000000000000
310
00000000000000000000000000000000000000000000000000000000000000000000000000000000000000000000000000000000000000000000000000000000000000000000000000000000000000000000000000000000000000000000000000000000000000000000000000000000000000000000000000000000000000
310
000000000000000000000000000000000000000000000000000000000000000000000000000000000000000000000000000000000000000000000000000000000000000000000000000000002800000000000000000000F5F500000000000000000000000000000000000000000000000000000000000000F5F50000000000
310
00000000000000000000000000000000000000000000000000000000000000000000000000000000000000000000000000000000000000000000000000000000000000000000000000000000000000000000000000000000000000000000000000000000000000000000000000000000000000000000000000000000000000
310
0000000000000000000000000000000000000000000000000000000000000000000000000000000000000000000000000000000000000000000000000000000000000000000000000000000000002800000000000000000000F5F500000000000000000000000000000000000000000000000000000000000000F5F5000000
310
00000000000000000000000000000000000000000000000000000000000000000000000000000000000000000000000000000000000000000000000000000000000000000000000000000000000000000000000000000000000000000000000000000000000000000000000000000000000000000000000000000000000000
310
000000000000000000000000000000000000000000000000000000000000000000000000000000000000000000000000000000000000000000000000000000000000000000000000000000000000000028000000000000F5F5F5F5F5F5F5F5F5F5F5F5F5F5F5F5F5F5F5F5F5F5F5F5F5F5F5F5F5F5F5F5F5F5F5F5F5F5F5F5
310
F5F5F500000000000000000000000000000000000000000000000000000000000000000000000000000000000000000000000000000000000000000000000000000000000000000000000000000000000000000000000000000000000000000000000000000000000000000000000000000000000000000000000000000000
310
0000000000000000000000000000000000000000000000000000000000000000000000000000000000000000000000000000000000000000000000000000000000000000000000000000000000000000000028000000000000F500000000000000000000000000000000000000000000000000000000000000000000000000
310
00000000F50000000000000000000000000000000000000000000000000000000000000000000000000000000000000000000000000000000000000000000000000000000000000000000000000000000000000000000000000000000000000000000000000000000000000000000000000000000000000000000000000000
310
00000000000000000000000000000000000000000000000000000000000000000000000000000000000000000000000000000000000000000000000000000000000000000000000000000000000000000000000028280000000000F5000000F5F5000000000000000000000000000000000000000000000000000000000000
310
00F5F5000000F5000000000000000000000000000000000000000000000000000000000000000000000000000000000000000000000000000000000000000000000000000000000000000000000000000000000000000000000000000000000000000000000000000000000000000000000000000000000000000000000000
310
00000000000000000000000000000000000000000000000000000000000000000000000000000000000000000000000000000000000000000000000000000000000000000000000000000000000000000000000000002828282828282828282828F5F5F5F5F5F5F5F5F5F5F5F5F5F5F5F5F5F5F5F5F5F5F5F5F5F5F5F5F5F5
310
F5F5F5F5F5F5F5F5F500000000000000000000000000000000000000000000000000000000000000000000000000000000000000000000000000000000000000000000000000000000000000000000000000000000000000000000000000000000000000000000000000000000000000000000000000000000000000000000
310
00000000000000000000000000000000000000000000000000000000000000000000000000000000000000000000000000000000000000000000000000000000000000000000000000000000000000000000000000000000000000000000000000000000000000000000000000000000000000000000000000000000000000
310
00000000000000000000000000000000000000000000000000000000000000000000000000000000000000000000000000000000000000000000000000000000000000000000000000000000000000000000000000000000000000000000000000000000000000000000000000000000000000000000000000000000000000
310
00000000000000000000000000000000000000000000000000000000000000000000000000000000000000000000000000000000000000000000000000000000000000000000000000000000000000000000000000000000000000000000000000000000000000000000000000000000000000000000000000000000000000
310
00000000000000000000000000000000000000000000000000000000000000000000000000000000000000000000000000000000000000000000000000000000000000000000000000000000000000000000000000000000000000000000000000000000000000000000000000000000000000000000000000000000000000
310
00000000000000000000000000000000000000000000000000000000000000000000000000000000000000000000000000000000000000000000000000000000000000000000000000000000000000000000000000000000000000000000000000000000000000000000000000000000000000000000000000000000000000
310
00000000000000000000000000000000000000000000000000000000000000000000000000000000000000000000000000000000000000000000000000000000000000000000000000000000000000000000000000000000000000000000000000000000000000000000000000000000000000000000000000000000000000
310
00000000000000000000000000000000000000000000000000000000000000000000000000000000000000000000000000000000000000000000000000000000000000000000000000000000000000000000000000000000000000000000000000000000000000000000000000000000000000000000000000000000000000
310
00000000000000000000000000000000000000000000000000000000000000000000000000000000000000000000000000000000000000000000000000000000000000000000000000000000000000000000000000000000000000000000000000000000000000000000000000000000000000000000000000000000000000
310
00000000000000000000000000000000000000000000000000000000000000000000000000000000000000000000000000000000000000000000000000000000000000000000000000000000000000000000000000000000000000000000000000000000000000000000000000000000000000000000000000000000000000
310
00000000000000000000000000000000000000000000000000000000000000000000000000000000000000000000000000000000000000000000000000000000000000000000000000000000000000000000000000000000000000000000000000000000000000000000000000000000000000000000000000000000000000
310
00000000000000000000000000000000000000000000000000000000000000000000000000000000000000000000000000000000000000000000000000000000000000000000000000000000000000000000000000000000000000000000000000000000000000000000000000000000000000000000000000000000000000
310
00000000000000000000000000000000000000000000000000000000000000000000000000000000000000000000000000000000000000000000000000000000000000000000000000000000000000000000000000000000000000000000000000000000000000000000000000000000000000000000000000000000000000
310
00000000000000000000000000000000000000000000000000000000000000000000000000000000000000000000000000000000000000000000000000000000000000000000000000000000000000000000000000000000000000000000000000000000000000000000000000000000000000000000000000000000000000
310
00000000000000000000000000000000000000000000000000000000000000000000000000000000000000000000000000000000000000000000000000000000000000000000000000000000000000000000000000000000000000000000000000000000000000000000000000000000000000000000000000000000000000
310
00000000000000000000000000000000000000000000000000000000000000000000000000000000000000000000000000000000000000000000000000000000000000000000000000000000000000000000000000000000000000000000000000000000000000000000000000000000000000000000000000000000000000
310
00000000000000000000000000000000000000000000000000000000000000000000000000000000000000000000000000000000000000000000000000000000000000000000000000000000000000000000000000000000000000000000000000000000000000000000000000000000000000000000000000000000000000
310
00000000000000000000000000000000000000000000000000000000000000000000000000000000000000000000000000000000000000000000000000000000000000000000000000000000000000000000000000000000000000000000000000000000000000000000000000000000000000000000000000000000000000
310
00000000000000000000000000000000000000000000000000000000000000000000000000000000000000000000000000000000000000000000000000000000000000000000000000000000000000000000000000000000000000000000000000000000000000000000000000000000000000000000000000000000000000
310
00000000000000000000000000000000000000000000000000000000000000000000000000000000000000000000000000000000000000000000000000000000000000000000000000000000000000000000000000000000000000000000000000000000000000000000000000000000000000000000000000000000000000
310
00000000000000000000000000000000000000000000000000000000000000000000000000000000000000000000000000000000000000000000000000000000000000000000000000000000000000000000000000000000000000000000000000000000000000000000000000000000000000000000000000000000000000
310
00000000000000000000000000000000000000000000000000000000000000000000000000000000000000000000000000000000000000000000000000000000000000000000000000000000000000000000000000000000000000000000000000000000000000000000000000000000000000000000000000000000000000
310
00000000000000000000000000000000000000000000000000000000000000000000000000000000000000000000000000000000000000000000000000000000000000000000000000000000000000000000000000000000000000000000000000000000000000000000000000000000000000000000000000000000000000
310
00000000000000000000000000000000000000000000000000000000000000000000000000000000000000000000000000000000000000000000000000000000000000000000000000000000000000000000000000000000000000000000000000000000000000000000000000000000000000000000000000000000000000
310
00000000000000000000000000000000000000000000000000000000000000000000000000000000000000000000000000000000000000000000000000000000000000000000000000000000000000000000000000000000000000000000000000000000000000000000000000000000000000000000000000000000000000
310
00000000000000000000000000000000000000000000000000000000000000000000000000000000000000000000000000000000000000000000000000000000000000000000000000000000000000000000000000000000000000000000000000000000000000000000000000000000000000000000000000000000000000
310
00000000000000000000000000000000000000000000000000000000000000000000000000000000000000000000000000000000000000000000000000000000000000000000000000000000000000000000000000000000000000000000000000000000000000000000000000000000000000000000000000000000000000
310
00000000000000000000000000000000000000000000000000000000000000000000000000000000000000000000000000000000000000000000000000000000000000000000000000000000000000000000000000000000000000000000000000000000000000000000000000000000000000000000000000000000000000
310
00000000000000000000000000000000000000000000000000000000000000000000000000000000000000000000000000000000000000000000000000000000000000000000000000000000000000000000000000000000000000000000000000000000000000000000000000000000000000000000000000000000000000
310
00000000000000000000000000000000000000000000000000000000000000000000000000000000000000000000000000000000000000000000000000000000000000000000000000000000000000000000000000000000000000000000000000000000000000000000000000000000000000000000000000000000000000
310
00000000000000000000000000000000000000000000000000000000000000000000000000000000000000000000000000000000000000000000000000000000000000000000000000000000000000000000000000000000000000000000000000000000000000000000000000000000000000000000000000000000000000
310
00000000000000000000000000000000000000000000000000000000
  0
XRECORD
  5
812
102
{ACAD_REACTORS
330
1A
102
}
330
1A
100
AcDbXrecord
280
     1
102
MATERIAL
148
0.0
149
0.0
149
0.0
 93
        0
 94
      127
282
     0
 72
     0
 77
     0
171
     0
175
     0
179
     0
273
     0
  0
XRECORD
  5
1C
102
{ACAD_REACTORS
330
1A
102
}
330
1A
100
AcDbXrecord
280
     1
270
     1
271
     1
  0
XRECORD
  5
1B
102
{ACAD_REACTORS
330
1A
102
}
330
1A
100
AcDbXrecord
280
     1
270
     1
271
     1
  0
XRECORD
  5
1F
102
{ACAD_REACTORS
330
1A
102
}
330
1A
100
AcDbXrecord
280
     1
270
     1
271
     1
  0
XRECORD
  5
1E
102
{ACAD_REACTORS
330
1A
102
}
330
1A
100
AcDbXrecord
280
     1
270
     1
271
     1
  0
XRECORD
  5
20
102
{ACAD_REACTORS
330
1A
102
}
330
1A
100
AcDbXrecord
280
     1
270
     1
271
     1
  0
XRECORD
  5
1D
102
{ACAD_REACTORS
330
1A
102
}
330
1A
100
AcDbXrecord
280
     1
270
     1
271
     1
  0
XRECORD
  5
811
102
{ACAD_REACTORS
330
12
102
}
330
12
100
AcDbXrecord
280
     1
102
MATERIAL
148
0.0
149
0.0
149
0.0
 93
        0
 94
      127
282
     0
 72
     0
 77
     0
171
     0
175
     0
179
     0
273
     0
  0
XRECORD
  5
14
102
{ACAD_REACTORS
330
12
102
}
330
12
100
AcDbXrecord
280
     1
270
     1
271
     1
  0
XRECORD
  5
13
102
{ACAD_REACTORS
330
12
102
}
330
12
100
AcDbXrecord
280
     1
270
     1
271
     1
  0
XRECORD
  5
17
102
{ACAD_REACTORS
330
12
102
}
330
12
100
AcDbXrecord
280
     1
270
     1
271
     1
  0
XRECORD
  5
16
102
{ACAD_REACTORS
330
12
102
}
330
12
100
AcDbXrecord
280
     1
270
     1
271
     1
  0
XRECORD
  5
18
102
{ACAD_REACTORS
330
12
102
}
330
12
100
AcDbXrecord
280
     1
270
     1
271
     1
  0
XRECORD
  5
15
102
{ACAD_REACTORS
330
12
102
}
330
12
100
AcDbXrecord
280
     1
270
     1
271
     1
  0
XRECORD
  5
813
102
{ACAD_REACTORS
330
22
102
}
330
22
100
AcDbXrecord
280
     1
102
MATERIAL
148
0.0
149
0.0
149
0.0
 93
        0
 94
      127
282
     0
 72
     0
 77
     0
171
     0
175
     0
179
     0
273
     0
  0
XRECORD
  5
24
102
{ACAD_REACTORS
330
22
102
}
330
22
100
AcDbXrecord
280
     1
270
     1
271
     1
  0
XRECORD
  5
23
102
{ACAD_REACTORS
330
22
102
}
330
22
100
AcDbXrecord
280
     1
270
     1
271
     1
  0
XRECORD
  5
27
102
{ACAD_REACTORS
330
22
102
}
330
22
100
AcDbXrecord
280
     1
270
     1
271
     1
  0
XRECORD
  5
26
102
{ACAD_REACTORS
330
22
102
}
330
22
100
AcDbXrecord
280
     1
270
     1
271
     1
  0
XRECORD
  5
28
102
{ACAD_REACTORS
330
22
102
}
330
22
100
AcDbXrecord
280
     1
270
     1
271
     1
  0
XRECORD
  5
25
102
{ACAD_REACTORS
330
22
102
}
330
22
100
AcDbXrecord
280
     1
270
     1
271
     1
  0
CELLSTYLEMAP
  5
809
102
{ACAD_REACTORS
330
685
102
}
330
685
100
AcDbCellStyleMap
 90
        3
300
CELLSTYLE
  1
TABLEFORMAT_BEGIN
 90
        5
170
     1
 91
        0
 92
    32768
 62
   257
 93
        1
300
CONTENTFORMAT
  1
CONTENTFORMAT_BEGIN
 90
        0
 91
        0
 92
      512
 93
        0
300

 40
0.0
140
1.0
 94
        5
 62
     0
340
55
144
0.25
309
CONTENTFORMAT_END
171
     0
 94
        0
309
TABLEFORMAT_END
  1
CELLSTYLE_BEGIN
 90
        1
 91
        1
300
_TITLE
309
CELLSTYLE_END
300
CELLSTYLE
  1
TABLEFORMAT_BEGIN
 90
        5
170
     1
 91
        0
 92
        0
 62
   257
 93
        1
300
CONTENTFORMAT
  1
CONTENTFORMAT_BEGIN
 90
        0
 91
        0
 92
      512
 93
        0
300

 40
0.0
140
1.0
 94
        5
 62
     0
340
55
144
0.18
309
CONTENTFORMAT_END
171
     0
 94
        0
309
TABLEFORMAT_END
  1
CELLSTYLE_BEGIN
 90
        2
 91
        1
300
_HEADER
309
CELLSTYLE_END
300
CELLSTYLE
  1
TABLEFORMAT_BEGIN
 90
        5
170
     1
 91
        0
 92
        0
 62
   257
 93
        1
300
CONTENTFORMAT
  1
CONTENTFORMAT_BEGIN
 90
        0
 91
        0
 92
      512
 93
        0
300

 40
0.0
140
1.0
 94
        2
 62
     0
340
55
144
0.18
309
CONTENTFORMAT_END
171
     0
 94
        0
309
TABLEFORMAT_END
  1
CELLSTYLE_BEGIN
 90
        3
 91
        2
300
_DATA
309
CELLSTYLE_END
  0
XRECORD
  5
844
102
{ACAD_REACTORS
330
685
102
}
330
685
100
AcDbXrecord
280
     1
102
ACAD_ROUNDTRIP_PRE2007_TABLESTYLE
 90
      512
 91
        0
  1

 92
      512
 93
        0
  2

 94
      512
 95
        0
  3

  0
XRECORD
  5
81F
102
{ACAD_REACTORS
330
81E
102
}
330
81E
100
AcDbXrecord
280
     1
102
RTVSPropertyOp0
 70
     1
102
RTVSPropertyOp1
 70
     1
102
RTVSPropertyOp2
 70
     1
102
RTVSPropertyOp3
 70
     1
102
RTVSPropertyOp4
 70
     1
102
RTVSPropertyOp5
 70
     1
102
RTVSPropertyOp6
 70
     1
102
RTVSPropertyOp7
 70
     1
102
RTVSPropertyOp8
 70
     1
102
RTVSPropertyOp9
 70
     1
102
RTVSPropertyOp10
 70
     1
102
RTVSPropertyOp11
 70
     1
102
RTVSPropertyOp12
 70
     1
102
RTVSPropertyOp13
 70
     1
102
RTVSPropertyOp14
 70
     1
102
RTVSPropertyOp15
 70
     1
102
RTVSPropertyOp16
 70
     1
102
RTVSPropertyOp17
 70
     1
102
RTVSPropertyOp18
 70
     1
102
RTVSPropertyOp19
 70
     1
102
RTVSPropertyOp20
 70
     1
102
RTVSPropertyOp21
 70
     1
102
RTVSPropertyOp22
 70
     1
102
RTVSPropertyOp23
 70
     1
102
RTVSPropertyOp24
 70
     1
102
RTVSPropertyOp25
 70
     1
102
RTVSPropertyOp26
 70
     1
102
RTVSPropertyOp27
 70
     1
102
RTVSPropertyOp28
 70
     1
102
RTVSPropertyOp29
 70
     1
102
RTVSPropertyOp30
 70
     1
102
RTVSPropertyOp31
 70
     1
102
RTVSPropertyOp32
 70
     1
  0
XRECORD
  5
81D
102
{ACAD_REACTORS
330
81C
102
}
330
81C
100
AcDbXrecord
280
     1
102
RTVSPropertyOp0
 70
     1
102
RTVSPropertyOp1
 70
     1
102
RTVSPropertyOp2
 70
     1
102
RTVSPropertyOp3
 70
     1
102
RTVSPropertyOp4
 70
     1
102
RTVSPropertyOp5
 70
     1
102
RTVSPropertyOp6
 70
     1
102
RTVSPropertyOp7
 70
     1
102
RTVSPropertyOp8
 70
     1
102
RTVSPropertyOp9
 70
     1
102
RTVSPropertyOp10
 70
     1
102
RTVSPropertyOp11
 70
     1
102
RTVSPropertyOp12
 70
     1
102
RTVSPropertyOp13
 70
     1
102
RTVSPropertyOp14
 70
     1
102
RTVSPropertyOp15
 70
     1
102
RTVSPropertyOp16
 70
     1
102
RTVSPropertyOp17
 70
     1
102
RTVSPropertyOp18
 70
     1
102
RTVSPropertyOp19
 70
     1
102
RTVSPropertyOp20
 70
     1
102
RTVSPropertyOp21
 70
     1
102
RTVSPropertyOp22
 70
     1
102
RTVSPropertyOp23
 70
     1
102
RTVSPropertyOp24
 70
     1
102
RTVSPropertyOp25
 70
     1
102
RTVSPropertyOp26
 70
     1
102
RTVSPropertyOp27
 70
     1
102
RTVSPropertyOp28
 70
     1
102
RTVSPropertyOp29
 70
     1
102
RTVSPropertyOp30
 70
     1
102
RTVSPropertyOp31
 70
     1
102
RTVSPropertyOp32
 70
     1
  0
XRECORD
  5
82B
102
{ACAD_REACTORS
330
82A
102
}
330
82A
100
AcDbXrecord
280
     1
102
RTVSPropertyOp0
 70
     1
102
RTVSPropertyOp1
 70
     1
102
RTVSPropertyOp2
 70
     1
102
RTVSPropertyOp3
 70
     1
102
RTVSPropertyOp4
 70
     1
102
RTVSPropertyOp5
 70
     1
102
RTVSPropertyOp6
 70
     1
102
RTVSPropertyOp7
 70
     1
102
RTVSPropertyOp8
 70
     1
102
RTVSPropertyOp9
 70
     1
102
RTVSPropertyOp10
 70
     1
102
RTVSPropertyOp11
 70
     1
102
RTVSPropertyOp12
 70
     1
102
RTVSPropertyOp13
 70
     1
102
RTVSPropertyOp14
 70
     1
102
RTVSPropertyOp15
 70
     1
102
RTVSPropertyOp16
 70
     1
102
RTVSPropertyOp17
 70
     1
102
RTVSPropertyOp18
 70
     1
102
RTVSPropertyOp19
 70
     1
102
RTVSPropertyOp20
 70
     1
102
RTVSPropertyOp21
 70
     1
102
RTVSPropertyOp22
 70
     1
102
RTVSPropertyOp23
 70
     1
102
RTVSPropertyOp24
 70
     1
102
RTVSPropertyOp25
 70
     1
102
RTVSPropertyOp26
 70
     1
102
RTVSPropertyOp27
 70
     1
102
RTVSPropertyOp28
 70
     1
102
RTVSPropertyOp29
 70
     1
102
RTVSPropertyOp30
 70
     1
102
RTVSPropertyOp31
 70
     1
102
RTVSPropertyOp32
 70
     1
  0
XRECORD
  5
833
102
{ACAD_REACTORS
330
832
102
}
330
832
100
AcDbXrecord
280
     1
102
RTVSPropertyOp0
 70
     1
102
RTVSPropertyOp1
 70
     1
102
RTVSPropertyOp2
 70
     1
102
RTVSPropertyOp3
 70
     1
102
RTVSPropertyOp4
 70
     1
102
RTVSPropertyOp5
 70
     1
102
RTVSPropertyOp6
 70
     1
102
RTVSPropertyOp7
 70
     1
102
RTVSPropertyOp8
 70
     1
102
RTVSPropertyOp9
 70
     1
102
RTVSPropertyOp10
 70
     1
102
RTVSPropertyOp11
 70
     1
102
RTVSPropertyOp12
 70
     1
102
RTVSPropertyOp13
 70
     1
102
RTVSPropertyOp14
 70
     1
102
RTVSPropertyOp15
 70
     1
102
RTVSPropertyOp16
 70
     1
102
RTVSPropertyOp17
 70
     1
102
RTVSPropertyOp18
 70
     1
102
RTVSPropertyOp19
 70
     1
102
RTVSPropertyOp20
 70
     1
102
RTVSPropertyOp21
 70
     1
102
RTVSPropertyOp22
 70
     1
102
RTVSPropertyOp23
 70
     1
102
RTVSPropertyOp24
 70
     1
102
RTVSPropertyOp25
 70
     1
102
RTVSPropertyOp26
 70
     1
102
RTVSPropertyOp27
 70
     1
102
RTVSPropertyOp28
 70
     1
102
RTVSPropertyOp29
 70
     1
102
RTVSPropertyOp30
 70
     1
102
RTVSPropertyOp31
 70
     1
102
RTVSPropertyOp32
 70
     1
  0
XRECORD
  5
825
102
{ACAD_REACTORS
330
824
102
}
330
824
100
AcDbXrecord
280
     1
102
RTVSPropertyOp0
 70
     1
102
RTVSPropertyOp1
 70
     1
102
RTVSPropertyOp2
 70
     1
102
RTVSPropertyOp3
 70
     1
102
RTVSPropertyOp4
 70
     1
102
RTVSPropertyOp5
 70
     1
102
RTVSPropertyOp6
 70
     1
102
RTVSPropertyOp7
 70
     1
102
RTVSPropertyOp8
 70
     1
102
RTVSPropertyOp9
 70
     1
102
RTVSPropertyOp10
 70
     1
102
RTVSPropertyOp11
 70
     1
102
RTVSPropertyOp12
 70
     1
102
RTVSPropertyOp13
 70
     1
102
RTVSPropertyOp14
 70
     1
102
RTVSPropertyOp15
 70
     1
102
RTVSPropertyOp16
 70
     1
102
RTVSPropertyOp17
 70
     1
102
RTVSPropertyOp18
 70
     1
102
RTVSPropertyOp19
 70
     1
102
RTVSPropertyOp20
 70
     1
102
RTVSPropertyOp21
 70
     1
102
RTVSPropertyOp22
 70
     1
102
RTVSPropertyOp23
 70
     1
102
RTVSPropertyOp24
 70
     1
102
RTVSPropertyOp25
 70
     1
102
RTVSPropertyOp26
 70
     1
102
RTVSPropertyOp27
 70
     1
102
RTVSPropertyOp28
 70
     1
102
RTVSPropertyOp29
 70
     1
102
RTVSPropertyOp30
 70
     1
102
RTVSPropertyOp31
 70
     1
102
RTVSPropertyOp32
 70
     1
  0
XRECORD
  5
829
102
{ACAD_REACTORS
330
828
102
}
330
828
100
AcDbXrecord
280
     1
102
RTVSPropertyOp0
 70
     1
102
RTVSPropertyOp1
 70
     1
102
RTVSPropertyOp2
 70
     1
102
RTVSPropertyOp3
 70
     1
102
RTVSPropertyOp4
 70
     1
102
RTVSPropertyOp5
 70
     1
102
RTVSPropertyOp6
 70
     1
102
RTVSPropertyOp7
 70
     1
102
RTVSPropertyOp8
 70
     1
102
RTVSPropertyOp9
 70
     1
102
RTVSPropertyOp10
 70
     1
102
RTVSPropertyOp11
 70
     1
102
RTVSPropertyOp12
 70
     1
102
RTVSPropertyOp13
 70
     1
102
RTVSPropertyOp14
 70
     1
102
RTVSPropertyOp15
 70
     1
102
RTVSPropertyOp16
 70
     1
102
RTVSPropertyOp17
 70
     1
102
RTVSPropertyOp18
 70
     1
102
RTVSPropertyOp19
 70
     1
102
RTVSPropertyOp20
 70
     1
102
RTVSPropertyOp21
 70
     1
102
RTVSPropertyOp22
 70
     1
102
RTVSPropertyOp23
 70
     1
102
RTVSPropertyOp24
 70
     1
102
RTVSPropertyOp25
 70
     1
102
RTVSPropertyOp26
 70
     1
102
RTVSPropertyOp27
 70
     1
102
RTVSPropertyOp28
 70
     1
102
RTVSPropertyOp29
 70
     1
102
RTVSPropertyOp30
 70
     1
102
RTVSPropertyOp31
 70
     1
102
RTVSPropertyOp32
 70
     1
  0
XRECORD
  5
843
102
{ACAD_REACTORS
330
842
102
}
330
842
100
AcDbXrecord
280
     1
102
RTVSPropertyOp0
 70
     0
102
RTVSPropertyOp1
 70
     0
102
RTVSPropertyOp2
 70
     0
102
RTVSPropertyOp3
 70
     0
102
RTVSPropertyOp4
 70
     0
102
RTVSPropertyOp5
 70
     0
102
RTVSPropertyOp6
 70
     0
102
RTVSPropertyOp7
 70
     0
102
RTVSPropertyOp8
 70
     0
102
RTVSPropertyOp9
 70
     0
102
RTVSPropertyOp10
 70
     0
102
RTVSPropertyOp11
 70
     0
102
RTVSPropertyOp12
 70
     0
102
RTVSPropertyOp13
 70
     0
102
RTVSPropertyOp14
 70
     2
102
RTVSPropertyOp15
 70
     0
102
RTVSPropertyOp16
 70
     0
102
RTVSPropertyOp17
 70
     0
102
RTVSPropertyOp18
 70
     0
102
RTVSPropertyOp19
 70
     0
102
RTVSPropertyOp20
 70
     0
102
RTVSPropertyOp21
 70
     0
102
RTVSPropertyOp22
 70
     0
102
RTVSPropertyOp23
 70
     0
102
RTVSPropertyOp24
 70
     0
102
RTVSPropertyOp25
 70
     0
102
RTVSPropertyOp26
 70
     0
102
RTVSPropertyOp27
 70
     0
102
RTVSPropertyOp28
 70
     1
102
RTVSPropertyOp29
 70
     1
102
RTVSPropertyOp30
 70
     1
102
RTVSPropertyOp31
 70
     1
102
RTVSPropertyOp32
 70
     1
  0
XRECORD
  5
831
102
{ACAD_REACTORS
330
830
102
}
330
830
100
AcDbXrecord
280
     1
102
RTVSPropertyOp0
 70
     1
102
RTVSPropertyOp1
 70
     1
102
RTVSPropertyOp2
 70
     1
102
RTVSPropertyOp3
 70
     1
102
RTVSPropertyOp4
 70
     1
102
RTVSPropertyOp5
 70
     1
102
RTVSPropertyOp6
 70
     1
102
RTVSPropertyOp7
 70
     1
102
RTVSPropertyOp8
 70
     1
102
RTVSPropertyOp9
 70
     1
102
RTVSPropertyOp10
 70
     1
102
RTVSPropertyOp11
 70
     1
102
RTVSPropertyOp12
 70
     1
102
RTVSPropertyOp13
 70
     1
102
RTVSPropertyOp14
 70
     1
102
RTVSPropertyOp15
 70
     1
102
RTVSPropertyOp16
 70
     1
102
RTVSPropertyOp17
 70
     1
102
RTVSPropertyOp18
 70
     1
102
RTVSPropertyOp19
 70
     1
102
RTVSPropertyOp20
 70
     1
102
RTVSPropertyOp21
 70
     1
102
RTVSPropertyOp22
 70
     1
102
RTVSPropertyOp23
 70
     1
102
RTVSPropertyOp24
 70
     1
102
RTVSPropertyOp25
 70
     1
102
RTVSPropertyOp26
 70
     1
102
RTVSPropertyOp27
 70
     1
102
RTVSPropertyOp28
 70
     1
102
RTVSPropertyOp29
 70
     1
102
RTVSPropertyOp30
 70
     1
102
RTVSPropertyOp31
 70
     1
102
RTVSPropertyOp32
 70
     1
  0
XRECORD
  5
815
102
{ACAD_REACTORS
330
814
102
}
330
814
100
AcDbXrecord
280
     1
102
RTVSPropertyOp0
 70
     1
102
RTVSPropertyOp1
 70
     1
102
RTVSPropertyOp2
 70
     1
102
RTVSPropertyOp3
 70
     1
102
RTVSPropertyOp4
 70
     1
102
RTVSPropertyOp5
 70
     1
102
RTVSPropertyOp6
 70
     1
102
RTVSPropertyOp7
 70
     1
102
RTVSPropertyOp8
 70
     1
102
RTVSPropertyOp9
 70
     1
102
RTVSPropertyOp10
 70
     1
102
RTVSPropertyOp11
 70
     1
102
RTVSPropertyOp12
 70
     1
102
RTVSPropertyOp13
 70
     1
102
RTVSPropertyOp14
 70
     1
102
RTVSPropertyOp15
 70
     1
102
RTVSPropertyOp16
 70
     1
102
RTVSPropertyOp17
 70
     1
102
RTVSPropertyOp18
 70
     1
102
RTVSPropertyOp19
 70
     1
102
RTVSPropertyOp20
 70
     1
102
RTVSPropertyOp21
 70
     1
102
RTVSPropertyOp22
 70
     1
102
RTVSPropertyOp23
 70
     1
102
RTVSPropertyOp24
 70
     1
102
RTVSPropertyOp25
 70
     1
102
RTVSPropertyOp26
 70
     1
102
RTVSPropertyOp27
 70
     1
102
RTVSPropertyOp28
 70
     1
102
RTVSPropertyOp29
 70
     1
102
RTVSPropertyOp30
 70
     1
102
RTVSPropertyOp31
 70
     1
102
RTVSPropertyOp32
 70
     1
  0
XRECORD
  5
817
102
{ACAD_REACTORS
330
816
102
}
330
816
100
AcDbXrecord
280
     1
102
RTVSPropertyOp0
 70
     1
102
RTVSPropertyOp1
 70
     1
102
RTVSPropertyOp2
 70
     1
102
RTVSPropertyOp3
 70
     1
102
RTVSPropertyOp4
 70
     1
102
RTVSPropertyOp5
 70
     1
102
RTVSPropertyOp6
 70
     1
102
RTVSPropertyOp7
 70
     1
102
RTVSPropertyOp8
 70
     1
102
RTVSPropertyOp9
 70
     1
102
RTVSPropertyOp10
 70
     1
102
RTVSPropertyOp11
 70
     1
102
RTVSPropertyOp12
 70
     1
102
RTVSPropertyOp13
 70
     1
102
RTVSPropertyOp14
 70
     1
102
RTVSPropertyOp15
 70
     1
102
RTVSPropertyOp16
 70
     1
102
RTVSPropertyOp17
 70
     1
102
RTVSPropertyOp18
 70
     1
102
RTVSPropertyOp19
 70
     1
102
RTVSPropertyOp20
 70
     1
102
RTVSPropertyOp21
 70
     1
102
RTVSPropertyOp22
 70
     1
102
RTVSPropertyOp23
 70
     1
102
RTVSPropertyOp24
 70
     1
102
RTVSPropertyOp25
 70
     1
102
RTVSPropertyOp26
 70
     1
102
RTVSPropertyOp27
 70
     1
102
RTVSPropertyOp28
 70
     1
102
RTVSPropertyOp29
 70
     1
102
RTVSPropertyOp30
 70
     1
102
RTVSPropertyOp31
 70
     1
102
RTVSPropertyOp32
 70
     1
  0
XRECORD
  5
819
102
{ACAD_REACTORS
330
818
102
}
330
818
100
AcDbXrecord
280
     1
102
RTVSPropertyOp0
 70
     1
102
RTVSPropertyOp1
 70
     1
102
RTVSPropertyOp2
 70
     1
102
RTVSPropertyOp3
 70
     1
102
RTVSPropertyOp4
 70
     1
102
RTVSPropertyOp5
 70
     1
102
RTVSPropertyOp6
 70
     1
102
RTVSPropertyOp7
 70
     1
102
RTVSPropertyOp8
 70
     1
102
RTVSPropertyOp9
 70
     1
102
RTVSPropertyOp10
 70
     1
102
RTVSPropertyOp11
 70
     1
102
RTVSPropertyOp12
 70
     1
102
RTVSPropertyOp13
 70
     1
102
RTVSPropertyOp14
 70
     1
102
RTVSPropertyOp15
 70
     1
102
RTVSPropertyOp16
 70
     1
102
RTVSPropertyOp17
 70
     1
102
RTVSPropertyOp18
 70
     1
102
RTVSPropertyOp19
 70
     1
102
RTVSPropertyOp20
 70
     1
102
RTVSPropertyOp21
 70
     1
102
RTVSPropertyOp22
 70
     1
102
RTVSPropertyOp23
 70
     1
102
RTVSPropertyOp24
 70
     1
102
RTVSPropertyOp25
 70
     1
102
RTVSPropertyOp26
 70
     1
102
RTVSPropertyOp27
 70
     1
102
RTVSPropertyOp28
 70
     1
102
RTVSPropertyOp29
 70
     1
102
RTVSPropertyOp30
 70
     1
102
RTVSPropertyOp31
 70
     1
102
RTVSPropertyOp32
 70
     1
  0
XRECORD
  5
81B
102
{ACAD_REACTORS
330
81A
102
}
330
81A
100
AcDbXrecord
280
     1
102
RTVSPropertyOp0
 70
     1
102
RTVSPropertyOp1
 70
     1
102
RTVSPropertyOp2
 70
     1
102
RTVSPropertyOp3
 70
     1
102
RTVSPropertyOp4
 70
     1
102
RTVSPropertyOp5
 70
     1
102
RTVSPropertyOp6
 70
     1
102
RTVSPropertyOp7
 70
     1
102
RTVSPropertyOp8
 70
     1
102
RTVSPropertyOp9
 70
     1
102
RTVSPropertyOp10
 70
     1
102
RTVSPropertyOp11
 70
     1
102
RTVSPropertyOp12
 70
     1
102
RTVSPropertyOp13
 70
     1
102
RTVSPropertyOp14
 70
     1
102
RTVSPropertyOp15
 70
     1
102
RTVSPropertyOp16
 70
     1
102
RTVSPropertyOp17
 70
     1
102
RTVSPropertyOp18
 70
     1
102
RTVSPropertyOp19
 70
     1
102
RTVSPropertyOp20
 70
     1
102
RTVSPropertyOp21
 70
     1
102
RTVSPropertyOp22
 70
     1
102
RTVSPropertyOp23
 70
     1
102
RTVSPropertyOp24
 70
     1
102
RTVSPropertyOp25
 70
     1
102
RTVSPropertyOp26
 70
     1
102
RTVSPropertyOp27
 70
     1
102
RTVSPropertyOp28
 70
     1
102
RTVSPropertyOp29
 70
     1
102
RTVSPropertyOp30
 70
     1
102
RTVSPropertyOp31
 70
     1
102
RTVSPropertyOp32
 70
     1
  0
XRECORD
  5
823
102
{ACAD_REACTORS
330
822
102
}
330
822
100
AcDbXrecord
280
     1
102
RTVSPropertyOp0
 70
     1
102
RTVSPropertyOp1
 70
     1
102
RTVSPropertyOp2
 70
     1
102
RTVSPropertyOp3
 70
     1
102
RTVSPropertyOp4
 70
     1
102
RTVSPropertyOp5
 70
     1
102
RTVSPropertyOp6
 70
     1
102
RTVSPropertyOp7
 70
     1
102
RTVSPropertyOp8
 70
     1
102
RTVSPropertyOp9
 70
     1
102
RTVSPropertyOp10
 70
     1
102
RTVSPropertyOp11
 70
     1
102
RTVSPropertyOp12
 70
     1
102
RTVSPropertyOp13
 70
     1
102
RTVSPropertyOp14
 70
     1
102
RTVSPropertyOp15
 70
     1
102
RTVSPropertyOp16
 70
     1
102
RTVSPropertyOp17
 70
     1
102
RTVSPropertyOp18
 70
     1
102
RTVSPropertyOp19
 70
     1
102
RTVSPropertyOp20
 70
     1
102
RTVSPropertyOp21
 70
     1
102
RTVSPropertyOp22
 70
     1
102
RTVSPropertyOp23
 70
     1
102
RTVSPropertyOp24
 70
     1
102
RTVSPropertyOp25
 70
     1
102
RTVSPropertyOp26
 70
     1
102
RTVSPropertyOp27
 70
     1
102
RTVSPropertyOp28
 70
     1
102
RTVSPropertyOp29
 70
     1
102
RTVSPropertyOp30
 70
     1
102
RTVSPropertyOp31
 70
     1
102
RTVSPropertyOp32
 70
     1
  0
XRECORD
  5
83F
102
{ACAD_REACTORS
330
83E
102
}
330
83E
100
AcDbXrecord
280
     1
102
RTVSPropertyOp0
 70
     0
102
RTVSPropertyOp1
 70
     0
102
RTVSPropertyOp2
 70
     0
102
RTVSPropertyOp3
 70
     0
102
RTVSPropertyOp4
 70
     0
102
RTVSPropertyOp5
 70
     0
102
RTVSPropertyOp6
 70
     0
102
RTVSPropertyOp7
 70
     0
102
RTVSPropertyOp8
 70
     0
102
RTVSPropertyOp9
 70
     0
102
RTVSPropertyOp10
 70
     0
102
RTVSPropertyOp11
 70
     0
102
RTVSPropertyOp12
 70
     0
102
RTVSPropertyOp13
 70
     0
102
RTVSPropertyOp14
 70
     2
102
RTVSPropertyOp15
 70
     0
102
RTVSPropertyOp16
 70
     0
102
RTVSPropertyOp17
 70
     0
102
RTVSPropertyOp18
 70
     0
102
RTVSPropertyOp19
 70
     0
102
RTVSPropertyOp20
 70
     0
102
RTVSPropertyOp21
 70
     0
102
RTVSPropertyOp22
 70
     0
102
RTVSPropertyOp23
 70
     0
102
RTVSPropertyOp24
 70
     0
102
RTVSPropertyOp25
 70
     0
102
RTVSPropertyOp26
 70
     0
102
RTVSPropertyOp27
 70
     0
102
RTVSPropertyOp28
 70
     1
102
RTVSPropertyOp29
 70
     1
102
RTVSPropertyOp30
 70
     1
102
RTVSPropertyOp31
 70
     1
102
RTVSPropertyOp32
 70
     1
  0
XRECORD
  5
82F
102
{ACAD_REACTORS
330
82E
102
}
330
82E
100
AcDbXrecord
280
     1
102
RTVSPropertyOp0
 70
     1
102
RTVSPropertyOp1
 70
     1
102
RTVSPropertyOp2
 70
     1
102
RTVSPropertyOp3
 70
     1
102
RTVSPropertyOp4
 70
     1
102
RTVSPropertyOp5
 70
     1
102
RTVSPropertyOp6
 70
     1
102
RTVSPropertyOp7
 70
     1
102
RTVSPropertyOp8
 70
     1
102
RTVSPropertyOp9
 70
     1
102
RTVSPropertyOp10
 70
     1
102
RTVSPropertyOp11
 70
     1
102
RTVSPropertyOp12
 70
     1
102
RTVSPropertyOp13
 70
     1
102
RTVSPropertyOp14
 70
     1
102
RTVSPropertyOp15
 70
     1
102
RTVSPropertyOp16
 70
     1
102
RTVSPropertyOp17
 70
     1
102
RTVSPropertyOp18
 70
     1
102
RTVSPropertyOp19
 70
     1
102
RTVSPropertyOp20
 70
     1
102
RTVSPropertyOp21
 70
     1
102
RTVSPropertyOp22
 70
     1
102
RTVSPropertyOp23
 70
     1
102
RTVSPropertyOp24
 70
     1
102
RTVSPropertyOp25
 70
     1
102
RTVSPropertyOp26
 70
     1
102
RTVSPropertyOp27
 70
     1
102
RTVSPropertyOp28
 70
     1
102
RTVSPropertyOp29
 70
     1
102
RTVSPropertyOp30
 70
     1
102
RTVSPropertyOp31
 70
     1
102
RTVSPropertyOp32
 70
     1
  0
XRECORD
  5
841
102
{ACAD_REACTORS
330
840
102
}
330
840
100
AcDbXrecord
280
     1
102
RTVSPropertyOp0
 70
     0
102
RTVSPropertyOp1
 70
     0
102
RTVSPropertyOp2
 70
     0
102
RTVSPropertyOp3
 70
     0
102
RTVSPropertyOp4
 70
     0
102
RTVSPropertyOp5
 70
     0
102
RTVSPropertyOp6
 70
     0
102
RTVSPropertyOp7
 70
     0
102
RTVSPropertyOp8
 70
     0
102
RTVSPropertyOp9
 70
     0
102
RTVSPropertyOp10
 70
     0
102
RTVSPropertyOp11
 70
     0
102
RTVSPropertyOp12
 70
     0
102
RTVSPropertyOp13
 70
     0
102
RTVSPropertyOp14
 70
     2
102
RTVSPropertyOp15
 70
     0
102
RTVSPropertyOp16
 70
     0
102
RTVSPropertyOp17
 70
     0
102
RTVSPropertyOp18
 70
     0
102
RTVSPropertyOp19
 70
     0
102
RTVSPropertyOp20
 70
     0
102
RTVSPropertyOp21
 70
     0
102
RTVSPropertyOp22
 70
     0
102
RTVSPropertyOp23
 70
     0
102
RTVSPropertyOp24
 70
     0
102
RTVSPropertyOp25
 70
     0
102
RTVSPropertyOp26
 70
     0
102
RTVSPropertyOp27
 70
     0
102
RTVSPropertyOp28
 70
     1
102
RTVSPropertyOp29
 70
     1
102
RTVSPropertyOp30
 70
     1
102
RTVSPropertyOp31
 70
     1
102
RTVSPropertyOp32
 70
     1
  0
XRECORD
  5
827
102
{ACAD_REACTORS
330
826
102
}
330
826
100
AcDbXrecord
280
     1
102
RTVSPropertyOp0
 70
     1
102
RTVSPropertyOp1
 70
     1
102
RTVSPropertyOp2
 70
     1
102
RTVSPropertyOp3
 70
     1
102
RTVSPropertyOp4
 70
     1
102
RTVSPropertyOp5
 70
     1
102
RTVSPropertyOp6
 70
     1
102
RTVSPropertyOp7
 70
     1
102
RTVSPropertyOp8
 70
     1
102
RTVSPropertyOp9
 70
     1
102
RTVSPropertyOp10
 70
     1
102
RTVSPropertyOp11
 70
     1
102
RTVSPropertyOp12
 70
     1
102
RTVSPropertyOp13
 70
     1
102
RTVSPropertyOp14
 70
     1
102
RTVSPropertyOp15
 70
     1
102
RTVSPropertyOp16
 70
     1
102
RTVSPropertyOp17
 70
     1
102
RTVSPropertyOp18
 70
     1
102
RTVSPropertyOp19
 70
     1
102
RTVSPropertyOp20
 70
     1
102
RTVSPropertyOp21
 70
     1
102
RTVSPropertyOp22
 70
     1
102
RTVSPropertyOp23
 70
     1
102
RTVSPropertyOp24
 70
     1
102
RTVSPropertyOp25
 70
     1
102
RTVSPropertyOp26
 70
     1
102
RTVSPropertyOp27
 70
     1
102
RTVSPropertyOp28
 70
     1
102
RTVSPropertyOp29
 70
     1
102
RTVSPropertyOp30
 70
     1
102
RTVSPropertyOp31
 70
     1
102
RTVSPropertyOp32
 70
     1
  0
XRECORD
  5
83D
102
{ACAD_REACTORS
330
83C
102
}
330
83C
100
AcDbXrecord
280
     1
102
RTVSPropertyOp0
 70
     1
102
RTVSPropertyOp1
 70
     1
102
RTVSPropertyOp2
 70
     1
102
RTVSPropertyOp3
 70
     1
102
RTVSPropertyOp4
 70
     1
102
RTVSPropertyOp5
 70
     1
102
RTVSPropertyOp6
 70
     1
102
RTVSPropertyOp7
 70
     1
102
RTVSPropertyOp8
 70
     1
102
RTVSPropertyOp9
 70
     1
102
RTVSPropertyOp10
 70
     1
102
RTVSPropertyOp11
 70
     1
102
RTVSPropertyOp12
 70
     1
102
RTVSPropertyOp13
 70
     1
102
RTVSPropertyOp14
 70
     1
102
RTVSPropertyOp15
 70
     1
102
RTVSPropertyOp16
 70
     1
102
RTVSPropertyOp17
 70
     1
102
RTVSPropertyOp18
 70
     1
102
RTVSPropertyOp19
 70
     1
102
RTVSPropertyOp20
 70
     1
102
RTVSPropertyOp21
 70
     1
102
RTVSPropertyOp22
 70
     1
102
RTVSPropertyOp23
 70
     1
102
RTVSPropertyOp24
 70
     1
102
RTVSPropertyOp25
 70
     1
102
RTVSPropertyOp26
 70
     1
102
RTVSPropertyOp27
 70
     1
102
RTVSPropertyOp28
 70
     1
102
RTVSPropertyOp29
 70
     1
102
RTVSPropertyOp30
 70
     1
102
RTVSPropertyOp31
 70
     1
102
RTVSPropertyOp32
 70
     1
  0
XRECORD
  5
83B
102
{ACAD_REACTORS
330
83A
102
}
330
83A
100
AcDbXrecord
280
     1
102
RTVSPropertyOp0
 70
     1
102
RTVSPropertyOp1
 70
     1
102
RTVSPropertyOp2
 70
     1
102
RTVSPropertyOp3
 70
     1
102
RTVSPropertyOp4
 70
     1
102
RTVSPropertyOp5
 70
     1
102
RTVSPropertyOp6
 70
     1
102
RTVSPropertyOp7
 70
     1
102
RTVSPropertyOp8
 70
     1
102
RTVSPropertyOp9
 70
     1
102
RTVSPropertyOp10
 70
     1
102
RTVSPropertyOp11
 70
     1
102
RTVSPropertyOp12
 70
     1
102
RTVSPropertyOp13
 70
     1
102
RTVSPropertyOp14
 70
     1
102
RTVSPropertyOp15
 70
     1
102
RTVSPropertyOp16
 70
     1
102
RTVSPropertyOp17
 70
     1
102
RTVSPropertyOp18
 70
     1
102
RTVSPropertyOp19
 70
     1
102
RTVSPropertyOp20
 70
     1
102
RTVSPropertyOp21
 70
     1
102
RTVSPropertyOp22
 70
     1
102
RTVSPropertyOp23
 70
     1
102
RTVSPropertyOp24
 70
     1
102
RTVSPropertyOp25
 70
     1
102
RTVSPropertyOp26
 70
     1
102
RTVSPropertyOp27
 70
     1
102
RTVSPropertyOp28
 70
     1
102
RTVSPropertyOp29
 70
     1
102
RTVSPropertyOp30
 70
     1
102
RTVSPropertyOp31
 70
     1
102
RTVSPropertyOp32
 70
     1
  0
XRECORD
  5
835
102
{ACAD_REACTORS
330
834
102
}
330
834
100
AcDbXrecord
280
     1
102
RTVSPropertyOp0
 70
     1
102
RTVSPropertyOp1
 70
     1
102
RTVSPropertyOp2
 70
     1
102
RTVSPropertyOp3
 70
     1
102
RTVSPropertyOp4
 70
     1
102
RTVSPropertyOp5
 70
     1
102
RTVSPropertyOp6
 70
     1
102
RTVSPropertyOp7
 70
     1
102
RTVSPropertyOp8
 70
     1
102
RTVSPropertyOp9
 70
     1
102
RTVSPropertyOp10
 70
     1
102
RTVSPropertyOp11
 70
     1
102
RTVSPropertyOp12
 70
     1
102
RTVSPropertyOp13
 70
     1
102
RTVSPropertyOp14
 70
     1
102
RTVSPropertyOp15
 70
     1
102
RTVSPropertyOp16
 70
     1
102
RTVSPropertyOp17
 70
     1
102
RTVSPropertyOp18
 70
     1
102
RTVSPropertyOp19
 70
     1
102
RTVSPropertyOp20
 70
     1
102
RTVSPropertyOp21
 70
     1
102
RTVSPropertyOp22
 70
     1
102
RTVSPropertyOp23
 70
     1
102
RTVSPropertyOp24
 70
     1
102
RTVSPropertyOp25
 70
     1
102
RTVSPropertyOp26
 70
     1
102
RTVSPropertyOp27
 70
     1
102
RTVSPropertyOp28
 70
     1
102
RTVSPropertyOp29
 70
     1
102
RTVSPropertyOp30
 70
     1
102
RTVSPropertyOp31
 70
     1
102
RTVSPropertyOp32
 70
     1
  0
XRECORD
  5
837
102
{ACAD_REACTORS
330
836
102
}
330
836
100
AcDbXrecord
280
     1
102
RTVSPropertyOp0
 70
     1
102
RTVSPropertyOp1
 70
     1
102
RTVSPropertyOp2
 70
     1
102
RTVSPropertyOp3
 70
     1
102
RTVSPropertyOp4
 70
     1
102
RTVSPropertyOp5
 70
     1
102
RTVSPropertyOp6
 70
     1
102
RTVSPropertyOp7
 70
     1
102
RTVSPropertyOp8
 70
     1
102
RTVSPropertyOp9
 70
     1
102
RTVSPropertyOp10
 70
     1
102
RTVSPropertyOp11
 70
     1
102
RTVSPropertyOp12
 70
     1
102
RTVSPropertyOp13
 70
     1
102
RTVSPropertyOp14
 70
     1
102
RTVSPropertyOp15
 70
     1
102
RTVSPropertyOp16
 70
     1
102
RTVSPropertyOp17
 70
     1
102
RTVSPropertyOp18
 70
     1
102
RTVSPropertyOp19
 70
     1
102
RTVSPropertyOp20
 70
     1
102
RTVSPropertyOp21
 70
     1
102
RTVSPropertyOp22
 70
     1
102
RTVSPropertyOp23
 70
     1
102
RTVSPropertyOp24
 70
     1
102
RTVSPropertyOp25
 70
     1
102
RTVSPropertyOp26
 70
     1
102
RTVSPropertyOp27
 70
     1
102
RTVSPropertyOp28
 70
     1
102
RTVSPropertyOp29
 70
     1
102
RTVSPropertyOp30
 70
     1
102
RTVSPropertyOp31
 70
     1
102
RTVSPropertyOp32
 70
     1
  0
XRECORD
  5
82D
102
{ACAD_REACTORS
330
82C
102
}
330
82C
100
AcDbXrecord
280
     1
102
RTVSPropertyOp0
 70
     1
102
RTVSPropertyOp1
 70
     1
102
RTVSPropertyOp2
 70
     1
102
RTVSPropertyOp3
 70
     1
102
RTVSPropertyOp4
 70
     1
102
RTVSPropertyOp5
 70
     1
102
RTVSPropertyOp6
 70
     1
102
RTVSPropertyOp7
 70
     1
102
RTVSPropertyOp8
 70
     1
102
RTVSPropertyOp9
 70
     1
102
RTVSPropertyOp10
 70
     1
102
RTVSPropertyOp11
 70
     1
102
RTVSPropertyOp12
 70
     1
102
RTVSPropertyOp13
 70
     1
102
RTVSPropertyOp14
 70
     1
102
RTVSPropertyOp15
 70
     1
102
RTVSPropertyOp16
 70
     1
102
RTVSPropertyOp17
 70
     1
102
RTVSPropertyOp18
 70
     1
102
RTVSPropertyOp19
 70
     1
102
RTVSPropertyOp20
 70
     1
102
RTVSPropertyOp21
 70
     1
102
RTVSPropertyOp22
 70
     1
102
RTVSPropertyOp23
 70
     1
102
RTVSPropertyOp24
 70
     1
102
RTVSPropertyOp25
 70
     1
102
RTVSPropertyOp26
 70
     1
102
RTVSPropertyOp27
 70
     1
102
RTVSPropertyOp28
 70
     1
102
RTVSPropertyOp29
 70
     1
102
RTVSPropertyOp30
 70
     1
102
RTVSPropertyOp31
 70
     1
102
RTVSPropertyOp32
 70
     1
  0
XRECORD
  5
821
102
{ACAD_REACTORS
330
820
102
}
330
820
100
AcDbXrecord
280
     1
102
RTVSPropertyOp0
 70
     1
102
RTVSPropertyOp1
 70
     1
102
RTVSPropertyOp2
 70
     1
102
RTVSPropertyOp3
 70
     1
102
RTVSPropertyOp4
 70
     1
102
RTVSPropertyOp5
 70
     1
102
RTVSPropertyOp6
 70
     1
102
RTVSPropertyOp7
 70
     1
102
RTVSPropertyOp8
 70
     1
102
RTVSPropertyOp9
 70
     1
102
RTVSPropertyOp10
 70
     1
102
RTVSPropertyOp11
 70
     1
102
RTVSPropertyOp12
 70
     1
102
RTVSPropertyOp13
 70
     1
102
RTVSPropertyOp14
 70
     1
102
RTVSPropertyOp15
 70
     1
102
RTVSPropertyOp16
 70
     1
102
RTVSPropertyOp17
 70
     1
102
RTVSPropertyOp18
 70
     1
102
RTVSPropertyOp19
 70
     1
102
RTVSPropertyOp20
 70
     1
102
RTVSPropertyOp21
 70
     1
102
RTVSPropertyOp22
 70
     1
102
RTVSPropertyOp23
 70
     1
102
RTVSPropertyOp24
 70
     1
102
RTVSPropertyOp25
 70
     1
102
RTVSPropertyOp26
 70
     1
102
RTVSPropertyOp27
 70
     1
102
RTVSPropertyOp28
 70
     1
102
RTVSPropertyOp29
 70
     1
102
RTVSPropertyOp30
 70
     1
102
RTVSPropertyOp31
 70
     1
102
RTVSPropertyOp32
 70
     1
  0
XRECORD
  5
839
102
{ACAD_REACTORS
330
838
102
}
330
838
100
AcDbXrecord
280
     1
102
RTVSPropertyOp0
 70
     1
102
RTVSPropertyOp1
 70
     1
102
RTVSPropertyOp2
 70
     1
102
RTVSPropertyOp3
 70
     1
102
RTVSPropertyOp4
 70
     1
102
RTVSPropertyOp5
 70
     1
102
RTVSPropertyOp6
 70
     1
102
RTVSPropertyOp7
 70
     1
102
RTVSPropertyOp8
 70
     1
102
RTVSPropertyOp9
 70
     1
102
RTVSPropertyOp10
 70
     1
102
RTVSPropertyOp11
 70
     1
102
RTVSPropertyOp12
 70
     1
102
RTVSPropertyOp13
 70
     1
102
RTVSPropertyOp14
 70
     1
102
RTVSPropertyOp15
 70
     1
102
RTVSPropertyOp16
 70
     1
102
RTVSPropertyOp17
 70
     1
102
RTVSPropertyOp18
 70
     1
102
RTVSPropertyOp19
 70
     1
102
RTVSPropertyOp20
 70
     1
102
RTVSPropertyOp21
 70
     1
102
RTVSPropertyOp22
 70
     1
102
RTVSPropertyOp23
 70
     1
102
RTVSPropertyOp24
 70
     1
102
RTVSPropertyOp25
 70
     1
102
RTVSPropertyOp26
 70
     1
102
RTVSPropertyOp27
 70
     1
102
RTVSPropertyOp28
 70
     1
102
RTVSPropertyOp29
 70
     1
102
RTVSPropertyOp30
 70
     1
102
RTVSPropertyOp31
 70
     1
102
RTVSPropertyOp32
 70
     1
  0
ENDSEC
  0
EOF
