  0
SECTION
  2
HEADER
  9
$ACADVER
  1
AC1021
  9
$ACADMAINTVER
 70
    50
  9
$DWGCODEPAGE
  3
ANSI_1250
  9
$TITLE
  1
Ściana wspinaczkowa - betonowanie
  9
$AUTHOR
  1
Muller
  9
$LASTSAVEDBY
  1
Natalia
  9
$REVISIONNUMBER
  1
01
  9
$CUSTOMPROPERTYTAG
  1
Menadżer
  9
$CUSTOMPROPERTY
  1

  9
$CUSTOMPROPERTYTAG
  1
Firma
  9
$CUSTOMPROPERTY
  1

  9
$CUSTOMPROPERTYTAG
  1
Kategoria
  9
$CUSTOMPROPERTY
  1

  9
$CUSTOMPROPERTYTAG
  1
Numer części
  9
$CUSTOMPROPERTY
  1
82.004 - ściana wspinaczkowa - IM
  9
$CUSTOMPROPERTYTAG
  1
Opis
  9
$CUSTOMPROPERTY
  1

  9
$CUSTOMPROPERTYTAG
  1
Projekt
  9
$CUSTOMPROPERTY
  1

  9
$CUSTOMPROPERTYTAG
  1
Projektant
  9
$CUSTOMPROPERTY
  1
Projekt
  9
$CUSTOMPROPERTYTAG
  1
Inżynier
  9
$CUSTOMPROPERTY
  1

  9
$CUSTOMPROPERTYTAG
  1
Zatwierdził
  9
$CUSTOMPROPERTY
  1

  9
$CUSTOMPROPERTYTAG
  1
Centrum kosztów
  9
$CUSTOMPROPERTY
  1

  9
$CUSTOMPROPERTYTAG
  1
Dostawca
  9
$CUSTOMPROPERTY
  1

  9
$CUSTOMPROPERTYTAG
  1
Stan użytkownika
  9
$CUSTOMPROPERTY
  1

  9
$CUSTOMPROPERTYTAG
  1
Stan projektu
  9
$CUSTOMPROPERTY
  1
PracaWToku
  9
$CUSTOMPROPERTYTAG
  1
Sprawdził
  9
$CUSTOMPROPERTY
  1
Pro-Design
  9
$CUSTOMPROPERTYTAG
  1
Zatwierdził konstrukcję
  9
$CUSTOMPROPERTY
  1
Muller
  9
$CUSTOMPROPERTYTAG
  1
Zatwierdził do produkcji
  9
$CUSTOMPROPERTY
  1

  9
$INSBASE
 10
0.0
 20
0.0
 30
0.0
  9
$EXTMIN
 10
1409.84805343888
 20
1972.446922455503
 30
-0.0000000349181948
  9
$EXTMAX
 10
6087.551901637987
 20
5390.375993210331
 30
0.0000000814935746
  9
$LIMMIN
 10
0.0
 20
0.0
  9
$LIMMAX
 10
12600.0
 20
8910.0
  9
$ORTHOMODE
 70
     0
  9
$REGENMODE
 70
     1
  9
$FILLMODE
 70
     1
  9
$QTEXTMODE
 70
     0
  9
$MIRRTEXT
 70
     0
  9
$LTSCALE
 40
30.0
  9
$ATTMODE
 70
     1
  9
$TEXTSIZE
 40
0.2
  9
$TRACEWID
 40
0.05
  9
$TEXTSTYLE
  7
Standard
  9
$CLAYER
  8
0
  9
$CELTYPE
  6
ByLayer
  9
$CECOLOR
 62
   256
  9
$CELTSCALE
 40
1.0
  9
$DISPSILH
 70
     0
  9
$DIMSCALE
 40
1.0
  9
$DIMASZ
 40
1.799999999999999
  9
$DIMEXO
 40
0.0625
  9
$DIMDLI
 40
0.38
  9
$DIMRND
 40
0.0
  9
$DIMDLE
 40
0.0
  9
$DIMEXE
 40
0.18
  9
$DIMTP
 40
0.0
  9
$DIMTM
 40
0.0
  9
$DIMTXT
 40
0.25
  9
$DIMCEN
 40
0.09
  9
$DIMTSZ
 40
0.0
  9
$DIMTOL
 70
     0
  9
$DIMLIM
 70
     0
  9
$DIMTIH
 70
     1
  9
$DIMTOH
 70
     1
  9
$DIMSE1
 70
     0
  9
$DIMSE2
 70
     0
  9
$DIMTAD
 70
     0
  9
$DIMZIN
 70
     0
  9
$DIMBLK
  1

  9
$DIMASO
 70
     1
  9
$DIMSHO
 70
     1
  9
$DIMPOST
  1

  9
$DIMAPOST
  1

  9
$DIMALT
 70
     0
  9
$DIMALTD
 70
     2
  9
$DIMALTF
 40
25.4
  9
$DIMLFAC
 40
1.0
  9
$DIMTOFL
 70
     0
  9
$DIMTVP
 40
0.0
  9
$DIMTIX
 70
     0
  9
$DIMSOXD
 70
     0
  9
$DIMSAH
 70
     0
  9
$DIMBLK1
  1

  9
$DIMBLK2
  1

  9
$DIMSTYLE
  2
Standard
  9
$DIMCLRD
 70
     0
  9
$DIMCLRE
 70
     0
  9
$DIMCLRT
 70
     0
  9
$DIMTFAC
 40
1.0
  9
$DIMGAP
 40
0.09
  9
$DIMJUST
 70
     0
  9
$DIMSD1
 70
     0
  9
$DIMSD2
 70
     0
  9
$DIMTOLJ
 70
     1
  9
$DIMTZIN
 70
     0
  9
$DIMALTZ
 70
     0
  9
$DIMALTTZ
 70
     0
  9
$DIMUPT
 70
     0
  9
$DIMDEC
 70
     4
  9
$DIMTDEC
 70
     4
  9
$DIMALTU
 70
     2
  9
$DIMALTTD
 70
     2
  9
$DIMTXSTY
  7
Standard
  9
$DIMAUNIT
 70
     0
  9
$DIMADEC
 70
     0
  9
$DIMALTRND
 40
0.0
  9
$DIMAZIN
 70
     0
  9
$DIMDSEP
 70
    46
  9
$DIMATFIT
 70
     3
  9
$DIMFRAC
 70
     0
  9
$DIMLDRBLK
  1

  9
$DIMLUNIT
 70
     2
  9
$DIMLWD
 70
    -2
  9
$DIMLWE
 70
    -2
  9
$DIMTMOVE
 70
     0
  9
$DIMFXL
 40
1.0
  9
$DIMFXLON
 70
     0
  9
$DIMJOGANG
 40
0.7853981633974483
  9
$DIMTFILL
 70
     0
  9
$DIMTFILLCLR
 70
     0
  9
$DIMARCSYM
 70
     0
  9
$DIMLTYPE
  6

  9
$DIMLTEX1
  6

  9
$DIMLTEX2
  6

  9
$LUNITS
 70
     2
  9
$LUPREC
 70
     4
  9
$SKETCHINC
 40
0.1
  9
$FILLETRAD
 40
0.0
  9
$AUNITS
 70
     0
  9
$AUPREC
 70
     0
  9
$MENU
  1
.
  9
$ELEVATION
 40
0.0
  9
$PELEVATION
 40
0.0
  9
$THICKNESS
 40
0.0
  9
$LIMCHECK
 70
     0
  9
$CHAMFERA
 40
0.0
  9
$CHAMFERB
 40
0.0
  9
$CHAMFERC
 40
0.0
  9
$CHAMFERD
 40
0.0
  9
$SKPOLY
 70
     0
  9
$TDCREATE
 40
2456324.462699294
  9
$TDUCREATE
 40
2456324.421032627
  9
$TDUPDATE
 40
2456329.402978449
  9
$TDUUPDATE
 40
2456329.361311783
  9
$TDINDWG
 40
0.0051240509
  9
$TDUSRTIMER
 40
0.0051240509
  9
$USRTIMER
 70
     1
  9
$ANGBASE
 50
0.0
  9
$ANGDIR
 70
     0
  9
$PDMODE
 70
     0
  9
$PDSIZE
 40
0.0
  9
$PLINEWID
 40
0.0
  9
$SPLFRAME
 70
     0
  9
$SPLINETYPE
 70
     6
  9
$SPLINESEGS
 70
     8
  9
$HANDSEED
  5
12D2
  9
$SURFTAB1
 70
     6
  9
$SURFTAB2
 70
     6
  9
$SURFTYPE
 70
     6
  9
$SURFU
 70
     6
  9
$SURFV
 70
     6
  9
$UCSBASE
  2

  9
$UCSNAME
  2

  9
$UCSORG
 10
0.0
 20
0.0
 30
0.0
  9
$UCSXDIR
 10
1.0
 20
0.0
 30
0.0
  9
$UCSYDIR
 10
0.0
 20
1.0
 30
0.0
  9
$UCSORTHOREF
  2

  9
$UCSORTHOVIEW
 70
     0
  9
$UCSORGTOP
 10
0.0
 20
0.0
 30
0.0
  9
$UCSORGBOTTOM
 10
0.0
 20
0.0
 30
0.0
  9
$UCSORGLEFT
 10
0.0
 20
0.0
 30
0.0
  9
$UCSORGRIGHT
 10
0.0
 20
0.0
 30
0.0
  9
$UCSORGFRONT
 10
0.0
 20
0.0
 30
0.0
  9
$UCSORGBACK
 10
0.0
 20
0.0
 30
0.0
  9
$PUCSBASE
  2

  9
$PUCSNAME
  2

  9
$PUCSORG
 10
0.0
 20
0.0
 30
0.0
  9
$PUCSXDIR
 10
1.0
 20
0.0
 30
0.0
  9
$PUCSYDIR
 10
0.0
 20
1.0
 30
0.0
  9
$PUCSORTHOREF
  2

  9
$PUCSORTHOVIEW
 70
     0
  9
$PUCSORGTOP
 10
0.0
 20
0.0
 30
0.0
  9
$PUCSORGBOTTOM
 10
0.0
 20
0.0
 30
0.0
  9
$PUCSORGLEFT
 10
0.0
 20
0.0
 30
0.0
  9
$PUCSORGRIGHT
 10
0.0
 20
0.0
 30
0.0
  9
$PUCSORGFRONT
 10
0.0
 20
0.0
 30
0.0
  9
$PUCSORGBACK
 10
0.0
 20
0.0
 30
0.0
  9
$USERI1
 70
     0
  9
$USERI2
 70
     0
  9
$USERI3
 70
     0
  9
$USERI4
 70
     0
  9
$USERI5
 70
     0
  9
$USERR1
 40
0.0
  9
$USERR2
 40
0.0
  9
$USERR3
 40
0.0
  9
$USERR4
 40
0.0
  9
$USERR5
 40
0.0
  9
$WORLDVIEW
 70
     1
  9
$SHADEDGE
 70
     3
  9
$SHADEDIF
 70
    70
  9
$TILEMODE
 70
     1
  9
$MAXACTVP
 70
    64
  9
$PINSBASE
 10
0.0
 20
0.0
 30
0.0
  9
$PLIMCHECK
 70
     0
  9
$PEXTMIN
 10
0.0
 20
0.0
 30
0.0
  9
$PEXTMAX
 10
12600.0
 20
8910.0
 30
0.0
  9
$PLIMMIN
 10
0.0
 20
0.0
  9
$PLIMMAX
 10
12600.0
 20
8910.0
  9
$UNITMODE
 70
     0
  9
$VISRETAIN
 70
     1
  9
$PLINEGEN
 70
     0
  9
$PSLTSCALE
 70
     1
  9
$TREEDEPTH
 70
  3020
  9
$CMLSTYLE
  2
Standard
  9
$CMLJUST
 70
     0
  9
$CMLSCALE
 40
1.0
  9
$PROXYGRAPHICS
 70
     1
  9
$MEASUREMENT
 70
     1
  9
$CELWEIGHT
370
    -1
  9
$ENDCAPS
280
     0
  9
$JOINSTYLE
280
     0
  9
$LWDISPLAY
290
     0
  9
$INSUNITS
 70
     4
  9
$HYPERLINKBASE
  1

  9
$STYLESHEET
  1

  9
$XEDIT
290
     1
  9
$CEPSNTYPE
380
     0
  9
$PSTYLEMODE
290
     1
  9
$FINGERPRINTGUID
  2
{3A052AB8-F7F2-46A0-8F48-98BF8C205C11}
  9
$VERSIONGUID
  2
{043AC28A-303A-437F-A878-C4DA39C3F940}
  9
$EXTNAMES
290
     1
  9
$PSVPSCALE
 40
0.0
  9
$OLESTARTUP
290
     0
  9
$SORTENTS
280
   127
  9
$INDEXCTL
280
     0
  9
$HIDETEXT
280
     1
  9
$XCLIPFRAME
290
     0
  9
$HALOGAP
280
     0
  9
$OBSCOLOR
 70
   257
  9
$OBSLTYPE
280
     0
  9
$INTERSECTIONDISPLAY
280
     0
  9
$INTERSECTIONCOLOR
 70
   257
  9
$DIMASSOC
280
     1
  9
$PROJECTNAME
  1

  9
$CAMERADISPLAY
290
     0
  9
$LENSLENGTH
 40
50.0
  9
$CAMERAHEIGHT
 40
0.0
  9
$STEPSPERSEC
 40
2.0
  9
$STEPSIZE
 40
6.0
  9
$3DDWFPREC
 40
2.0
  9
$PSOLWIDTH
 40
0.25
  9
$PSOLHEIGHT
 40
4.0
  9
$LOFTANG1
 40
1.570796326794896
  9
$LOFTANG2
 40
1.570796326794896
  9
$LOFTMAG1
 40
0.0
  9
$LOFTMAG2
 40
0.0
  9
$LOFTPARAM
 70
     7
  9
$LOFTNORMALS
280
     1
  9
$LATITUDE
 40
37.795
  9
$LONGITUDE
 40
-122.394
  9
$NORTHDIRECTION
 40
0.0
  9
$TIMEZONE
 70
 -8000
  9
$LIGHTGLYPHDISPLAY
280
     1
  9
$TILEMODELIGHTSYNCH
280
     1
  9
$CMATERIAL
347
11
  9
$SOLIDHIST
280
     1
  9
$SHOWHIST
280
     1
  9
$DWFFRAME
280
     2
  9
$DGNFRAME
280
     0
  9
$REALWORLDSCALE
290
     1
  9
$INTERFERECOLOR
 62
     1
  9
$INTERFEREOBJVS
345
33
  9
$INTERFEREVPVS
346
30
  9
$CSHADOW
280
     0
  9
$SHADOWPLANELOCATION
 40
0.0
  0
ENDSEC
  0
SECTION
  2
CLASSES
  0
CLASS
  1
ACDBDICTIONARYWDFLT
  2
AcDbDictionaryWithDefault
  3
ObjectDBX Classes
 90
        0
 91
        1
280
     0
281
     0
  0
CLASS
  1
MATERIAL
  2
AcDbMaterial
  3
ObjectDBX Classes
 90
     1153
 91
        3
280
     0
281
     0
  0
CLASS
  1
VISUALSTYLE
  2
AcDbVisualStyle
  3
ObjectDBX Classes
 90
     4095
 91
       24
280
     0
281
     0
  0
CLASS
  1
SCALE
  2
AcDbScale
  3
ObjectDBX Classes
 90
     1153
 91
       17
280
     0
281
     0
  0
CLASS
  1
TABLESTYLE
  2
AcDbTableStyle
  3
ObjectDBX Classes
 90
     4095
 91
        1
280
     0
281
     0
  0
CLASS
  1
MLEADERSTYLE
  2
AcDbMLeaderStyle
  3
ACDB_MLEADERSTYLE_CLASS
 90
     4095
 91
        1
280
     0
281
     0
  0
CLASS
  1
DICTIONARYVAR
  2
AcDbDictionaryVar
  3
ObjectDBX Classes
 90
        0
 91
       13
280
     0
281
     0
  0
CLASS
  1
CELLSTYLEMAP
  2
AcDbCellStyleMap
  3
ObjectDBX Classes
 90
     1152
 91
        2
280
     0
281
     0
  0
CLASS
  1
ACME_DOCUMENT
  2
AcMeDbDoc
  3
AcMeServices
 90
     1024
 91
        2
280
     0
281
     0
  0
CLASS
  1
AMGSETTINGSOBJ
  2
AmgSettingsObj
  3
"AcadM|Product Description: AutoCAD Mechanical|Company: Autodesk, Inc."
 90
     1024
 91
        2
280
     0
281
     0
  0
CLASS
  1
ACMESCOPE
  2
AcMeScope
  3
AcMeServices
 90
     1024
 91
        1
280
     0
281
     0
  0
CLASS
  1
ACMECOMMANDHISTORY
  2
AcMeCommandHistory
  3
AcMeServices
 90
     1024
 91
        1
280
     0
281
     0
  0
CLASS
  1
ACIMSYSVARMAN
  2
AcImSysVarManager
  3
AcMeServices
 90
     1024
 91
        4
280
     0
281
     0
  0
CLASS
  1
ACIMINTSYSVAR
  2
AcImIntSysVar
  3
AcMeServices
 90
     1024
 91
       27
280
     0
281
     0
  0
CLASS
  1
ACMESTATEMGR
  2
AcMeStateMgr
  3
AcMeServices
 90
     1024
 91
        1
280
     0
281
     0
  0
CLASS
  1
ACDBENTITYCACHE
  2
AcMeEntityCache
  3
AcMeServices
 90
     1024
 91
        1
280
     0
281
     0
  0
CLASS
  1
ACGREFMASTER
  2
AcGrefMaster
  3
AcAttribServices
 90
     1024
 91
        1
280
     0
281
     0
  0
CLASS
  1
AM_DRAWING_MGR
  2
AcDmDwgMgr
  3
AcMechDwgViewMgmt
 90
     1024
 91
        1
280
     0
281
     0
  0
CLASS
  1
AM_DWG_DOCUMENT
  2
AcDmDwgDocument
  3
AcMechDwgViewMgmt
 90
     1024
 91
        1
280
     0
281
     0
  0
CLASS
  1
AM_DWG_SHEET
  2
AcDmSheet
  3
AcMechDwgViewMgmt
 90
     1024
 91
        2
280
     0
281
     0
  0
CLASS
  1
AM_VIEWDIMPARMAP
  2
AcDmViewDimParMap
  3
AcMechDwgViewMgmt
 90
     1024
 91
        2
280
     0
281
     0
  0
CLASS
  1
AMDTINTERNALREACTOR
  2
AmdtInternalReactor
  3
AcMeServices
 90
     1024
 91
        1
280
     0
281
     0
  0
CLASS
  1
ACIMREALSYSVAR
  2
AcImRealSysVar
  3
AcMeServices
 90
     1024
 91
        1
280
     0
281
     0
  0
CLASS
  1
AM_DWGMGR_NAME
  2
AcDmDwgMgrName
  3
AcMechDwgViewMgmt
 90
     1024
 91
        1
280
     0
281
     0
  0
CLASS
  1
ACME_DATABASE
  2
AcMeDbDatabase
  3
AcMeServices
 90
     1024
 91
        1
280
     0
281
     0
  0
CLASS
  1
ACRFINSADJUSTERMGR
  2
AcRfInsAdjusterMgr
  3
AcMeServices
 90
     1024
 91
        1
280
     0
281
     0
  0
CLASS
  1
ACGREFACADMASTER
  2
AcGrefacadMaster
  3
AcGrefServices
 90
     1024
 91
        1
280
     0
281
     0
  0
CLASS
  1
AMDTMENUSTATEMGR
  2
AmdtMenuStateMgr
  3
McadcomServices
 90
     1024
 91
        1
280
     0
281
     0
  0
CLASS
  1
AMDTMCOMMENUSTATE
  2
AmdtMcomMenuState
  3
McadcomServices
 90
     1024
 91
        1
280
     0
281
     0
  0
CLASS
  1
AMIMASTER
  2
AmiMaster
  3
AmiServices
 90
     1024
 91
        1
280
     0
281
     0
  0
CLASS
  1
MAPIAMMOUDLE
  2
MApiAmModule
  3
MApiAmServices
 90
     1024
 91
        1
280
     0
281
     0
  0
CLASS
  1
ACIMSTRSYSVAR
  2
AcImStrSysVar
  3
AcMeServices
 90
     1024
 91
        5
280
     0
281
     0
  0
CLASS
  1
AMDTDMMENUSTATE
  2
AmdtDmMenuState
  3
AcMechDwgViewMgmt
 90
     1024
 91
        1
280
     0
281
     0
  0
CLASS
  1
AMDTAMMENUSTATE
  2
AmdtAmMenuState
  3
DesignerAssemblies
 90
     1024
 91
        1
280
     0
281
     0
  0
CLASS
  1
ACAMPROJECT
  2
AcAmProject
  3
DesignerAssemblies
 90
     1024
 91
        1
280
     0
281
     0
  0
CLASS
  1
ACAMGRCOMPDEF
  2
AcAmGrCompDef
  3
DesignerAssemblies
 90
     1024
 91
        1
280
     0
281
     0
  0
CLASS
  1
ACAMCOMPDEF
  2
AcAmCompDef
  3
DesignerAssemblies
 90
     1024
 91
        1
280
     0
281
     0
  0
CLASS
  1
ACAMCOMPDEFMGR
  2
AcAmCompDefMgr
  3
DesignerAssemblies
 90
     1024
 91
        1
280
     0
281
     0
  0
CLASS
  1
AMCONTEXTMGR
  2
AcAmContextMgr
  3
DesignerAssemblies
 90
     1024
 91
        1
280
     0
281
     0
  0
CLASS
  1
ACAMCONTEXTMODELER
  2
AcAmContextModeler
  3
DesignerAssemblies
 90
     1024
 91
        1
280
     0
281
     0
  0
CLASS
  1
ACMDATADICTIONARY
  2
AcmDataDictionary
  3
"AcmSymBB|Product Description: AutoCAD Mechanical|Company: Autodesk, Inc."
 90
     1024
 91
        1
280
     0
281
     0
  0
CLASS
  1
ACAMGRCOMPDEFSET
  2
AcAmGrCompDefSet
  3
DesignerAssemblies
 90
     1024
 91
        1
280
     0
281
     0
  0
CLASS
  1
AMDTBROWSERDBTAB
  2
AmdtBrowserDbTab
  3
McadcomServices
 90
     1024
 91
        1
280
     0
281
     0
  0
CLASS
  1
CBROWSERAPPOBJECT
  2
CBrowserAppObject
  3
McadcomServices
 90
     1024
 91
        2
280
     0
281
     0
  0
CLASS
  1
DM_PLACEHOLDER
  2
AcDmSelsetPlaceholder
  3
AcMechDwgViewMgmt
 90
     1024
 91
        1
280
     0
281
     0
  0
CLASS
  1
EXACXREFPANELOBJECT
  2
ExAcXREFPanelObject
  3
EXAC_ESW
 90
     1025
 91
        1
280
     0
281
     0
  0
CLASS
  1
NPOCOLLECTION
  2
AcDbImpNonPersistentObjectsCollection
  3
ObjectDBX Classes
 90
     1153
 91
        1
280
     0
281
     0
  0
CLASS
  1
ACMSTANDARDISO
  2
AcmStandardISO
  3
"Amdt_StdImp|Product Description: AutoCAD Mechanical|Company: Autodesk, Inc."
 90
     1024
 91
        1
280
     0
281
     0
  0
CLASS
  1
AMDTEDGESTANDARDISO13715
  2
AmdtEdgeStdISO13715
  3
"Amdt_StdImp|Product Description: AutoCAD Mechanical|Company: Autodesk, Inc."
 90
     1024
 91
        1
280
     0
281
     0
  0
CLASS
  1
ACMSURFSTANDARDISO2002
  2
AcmSurfTextStdISO2002
  3
"Amdt_StdImp|Product Description: AutoCAD Mechanical|Company: Autodesk, Inc."
 90
     1024
 91
        1
280
     0
281
     0
  0
CLASS
  1
ACMFCFSTANDARDISO
  2
AcmFCFStdISO
  3
"Amdt_StdImp|Product Description: AutoCAD Mechanical|Company: Autodesk, Inc."
 90
     1024
 91
        1
280
     0
281
     0
  0
CLASS
  1
ACMWELDSTANDARDISO
  2
AcmWeldingStdISO
  3
"Amdt_StdImp|Product Description: AutoCAD Mechanical|Company: Autodesk, Inc."
 90
     1024
 91
        1
280
     0
281
     0
  0
CLASS
  1
ACMIDSTANDARDISO
  2
AcmIdStdISO
  3
"Amdt_StdImp|Product Description: AutoCAD Mechanical|Company: Autodesk, Inc."
 90
     1024
 91
        1
280
     0
281
     0
  0
CLASS
  1
ACMDATUMSTANDARDISO
  2
AcmDatumStdISO
  3
"Amdt_StdImp|Product Description: AutoCAD Mechanical|Company: Autodesk, Inc."
 90
     1024
 91
        1
280
     0
281
     0
  0
CLASS
  1
ACMBOMSTANDARDISO
  2
AcmBOMStdISO
  3
"Amdt_StdImp|Product Description: AutoCAD Mechanical|Company: Autodesk, Inc."
 90
     1024
 91
        1
280
     0
281
     0
  0
CLASS
  1
ACMDETAILSTANDARDISO
  2
AmdtDetailSymStdISO
  3
"Amdt_StdImp|Product Description: AutoCAD Mechanical|Company: Autodesk, Inc."
 90
     1024
 91
        1
280
     0
281
     0
  0
CLASS
  1
ACMSECTIONSTANDARDISO2001
  2
AmdtSectionSymStdISO2001
  3
"Amdt_StdImp|Product Description: AutoCAD Mechanical|Company: Autodesk, Inc."
 90
     1024
 91
        1
280
     0
281
     0
  0
CLASS
  1
ACMCENTERLINESTANDARDISO
  2
AmdtCenterLineStdISO
  3
"Amdt_StdImp|Product Description: AutoCAD Mechanical|Company: Autodesk, Inc."
 90
     1024
 91
        1
280
     0
281
     0
  0
CLASS
  1
ACMTHREADLINESTANDARDISO
  2
AmdtThreadLineStdISO
  3
"Amdt_StdImp|Product Description: AutoCAD Mechanical|Company: Autodesk, Inc."
 90
     1024
 91
        1
280
     0
281
     0
  0
CLASS
  1
ACMNOTESTANDARDISO
  2
AmdtNoteStdISO
  3
"Amdt_StdImp|Product Description: AutoCAD Mechanical|Company: Autodesk, Inc."
 90
     1024
 91
        1
280
     0
281
     0
  0
CLASS
  1
ACMTAPERSTANDARDISO
  2
AcmTaperStdISO
  3
"Amdt_StdImp|Product Description: AutoCAD Mechanical|Company: Autodesk, Inc."
 90
     1024
 91
        1
280
     0
281
     0
  0
CLASS
  1
ACMANOOTATIONVIEWSTANDARDISO
  2
AmdtAnViewStdISO
  3
"Amdt_StdImp|Product Description: AutoCAD Mechanical|Company: Autodesk, Inc."
 90
     1024
 91
        1
280
     0
281
     0
  0
CLASS
  1
ACAMGLAYSTD
  2
AcAmgLayStd
  3
"AmgLay|Product Description: AutoCAD Mechanical|Company: Autodesk, Inc."
 90
     1024
 91
        1
280
     0
281
     0
  0
CLASS
  1
ACAMGDIMSTD
  2
AcAmgDimStd
  3
"AmgDim|Product Description: AutoCAD Mechanical|Company: Autodesk, Inc."
 90
     1024
 91
        1
280
     0
281
     0
  0
CLASS
  1
AMGOBJPROPCFG
  2
AmgObjPropCfg
  3
"AmgLay|Product Description: AutoCAD Mechanical|Company: Autodesk, Inc."
 90
     1025
 91
        1
280
     0
281
     0
  0
CLASS
  1
ACAMGHOLECHARTSTDISO
  2
AcAmgHoleChartStdISO
  3
AmgDim|Product Description: AutoCAD Mechanical|Company: Autodesk, Inc.
 90
     1024
 91
        1
280
     0
281
     0
  0
CLASS
  1
ACAMGTITLESTD
  2
AcAmgTitleStd
  3
"AmgTitle|Product Description: AutoCAD Mechanical|Company: Autodesk, Inc."
 90
     4095
 91
        1
280
     0
281
     0
  0
CLASS
  1
AMDTNOTETEMPLATEDB
  2
AmdtNoteTemplateDB
  3
AcmSymBB|Product Description: AutoCAD Mechanical|Company: Autodesk, Inc.
 90
     1024
 91
        6
280
     0
281
     0
  0
CLASS
  1
ACAMGFILTERDAT
  2
AcAmgFilterDat
  3
"AcadM|Product Description: AutoCAD Mechanical|Company: Autodesk, Inc."
 90
     1024
 91
        6
280
     0
281
     0
  0
ENDSEC
  0
SECTION
  2
TABLES
  0
TABLE
  2
VPORT
  5
8
102
{ACAD_XDICTIONARY
360
1011
102
}
330
0
100
AcDbSymbolTable
 70
     1
  0
VPORT
  5
57
330
8
100
AcDbSymbolTableRecord
100
AcDbViewportTableRecord
  2
*Active
 70
     0
 10
0.0
 20
0.0
 11
1.0
 21
1.0
 12
3748.699977538434
 22
3681.411457832918
 13
0.0
 23
0.0
 14
1.0
 24
1.0
 15
0.0
 25
0.0
 16
0.0
 26
0.0
 36
1.0
 17
0.0
 27
0.0
 37
0.0
 40
3885.726699726553
 41
1.956626506024096
 42
50.0
 43
0.0
 44
0.0
 50
0.0
 51
0.0
 71
     0
 72
  4000
 73
     1
 74
     1
 75
     0
 76
     0
 77
     0
 78
     0
281
     0
 65
     1
110
0.0
120
0.0
130
0.0
111
1.0
121
0.0
131
0.0
112
0.0
122
1.0
132
0.0
 79
     0
146
0.0
348
2F
 60
     3
 61
     5
292
     1
282
     1
141
0.0
142
0.0
 63
   250
421
  3355443
  0
ENDTAB
  0
TABLE
  2
LTYPE
  5
5
330
0
100
AcDbSymbolTable
 70
    69
  0
LTYPE
  5
5B
330
5
100
AcDbSymbolTableRecord
100
AcDbLinetypeTableRecord
  2
ByBlock
 70
     0
  3

 72
    65
 73
     0
 40
0.0
  0
LTYPE
  5
5C
330
5
100
AcDbSymbolTableRecord
100
AcDbLinetypeTableRecord
  2
ByLayer
 70
     0
  3

 72
    65
 73
     0
 40
0.0
  0
LTYPE
  5
5D
330
5
100
AcDbSymbolTableRecord
100
AcDbLinetypeTableRecord
  2
Continuous
 70
     0
  3
Solid line
 72
    65
 73
     0
 40
0.0
  0
LTYPE
  5
74
330
5
100
AcDbSymbolTableRecord
100
AcDbLinetypeTableRecord
  2
Section_View_Lines
 70
     0
  3
Section View Lines
 72
    65
 73
     4
 40
0.8406
 49
0.6614
 74
     0
 49
-0.0827
 74
     0
 49
0.0138
 74
     0
 49
-0.0827
 74
     0
  0
LTYPE
  5
75
330
5
100
AcDbSymbolTableRecord
100
AcDbLinetypeTableRecord
  2
CHAIN
 70
     0
  3
Chain ____ _ ____ _ ____ _ ____ _ ____ _ ____
 72
    65
 73
     4
 40
0.3543
 49
0.2362
 74
     0
 49
-0.0295
 74
     0
 49
0.0591
 74
     0
 49
-0.0295
 74
     0
  0
LTYPE
  5
76
330
5
100
AcDbSymbolTableRecord
100
AcDbLinetypeTableRecord
  2
DASH_DOT
 70
     0
  3
Dash dot _._._._._._._._._._._._._._._.
 72
    65
 73
     4
 40
0.182
 49
0.1181
 74
     0
 49
-0.0295
 74
     0
 49
0.0049
 74
     0
 49
-0.0295
 74
     0
  0
LTYPE
  5
77
330
5
100
AcDbSymbolTableRecord
100
AcDbLinetypeTableRecord
  2
DASH_DOUBLE_DOT
 70
     0
  3
Dash Double Dot __ __ . __ __ . __ __ . __ _
 72
    65
 73
     6
 40
0.2164
 49
0.1181
 74
     0
 49
-0.0295
 74
     0
 49
0.0049
 74
     0
 49
-0.0295
 74
     0
 49
0.0049
 74
     0
 49
-0.0295
 74
     0
  0
LTYPE
  5
78
330
5
100
AcDbSymbolTableRecord
100
AcDbLinetypeTableRecord
  2
DASH_TRIPLE_DOT
 70
     0
  3
Dash Triple-Dot _ . . . _ . . . _ . . . _
 72
    65
 73
     8
 40
0.2508
 49
0.1181
 74
     0
 49
-0.0295
 74
     0
 49
0.0049
 74
     0
 49
-0.0295
 74
     0
 49
0.0049
 74
     0
 49
-0.0295
 74
     0
 49
0.0049
 74
     0
 49
-0.0295
 74
     0
  0
LTYPE
  5
79
330
5
100
AcDbSymbolTableRecord
100
AcDbLinetypeTableRecord
  2
DASHED
 70
     0
  3
Dashed __ __ __ __ __ __ __ __ __ __ __ __ __ _
 72
    65
 73
     2
 40
0.2068
 49
0.1655
 74
     0
 49
-0.0413
 74
     0
  0
LTYPE
  5
7A
330
5
100
AcDbSymbolTableRecord
100
AcDbLinetypeTableRecord
  2
DASHED_SPACE
 70
     0
  3
Dashed Space __ __ __ __ __ __ __ __ __ __ __ _
 72
    65
 73
     2
 40
0.2067
 49
0.1654
 74
     0
 49
-0.0413
 74
     0
  0
LTYPE
  5
7B
330
5
100
AcDbSymbolTableRecord
100
AcDbLinetypeTableRecord
  2
DOTTED
 70
     0
  3
Dotted . . . . . . . . . . . . . . . . . . . . 
 72
    65
 73
     2
 40
0.0481
 49
0.0068
 74
     0
 49
-0.0413
 74
     0
  0
LTYPE
  5
7C
330
5
100
AcDbSymbolTableRecord
100
AcDbLinetypeTableRecord
  2
DOUBLE_DASH_CHAIN
 70
     0
  3
Double Dash Chain ___ _ _ ___ _ _ ___ _ _ ___ _
 72
    65
 73
     6
 40
1.240299999999999
 49
0.6614
 74
     0
 49
-0.0827
 74
     0
 49
0.1654
 74
     0
 49
-0.0827
 74
     0
 49
0.1654
 74
     0
 49
-0.0827
 74
     0
  0
LTYPE
  5
7D
330
5
100
AcDbSymbolTableRecord
100
AcDbLinetypeTableRecord
  2
DOUBLE_DASH_DOT
 70
     0
  3
Double Dash Dot __ __ . __ __ . __ __ . __ _
 72
    65
 73
     6
 40
0.3296
 49
0.1181
 74
     0
 49
-0.0295
 74
     0
 49
0.1181
 74
     0
 49
-0.0295
 74
     0
 49
0.0049
 74
     0
 49
-0.0295
 74
     0
  0
LTYPE
  5
7E
330
5
100
AcDbSymbolTableRecord
100
AcDbLinetypeTableRecord
  2
DOUBLE_DASH_DOUBLE_DOT
 70
     0
  3
Double Dash Double Dot _ _ . . _ _ . . _ _
 72
    65
 73
     8
 40
0.364
 49
0.1181
 74
     0
 49
-0.0295
 74
     0
 49
0.1181
 74
     0
 49
-0.0295
 74
     0
 49
0.0049
 74
     0
 49
-0.0295
 74
     0
 49
0.0049
 74
     0
 49
-0.0295
 74
     0
  0
LTYPE
  5
7F
330
5
100
AcDbSymbolTableRecord
100
AcDbLinetypeTableRecord
  2
DOUBLE_DASH_TRIPLE_DOT
 70
     0
  3
Double Dash Triple Dot __ __ . . . __ __ . . .
 72
    65
 73
    10
 40
0.3984
 49
0.1181
 74
     0
 49
-0.0295
 74
     0
 49
0.1181
 74
     0
 49
-0.0295
 74
     0
 49
0.0049
 74
     0
 49
-0.0295
 74
     0
 49
0.0049
 74
     0
 49
-0.0295
 74
     0
 49
0.0049
 74
     0
 49
-0.0295
 74
     0
  0
LTYPE
  5
80
330
5
100
AcDbSymbolTableRecord
100
AcDbLinetypeTableRecord
  2
LONG_DASH_DOTTED
 70
     0
  3
Long Dash Dotted ____ . ____ . ____ . ____ . _
 72
    65
 73
     4
 40
0.3001
 49
0.2362
 74
     0
 49
-0.0295
 74
     0
 49
0.0049
 74
     0
 49
-0.0295
 74
     0
  0
LTYPE
  5
81
330
5
100
AcDbSymbolTableRecord
100
AcDbLinetypeTableRecord
  2
LONG_DASH_DOUBLE_DOT
 70
     0
  3
Long Dash Double Dot ____ . . ____ . . ____ . .
 72
    65
 73
     6
 40
0.3345
 49
0.2362
 74
     0
 49
-0.0295
 74
     0
 49
0.0049
 74
     0
 49
-0.0295
 74
     0
 49
0.0049
 74
     0
 49
-0.0295
 74
     0
  0
LTYPE
  5
82
330
5
100
AcDbSymbolTableRecord
100
AcDbLinetypeTableRecord
  2
LONG_DASH_TRIPLE_DOT
 70
     0
  3
Long Dash Triple Dot ____ ... ____ ... ____
 72
    65
 73
     8
 40
0.3689
 49
0.2362
 74
     0
 49
-0.0295
 74
     0
 49
0.0049
 74
     0
 49
-0.0295
 74
     0
 49
0.0049
 74
     0
 49
-0.0295
 74
     0
 49
0.0049
 74
     0
 49
-0.0295
 74
     0
  0
LTYPE
  5
83
330
5
100
AcDbSymbolTableRecord
100
AcDbLinetypeTableRecord
  2
BORDER
 70
     0
  3
Border __ __ . __ __ . __ __ . __ __ . __ __ .
 72
    65
 73
     6
 40
44.45
 49
12.7
 74
     0
 49
-6.349999999999999
 74
     0
 49
12.7
 74
     0
 49
-6.349999999999999
 74
     0
 49
0.0
 74
     0
 49
-6.349999999999999
 74
     0
  0
LTYPE
  5
84
330
5
100
AcDbSymbolTableRecord
100
AcDbLinetypeTableRecord
  2
BORDER2
 70
     0
  3
Border (.5x) __.__.__.__.__.__.__.__.__.__.__.
 72
    65
 73
     6
 40
22.225
 49
6.349999999999999
 74
     0
 49
-3.174999999999999
 74
     0
 49
6.349999999999999
 74
     0
 49
-3.174999999999999
 74
     0
 49
0.0
 74
     0
 49
-3.174999999999999
 74
     0
  0
LTYPE
  5
85
330
5
100
AcDbSymbolTableRecord
100
AcDbLinetypeTableRecord
  2
BORDERX2
 70
     0
  3
Border (2x) ____  ____  .  ____  ____  .  ___
 72
    65
 73
     6
 40
88.9
 49
25.4
 74
     0
 49
-12.7
 74
     0
 49
25.4
 74
     0
 49
-12.7
 74
     0
 49
0.0
 74
     0
 49
-12.7
 74
     0
  0
LTYPE
  5
86
330
5
100
AcDbSymbolTableRecord
100
AcDbLinetypeTableRecord
  2
CENTER
 70
     0
  3
Center ____ _ ____ _ ____ _ ____ _ ____ _ ____
 72
    65
 73
     4
 40
50.8
 49
31.75
 74
     0
 49
-6.349999999999999
 74
     0
 49
6.349999999999999
 74
     0
 49
-6.349999999999999
 74
     0
  0
LTYPE
  5
87
330
5
100
AcDbSymbolTableRecord
100
AcDbLinetypeTableRecord
  2
CENTER2
 70
     0
  3
Center (.5x) ___ _ ___ _ ___ _ ___ _ ___ _ ___
 72
    65
 73
     4
 40
28.575
 49
19.05
 74
     0
 49
-3.174999999999999
 74
     0
 49
3.174999999999999
 74
     0
 49
-3.174999999999999
 74
     0
  0
LTYPE
  5
88
330
5
100
AcDbSymbolTableRecord
100
AcDbLinetypeTableRecord
  2
CENTERX2
 70
     0
  3
Center (2x) ________  __  ________  __  _____
 72
    65
 73
     4
 40
101.6
 49
63.5
 74
     0
 49
-12.7
 74
     0
 49
12.7
 74
     0
 49
-12.7
 74
     0
  0
LTYPE
  5
89
330
5
100
AcDbSymbolTableRecord
100
AcDbLinetypeTableRecord
  2
DASHDOT2
 70
     0
  3
Dash dot (.5x) _._._._._._._._._._._._._._._.
 72
    65
 73
     4
 40
12.7
 49
6.349999999999999
 74
     0
 49
-3.174999999999999
 74
     0
 49
0.0
 74
     0
 49
-3.174999999999999
 74
     0
  0
LTYPE
  5
8A
330
5
100
AcDbSymbolTableRecord
100
AcDbLinetypeTableRecord
  2
DASHDOTX2
 70
     0
  3
Dash dot (2x) ____  .  ____  .  ____  .  ___
 72
    65
 73
     4
 40
50.8
 49
25.4
 74
     0
 49
-12.7
 74
     0
 49
0.0
 74
     0
 49
-12.7
 74
     0
  0
LTYPE
  5
8B
330
5
100
AcDbSymbolTableRecord
100
AcDbLinetypeTableRecord
  2
DASHED2
 70
     0
  3
Dashed (.5x) _ _ _ _ _ _ _ _ _ _ _ _ _ _ _ _ _
 72
    65
 73
     2
 40
9.524999999999998
 49
6.349999999999999
 74
     0
 49
-3.174999999999999
 74
     0
  0
LTYPE
  5
8C
330
5
100
AcDbSymbolTableRecord
100
AcDbLinetypeTableRecord
  2
DASHEDX2
 70
     0
  3
Dashed (2x) ____  ____  ____  ____  ____  ___
 72
    65
 73
     2
 40
38.1
 49
25.4
 74
     0
 49
-12.7
 74
     0
  0
LTYPE
  5
8D
330
5
100
AcDbSymbolTableRecord
100
AcDbLinetypeTableRecord
  2
DIVIDE
 70
     0
  3
Divide ____ . . ____ . . ____ . . ____ . . ____
 72
    65
 73
     6
 40
31.75
 49
12.7
 74
     0
 49
-6.349999999999999
 74
     0
 49
0.0
 74
     0
 49
-6.349999999999999
 74
     0
 49
0.0
 74
     0
 49
-6.349999999999999
 74
     0
  0
LTYPE
  5
8E
330
5
100
AcDbSymbolTableRecord
100
AcDbLinetypeTableRecord
  2
DIVIDE2
 70
     0
  3
Divide (.5x) __..__..__..__..__..__..__..__.._
 72
    65
 73
     6
 40
15.875
 49
6.349999999999999
 74
     0
 49
-3.174999999999999
 74
     0
 49
0.0
 74
     0
 49
-3.174999999999999
 74
     0
 49
0.0
 74
     0
 49
-3.174999999999999
 74
     0
  0
LTYPE
  5
8F
330
5
100
AcDbSymbolTableRecord
100
AcDbLinetypeTableRecord
  2
DIVIDEX2
 70
     0
  3
Divide (2x) ________  .  .  ________  .  .  _
 72
    65
 73
     6
 40
63.49999999999999
 49
25.4
 74
     0
 49
-12.7
 74
     0
 49
0.0
 74
     0
 49
-12.7
 74
     0
 49
0.0
 74
     0
 49
-12.7
 74
     0
  0
LTYPE
  5
90
330
5
100
AcDbSymbolTableRecord
100
AcDbLinetypeTableRecord
  2
DOT
 70
     0
  3
Dot . . . . . . . . . . . . . . . . . . . . . .
 72
    65
 73
     2
 40
6.349999999999999
 49
0.0
 74
     0
 49
-6.349999999999999
 74
     0
  0
LTYPE
  5
91
330
5
100
AcDbSymbolTableRecord
100
AcDbLinetypeTableRecord
  2
DOT2
 70
     0
  3
Dot (.5x) .....................................
 72
    65
 73
     2
 40
3.174999999999999
 49
0.0
 74
     0
 49
-3.174999999999999
 74
     0
  0
LTYPE
  5
92
330
5
100
AcDbSymbolTableRecord
100
AcDbLinetypeTableRecord
  2
DOTX2
 70
     0
  3
Dot (2x) .  .  .  .  .  .  .  .  .  .  .  .  . 
 72
    65
 73
     2
 40
12.7
 49
0.0
 74
     0
 49
-12.7
 74
     0
  0
LTYPE
  5
93
330
5
100
AcDbSymbolTableRecord
100
AcDbLinetypeTableRecord
  2
HIDDEN
 70
     0
  3
Hidden __ __ __ __ __ __ __ __ __ __ __ __ __ _
 72
    65
 73
     2
 40
9.524999999999998
 49
6.349999999999999
 74
     0
 49
-3.174999999999999
 74
     0
  0
LTYPE
  5
94
330
5
100
AcDbSymbolTableRecord
100
AcDbLinetypeTableRecord
  2
HIDDEN2
 70
     0
  3
Hidden (.5x) _ _ _ _ _ _ _ _ _ _ _ _ _ _ _ _ _
 72
    65
 73
     2
 40
4.762499999999999
 49
3.174999999999999
 74
     0
 49
-1.587499999999999
 74
     0
  0
LTYPE
  5
95
330
5
100
AcDbSymbolTableRecord
100
AcDbLinetypeTableRecord
  2
HIDDENX2
 70
     0
  3
Hidden (2x) ____ ____ ____ ____ ____ ____ ____
 72
    65
 73
     2
 40
19.05
 49
12.7
 74
     0
 49
-6.349999999999999
 74
     0
  0
LTYPE
  5
96
330
5
100
AcDbSymbolTableRecord
100
AcDbLinetypeTableRecord
  2
PHANTOM
 70
     0
  3
Phantom ______  __  __  ______  __  __  ______
 72
    65
 73
     6
 40
63.5
 49
31.75
 74
     0
 49
-6.349999999999999
 74
     0
 49
6.349999999999999
 74
     0
 49
-6.349999999999999
 74
     0
 49
6.349999999999999
 74
     0
 49
-6.349999999999999
 74
     0
  0
LTYPE
  5
97
330
5
100
AcDbSymbolTableRecord
100
AcDbLinetypeTableRecord
  2
PHANTOM2
 70
     0
  3
Phantom (.5x) ___ _ _ ___ _ _ ___ _ _ ___ _ _
 72
    65
 73
     6
 40
31.75
 49
15.875
 74
     0
 49
-3.174999999999999
 74
     0
 49
3.174999999999999
 74
     0
 49
-3.174999999999999
 74
     0
 49
3.174999999999999
 74
     0
 49
-3.174999999999999
 74
     0
  0
LTYPE
  5
98
330
5
100
AcDbSymbolTableRecord
100
AcDbLinetypeTableRecord
  2
PHANTOMX2
 70
     0
  3
Phantom (2x) ____________    ____    ____   _
 72
    65
 73
     6
 40
127.0
 49
63.5
 74
     0
 49
-12.7
 74
     0
 49
12.7
 74
     0
 49
-12.7
 74
     0
 49
12.7
 74
     0
 49
-12.7
 74
     0
  0
LTYPE
  5
99
330
5
100
AcDbSymbolTableRecord
100
AcDbLinetypeTableRecord
  2
ACAD_ISO02W100
 70
     0
  3
ISO dash __ __ __ __ __ __ __ __ __ __ __ __ __
 72
    65
 73
     2
 40
15.0
 49
12.0
 74
     0
 49
-3.0
 74
     0
  0
LTYPE
  5
9A
330
5
100
AcDbSymbolTableRecord
100
AcDbLinetypeTableRecord
  2
ACAD_ISO03W100
 70
     0
  3
ISO dash space __    __    __    __    __    __
 72
    65
 73
     2
 40
30.0
 49
12.0
 74
     0
 49
-18.0
 74
     0
  0
LTYPE
  5
9B
330
5
100
AcDbSymbolTableRecord
100
AcDbLinetypeTableRecord
  2
ACAD_ISO04W100
 70
     0
  3
ISO long-dash dot ____ . ____ . ____ . ____ . _
 72
    65
 73
     4
 40
30.0
 49
24.0
 74
     0
 49
-3.0
 74
     0
 49
0.0
 74
     0
 49
-3.0
 74
     0
  0
LTYPE
  5
9C
330
5
100
AcDbSymbolTableRecord
100
AcDbLinetypeTableRecord
  2
ACAD_ISO05W100
 70
     0
  3
ISO long-dash double-dot ____ .. ____ .. ____ .
 72
    65
 73
     6
 40
33.0
 49
24.0
 74
     0
 49
-3.0
 74
     0
 49
0.0
 74
     0
 49
-3.0
 74
     0
 49
0.0
 74
     0
 49
-3.0
 74
     0
  0
LTYPE
  5
9D
330
5
100
AcDbSymbolTableRecord
100
AcDbLinetypeTableRecord
  2
ACAD_ISO06W100
 70
     0
  3
ISO long-dash triple-dot ____ ... ____ ... ____
 72
    65
 73
     8
 40
36.0
 49
24.0
 74
     0
 49
-3.0
 74
     0
 49
0.0
 74
     0
 49
-3.0
 74
     0
 49
0.0
 74
     0
 49
-3.0
 74
     0
 49
0.0
 74
     0
 49
-3.0
 74
     0
  0
LTYPE
  5
9E
330
5
100
AcDbSymbolTableRecord
100
AcDbLinetypeTableRecord
  2
ACAD_ISO07W100
 70
     0
  3
ISO dot . . . . . . . . . . . . . . . . . . . .
 72
    65
 73
     2
 40
3.0
 49
0.0
 74
     0
 49
-3.0
 74
     0
  0
LTYPE
  5
9F
330
5
100
AcDbSymbolTableRecord
100
AcDbLinetypeTableRecord
  2
ACAD_ISO08W100
 70
     0
  3
ISO long-dash short-dash ____ __ ____ __ ____ _
 72
    65
 73
     4
 40
36.0
 49
24.0
 74
     0
 49
-3.0
 74
     0
 49
6.0
 74
     0
 49
-3.0
 74
     0
  0
LTYPE
  5
A0
330
5
100
AcDbSymbolTableRecord
100
AcDbLinetypeTableRecord
  2
ACAD_ISO09W100
 70
     0
  3
ISO long-dash double-short-dash ____ __ __ ____
 72
    65
 73
     6
 40
45.0
 49
24.0
 74
     0
 49
-3.0
 74
     0
 49
6.0
 74
     0
 49
-3.0
 74
     0
 49
6.0
 74
     0
 49
-3.0
 74
     0
  0
LTYPE
  5
A1
330
5
100
AcDbSymbolTableRecord
100
AcDbLinetypeTableRecord
  2
ACAD_ISO10W100
 70
     0
  3
ISO dash dot __ . __ . __ . __ . __ . __ . __ .
 72
    65
 73
     4
 40
18.0
 49
12.0
 74
     0
 49
-3.0
 74
     0
 49
0.0
 74
     0
 49
-3.0
 74
     0
  0
LTYPE
  5
A2
330
5
100
AcDbSymbolTableRecord
100
AcDbLinetypeTableRecord
  2
ACAD_ISO11W100
 70
     0
  3
ISO double-dash dot __ __ . __ __ . __ __ . __ 
 72
    65
 73
     6
 40
33.0
 49
12.0
 74
     0
 49
-3.0
 74
     0
 49
12.0
 74
     0
 49
-3.0
 74
     0
 49
0.0
 74
     0
 49
-3.0
 74
     0
  0
LTYPE
  5
A3
330
5
100
AcDbSymbolTableRecord
100
AcDbLinetypeTableRecord
  2
ACAD_ISO12W100
 70
     0
  3
ISO dash double-dot __ . . __ . . __ . . __ . .
 72
    65
 73
     6
 40
21.0
 49
12.0
 74
     0
 49
-3.0
 74
     0
 49
0.0
 74
     0
 49
-3.0
 74
     0
 49
0.0
 74
     0
 49
-3.0
 74
     0
  0
LTYPE
  5
A4
330
5
100
AcDbSymbolTableRecord
100
AcDbLinetypeTableRecord
  2
ACAD_ISO13W100
 70
     0
  3
ISO double-dash double-dot __ __ . . __ __ . . 
 72
    65
 73
     8
 40
36.0
 49
12.0
 74
     0
 49
-3.0
 74
     0
 49
12.0
 74
     0
 49
-3.0
 74
     0
 49
0.0
 74
     0
 49
-3.0
 74
     0
 49
0.0
 74
     0
 49
-3.0
 74
     0
  0
LTYPE
  5
A5
330
5
100
AcDbSymbolTableRecord
100
AcDbLinetypeTableRecord
  2
ACAD_ISO14W100
 70
     0
  3
ISO dash triple-dot __ . . . __ . . . __ . . . 
 72
    65
 73
     8
 40
24.0
 49
12.0
 74
     0
 49
-3.0
 74
     0
 49
0.0
 74
     0
 49
-3.0
 74
     0
 49
0.0
 74
     0
 49
-3.0
 74
     0
 49
0.0
 74
     0
 49
-3.0
 74
     0
  0
LTYPE
  5
A6
330
5
100
AcDbSymbolTableRecord
100
AcDbLinetypeTableRecord
  2
ACAD_ISO15W100
 70
     0
  3
ISO double-dash triple-dot __ __ . . . __ __ . 
 72
    65
 73
    10
 40
39.0
 49
12.0
 74
     0
 49
-3.0
 74
     0
 49
12.0
 74
     0
 49
-3.0
 74
     0
 49
0.0
 74
     0
 49
-3.0
 74
     0
 49
0.0
 74
     0
 49
-3.0
 74
     0
 49
0.0
 74
     0
 49
-3.0
 74
     0
  0
LTYPE
  5
A9
330
5
100
AcDbSymbolTableRecord
100
AcDbLinetypeTableRecord
  2
FENCELINE1
 70
     0
  3
Fenceline circle ----0-----0----0-----0----0---
 72
    65
 73
     4
 40
36.83
 49
6.349999999999999
 74
     0
 49
-2.54
 74
     4
 75
   133
340
A8
 46
2.54
 50
0.0
 44
-2.54
 45
0.0
 49
-2.54
 74
     0
 49
25.4
 74
     0
  0
LTYPE
  5
AA
330
5
100
AcDbSymbolTableRecord
100
AcDbLinetypeTableRecord
  2
FENCELINE2
 70
     0
  3
Fenceline square ----[]-----[]----[]-----[]----
 72
    65
 73
     4
 40
36.83
 49
6.349999999999999
 74
     0
 49
-2.54
 74
     4
 75
   132
340
A8
 46
2.54
 50
0.0
 44
-2.54
 45
0.0
 49
-2.54
 74
     0
 49
25.4
 74
     0
  0
LTYPE
  5
AB
330
5
100
AcDbSymbolTableRecord
100
AcDbLinetypeTableRecord
  2
TRACKS
 70
     0
  3
Tracks -|-|-|-|-|-|-|-|-|-|-|-|-|-|-|-|-|-|-|-|
 72
    65
 73
     2
 40
7.62
 49
3.81
 74
     4
 75
   130
340
A8
 46
6.349999999999999
 50
0.0
 44
0.0
 45
0.0
 49
3.81
 74
     0
  0
LTYPE
  5
AC
330
5
100
AcDbSymbolTableRecord
100
AcDbLinetypeTableRecord
  2
BATTING
 70
     0
  3
Batting SSSSSSSSSSSSSSSSSSSSSSSSSSSSSSSSSSSSSSS
 72
    65
 73
     4
 40
10.16254
 49
0.00254
 74
     0
 49
-2.54
 74
     4
 75
   134
340
A8
 46
2.54
 50
0.0
 44
-2.54
 45
0.0
 49
-5.08
 74
     4
 75
   134
340
A8
 46
2.54
 50
180.0
 44
2.54
 45
0.0
 49
-2.54
 74
     0
  0
LTYPE
  5
AD
330
5
100
AcDbSymbolTableRecord
100
AcDbLinetypeTableRecord
  2
HOT_WATER_SUPPLY
 70
     0
  3
Hot water supply ---- HW ---- HW ---- HW ----
 72
    65
 73
     3
 40
22.86
 49
12.7
 74
     0
 49
-5.08
 74
     2
 75
     0
340
55
 46
2.54
 50
0.0
 44
-2.54
 45
-1.27
  9
HW
 49
-5.08
 74
     0
  0
LTYPE
  5
AE
330
5
100
AcDbSymbolTableRecord
100
AcDbLinetypeTableRecord
  2
GAS_LINE
 70
     0
  3
Gas line ----GAS----GAS----GAS----GAS----GAS---
 72
    65
 73
     3
 40
24.13
 49
12.7
 74
     0
 49
-5.08
 74
     2
 75
     0
340
55
 46
2.54
 50
0.0
 44
-2.54
 45
-1.27
  9
GAS
 49
-6.349999999999999
 74
     0
  0
LTYPE
  5
AF
330
5
100
AcDbSymbolTableRecord
100
AcDbLinetypeTableRecord
  2
ZIGZAG
 70
     0
  3
Zig zag /\/\/\/\/\/\/\/\/\/\/\/\/\/\/\/\/\/\/\/
 72
    65
 73
     4
 40
20.32254
 49
0.00254
 74
     0
 49
-5.08
 74
     4
 75
   131
340
A8
 46
5.08
 50
0.0
 44
-5.08
 45
0.0
 49
-10.16
 74
     4
 75
   131
340
A8
 46
5.08
 50
180.0
 44
5.08
 45
0.0
 49
-5.08
 74
     0
  0
LTYPE
  5
11CE
330
5
100
AcDbSymbolTableRecord
100
AcDbLinetypeTableRecord
  2
AM_ISO02W050
 70
     0
  3
__ __ __ __ __ __ __ __ __ __ __ __ __ __ __
 72
    65
 73
     2
 40
7.5
 49
6.0
 74
     0
 49
-1.5
 74
     0
  0
LTYPE
  5
11CF
330
5
100
AcDbSymbolTableRecord
100
AcDbLinetypeTableRecord
  2
AM_ISO08W050
 70
     0
  3
____ . ____ . ____ . ____ . ____ . ____ . ____
 72
    65
 73
     4
 40
18.0
 49
12.0
 74
     0
 49
-1.5
 74
     0
 49
3.0
 74
     0
 49
-1.5
 74
     0
  0
LTYPE
  5
11D0
330
5
100
AcDbSymbolTableRecord
100
AcDbLinetypeTableRecord
  2
AM_ISO09W050
 70
     0
  3
_____ . . _____ . . _____ . . ____ .. ____
 72
    65
 73
     6
 40
22.5
 49
12.0
 74
     0
 49
-1.5
 74
     0
 49
3.0
 74
     0
 49
-1.5
 74
     0
 49
3.0
 74
     0
 49
-1.5
 74
     0
  0
LTYPE
  5
11D1
330
5
100
AcDbSymbolTableRecord
100
AcDbLinetypeTableRecord
  2
Amconstr
 70
     0
  3
_______________________
 72
    65
 73
     2
 40
9999.0
 49
9999.0
 74
     0
 49
0.0
 74
     0
  0
LTYPE
  5
11D2
330
5
100
AcDbSymbolTableRecord
100
AcDbLinetypeTableRecord
  2
AM_ISO08W050x2
 70
     0
  3
__ . __ . __ . __ . __ . __
 72
    65
 73
     4
 40
9.0
 49
6.0
 74
     0
 49
-0.75
 74
     0
 49
1.5
 74
     0
 49
-0.75
 74
     0
  0
LTYPE
  5
11D3
330
5
100
AcDbSymbolTableRecord
100
AcDbLinetypeTableRecord
  2
AM_ISO02W050x2
 70
     0
  3
 _ _ _ _ _ _ _ _ _ _ _ _
 72
    65
 73
     2
 40
3.75
 49
3.0
 74
     0
 49
-0.75
 74
     0
  0
LTYPE
  5
11D6
330
5
100
AcDbSymbolTableRecord
100
AcDbLinetypeTableRecord
  2
Amzigzag
 70
     0
  3
/\/-/\/-/\/-/\/-/\/-/\/
 72
    65
 73
     2
 40
11.0001
 49
0.0001
 74
     4
 75
   136
340
11D5
 46
0.04
 50
0.0
 44
0.0
 45
0.0
 49
-11.0
 74
     0
  0
LTYPE
  5
11E5
330
5
100
AcDbSymbolTableRecord
100
AcDbLinetypeTableRecord
  2
ACISOWELD
 70
     0
  3
_ _ _ _ _
 72
    65
 73
     2
 40
2.0
 49
2.0
 74
     0
 49
-1.0
 74
     0
  0
LTYPE
  5
11E6
330
5
100
AcDbSymbolTableRecord
100
AcDbLinetypeTableRecord
  2
ACISOTGB
 70
     0
  3
__ . . __ . .
 72
    65
 73
     6
 40
9.0
 49
4.0
 74
     0
 49
-1.0
 74
     0
 49
1.0
 74
     0
 49
-1.0
 74
     0
 49
1.0
 74
     0
 49
-1.0
 74
     0
  0
LTYPE
  5
11E7
330
5
100
AcDbSymbolTableRecord
100
AcDbLinetypeTableRecord
  2
ACISOTGL
 70
     0
  3
_ _ _ _ _
 72
    65
 73
     2
 40
3.0
 49
2.0
 74
     0
 49
-1.0
 74
     0
  0
ENDTAB
  0
TABLE
  2
LAYER
  5
2
102
{ACAD_XDICTIONARY
360
FED
102
}
330
0
100
AcDbSymbolTable
 70
     7
  0
LAYER
  5
54
330
2
100
AcDbSymbolTableRecord
100
AcDbLayerTableRecord
  2
0
 70
     0
 62
     7
  6
Continuous
370
    -3
390
F
347
21
  0
LAYER
  5
BA
330
2
100
AcDbSymbolTableRecord
100
AcDbLayerTableRecord
  2
Obramowanie (ISO)
 70
     0
 62
     7
  6
Continuous
370
    35
390
F
347
21
  0
LAYER
  5
C4
330
2
100
AcDbSymbolTableRecord
100
AcDbLayerTableRecord
  2
Tytuł (ISO)
 70
     0
 62
     7
  6
Continuous
370
    30
390
F
347
21
  0
LAYER
  5
C7
330
2
100
AcDbSymbolTableRecord
100
AcDbLayerTableRecord
  2
Widoczne (ISO)
 70
     0
 62
     7
  6
Continuous
370
    25
390
F
347
21
  0
LAYER
  5
C8
330
2
100
AcDbSymbolTableRecord
100
AcDbLayerTableRecord
  2
Widoczne wąskie (ISO)
 70
     0
 62
     7
  6
Continuous
370
    15
390
F
347
21
  0
LAYER
  5
C9
330
2
100
AcDbSymbolTableRecord
100
AcDbLayerTableRecord
  2
Wymiar (ISO)
 70
     0
 62
   151
420
  8568831
  6
Continuous
370
    18
390
F
347
21
  0
LAYER
  5
307
330
2
100
AcDbSymbolTableRecord
100
AcDbLayerTableRecord
  2
Defpoints
 70
     0
 62
     7
  6
Continuous
290
     0
370
    -3
390
F
347
21
  0
ENDTAB
  0
TABLE
  2
STYLE
  5
3
330
0
100
AcDbSymbolTable
 70
    12
  0
STYLE
  5
55
330
3
100
AcDbSymbolTableRecord
100
AcDbTextStyleTableRecord
  2
Standard
 70
     0
 40
0.0
 41
1.0
 50
0.0
 71
     0
 42
0.2
  3
tahoma.ttf
  4

1001
ACAD
1000
Tahoma
1071
      256
  0
STYLE
  5
5A
330
3
100
AcDbSymbolTableRecord
100
AcDbTextStyleTableRecord
  2
Annotative
 70
     0
 40
0.0
 41
1.0
 50
0.0
 71
     0
 42
0.2
  3
txt
  4

1001
AcadAnnotative
1000
AnnotativeData
1002
{
1070
     1
1070
     1
1002
}
  0
STYLE
  5
A8
330
3
100
AcDbSymbolTableRecord
100
AcDbTextStyleTableRecord
  2

 70
     1
 40
0.0
 41
1.0
 50
0.0
 71
     0
 42
0.2
  3
ltypeshp.shx
  4

  0
STYLE
  5
CC
330
3
100
AcDbSymbolTableRecord
100
AcDbTextStyleTableRecord
  2
Tekst etykiety (ISO)
 70
     0
 40
0.0
 41
1.0
 50
0.0
 71
     0
 42
0.2
  3
tahoma.ttf
  4

1001
ACAD
1000
Tahoma
1071
      256
  0
STYLE
  5
CD
330
3
100
AcDbSymbolTableRecord
100
AcDbTextStyleTableRecord
  2
Tekst mały
 70
     0
 40
0.0
 41
1.0
 50
0.0
 71
     0
 42
0.2
  3
tahoma.ttf
  4

1001
ACAD
1000
Tahoma
1071
      256
  0
STYLE
  5
CE
330
3
100
AcDbSymbolTableRecord
100
AcDbTextStyleTableRecord
  2
Tekst notatki (ISO)
 70
     0
 40
0.0
 41
1.0
 50
0.0
 71
     0
 42
0.2
  3
tahoma.ttf
  4

1001
ACAD
1000
Tahoma
1071
      256
  0
STYLE
  5
156
330
3
100
AcDbSymbolTableRecord
100
AcDbTextStyleTableRecord
  2
Styl tekstu41
 70
     0
 40
0.0
 41
1.0
 50
0.0
 71
     0
 42
0.2
  3
tahoma.ttf
  4

1001
ACAD
1000
Tahoma
1071
      256
  0
STYLE
  5
15D
330
3
100
AcDbSymbolTableRecord
100
AcDbTextStyleTableRecord
  2
Styl tekstu45
 70
     0
 40
0.0
 41
1.0
 50
0.0
 71
     0
 42
0.2
  3
tahoma.ttf
  4

1001
ACAD
1000
Tahoma
1071
      256
  0
STYLE
  5
165
330
3
100
AcDbSymbolTableRecord
100
AcDbTextStyleTableRecord
  2
Styl tekstu44
 70
     0
 40
0.0
 41
1.0
 50
0.0
 71
     0
 42
0.2
  3
tahoma.ttf
  4

1001
ACAD
1000
Tahoma
1071
      256
  0
STYLE
  5
11D5
330
3
100
AcDbSymbolTableRecord
100
AcDbTextStyleTableRecord
  2

 70
     1
 40
0.0
 41
1.0
 50
0.0
 71
     0
 42
0.2
  3
genltshp.shx
  4

  0
STYLE
  5
11E3
330
3
100
AcDbSymbolTableRecord
100
AcDbTextStyleTableRecord
  2
ACISOTS
 70
     0
 40
1.0
 41
1.0
 50
0.0
 71
     0
 42
0.2
  3
isocp.shx
  4

  0
STYLE
  5
11E4
330
3
100
AcDbSymbolTableRecord
100
AcDbTextStyleTableRecord
  2
ACISOGDT
 70
     0
 40
0.0
 41
1.0
 50
0.0
 71
     0
 42
0.2
  3
amgdt.shx
  4

  0
ENDTAB
  0
TABLE
  2
VIEW
  5
6
330
0
100
AcDbSymbolTable
 70
     0
  0
ENDTAB
  0
TABLE
  2
UCS
  5
7
330
0
100
AcDbSymbolTable
 70
     0
  0
ENDTAB
  0
TABLE
  2
APPID
  5
9
330
0
100
AcDbSymbolTable
 70
    14
  0
APPID
  5
56
330
9
100
AcDbSymbolTableRecord
100
AcDbRegAppTableRecord
  2
ACAD
 70
     0
  0
APPID
  5
5E
330
9
100
AcDbSymbolTableRecord
100
AcDbRegAppTableRecord
  2
AcadAnnotative
 70
     0
  0
APPID
  5
162
330
9
100
AcDbSymbolTableRecord
100
AcDbRegAppTableRecord
  2
AcadAnnoPO
 70
     0
  0
APPID
  5
C0B
330
9
100
AcDbSymbolTableRecord
100
AcDbRegAppTableRecord
  2
ACAD_DSTYLE_DIMRADIAL_EXTENSION
 70
     0
  0
APPID
  5
1047
330
9
100
AcDbSymbolTableRecord
100
AcDbRegAppTableRecord
  2
ACAD_MLEADERVER
 70
     0
  0
APPID
  5
1164
330
9
100
AcDbSymbolTableRecord
100
AcDbRegAppTableRecord
  2
MCAD_NO_VIS
 70
     0
  0
APPID
  5
1165
330
9
100
AcDbSymbolTableRecord
100
AcDbRegAppTableRecord
  2
ACAD_TEMP_GRAPHIC
 70
     0
  0
APPID
  5
1190
330
9
100
AcDbSymbolTableRecord
100
AcDbRegAppTableRecord
  2
AD_DRAW
 70
     0
  0
APPID
  5
1193
330
9
100
AcDbSymbolTableRecord
100
AcDbRegAppTableRecord
  2
ACATTRIBSERVICES
 70
     0
  0
APPID
  5
11AC
330
9
100
AcDbSymbolTableRecord
100
AcDbRegAppTableRecord
  2
DESIGNERASSEMBLIES
 70
     0
  0
APPID
  5
11B1
330
9
100
AcDbSymbolTableRecord
100
AcDbRegAppTableRecord
  2
ACADM_DIM_EDIT
 70
     0
  0
APPID
  5
11B2
330
9
100
AcDbSymbolTableRecord
100
AcDbRegAppTableRecord
  2
AMDT_DM_ADJ
 70
     0
  0
APPID
  5
11CB
330
9
100
AcDbSymbolTableRecord
100
AcDbRegAppTableRecord
  2
ACAD_DSTYLE_DIMJAG
 70
     0
  0
APPID
  5
11CC
330
9
100
AcDbSymbolTableRecord
100
AcDbRegAppTableRecord
  2
ACAD_DSTYLE_DIMBREAK
 70
     0
  0
ENDTAB
  0
TABLE
  2
DIMSTYLE
  5
A
330
0
100
AcDbSymbolTable
 70
    23
100
AcDbDimStyleTable
 71
     2
340
D7
340
58
  0
DIMSTYLE
105
58
330
A
100
AcDbSymbolTableRecord
100
AcDbDimStyleTableRecord
  2
Standard
 70
     0
340
55
  0
DIMSTYLE
105
59
330
A
100
AcDbSymbolTableRecord
100
AcDbDimStyleTableRecord
  2
Annotative
 70
     0
340
55
1001
AcadAnnotative
1000
AnnotativeData
1002
{
1070
     1
1070
     1
1002
}
  0
DIMSTYLE
105
CF
330
A
100
AcDbSymbolTableRecord
100
AcDbDimStyleTableRecord
  2
Domyślne - Metoda 1b (ISO)
 70
     0
 40
30.0
 41
2.5
 42
0.0
 43
5.999999999999999
 44
3.174999999999999
 45
0.00000001
 46
10.0
 73
     0
 77
     1
 78
     8
 79
     2
140
2.5
143
0.03937
146
1.399999999999999
147
0.762
171
     3
172
     1
176
   256
177
   256
178
   256
179
     2
271
     2
272
     2
274
     3
278
    44
284
     8
286
     8
340
CE
371
    -1
372
    -1
  0
DIMSTYLE
105
D0
330
A
100
AcDbSymbolTableRecord
100
AcDbDimStyleTableRecord
  2
Domyślne - Metoda 1b (ISO)$7
 70
     0
 40
30.0
 41
2.5
 42
0.0
 43
5.999999999999999
 44
3.174999999999999
 45
0.00000001
 46
10.0
 73
     0
 77
     1
 78
     8
 79
     2
140
2.5
143
0.03937
146
1.399999999999999
147
0.762
171
     3
172
     1
176
   256
177
   256
178
   256
179
     2
271
     2
272
     2
274
     3
278
    44
284
     8
286
     8
340
CE
371
    -1
372
    -1
  0
DIMSTYLE
105
D1
330
A
100
AcDbSymbolTableRecord
100
AcDbDimStyleTableRecord
  2
Domyślne - Metoda 2a (ISO)
 70
     0
 40
30.0
 41
2.5
 42
0.0
 43
5.999999999999999
 44
3.174999999999999
 45
0.00000001
 46
10.0
 77
     1
 78
     8
 79
     2
140
2.5
143
0.03937
146
1.399999999999999
147
0.762
171
     3
172
     1
176
   256
177
   256
178
   256
179
     2
271
     2
272
     2
274
     3
278
    44
284
     8
286
     8
340
CE
371
    -1
372
    -1
  0
DIMSTYLE
105
D2
330
A
100
AcDbSymbolTableRecord
100
AcDbDimStyleTableRecord
  2
Domyślne - Metoda 2a (ISO)$7
 70
     0
 40
30.0
 41
2.5
 42
0.0
 43
5.999999999999999
 44
3.174999999999999
 45
0.00000001
 46
10.0
 77
     1
 78
     8
 79
     2
140
2.5
143
0.03937
146
1.399999999999999
147
0.762
171
     3
172
     1
176
   256
177
   256
178
   256
179
     2
271
     2
272
     2
274
     3
278
    44
284
     8
286
     8
340
CE
371
    -1
372
    -1
  0
DIMSTYLE
105
D3
330
A
100
AcDbSymbolTableRecord
100
AcDbDimStyleTableRecord
  2
Domyślne - Metoda 2b (ISO)
 70
     0
 40
30.0
 41
2.5
 42
0.0
 43
5.999999999999999
 44
3.174999999999999
 45
0.00000001
 46
10.0
 77
     1
 78
     8
 79
     2
140
2.5
143
0.03937
146
1.399999999999999
147
0.762
171
     3
172
     1
176
   256
177
   256
178
   256
179
     2
271
     2
272
     2
274
     3
278
    44
284
     8
286
     8
340
CE
371
    -1
372
    -1
  0
DIMSTYLE
105
D4
330
A
100
AcDbSymbolTableRecord
100
AcDbDimStyleTableRecord
  2
Domyślne - Metoda 2b (ISO)$7
 70
     0
 40
30.0
 41
2.5
 42
0.0
 43
5.999999999999999
 44
3.174999999999999
 45
0.00000001
 46
10.0
 77
     1
 78
     8
 79
     2
140
2.5
143
0.03937
146
1.399999999999999
147
0.762
171
     3
172
     1
176
   256
177
   256
178
   256
179
     2
271
     2
272
     2
274
     3
278
    44
284
     8
286
     8
340
CE
371
    -1
372
    -1
  0
DIMSTYLE
105
D5
330
A
100
AcDbSymbolTableRecord
100
AcDbDimStyleTableRecord
  2
Domyślne - mm [cale] (ISO)
 70
     0
  4
 cal
 40
30.0
 41
2.5
 42
0.0
 43
5.999999999999999
 44
3.174999999999999
 45
0.00000001
 46
10.0
 73
     0
 74
     0
 77
     1
 78
     8
 79
     2
140
2.5
143
0.03937
146
1.399999999999999
147
0.762
170
     1
171
     3
172
     1
176
   256
177
   256
178
   256
179
     3
271
     3
272
     2
274
     3
275
     1
278
    44
284
     8
285
     8
286
     8
340
CE
371
    -1
372
    -1
  0
DIMSTYLE
105
D6
330
A
100
AcDbSymbolTableRecord
100
AcDbDimStyleTableRecord
  2
Domyślne - mm [cale] (ISO)$7
 70
     0
  4
 cal
 40
30.0
 41
2.5
 42
0.0
 43
5.999999999999999
 44
3.174999999999999
 45
0.00000001
 46
10.0
 73
     0
 74
     0
 77
     1
 78
     8
 79
     2
140
2.5
143
0.03937
146
1.399999999999999
147
0.762
170
     1
171
     3
172
     1
176
   256
177
   256
178
   256
179
     3
271
     3
272
     2
274
     3
275
     1
278
    44
284
     8
285
     8
286
     8
340
CE
371
    -1
372
    -1
  0
DIMSTYLE
105
D7
102
{ACAD_REACTORS
330
6B9
330
7A1
330
883
330
965
102
}
330
A
100
AcDbSymbolTableRecord
100
AcDbDimStyleTableRecord
  2
Domyślne (ISO)
 70
     0
 40
30.0
 41
2.5
 42
0.0
 43
5.999999999999999
 44
3.174999999999999
 45
0.00000001
 46
10.0
 73
     0
 77
     1
140
3.5
143
0.03937
146
0.7142857142857144
147
0.762
171
     3
172
     1
176
   256
177
   256
178
   256
271
     0
272
     0
274
     3
278
    44
340
CC
371
    -1
372
    -1
  0
DIMSTYLE
105
D8
330
A
100
AcDbSymbolTableRecord
100
AcDbDimStyleTableRecord
  2
Domyślne (ISO)$7
 70
     0
 40
30.0
 41
2.5
 42
0.0
 43
5.999999999999999
 44
3.174999999999999
 45
0.00000001
 46
10.0
 73
     0
 77
     1
140
3.5
143
0.03937
146
0.7142857142857144
147
0.762
171
     3
172
     1
176
   256
177
   256
178
   256
271
     0
272
     0
274
     3
278
    44
340
CC
371
    -1
372
    -1
  0
DIMSTYLE
105
E7
330
A
100
AcDbSymbolTableRecord
100
AcDbDimStyleTableRecord
  2
Obiekt mieszany (ISO)
 70
     0
 40
30.0
 41
2.5
 42
0.0
 43
5.999999999999999
 44
3.174999999999999
 45
0.00000001
 46
10.0
 73
     0
 74
     0
 77
     1
140
3.5
143
0.03937
146
1.001485756465366
147
0.762
171
     3
172
     1
176
   256
177
   256
178
   256
179
     2
271
     2
272
     2
274
     3
278
    44
340
CC
341
D9
371
    -1
372
    -1
  0
DIMSTYLE
105
E8
330
A
100
AcDbSymbolTableRecord
100
AcDbDimStyleTableRecord
  2
Obiekt mieszany (ISO)$7
 70
     0
 40
30.0
 41
5.0
 42
0.0
 43
5.999999999999999
 44
3.174999999999999
 45
0.00000001
 46
10.0
 73
     0
 74
     0
 77
     1
140
3.5
143
0.03937
146
1.001485756465366
147
0.762
171
     3
172
     1
176
   256
177
   256
178
   256
179
     2
271
     2
272
     2
274
     3
278
    44
340
CC
341
D9
371
    25
372
    -1
  0
DIMSTYLE
105
E9
330
A
100
AcDbSymbolTableRecord
100
AcDbDimStyleTableRecord
  2
Dodatkowy (ISO)
 70
     0
 40
30.0
 41
2.5
340
55
342
EA
  0
DIMSTYLE
105
FB
330
A
100
AcDbSymbolTableRecord
100
AcDbDimStyleTableRecord
  2
Odniesienie (ISO)
 70
     0
 40
30.0
 41
2.5
340
55
342
EA
  0
DIMSTYLE
105
11CA
102
{ACAD_REACTORS
330
11B9
102
}
330
A
100
AcDbSymbolTableRecord
100
AcDbDimStyleTableRecord
  2
AM_ISO
 70
     0
  4
"
 41
3.5
 42
1.0
 43
10.0
 44
1.0
 47
0.1
 48
0.1
 73
     0
 74
     0
 77
     1
 78
     8
 79
     2
 90
     1
140
3.5
141
0.0
143
0.0393701
146
0.71
147
1.5
172
     1
176
   256
177
   256
178
     2
271
     2
272
     3
274
     4
283
     0
284
     8
340
55
345
5B
346
5B
347
5B
371
    -1
372
    -1
1001
ACAD_DSTYLE_DIMJAG
1070
   388
1040
1.5
1001
ACAD_DSTYLE_DIMBREAK
1070
   391
1040
3.75
  0
DIMSTYLE
105
11D7
330
A
100
AcDbSymbolTableRecord
100
AcDbDimStyleTableRecord
  2
AM_ISO$3
 70
     0
  4
"
 41
3.5
 42
1.0
 43
10.0
 44
1.0
 47
0.1
 48
0.1
 73
     0
 77
     1
 78
     8
 79
     2
 90
     1
140
3.5
141
0.0
143
0.0393701
146
0.71
147
1.5
176
   256
177
   256
178
     2
271
     2
272
     3
274
     4
283
     0
284
     8
288
     1
289
     0
340
55
345
5B
346
5B
347
5B
371
    -1
372
    -1
1001
ACAD_DSTYLE_DIMBREAK
1070
   391
1040
3.75
1001
ACAD_DSTYLE_DIMJAG
1070
   388
1040
1.5
  0
DIMSTYLE
105
11D8
330
A
100
AcDbSymbolTableRecord
100
AcDbDimStyleTableRecord
  2
AM_ISO$4
 70
     0
  4
"
 41
3.5
 42
1.0
 43
10.0
 44
1.0
 47
0.1
 48
0.1
 73
     0
 77
     1
 78
     8
 79
     2
 90
     1
140
3.5
141
0.0
143
0.0393701
146
0.71
147
1.5
176
   256
177
   256
178
     2
271
     2
272
     3
274
     4
283
     0
284
     8
288
     1
289
     0
340
55
345
5B
346
5B
347
5B
371
    -1
372
    -1
1001
ACAD_DSTYLE_DIMBREAK
1070
   391
1040
3.75
1001
ACAD_DSTYLE_DIMJAG
1070
   388
1040
1.5
  0
DIMSTYLE
105
11D9
330
A
100
AcDbSymbolTableRecord
100
AcDbDimStyleTableRecord
  2
AM_ISO$6
 70
     0
  4
"
 41
3.5
 42
1.0
 43
10.0
 44
1.0
 47
0.1
 48
0.1
 73
     0
 74
     0
 78
     8
 79
     2
 90
     1
140
3.5
141
0.0
143
0.0393701
146
0.71
147
1.5
172
     1
176
   256
177
   256
178
     2
271
     2
272
     3
274
     4
283
     0
284
     8
340
55
345
5B
346
5B
347
5B
371
    -1
372
    -1
1001
ACAD_DSTYLE_DIMBREAK
1070
   391
1040
3.75
1001
ACAD_DSTYLE_DIMJAG
1070
   388
1040
1.5
  0
DIMSTYLE
105
11DA
330
A
100
AcDbSymbolTableRecord
100
AcDbDimStyleTableRecord
  2
AM_ISO$7
 70
     0
  4
"
 41
3.5
 42
1.0
 43
10.0
 44
1.0
 47
0.1
 48
0.1
 73
     0
 74
     0
 77
     1
 78
     8
 79
     2
 90
     1
140
3.5
141
0.0
143
0.0393701
146
0.71
147
1.5
172
     1
176
   256
177
   256
178
     2
271
     2
272
     3
274
     4
283
     0
284
     8
340
55
345
5B
346
5B
347
5B
371
    -1
372
    -1
1001
ACAD_DSTYLE_DIMBREAK
1070
   391
1040
3.75
1001
ACAD_DSTYLE_DIMJAG
1070
   388
1040
1.5
  0
DIMSTYLE
105
11DB
330
A
100
AcDbSymbolTableRecord
100
AcDbDimStyleTableRecord
  2
AM_ISO$SF
 70
     0
  4
"
 41
3.5
 42
1.0
 43
10.0
 44
1.0
 47
0.1
 48
0.1
 73
     0
 74
     0
 75
     1
 76
     1
 77
     1
 78
     8
 79
     2
 90
     1
140
3.5
141
0.0
143
0.0393701
146
0.71
147
1.5
172
     1
176
   256
177
   256
178
     2
271
     2
272
     3
274
     4
283
     0
284
     8
340
55
345
5B
346
5B
347
5B
371
    -1
372
    -1
1001
ACAD_DSTYLE_DIMBREAK
1070
   391
1040
3.75
1001
ACAD_DSTYLE_DIMJAG
1070
   388
1040
1.5
  0
DIMSTYLE
105
11E0
330
A
100
AcDbSymbolTableRecord
100
AcDbDimStyleTableRecord
  2
AM_ISO$SH
 70
     0
  4
"
 41
3.5
 42
1.0
 43
10.0
 44
1.0
 47
0.1
 48
0.1
 73
     0
 74
     0
 75
     1
 76
     1
 77
     1
 78
     8
 79
     2
 90
     1
140
3.5
141
0.0
143
0.0393701
144
2.0
146
0.71
147
1.5
172
     1
173
     1
176
   256
177
   256
178
     2
271
     2
272
     3
274
     4
283
     0
284
     8
340
55
343
11DC
345
5B
346
5B
347
5B
371
    -1
372
    -1
1001
ACAD_DSTYLE_DIMBREAK
1070
   391
1040
3.75
1001
ACAD_DSTYLE_DIMJAG
1070
   388
1040
1.5
  0
ENDTAB
  0
TABLE
  2
BLOCK_RECORD
  5
1
330
0
100
AcDbSymbolTable
 70
    23
  0
BLOCK_RECORD
  5
6C
330
1
100
AcDbSymbolTableRecord
100
AcDbBlockTableRecord
  2
*Model_Space
340
6F
 70
     0
280
     1
281
     0
  0
BLOCK_RECORD
  5
68
330
1
100
AcDbSymbolTableRecord
100
AcDbBlockTableRecord
  2
*Paper_Space
340
6B
 70
     0
280
     1
281
     0
  0
BLOCK_RECORD
  5
70
330
1
100
AcDbSymbolTableRecord
100
AcDbBlockTableRecord
  2
*Paper_Space0
340
73
 70
     0
280
     1
281
     0
  0
BLOCK_RECORD
  5
D9
330
1
100
AcDbSymbolTableRecord
100
AcDbBlockTableRecord
  2
Filled-1
340
0
 70
     0
280
     1
281
     0
  0
BLOCK_RECORD
  5
EA
330
1
100
AcDbSymbolTableRecord
100
AcDbBlockTableRecord
  2
_Closed
340
0
 70
     0
280
     1
281
     0
  0
BLOCK_RECORD
  5
F1
330
1
100
AcDbSymbolTableRecord
100
AcDbBlockTableRecord
  2
DatumFilled45
340
0
 70
     0
280
     1
281
     0
  0
BLOCK_RECORD
  5
FD
330
1
100
AcDbSymbolTableRecord
100
AcDbBlockTableRecord
  2
Ramki Ramka domyślna
340
0
 70
     0
280
     1
281
     0
  0
BLOCK_RECORD
  5
145
330
1
100
AcDbSymbolTableRecord
100
AcDbBlockTableRecord
  2
Tabelki rysunkowe ISO
340
0
 70
     0
280
     1
281
     0
  0
BLOCK_RECORD
  5
6BA
330
1
100
AcDbSymbolTableRecord
100
AcDbBlockTableRecord
  2
*D10
340
0
 70
     0
280
     1
281
     0
  0
BLOCK_RECORD
  5
7A2
330
1
100
AcDbSymbolTableRecord
100
AcDbBlockTableRecord
  2
*D11
340
0
 70
     0
280
     1
281
     0
  0
BLOCK_RECORD
  5
884
330
1
100
AcDbSymbolTableRecord
100
AcDbBlockTableRecord
  2
*D12
340
0
 70
     0
280
     1
281
     0
  0
BLOCK_RECORD
  5
966
330
1
100
AcDbSymbolTableRecord
100
AcDbBlockTableRecord
  2
*D13
340
0
 70
     0
280
     1
281
     0
  0
BLOCK_RECORD
  5
11DC
330
1
100
AcDbSymbolTableRecord
100
AcDbBlockTableRecord
  2
GENAXEH
340
0
 70
     0
280
     1
281
     0
  0
ENDTAB
  0
ENDSEC
  0
SECTION
  2
BLOCKS
  0
BLOCK
  5
6D
330
6C
100
AcDbEntity
  8
0
100
AcDbBlockBegin
  2
*Model_Space
 70
     0
 10
0.0
 20
0.0
 30
0.0
  3
*Model_Space
  1

  0
ENDBLK
  5
6E
330
6C
100
AcDbEntity
  8
0
100
AcDbBlockEnd
  0
BLOCK
  5
69
330
68
100
AcDbEntity
 67
     1
  8
0
100
AcDbBlockBegin
  2
*Paper_Space
 70
     0
 10
0.0
 20
0.0
 30
0.0
  3
*Paper_Space
  1

  0
ENDBLK
  5
6A
330
68
100
AcDbEntity
 67
     1
  8
0
100
AcDbBlockEnd
  0
BLOCK
  5
71
330
70
100
AcDbEntity
 67
     1
  8
0
100
AcDbBlockBegin
  2
*Paper_Space0
 70
     0
 10
0.0
 20
0.0
 30
0.0
  3
*Paper_Space0
  1

  0
ENDBLK
  5
72
330
70
100
AcDbEntity
 67
     1
  8
0
100
AcDbBlockEnd
  0
BLOCK
  5
DA
330
D9
100
AcDbEntity
  8
0
100
AcDbBlockBegin
  2
Filled-1
 70
     0
 10
0.0
 20
0.0
 30
0.0
  3
Filled-1
  1

  0
LINE
  5
DC
330
D9
100
AcDbEntity
  8
0
 62
     0
100
AcDbLine
 10
-1.0
 20
0.0
 30
0.0
 11
0.0
 21
0.0
 31
0.0
  0
POLYLINE
  5
DD
330
D9
100
AcDbEntity
  8
0
 62
     0
100
AcDb2dPolyline
 66
     1
 10
0.0
 20
0.0
 30
0.0
 70
   128
  0
VERTEX
  5
DE
330
DD
100
AcDbEntity
  8
0
 62
     0
100
AcDbVertex
100
AcDb2dVertex
 10
-1.0
 20
-0.1
 30
0.0
  0
VERTEX
  5
DF
330
DD
100
AcDbEntity
  8
0
 62
     0
100
AcDbVertex
100
AcDb2dVertex
 10
0.0
 20
0.0
 30
0.0
  0
VERTEX
  5
E1
330
DD
100
AcDbEntity
  8
0
 62
     0
100
AcDbVertex
100
AcDb2dVertex
 10
-1.0
 20
0.1
 30
0.0
  0
VERTEX
  5
E2
330
DD
100
AcDbEntity
  8
0
 62
     0
100
AcDbVertex
100
AcDb2dVertex
 10
-1.0
 20
-0.1
 30
0.0
  0
SEQEND
  5
E0
330
DD
100
AcDbEntity
  8
0
 62
     0
  0
SOLID
  5
E3
330
D9
100
AcDbEntity
  8
0
 62
     0
100
AcDbTrace
 10
-1.0
 20
-0.1
 30
0.0
 11
0.0
 21
0.0
 31
0.0
 12
-1.0
 22
0.1
 32
0.0
 13
-1.0
 23
-0.1
 33
0.0
  0
LINE
  5
E4
330
D9
100
AcDbEntity
  8
0
 62
     0
100
AcDbLine
 10
-1.0
 20
-0.1
 30
0.0
 11
0.0
 21
0.0
 31
0.0
  0
LINE
  5
E5
330
D9
100
AcDbEntity
  8
0
 62
     0
100
AcDbLine
 10
0.0
 20
0.0
 30
0.0
 11
-1.0
 21
0.1
 31
0.0
  0
LINE
  5
E6
330
D9
100
AcDbEntity
  8
0
 62
     0
100
AcDbLine
 10
-1.0
 20
0.1
 30
0.0
 11
-1.0
 21
-0.1
 31
0.0
  0
ENDBLK
  5
DB
330
D9
100
AcDbEntity
  8
0
100
AcDbBlockEnd
  0
BLOCK
  5
EF
330
EA
100
AcDbEntity
  8
0
100
AcDbBlockBegin
  2
_Closed
 70
     0
 10
0.0
 20
0.0
 30
0.0
  3
_Closed
  1

  0
LINE
  5
EB
330
EA
100
AcDbEntity
  8
0
  6
ByBlock
 62
     0
370
    -2
100
AcDbLine
 10
-1.0
 20
0.1666666666666666
 30
0.0
 11
0.0
 21
0.0
 31
0.0
  0
LINE
  5
EC
330
EA
100
AcDbEntity
  8
0
  6
ByBlock
 62
     0
370
    -2
100
AcDbLine
 10
0.0
 20
0.0
 30
0.0
 11
-1.0
 21
-0.1666666666666666
 31
0.0
  0
LINE
  5
ED
330
EA
100
AcDbEntity
  8
0
  6
ByBlock
 62
     0
370
    -2
100
AcDbLine
 10
-1.0
 20
0.1666666666666666
 30
0.0
 11
-1.0
 21
-0.1666666666666666
 31
0.0
  0
LINE
  5
EE
330
EA
100
AcDbEntity
  8
0
  6
ByBlock
 62
     0
370
    -2
100
AcDbLine
 10
0.0
 20
0.0
 30
0.0
 11
-1.0
 21
0.0
 31
0.0
  0
ENDBLK
  5
F0
330
EA
100
AcDbEntity
  8
0
100
AcDbBlockEnd
  0
BLOCK
  5
F2
330
F1
100
AcDbEntity
  8
0
100
AcDbBlockBegin
  2
DatumFilled45
 70
     0
 10
0.0
 20
0.0
 30
0.0
  3
DatumFilled45
  1

  0
POLYLINE
  5
F4
330
F1
100
AcDbEntity
  8
0
 62
     0
100
AcDb2dPolyline
 66
     1
 10
0.0
 20
0.0
 30
0.0
 70
   128
  0
VERTEX
  5
F5
330
F4
100
AcDbEntity
  8
0
 62
     0
100
AcDbVertex
100
AcDb2dVertex
 10
0.0
 20
1.0
 30
0.0
  0
VERTEX
  5
F6
330
F4
100
AcDbEntity
  8
0
 62
     0
100
AcDbVertex
100
AcDb2dVertex
 10
0.0
 20
-1.0
 30
0.0
  0
VERTEX
  5
F8
330
F4
100
AcDbEntity
  8
0
 62
     0
100
AcDbVertex
100
AcDb2dVertex
 10
-1.0
 20
0.0
 30
0.0
  0
VERTEX
  5
F9
330
F4
100
AcDbEntity
  8
0
 62
     0
100
AcDbVertex
100
AcDb2dVertex
 10
0.0
 20
1.0
 30
0.0
  0
SEQEND
  5
F7
330
F4
100
AcDbEntity
  8
0
 62
     0
  0
SOLID
  5
FA
330
F1
100
AcDbEntity
  8
0
 62
     0
100
AcDbTrace
 10
0.0
 20
1.0
 30
0.0
 11
0.0
 21
-1.0
 31
0.0
 12
-1.0
 22
0.0
 32
0.0
 13
0.0
 23
1.0
 33
0.0
  0
ENDBLK
  5
F3
330
F1
100
AcDbEntity
  8
0
100
AcDbBlockEnd
  0
BLOCK
  5
FE
330
FD
100
AcDbEntity
  8
0
100
AcDbBlockBegin
  2
Ramki Ramka domyślna
 70
     0
 10
0.0
 20
0.0
 30
0.0
  3
Ramki Ramka domyślna
  1

  0
POLYLINE
  5
100
330
FD
100
AcDbEntity
  8
Obramowanie (ISO)
100
AcDb2dPolyline
 66
     1
 10
0.0
 20
0.0
 30
0.0
 70
   128
  0
VERTEX
  5
101
330
100
100
AcDbEntity
  8
Obramowanie (ISO)
100
AcDbVertex
100
AcDb2dVertex
 10
10.0
 20
10.0
 30
0.0
  0
VERTEX
  5
102
330
100
100
AcDbEntity
  8
Obramowanie (ISO)
100
AcDbVertex
100
AcDb2dVertex
 10
10.0
 20
287.0000076293946
 30
0.0
  0
VERTEX
  5
104
330
100
100
AcDbEntity
  8
Obramowanie (ISO)
100
AcDbVertex
100
AcDb2dVertex
 10
410.0
 20
287.0000076293946
 30
0.0
  0
VERTEX
  5
105
330
100
100
AcDbEntity
  8
Obramowanie (ISO)
100
AcDbVertex
100
AcDb2dVertex
 10
410.0
 20
10.0
 30
0.0
  0
VERTEX
  5
106
330
100
100
AcDbEntity
  8
Obramowanie (ISO)
100
AcDbVertex
100
AcDb2dVertex
 10
10.0
 20
10.0
 30
0.0
  0
SEQEND
  5
103
330
100
100
AcDbEntity
  8
Obramowanie (ISO)
  0
POLYLINE
  5
107
330
FD
100
AcDbEntity
  8
Obramowanie (ISO)
100
AcDb2dPolyline
 66
     1
 10
0.0
 20
0.0
 30
0.0
 70
   128
  0
VERTEX
  5
108
330
107
100
AcDbEntity
  8
Obramowanie (ISO)
100
AcDbVertex
100
AcDb2dVertex
 10
210.0
 20
0.0
 30
0.0
  0
VERTEX
  5
109
330
107
100
AcDbEntity
  8
Obramowanie (ISO)
100
AcDbVertex
100
AcDb2dVertex
 10
210.0
 20
10.0
 30
0.0
  0
VERTEX
  5
10B
330
107
100
AcDbEntity
  8
Obramowanie (ISO)
100
AcDbVertex
100
AcDb2dVertex
 10
207.1132469177246
 20
5.0
 30
0.0
  0
VERTEX
  5
10C
330
107
100
AcDbEntity
  8
Obramowanie (ISO)
100
AcDbVertex
100
AcDb2dVertex
 10
212.8867530822754
 20
5.0
 30
0.0
  0
VERTEX
  5
10D
330
107
100
AcDbEntity
  8
Obramowanie (ISO)
100
AcDbVertex
100
AcDb2dVertex
 10
210.0
 20
10.0
 30
0.0
  0
SEQEND
  5
10A
330
107
100
AcDbEntity
  8
Obramowanie (ISO)
  0
POLYLINE
  5
10E
330
FD
100
AcDbEntity
  8
Obramowanie (ISO)
100
AcDb2dPolyline
 66
     1
 10
0.0
 20
0.0
 30
0.0
 70
   128
  0
VERTEX
  5
10F
330
10E
100
AcDbEntity
  8
Obramowanie (ISO)
100
AcDbVertex
100
AcDb2dVertex
 10
210.0
 20
297.0000076293946
 30
0.0
  0
VERTEX
  5
110
330
10E
100
AcDbEntity
  8
Obramowanie (ISO)
100
AcDbVertex
100
AcDb2dVertex
 10
210.0
 20
287.0000076293946
 30
0.0
  0
VERTEX
  5
112
330
10E
100
AcDbEntity
  8
Obramowanie (ISO)
100
AcDbVertex
100
AcDb2dVertex
 10
207.1132469177246
 20
292.0000076293945
 30
0.0
  0
VERTEX
  5
113
330
10E
100
AcDbEntity
  8
Obramowanie (ISO)
100
AcDbVertex
100
AcDb2dVertex
 10
212.8867530822754
 20
292.0000076293945
 30
0.0
  0
VERTEX
  5
114
330
10E
100
AcDbEntity
  8
Obramowanie (ISO)
100
AcDbVertex
100
AcDb2dVertex
 10
210.0
 20
287.0000076293946
 30
0.0
  0
SEQEND
  5
111
330
10E
100
AcDbEntity
  8
Obramowanie (ISO)
  0
POLYLINE
  5
115
330
FD
100
AcDbEntity
  8
Obramowanie (ISO)
100
AcDb2dPolyline
 66
     1
 10
0.0
 20
0.0
 30
0.0
 70
   128
  0
VERTEX
  5
116
330
115
100
AcDbEntity
  8
Obramowanie (ISO)
100
AcDbVertex
100
AcDb2dVertex
 10
0.0
 20
148.5000038146973
 30
0.0
  0
VERTEX
  5
117
330
115
100
AcDbEntity
  8
Obramowanie (ISO)
100
AcDbVertex
100
AcDb2dVertex
 10
10.0
 20
148.5000038146973
 30
0.0
  0
VERTEX
  5
119
330
115
100
AcDbEntity
  8
Obramowanie (ISO)
100
AcDbVertex
100
AcDb2dVertex
 10
5.0
 20
151.3867473602295
 30
0.0
  0
VERTEX
  5
11A
330
115
100
AcDbEntity
  8
Obramowanie (ISO)
100
AcDbVertex
100
AcDb2dVertex
 10
5.0
 20
145.6132507324219
 30
0.0
  0
VERTEX
  5
11B
330
115
100
AcDbEntity
  8
Obramowanie (ISO)
100
AcDbVertex
100
AcDb2dVertex
 10
10.0
 20
148.5000038146973
 30
0.0
  0
SEQEND
  5
118
330
115
100
AcDbEntity
  8
Obramowanie (ISO)
  0
POLYLINE
  5
11C
330
FD
100
AcDbEntity
  8
Obramowanie (ISO)
100
AcDb2dPolyline
 66
     1
 10
0.0
 20
0.0
 30
0.0
 70
   128
  0
VERTEX
  5
11D
330
11C
100
AcDbEntity
  8
Obramowanie (ISO)
100
AcDbVertex
100
AcDb2dVertex
 10
420.0
 20
148.5000038146973
 30
0.0
  0
VERTEX
  5
11E
330
11C
100
AcDbEntity
  8
Obramowanie (ISO)
100
AcDbVertex
100
AcDb2dVertex
 10
410.0
 20
148.5000038146973
 30
0.0
  0
VERTEX
  5
120
330
11C
100
AcDbEntity
  8
Obramowanie (ISO)
100
AcDbVertex
100
AcDb2dVertex
 10
415.0
 20
151.3867473602295
 30
0.0
  0
VERTEX
  5
121
330
11C
100
AcDbEntity
  8
Obramowanie (ISO)
100
AcDbVertex
100
AcDb2dVertex
 10
415.0
 20
145.6132507324219
 30
0.0
  0
VERTEX
  5
122
330
11C
100
AcDbEntity
  8
Obramowanie (ISO)
100
AcDbVertex
100
AcDb2dVertex
 10
410.0
 20
148.5000038146973
 30
0.0
  0
SEQEND
  5
11F
330
11C
100
AcDbEntity
  8
Obramowanie (ISO)
  0
LINE
  5
123
330
FD
100
AcDbEntity
  8
Obramowanie (ISO)
100
AcDbLine
 10
70.0
 20
10.0
 30
0.0
 11
70.0
 21
7.099999785423278
 31
0.0
  0
LINE
  5
124
330
FD
100
AcDbEntity
  8
Obramowanie (ISO)
100
AcDbLine
 10
70.0
 20
287.0000076293946
 30
0.0
 11
70.0
 21
289.8999977111817
 31
0.0
  0
LINE
  5
125
330
FD
100
AcDbEntity
  8
Obramowanie (ISO)
100
AcDbLine
 10
140.0
 20
10.0
 30
0.0
 11
140.0
 21
7.099999785423278
 31
0.0
  0
LINE
  5
126
330
FD
100
AcDbEntity
  8
Obramowanie (ISO)
100
AcDbLine
 10
140.0
 20
287.0000076293946
 30
0.0
 11
140.0
 21
289.8999977111817
 31
0.0
  0
LINE
  5
127
330
FD
100
AcDbEntity
  8
Obramowanie (ISO)
100
AcDbLine
 10
280.0
 20
10.0
 30
0.0
 11
280.0
 21
7.099999785423278
 31
0.0
  0
LINE
  5
128
330
FD
100
AcDbEntity
  8
Obramowanie (ISO)
100
AcDbLine
 10
280.0
 20
287.0000076293946
 30
0.0
 11
280.0
 21
289.8999977111817
 31
0.0
  0
LINE
  5
129
330
FD
100
AcDbEntity
  8
Obramowanie (ISO)
100
AcDbLine
 10
350.0
 20
10.0
 30
0.0
 11
350.0
 21
7.099999785423278
 31
0.0
  0
LINE
  5
12A
330
FD
100
AcDbEntity
  8
Obramowanie (ISO)
100
AcDbLine
 10
350.0
 20
287.0000076293946
 30
0.0
 11
350.0
 21
289.8999977111817
 31
0.0
  0
MTEXT
  5
12B
330
FD
100
AcDbEntity
  8
Obramowanie (ISO)
100
AcDbMText
 10
384.4359944669735
 20
287.4
 30
0.0
 40
2.5
 41
0.0
 46
0.0
 71
     7
 72
     1
  1
1
  7
Tekst notatki (ISO)
 73
     1
 44
1.0
  0
MTEXT
  5
12D
330
FD
100
AcDbEntity
  8
Obramowanie (ISO)
100
AcDbMText
 10
384.4359944669735
 20
7.099999999999999
 30
0.0
 40
2.5
 41
0.0
 46
0.0
 71
     7
 72
     1
  1
1
  7
Tekst notatki (ISO)
 73
     1
 44
1.0
  0
MTEXT
  5
12E
330
FD
100
AcDbEntity
  8
Obramowanie (ISO)
100
AcDbMText
 10
314.2419939703322
 20
287.4
 30
0.0
 40
2.5
 41
0.0
 46
0.0
 71
     7
 72
     1
  1
2
  7
Tekst notatki (ISO)
 73
     1
 44
1.0
  0
MTEXT
  5
12F
330
FD
100
AcDbEntity
  8
Obramowanie (ISO)
100
AcDbMText
 10
314.2419939703322
 20
7.099999999999999
 30
0.0
 40
2.5
 41
0.0
 46
0.0
 71
     7
 72
     1
  1
2
  7
Tekst notatki (ISO)
 73
     1
 44
1.0
  0
MTEXT
  5
130
330
FD
100
AcDbEntity
  8
Obramowanie (ISO)
100
AcDbMText
 10
244.2219939191321
 20
287.3473257688805
 30
0.0
 40
2.5
 41
0.0
 46
0.0
 71
     7
 72
     1
  1
3
  7
Tekst notatki (ISO)
 73
     1
 44
1.0
  0
MTEXT
  5
131
330
FD
100
AcDbEntity
  8
Obramowanie (ISO)
100
AcDbMText
 10
244.2219939191321
 20
7.047325768880545
 30
0.0
 40
2.5
 41
0.0
 46
0.0
 71
     7
 72
     1
  1
3
  7
Tekst notatki (ISO)
 73
     1
 44
1.0
  0
MTEXT
  5
132
330
FD
100
AcDbEntity
  8
Obramowanie (ISO)
100
AcDbMText
 10
174.1279936784914
 20
287.4
 30
0.0
 40
2.5
 41
0.0
 46
0.0
 71
     7
 72
     1
  1
4
  7
Tekst notatki (ISO)
 73
     1
 44
1.0
  0
MTEXT
  5
133
330
FD
100
AcDbEntity
  8
Obramowanie (ISO)
100
AcDbMText
 10
174.1279936784914
 20
7.099999999999999
 30
0.0
 40
2.5
 41
0.0
 46
0.0
 71
     7
 72
     1
  1
4
  7
Tekst notatki (ISO)
 73
     1
 44
1.0
  0
MTEXT
  5
134
330
FD
100
AcDbEntity
  8
Obramowanie (ISO)
100
AcDbMText
 10
104.2679940368923
 20
287.3473257688805
 30
0.0
 40
2.5
 41
0.0
 46
0.0
 71
     7
 72
     1
  1
5
  7
Tekst notatki (ISO)
 73
     1
 44
1.0
  0
MTEXT
  5
135
330
FD
100
AcDbEntity
  8
Obramowanie (ISO)
100
AcDbMText
 10
104.2679940368923
 20
7.047325768880545
 30
0.0
 40
2.5
 41
0.0
 46
0.0
 71
     7
 72
     1
  1
5
  7
Tekst notatki (ISO)
 73
     1
 44
1.0
  0
MTEXT
  5
136
330
FD
100
AcDbEntity
  8
Obramowanie (ISO)
100
AcDbMText
 10
34.20199386793194
 20
287.3473257688805
 30
0.0
 40
2.5
 41
0.0
 46
0.0
 71
     7
 72
     1
  1
6
  7
Tekst notatki (ISO)
 73
     1
 44
1.0
  0
MTEXT
  5
137
330
FD
100
AcDbEntity
  8
Obramowanie (ISO)
100
AcDbMText
 10
34.20199386793194
 20
7.047325768880545
 30
0.0
 40
2.5
 41
0.0
 46
0.0
 71
     7
 72
     1
  1
6
  7
Tekst notatki (ISO)
 73
     1
 44
1.0
  0
LINE
  5
138
330
FD
100
AcDbEntity
  8
Obramowanie (ISO)
100
AcDbLine
 10
10.0
 20
74.25000190734863
 30
0.0
 11
7.099999785423278
 21
74.25000190734863
 31
0.0
  0
LINE
  5
139
330
FD
100
AcDbEntity
  8
Obramowanie (ISO)
100
AcDbLine
 10
410.0
 20
74.25000190734863
 30
0.0
 11
412.9000091552734
 21
74.25000190734863
 31
0.0
  0
LINE
  5
13A
330
FD
100
AcDbEntity
  8
Obramowanie (ISO)
100
AcDbLine
 10
10.0
 20
222.7499961853027
 30
0.0
 11
7.099999785423278
 21
222.7499961853027
 31
0.0
  0
LINE
  5
13B
330
FD
100
AcDbEntity
  8
Obramowanie (ISO)
100
AcDbLine
 10
410.0
 20
222.7499961853027
 30
0.0
 11
412.9000091552734
 21
222.7499961853027
 31
0.0
  0
MTEXT
  5
13C
330
FD
100
AcDbEntity
  8
Obramowanie (ISO)
100
AcDbMText
 10
7.286593166399208
 20
35.875
 30
0.0
 40
2.5
 41
0.0
 46
0.0
 71
     7
 72
     1
  1
A
  7
Tekst notatki (ISO)
 73
     1
 44
1.0
  0
MTEXT
  5
13D
330
FD
100
AcDbEntity
  8
Obramowanie (ISO)
100
AcDbMText
 10
410.5865931663991
 20
35.875
 30
0.0
 40
2.5
 41
0.0
 46
0.0
 71
     7
 72
     1
  1
A
  7
Tekst notatki (ISO)
 73
     1
 44
1.0
  0
MTEXT
  5
13E
330
FD
100
AcDbEntity
  8
Obramowanie (ISO)
100
AcDbMText
 10
7.587034677710874
 20
110.125
 30
0.0
 40
2.5
 41
0.0
 46
0.0
 71
     7
 72
     1
  1
B
  7
Tekst notatki (ISO)
 73
     1
 44
1.0
  0
MTEXT
  5
13F
330
FD
100
AcDbEntity
  8
Obramowanie (ISO)
100
AcDbMText
 10
410.8870346777108
 20
110.125
 30
0.0
 40
2.5
 41
0.0
 46
0.0
 71
     7
 72
     1
  1
B
  7
Tekst notatki (ISO)
 73
     1
 44
1.0
  0
MTEXT
  5
140
330
FD
100
AcDbEntity
  8
Obramowanie (ISO)
100
AcDbMText
 10
7.427787979511982
 20
184.3304294999689
 30
0.0
 40
2.5
 41
0.0
 46
0.0
 71
     7
 72
     1
  1
C
  7
Tekst notatki (ISO)
 73
     1
 44
1.0
  0
MTEXT
  5
141
330
FD
100
AcDbEntity
  8
Obramowanie (ISO)
100
AcDbMText
 10
410.7277879795119
 20
184.3304294999689
 30
0.0
 40
2.5
 41
0.0
 46
0.0
 71
     7
 72
     1
  1
C
  7
Tekst notatki (ISO)
 73
     1
 44
1.0
  0
MTEXT
  5
142
330
FD
100
AcDbEntity
  8
Obramowanie (ISO)
100
AcDbMText
 10
7.434076865759236
 20
258.625
 30
0.0
 40
2.5
 41
0.0
 46
0.0
 71
     7
 72
     1
  1
D
  7
Tekst notatki (ISO)
 73
     1
 44
1.0
  0
MTEXT
  5
143
330
FD
100
AcDbEntity
  8
Obramowanie (ISO)
100
AcDbMText
 10
410.7340768657592
 20
258.625
 30
0.0
 40
2.5
 41
0.0
 46
0.0
 71
     7
 72
     1
  1
D
  7
Tekst notatki (ISO)
 73
     1
 44
1.0
  0
ENDBLK
  5
FF
330
FD
100
AcDbEntity
  8
0
100
AcDbBlockEnd
  0
BLOCK
  5
146
330
145
100
AcDbEntity
  8
0
100
AcDbBlockBegin
  2
Tabelki rysunkowe ISO
 70
     2
 10
0.0
 20
0.0
 30
0.0
  3
Tabelki rysunkowe ISO
  1

  0
LINE
  5
148
330
145
100
AcDbEntity
  8
Tytuł (ISO)
100
AcDbLine
 10
100.0713910852681
 20
99.99999999999918
 30
0.0
 11
270.0713910852682
 21
99.99999999999916
 31
0.0
  0
LINE
  5
149
330
145
100
AcDbEntity
  8
Tytuł (ISO)
100
AcDbLine
 10
270.0713910852682
 20
99.99999999999916
 30
0.0
 11
270.0713910852682
 21
129.9999999999993
 31
0.0
  0
LINE
  5
14A
330
145
100
AcDbEntity
  8
Tytuł (ISO)
100
AcDbLine
 10
270.0713910852682
 20
129.9999999999993
 30
0.0
 11
100.0713910852681
 21
129.9999999999991
 31
0.0
  0
LINE
  5
14B
330
145
100
AcDbEntity
  8
Tytuł (ISO)
100
AcDbLine
 10
100.0713910852681
 20
129.9999999999991
 30
0.0
 11
100.0713910852681
 21
99.99999999999918
 31
0.0
  0
LINE
  5
14C
330
145
100
AcDbEntity
  8
Tytuł (ISO)
100
AcDbLine
 10
100.0713910852681
 20
120.0
 30
0.0
 11
270.0713910852682
 21
120.0
 31
0.0
  0
LINE
  5
14D
330
145
100
AcDbEntity
  8
Tytuł (ISO)
100
AcDbLine
 10
132.0713910852681
 20
119.9999999999991
 30
0.0
 11
132.0713910852681
 21
129.9999999999991
 31
0.0
  0
LINE
  5
14E
330
145
100
AcDbEntity
  8
Tytuł (ISO)
100
AcDbLine
 10
157.0713910852681
 20
119.9999999999991
 30
0.0
 11
157.0713910852681
 21
129.9999999999991
 31
0.0
  0
LINE
  5
14F
330
145
100
AcDbEntity
  8
Tytuł (ISO)
100
AcDbLine
 10
175.0713910852681
 20
120.0
 30
0.0
 11
175.0713910852681
 21
100.0
 31
0.0
  0
LINE
  5
150
330
145
100
AcDbEntity
  8
Tytuł (ISO)
100
AcDbLine
 10
197.0713910852682
 20
119.9999999999992
 30
0.0
 11
197.0713910852682
 21
129.9999999999992
 31
0.0
  0
LINE
  5
151
330
145
100
AcDbEntity
  8
Tytuł (ISO)
100
AcDbLine
 10
220.0713910852682
 20
119.9999999999992
 30
0.0
 11
220.0713910852682
 21
129.9999999999992
 31
0.0
  0
LINE
  5
152
330
145
100
AcDbEntity
  8
Tytuł (ISO)
100
AcDbLine
 10
270.0713910852682
 20
109.9999999999992
 30
0.0
 11
175.0713910852681
 21
110.0
 31
0.0
  0
LINE
  5
153
330
145
100
AcDbEntity
  8
Tytuł (ISO)
100
AcDbLine
 10
235.0713910852681
 20
100.0
 30
0.0
 11
235.0713910852681
 21
110.0
 31
0.0
  0
LINE
  5
154
330
145
100
AcDbEntity
  8
Tytuł (ISO)
100
AcDbLine
 10
250.0713910852681
 20
100.0
 30
0.0
 11
250.0713910852681
 21
110.0
 31
0.0
  0
LINE
  5
155
330
145
100
AcDbEntity
  8
Tytuł (ISO)
100
AcDbLine
 10
250.0713910852682
 20
119.9999999999993
 30
0.0
 11
250.0713910852682
 21
129.9999999999992
 31
0.0
  0
TEXT
  5
157
330
145
100
AcDbEntity
  8
Tytuł (ISO)
100
AcDbText
 10
101.0713910852681
 20
126.9999999701967
 30
0.0
 40
2.000000029802322
  1
Zaprojektowany przez
  7
Styl tekstu41
 11
101.0713910852681
 21
128.999999999999
 31
0.0
100
AcDbText
 73
     3
  0
TEXT
  5
159
330
145
100
AcDbEntity
  8
Tytuł (ISO)
100
AcDbText
 10
133.0713910852681
 20
126.9999999701968
 30
0.0
 40
2.000000029802322
  1
Kreślony przez
  7
Styl tekstu41
 11
133.0713910852681
 21
128.9999999999991
 31
0.0
100
AcDbText
 73
     3
  0
TEXT
  5
15A
330
145
100
AcDbEntity
  8
Tytuł (ISO)
100
AcDbText
 10
158.0713910852681
 20
126.9999999701968
 30
0.0
 40
2.000000029802322
  1
Zatwierdzony przez
  7
Styl tekstu41
 11
158.0713910852681
 21
128.9999999999991
 31
0.0
100
AcDbText
 73
     3
  0
TEXT
  5
15B
330
145
100
AcDbEntity
  8
Tytuł (ISO)
100
AcDbText
 10
221.0713910852682
 20
126.9999999701977
 30
0.0
 40
2.000000029802322
  1
Data
  7
Styl tekstu41
 11
221.0713910852682
 21
129.0
 31
0.0
100
AcDbText
 73
     3
  0
TEXT
  5
15C
330
145
100
AcDbEntity
  8
Tytuł (ISO)
100
AcDbText
 10
255.9251519986328
 20
102.2499999999996
 30
0.0
 40
2.5
  1
1 / 1 
  7
Tekst notatki (ISO)
 72
     1
 11
260.0713910852681
 21
103.4999999999996
 31
0.0
100
AcDbText
 73
     2
  0
TEXT
  5
15E
330
145
100
AcDbEntity
  8
Tytuł (ISO)
100
AcDbText
 10
238.2745307806752
 20
107.3514493703834
 30
0.0
 40
1.648550629615783
  1
Wydanie
  7
Styl tekstu45
 72
     1
 11
242.5713910852682
 21
108.9999999999992
 31
0.0
100
AcDbText
 73
     3
  0
TEXT
  5
15F
330
145
100
AcDbEntity
  8
Tytuł (ISO)
100
AcDbText
 10
256.7820398961556
 20
107.3514493703834
 30
0.0
 40
1.648550629615783
  1
Arkusz
  7
Styl tekstu45
 72
     1
 11
260.0713910852681
 21
108.9999999999992
 31
0.0
100
AcDbText
 73
     3
  0
TEXT
  5
160
330
145
100
AcDbEntity
  8
Tytuł (ISO)
100
AcDbText
 10
191.3947773448403
 20
127.3514493703834
 30
0.0
 40
1.648550629615783
  1
Data
  7
Styl tekstu45
 72
     2
 11
196.0713910852681
 21
128.9999999999992
 31
0.0
100
AcDbText
 73
     3
  0
ATTDEF
  5
161
102
{ACAD_XDICTIONARY
360
FAB
102
}
330
145
100
AcDbEntity
  8
Tytuł (ISO)
100
AcDbText
 10
194.9437886675381
 20
113.6257555406313
 30
0.0
 40
2.5
  1
Ściana wspinaczkowa - betonowanie
  7
Tekst notatki (ISO)
100
AcDbAttributeDefinition
  3
TYTUŁ
  2
TYTUŁ_001
 70
     0
280
     0
  0
ATTDEF
  5
163
102
{ACAD_XDICTIONARY
360
FAE
102
}
330
145
100
AcDbEntity
  8
Tytuł (ISO)
100
AcDbText
 10
175.9471466258994
 20
103.938885157824
 30
0.0
 40
2.5
  1
82.004 - ściana wspinaczkowa - IM
  7
Tekst notatki (ISO)
100
AcDbAttributeDefinition
  3
NUMER CZĘŚCI
  2
NUMER_CZĘŚCI_001
 70
     0
280
     0
  0
ATTDEF
  5
164
102
{ACAD_XDICTIONARY
360
FB1
102
}
330
145
100
AcDbEntity
  8
Tytuł (ISO)
100
AcDbText
 10
137.4145052978323
 20
108.7081637900171
 30
0.0
 40
2.5
  1

  7
Tekst notatki (ISO)
 72
     1
 11
137.4145052978323
 21
109.9581637900171
 31
0.0
100
AcDbAttributeDefinition
  3
FIRMA
  2
FIRMA
 70
     0
 74
     2
280
     0
  0
ATTDEF
  5
166
102
{ACAD_XDICTIONARY
360
FB4
102
}
330
145
100
AcDbEntity
  8
Tytuł (ISO)
100
AcDbText
 10
100.8193349558363
 20
121.0517466225977
 30
0.0
 40
2.485507130622863
  1
Muller
  7
Styl tekstu44
100
AcDbAttributeDefinition
  3
AUTOR
  2
AUTOR_001
 70
     0
280
     0
  0
ATTDEF
  5
167
102
{ACAD_XDICTIONARY
360
FB7
102
}
330
145
100
AcDbEntity
  8
Tytuł (ISO)
100
AcDbText
 10
132.8193349558362
 20
121.7060910115864
 30
0.0
 40
2.485507130622863
  1
Pro-Design
  7
Styl tekstu44
100
AcDbAttributeDefinition
  3
SPRAWDZIŁ
  2
SPRAWDZIŁ_001
 70
     0
280
     0
  0
ATTDEF
  5
168
102
{ACAD_XDICTIONARY
360
FBA
102
}
330
145
100
AcDbEntity
  8
Tytuł (ISO)
100
AcDbText
 10
157.8193349558363
 20
121.0517466225986
 30
0.0
 40
2.485507130622863
  1
Muller
  7
Styl tekstu44
100
AcDbAttributeDefinition
  3
ZATWIERDZENIE KONSTRUKCJI
  2
ZATWIERDZENIE_KONSTRUKCJI_001
 70
     0
280
     0
  0
ATTDEF
  5
169
102
{ACAD_XDICTIONARY
360
FBD
102
}
330
145
100
AcDbEntity
  8
Tytuł (ISO)
100
AcDbText
 10
196.0713910852681
 20
121.2854410472366
 30
0.0
 40
2.485507130622863
  1

  7
Styl tekstu44
 72
     2
 11
196.0713910852681
 21
120.9999999999991
 31
0.0
100
AcDbAttributeDefinition
  3
DATA ZATWIERDZENIA
  2
DATA_ZATWIERDZENIA
 70
     0
 74
     1
280
     0
  0
ATTDEF
  5
16A
102
{ACAD_XDICTIONARY
360
FC0
102
}
330
145
100
AcDbEntity
  8
Tytuł (ISO)
100
AcDbText
 10
220.889443283228
 20
121.0517466225986
 30
0.0
 40
2.485507130622863
  1
2013-01-30
  7
Styl tekstu44
100
AcDbAttributeDefinition
  3
DATA UTWORZENIA
  2
DATA_UTWORZENIA_001
 70
     0
280
     0
  0
ATTDEF
  5
16B
102
{ACAD_XDICTIONARY
360
FC3
102
}
330
145
100
AcDbEntity
  8
Tytuł (ISO)
100
AcDbText
 10
240.7639699972897
 20
102.2508394895901
 30
0.0
 40
2.5
  1
01
  7
Tekst notatki (ISO)
100
AcDbAttributeDefinition
  3
NUMER WERSJI
  2
NUMER_WERSJI_001
 70
     0
280
     0
  0
ENDBLK
  5
147
330
145
100
AcDbEntity
  8
0
100
AcDbBlockEnd
  0
BLOCK
  5
6BB
330
6BA
100
AcDbEntity
  8
0
100
AcDbBlockBegin
  2
*D10
 70
     1
 10
0.0
 20
0.0
 30
0.0
  3
*D10
  1

  0
LINE
  5
1284
330
6BA
100
AcDbEntity
  8
Wymiar (ISO)
 62
     7
440
 16777216
100
AcDbLine
 10
4236.443104910289
 20
2330.241199438831
 30
0.0
 11
6087.03261818131
 21
2330.24119943883
 31
0.0
  0
LINE
  5
1285
330
6BA
100
AcDbEntity
  8
Wymiar (ISO)
 62
     7
440
 16777216
100
AcDbLine
 10
4236.443104910289
 20
5390.241199438832
 30
0.0
 11
6087.03261818131
 21
5390.241199438832
 31
0.0
  0
LINE
  5
1286
330
6BA
100
AcDbEntity
  8
Wymiar (ISO)
 62
     7
440
 16777216
100
AcDbLine
 10
5991.78261818131
 20
2405.24119943883
 30
0.0
 11
5991.78261818131
 21
5315.241199438831
 31
0.0
  0
SOLID
  5
1287
330
6BA
100
AcDbEntity
  8
Wymiar (ISO)
 62
     7
440
 16777216
100
AcDbTrace
 10
5979.28261818131
 20
2405.24119943883
 30
0.0
 11
6004.28261818131
 21
2405.24119943883
 31
0.0
 12
5991.78261818131
 22
2330.24119943883
 32
0.0
 13
5991.78261818131
 23
2330.24119943883
 33
0.0
  0
SOLID
  5
1288
330
6BA
100
AcDbEntity
  8
Wymiar (ISO)
 62
     7
440
 16777216
100
AcDbTrace
 10
5979.28261818131
 20
5315.241199438831
 30
0.0
 11
6004.28261818131
 21
5315.241199438831
 31
0.0
 12
5991.78261818131
 22
5390.241199438832
 32
0.0
 13
5991.78261818131
 23
5390.241199438832
 33
0.0
  0
MTEXT
  5
1289
330
6BA
100
AcDbEntity
  8
Wymiar (ISO)
 62
     7
440
 16777216
100
AcDbMText
 10
5859.550556394875
 20
3875.241199438831
 30
0.0
 40
105.0
 41
0.0
 46
0.0
 71
     2
 72
     1
  1
\A1;3060
  7
Tekst etykiety (ISO)
 11
0.0000000000000001
 21
1.0
 31
0.0
 73
     1
 44
1.0
  0
POINT
  5
128A
330
6BA
100
AcDbEntity
  8
Defpoints
 62
     0
440
 16777216
100
AcDbPoint
 10
4236.443104910289
 20
2330.241199438831
 30
0.0
  0
POINT
  5
128B
330
6BA
100
AcDbEntity
  8
Defpoints
 62
     0
440
 16777216
100
AcDbPoint
 10
4236.443104910289
 20
5390.241199438832
 30
0.0
  0
POINT
  5
128C
330
6BA
100
AcDbEntity
  8
Defpoints
 62
     0
440
 16777216
100
AcDbPoint
 10
5991.78261818131
 20
5390.241199438832
 30
0.0
  0
ENDBLK
  5
6BC
330
6BA
100
AcDbEntity
  8
0
100
AcDbBlockEnd
  0
BLOCK
  5
7A3
330
7A2
100
AcDbEntity
  8
0
100
AcDbBlockBegin
  2
*D11
 70
     1
 10
0.0
 20
0.0
 30
0.0
  3
*D11
  1

  0
LINE
  5
127B
330
7A2
100
AcDbEntity
  8
Wymiar (ISO)
 62
     7
440
 16777216
100
AcDbLine
 10
5736.443104910289
 20
3830.241199438832
 30
0.0
 11
5736.443104910289
 21
1972.904579406125
 31
0.0
  0
LINE
  5
127C
330
7A2
100
AcDbEntity
  8
Wymiar (ISO)
 62
     7
440
 16777216
100
AcDbLine
 10
1410.44310491029
 20
3830.241199438831
 30
0.0
 11
1410.44310491029
 21
1972.904579406125
 31
0.0
  0
LINE
  5
127D
330
7A2
100
AcDbEntity
  8
Wymiar (ISO)
 62
     7
440
 16777216
100
AcDbLine
 10
5661.44310491029
 20
2068.154579406126
 30
0.0
 11
1485.44310491029
 21
2068.154579406126
 31
0.0
  0
SOLID
  5
127E
330
7A2
100
AcDbEntity
  8
Wymiar (ISO)
 62
     7
440
 16777216
100
AcDbTrace
 10
5661.44310491029
 20
2080.654579406125
 30
0.0
 11
5661.44310491029
 21
2055.654579406125
 31
0.0
 12
5736.443104910289
 22
2068.154579406126
 32
0.0
 13
5736.443104910289
 23
2068.154579406126
 33
0.0
  0
SOLID
  5
127F
330
7A2
100
AcDbEntity
  8
Wymiar (ISO)
 62
     7
440
 16777216
100
AcDbTrace
 10
1485.44310491029
 20
2080.654579406125
 30
0.0
 11
1485.44310491029
 21
2055.654579406125
 31
0.0
 12
1410.44310491029
 22
2068.154579406126
 32
0.0
 13
1410.44310491029
 23
2068.154579406126
 33
0.0
  0
MTEXT
  5
1280
330
7A2
100
AcDbEntity
  8
Wymiar (ISO)
 62
     7
440
 16777216
100
AcDbMText
 10
3544.443104910291
 20
2200.386641192559
 30
0.0
 40
105.0
 41
0.0
 46
0.0
 71
     2
 72
     1
  1
\A1;4326
  7
Tekst etykiety (ISO)
 73
     1
 44
1.0
  0
POINT
  5
1281
330
7A2
100
AcDbEntity
  8
Defpoints
 62
     0
440
 16777216
100
AcDbPoint
 10
5736.443104910289
 20
3830.241199438832
 30
0.0
  0
POINT
  5
1282
330
7A2
100
AcDbEntity
  8
Defpoints
 62
     0
440
 16777216
100
AcDbPoint
 10
1410.44310491029
 20
3830.241199438831
 30
0.0
  0
POINT
  5
1283
330
7A2
100
AcDbEntity
  8
Defpoints
 62
     0
440
 16777216
100
AcDbPoint
 10
1410.44310491029
 20
2068.154579406126
 30
0.0
  0
ENDBLK
  5
7A4
330
7A2
100
AcDbEntity
  8
0
100
AcDbBlockEnd
  0
BLOCK
  5
885
330
884
100
AcDbEntity
  8
0
100
AcDbBlockBegin
  2
*D12
 70
     1
 10
0.0
 20
0.0
 30
0.0
  3
*D12
  1

  0
LINE
  5
1272
330
884
100
AcDbEntity
  8
Wymiar (ISO)
 62
     7
440
 16777216
100
AcDbLine
 10
2910.44310491029
 20
3860.241199438831
 30
0.0
 11
2910.44310491029
 21
3435.983605971511
 31
0.0
  0
LINE
  5
1273
330
884
100
AcDbEntity
  8
Wymiar (ISO)
 62
     7
440
 16777216
100
AcDbLine
 10
4236.443104910289
 20
3860.241199438831
 30
0.0
 11
4236.443104910289
 21
3435.983605971511
 31
0.0
  0
LINE
  5
1274
330
884
100
AcDbEntity
  8
Wymiar (ISO)
 62
     7
440
 16777216
100
AcDbLine
 10
2985.44310491029
 20
3531.233605971511
 30
0.0
 11
4161.443104910289
 21
3531.233605971511
 31
0.0
  0
SOLID
  5
1275
330
884
100
AcDbEntity
  8
Wymiar (ISO)
 62
     7
440
 16777216
100
AcDbTrace
 10
2985.44310491029
 20
3543.733605971512
 30
0.0
 11
2985.44310491029
 21
3518.733605971512
 31
0.0
 12
2910.44310491029
 22
3531.233605971511
 32
0.0
 13
2910.44310491029
 23
3531.233605971511
 33
0.0
  0
SOLID
  5
1276
330
884
100
AcDbEntity
  8
Wymiar (ISO)
 62
     7
440
 16777216
100
AcDbTrace
 10
4161.443104910289
 20
3543.733605971512
 30
0.0
 11
4161.443104910289
 21
3518.733605971512
 31
0.0
 12
4236.443104910289
 22
3531.233605971511
 32
0.0
 13
4236.443104910289
 23
3531.233605971511
 33
0.0
  0
MTEXT
  5
1277
330
884
100
AcDbEntity
  8
Wymiar (ISO)
 62
     7
440
 16777216
100
AcDbMText
 10
3602.343104910288
 20
3663.465667757945
 30
0.0
 40
105.0
 41
0.0
 46
0.0
 71
     2
 72
     1
  1
\A1;1326
  7
Tekst etykiety (ISO)
 73
     1
 44
1.0
  0
POINT
  5
1278
330
884
100
AcDbEntity
  8
Defpoints
 62
     0
440
 16777216
100
AcDbPoint
 10
2910.44310491029
 20
3860.241199438831
 30
0.0
  0
POINT
  5
1279
330
884
100
AcDbEntity
  8
Defpoints
 62
     0
440
 16777216
100
AcDbPoint
 10
4236.443104910289
 20
3860.241199438831
 30
0.0
  0
POINT
  5
127A
330
884
100
AcDbEntity
  8
Defpoints
 62
     0
440
 16777216
100
AcDbPoint
 10
4236.443104910289
 20
3531.233605971511
 30
0.0
  0
ENDBLK
  5
886
330
884
100
AcDbEntity
  8
0
100
AcDbBlockEnd
  0
BLOCK
  5
967
330
966
100
AcDbEntity
  8
0
100
AcDbBlockBegin
  2
*D13
 70
     1
 10
0.0
 20
0.0
 30
0.0
  3
*D13
  1

  0
LINE
  5
1267
330
966
100
AcDbEntity
  8
Wymiar (ISO)
 62
     7
440
 16777216
100
AcDbLine
 10
2940.44310491029
 20
3890.241199439059
 30
0.0
 11
2595.824241185399
 21
3890.241199439059
 31
0.0
  0
LINE
  5
1268
330
966
100
AcDbEntity
  8
Wymiar (ISO)
 62
     7
440
 16777216
100
AcDbLine
 10
2940.44310491029
 20
3830.241199439058
 30
0.0
 11
2595.824241185399
 21
3830.241199439058
 31
0.0
  0
LINE
  5
1269
330
966
100
AcDbEntity
  8
Wymiar (ISO)
 62
     7
440
 16777216
100
AcDbLine
 10
2691.074241185399
 20
3965.241199439058
 30
0.0
 11
2691.074241185399
 21
4040.241199439058
 31
0.0
  0
LINE
  5
126A
330
966
100
AcDbEntity
  8
Wymiar (ISO)
 62
     7
440
 16777216
100
AcDbLine
 10
2691.074241185399
 20
3755.241199439057
 30
0.0
 11
2691.074241185399
 21
3680.241199439058
 31
0.0
  0
LINE
  5
126B
330
966
100
AcDbEntity
  8
Wymiar (ISO)
 62
     7
440
 16777216
100
AcDbLine
 10
2691.074241185399
 20
3890.241199439059
 30
0.0
 11
2691.074241185399
 21
3830.241199439058
 31
0.0
  0
SOLID
  5
126C
330
966
100
AcDbEntity
  8
Wymiar (ISO)
 62
     7
440
 16777216
100
AcDbTrace
 10
2678.574241185399
 20
3965.241199439058
 30
0.0
 11
2703.574241185399
 21
3965.241199439058
 31
0.0
 12
2691.074241185399
 22
3890.241199439059
 32
0.0
 13
2691.074241185399
 23
3890.241199439059
 33
0.0
  0
SOLID
  5
126D
330
966
100
AcDbEntity
  8
Wymiar (ISO)
 62
     7
440
 16777216
100
AcDbTrace
 10
2678.574241185399
 20
3755.241199439057
 30
0.0
 11
2703.574241185399
 21
3755.241199439057
 31
0.0
 12
2691.074241185399
 22
3830.241199439058
 32
0.0
 13
2691.074241185399
 23
3830.241199439058
 33
0.0
  0
MTEXT
  5
126E
330
966
100
AcDbEntity
  8
Wymiar (ISO)
 62
     7
440
 16777216
100
AcDbMText
 10
2558.912696524552
 20
3860.241199439059
 30
0.0
 40
105.0
 41
0.0
 46
0.0
 71
     2
 72
     1
  1
\A1;60
  7
Tekst etykiety (ISO)
 11
0.0000000000000001
 21
1.0
 31
0.0
 73
     1
 44
1.0
  0
POINT
  5
126F
330
966
100
AcDbEntity
  8
Defpoints
 62
     0
440
 16777216
100
AcDbPoint
 10
2940.44310491029
 20
3890.241199439059
 30
0.0
  0
POINT
  5
1270
330
966
100
AcDbEntity
  8
Defpoints
 62
     0
440
 16777216
100
AcDbPoint
 10
2940.44310491029
 20
3830.241199439058
 30
0.0
  0
POINT
  5
1271
330
966
100
AcDbEntity
  8
Defpoints
 62
     0
440
 16777216
100
AcDbPoint
 10
2691.074241185399
 20
3830.241199439058
 30
0.0
  0
ENDBLK
  5
968
330
966
100
AcDbEntity
  8
0
100
AcDbBlockEnd
  0
BLOCK
  5
11DE
330
11DC
100
AcDbEntity
  8
0
100
AcDbBlockBegin
  2
GENAXEH
 70
     0
 10
0.0
 20
0.0
 30
0.0
  3
GENAXEH
  1

  0
LINE
  5
11DD
330
11DC
100
AcDbEntity
  8
0
100
AcDbLine
 10
-1.0
 20
0.0
 30
0.0
 11
1.0
 21
0.0
 31
0.0
  0
ENDBLK
  5
11DF
330
11DC
100
AcDbEntity
  8
0
100
AcDbBlockEnd
  0
ENDSEC
  0
SECTION
  2
ENTITIES
  0
ELLIPSE
  5
29A
330
6C
100
AcDbEntity
  8
Widoczne (ISO)
100
AcDbEllipse
 10
3329.909347774468
 20
3860.241199439285
 30
0.0
 11
-0.0000000000000289
 21
-30.00000000000001
 31
0.0
210
0.0
220
0.0
230
1.0
 40
0.8782917991049458
 41
3.141592653590159
 42
6.283185307179953
  0
ARC
  5
29B
330
6C
100
AcDbEntity
  8
Widoczne (ISO)
100
AcDbCircle
 10
2940.44310491029
 20
3860.241199438831
 30
0.0
 40
30.0
100
AcDbArc
 50
90.0
 51
270.0
  0
LINE
  5
29C
330
6C
100
AcDbEntity
  8
Widoczne (ISO)
100
AcDbLine
 10
3329.909347774468
 20
3890.241199439285
 30
0.0
 11
2940.44310491029
 21
3890.24119943883
 31
0.0
  0
LINE
  5
29D
330
6C
100
AcDbEntity
  8
Widoczne (ISO)
100
AcDbLine
 10
2940.44310491029
 20
3830.241199438831
 30
0.0
 11
3329.909347774469
 21
3830.241199439285
 31
0.0
  0
ELLIPSE
  5
29E
330
6C
100
AcDbEntity
  8
Widoczne (ISO)
100
AcDbEllipse
 10
3816.976862046111
 20
3860.241199439285
 30
0.0
 11
0.0000000000000252
 21
30.00000000000001
 31
0.0
210
0.0
220
0.0
230
1.0
 40
0.8782917991049457
 41
3.141592653589427
 42
6.283185307179221
  0
ARC
  5
29F
330
6C
100
AcDbEntity
  8
Widoczne (ISO)
100
AcDbCircle
 10
4206.443104910291
 20
3860.241199438831
 30
0.0
 40
30.0
100
AcDbArc
 50
270.0
 51
90.0
  0
LINE
  5
2A0
330
6C
100
AcDbEntity
  8
Widoczne (ISO)
100
AcDbLine
 10
3816.976862046111
 20
3830.241199439285
 30
0.0
 11
4206.443104910289
 21
3830.241199438831
 31
0.0
  0
LINE
  5
2A1
330
6C
100
AcDbEntity
  8
Widoczne (ISO)
100
AcDbLine
 10
4206.443104910289
 20
3890.241199438831
 30
0.0
 11
3816.976862046111
 21
3890.241199439285
 31
0.0
  0
LINE
  5
2A2
330
6C
100
AcDbEntity
  8
Widoczne (ISO)
100
AcDbLine
 10
3363.769733781333
 20
3862.741199439259
 30
0.0
 11
3374.573301089388
 21
3862.741199439254
 31
0.0
  0
LINE
  5
2A3
330
6C
100
AcDbEntity
  8
Widoczne wąskie (ISO)
100
AcDbLine
 10
3363.769733781333
 20
3857.741199439259
 30
0.0
 11
3363.769733781333
 21
3862.741199439259
 31
0.0
  0
LINE
  5
2A4
330
6C
100
AcDbEntity
  8
Widoczne (ISO)
100
AcDbLine
 10
3363.769733781333
 20
3862.741199439259
 30
0.0
 11
3359.804999632221
 21
3862.741199439259
 31
0.0
  0
LINE
  5
2A5
330
6C
100
AcDbEntity
  8
Widoczne (ISO)
100
AcDbLine
 10
3374.573301089388
 20
3857.741199439254
 30
0.0
 11
3374.573301089388
 21
3862.741199439254
 31
0.0
  0
LINE
  5
2A6
330
6C
100
AcDbEntity
  8
Widoczne wąskie (ISO)
100
AcDbLine
 10
3783.116476039247
 20
3862.74119943926
 30
0.0
 11
3783.116476039247
 21
3857.74119943926
 31
0.0
  0
LINE
  5
2A7
330
6C
100
AcDbEntity
  8
Widoczne (ISO)
100
AcDbLine
 10
3783.116476039246
 20
3862.74119943926
 30
0.0
 11
3772.312908731191
 21
3862.741199439255
 31
0.0
  0
LINE
  5
2A8
330
6C
100
AcDbEntity
  8
Widoczne (ISO)
100
AcDbLine
 10
3783.116476039247
 20
3862.74119943926
 30
0.0
 11
3787.081210188359
 21
3862.741199439261
 31
0.0
  0
LINE
  5
2A9
330
6C
100
AcDbEntity
  8
Widoczne (ISO)
100
AcDbLine
 10
3772.312908731191
 20
3862.741199439255
 30
0.0
 11
3772.312908731191
 21
3857.741199439254
 31
0.0
  0
ELLIPSE
  5
2AA
330
6C
100
AcDbEntity
  8
Widoczne (ISO)
100
AcDbEllipse
 10
3329.909347774468
 20
3860.241199439285
 30
0.0
 11
0.000000000000001
 21
30.00000000000001
 31
0.0
210
0.0
220
0.0
230
1.0
 40
0.8782917991049437
 41
0.000000000000366
 42
3.141592653590159
  0
ARC
  5
2AB
330
6C
100
AcDbEntity
  8
Widoczne (ISO)
100
AcDbCircle
 10
3329.909347774468
 20
3860.241199439285
 30
0.0
 40
30.00000000000001
100
AcDbArc
 50
270.0
 51
90.0
  0
ELLIPSE
  5
2AC
330
6C
100
AcDbEntity
  8
Widoczne (ISO)
100
AcDbEllipse
 10
3816.976862046111
 20
3860.241199439285
 30
0.0
 11
-0.0000000000001319
 21
-30.00000000000001
 31
0.0
210
0.0
220
0.0
230
1.0
 40
0.8782917991049437
 41
0.0
 42
3.141592653589434
  0
ARC
  5
2AD
330
6C
100
AcDbEntity
  8
Widoczne (ISO)
100
AcDbCircle
 10
3816.976862046111
 20
3860.241199439285
 30
0.0
 40
30.0
100
AcDbArc
 50
90.0
 51
270.0
  0
LINE
  5
2AE
330
6C
100
AcDbEntity
  8
Widoczne wąskie (ISO)
100
AcDbLine
 10
3788.520755495847
 20
3850.741199439275
 30
0.0
 11
3358.365454324732
 21
3850.741199439275
 31
0.0
  0
LINE
  5
2AF
330
6C
100
AcDbEntity
  8
Widoczne (ISO)
100
AcDbLine
 10
3357.181128061056
 20
3847.741199439275
 30
0.0
 11
3789.705081759523
 21
3847.741199439275
 31
0.0
  0
LINE
  5
2B0
330
6C
100
AcDbEntity
  8
Widoczne wąskie (ISO)
100
AcDbLine
 10
3359.400871980585
 20
3854.741199439276
 30
0.0
 11
3787.485337839995
 21
3854.741199439276
 31
0.0
  0
LINE
  5
2B1
330
6C
100
AcDbEntity
  8
Widoczne (ISO)
100
AcDbLine
 10
3787.081210188358
 20
3857.741199439275
 30
0.0
 11
3359.804999632221
 21
3857.741199439275
 31
0.0
  0
LINE
  5
2B2
330
6C
100
AcDbEntity
  8
Widoczne (ISO)
100
AcDbLine
 10
3782.312908731191
 20
3846.741199439254
 30
0.0
 11
3790.186005396874
 21
3846.741199439257
 31
0.0
  0
LINE
  5
2B3
330
6C
100
AcDbEntity
  8
Widoczne (ISO)
100
AcDbLine
 10
3782.312908731191
 20
3847.741199439254
 30
0.0
 11
3782.312908731191
 21
3846.741199439254
 31
0.0
  0
ARC
  5
2B4
330
6C
100
AcDbEntity
  8
Widoczne (ISO)
100
AcDbCircle
 10
3792.312908731191
 20
3857.241199439254
 30
0.0
 40
14.49999999999999
100
AcDbArc
 50
226.3971810272966
 51
271.16502216817
  0
LINE
  5
2B5
330
6C
100
AcDbEntity
  8
Widoczne (ISO)
100
AcDbLine
 10
3356.700204423705
 20
3846.741199439256
 30
0.0
 11
3364.573301089388
 21
3846.741199439254
 31
0.0
  0
LINE
  5
2B6
330
6C
100
AcDbEntity
  8
Widoczne (ISO)
100
AcDbLine
 10
3364.573301089388
 20
3847.741199439254
 30
0.0
 11
3364.573301089388
 21
3846.741199439254
 31
0.0
  0
ARC
  5
2B7
330
6C
100
AcDbEntity
  8
Widoczne (ISO)
100
AcDbCircle
 10
3354.573301089388
 20
3857.241199439254
 30
0.0
 40
14.49999999999999
100
AcDbArc
 50
268.83497783183
 51
313.6028189727034
  0
LINE
  5
2B8
330
6C
100
AcDbEntity
  8
Widoczne (ISO)
100
AcDbLine
 10
3792.976862046111
 20
3878.241199439258
 30
0.0
 11
3779.312908731191
 21
3878.241199439254
 31
0.0
  0
LINE
  5
2B9
330
6C
100
AcDbEntity
  8
Widoczne (ISO)
100
AcDbLine
 10
3783.116476039246
 20
3862.741199439259
 30
0.0
 11
3772.312908731191
 21
3862.741199439255
 31
0.0
  0
ARC
  5
2BA
330
6C
100
AcDbEntity
  8
Widoczne (ISO)
100
AcDbCircle
 10
3794.304694557399
 20
3862.140070356451
 30
0.0
 40
22.0
100
AcDbArc
 50
132.9566490409225
 51
178.4342524272051
  0
LINE
  5
2BB
330
6C
100
AcDbEntity
  8
Widoczne (ISO)
100
AcDbLine
 10
3367.573301089387
 20
3878.241199439254
 30
0.0
 11
3353.909347774467
 21
3878.241199439258
 31
0.0
  0
LINE
  5
2BC
330
6C
100
AcDbEntity
  8
Widoczne (ISO)
100
AcDbLine
 10
3374.573301089388
 20
3862.741199439255
 30
0.0
 11
3363.769733781333
 21
3862.741199439259
 31
0.0
  0
ARC
  5
2BD
330
6C
100
AcDbEntity
  8
Widoczne (ISO)
100
AcDbCircle
 10
3352.58151526318
 20
3862.140070356451
 30
0.0
 40
22.0
100
AcDbArc
 50
1.56574757279493
 51
47.04335095907855
  0
LINE
  5
2BE
330
6C
100
AcDbEntity
  8
Widoczne wąskie (ISO)
100
AcDbLine
 10
3779.652584772669
 20
3878.546483344069
 30
0.0
 11
3793.208888191277
 21
3878.546483344073
 31
0.0
  0
ARC
  5
2BF
330
6C
100
AcDbEntity
  8
Widoczne (ISO)
100
AcDbCircle
 10
3780.312908731191
 20
3877.795502472275
 30
0.0
 40
1.0
100
AcDbArc
 50
131.3245843901553
 51
153.5320608636203
  0
ARC
  5
2C0
330
6C
100
AcDbEntity
  8
Widoczne (ISO)
100
AcDbCircle
 10
3793.519387901637
 20
3862.775885036382
 30
0.0
 40
21.00000000000001
100
AcDbArc
 50
93.29353562611103
 51
131.3245843901554
  0
ARC
  5
2C1
330
6C
100
AcDbEntity
  8
Widoczne (ISO)
100
AcDbCircle
 10
3791.106429560745
 20
3862.775885036382
 30
0.0
 40
21.00000000000001
100
AcDbArc
 50
72.95555078230366
 51
86.70646437389043
  0
LINE
  5
2C2
330
6C
100
AcDbEntity
  8
Widoczne wąskie (ISO)
100
AcDbLine
 10
3353.677321629302
 20
3878.546483344073
 30
0.0
 11
3367.23362504791
 21
3878.546483344069
 31
0.0
  0
ARC
  5
2C3
330
6C
100
AcDbEntity
  8
Widoczne (ISO)
100
AcDbCircle
 10
3366.573301089387
 20
3877.795502472275
 30
0.0
 40
1.0
100
AcDbArc
 50
26.46793913635232
 51
48.67541560984466
  0
ARC
  5
2C4
330
6C
100
AcDbEntity
  8
Widoczne (ISO)
100
AcDbCircle
 10
3355.779780259834
 20
3862.775885036382
 30
0.0
 40
21.0
100
AcDbArc
 50
93.29353562610956
 51
107.0444492176954
  0
ARC
  5
2C5
330
6C
100
AcDbEntity
  8
Widoczne (ISO)
100
AcDbCircle
 10
3353.366821918942
 20
3862.775885036382
 30
0.0
 40
21.0
100
AcDbArc
 50
48.67541560984559
 51
86.70646437389043
  0
SPLINE
  5
2C6
330
6C
100
AcDbEntity
  8
Widoczne (ISO)
100
AcDbSpline
210
0.0
220
0.0
230
1.0
 70
     8
 71
     3
 72
    18
 73
    14
 74
     0
 42
0.0000000001
 43
0.0000000001
 40
-6.015052666580945
 40
-6.015052666580945
 40
-6.015052666580945
 40
-6.015052666580945
 40
-5.875346314159392
 40
-5.875346314159392
 40
-5.640762954581607
 40
-5.640762954581607
 40
-5.410460902898734
 40
-5.410460902898734
 40
-5.16349578686508
 40
-5.16349578686508
 40
-4.900702429174938
 40
-4.900702429174938
 40
-4.662825315651513
 40
-4.662825315651513
 40
-4.662825315651513
 40
-4.662825315651513
 10
3645.502294341277
 20
3804.69209331236
 30
0.0
 10
3645.665734898572
 20
3804.716589663369
 30
0.0
 10
3645.866820301397
 20
3804.736348880182
 30
0.0
 10
3646.500863591801
 20
3804.777148844527
 30
0.0
 10
3646.999338096216
 20
3804.790252984048
 30
0.0
 10
3648.16757154541
 20
3804.802171927465
 30
0.0
 10
3648.827850832291
 20
3804.801564515377
 30
0.0
 10
3650.329292352323
 20
3804.789893026425
 30
0.0
 10
3651.169560589122
 20
3804.777353138207
 30
0.0
 10
3652.97263026997
 20
3804.737587271528
 30
0.0
 10
3653.923042269485
 20
3804.70669110932
 30
0.0
 10
3655.690965962401
 20
3804.680823593009
 30
0.0
 10
3656.452837903831
 20
3804.684795666031
 30
0.0
 10
3657.117858980171
 20
3804.759521731098
 30
0.0
  0
SPLINE
  5
2C7
330
6C
100
AcDbEntity
  8
Widoczne (ISO)
100
AcDbSpline
210
0.0
220
0.0
230
1.0
 70
     8
 71
     3
 72
    12
 73
     8
 74
     0
 42
0.0000000001
 43
0.0000000001
 40
-0.7514347948434655
 40
-0.7514347948434655
 40
-0.7514347948434655
 40
-0.7514347948434655
 40
-0.6934330173628693
 40
-0.6934330173628693
 40
-0.3590435307056872
 40
-0.3590435307056872
 40
0.0
 40
0.0
 40
0.0
 40
0.0
 10
3645.615932472928
 20
3804.707902254382
 30
0.0
 10
3645.568217333926
 20
3804.673173669066
 30
0.0
 10
3645.520998183598
 20
3804.641763691623
 30
0.0
 10
3645.207446467516
 20
3804.455700360972
 30
0.0
 10
3645.032611753771
 20
3804.454691522234
 30
0.0
 10
3644.961267701633
 20
3804.536994590929
 30
0.0
 10
3645.082254208996
 20
3804.62913800501
 30
0.0
 10
3645.502294341277
 20
3804.69209331236
 30
0.0
  0
SPLINE
  5
2C8
330
6C
100
AcDbEntity
  8
Widoczne (ISO)
100
AcDbSpline
210
0.0
220
0.0
230
1.0
 70
     8
 71
     3
 72
    10
 73
     6
 74
     0
 42
0.0000000001
 43
0.0000000001
 40
0.0
 40
0.0
 40
0.0
 40
0.0
 40
1.240895480545255
 40
1.240895480545255
 40
1.748068646318501
 40
1.748068646318501
 40
1.748068646318501
 40
1.748068646318501
 10
3645.064787136757
 20
3804.473143135381
 30
0.0
 10
3642.068828892239
 20
3804.601765214977
 30
0.0
 10
3639.284961139826
 20
3804.731540603004
 30
0.0
 10
3634.778277383772
 20
3805.308048833911
 30
0.0
 10
3633.385772291054
 20
3805.53889206922
 30
0.0
 10
3631.947440226479
 20
3805.88725317151
 30
0.0
  0
SPLINE
  5
2C9
330
6C
100
AcDbEntity
  8
Widoczne (ISO)
100
AcDbSpline
210
0.0
220
0.0
230
1.0
 70
     8
 71
     3
 72
    12
 73
     8
 74
     0
 42
0.0000000001
 43
0.0000000001
 40
5.942375926138273
 40
5.942375926138273
 40
5.942375926138273
 40
5.942375926138273
 40
6.374207389347239
 40
6.374207389347239
 40
6.938569607776571
 40
6.938569607776571
 40
7.631215546666914
 40
7.631215546666914
 40
7.631215546666914
 40
7.631215546666914
 10
3605.165375860459
 20
3833.83211484499
 30
0.0
 10
3604.535313735675
 20
3835.022279383693
 30
0.0
 10
3603.841713968468
 20
3836.296227944988
 30
0.0
 10
3602.242862467061
 20
3839.179688246426
 30
0.0
 10
3601.315403277105
 20
3840.815240374261
 30
0.0
 10
3599.232943805219
 20
3844.322328695767
 30
0.0
 10
3598.074798658902
 20
3846.151845902035
 30
0.0
 10
3596.927455123905
 20
3847.741199439194
 30
0.0
  0
SPLINE
  5
2CA
330
6C
100
AcDbEntity
  8
Widoczne (ISO)
100
AcDbSpline
210
0.0
220
0.0
230
1.0
 70
     8
 71
     3
 72
    14
 73
    10
 74
     0
 42
0.0000000001
 43
0.0000000001
 40
1.848736574469844
 40
1.848736574469844
 40
1.848736574469844
 40
1.848736574469844
 40
2.055073850428348
 40
2.055073850428348
 40
2.734116351631057
 40
2.734116351631057
 40
3.444704318670108
 40
3.444704318670108
 40
3.70691876708106
 40
3.70691876708106
 40
3.70691876708106
 40
3.70691876708106
 10
3704.209806595764
 20
3830.891912701122
 30
0.0
 10
3703.885634376443
 20
3830.284711701686
 30
0.0
 10
3703.531244947258
 20
3829.693793253964
 30
0.0
 10
3701.887895719011
 20
3827.248948037919
 30
0.0
 10
3700.289249951045
 20
3825.574417347922
 30
0.0
 10
3696.658794390331
 20
3822.707143742196
 30
0.0
 10
3694.583740662648
 20
3821.502427173169
 30
0.0
 10
3691.650077924108
 20
3820.145087863216
 30
0.0
 10
3690.843433478821
 20
3819.805466131583
 30
0.0
 10
3690.02859623278
 20
3819.489330996614
 30
0.0
  0
SPLINE
  5
2CB
330
6C
100
AcDbEntity
  8
Widoczne (ISO)
100
AcDbSpline
210
0.0
220
0.0
230
1.0
 70
     8
 71
     3
 72
    34
 73
    30
 74
     0
 42
0.0000000001
 43
0.0000000001
 40
0.0
 40
0.0
 40
0.0
 40
0.0
 40
1.862760011328134
 40
1.862760011328134
 40
2.839880493159185
 40
2.839880493159185
 40
3.165095776738029
 40
3.165095776738029
 40
3.416383044131129
 40
3.416383044131129
 40
3.80986699467636
 40
3.80986699467636
 40
4.134411773845196
 40
4.134411773845196
 40
4.474179121645731
 40
4.474179121645731
 40
4.90042545499882
 40
4.90042545499882
 40
5.539315412285279
 40
5.539315412285279
 40
6.962350905550229
 40
6.962350905550229
 40
7.921319618130828
 40
7.921319618130828
 40
8.602854137335215
 40
8.602854137335215
 40
9.344150591313297
 40
9.344150591313297
 40
9.60188982549433
 40
9.60188982549433
 40
9.60188982549433
 40
9.60188982549433
 10
3710.718582571085
 20
3847.7411994392
 30
0.0
 10
3709.83580160882
 20
3844.748804962252
 30
0.0
 10
3708.780902663523
 20
3841.419576569784
 30
0.0
 10
3706.905179290765
 20
3836.336069996488
 30
0.0
 10
3706.294822576337
 20
3834.637708737491
 30
0.0
 10
3704.860776741711
 20
3831.934400977571
 30
0.0
 10
3704.437376634302
 20
3831.215815190746
 30
0.0
 10
3703.541328463268
 20
3829.900665245883
 30
0.0
 10
3703.097535640766
 20
3829.308274868358
 30
0.0
 10
3701.828161384304
 20
3827.791859550811
 30
0.0
 10
3700.89914057368
 20
3826.845710980577
 30
0.0
 10
3699.096374983997
 20
3825.274238608711
 30
0.0
 10
3698.224460180018
 20
3824.602919885398
 30
0.0
 10
3696.473406970966
 20
3823.366736204603
 30
0.0
 10
3695.57861588194
 20
3822.793205601172
 30
0.0
 10
3693.675928736727
 20
3821.623766875594
 30
0.0
 10
3692.681077275895
 20
3821.046470323223
 30
0.0
 10
3690.379796050871
 20
3819.701910154728
 30
0.0
 10
3689.151614556529
 20
3818.97486564725
 30
0.0
 10
3685.361299942205
 20
3816.623586638625
 30
0.0
 10
3682.817675523148
 20
3814.85997007478
 30
0.0
 10
3677.496543169076
 20
3811.545658450714
 30
0.0
 10
3675.128630606427
 20
3810.159370943831
 30
0.0
 10
3670.699564162128
 20
3808.02932164405
 30
0.0
 10
3668.709722656608
 20
3807.191447293216
 30
0.0
 10
3664.244570336791
 20
3805.894938105841
 30
0.0
 10
3661.830963196992
 20
3805.424369869545
 30
0.0
 10
3658.70951364001
 20
3804.952664797286
 30
0.0
 10
3657.909477973614
 20
3804.848000640533
 30
0.0
 10
3657.117877909574
 20
3804.759666305739
 30
0.0
  0
SPLINE
  5
2CC
330
6C
100
AcDbEntity
  8
Widoczne (ISO)
100
AcDbSpline
210
0.0
220
0.0
230
1.0
 70
     8
 71
     3
 72
    26
 73
    22
 74
     0
 42
0.0000000001
 43
0.0000000001
 40
0.0
 40
0.0
 40
0.0
 40
0.0
 40
0.0162062497620291
 40
0.0162062497620291
 40
0.0279750161356073
 40
0.0279750161356073
 40
0.0338630866756907
 40
0.0338630866756907
 40
0.0416850347203344
 40
0.0416850347203344
 40
0.0483482069647948
 40
0.0483482069647948
 40
0.0561589454074547
 40
0.0561589454074547
 40
0.067342510843298
 40
0.067342510843298
 40
0.0858237215479946
 40
0.0858237215479946
 40
0.1209688685409763
 40
0.1209688685409763
 40
0.1317863906970659
 40
0.1317863906970659
 40
0.1317863906970659
 40
0.1317863906970659
 10
3706.77081034197
 20
3847.741199439205
 30
0.0
 10
3706.772500796358
 20
3847.698471674031
 30
0.0
 10
3706.774451487059
 20
3847.652833521601
 30
0.0
 10
3706.778490211461
 20
3847.568215491686
 30
0.0
 10
3706.780440057312
 20
3847.529990708857
 30
0.0
 10
3706.783697214204
 20
3847.47155507329
 30
0.0
 10
3706.784852194765
 20
3847.451658191787
 30
0.0
 10
3706.787590359889
 20
3847.406503724819
 30
0.0
 10
3706.789230549823
 20
3847.381020821996
 30
0.0
 10
3706.7920639255
 20
3847.339276770064
 30
0.0
 10
3706.793317165023
 20
3847.321715312651
 30
0.0
 10
3706.795800245946
 20
3847.288199528168
 30
0.0
 10
3706.797015868811
 20
3847.272647317416
 30
0.0
 10
3706.799654759417
 20
3847.240043618518
 30
0.0
 10
3706.800969210175
 20
3847.224867041857
 30
0.0
 10
3706.803965355057
 20
3847.191516965998
 30
0.0
 10
3706.805359289101
 20
3847.177463698061
 30
0.0
 10
3706.80852289957
 20
3847.146724456005
 30
0.0
 10
3706.809533450142
 20
3847.138756545628
 30
0.0
 10
3706.810037207409
 20
3847.134730157897
 30
0.0
 10
3706.810093399479
 20
3847.13430453956
 30
0.0
 10
3706.810093399482
 20
3847.13430453954
 30
0.0
  0
SPLINE
  5
2CD
330
6C
100
AcDbEntity
  8
Widoczne (ISO)
100
AcDbSpline
210
0.0
220
0.0
230
1.0
 70
     8
 71
     3
 72
    30
 73
    26
 74
     0
 42
0.0000000001
 43
0.0000000001
 40
7.278258872029781
 40
7.278258872029781
 40
7.278258872029781
 40
7.278258872029781
 40
7.369188275523274
 40
7.369188275523274
 40
7.662821783019692
 40
7.662821783019692
 40
7.991590312385746
 40
7.991590312385746
 40
8.323412808387329
 40
8.323412808387329
 40
8.648319469491283
 40
8.648319469491283
 40
9.16785693090309
 40
9.16785693090309
 40
9.837915823429142
 40
9.837915823429142
 40
10.41276447209337
 40
10.41276447209337
 40
11.07820259817831
 40
11.07820259817831
 40
12.08500319502174
 40
12.08500319502174
 40
13.87831743182029
 40
13.87831743182029
 40
14.30678876991754
 40
14.30678876991754
 40
14.30678876991754
 40
14.30678876991754
 10
3639.46504029607
 20
3806.557445965653
 30
0.0
 10
3639.465040296101
 20
3806.557445965651
 30
0.0
 10
3639.449390021264
 20
3806.558292946
 30
0.0
 10
3639.312791295986
 20
3806.561950425398
 30
0.0
 10
3639.037625551866
 20
3806.562822537283
 30
0.0
 10
3638.235933526885
 20
3806.520956565181
 30
0.0
 10
3637.66639852718
 20
3806.47224686505
 30
0.0
 10
3636.22246460932
 20
3806.31294476202
 30
0.0
 10
3635.331126672938
 20
3806.200566271004
 30
0.0
 10
3633.443665846775
 20
3805.996289046861
 30
0.0
 10
3632.437924347057
 20
3805.904556372551
 30
0.0
 10
3629.778222255446
 20
3805.788181913673
 30
0.0
 10
3628.067372542626
 20
3805.838826277088
 30
0.0
 10
3624.23019165585
 20
3806.468796541184
 30
0.0
 10
3622.0734550393
 20
3807.231010388252
 30
0.0
 10
3618.539312370796
 20
3809.337980287596
 30
0.0
 10
3617.053121097706
 20
3810.588353073027
 30
0.0
 10
3614.24312757188
 20
3813.592218157582
 30
0.0
 10
3612.946993476087
 20
3815.413940551506
 30
0.0
 10
3610.107137023726
 20
3820.189033487565
 30
0.0
 10
3608.744496746162
 20
3823.278508203301
 30
0.0
 10
3605.520269207213
 20
3832.014988024776
 30
0.0
 10
3604.015946644832
 20
3837.812106778892
 30
0.0
 10
3602.255087437495
 20
3844.975681342114
 30
0.0
 10
3601.92607727545
 20
3846.359226478597
 30
0.0
 10
3601.606853662901
 20
3847.741199439207
 30
0.0
  0
SPLINE
  5
2CE
330
6C
100
AcDbEntity
  8
Widoczne (ISO)
100
AcDbSpline
210
0.0
220
0.0
230
1.0
 70
     8
 71
     3
 72
    18
 73
    14
 74
     0
 42
0.0000000001
 43
0.0000000001
 40
-6.015052666580945
 40
-6.015052666580945
 40
-6.015052666580945
 40
-6.015052666580945
 40
-5.875346314159392
 40
-5.875346314159392
 40
-5.640762954581607
 40
-5.640762954581607
 40
-5.410460902898734
 40
-5.410460902898734
 40
-5.16349578686508
 40
-5.16349578686508
 40
-4.900702429174938
 40
-4.900702429174938
 40
-4.660710585348975
 40
-4.660710585348975
 40
-4.660710585348975
 40
-4.660710585348975
 10
3224.459734489347
 20
3804.692093312082
 30
0.0
 10
3224.615790885805
 20
3804.716589663091
 30
0.0
 10
3224.809741152674
 20
3804.736348879904
 30
0.0
 10
3225.425542266389
 20
3804.777148844248
 30
0.0
 10
3225.913482413653
 20
3804.790252983771
 30
0.0
 10
3227.063460335456
 20
3804.802171927186
 30
0.0
 10
3227.716069483258
 20
3804.801564515098
 30
0.0
 10
3229.20520806134
 20
3804.789893026146
 30
0.0
 10
3230.04119077214
 20
3804.777353137929
 30
0.0
 10
3231.840361484023
 20
3804.73758727125
 30
0.0
 10
3232.791514370576
 20
3804.706691109042
 30
0.0
 10
3234.573823183623
 20
3804.680714333599
 30
0.0
 10
3235.347243115024
 20
3804.684867574541
 30
0.0
 10
3236.023188499096
 20
3804.761531491419
 30
0.0
  0
SPLINE
  5
2CF
330
6C
100
AcDbEntity
  8
Widoczne (ISO)
100
AcDbSpline
210
0.0
220
0.0
230
1.0
 70
     8
 71
     3
 72
    12
 73
     8
 74
     0
 42
0.0000000001
 43
0.0000000001
 40
-0.7595925427387087
 40
-0.7595925427387087
 40
-0.7595925427387087
 40
-0.7595925427387087
 40
-0.6934330173628693
 40
-0.6934330173628693
 40
-0.3590435307056872
 40
-0.3590435307056872
 40
0.0
 40
0.0
 40
0.0
 40
0.0
 10
3224.694248890212
 20
3804.722750921712
 30
0.0
 10
3224.637511495267
 20
3804.68208635882
 30
0.0
 10
3224.581215114938
 20
3804.645631916463
 30
0.0
 10
3224.246327125378
 20
3804.455700360694
 30
0.0
 10
3224.057692631534
 20
3804.454691521956
 30
0.0
 10
3223.955905636556
 20
3804.536994590651
 30
0.0
 10
3224.058671555542
 20
3804.629138004732
 30
0.0
 10
3224.459734489347
 20
3804.692093312082
 30
0.0
  0
SPLINE
  5
2D0
330
6C
100
AcDbEntity
  8
Widoczne (ISO)
100
AcDbSpline
210
0.0
220
0.0
230
1.0
 70
     8
 71
     3
 72
    10
 73
     6
 74
     0
 42
0.0000000001
 43
0.0000000001
 40
0.0
 40
0.0
 40
0.0
 40
0.0
 40
1.220977226071553
 40
1.220977226071553
 40
1.762000760535249
 40
1.762000760535249
 40
1.762000760535249
 40
1.762000760535249
 10
3224.086366328692
 20
3804.473211451
 30
0.0
 10
3221.184154843105
 20
3804.599891001623
 30
0.0
 10
3218.495941709845
 20
3804.729857536226
 30
0.0
 10
3214.028649428716
 20
3805.295894171949
 30
0.0
 10
3212.559374699227
 20
3805.539483923243
 30
0.0
 10
3211.03671285664
 20
3805.918860489709
 30
0.0
  0
SPLINE
  5
2D1
330
6C
100
AcDbEntity
  8
Widoczne (ISO)
100
AcDbSpline
210
0.0
220
0.0
230
1.0
 70
     8
 71
     3
 72
    12
 73
     8
 74
     0
 42
0.0000000001
 43
0.0000000001
 40
2.614063491002608
 40
2.614063491002608
 40
2.614063491002608
 40
2.614063491002608
 40
2.676269063883972
 40
2.676269063883972
 40
3.383384096845438
 40
3.383384096845438
 40
3.878170321022961
 40
3.878170321022961
 40
3.878170321022961
 40
3.878170321022961
 10
3278.4818345116
 20
3824.791373467597
 30
0.0
 10
3278.32450052862
 20
3824.656160051307
 30
0.0
 10
3278.165507246964
 20
3824.523182940721
 30
0.0
 10
3276.18019548246
 20
3822.906978148921
 30
0.0
 10
3274.131163082689
 20
3821.682126214677
 30
0.0
 10
3270.52889412884
 20
3819.967982016987
 30
0.0
 10
3268.989300051912
 20
3819.358097984774
 30
0.0
 10
3267.443720333625
 20
3818.82497519276
 30
0.0
  0
SPLINE
  5
2D2
330
6C
100
AcDbEntity
  8
Widoczne (ISO)
100
AcDbSpline
210
0.0
220
0.0
230
1.0
 70
     8
 71
     3
 72
    28
 73
    24
 74
     0
 42
0.0000000001
 43
0.0000000001
 40
3.83806190699078
 40
3.83806190699078
 40
3.83806190699078
 40
3.83806190699078
 40
3.917105132763895
 40
3.917105132763895
 40
4.230448171804408
 40
4.230448171804408
 40
4.58083574539039
 40
4.58083574539039
 40
5.036180579786297
 40
5.036180579786297
 40
5.772756837135755
 40
5.772756837135755
 40
6.71294421334994
 40
6.71294421334994
 40
7.601595503895912
 40
7.601595503895912
 40
8.304961154089323
 40
8.304961154089323
 40
8.837489794239957
 40
8.837489794239957
 40
9.483323018397983
 40
9.483323018397983
 40
9.598948849241656
 40
9.598948849241656
 40
9.598948849241656
 40
9.598948849241656
 10
3278.091217330715
 20
3825.801343882549
 30
0.0
 10
3277.889860669406
 20
3825.629109292238
 30
0.0
 10
3277.68644946312
 20
3825.459923911915
 30
0.0
 10
3276.671550667805
 20
3824.639257663663
 30
0.0
 10
3275.828189897459
 20
3824.02759767647
 30
0.0
 10
3274.103726873089
 20
3822.859493673483
 30
0.0
 10
3273.213482658942
 20
3822.304352422531
 30
0.0
 10
3271.306284049609
 20
3821.145389641142
 30
0.0
 10
3270.311763147975
 20
3820.562633941234
 30
0.0
 10
3267.913366624591
 20
3819.127180039302
 30
0.0
 10
3266.619905817413
 20
3818.32085550265
 30
0.0
 10
3263.68076235253
 20
3816.403408718091
 30
0.0
 10
3261.97617856209
 20
3815.231692197448
 30
0.0
 10
3258.152122213996
 20
3812.729916193498
 30
0.0
 10
3256.084090519594
 20
3811.43170915861
 30
0.0
 10
3252.070353313326
 20
3809.237563996872
 30
0.0
 10
3250.170831618813
 20
3808.298087664356
 30
0.0
 10
3246.563908592491
 20
3806.890513889991
 30
0.0
 10
3244.860328566075
 20
3806.390047285932
 30
0.0
 10
3241.118036680297
 20
3805.516079477542
 30
0.0
 10
3239.075230370888
 20
3805.149931612426
 30
0.0
 10
3236.730680160335
 20
3804.844457623405
 30
0.0
 10
3236.376083834225
 20
3804.801421087045
 30
0.0
 10
3236.023204839578
 20
3804.761662310085
 30
0.0
  0
SPLINE
  5
2D3
330
6C
100
AcDbEntity
  8
Widoczne (ISO)
100
AcDbSpline
210
0.0
220
0.0
230
1.0
 70
     8
 71
     3
 72
    28
 73
    24
 74
     0
 42
0.0000000001
 43
0.0000000001
 40
7.204239365098502
 40
7.204239365098502
 40
7.204239365098502
 40
7.204239365098502
 40
7.256374645124969
 40
7.256374645124969
 40
7.562882589101623
 40
7.562882589101623
 40
7.873081690019383
 40
7.873081690019383
 40
8.232882788620877
 40
8.232882788620877
 40
8.551291694323092
 40
8.551291694323092
 40
9.040534243542243
 40
9.040534243542243
 40
9.715873086079456
 40
9.715873086079456
 40
10.30170727036075
 40
10.30170727036075
 40
10.94524278249618
 40
10.94524278249618
 40
11.89848040216923
 40
11.89848040216923
 40
12.44965005213446
 40
12.44965005213446
 40
12.44965005213446
 40
12.44965005213446
 10
3218.265989533265
 20
3806.555519959224
 30
0.0
 10
3218.265989530845
 20
3806.555519959377
 30
0.0
 10
3218.261041124801
 20
3806.555832013498
 30
0.0
 10
3218.192064635046
 20
3806.559100899859
 30
0.0
 10
3217.937281700655
 20
3806.56608557773
 30
0.0
 10
3217.180714278739
 20
3806.537477840122
 30
0.0
 10
3216.676327774806
 20
3806.502246858701
 30
0.0
 10
3215.314288497175
 20
3806.365960983105
 30
0.0
 10
3214.381528597868
 20
3806.250415295087
 30
0.0
 10
3212.463107837784
 20
3806.037194760847
 30
0.0
 10
3211.485845526578
 20
3805.9404575075
 30
0.0
 10
3208.956414932316
 20
3805.796482669082
 30
0.0
 10
3207.351736425178
 20
3805.804585754223
 30
0.0
 10
3203.579425666031
 20
3806.268957307309
 30
0.0
 10
3201.372785389111
 20
3806.927538094809
 30
0.0
 10
3197.702310908071
 20
3808.897178268057
 30
0.0
 10
3196.137744229357
 20
3810.114193654685
 30
0.0
 10
3193.267160408935
 20
3813.005500077358
 30
0.0
 10
3191.965512398079
 20
3814.731323012404
 30
0.0
 10
3189.143477060377
 20
3819.219107497082
 30
0.0
 10
3187.786415479331
 20
3822.112718617513
 30
0.0
 10
3185.957352825233
 20
3826.766866123934
 30
0.0
 10
3185.349633414117
 20
3828.49616095047
 30
0.0
 10
3184.786295514306
 20
3830.241199438928
 30
0.0
  0
SPLINE
  5
2D4
330
6C
100
AcDbEntity
  8
Widoczne (ISO)
100
AcDbSpline
210
0.0
220
0.0
230
1.0
 70
     8
 71
     3
 72
    18
 73
    14
 74
     0
 42
0.0000000001
 43
0.0000000001
 40
-6.015052666580945
 40
-6.015052666580945
 40
-6.015052666580945
 40
-6.015052666580945
 40
-5.875346314159392
 40
-5.875346314159392
 40
-5.640762954581607
 40
-5.640762954581607
 40
-5.410460902898734
 40
-5.410460902898734
 40
-5.16349578686508
 40
-5.16349578686508
 40
-4.900702429174938
 40
-4.900702429174938
 40
-4.663282120590047
 40
-4.663282120590047
 40
-4.663282120590047
 40
-4.663282120590047
 10
3487.956269089088
 20
3804.692093312188
 30
0.0
 10
3488.121309977703
 20
3804.716589663197
 30
0.0
 10
3488.323940108001
 20
3804.736348880009
 30
0.0
 10
3488.961928213482
 20
3804.777148844355
 30
0.0
 10
3489.462675730275
 20
3804.790252983877
 30
0.0
 10
3490.634836674145
 20
3804.802171927292
 30
0.0
 10
3491.296759699747
 20
3804.801564515204
 30
0.0
 10
3492.800821037155
 20
3804.789893026253
 30
0.0
 10
3493.641989831902
 20
3804.777353138035
 30
0.0
 10
3495.445839517524
 20
3804.737587271356
 30
0.0
 10
3496.396054343888
 20
3804.706691109148
 30
0.0
 10
3498.160800780521
 20
3804.680847194006
 30
0.0
 10
3498.92015709184
 20
3804.684780470367
 30
0.0
 10
3499.582800007776
 20
3804.759092014942
 30
0.0
  0
SPLINE
  5
2D5
330
6C
100
AcDbEntity
  8
Widoczne (ISO)
100
AcDbSpline
210
0.0
220
0.0
230
1.0
 70
     8
 71
     3
 72
    12
 73
     8
 74
     0
 42
0.0000000001
 43
0.0000000001
 40
-0.7494850671956455
 40
-0.7494850671956455
 40
-0.7494850671956455
 40
-0.7494850671956455
 40
-0.6934330173628693
 40
-0.6934330173628693
 40
-0.3590435307056872
 40
-0.3590435307056872
 40
0.0
 40
0.0
 40
0.0
 40
0.0
 10
3488.043398649168
 20
3804.704411325883
 30
0.0
 10
3487.997727792852
 20
3804.671066392945
 30
0.0
 10
3487.952553454401
 20
3804.640839173366
 30
0.0
 10
3487.643713946081
 20
3804.4557003608
 30
0.0
 10
3487.471888171778
 20
3804.454691522062
 30
0.0
 10
3487.407170075365
 20
3804.536994590757
 30
0.0
 10
3487.532116125876
 20
3804.629138004838
 30
0.0
 10
3487.956269089088
 20
3804.692093312188
 30
0.0
  0
SPLINE
  5
2D6
330
6C
100
AcDbEntity
  8
Widoczne (ISO)
100
AcDbSpline
210
0.0
220
0.0
230
1.0
 70
     8
 71
     3
 72
    10
 73
     6
 74
     0
 42
0.0000000001
 43
0.0000000001
 40
0.0
 40
0.0
 40
0.0
 40
0.0
 40
1.243733896168161
 40
1.243733896168161
 40
1.745302430398567
 40
1.745302430398567
 40
1.745302430398567
 40
1.745302430398567
 10
3487.504769731152
 20
3804.473129713467
 30
0.0
 10
3484.491929415059
 20
3804.602020638967
 30
0.0
 10
3481.690387615415
 20
3804.731767543275
 30
0.0
 10
3477.176072214991
 20
3805.309447595583
 30
0.0
 10
3475.79585321155
 20
3805.537950594395
 30
0.0
 10
3474.371059564598
 20
3805.881037560602
 30
0.0
  0
SPLINE
  5
2D7
330
6C
100
AcDbEntity
  8
Widoczne (ISO)
100
AcDbSpline
210
0.0
220
0.0
230
1.0
 70
     8
 71
     3
 72
    14
 73
    10
 74
     0
 42
0.0000000001
 43
0.0000000001
 40
5.854378162023838
 40
5.854378162023838
 40
5.854378162023838
 40
5.854378162023838
 40
6.149889888578941
 40
6.149889888578941
 40
6.537297582050125
 40
6.537297582050125
 40
7.068066505764275
 40
7.068066505764275
 40
7.627143927284119
 40
7.627143927284119
 40
7.627143927284119
 40
7.627143927284119
 10
3447.941239215475
 20
3833.132522078219
 30
0.0
 10
3447.520829974635
 20
3833.933973066602
 30
0.0
 10
3447.062759271856
 20
3834.789090648124
 30
0.0
 10
3445.991285239363
 20
3836.758786560851
 30
0.0
 10
3445.366538987054
 20
3837.887505034473
 30
0.0
 10
3443.873226028349
 20
3840.535865173153
 30
0.0
 10
3442.990605592944
 20
3842.061844604206
 30
0.0
 10
3441.176374257344
 20
3845.032730579588
 30
0.0
 10
3440.250275132103
 20
3846.454912230986
 30
0.0
 10
3439.318105201768
 20
3847.741199439022
 30
0.0
  0
SPLINE
  5
2D8
330
6C
100
AcDbEntity
  8
Widoczne (ISO)
100
AcDbSpline
210
0.0
220
0.0
230
1.0
 70
     8
 71
     3
 72
    12
 73
     8
 74
     0
 42
0.0000000001
 43
0.0000000001
 40
2.026865692569147
 40
2.026865692569147
 40
2.026865692569147
 40
2.026865692569147
 40
2.622895961737096
 40
2.622895961737096
 40
3.309552225626023
 40
3.309552225626023
 40
3.663781832981765
 40
3.663781832981765
 40
3.663781832981765
 40
3.663781832981765
 10
3545.7485393748
 20
3829.434173907218
 30
0.0
 10
3544.665762379689
 20
3827.765367673964
 30
0.0
 10
3543.32664576149
 20
3826.242970158849
 30
0.0
 10
3540.110019449075
 20
3823.434076112145
 30
0.0
 10
3538.157881130337
 20
3822.177740347293
 30
0.0
 10
3535.075244362693
 20
3820.601409937166
 30
0.0
 10
3533.995408678328
 20
3820.117196096953
 30
0.0
 10
3532.900328213162
 20
3819.677632465295
 30
0.0
  0
SPLINE
  5
2D9
330
6C
100
AcDbEntity
  8
Widoczne (ISO)
100
AcDbSpline
210
0.0
220
0.0
230
1.0
 70
     8
 71
     3
 72
    34
 73
    30
 74
     0
 42
0.0000000001
 43
0.0000000001
 40
0.0
 40
0.0
 40
0.0
 40
0.0
 40
1.883010740619644
 40
1.883010740619644
 40
2.876944964404035
 40
2.876944964404035
 40
3.170822953970444
 40
3.170822953970444
 40
3.414671054560666
 40
3.414671054560666
 40
3.806726609786177
 40
3.806726609786177
 40
4.132625050389086
 40
4.132625050389086
 40
4.474049449603029
 40
4.474049449603029
 40
4.902425978274866
 40
4.902425978274866
 40
5.54431829915169
 40
5.54431829915169
 40
6.980160942654647
 40
6.980160942654647
 40
7.946942924756777
 40
7.946942924756777
 40
8.62310434544968
 40
8.62310434544968
 40
9.34232340046851
 40
9.34232340046851
 40
9.602743380462234
 40
9.602743380462234
 40
9.602743380462234
 40
9.602743380462234
 10
3553.192302237677
 20
3847.741199439028
 30
0.0
 10
3552.316567875238
 20
3844.704923021001
 30
0.0
 10
3551.26816828767
 20
3841.337451224595
 30
0.0
 10
3549.395907104418
 20
3836.204830804795
 30
0.0
 10
3548.792097132503
 20
3834.482137348032
 30
0.0
 10
3547.325139212779
 20
3831.767340763605
 30
0.0
 10
3546.934208356504
 20
3831.11236238725
 30
0.0
 10
3546.095044176438
 20
3829.880363726715
 30
0.0
 10
3545.664000234621
 20
3829.304138872252
 30
0.0
 10
3544.414474863198
 20
3827.805641000151
 30
0.0
 10
3543.49082999591
 20
3826.862223569362
 30
0.0
 10
3541.690238944808
 20
3825.28903319379
 30
0.0
 10
3540.814675340357
 20
3824.614351167587
 30
0.0
 10
3539.053978980279
 20
3823.371771915981
 30
0.0
 10
3538.15306966179
 20
3822.79526769217
 30
0.0
 10
3536.235905281401
 20
3821.619775145611
 30
0.0
 10
3535.232564219131
 20
3821.039565991323
 30
0.0
 10
3532.91068216476
 20
3819.688002672825
 30
0.0
 10
3531.669972078742
 20
3818.956614271801
 30
0.0
 10
3527.827040491551
 20
3816.582714924083
 30
0.0
 10
3525.241898732431
 20
3814.797343482963
 30
0.0
 10
3519.844825995622
 20
3811.45649552004
 30
0.0
 10
3517.444971098262
 20
3810.061648217089
 30
0.0
 10
3512.981020467203
 20
3807.942886586804
 30
0.0
 10
3510.992790822312
 20
3807.118857449033
 30
0.0
 10
3506.59244597378
 20
3805.875546606542
 30
0.0
 10
3504.257938861931
 20
3805.417923639576
 30
0.0
 10
3501.193181170346
 20
3804.954288927893
 30
0.0
 10
3500.383728327579
 20
3804.848429777058
 30
0.0
 10
3499.582819524717
 20
3804.759239616469
 30
0.0
  0
SPLINE
  5
2DA
330
6C
100
AcDbEntity
  8
Widoczne (ISO)
100
AcDbSpline
210
0.0
220
0.0
230
1.0
 70
     8
 71
     3
 72
    26
 73
    22
 74
     0
 42
0.0000000001
 43
0.0000000001
 40
0.0
 40
0.0
 40
0.0
 40
0.0
 40
0.0200905900324865
 40
0.0200905900324865
 40
0.0341784445739559
 40
0.0341784445739559
 40
0.0406520907644498
 40
0.0406520907644498
 40
0.0488853314359291
 40
0.0488853314359291
 40
0.055910734032707
 40
0.055910734032707
 40
0.0641988959651231
 40
0.0641988959651231
 40
0.0761081670410332
 40
0.0761081670410332
 40
0.0958574858811788
 40
0.0958574858811788
 40
0.1335585491122251
 40
0.1335585491122251
 40
0.1391436462532035
 40
0.1391436462532035
 40
0.1391436462532035
 40
0.1391436462532035
 10
3549.303609062992
 20
3847.741199439033
 30
0.0
 10
3549.305807622381
 20
3847.689463961439
 30
0.0
 10
3549.308348006409
 20
3847.63401265148
 30
0.0
 10
3549.313599279257
 20
3847.531671370027
 30
0.0
 10
3549.316102405088
 20
3847.485967909266
 30
0.0
 10
3549.320188492951
 20
3847.417883037766
 30
0.0
 10
3549.3215542557
 20
3847.395985688768
 30
0.0
 10
3549.324694270636
 20
3847.347697960695
 30
0.0
 10
3549.326523888546
 20
3847.321065723503
 30
0.0
 10
3549.329662159152
 20
3847.277563583359
 30
0.0
 10
3549.331041453262
 20
3847.259316074827
 30
0.0
 10
3549.333769658444
 20
3847.224458568783
 30
0.0
 10
3549.335098442155
 20
3847.208319783734
 30
0.0
 10
3549.337972166588
 20
3847.174543949662
 30
0.0
 10
3549.339388923892
 20
3847.158939315733
 30
0.0
 10
3549.342597019404
 20
3847.124807188966
 30
0.0
 10
3549.344056005825
 20
3847.110718988924
 30
0.0
 10
3549.347303342405
 20
3847.080419187162
 30
0.0
 10
3549.348222727075
 20
3847.073584377593
 30
0.0
 10
3549.348469674501
 20
3847.071681211419
 30
0.0
 10
3549.348485181418
 20
3847.071564670541
 30
0.0
 10
3549.348485181418
 20
3847.071564670539
 30
0.0
  0
SPLINE
  5
2DB
330
6C
100
AcDbEntity
  8
Widoczne (ISO)
100
AcDbSpline
210
0.0
220
0.0
230
1.0
 70
     8
 71
     3
 72
    30
 73
    26
 74
     0
 42
0.0000000001
 43
0.0000000001
 40
7.297059768195058
 40
7.297059768195058
 40
7.297059768195058
 40
7.297059768195058
 40
7.310744387687502
 40
7.310744387687502
 40
7.612501885198979
 40
7.612501885198979
 40
7.916014486704019
 40
7.916014486704019
 40
8.268774752172969
 40
8.268774752172969
 40
8.574326902426067
 40
8.574326902426067
 40
9.036008365292953
 40
9.036008365292953
 40
9.700789478432895
 40
9.700789478432895
 40
10.29135529530502
 40
10.29135529530502
 40
10.91196612924155
 40
10.91196612924155
 40
11.8114563708271
 40
11.8114563708271
 40
13.35281389839478
 40
13.35281389839478
 40
14.31810469915769
 40
14.31810469915769
 40
14.31810469915769
 40
14.31810469915769
 10
3481.9546678574
 20
3806.557788790993
 30
0.0
 10
3481.954667857392
 20
3806.557788790993
 30
0.0
 10
3481.954313428171
 20
3806.557807213368
 30
0.0
 10
3481.937908052834
 20
3806.558592369608
 30
0.0
 10
3481.72917085637
 20
3806.565662683411
 30
0.0
 10
3481.062247315063
 20
3806.540946159149
 30
0.0
 10
3480.605008094758
 20
3806.509857593237
 30
0.0
 10
3479.341123923121
 20
3806.383566075188
 30
0.0
 10
3478.456542353089
 20
3806.273393223195
 30
0.0
 10
3476.63277528277
 20
3806.064532396719
 30
0.0
 10
3475.70795804109
 20
3805.967801269256
 30
0.0
 10
3473.33028100974
 20
3805.809798603698
 30
0.0
 10
3471.826670235012
 20
3805.792192451084
 30
0.0
 10
3468.181471482016
 20
3806.136676467062
 30
0.0
 10
3465.992730108987
 20
3806.698301867269
 30
0.0
 10
3462.267454041892
 20
3808.511099797239
 30
0.0
 10
3460.645470935708
 20
3809.684278672287
 30
0.0
 10
3457.740718479082
 20
3812.455727610294
 30
0.0
 10
3456.442287772187
 20
3814.089077603082
 30
0.0
 10
3453.6584810704
 20
3818.301447957761
 30
0.0
 10
3452.318791715054
 20
3821.006146970552
 30
0.0
 10
3449.204681659349
 20
3828.502039133597
 30
0.0
 10
3447.798195834727
 20
3833.461580496199
 30
0.0
 10
3445.647154747247
 20
3841.509765089167
 30
0.0
 10
3444.879497663701
 20
3844.628546361034
 30
0.0
 10
3444.161910867681
 20
3847.741199439035
 30
0.0
  0
SPLINE
  5
2DC
330
6C
100
AcDbEntity
  8
Widoczne (ISO)
100
AcDbSpline
210
0.0
220
0.0
230
1.0
 70
     8
 71
     3
 72
    18
 73
    14
 74
     0
 42
0.0000000001
 43
0.0000000001
 40
-6.015052666580945
 40
-6.015052666580945
 40
-6.015052666580945
 40
-6.015052666580945
 40
-5.875346314159392
 40
-5.875346314159392
 40
-5.640762954581607
 40
-5.640762954581607
 40
-5.410460902898734
 40
-5.410460902898734
 40
-5.16349578686508
 40
-5.16349578686508
 40
-4.900702429174938
 40
-4.900702429174938
 40
-4.655490076138343
 40
-4.655490076138343
 40
-4.655490076138343
 40
-4.655490076138343
 10
3865.791434328492
 20
3804.692093312096
 30
0.0
 10
3865.929465225909
 20
3804.716589663104
 30
0.0
 10
3866.10594696286
 20
3804.736348879917
 30
0.0
 10
3866.67694531136
 20
3804.777148844261
 30
0.0
 10
3867.138856933625
 20
3804.790252983784
 30
0.0
 10
3868.24336948716
 20
3804.8021719272
 30
0.0
 10
3868.876676217455
 20
3804.801564515111
 30
0.0
 10
3870.334331632798
 20
3804.789893026159
 30
0.0
 10
3871.158973321567
 20
3804.777353137942
 30
0.0
 10
3872.946600404461
 20
3804.737587271263
 30
0.0
 10
3873.898421005458
 20
3804.706691109055
 30
0.0
 10
3875.713998852445
 20
3804.680444612079
 30
0.0
 10
3876.515227861295
 20
3804.685056096774
 30
0.0
 10
3877.217526937826
 20
3804.766637979311
 30
0.0
  0
SPLINE
  5
2DD
330
6C
100
AcDbEntity
  8
Widoczne (ISO)
100
AcDbSpline
210
0.0
220
0.0
230
1.0
 70
     8
 71
     3
 72
    12
 73
     8
 74
     0
 42
0.0000000001
 43
0.0000000001
 40
-0.7747812751420185
 40
-0.7747812751420185
 40
-0.7747812751420185
 40
-0.7747812751420185
 40
-0.6934330173628693
 40
-0.6934330173628693
 40
-0.3590435307056872
 40
-0.3590435307056872
 40
0.0
 40
0.0
 40
0.0
 40
0.0
 10
3866.311653896085
 20
3804.75141304735
 30
0.0
 10
3866.23552327956
 20
3804.699092497633
 30
0.0
 10
3866.159388490816
 20
3804.652834080228
 30
0.0
 10
3865.775052463595
 20
3804.455700360707
 30
0.0
 10
3865.553298025141
 20
3804.454691521969
 30
0.0
 10
3865.378075983158
 20
3804.536994590664
 30
0.0
 10
3865.436696695623
 20
3804.629138004745
 30
0.0
 10
3865.791434328492
 20
3804.692093312096
 30
0.0
  0
SPLINE
  5
2DE
330
6C
100
AcDbEntity
  8
Widoczne (ISO)
100
AcDbSpline
210
0.0
220
0.0
230
1.0
 70
     8
 71
     3
 72
    10
 73
     6
 74
     0
 42
0.0000000001
 43
0.0000000001
 40
0.0
 40
0.0
 40
0.0
 40
0.0
 40
1.17151583462885
 40
1.17151583462885
 40
1.80109745902307
 40
1.80109745902307
 40
1.80109745902307
 40
1.80109745902307
 10
3865.571657091649
 20
3804.473427426529
 30
0.0
 10
3862.895357038694
 20
3804.595314746197
 30
0.0
 10
3860.436066984262
 20
3804.725038953398
 30
0.0
 10
3856.064229909208
 20
3805.267600555523
 30
0.0
 10
3854.40153650916
 20
3805.543428946366
 30
0.0
 10
3852.661497686026
 20
3806.011085981295
 30
0.0
  0
SPLINE
  5
2DF
330
6C
100
AcDbEntity
  8
Widoczne (ISO)
100
AcDbSpline
210
0.0
220
0.0
230
1.0
 70
     8
 71
     3
 72
     8
 73
     4
 74
     0
 42
0.0000000001
 43
0.0000000001
 40
9.443264205228528
 40
9.443264205228528
 40
9.443264205228528
 40
9.443264205228528
 40
9.58799559669751
 40
9.58799559669751
 40
9.58799559669751
 40
9.58799559669751
 10
3878.530552585171
 20
3804.933260783637
 30
0.0
 10
3878.089862470437
 20
3804.872401986481
 30
0.0
 10
3877.652026296008
 20
3804.816918203376
 30
0.0
 10
3877.217537804302
 20
3804.766736856779
 30
0.0
  0
SPLINE
  5
2E0
330
6C
100
AcDbEntity
  8
Widoczne (ISO)
100
AcDbSpline
210
0.0
220
0.0
230
1.0
 70
     8
 71
     3
 72
    28
 73
    24
 74
     0
 42
0.0000000001
 43
0.0000000001
 40
7.029212817104319
 40
7.029212817104319
 40
7.029212817104319
 40
7.029212817104319
 40
7.181437943782531
 40
7.181437943782531
 40
7.497177754378198
 40
7.497177754378198
 40
7.827627508420705
 40
7.827627508420705
 40
8.197085250744963
 40
8.197085250744963
 40
8.549060131579524
 40
8.549060131579524
 40
9.110239853547955
 40
9.110239853547955
 40
9.78926146721891
 40
9.78926146721891
 40
10.37074535022932
 40
10.37074535022932
 40
11.08098893549209
 40
11.08098893549209
 40
12.18374216355374
 40
12.18374216355374
 40
12.36145627926464
 40
12.36145627926464
 40
12.36145627926464
 40
12.36145627926464
 10
3859.272323642212
 20
3806.547842423281
 30
0.0
 10
3859.272323629774
 20
3806.547842424355
 30
0.0
 10
3859.232929088792
 20
3806.551257701306
 30
0.0
 10
3858.9839195991
 20
3806.561523863238
 30
0.0
 10
3858.618490894351
 20
3806.566066225255
 30
0.0
 10
3857.645484284685
 20
3806.523779452152
 30
0.0
 10
3857.017590218713
 20
3806.474926926623
 30
0.0
 10
3855.416848234728
 20
3806.310130684585
 30
0.0
 10
3854.389393096592
 20
3806.184373903814
 30
0.0
 10
3852.258661442168
 20
3805.967063447281
 30
0.0
 10
3851.147635892984
 20
3805.875223512865
 30
0.0
 10
3848.228574268984
 20
3805.790942891239
 30
0.0
 10
3846.363405345595
 20
3805.894559053346
 30
0.0
 10
3842.372976874116
 20
3806.723657101308
 30
0.0
 10
3840.225430706463
 20
3807.608999073672
 30
0.0
 10
3836.74675098813
 20
3809.904685501308
 30
0.0
 10
3835.29935468706
 20
3811.225598665398
 30
0.0
 10
3832.479206117135
 20
3814.443531502836
 30
0.0
 10
3831.159510605491
 20
3816.425555544816
 30
0.0
 10
3828.230185217307
 20
3821.677723098905
 30
0.0
 10
3826.829417712283
 20
3825.093212759089
 30
0.0
 10
3825.451442553926
 20
3829.11911034838
 30
0.0
 10
3825.264235499057
 20
3829.679435544123
 30
0.0
 10
3825.080793137745
 20
3830.241199438941
 30
0.0
  0
SPLINE
  5
2E1
330
6C
100
AcDbEntity
  8
Widoczne (ISO)
100
AcDbSpline
210
0.0
220
0.0
230
1.0
 70
     8
 71
     3
 72
    18
 73
    14
 74
     0
 42
0.0000000001
 43
0.0000000001
 40
-6.015052666580945
 40
-6.015052666580945
 40
-6.015052666580945
 40
-6.015052666580945
 40
-5.875346314159392
 40
-5.875346314159392
 40
-5.640762954581607
 40
-5.640762954581607
 40
-5.410460902898734
 40
-5.410460902898734
 40
-5.16349578686508
 40
-5.16349578686508
 40
-4.900702429174938
 40
-4.900702429174938
 40
-4.665283086446233
 40
-4.665283086446233
 40
-4.665283086446233
 40
-4.665283086446233
 10
3315.264771928655
 20
3804.692093312299
 30
0.0
 10
3315.436842367755
 20
3804.716589663307
 30
0.0
 10
3315.646250814935
 20
3804.736348880121
 30
0.0
 10
3316.301529456451
 20
3804.777148844465
 30
0.0
 10
3316.812218341562
 20
3804.790252983988
 30
0.0
 10
3318.001507261973
 20
3804.802171927403
 30
0.0
 10
3318.670571056531
 20
3804.801564515315
 30
0.0
 10
3320.185941007046
 20
3804.789893026363
 30
0.0
 10
3321.030944816488
 20
3804.777353138146
 30
0.0
 10
3322.837942642358
 20
3804.737587271466
 30
0.0
 10
3323.787134772917
 20
3804.706691109259
 30
0.0
 10
3325.537668825024
 20
3804.680950575523
 30
0.0
 10
3326.285918320473
 20
3804.684715322262
 30
0.0
 10
3326.938068465735
 20
3804.757228098236
 30
0.0
  0
SPLINE
  5
2E2
330
6C
100
AcDbEntity
  8
Widoczne (ISO)
100
AcDbSpline
210
0.0
220
0.0
230
1.0
 70
     8
 71
     3
 72
    12
 73
     8
 74
     0
 42
0.0000000001
 43
0.0000000001
 40
-0.7400427750045662
 40
-0.7400427750045662
 40
-0.7400427750045662
 40
-0.7400427750045662
 40
-0.6934330173628693
 40
-0.6934330173628693
 40
-0.3590435307056872
 40
-0.3590435307056872
 40
0.0
 40
0.0
 40
0.0
 40
0.0
 10
3315.234098338529
 20
3804.687827840196
 30
0.0
 10
3315.1977958945
 20
3804.660986029576
 30
0.0
 10
3315.161943100071
 20
3804.636361845629
 30
0.0
 10
3314.874192331668
 20
3804.455700360911
 30
0.0
 10
3314.715661296764
 20
3804.454691522173
 30
0.0
 10
3314.680168804594
 20
3804.536994590868
 30
0.0
 10
3314.822553111017
 20
3804.62913800495
 30
0.0
 10
3315.264771928655
 20
3804.692093312299
 30
0.0
  0
SPLINE
  5
2E3
330
6C
100
AcDbEntity
  8
Widoczne (ISO)
100
AcDbSpline
210
0.0
220
0.0
230
1.0
 70
     8
 71
     3
 72
    10
 73
     6
 74
     0
 42
0.0000000001
 43
0.0000000001
 40
2.216724879961954
 40
2.216724879961954
 40
2.216724879961954
 40
2.216724879961954
 40
2.656862050640127
 40
2.656862050640127
 40
2.678796373398816
 40
2.678796373398816
 40
2.678796373398816
 40
2.678796373398816
 10
3367.291945872759
 20
3823.667542394275
 30
0.0
 10
3366.107809289597
 20
3822.795414559075
 30
0.0
 10
3364.847529363748
 20
3822.021124979302
 30
0.0
 10
3363.486496266312
 20
3821.303918366229
 30
0.0
 10
3363.421767048498
 20
3821.270078082889
 30
0.0
 10
3363.3569196418
 20
3821.236441131151
 30
0.0
  0
SPLINE
  5
2E4
330
6C
100
AcDbEntity
  8
Widoczne (ISO)
100
AcDbSpline
210
0.0
220
0.0
230
1.0
 70
     8
 71
     3
 72
    10
 73
     6
 74
     0
 42
0.0000000001
 43
0.0000000001
 40
0.0
 40
0.0
 40
0.0
 40
0.0
 40
1.253130521394495
 40
1.253130521394495
 40
1.734547740666669
 40
1.734547740666669
 40
1.734547740666669
 40
1.734547740666669
 10
3314.751428284898
 20
3804.473076248984
 30
0.0
 10
3311.671661431123
 20
3804.602834987993
 30
0.0
 10
3308.798968315768
 20
3804.732503489914
 30
0.0
 10
3304.251141252504
 20
3805.313305488184
 30
0.0
 10
3302.913491220617
 20
3805.532986893032
 30
0.0
 10
3301.535856906349
 20
3805.856960416043
 30
0.0
  0
SPLINE
  5
2E5
330
6C
100
AcDbEntity
  8
Widoczne (ISO)
100
AcDbSpline
210
0.0
220
0.0
230
1.0
 70
     8
 71
     3
 72
    32
 73
    28
 74
     0
 42
0.0000000001
 43
0.0000000001
 40
0.0
 40
0.0
 40
0.0
 40
0.0
 40
1.990895667418176
 40
1.990895667418176
 40
3.061645966825336
 40
3.061645966825336
 40
3.496826063432438
 40
3.496826063432438
 40
3.8848566540305
 40
3.8848566540305
 40
4.213116303936532
 40
4.213116303936532
 40
4.580620127895811
 40
4.580620127895811
 40
5.057672598751395
 40
5.057672598751395
 40
5.834216888061512
 40
5.834216888061512
 40
6.828572462271767
 40
6.828572462271767
 40
7.801055234506661
 40
7.801055234506661
 40
8.494804639041777
 40
8.494804639041777
 40
9.347295133018542
 40
9.347295133018542
 40
9.606327267966598
 40
9.606327267966598
 40
9.606327267966598
 40
9.606327267966598
 10
3380.579921383839
 20
3847.741199439139
 30
0.0
 10
3379.732791357637
 20
3844.47959464103
 30
0.0
 10
3378.711921735332
 20
3840.922232979341
 30
0.0
 10
3376.848338931815
 20
3835.556558660163
 30
0.0
 10
3376.244263852852
 20
3833.639674952001
 30
0.0
 10
3374.16728334157
 20
3830.218235694661
 30
0.0
 10
3373.400582692066
 20
3829.151798352485
 30
0.0
 10
3371.669016389161
 20
3827.202706239124
 30
0.0
 10
3370.708386577498
 20
3826.287660988613
 30
0.0
 10
3368.865090960307
 20
3824.772195609355
 30
0.0
 10
3367.976109810579
 20
3824.1261676799
 30
0.0
 10
3366.141254664661
 20
3822.894231454238
 30
0.0
 10
3365.183797179965
 20
3822.309993852633
 30
0.0
 10
3363.12051849287
 20
3821.091364064812
 30
0.0
 10
3362.036436868296
 20
3820.479622179466
 30
0.0
 10
3359.3896833112
 20
3818.95672919975
 30
0.0
 10
3357.938457385154
 20
3818.090027020927
 30
0.0
 10
3354.623637883469
 20
3816.019232965214
 30
0.0
 10
3352.703864112581
 20
3814.757701550813
 30
0.0
 10
3348.389579793078
 20
3812.076447775076
 30
0.0
 10
3346.025047538603
 20
3810.67391688286
 30
0.0
 10
3341.601858891421
 20
3808.467171961606
 30
0.0
 10
3339.621048878405
 20
3807.586372502742
 30
0.0
 10
3334.8701242041
 20
3806.029175342511
 30
0.0
 10
3332.04264023786
 20
3805.474715626476
 30
0.0
 10
3328.548726224404
 20
3804.950750943535
 30
0.0
 10
3327.739342007147
 20
3804.845832356618
 30
0.0
 10
3326.938090674602
 20
3804.757389175103
 30
0.0
  0
SPLINE
  5
2E6
330
6C
100
AcDbEntity
  8
Widoczne (ISO)
100
AcDbSpline
210
0.0
220
0.0
230
1.0
 70
     8
 71
     3
 72
    26
 73
    22
 74
     0
 42
0.0000000001
 43
0.0000000001
 40
0.0
 40
0.0
 40
0.0
 40
0.0
 40
0.0431423790959458
 40
0.0431423790959458
 40
0.056168025590394
 40
0.056168025590394
 40
0.067934409979305
 40
0.067934409979305
 40
0.0749890195670553
 40
0.0749890195670553
 40
0.0850523205090461
 40
0.0850523205090461
 40
0.0936259829944114
 40
0.0936259829944114
 40
0.1036073209428874
 40
0.1036073209428874
 40
0.1178573682157995
 40
0.1178573682157995
 40
0.1413498951115751
 40
0.1413498951115751
 40
0.1765247809893871
 40
0.1765247809893871
 40
0.1765247809893871
 40
0.1765247809893871
 10
3376.959778200191
 20
3847.741199439144
 30
0.0
 10
3376.965676609691
 20
3847.637933285817
 30
0.0
 10
3376.972429191642
 20
3847.526294543789
 30
0.0
 10
3376.983552378112
 20
3847.362157151748
 30
0.0
 10
3376.986323294953
 20
3847.322444380504
 30
0.0
 10
3376.992005940291
 20
3847.24410565223
 30
0.0
 10
3376.994923233918
 20
3847.205157451298
 30
0.0
 10
3376.999801442472
 20
3847.142672309729
 30
0.0
 10
3377.00169764227
 20
3847.118958268646
 30
0.0
 10
3377.006283749314
 20
3847.063083613088
 30
0.0
 10
3377.009034114765
 20
3847.030878202325
 30
0.0
 10
3377.013655542136
 20
3846.978693739838
 30
0.0
 10
3377.015647658345
 20
3846.956984779976
 30
0.0
 10
3377.019491876267
 20
3846.916202207646
 30
0.0
 10
3377.021310995034
 20
3846.897653832979
 30
0.0
 10
3377.025156346197
 20
3846.859441701889
 30
0.0
 10
3377.026981589257
 20
3846.842237105152
 30
0.0
 10
3377.03098052804
 20
3846.80556712468
 30
0.0
 10
3377.03265845672
 20
3846.791424895437
 30
0.0
 10
3377.035616451909
 20
3846.767115750827
 30
0.0
 10
3377.03629401526
 20
3846.762427149556
 30
0.0
 10
3377.036294015259
 20
3846.762427149558
 30
0.0
  0
SPLINE
  5
2E7
330
6C
100
AcDbEntity
  8
Widoczne (ISO)
100
AcDbSpline
210
0.0
220
0.0
230
1.0
 70
     8
 71
     3
 72
    28
 73
    24
 74
     0
 42
0.0000000001
 43
0.0000000001
 40
7.401195233062463
 40
7.401195233062463
 40
7.401195233062463
 40
7.401195233062463
 40
7.445188854266486
 40
7.445188854266486
 40
7.736263675118085
 40
7.736263675118085
 40
8.053407410058389
 40
8.053407410058389
 40
8.38217170556056
 40
8.38217170556056
 40
8.689724692434351
 40
8.689724692434351
 40
9.172867698332293
 40
9.172867698332293
 40
9.837525159137788
 40
9.837525159137788
 40
10.41642068975201
 40
10.41642068975201
 40
11.04984577932584
 40
11.04984577932584
 40
11.98363011941429
 40
11.98363011941429
 40
12.57581084494308
 40
12.57581084494308
 40
12.57581084494308
 40
12.57581084494308
 10
3309.427014987782
 20
3806.559022443196
 30
0.0
 10
3309.427014983777
 20
3806.559022443371
 30
0.0
 10
3309.423199469708
 20
3806.559189184554
 30
0.0
 10
3309.364103936434
 20
3806.560989326147
 30
0.0
 10
3309.137973470418
 20
3806.56368861565
 30
0.0
 10
3308.441226992385
 20
3806.529215165019
 30
0.0
 10
3307.939550492601
 20
3806.488393703809
 30
0.0
 10
3306.616112978002
 20
3806.343751954458
 30
0.0
 10
3305.765521666983
 20
3806.235315845991
 30
0.0
 10
3303.979448868427
 20
3806.033252562267
 30
0.0
 10
3303.042445502706
 20
3805.939876565911
 30
0.0
 10
3300.581478312878
 20
3805.797112304997
 30
0.0
 10
3299.003034857397
 20
3805.804086348397
 30
0.0
 10
3295.295015536908
 20
3806.256514073645
 30
0.0
 10
3293.124739011893
 20
3806.897347973409
 30
0.0
 10
3289.497806283478
 20
3808.823149777032
 30
0.0
 10
3287.944899602268
 20
3810.018911231971
 30
0.0
 10
3285.099275206678
 20
3812.859971839845
 30
0.0
 10
3283.808985278878
 20
3814.554888550764
 30
0.0
 10
3281.018270821804
 20
3818.953078987842
 30
0.0
 10
3279.675824526175
 20
3821.785415210978
 30
0.0
 10
3277.801388804669
 20
3826.503966705287
 30
0.0
 10
3277.149674001166
 20
3828.363737856175
 30
0.0
 10
3276.549742540694
 20
3830.241199439145
 30
0.0
  0
SPLINE
  5
2E8
330
6C
100
AcDbEntity
  8
Widoczne (ISO)
100
AcDbSpline
210
0.0
220
0.0
230
1.0
 70
     8
 71
     3
 72
    18
 73
    14
 74
     0
 42
0.0000000001
 43
0.0000000001
 40
-6.015052666580945
 40
-6.015052666580945
 40
-6.015052666580945
 40
-6.015052666580945
 40
-5.875346314159392
 40
-5.875346314159392
 40
-5.640762954581607
 40
-5.640762954581607
 40
-5.410460902898734
 40
-5.410460902898734
 40
-5.16349578686508
 40
-5.16349578686508
 40
-4.900702429174938
 40
-4.900702429174938
 40
-4.654008061012839
 40
-4.654008061012839
 40
-4.654008061012839
 40
-4.654008061012839
 10
3885.339512453154
 20
3804.692093312237
 30
0.0
 10
3885.472487601382
 20
3804.716589663245
 30
0.0
 10
3885.644057128738
 20
3804.736348880058
 30
0.0
 10
3886.202421658954
 20
3804.777148844403
 30
0.0
 10
3886.656954925165
 20
3804.790252983926
 30
0.0
 10
3887.748490977485
 20
3804.802171927341
 30
0.0
 10
3888.376239718982
 20
3804.801564515253
 30
0.0
 10
3889.824703741011
 20
3804.789893026301
 30
0.0
 10
3890.645945553424
 20
3804.777353138084
 30
0.0
 10
3892.429830585985
 20
3804.737587271404
 30
0.0
 10
3893.381554454337
 20
3804.706691109197
 30
0.0
 10
3895.206007620315
 20
3804.680368042795
 30
0.0
 10
3896.014948074601
 20
3804.685112469941
 30
0.0
 10
3896.724565665941
 20
3804.768125621701
 30
0.0
  0
SPLINE
  5
2E9
330
6C
100
AcDbEntity
  8
Widoczne (ISO)
100
AcDbSpline
210
0.0
220
0.0
230
1.0
 70
     8
 71
     3
 72
    12
 73
     8
 74
     0
 42
0.0000000001
 43
0.0000000001
 40
-0.7780773994413411
 40
-0.7780773994413411
 40
-0.7780773994413411
 40
-0.7780773994413411
 40
-0.6934330173628693
 40
-0.6934330173628693
 40
-0.3590435307056872
 40
-0.3590435307056872
 40
0.0
 40
0.0
 40
0.0
 40
0.0
 10
3885.937631999535
 20
3804.757802676674
 30
0.0
 10
3885.856672074504
 20
3804.702853774831
 30
0.0
 10
3885.775521982177
 20
3804.654397030214
 30
0.0
 10
3885.37794891358
 20
3804.455700360848
 30
0.0
 10
3885.147046158829
 20
3804.45469152211
 30
0.0
 10
3884.951446130184
 20
3804.536994590805
 30
0.0
 10
3884.997768030739
 20
3804.629138004887
 30
0.0
 10
3885.339512453154
 20
3804.692093312237
 30
0.0
  0
SPLINE
  5
2EA
330
6C
100
AcDbEntity
  8
Widoczne (ISO)
100
AcDbSpline
210
0.0
220
0.0
230
1.0
 70
     8
 71
     3
 72
    10
 73
     6
 74
     0
 42
0.0000000001
 43
0.0000000001
 40
0.0
 40
0.0
 40
0.0
 40
0.0
 40
1.157402886832011
 40
1.157402886832011
 40
1.812715825892444
 40
1.812715825892444
 40
1.812715825892444
 40
1.812715825892444
 10
3885.162033769892
 20
3804.473502226628
 30
0.0
 10
3882.548319115136
 20
3804.594030817004
 30
0.0
 10
3880.152046963075
 20
3804.723508485871
 30
0.0
 10
3875.80859487209
 20
3805.25978678175
 30
0.0
 10
3874.092137293611
 20
3805.54452387775
 30
0.0
 10
3872.289984644438
 20
3806.039696272929
 30
0.0
  0
SPLINE
  5
2EB
330
6C
100
AcDbEntity
  8
Widoczne (ISO)
100
AcDbSpline
210
0.0
220
0.0
230
1.0
 70
     8
 71
     3
 72
    14
 73
    10
 74
     0
 42
0.0000000001
 43
0.0000000001
 40
1.886428421400637
 40
1.886428421400637
 40
1.886428421400637
 40
1.886428421400637
 40
2.008437390783766
 40
2.008437390783766
 40
2.678478562302264
 40
2.678478562302264
 40
3.37191964576509
 40
3.37191964576509
 40
4.297305744619108
 40
4.297305744619108
 40
4.297305744619108
 40
4.297305744619108
 10
3944.627432670542
 20
3830.241199439072
 30
0.0
 10
3944.425713870295
 20
3829.886871636463
 30
0.0
 10
3944.213054461658
 20
3829.539465228635
 30
0.0
 10
3942.755825901308
 20
3827.338903849075
 30
0.0
 10
3941.19447064865
 20
3825.67350856333
 30
0.0
 10
3937.668606494352
 20
3822.832788049777
 30
0.0
 10
3935.665549852105
 20
3821.639038338054
 30
0.0
 10
3930.846062314244
 20
3819.337542439356
 30
0.0
 10
3927.9010228549
 20
3818.356738472232
 30
0.0
 10
3925.137817837638
 20
3817.589290021866
 30
0.0
  0
SPLINE
  5
2EC
330
6C
100
AcDbEntity
  8
Widoczne (ISO)
100
AcDbSpline
210
0.0
220
0.0
230
1.0
 70
     8
 71
     3
 72
    30
 73
    26
 74
     0
 42
0.0000000001
 43
0.0000000001
 40
3.203557922315964
 40
3.203557922315964
 40
3.203557922315964
 40
3.203557922315964
 40
3.513980221054063
 40
3.513980221054063
 40
3.713173648290977
 40
3.713173648290977
 40
4.033512047464216
 40
4.033512047464216
 40
4.333644042266999
 40
4.333644042266999
 40
4.680357306543563
 40
4.680357306543563
 40
5.150486838022892
 40
5.150486838022892
 40
5.935021109009619
 40
5.935021109009619
 40
7.476293863648372
 40
7.476293863648372
 40
8.103768083013035
 40
8.103768083013035
 40
8.752256474698285
 40
8.752256474698285
 40
9.490878356829929
 40
9.490878356829929
 40
9.588837928102513
 40
9.588837928102513
 40
9.588837928102513
 40
9.588837928102513
 10
3941.358730634823
 20
3830.241199439086
 30
0.0
 10
3940.835539642047
 20
3829.550039630323
 30
0.0
 10
3940.239920236304
 20
3828.831993217121
 30
0.0
 10
3939.148677700617
 20
3827.659462920273
 30
0.0
 10
3938.689823733657
 20
3827.198491750177
 30
0.0
 10
3937.43964873902
 20
3826.026694125847
 30
0.0
 10
3936.597145222691
 20
3825.320213122556
 30
0.0
 10
3934.985060372532
 20
3824.082934761293
 30
0.0
 10
3934.19801911433
 20
3823.528688796501
 30
0.0
 10
3932.596860911587
 20
3822.451522768065
 30
0.0
 10
3931.782532792317
 20
3821.934574415678
 30
0.0
 10
3930.022090880907
 20
3820.824528502119
 30
0.0
 10
3929.115236909667
 20
3820.258044887177
 30
0.0
 10
3926.918039067849
 20
3818.837024065945
 30
0.0
 10
3925.75985384734
 20
3818.036542984153
 30
0.0
 10
3922.040143140431
 20
3815.377383031207
 30
0.0
 10
3918.838238181088
 20
3812.981043021033
 30
0.0
 10
3913.598654101551
 20
3809.88312640966
 30
0.0
 10
3911.990867148965
 20
3809.012470737977
 30
0.0
 10
3908.490580536973
 20
3807.415932843166
 30
0.0
 10
3906.510988376947
 20
3806.69676815438
 30
0.0
 10
3902.141174156009
 20
3805.603585597078
 30
0.0
 10
3899.83236493795
 20
3805.1700969879
 30
0.0
 10
3897.311237838959
 20
3804.838667733579
 30
0.0
 10
3897.017222373111
 20
3804.802262085402
 30
0.0
 10
3896.724575212448
 20
3804.768216017293
 30
0.0
  0
SPLINE
  5
2ED
330
6C
100
AcDbEntity
  8
Widoczne (ISO)
100
AcDbSpline
210
0.0
220
0.0
230
1.0
 70
     8
 71
     3
 72
    28
 73
    24
 74
     0
 42
0.0000000001
 43
0.0000000001
 40
6.976002418611931
 40
6.976002418611931
 40
6.976002418611931
 40
6.976002418611931
 40
7.047802807391445
 40
7.047802807391445
 40
7.370514117646544
 40
7.370514117646544
 40
7.681617449245755
 40
7.681617449245755
 40
8.079221918064767
 40
8.079221918064767
 40
8.419451182000166
 40
8.419451182000166
 40
8.91791818218382
 40
8.91791818218382
 40
9.608255062692633
 40
9.608255062692633
 40
10.20241128527755
 40
10.20241128527755
 40
10.86049787285673
 40
10.86049787285673
 40
11.84262240991884
 40
11.84262240991884
 40
12.33407945702966
 40
12.33407945702966
 40
12.33407945702966
 40
12.33407945702966
 10
3878.743973425047
 20
3806.54474212463
 30
0.0
 10
3878.743973425519
 20
3806.544742124586
 30
0.0
 10
3878.735364628586
 20
3806.545543725763
 30
0.0
 10
3878.640400314831
 20
3806.552368627116
 30
0.0
 10
3878.363830251652
 20
3806.566442654001
 30
0.0
 10
3877.527847254116
 20
3806.550390139795
 30
0.0
 10
3876.994270819215
 20
3806.522310421188
 30
0.0
 10
3875.545412163912
 20
3806.39727291055
 30
0.0
 10
3874.512073422913
 20
3806.275577985657
 30
0.0
 10
3872.405089070806
 20
3806.046366394666
 30
0.0
 10
3871.349748984999
 20
3805.941973110302
 30
0.0
 10
3868.699793994412
 20
3805.795337667233
 30
0.0
 10
3867.055950583001
 20
3805.805680822177
 30
0.0
 10
3863.19117190473
 20
3806.290491357918
 30
0.0
 10
3860.933808629822
 20
3806.977296765984
 30
0.0
 10
3857.208157564491
 20
3809.010883674858
 30
0.0
 10
3855.631610407146
 20
3810.255405865382
 30
0.0
 10
3852.727837490412
 20
3813.214172217376
 30
0.0
 10
3851.408935566573
 20
3814.983480371945
 30
0.0
 10
3848.537293939691
 20
3819.600218191543
 30
0.0
 10
3847.155727238114
 20
3822.583300011461
 30
0.0
 10
3845.386182057723
 20
3827.145475831289
 30
0.0
 10
3844.842386765787
 20
3828.686493502817
 30
0.0
 10
3844.33350671489
 20
3830.241199439083
 30
0.0
  0
ELLIPSE
  5
2EE
330
6C
100
AcDbEntity
  8
Widoczne (ISO)
100
AcDbEllipse
 10
3651.457857480735
 20
3850.241199439198
 30
0.0
 11
-0.0000000000048189
 21
12.2474487139156
 31
0.0
210
0.0
220
0.0
230
1.0
 40
0.7895913389724418
 41
6.25502889652559
 42
6.366363929485008
  0
ELLIPSE
  5
2EF
330
6C
100
AcDbEntity
  8
Widoczne (ISO)
100
AcDbEllipse
 10
3653.934414185949
 20
3850.241199439198
 30
0.0
 11
0.0000000000089591
 21
12.24744871391606
 31
0.0
210
0.0
220
0.0
230
1.0
 40
0.9262174775302453
 41
6.255028896526856
 42
6.366363929486289
  0
ELLIPSE
  5
2F0
330
6C
100
AcDbEntity
  8
Widoczne (ISO)
100
AcDbEllipse
 10
3655.468496805587
 20
3850.241199439198
 30
0.0
 11
0.0000000000005412
 21
12.24744871391578
 31
0.0
210
0.0
220
0.0
230
1.0
 40
0.1366261385578035
 41
6.165059654187668
 42
6.366363929485816
  0
ELLIPSE
  5
2F1
330
6C
100
AcDbEntity
  8
Widoczne (ISO)
100
AcDbEllipse
 10
3654.52602272001
 20
3850.241199439198
 30
0.0
 11
-0.0000000000047055
 21
12.24744871391572
 31
0.0
210
0.0
220
0.0
230
1.0
 40
0.7895913389724412
 41
6.165059654186729
 42
6.40131096017153
  0
ELLIPSE
  5
2F2
330
6C
100
AcDbEntity
  8
Widoczne (ISO)
100
AcDbEllipse
 10
3650.515383395158
 20
3850.241199439198
 30
0.0
 11
0.0000000000005541
 21
12.2474487139155
 31
0.0
210
0.0
220
0.0
230
1.0
 40
0.1366261385578035
 41
6.165059654187355
 42
6.311341717833248
  0
ELLIPSE
  5
2F3
330
6C
100
AcDbEntity
  8
Widoczne (ISO)
100
AcDbEllipse
 10
3652.049466014795
 20
3850.241199439198
 30
0.0
 11
0.000000000008953
 21
12.24744871391573
 31
0.0
210
0.0
220
0.0
230
1.0
 40
0.9262174775302451
 41
6.165059654187973
 42
6.401310960172727
  0
ARC
  5
2F4
330
6C
100
AcDbEntity
  8
Widoczne (ISO)
100
AcDbCircle
 10
3652.991940100373
 20
3850.241199439198
 30
0.0
 40
12.49999999999997
100
AcDbArc
 50
36.86989764584108
 51
78.35230892058764
  0
ARC
  5
2F5
330
6C
100
AcDbEntity
  8
Widoczne (ISO)
100
AcDbCircle
 10
3652.991940100373
 20
3850.241199439198
 30
0.0
 40
12.49999999999997
100
AcDbArc
 50
101.6476910794075
 51
143.1301023541555
  0
ELLIPSE
  5
2F6
330
6C
100
AcDbEntity
  8
Widoczne (ISO)
100
AcDbEllipse
 10
3493.894189146594
 20
3850.241199439026
 30
0.0
 11
-0.0000000000047766
 21
12.24744871391542
 31
0.0
210
0.0
220
0.0
230
1.0
 40
0.7873288803645499
 41
6.25426308233842
 42
6.365487018936518
  0
ELLIPSE
  5
2F7
330
6C
100
AcDbEntity
  8
Widoczne (ISO)
100
AcDbEllipse
 10
3496.369472723509
 20
3850.241199439025
 30
0.0
 11
0.0000000000092784
 21
12.24744871391598
 31
0.0
210
0.0
220
0.0
230
1.0
 40
0.9275978869787129
 41
6.254263082339766
 42
6.36548701893786
  0
ELLIPSE
  5
2F8
330
6C
100
AcDbEntity
  8
Widoczne (ISO)
100
AcDbEllipse
 10
3497.910805819695
 20
3850.241199439026
 30
0.0
 11
0.0000000000005173
 21
12.247448713916
 31
0.0
210
0.0
220
0.0
230
1.0
 40
0.1402690066141632
 41
6.165059654187514
 42
6.365487018937214
  0
ELLIPSE
  5
2F9
330
6C
100
AcDbEntity
  8
Widoczne (ISO)
100
AcDbEllipse
 10
3496.976855338966
 20
3850.241199439027
 30
0.0
 11
-0.0000000000046636
 21
12.24744871391574
 31
0.0
210
0.0
220
0.0
230
1.0
 40
0.7873288803645498
 41
6.1650596541867
 42
6.401310960171509
  0
ELLIPSE
  5
2FA
330
6C
100
AcDbEntity
  8
Widoczne (ISO)
100
AcDbEllipse
 10
3492.960238665865
 20
3850.241199439027
 30
0.0
 11
0.0000000000005361
 21
12.24744871391563
 31
0.0
210
0.0
220
0.0
230
1.0
 40
0.1402690066141629
 41
6.165059654187528
 42
6.312107532020671
  0
ELLIPSE
  5
2FB
330
6C
100
AcDbEntity
  8
Widoczne (ISO)
100
AcDbEllipse
 10
3494.501571762051
 20
3850.241199439027
 30
0.0
 11
0.0000000000090566
 21
12.24744871391575
 31
0.0
210
0.0
220
0.0
230
1.0
 40
0.9275978869787131
 41
6.165059654187982
 42
6.401310960172734
  0
ARC
  5
2FC
330
6C
100
AcDbEntity
  8
Widoczne (ISO)
100
AcDbCircle
 10
3495.43552224278
 20
3850.241199439026
 30
0.0
 40
12.49999999999999
100
AcDbArc
 50
36.86989764584255
 51
78.34623410812556
  0
ARC
  5
2FD
330
6C
100
AcDbEntity
  8
Widoczne (ISO)
100
AcDbCircle
 10
3495.43552224278
 20
3850.241199439026
 30
0.0
 40
12.49999999999998
100
AcDbArc
 50
101.653765891872
 51
143.1301023541555
  0
ARC
  5
2FE
330
6C
100
AcDbEntity
  8
Widoczne (ISO)
100
AcDbCircle
 10
4236.443104910289
 20
3830.241199438831
 30
0.0
 40
1500.0
100
AcDbArc
 50
270.0
 51
0.0
  0
ARC
  5
2FF
330
6C
100
AcDbEntity
  8
Widoczne (ISO)
100
AcDbCircle
 10
4236.443104910289
 20
3890.241199438829
 30
0.0
 40
1500.0
100
AcDbArc
 50
0.0
 51
90.00000000000003
  0
ARC
  5
300
330
6C
100
AcDbEntity
  8
Widoczne (ISO)
100
AcDbCircle
 10
2910.443104910291
 20
3890.241199438829
 30
0.0
 40
1500.0
100
AcDbArc
 50
90.00000000000003
 51
180.0
  0
ARC
  5
301
330
6C
100
AcDbEntity
  8
Widoczne (ISO)
100
AcDbCircle
 10
2910.44310491029
 20
3830.24119943883
 30
0.0
 40
1500.0
100
AcDbArc
 50
180.0
 51
270.0
  0
LINE
  5
302
330
6C
100
AcDbEntity
  8
Widoczne (ISO)
100
AcDbLine
 10
5736.443104910289
 20
3890.24119943883
 30
0.0
 11
5736.443104910289
 21
3830.241199438832
 31
0.0
  0
LINE
  5
303
330
6C
100
AcDbEntity
  8
Widoczne (ISO)
100
AcDbLine
 10
2910.44310491029
 20
5390.241199438829
 30
0.0
 11
4236.443104910289
 21
5390.241199438832
 31
0.0
  0
LINE
  5
304
330
6C
100
AcDbEntity
  8
Widoczne (ISO)
100
AcDbLine
 10
1410.44310491029
 20
3830.24119943883
 30
0.0
 11
1410.44310491029
 21
3890.241199438829
 31
0.0
  0
LINE
  5
305
330
6C
100
AcDbEntity
  8
Widoczne (ISO)
100
AcDbLine
 10
4236.443104910289
 20
2330.241199438831
 30
0.0
 11
2910.44310491029
 21
2330.24119943883
 31
0.0
  0
DIMENSION
  5
6B9
330
6C
100
AcDbEntity
  8
Wymiar (ISO)
 62
     7
100
AcDbDimension
  2
*D10
 10
5991.78261818131
 20
5390.241199438832
 30
0.0
 11
5991.782618181309
 21
3875.241199438831
 31
0.0
 70
   160
  1
<>
 71
     2
 42
3060.0
 73
     0
 74
     0
 75
     0
  3
Domyślne (ISO)
100
AcDbAlignedDimension
 13
4236.443104910289
 23
2330.241199438831
 33
0.0
 14
4236.443104910289
 24
5390.241199438832
 34
0.0
 50
90.0
100
AcDbRotatedDimension
1001
ACAD
1000
DSTYLE
1002
{
1070
   178
1070
     7
1070
   177
1070
     7
1070
   176
1070
     7
1070
   172
1070
     0
1070
   289
1070
     1
1070
    74
1070
     0
1070
   271
1070
     0
1070
   272
1070
     0
1070
    48
1040
0.0
1070
    47
1040
0.0
1002
}
  0
DIMENSION
  5
7A1
330
6C
100
AcDbEntity
  8
Wymiar (ISO)
 62
     7
100
AcDbDimension
  2
*D11
 10
1410.44310491029
 20
2068.154579406126
 30
0.0
 11
3544.443104910291
 21
2068.154579406126
 31
0.0
 70
   160
  1
<>
 71
     2
 42
4325.999999999999
 73
     0
 74
     0
 75
     0
  3
Domyślne (ISO)
100
AcDbAlignedDimension
 13
5736.443104910289
 23
3830.241199438832
 33
0.0
 14
1410.44310491029
 24
3830.241199438831
 34
0.0
 50
180.0
100
AcDbRotatedDimension
1001
ACAD
1000
DSTYLE
1002
{
1070
   178
1070
     7
1070
   177
1070
     7
1070
   176
1070
     7
1070
   172
1070
     0
1070
   289
1070
     1
1070
    74
1070
     0
1070
   271
1070
     0
1070
   272
1070
     0
1070
    48
1040
0.0
1070
    47
1040
0.0
1002
}
  0
DIMENSION
  5
883
330
6C
100
AcDbEntity
  8
Wymiar (ISO)
 62
     7
100
AcDbDimension
  2
*D12
 10
4236.443104910289
 20
3531.233605971511
 30
0.0
 11
3602.343104910288
 21
3531.233605971511
 31
0.0
 70
   160
  1
<>
 71
     2
 42
1326.0
 73
     0
 74
     0
 75
     0
  3
Domyślne (ISO)
100
AcDbAlignedDimension
 13
2910.44310491029
 23
3860.241199438831
 33
0.0
 14
4236.443104910289
 24
3860.241199438831
 34
0.0
 50
180.0
100
AcDbRotatedDimension
1001
ACAD
1000
DSTYLE
1002
{
1070
   178
1070
     7
1070
   177
1070
     7
1070
   176
1070
     7
1070
   172
1070
     0
1070
   289
1070
     1
1070
    74
1070
     0
1070
   271
1070
     0
1070
   272
1070
     0
1070
    48
1040
0.0
1070
    47
1040
0.0
1002
}
  0
DIMENSION
  5
965
330
6C
100
AcDbEntity
  8
Wymiar (ISO)
 62
     7
100
AcDbDimension
  2
*D13
 10
2691.074241185399
 20
3830.241199439058
 30
0.0
 11
2691.074241185399
 21
3860.241199439059
 31
0.0
 70
   160
  1
<>
 71
     2
 42
60.00000000000046
 73
     0
 74
     0
 75
     0
  3
Domyślne (ISO)
100
AcDbAlignedDimension
 13
2940.44310491029
 23
3890.241199439059
 33
0.0
 14
2940.44310491029
 24
3830.241199439058
 34
0.0
 50
270.0
100
AcDbRotatedDimension
1001
ACAD
1000
DSTYLE
1002
{
1070
   178
1070
     7
1070
   177
1070
     7
1070
   176
1070
     7
1070
   172
1070
     1
1070
   289
1070
     1
1070
    74
1070
     0
1070
   271
1070
     0
1070
   272
1070
     0
1070
    48
1040
0.0
1070
    47
1040
0.0
1002
}
  0
ENDSEC
  0
SECTION
  2
OBJECTS
  0
DICTIONARY
  5
C
330
0
100
AcDbDictionary
281
     1
  3
ACAD_COLOR
350
63
  3
ACAD_GROUP
350
D
  3
ACAD_LAYOUT
350
62
  3
ACAD_MATERIAL
350
10
  3
ACAD_MLEADERSTYLE
350
66
  3
ACAD_MLINESTYLE
350
5F
  3
ACAD_PLOTSETTINGS
350
61
  3
ACAD_PLOTSTYLENAME
350
E
  3
ACAD_SCALELIST
350
42
  3
ACAD_TABLESTYLE
350
64
  3
ACAD_VISUALSTYLE
350
29
  3
ACDB_RECOMPOSE_DATA
350
12A1
  3
AcDbVariableDictionary
350
FE2
  3
AcmDictionary
350
11AD
  3
AMG
350
115F
  3
AMGSNAPSETTINGS
350
11EE
  0
DICTIONARY
  5
1011
330
8
100
AcDbDictionary
280
     1
281
     1
  0
DICTIONARY
  5
FED
330
2
100
AcDbDictionary
280
     1
281
     1
  3
ACAD_LAYERSTATES
360
FEE
  0
DICTIONARY
  5
FAB
330
161
100
AcDbDictionary
280
     1
281
     1
  3
ACAD_MLATT
360
1290
  3
ACAD_XREC_ROUNDTRIP
360
128F
  0
DICTIONARY
  5
FAE
330
163
100
AcDbDictionary
280
     1
281
     1
  3
ACAD_MLATT
360
1292
  3
ACAD_XREC_ROUNDTRIP
360
1291
  0
DICTIONARY
  5
FB1
330
164
100
AcDbDictionary
280
     1
281
     1
  3
ACAD_MLATT
360
1294
  3
ACAD_XREC_ROUNDTRIP
360
1293
  0
DICTIONARY
  5
FB4
330
166
100
AcDbDictionary
280
     1
281
     1
  3
ACAD_MLATT
360
1296
  3
ACAD_XREC_ROUNDTRIP
360
1295
  0
DICTIONARY
  5
FB7
330
167
100
AcDbDictionary
280
     1
281
     1
  3
ACAD_MLATT
360
1298
  3
ACAD_XREC_ROUNDTRIP
360
1297
  0
DICTIONARY
  5
FBA
330
168
100
AcDbDictionary
280
     1
281
     1
  3
ACAD_MLATT
360
129A
  3
ACAD_XREC_ROUNDTRIP
360
1299
  0
DICTIONARY
  5
FBD
330
169
100
AcDbDictionary
280
     1
281
     1
  3
ACAD_MLATT
360
129C
  3
ACAD_XREC_ROUNDTRIP
360
129B
  0
DICTIONARY
  5
FC0
330
16A
100
AcDbDictionary
280
     1
281
     1
  3
ACAD_MLATT
360
129E
  3
ACAD_XREC_ROUNDTRIP
360
129D
  0
DICTIONARY
  5
FC3
330
16B
100
AcDbDictionary
280
     1
281
     1
  3
ACAD_MLATT
360
12A0
  3
ACAD_XREC_ROUNDTRIP
360
129F
  0
DICTIONARY
  5
63
102
{ACAD_REACTORS
330
C
102
}
330
C
100
AcDbDictionary
281
     1
  0
DICTIONARY
  5
D
102
{ACAD_REACTORS
330
C
102
}
330
C
100
AcDbDictionary
281
     1
  0
DICTIONARY
  5
62
102
{ACAD_REACTORS
330
C
102
}
330
C
100
AcDbDictionary
281
     1
  3
Layout1
350
6B
  3
Layout2
350
73
  3
Model
350
6F
  0
DICTIONARY
  5
10
102
{ACAD_REACTORS
330
C
102
}
330
C
100
AcDbDictionary
281
     1
  3
ByBlock
350
19
  3
ByLayer
350
11
  3
Global
350
21
  0
DICTIONARY
  5
66
102
{ACAD_REACTORS
330
C
102
}
330
C
100
AcDbDictionary
281
     1
  3
Standard
350
67
  0
DICTIONARY
  5
5F
102
{ACAD_REACTORS
330
C
102
}
330
C
100
AcDbDictionary
281
     1
  3
Standard
350
60
  0
DICTIONARY
  5
61
102
{ACAD_REACTORS
330
C
102
}
330
C
100
AcDbDictionary
281
     1
  0
ACDBDICTIONARYWDFLT
  5
E
102
{ACAD_REACTORS
330
C
102
}
330
C
100
AcDbDictionary
281
     1
  3
Normal
350
F
100
AcDbDictionaryWithDefault
340
F
  0
DICTIONARY
  5
42
102
{ACAD_REACTORS
330
C
102
}
330
C
100
AcDbDictionary
281
     1
  3
A0
350
43
  3
A1
350
44
  3
A2
350
45
  3
A3
350
46
  3
A4
350
47
  3
A5
350
48
  3
A6
350
49
  3
A7
350
4A
  3
A8
350
4B
  3
A9
350
4C
  3
B0
350
4D
  3
B1
350
4E
  3
B2
350
4F
  3
B3
350
50
  3
B4
350
51
  3
B5
350
52
  3
B6
350
53
  0
DICTIONARY
  5
64
102
{ACAD_REACTORS
330
C
102
}
330
C
100
AcDbDictionary
281
     1
  3
Standard
350
65
  0
DICTIONARY
  5
29
102
{ACAD_REACTORS
330
C
102
}
330
C
100
AcDbDictionary
281
     1
  3
2dWireframe
350
2F
  3
Basic
350
2E
  3
Brighten
350
35
  3
ColorChange
350
39
  3
Conceptual
350
32
  3
Dim
350
34
  3
EdgeColorOff
350
41
  3
Facepattern
350
38
  3
Flat
350
2A
  3
FlatWithEdges
350
2B
  3
Gouraud
350
2C
  3
GouraudWithEdges
350
2D
  3
Hidden
350
31
  3
JitterOff
350
3F
  3
Linepattern
350
37
  3
OverhangOff
350
40
  3
Realistic
350
33
  3
Shaded
350
3E
  3
Shaded with edges
350
3D
  3
Shades of Gray
350
3A
  3
Sketchy
350
3B
  3
Thicken
350
36
  3
Wireframe
350
30
  3
X-Ray
350
3C
  0
XRECORD
  5
12A1
102
{ACAD_REACTORS
330
C
102
}
330
C
100
AcDbXrecord
280
     1
 90
        1
330
65
330
161
330
163
330
164
330
166
330
167
330
168
330
169
330
16A
330
16B
  0
DICTIONARY
  5
FE2
102
{ACAD_REACTORS
330
C
102
}
330
C
100
AcDbDictionary
281
     1
  3
CANNOSCALE
350
FE5
  3
CMLEADERSTYLE
350
FE4
  3
CTABLESTYLE
350
FE3
  3
DIMASSOC
350
1057
  3
HIDETEXT
350
1056
  3
INDEXCTL
350
1055
  3
LAYEREVAL
350
1052
  3
LAYERNOTIFY
350
1053
  3
LIGHTINGUNITS
350
1051
  3
MSLTSCALE
350
1050
  3
SORTENTS
350
1054
  3
XCLIPFRAME
350
128D
  0
DICTIONARY
  5
11AD
102
{ACAD_REACTORS
330
C
102
}
330
C
100
AcDbDictionary
281
     1
  3
AcmStdDictionary
350
11B8
  0
DICTIONARY
  5
115F
102
{ACAD_REACTORS
330
C
102
}
330
C
100
AcDbDictionary
281
     1
  0
DICTIONARY
  5
11EE
102
{ACAD_REACTORS
330
C
102
}
330
C
100
AcDbDictionary
281
     1
  0
DICTIONARY
  5
FEE
102
{ACAD_REACTORS
330
FED
102
}
330
FED
100
AcDbDictionary
281
     1
  0
XRECORD
  5
1290
102
{ACAD_REACTORS
330
FAB
102
}
330
FAB
100
AcDbXrecord
280
     1
 70
     4
 70
     0
 70
     0
 40
1.0
  2
TYTUŁ
  1
Embedded Object
 10
222.5713910852681
 20
115.0
 30
0.0
 40
2.5
 41
93.99999999999998
 46
0.0
 71
     5
 72
     5
  1
Ściana wspinaczkowa - betonowanie
  7
Tekst notatki (ISO)
 73
     1
 44
1.0
  0
XRECORD
  5
128F
102
{ACAD_REACTORS
330
FAB
102
}
330
FAB
100
AcDbXrecord
280
     1
102
ACAD_MATT_HEIGHT
140
2.5
  0
XRECORD
  5
1292
102
{ACAD_REACTORS
330
FAE
102
}
330
FAE
100
AcDbXrecord
280
     1
 70
     4
 70
     0
 70
     0
 40
1.0
  2
NUMER_CZĘŚCI
  1
Embedded Object
 10
176.0713910852681
 20
105.0
 30
0.0
 40
2.5
 41
58.99999999999998
 46
0.0
 71
     4
 72
     5
  1
82.004 - ściana wspinaczkowa - IM
  7
Tekst notatki (ISO)
 73
     1
 44
1.0
  0
XRECORD
  5
1291
102
{ACAD_REACTORS
330
FAE
102
}
330
FAE
100
AcDbXrecord
280
     1
102
ACAD_MATT_HEIGHT
140
2.5
  0
XRECORD
  5
1294
102
{ACAD_REACTORS
330
FB1
102
}
330
FB1
100
AcDbXrecord
280
     1
 70
     4
 70
     0
 70
     0
 40
1.0
  2
FIRMA
  1
Embedded Object
 10
137.4145052978323
 20
109.9581637900171
 30
0.0
 40
2.5
 41
73.37793693868924
 46
0.0
 71
     5
 72
     5
  1

  7
Tekst notatki (ISO)
 73
     1
 44
1.0
  0
XRECORD
  5
1293
102
{ACAD_REACTORS
330
FB1
102
}
330
FB1
100
AcDbXrecord
280
     1
102
ACAD_MATT_HEIGHT
140
2.5
  0
XRECORD
  5
1296
102
{ACAD_REACTORS
330
FB4
102
}
330
FB4
100
AcDbXrecord
280
     1
 70
     4
 70
     0
 70
     0
 40
1.0
  2
AUTOR
  1
Embedded Object
 10
101.0713910852681
 20
120.9999999999991
 30
0.0
 40
2.485507130622863
 41
18.08427483161038
 46
0.0
 71
     7
 72
     5
  1
Muller
  7
Styl tekstu44
 73
     1
 44
1.0
  0
XRECORD
  5
1295
102
{ACAD_REACTORS
330
FB4
102
}
330
FB4
100
AcDbXrecord
280
     1
102
ACAD_MATT_HEIGHT
140
2.485507130622863
  0
XRECORD
  5
1298
102
{ACAD_REACTORS
330
FB7
102
}
330
FB7
100
AcDbXrecord
280
     1
 70
     4
 70
     0
 70
     0
 40
1.0
  2
SPRAWDZIŁ
  1
Embedded Object
 10
133.0713910852681
 20
120.9999999999991
 30
0.0
 40
2.485507130622863
 41
24.19635020868251
 46
0.0
 71
     7
 72
     5
  1
Pro-Design
  7
Styl tekstu44
 73
     1
 44
1.0
  0
XRECORD
  5
1297
102
{ACAD_REACTORS
330
FB7
102
}
330
FB7
100
AcDbXrecord
280
     1
102
ACAD_MATT_HEIGHT
140
2.485507130622863
  0
XRECORD
  5
129A
102
{ACAD_REACTORS
330
FBA
102
}
330
FBA
100
AcDbXrecord
280
     1
 70
     4
 70
     0
 70
     0
 40
1.0
  2
ZATWIERDZENIE_KONSTRUKCJI
  1
Embedded Object
 10
158.0713910852681
 20
121.0
 30
0.0
 40
2.485507130622863
 41
19.9788309932064
 46
0.0
 71
     7
 72
     5
  1
Muller
  7
Styl tekstu44
 73
     1
 44
1.0
  0
XRECORD
  5
1299
102
{ACAD_REACTORS
330
FBA
102
}
330
FBA
100
AcDbXrecord
280
     1
102
ACAD_MATT_HEIGHT
140
2.485507130622863
  0
XRECORD
  5
129C
102
{ACAD_REACTORS
330
FBD
102
}
330
FBD
100
AcDbXrecord
280
     1
 70
     4
 70
     0
 70
     0
 40
1.0
  2
DATA_ZATWIERDZENIA
  1
Embedded Object
 10
196.0713910852681
 20
120.9999999999991
 30
0.0
 40
2.485507130622863
 41
16.36541081572819
 46
0.0
 71
     9
 72
     5
  1

  7
Styl tekstu44
 73
     1
 44
1.0
  0
XRECORD
  5
129B
102
{ACAD_REACTORS
330
FBD
102
}
330
FBD
100
AcDbXrecord
280
     1
102
ACAD_MATT_HEIGHT
140
2.485507130622863
  0
XRECORD
  5
129E
102
{ACAD_REACTORS
330
FC0
102
}
330
FC0
100
AcDbXrecord
280
     1
 70
     4
 70
     0
 70
     0
 40
1.0
  2
DATA_UTWORZENIA
  1
Embedded Object
 10
221.0713910852682
 20
121.0
 30
0.0
 40
2.485507130622863
 41
28.66652440062225
 46
0.0
 71
     7
 72
     5
  1
2013-01-30
  7
Styl tekstu44
 73
     1
 44
1.0
  0
XRECORD
  5
129D
102
{ACAD_REACTORS
330
FC0
102
}
330
FC0
100
AcDbXrecord
280
     1
102
ACAD_MATT_HEIGHT
140
2.485507130622863
  0
XRECORD
  5
12A0
102
{ACAD_REACTORS
330
FC3
102
}
330
FC3
100
AcDbXrecord
280
     1
 70
     4
 70
     0
 70
     0
 40
1.0
  2
NUMER_WERSJI
  1
Embedded Object
 10
242.5713910852682
 20
103.4999999999998
 30
0.0
 40
2.5
 41
15.0
 46
0.0
 71
     5
 72
     5
  1
01
  7
Tekst notatki (ISO)
 73
     1
 44
1.0
  0
XRECORD
  5
129F
102
{ACAD_REACTORS
330
FC3
102
}
330
FC3
100
AcDbXrecord
280
     1
102
ACAD_MATT_HEIGHT
140
2.5
  0
LAYOUT
  5
6B
102
{ACAD_REACTORS
330
62
102
}
330
62
100
AcDbPlotSettings
  1

  2

  4

  6

 40
0.0
 41
0.0
 42
0.0
 43
0.0
 44
0.0
 45
0.0
 46
0.0
 47
0.0
 48
0.0
 49
0.0
140
0.0
141
0.0
142
1.0
143
1.0
 70
   688
 72
     0
 73
     0
 74
     5
  7

 75
    16
147
1.0
 76
     0
 77
     2
 78
   300
148
0.0
149
0.0
100
AcDbLayout
  1
Layout1
 70
     1
 71
     1
 10
0.0
 20
0.0
 11
12600.0
 21
8910.0
 12
0.0
 22
0.0
 32
0.0
 14
0.0
 24
0.0
 34
0.0
 15
12600.0
 25
8910.0
 35
0.0
146
0.0
 13
0.0
 23
0.0
 33
0.0
 16
1.0
 26
0.0
 36
0.0
 17
0.0
 27
1.0
 37
0.0
 76
     0
330
68
  0
LAYOUT
  5
73
102
{ACAD_REACTORS
330
62
102
}
330
62
100
AcDbPlotSettings
  1

  2

  4

  6

 40
0.0
 41
0.0
 42
0.0
 43
0.0
 44
0.0
 45
0.0
 46
0.0
 47
0.0
 48
0.0
 49
0.0
140
0.0
141
0.0
142
1.0
143
1.0
 70
   688
 72
     0
 73
     0
 74
     5
  7

 75
    16
147
1.0
 76
     0
 77
     2
 78
   300
148
0.0
149
0.0
100
AcDbLayout
  1
Layout2
 70
     1
 71
     2
 10
0.0
 20
0.0
 11
12.0
 21
9.0
 12
0.0
 22
0.0
 32
0.0
 14
0.0
 24
0.0
 34
0.0
 15
0.0
 25
0.0
 35
0.0
146
0.0
 13
0.0
 23
0.0
 33
0.0
 16
1.0
 26
0.0
 36
0.0
 17
0.0
 27
1.0
 37
0.0
 76
     0
330
70
  0
LAYOUT
  5
6F
102
{ACAD_REACTORS
330
62
102
}
330
62
100
AcDbPlotSettings
  1

  2

  4

  6

 40
0.0
 41
0.0
 42
0.0
 43
0.0
 44
0.0
 45
0.0
 46
0.0
 47
0.0
 48
0.0
 49
0.0
140
0.0
141
0.0
142
1.0
143
1.0
 70
  1712
 72
     0
 73
     0
 74
     0
  7

 75
     0
147
1.0
 76
     0
 77
     2
 78
   300
148
0.0
149
0.0
100
AcDbLayout
  1
Model
 70
     1
 71
     0
 10
0.0
 20
0.0
 11
12.0
 21
9.0
 12
0.0
 22
0.0
 32
0.0
 14
0.0
 24
0.0
 34
0.0
 15
0.0
 25
0.0
 35
0.0
146
0.0
 13
0.0
 23
0.0
 33
0.0
 16
1.0
 26
0.0
 36
0.0
 17
0.0
 27
1.0
 37
0.0
 76
     0
330
6C
331
57
  0
MATERIAL
  5
19
102
{ACAD_XDICTIONARY
360
1A
102
}
102
{ACAD_REACTORS
330
10
102
}
330
10
100
AcDbMaterial
  1
ByBlock
 72
     0
 43
0.0208333333333333
 43
0.0
 43
0.0
 43
0.0
 43
0.0
 43
0.0208333333333333
 43
0.0
 43
0.0
 43
0.0
 43
0.0
 43
1.0
 43
0.0
 43
0.0
 43
0.0
 43
0.0
 43
1.0
 77
     0
 47
0.0208333333333333
 47
0.0
 47
0.0
 47
0.0
 47
0.0
 47
0.0208333333333333
 47
0.0
 47
0.0
 47
0.0
 47
0.0
 47
1.0
 47
0.0
 47
0.0
 47
0.0
 47
0.0
 47
1.0
171
     0
 49
0.0208333333333333
 49
0.0
 49
0.0
 49
0.0
 49
0.0
 49
0.0208333333333333
 49
0.0
 49
0.0
 49
0.0
 49
0.0
 49
1.0
 49
0.0
 49
0.0
 49
0.0
 49
0.0
 49
1.0
175
     0
142
0.0208333333333333
142
0.0
142
0.0
142
0.0
142
0.0
142
0.0208333333333333
142
0.0
142
0.0
142
0.0
142
0.0
142
1.0
142
0.0
142
0.0
142
0.0
142
0.0
142
1.0
179
     0
144
0.0208333333333333
144
0.0
144
0.0
144
0.0
144
0.0
144
0.0208333333333333
144
0.0
144
0.0
144
0.0
144
0.0
144
1.0
144
0.0
144
0.0
144
0.0
144
0.0
144
1.0
147
0.0208333333333333
147
0.0
147
0.0
147
0.0
147
0.0
147
0.0208333333333333
147
0.0
147
0.0
147
0.0
147
0.0
147
1.0
147
0.0
147
0.0
147
0.0
147
0.0
147
1.0
  0
MATERIAL
  5
11
102
{ACAD_XDICTIONARY
360
12
102
}
102
{ACAD_REACTORS
330
10
102
}
330
10
100
AcDbMaterial
  1
ByLayer
 72
     0
 43
0.0208333333333333
 43
0.0
 43
0.0
 43
0.0
 43
0.0
 43
0.0208333333333333
 43
0.0
 43
0.0
 43
0.0
 43
0.0
 43
1.0
 43
0.0
 43
0.0
 43
0.0
 43
0.0
 43
1.0
 77
     0
 47
0.0208333333333333
 47
0.0
 47
0.0
 47
0.0
 47
0.0
 47
0.0208333333333333
 47
0.0
 47
0.0
 47
0.0
 47
0.0
 47
1.0
 47
0.0
 47
0.0
 47
0.0
 47
0.0
 47
1.0
171
     0
 49
0.0208333333333333
 49
0.0
 49
0.0
 49
0.0
 49
0.0
 49
0.0208333333333333
 49
0.0
 49
0.0
 49
0.0
 49
0.0
 49
1.0
 49
0.0
 49
0.0
 49
0.0
 49
0.0
 49
1.0
175
     0
142
0.0208333333333333
142
0.0
142
0.0
142
0.0
142
0.0
142
0.0208333333333333
142
0.0
142
0.0
142
0.0
142
0.0
142
1.0
142
0.0
142
0.0
142
0.0
142
0.0
142
1.0
179
     0
144
0.0208333333333333
144
0.0
144
0.0
144
0.0
144
0.0
144
0.0208333333333333
144
0.0
144
0.0
144
0.0
144
0.0
144
1.0
144
0.0
144
0.0
144
0.0
144
0.0
144
1.0
147
0.0208333333333333
147
0.0
147
0.0
147
0.0
147
0.0
147
0.0208333333333333
147
0.0
147
0.0
147
0.0
147
0.0
147
1.0
147
0.0
147
0.0
147
0.0
147
0.0
147
1.0
  0
MATERIAL
  5
21
102
{ACAD_XDICTIONARY
360
22
102
}
102
{ACAD_REACTORS
330
10
102
}
330
10
100
AcDbMaterial
  1
Global
 72
     0
 43
0.0208333333333333
 43
0.0
 43
0.0
 43
0.0
 43
0.0
 43
0.0208333333333333
 43
0.0
 43
0.0
 43
0.0
 43
0.0
 43
1.0
 43
0.0
 43
0.0
 43
0.0
 43
0.0
 43
1.0
 77
     0
 47
0.0208333333333333
 47
0.0
 47
0.0
 47
0.0
 47
0.0
 47
0.0208333333333333
 47
0.0
 47
0.0
 47
0.0
 47
0.0
 47
1.0
 47
0.0
 47
0.0
 47
0.0
 47
0.0
 47
1.0
171
     0
 49
0.0208333333333333
 49
0.0
 49
0.0
 49
0.0
 49
0.0
 49
0.0208333333333333
 49
0.0
 49
0.0
 49
0.0
 49
0.0
 49
1.0
 49
0.0
 49
0.0
 49
0.0
 49
0.0
 49
1.0
175
     0
142
0.0208333333333333
142
0.0
142
0.0
142
0.0
142
0.0
142
0.0208333333333333
142
0.0
142
0.0
142
0.0
142
0.0
142
1.0
142
0.0
142
0.0
142
0.0
142
0.0
142
1.0
179
     0
144
0.0208333333333333
144
0.0
144
0.0
144
0.0
144
0.0
144
0.0208333333333333
144
0.0
144
0.0
144
0.0
144
0.0
144
1.0
144
0.0
144
0.0
144
0.0
144
0.0
144
1.0
147
0.0208333333333333
147
0.0
147
0.0
147
0.0
147
0.0
147
0.0208333333333333
147
0.0
147
0.0
147
0.0
147
0.0
147
1.0
147
0.0
147
0.0
147
0.0
147
0.0
147
1.0
  0
MLEADERSTYLE
  5
67
102
{ACAD_REACTORS
330
66
102
}
330
66
100
AcDbMLeaderStyle
170
     2
171
     1
172
     0
 90
        2
 40
0.0
 41
0.0
173
     1
 91
-1056964608
340
5B
 92
       -2
290
     1
 42
0.09
291
     1
 43
0.36
  3
Standard
 44
0.18
300

342
55
174
     1
178
     6
175
     1
176
     0
 93
-1056964608
 45
0.18
292
     0
297
     0
 46
0.18
 94
-1056964608
 47
1.0
 49
1.0
140
1.0
293
     1
141
0.0
294
     1
177
     0
142
1.0
295
     0
296
     0
143
0.125
1001
ACAD_MLEADERVER
1070
     2
  0
MLINESTYLE
  5
60
102
{ACAD_REACTORS
330
5F
102
}
330
5F
100
AcDbMlineStyle
  2
STANDARD
 70
     0
  3

 62
   256
 51
90.0
 52
90.0
 71
     2
 49
0.5
 62
   256
  6
BYLAYER
 49
-0.5
 62
   256
  6
BYLAYER
  0
ACDBPLACEHOLDER
  5
F
102
{ACAD_REACTORS
330
E
102
}
330
E
  0
SCALE
  5
43
102
{ACAD_REACTORS
330
42
102
}
330
42
100
AcDbScale
 70
     0
300
1:1
140
1.0
141
1.0
290
     1
  0
SCALE
  5
44
102
{ACAD_REACTORS
330
42
102
}
330
42
100
AcDbScale
 70
     0
300
1/128" = 1'-0"
140
0.0078125
141
12.0
290
     0
  0
SCALE
  5
45
102
{ACAD_REACTORS
330
42
102
}
330
42
100
AcDbScale
 70
     0
300
1/64" = 1'-0"
140
0.015625
141
12.0
290
     0
  0
SCALE
  5
46
102
{ACAD_REACTORS
330
42
102
}
330
42
100
AcDbScale
 70
     0
300
1/32" = 1'-0"
140
0.03125
141
12.0
290
     0
  0
SCALE
  5
47
102
{ACAD_REACTORS
330
42
102
}
330
42
100
AcDbScale
 70
     0
300
1/16" = 1'-0"
140
0.0625
141
12.0
290
     0
  0
SCALE
  5
48
102
{ACAD_REACTORS
330
42
102
}
330
42
100
AcDbScale
 70
     0
300
3/32" = 1'-0"
140
0.09375
141
12.0
290
     0
  0
SCALE
  5
49
102
{ACAD_REACTORS
330
42
102
}
330
42
100
AcDbScale
 70
     0
300
1/8" = 1'-0"
140
0.125
141
12.0
290
     0
  0
SCALE
  5
4A
102
{ACAD_REACTORS
330
42
102
}
330
42
100
AcDbScale
 70
     0
300
3/16" = 1'-0"
140
0.1875
141
12.0
290
     0
  0
SCALE
  5
4B
102
{ACAD_REACTORS
330
42
102
}
330
42
100
AcDbScale
 70
     0
300
1/4" = 1'-0"
140
0.25
141
12.0
290
     0
  0
SCALE
  5
4C
102
{ACAD_REACTORS
330
42
102
}
330
42
100
AcDbScale
 70
     0
300
3/8" = 1'-0"
140
0.375
141
12.0
290
     0
  0
SCALE
  5
4D
102
{ACAD_REACTORS
330
42
102
}
330
42
100
AcDbScale
 70
     0
300
1/2" = 1'-0"
140
0.5
141
12.0
290
     0
  0
SCALE
  5
4E
102
{ACAD_REACTORS
330
42
102
}
330
42
100
AcDbScale
 70
     0
300
3/4" = 1'-0"
140
0.75
141
12.0
290
     0
  0
SCALE
  5
4F
102
{ACAD_REACTORS
330
42
102
}
330
42
100
AcDbScale
 70
     0
300
1" = 1'-0"
140
1.0
141
12.0
290
     0
  0
SCALE
  5
50
102
{ACAD_REACTORS
330
42
102
}
330
42
100
AcDbScale
 70
     0
300
1-1/2" = 1'-0"
140
1.5
141
12.0
290
     0
  0
SCALE
  5
51
102
{ACAD_REACTORS
330
42
102
}
330
42
100
AcDbScale
 70
     0
300
3" = 1'-0"
140
3.0
141
12.0
290
     0
  0
SCALE
  5
52
102
{ACAD_REACTORS
330
42
102
}
330
42
100
AcDbScale
 70
     0
300
6" = 1'-0"
140
6.0
141
12.0
290
     0
  0
SCALE
  5
53
102
{ACAD_REACTORS
330
42
102
}
330
42
100
AcDbScale
 70
     0
300
1'-0" = 1'-0"
140
12.0
141
12.0
290
     0
  0
TABLESTYLE
  5
65
102
{ACAD_XDICTIONARY
360
FFB
102
}
102
{ACAD_REACTORS
330
64
102
}
330
64
100
AcDbTableStyle
  3
Standard
 70
     0
 71
     0
 40
0.06
 41
0.06
280
     0
281
     0
  7
Standard
140
0.18
170
     2
 62
     0
 63
     7
283
     0
 90
      512
 91
        0
  1

274
    -2
284
     1
 64
     0
275
    -2
285
     1
 65
     0
276
    -2
286
     1
 66
     0
277
    -2
287
     1
 67
     0
278
    -2
288
     1
 68
     0
279
    -2
289
     1
 69
     0
  7
Standard
140
0.25
170
     5
 62
     0
 63
     7
283
     0
 90
      512
 91
        0
  1

274
    -2
284
     1
 64
     0
275
    -2
285
     1
 65
     0
276
    -2
286
     1
 66
     0
277
    -2
287
     1
 67
     0
278
    -2
288
     1
 68
     0
279
    -2
289
     1
 69
     0
  7
Standard
140
0.18
170
     5
 62
     0
 63
     7
283
     0
 90
      512
 91
        0
  1

274
    -2
284
     1
 64
     0
275
    -2
285
     1
 65
     0
276
    -2
286
     1
 66
     0
277
    -2
287
     1
 67
     0
278
    -2
288
     1
 68
     0
279
    -2
289
     1
 69
     0
  0
VISUALSTYLE
  5
2F
102
{ACAD_XDICTIONARY
360
12AC
102
}
102
{ACAD_REACTORS
330
29
102
}
330
29
100
AcDbVisualStyle
  2
2dWireframe
 70
     4
 71
     0
 72
     2
 73
     0
 90
        0
 40
-0.6
 41
-30.0
 62
     5
 63
     7
 74
     1
 91
        4
 64
     7
 65
   257
 75
     1
175
     1
 42
1.0
 92
        0
 66
   257
 43
1.0
 76
     1
 77
     6
 78
     2
 67
     7
 79
     5
170
     0
171
     0
290
     0
174
     0
 93
        1
 44
0.0
173
     0
291
     0
 45
0.0
1001
ACAD
1000
AcDbSavedByObjectVersion
1070
     0
  0
VISUALSTYLE
  5
2E
102
{ACAD_XDICTIONARY
360
12AA
102
}
102
{ACAD_REACTORS
330
29
102
}
330
29
100
AcDbVisualStyle
  2
Basic
 70
     7
 71
     1
 72
     0
 73
     1
 90
        0
 40
-0.6
 41
-30.0
 62
     5
 63
     7
 74
     0
 91
        4
 64
     7
 65
   257
 75
     1
175
     1
 42
1.0
 92
        8
 66
     7
 43
1.0
 76
     1
 77
     6
 78
     2
 67
     7
 79
     5
170
     0
171
     0
290
     0
174
     0
 93
        1
 44
0.0
173
     0
291
     1
 45
0.0
1001
ACAD
1000
AcDbSavedByObjectVersion
1070
     0
  0
VISUALSTYLE
  5
35
102
{ACAD_XDICTIONARY
360
12B8
102
}
102
{ACAD_REACTORS
330
29
102
}
330
29
100
AcDbVisualStyle
  2
Brighten
 70
    12
 71
     2
 72
     2
 73
     0
 90
        0
 40
-0.6
 41
-30.0
 62
     5
 63
     7
 74
     1
 91
        4
 64
     7
 65
   257
 75
     1
175
     1
 42
1.0
 92
        8
 66
     7
 43
1.0
 76
     1
 77
     6
 78
     2
 67
     7
 79
     5
170
     0
171
     0
290
     0
174
     0
 93
        1
 44
50.0
173
     0
291
     1
 45
0.0
1001
ACAD
1000
AcDbSavedByObjectVersion
1070
     0
  0
VISUALSTYLE
  5
39
102
{ACAD_XDICTIONARY
360
12C0
102
}
102
{ACAD_REACTORS
330
29
102
}
330
29
100
AcDbVisualStyle
  2
ColorChange
 70
    16
 71
     2
 72
     2
 73
     3
 90
        0
 40
-0.6
 41
-30.0
 62
     5
 63
     8
 74
     1
 91
        4
 64
     7
 65
   257
 75
     1
175
     1
 42
1.0
 92
        8
 66
     8
 43
1.0
 76
     1
 77
     6
 78
     2
 67
     7
 79
     5
170
     0
171
     0
290
     0
174
     0
 93
        1
 44
0.0
173
     0
291
     1
 45
0.0
1001
ACAD
1000
AcDbSavedByObjectVersion
1070
     0
  0
VISUALSTYLE
  5
32
102
{ACAD_XDICTIONARY
360
12B2
102
}
102
{ACAD_REACTORS
330
29
102
}
330
29
100
AcDbVisualStyle
  2
Conceptual
 70
     9
 71
     3
 72
     2
 73
     0
 90
        0
 40
-0.6
 41
-30.0
 62
     5
 63
     7
 74
     2
 91
        2
 64
     7
 65
   257
 75
     1
175
     1
 42
179.0
 92
        8
 66
     7
 43
1.0
 76
     1
 77
     6
 78
     2
 67
     7
 79
     3
170
     0
171
     0
290
     0
174
     0
 93
        1
 44
0.0
173
     0
291
     0
 45
0.0
1001
ACAD
1000
AcDbSavedByObjectVersion
1070
     0
  0
VISUALSTYLE
  5
34
102
{ACAD_XDICTIONARY
360
12B6
102
}
102
{ACAD_REACTORS
330
29
102
}
330
29
100
AcDbVisualStyle
  2
Dim
 70
    11
 71
     2
 72
     2
 73
     0
 90
        0
 40
-0.6
 41
-30.0
 62
     5
 63
     7
 74
     1
 91
        4
 64
     7
 65
   257
 75
     1
175
     1
 42
1.0
 92
        8
 66
     7
 43
1.0
 76
     1
 77
     6
 78
     2
 67
     7
 79
     5
170
     0
171
     0
290
     0
174
     0
 93
        1
 44
-50.0
173
     0
291
     1
 45
0.0
1001
ACAD
1000
AcDbSavedByObjectVersion
1070
     0
  0
VISUALSTYLE
  5
41
102
{ACAD_XDICTIONARY
360
12D0
102
}
102
{ACAD_REACTORS
330
29
102
}
330
29
100
AcDbVisualStyle
  2
EdgeColorOff
 70
    22
 71
     2
 72
     2
 73
     0
 90
        0
 40
-0.6
 41
-30.0
 62
     5
 63
     7
 74
     1
 91
        4
 64
     7
 65
   257
 75
     1
175
     1
 42
1.0
 92
        8
 66
     7
 43
1.0
 76
     1
 77
     6
 78
     2
 67
     7
 79
     5
170
     0
171
     0
290
     0
174
     0
 93
        1
 44
0.0
173
     0
291
     1
 45
0.0
1001
ACAD
1000
AcDbSavedByObjectVersion
1070
     0
  0
VISUALSTYLE
  5
38
102
{ACAD_XDICTIONARY
360
12BE
102
}
102
{ACAD_REACTORS
330
29
102
}
330
29
100
AcDbVisualStyle
  2
Facepattern
 70
    15
 71
     2
 72
     2
 73
     0
 90
        0
 40
-0.6
 41
-30.0
 62
     5
 63
     7
 74
     1
 91
        4
 64
     7
 65
   257
 75
     1
175
     1
 42
1.0
 92
        8
 66
     7
 43
1.0
 76
     1
 77
     6
 78
     2
 67
     7
 79
     5
170
     0
171
     0
290
     0
174
     0
 93
        1
 44
0.0
173
     0
291
     1
 45
0.0
1001
ACAD
1000
AcDbSavedByObjectVersion
1070
     0
  0
VISUALSTYLE
  5
2A
102
{ACAD_XDICTIONARY
360
12A2
102
}
102
{ACAD_REACTORS
330
29
102
}
330
29
100
AcDbVisualStyle
  2
Flat
 70
     0
 71
     2
 72
     1
 73
     1
 90
        2
 40
-0.6
 41
30.0
 62
     5
 63
     7
 74
     0
 91
        0
 64
     7
 65
   257
 75
     1
175
     1
 42
1.0
 92
        8
 66
     7
 43
1.0
 76
     1
 77
     6
 78
     2
 67
     7
 79
     5
170
     0
171
     0
290
     0
174
     0
 93
       13
 44
0.0
173
     0
291
     1
 45
0.0
1001
ACAD
1000
AcDbSavedByObjectVersion
1070
     0
  0
VISUALSTYLE
  5
2B
102
{ACAD_XDICTIONARY
360
12A4
102
}
102
{ACAD_REACTORS
330
29
102
}
330
29
100
AcDbVisualStyle
  2
FlatWithEdges
 70
     1
 71
     2
 72
     1
 73
     1
 90
        2
 40
-0.6
 41
30.0
 62
     5
 63
     7
 74
     1
 91
        0
 64
     7
 65
   257
 75
     1
175
     1
 42
1.0
 92
        0
 66
   257
 43
1.0
 76
     1
 77
     6
 78
     2
 67
     7
 79
     5
170
     0
171
     0
290
     0
174
     0
 93
       13
 44
0.0
173
     0
291
     1
 45
0.0
1001
ACAD
1000
AcDbSavedByObjectVersion
1070
     0
  0
VISUALSTYLE
  5
2C
102
{ACAD_XDICTIONARY
360
12A6
102
}
102
{ACAD_REACTORS
330
29
102
}
330
29
100
AcDbVisualStyle
  2
Gouraud
 70
     2
 71
     2
 72
     2
 73
     1
 90
        2
 40
-0.6
 41
30.0
 62
     5
 63
     7
 74
     0
 91
        0
 64
     7
 65
   257
 75
     1
175
     1
 42
1.0
 92
        0
 66
     7
 43
1.0
 76
     1
 77
     6
 78
     2
 67
     7
 79
     5
170
     0
171
     0
290
     0
174
     0
 93
       13
 44
0.0
173
     0
291
     1
 45
0.0
1001
ACAD
1000
AcDbSavedByObjectVersion
1070
     0
  0
VISUALSTYLE
  5
2D
102
{ACAD_XDICTIONARY
360
12A8
102
}
102
{ACAD_REACTORS
330
29
102
}
330
29
100
AcDbVisualStyle
  2
GouraudWithEdges
 70
     3
 71
     2
 72
     2
 73
     1
 90
        2
 40
-0.6
 41
30.0
 62
     5
 63
     7
 74
     1
 91
        0
 64
     7
 65
   257
 75
     1
175
     1
 42
1.0
 92
        0
 66
   257
 43
1.0
 76
     1
 77
     6
 78
     2
 67
     7
 79
     5
170
     0
171
     0
290
     0
174
     0
 93
       13
 44
0.0
173
     0
291
     1
 45
0.0
1001
ACAD
1000
AcDbSavedByObjectVersion
1070
     0
  0
VISUALSTYLE
  5
31
102
{ACAD_XDICTIONARY
360
12B0
102
}
102
{ACAD_REACTORS
330
29
102
}
330
29
100
AcDbVisualStyle
  2
Hidden
 70
     6
 71
     1
 72
     2
 73
     2
 90
        0
 40
-0.6
 41
-30.0
 62
     5
 63
     7
 74
     2
 91
        2
 64
     7
 65
   257
 75
     2
175
     1
 42
40.0
 92
        0
 66
   257
 43
1.0
 76
     1
 77
     6
 78
     2
 67
     7
 79
     3
170
     0
171
     0
290
     0
174
     0
 93
        1
 44
0.0
173
     0
291
     0
 45
0.0
1001
ACAD
1000
AcDbSavedByObjectVersion
1070
     0
  0
VISUALSTYLE
  5
3F
102
{ACAD_XDICTIONARY
360
12CC
102
}
102
{ACAD_REACTORS
330
29
102
}
330
29
100
AcDbVisualStyle
  2
JitterOff
 70
    20
 71
     2
 72
     2
 73
     0
 90
        0
 40
-0.6
 41
-30.0
 62
     5
 63
     7
 74
     1
 91
        4
 64
     7
 65
   257
 75
     1
175
     1
 42
1.0
 92
       10
 66
     7
 43
1.0
 76
     1
 77
     6
 78
     2
 67
     7
 79
     5
170
     0
171
     0
290
     0
174
     0
 93
        1
 44
0.0
173
     0
291
     1
 45
0.0
1001
ACAD
1000
AcDbSavedByObjectVersion
1070
     0
  0
VISUALSTYLE
  5
37
102
{ACAD_XDICTIONARY
360
12BC
102
}
102
{ACAD_REACTORS
330
29
102
}
330
29
100
AcDbVisualStyle
  2
Linepattern
 70
    14
 71
     2
 72
     2
 73
     0
 90
        0
 40
-0.6
 41
-30.0
 62
     5
 63
     7
 74
     1
 91
        4
 64
     7
 65
   257
 75
     7
175
     7
 42
1.0
 92
        8
 66
     7
 43
1.0
 76
     1
 77
     6
 78
     2
 67
     7
 79
     5
170
     0
171
     0
290
     0
174
     0
 93
        1
 44
0.0
173
     0
291
     1
 45
0.0
1001
ACAD
1000
AcDbSavedByObjectVersion
1070
     0
  0
VISUALSTYLE
  5
40
102
{ACAD_XDICTIONARY
360
12CE
102
}
102
{ACAD_REACTORS
330
29
102
}
330
29
100
AcDbVisualStyle
  2
OverhangOff
 70
    21
 71
     2
 72
     2
 73
     0
 90
        0
 40
-0.6
 41
-30.0
 62
     5
 63
     7
 74
     1
 91
        4
 64
     7
 65
   257
 75
     1
175
     1
 42
1.0
 92
        9
 66
     7
 43
1.0
 76
     1
 77
     6
 78
     2
 67
     7
 79
     5
170
     0
171
     0
290
     0
174
     0
 93
        1
 44
0.0
173
     0
291
     1
 45
0.0
1001
ACAD
1000
AcDbSavedByObjectVersion
1070
     0
  0
VISUALSTYLE
  5
33
102
{ACAD_XDICTIONARY
360
12B4
102
}
102
{ACAD_REACTORS
330
29
102
}
330
29
100
AcDbVisualStyle
  2
Realistic
 70
     8
 71
     2
 72
     2
 73
     0
 90
        2
 40
-0.6
 41
30.0
 62
     5
 63
     7
 74
     0
 91
        0
 64
     7
 65
   257
 75
     1
175
     1
 42
1.0
 92
        8
 66
   257
 43
1.0
 76
     1
 77
     6
 78
     2
 67
     7
 79
     3
170
     0
171
     0
290
     0
174
     0
 93
       13
 44
0.0
173
     0
291
     0
 45
0.0
1001
ACAD
1000
AcDbSavedByObjectVersion
1070
     0
  0
VISUALSTYLE
  5
3E
102
{ACAD_XDICTIONARY
360
12CA
102
}
102
{ACAD_REACTORS
330
29
102
}
330
29
100
AcDbVisualStyle
  2
Shaded
 70
    27
 71
     2
 72
     2
 73
     1
 90
        2
 40
-0.6
 41
30.0
 62
     5
 63
     7
 74
     0
 91
        4
 64
     7
 65
   257
 75
     1
175
     1
 42
1.0
 92
        8
 66
   257
 43
1.0
 76
     1
 77
     6
 78
     2
 67
     8
 79
     3
170
     0
171
     0
290
     0
174
     0
 93
        5
 44
0.0
173
     0
291
     0
 45
0.0
1001
ACAD
1000
AcDbSavedByObjectVersion
1070
     0
  0
VISUALSTYLE
  5
3D
102
{ACAD_XDICTIONARY
360
12C8
102
}
102
{ACAD_REACTORS
330
29
102
}
330
29
100
AcDbVisualStyle
  2
Shaded with edges
 70
    26
 71
     2
 72
     2
 73
     1
 90
        2
 40
-0.6
 41
30.0
 62
     5
 63
     7
 74
     1
 91
       10
 64
     7
 65
   257
 75
     2
175
     1
 42
1.0
 92
        8
 66
   257
 43
1.0
 76
     1
 77
     6
 78
     2
 67
     7
 79
     3
170
     0
171
     0
290
     0
174
     0
 93
        5
 44
0.0
173
     0
291
     0
 45
0.0
1001
ACAD
1000
AcDbSavedByObjectVersion
1070
     0
  0
VISUALSTYLE
  5
3A
102
{ACAD_XDICTIONARY
360
12C2
102
}
102
{ACAD_REACTORS
330
29
102
}
330
29
100
AcDbVisualStyle
  2
Shades of Gray
 70
    23
 71
     2
 72
     2
 73
     3
 90
        0
 40
-0.6
 41
-30.0
 62
     5
 63
     7
 74
     2
 91
        2
 64
     7
 65
     7
 75
     1
175
     1
 42
40.0
 92
        8
 66
     7
 43
1.0
 76
     1
 77
     6
 78
     2
 67
     7
 79
     3
170
     0
171
     0
290
     0
174
     0
 93
        1
 44
0.0
173
     0
291
     0
 45
0.0
1001
ACAD
1000
AcDbSavedByObjectVersion
1070
     0
  0
VISUALSTYLE
  5
3B
102
{ACAD_XDICTIONARY
360
12C4
102
}
102
{ACAD_REACTORS
330
29
102
}
330
29
100
AcDbVisualStyle
  2
Sketchy
 70
    24
 71
     1
 72
     2
 73
     2
 90
        0
 40
-0.6
 41
-30.0
 62
     5
 63
     7
 74
     2
 91
        2
 64
     7
 65
     7
 75
     1
175
     1
 42
40.0
 92
       11
 66
     7
 43
1.0
 76
     1
 77
     6
 78
     2
 67
     7
 79
     6
170
     0
171
     0
290
     0
174
     0
 93
        1
 44
0.0
173
     0
291
     0
 45
0.0
1001
ACAD
1000
AcDbSavedByObjectVersion
1070
     0
  0
VISUALSTYLE
  5
36
102
{ACAD_XDICTIONARY
360
12BA
102
}
102
{ACAD_REACTORS
330
29
102
}
330
29
100
AcDbVisualStyle
  2
Thicken
 70
    13
 71
     2
 72
     2
 73
     0
 90
        0
 40
-0.6
 41
-30.0
 62
     5
 63
     7
 74
     1
 91
        4
 64
     7
 65
   257
 75
     1
175
     1
 42
1.0
 92
       12
 66
     7
 43
1.0
 76
     1
 77
     6
 78
     2
 67
     7
 79
     5
170
     0
171
     0
290
     0
174
     0
 93
        1
 44
0.0
173
     0
291
     1
 45
0.0
1001
ACAD
1000
AcDbSavedByObjectVersion
1070
     0
  0
VISUALSTYLE
  5
30
102
{ACAD_XDICTIONARY
360
12AE
102
}
102
{ACAD_REACTORS
330
29
102
}
330
29
100
AcDbVisualStyle
  2
Wireframe
 70
     5
 71
     0
 72
     2
 73
     0
 90
        0
 40
-0.6
 41
-30.0
 62
     5
 63
     7
 74
     1
 91
        4
 64
     7
 65
   257
 75
     1
175
     1
 42
1.0
 92
        0
 66
   257
 43
1.0
 76
     1
 77
     6
 78
     2
 67
     7
 79
     3
170
     0
171
     0
290
     0
174
     0
 93
        1
 44
0.0
173
     0
291
     0
 45
0.0
1001
ACAD
1000
AcDbSavedByObjectVersion
1070
     0
  0
VISUALSTYLE
  5
3C
102
{ACAD_XDICTIONARY
360
12C6
102
}
102
{ACAD_REACTORS
330
29
102
}
330
29
100
AcDbVisualStyle
  2
X-Ray
 70
    25
 71
     2
 72
     2
 73
     1
 90
        1
 40
0.5
 41
-30.0
 62
     5
 63
     7
 74
     1
 91
        0
 64
     7
 65
   257
 75
     1
175
     1
 42
1.0
 92
        8
 66
     7
 43
1.0
 76
     1
 77
     6
 78
     2
 67
     7
 79
     3
170
     0
171
     0
290
     0
174
     0
 93
       13
 44
0.0
173
     0
291
     0
 45
0.0
1001
ACAD
1000
AcDbSavedByObjectVersion
1070
     0
  0
DICTIONARYVAR
  5
FE5
102
{ACAD_REACTORS
330
FE2
102
}
330
FE2
100
DictionaryVariables
280
     0
  1
1:1
  0
DICTIONARYVAR
  5
FE4
102
{ACAD_REACTORS
330
FE2
102
}
330
FE2
100
DictionaryVariables
280
     0
  1
STANDARD
  0
DICTIONARYVAR
  5
FE3
102
{ACAD_REACTORS
330
FE2
102
}
330
FE2
100
DictionaryVariables
280
     0
  1
STANDARD
  0
DICTIONARYVAR
  5
1057
102
{ACAD_REACTORS
330
FE2
102
}
330
FE2
100
DictionaryVariables
280
     0
  1
1
  0
DICTIONARYVAR
  5
1056
102
{ACAD_REACTORS
330
FE2
102
}
330
FE2
100
DictionaryVariables
280
     0
  1
1
  0
DICTIONARYVAR
  5
1055
102
{ACAD_REACTORS
330
FE2
102
}
330
FE2
100
DictionaryVariables
280
     0
  1
0
  0
DICTIONARYVAR
  5
1052
102
{ACAD_REACTORS
330
FE2
102
}
330
FE2
100
DictionaryVariables
280
     0
  1
0
  0
DICTIONARYVAR
  5
1053
102
{ACAD_REACTORS
330
FE2
102
}
330
FE2
100
DictionaryVariables
280
     0
  1
0
  0
DICTIONARYVAR
  5
1051
102
{ACAD_REACTORS
330
FE2
102
}
330
FE2
100
DictionaryVariables
280
     0
  1
2
  0
DICTIONARYVAR
  5
1050
102
{ACAD_REACTORS
330
FE2
102
}
330
FE2
100
DictionaryVariables
280
     0
  1
1
  0
DICTIONARYVAR
  5
1054
102
{ACAD_REACTORS
330
FE2
102
}
330
FE2
100
DictionaryVariables
280
     0
  1
127
  0
DICTIONARYVAR
  5
128D
102
{ACAD_REACTORS
330
FE2
102
}
330
FE2
100
DictionaryVariables
280
     0
  1
2
  0
DICTIONARY
  5
11B8
102
{ACAD_REACTORS
330
11AD
102
}
330
11AD
100
AcDbDictionary
281
     1
  0
DICTIONARY
  5
1A
330
19
100
AcDbDictionary
280
     1
281
     1
  3
BUMPTILE
360
1C
  3
DIFFUSETILE
360
1B
  3
OPACITYTILE
360
1F
  3
REFLECTIONTILE
360
1E
  3
REFRACTIONTILE
360
20
  3
SPECULARTILE
360
1D
  0
DICTIONARY
  5
12
330
11
100
AcDbDictionary
280
     1
281
     1
  3
BUMPTILE
360
14
  3
DIFFUSETILE
360
13
  3
OPACITYTILE
360
17
  3
REFLECTIONTILE
360
16
  3
REFRACTIONTILE
360
18
  3
SPECULARTILE
360
15
  0
DICTIONARY
  5
22
330
21
100
AcDbDictionary
280
     1
281
     1
  3
BUMPTILE
360
24
  3
DIFFUSETILE
360
23
  3
OPACITYTILE
360
27
  3
REFLECTIONTILE
360
26
  3
REFRACTIONTILE
360
28
  3
SPECULARTILE
360
25
  0
DICTIONARY
  5
FFB
330
65
100
AcDbDictionary
280
     1
281
     1
  3
ACAD_ROUNDTRIP_2008_TABLESTYLE_CELLSTYLEMAP
360
128E
  0
DICTIONARY
  5
12AC
330
2F
100
AcDbDictionary
280
     1
281
     1
  3
ACAD_XREC_ROUNDTRIP
360
12AD
  0
DICTIONARY
  5
12AA
330
2E
100
AcDbDictionary
280
     1
281
     1
  3
ACAD_XREC_ROUNDTRIP
360
12AB
  0
DICTIONARY
  5
12B8
330
35
100
AcDbDictionary
280
     1
281
     1
  3
ACAD_XREC_ROUNDTRIP
360
12B9
  0
DICTIONARY
  5
12C0
330
39
100
AcDbDictionary
280
     1
281
     1
  3
ACAD_XREC_ROUNDTRIP
360
12C1
  0
DICTIONARY
  5
12B2
330
32
100
AcDbDictionary
280
     1
281
     1
  3
ACAD_XREC_ROUNDTRIP
360
12B3
  0
DICTIONARY
  5
12B6
330
34
100
AcDbDictionary
280
     1
281
     1
  3
ACAD_XREC_ROUNDTRIP
360
12B7
  0
DICTIONARY
  5
12D0
330
41
100
AcDbDictionary
280
     1
281
     1
  3
ACAD_XREC_ROUNDTRIP
360
12D1
  0
DICTIONARY
  5
12BE
330
38
100
AcDbDictionary
280
     1
281
     1
  3
ACAD_XREC_ROUNDTRIP
360
12BF
  0
DICTIONARY
  5
12A2
330
2A
100
AcDbDictionary
280
     1
281
     1
  3
ACAD_XREC_ROUNDTRIP
360
12A3
  0
DICTIONARY
  5
12A4
330
2B
100
AcDbDictionary
280
     1
281
     1
  3
ACAD_XREC_ROUNDTRIP
360
12A5
  0
DICTIONARY
  5
12A6
330
2C
100
AcDbDictionary
280
     1
281
     1
  3
ACAD_XREC_ROUNDTRIP
360
12A7
  0
DICTIONARY
  5
12A8
330
2D
100
AcDbDictionary
280
     1
281
     1
  3
ACAD_XREC_ROUNDTRIP
360
12A9
  0
DICTIONARY
  5
12B0
330
31
100
AcDbDictionary
280
     1
281
     1
  3
ACAD_XREC_ROUNDTRIP
360
12B1
  0
DICTIONARY
  5
12CC
330
3F
100
AcDbDictionary
280
     1
281
     1
  3
ACAD_XREC_ROUNDTRIP
360
12CD
  0
DICTIONARY
  5
12BC
330
37
100
AcDbDictionary
280
     1
281
     1
  3
ACAD_XREC_ROUNDTRIP
360
12BD
  0
DICTIONARY
  5
12CE
330
40
100
AcDbDictionary
280
     1
281
     1
  3
ACAD_XREC_ROUNDTRIP
360
12CF
  0
DICTIONARY
  5
12B4
330
33
100
AcDbDictionary
280
     1
281
     1
  3
ACAD_XREC_ROUNDTRIP
360
12B5
  0
DICTIONARY
  5
12CA
330
3E
100
AcDbDictionary
280
     1
281
     1
  3
ACAD_XREC_ROUNDTRIP
360
12CB
  0
DICTIONARY
  5
12C8
330
3D
100
AcDbDictionary
280
     1
281
     1
  3
ACAD_XREC_ROUNDTRIP
360
12C9
  0
DICTIONARY
  5
12C2
330
3A
100
AcDbDictionary
280
     1
281
     1
  3
ACAD_XREC_ROUNDTRIP
360
12C3
  0
DICTIONARY
  5
12C4
330
3B
100
AcDbDictionary
280
     1
281
     1
  3
ACAD_XREC_ROUNDTRIP
360
12C5
  0
DICTIONARY
  5
12BA
330
36
100
AcDbDictionary
280
     1
281
     1
  3
ACAD_XREC_ROUNDTRIP
360
12BB
  0
DICTIONARY
  5
12AE
330
30
100
AcDbDictionary
280
     1
281
     1
  3
ACAD_XREC_ROUNDTRIP
360
12AF
  0
DICTIONARY
  5
12C6
330
3C
100
AcDbDictionary
280
     1
281
     1
  3
ACAD_XREC_ROUNDTRIP
360
12C7
  0
XRECORD
  5
1C
102
{ACAD_REACTORS
330
1A
102
}
330
1A
100
AcDbXrecord
280
     1
270
     1
271
     1
  0
XRECORD
  5
1B
102
{ACAD_REACTORS
330
1A
102
}
330
1A
100
AcDbXrecord
280
     1
270
     1
271
     1
  0
XRECORD
  5
1F
102
{ACAD_REACTORS
330
1A
102
}
330
1A
100
AcDbXrecord
280
     1
270
     1
271
     1
  0
XRECORD
  5
1E
102
{ACAD_REACTORS
330
1A
102
}
330
1A
100
AcDbXrecord
280
     1
270
     1
271
     1
  0
XRECORD
  5
20
102
{ACAD_REACTORS
330
1A
102
}
330
1A
100
AcDbXrecord
280
     1
270
     1
271
     1
  0
XRECORD
  5
1D
102
{ACAD_REACTORS
330
1A
102
}
330
1A
100
AcDbXrecord
280
     1
270
     1
271
     1
  0
XRECORD
  5
14
102
{ACAD_REACTORS
330
12
102
}
330
12
100
AcDbXrecord
280
     1
270
     1
271
     1
  0
XRECORD
  5
13
102
{ACAD_REACTORS
330
12
102
}
330
12
100
AcDbXrecord
280
     1
270
     1
271
     1
  0
XRECORD
  5
17
102
{ACAD_REACTORS
330
12
102
}
330
12
100
AcDbXrecord
280
     1
270
     1
271
     1
  0
XRECORD
  5
16
102
{ACAD_REACTORS
330
12
102
}
330
12
100
AcDbXrecord
280
     1
270
     1
271
     1
  0
XRECORD
  5
18
102
{ACAD_REACTORS
330
12
102
}
330
12
100
AcDbXrecord
280
     1
270
     1
271
     1
  0
XRECORD
  5
15
102
{ACAD_REACTORS
330
12
102
}
330
12
100
AcDbXrecord
280
     1
270
     1
271
     1
  0
XRECORD
  5
24
102
{ACAD_REACTORS
330
22
102
}
330
22
100
AcDbXrecord
280
     1
270
     1
271
     1
  0
XRECORD
  5
23
102
{ACAD_REACTORS
330
22
102
}
330
22
100
AcDbXrecord
280
     1
270
     1
271
     1
  0
XRECORD
  5
27
102
{ACAD_REACTORS
330
22
102
}
330
22
100
AcDbXrecord
280
     1
270
     1
271
     1
  0
XRECORD
  5
26
102
{ACAD_REACTORS
330
22
102
}
330
22
100
AcDbXrecord
280
     1
270
     1
271
     1
  0
XRECORD
  5
28
102
{ACAD_REACTORS
330
22
102
}
330
22
100
AcDbXrecord
280
     1
270
     1
271
     1
  0
XRECORD
  5
25
102
{ACAD_REACTORS
330
22
102
}
330
22
100
AcDbXrecord
280
     1
270
     1
271
     1
  0
CELLSTYLEMAP
  5
128E
102
{ACAD_REACTORS
330
FFB
102
}
330
FFB
100
AcDbCellStyleMap
 90
        3
300
CELLSTYLE
  1
TABLEFORMAT_BEGIN
 90
        5
170
     1
 91
        0
 92
    32768
 62
   257
 93
        1
300
CONTENTFORMAT
  1
CONTENTFORMAT_BEGIN
 90
        0
 91
        0
 92
      512
 93
        0
300

 40
0.0
140
1.0
 94
        5
 62
     0
340
55
144
0.25
309
CONTENTFORMAT_END
171
     0
 94
        0
309
TABLEFORMAT_END
  1
CELLSTYLE_BEGIN
 90
        1
 91
        1
300
_TITLE
309
CELLSTYLE_END
300
CELLSTYLE
  1
TABLEFORMAT_BEGIN
 90
        5
170
     1
 91
        0
 92
        0
 62
   257
 93
        1
300
CONTENTFORMAT
  1
CONTENTFORMAT_BEGIN
 90
        0
 91
        0
 92
      512
 93
        0
300

 40
0.0
140
1.0
 94
        5
 62
     0
340
55
144
0.18
309
CONTENTFORMAT_END
171
     0
 94
        0
309
TABLEFORMAT_END
  1
CELLSTYLE_BEGIN
 90
        2
 91
        1
300
_HEADER
309
CELLSTYLE_END
300
CELLSTYLE
  1
TABLEFORMAT_BEGIN
 90
        5
170
     1
 91
        0
 92
        0
 62
   257
 93
        1
300
CONTENTFORMAT
  1
CONTENTFORMAT_BEGIN
 90
        0
 91
        0
 92
      512
 93
        0
300

 40
0.0
140
1.0
 94
        2
 62
     0
340
55
144
0.18
309
CONTENTFORMAT_END
171
     0
 94
        0
309
TABLEFORMAT_END
  1
CELLSTYLE_BEGIN
 90
        3
 91
        2
300
_DATA
309
CELLSTYLE_END
  0
XRECORD
  5
12AD
102
{ACAD_REACTORS
330
12AC
102
}
330
12AC
100
AcDbXrecord
280
     1
102
RTVSPropertyOp0
 70
     1
102
RTVSPropertyOp1
 70
     1
102
RTVSPropertyOp2
 70
     1
102
RTVSPropertyOp3
 70
     1
102
RTVSPropertyOp4
 70
     1
102
RTVSPropertyOp5
 70
     1
102
RTVSPropertyOp6
 70
     1
102
RTVSPropertyOp7
 70
     1
102
RTVSPropertyOp8
 70
     1
102
RTVSPropertyOp9
 70
     1
102
RTVSPropertyOp10
 70
     1
102
RTVSPropertyOp11
 70
     1
102
RTVSPropertyOp12
 70
     1
102
RTVSPropertyOp13
 70
     1
102
RTVSPropertyOp14
 70
     1
102
RTVSPropertyOp15
 70
     1
102
RTVSPropertyOp16
 70
     1
102
RTVSPropertyOp17
 70
     1
102
RTVSPropertyOp18
 70
     1
102
RTVSPropertyOp19
 70
     1
102
RTVSPropertyOp20
 70
     1
102
RTVSPropertyOp21
 70
     1
102
RTVSPropertyOp22
 70
     1
102
RTVSPropertyOp23
 70
     1
102
RTVSPropertyOp24
 70
     1
102
RTVSPropertyOp25
 70
     1
102
RTVSPropertyOp26
 70
     1
102
RTVSPropertyOp27
 70
     1
102
RTVSPropertyOp28
 70
     1
102
RTVSPropertyOp29
 70
     1
102
RTVSPropertyOp30
 70
     1
102
RTVSPropertyOp31
 70
     1
102
RTVSPropertyOp32
 70
     1
  0
XRECORD
  5
12AB
102
{ACAD_REACTORS
330
12AA
102
}
330
12AA
100
AcDbXrecord
280
     1
102
RTVSPropertyOp0
 70
     1
102
RTVSPropertyOp1
 70
     1
102
RTVSPropertyOp2
 70
     1
102
RTVSPropertyOp3
 70
     1
102
RTVSPropertyOp4
 70
     1
102
RTVSPropertyOp5
 70
     1
102
RTVSPropertyOp6
 70
     1
102
RTVSPropertyOp7
 70
     1
102
RTVSPropertyOp8
 70
     1
102
RTVSPropertyOp9
 70
     1
102
RTVSPropertyOp10
 70
     1
102
RTVSPropertyOp11
 70
     1
102
RTVSPropertyOp12
 70
     1
102
RTVSPropertyOp13
 70
     1
102
RTVSPropertyOp14
 70
     1
102
RTVSPropertyOp15
 70
     1
102
RTVSPropertyOp16
 70
     1
102
RTVSPropertyOp17
 70
     1
102
RTVSPropertyOp18
 70
     1
102
RTVSPropertyOp19
 70
     1
102
RTVSPropertyOp20
 70
     1
102
RTVSPropertyOp21
 70
     1
102
RTVSPropertyOp22
 70
     1
102
RTVSPropertyOp23
 70
     1
102
RTVSPropertyOp24
 70
     1
102
RTVSPropertyOp25
 70
     1
102
RTVSPropertyOp26
 70
     1
102
RTVSPropertyOp27
 70
     1
102
RTVSPropertyOp28
 70
     1
102
RTVSPropertyOp29
 70
     1
102
RTVSPropertyOp30
 70
     1
102
RTVSPropertyOp31
 70
     1
102
RTVSPropertyOp32
 70
     1
  0
XRECORD
  5
12B9
102
{ACAD_REACTORS
330
12B8
102
}
330
12B8
100
AcDbXrecord
280
     1
102
RTVSPropertyOp0
 70
     1
102
RTVSPropertyOp1
 70
     1
102
RTVSPropertyOp2
 70
     1
102
RTVSPropertyOp3
 70
     1
102
RTVSPropertyOp4
 70
     1
102
RTVSPropertyOp5
 70
     1
102
RTVSPropertyOp6
 70
     1
102
RTVSPropertyOp7
 70
     1
102
RTVSPropertyOp8
 70
     1
102
RTVSPropertyOp9
 70
     1
102
RTVSPropertyOp10
 70
     1
102
RTVSPropertyOp11
 70
     1
102
RTVSPropertyOp12
 70
     1
102
RTVSPropertyOp13
 70
     1
102
RTVSPropertyOp14
 70
     1
102
RTVSPropertyOp15
 70
     1
102
RTVSPropertyOp16
 70
     1
102
RTVSPropertyOp17
 70
     1
102
RTVSPropertyOp18
 70
     1
102
RTVSPropertyOp19
 70
     1
102
RTVSPropertyOp20
 70
     1
102
RTVSPropertyOp21
 70
     1
102
RTVSPropertyOp22
 70
     1
102
RTVSPropertyOp23
 70
     1
102
RTVSPropertyOp24
 70
     1
102
RTVSPropertyOp25
 70
     1
102
RTVSPropertyOp26
 70
     1
102
RTVSPropertyOp27
 70
     1
102
RTVSPropertyOp28
 70
     1
102
RTVSPropertyOp29
 70
     1
102
RTVSPropertyOp30
 70
     1
102
RTVSPropertyOp31
 70
     1
102
RTVSPropertyOp32
 70
     1
  0
XRECORD
  5
12C1
102
{ACAD_REACTORS
330
12C0
102
}
330
12C0
100
AcDbXrecord
280
     1
102
RTVSPropertyOp0
 70
     1
102
RTVSPropertyOp1
 70
     1
102
RTVSPropertyOp2
 70
     1
102
RTVSPropertyOp3
 70
     1
102
RTVSPropertyOp4
 70
     1
102
RTVSPropertyOp5
 70
     1
102
RTVSPropertyOp6
 70
     1
102
RTVSPropertyOp7
 70
     1
102
RTVSPropertyOp8
 70
     1
102
RTVSPropertyOp9
 70
     1
102
RTVSPropertyOp10
 70
     1
102
RTVSPropertyOp11
 70
     1
102
RTVSPropertyOp12
 70
     1
102
RTVSPropertyOp13
 70
     1
102
RTVSPropertyOp14
 70
     1
102
RTVSPropertyOp15
 70
     1
102
RTVSPropertyOp16
 70
     1
102
RTVSPropertyOp17
 70
     1
102
RTVSPropertyOp18
 70
     1
102
RTVSPropertyOp19
 70
     1
102
RTVSPropertyOp20
 70
     1
102
RTVSPropertyOp21
 70
     1
102
RTVSPropertyOp22
 70
     1
102
RTVSPropertyOp23
 70
     1
102
RTVSPropertyOp24
 70
     1
102
RTVSPropertyOp25
 70
     1
102
RTVSPropertyOp26
 70
     1
102
RTVSPropertyOp27
 70
     1
102
RTVSPropertyOp28
 70
     1
102
RTVSPropertyOp29
 70
     1
102
RTVSPropertyOp30
 70
     1
102
RTVSPropertyOp31
 70
     1
102
RTVSPropertyOp32
 70
     1
  0
XRECORD
  5
12B3
102
{ACAD_REACTORS
330
12B2
102
}
330
12B2
100
AcDbXrecord
280
     1
102
RTVSPropertyOp0
 70
     1
102
RTVSPropertyOp1
 70
     1
102
RTVSPropertyOp2
 70
     1
102
RTVSPropertyOp3
 70
     1
102
RTVSPropertyOp4
 70
     1
102
RTVSPropertyOp5
 70
     1
102
RTVSPropertyOp6
 70
     1
102
RTVSPropertyOp7
 70
     1
102
RTVSPropertyOp8
 70
     1
102
RTVSPropertyOp9
 70
     1
102
RTVSPropertyOp10
 70
     1
102
RTVSPropertyOp11
 70
     1
102
RTVSPropertyOp12
 70
     1
102
RTVSPropertyOp13
 70
     1
102
RTVSPropertyOp14
 70
     1
102
RTVSPropertyOp15
 70
     1
102
RTVSPropertyOp16
 70
     1
102
RTVSPropertyOp17
 70
     1
102
RTVSPropertyOp18
 70
     1
102
RTVSPropertyOp19
 70
     1
102
RTVSPropertyOp20
 70
     1
102
RTVSPropertyOp21
 70
     1
102
RTVSPropertyOp22
 70
     1
102
RTVSPropertyOp23
 70
     1
102
RTVSPropertyOp24
 70
     1
102
RTVSPropertyOp25
 70
     1
102
RTVSPropertyOp26
 70
     1
102
RTVSPropertyOp27
 70
     1
102
RTVSPropertyOp28
 70
     1
102
RTVSPropertyOp29
 70
     1
102
RTVSPropertyOp30
 70
     1
102
RTVSPropertyOp31
 70
     1
102
RTVSPropertyOp32
 70
     1
  0
XRECORD
  5
12B7
102
{ACAD_REACTORS
330
12B6
102
}
330
12B6
100
AcDbXrecord
280
     1
102
RTVSPropertyOp0
 70
     1
102
RTVSPropertyOp1
 70
     1
102
RTVSPropertyOp2
 70
     1
102
RTVSPropertyOp3
 70
     1
102
RTVSPropertyOp4
 70
     1
102
RTVSPropertyOp5
 70
     1
102
RTVSPropertyOp6
 70
     1
102
RTVSPropertyOp7
 70
     1
102
RTVSPropertyOp8
 70
     1
102
RTVSPropertyOp9
 70
     1
102
RTVSPropertyOp10
 70
     1
102
RTVSPropertyOp11
 70
     1
102
RTVSPropertyOp12
 70
     1
102
RTVSPropertyOp13
 70
     1
102
RTVSPropertyOp14
 70
     1
102
RTVSPropertyOp15
 70
     1
102
RTVSPropertyOp16
 70
     1
102
RTVSPropertyOp17
 70
     1
102
RTVSPropertyOp18
 70
     1
102
RTVSPropertyOp19
 70
     1
102
RTVSPropertyOp20
 70
     1
102
RTVSPropertyOp21
 70
     1
102
RTVSPropertyOp22
 70
     1
102
RTVSPropertyOp23
 70
     1
102
RTVSPropertyOp24
 70
     1
102
RTVSPropertyOp25
 70
     1
102
RTVSPropertyOp26
 70
     1
102
RTVSPropertyOp27
 70
     1
102
RTVSPropertyOp28
 70
     1
102
RTVSPropertyOp29
 70
     1
102
RTVSPropertyOp30
 70
     1
102
RTVSPropertyOp31
 70
     1
102
RTVSPropertyOp32
 70
     1
  0
XRECORD
  5
12D1
102
{ACAD_REACTORS
330
12D0
102
}
330
12D0
100
AcDbXrecord
280
     1
102
RTVSPropertyOp0
 70
     0
102
RTVSPropertyOp1
 70
     0
102
RTVSPropertyOp2
 70
     0
102
RTVSPropertyOp3
 70
     0
102
RTVSPropertyOp4
 70
     0
102
RTVSPropertyOp5
 70
     0
102
RTVSPropertyOp6
 70
     0
102
RTVSPropertyOp7
 70
     0
102
RTVSPropertyOp8
 70
     0
102
RTVSPropertyOp9
 70
     0
102
RTVSPropertyOp10
 70
     0
102
RTVSPropertyOp11
 70
     0
102
RTVSPropertyOp12
 70
     0
102
RTVSPropertyOp13
 70
     0
102
RTVSPropertyOp14
 70
     2
102
RTVSPropertyOp15
 70
     0
102
RTVSPropertyOp16
 70
     0
102
RTVSPropertyOp17
 70
     0
102
RTVSPropertyOp18
 70
     0
102
RTVSPropertyOp19
 70
     0
102
RTVSPropertyOp20
 70
     0
102
RTVSPropertyOp21
 70
     0
102
RTVSPropertyOp22
 70
     0
102
RTVSPropertyOp23
 70
     0
102
RTVSPropertyOp24
 70
     0
102
RTVSPropertyOp25
 70
     0
102
RTVSPropertyOp26
 70
     0
102
RTVSPropertyOp27
 70
     0
102
RTVSPropertyOp28
 70
     1
102
RTVSPropertyOp29
 70
     1
102
RTVSPropertyOp30
 70
     1
102
RTVSPropertyOp31
 70
     1
102
RTVSPropertyOp32
 70
     1
  0
XRECORD
  5
12BF
102
{ACAD_REACTORS
330
12BE
102
}
330
12BE
100
AcDbXrecord
280
     1
102
RTVSPropertyOp0
 70
     1
102
RTVSPropertyOp1
 70
     1
102
RTVSPropertyOp2
 70
     1
102
RTVSPropertyOp3
 70
     1
102
RTVSPropertyOp4
 70
     1
102
RTVSPropertyOp5
 70
     1
102
RTVSPropertyOp6
 70
     1
102
RTVSPropertyOp7
 70
     1
102
RTVSPropertyOp8
 70
     1
102
RTVSPropertyOp9
 70
     1
102
RTVSPropertyOp10
 70
     1
102
RTVSPropertyOp11
 70
     1
102
RTVSPropertyOp12
 70
     1
102
RTVSPropertyOp13
 70
     1
102
RTVSPropertyOp14
 70
     1
102
RTVSPropertyOp15
 70
     1
102
RTVSPropertyOp16
 70
     1
102
RTVSPropertyOp17
 70
     1
102
RTVSPropertyOp18
 70
     1
102
RTVSPropertyOp19
 70
     1
102
RTVSPropertyOp20
 70
     1
102
RTVSPropertyOp21
 70
     1
102
RTVSPropertyOp22
 70
     1
102
RTVSPropertyOp23
 70
     1
102
RTVSPropertyOp24
 70
     1
102
RTVSPropertyOp25
 70
     1
102
RTVSPropertyOp26
 70
     1
102
RTVSPropertyOp27
 70
     1
102
RTVSPropertyOp28
 70
     1
102
RTVSPropertyOp29
 70
     1
102
RTVSPropertyOp30
 70
     1
102
RTVSPropertyOp31
 70
     1
102
RTVSPropertyOp32
 70
     1
  0
XRECORD
  5
12A3
102
{ACAD_REACTORS
330
12A2
102
}
330
12A2
100
AcDbXrecord
280
     1
102
RTVSPropertyOp0
 70
     1
102
RTVSPropertyOp1
 70
     1
102
RTVSPropertyOp2
 70
     1
102
RTVSPropertyOp3
 70
     1
102
RTVSPropertyOp4
 70
     1
102
RTVSPropertyOp5
 70
     1
102
RTVSPropertyOp6
 70
     1
102
RTVSPropertyOp7
 70
     1
102
RTVSPropertyOp8
 70
     1
102
RTVSPropertyOp9
 70
     1
102
RTVSPropertyOp10
 70
     1
102
RTVSPropertyOp11
 70
     1
102
RTVSPropertyOp12
 70
     1
102
RTVSPropertyOp13
 70
     1
102
RTVSPropertyOp14
 70
     1
102
RTVSPropertyOp15
 70
     1
102
RTVSPropertyOp16
 70
     1
102
RTVSPropertyOp17
 70
     1
102
RTVSPropertyOp18
 70
     1
102
RTVSPropertyOp19
 70
     1
102
RTVSPropertyOp20
 70
     1
102
RTVSPropertyOp21
 70
     1
102
RTVSPropertyOp22
 70
     1
102
RTVSPropertyOp23
 70
     1
102
RTVSPropertyOp24
 70
     1
102
RTVSPropertyOp25
 70
     1
102
RTVSPropertyOp26
 70
     1
102
RTVSPropertyOp27
 70
     1
102
RTVSPropertyOp28
 70
     1
102
RTVSPropertyOp29
 70
     1
102
RTVSPropertyOp30
 70
     1
102
RTVSPropertyOp31
 70
     1
102
RTVSPropertyOp32
 70
     1
  0
XRECORD
  5
12A5
102
{ACAD_REACTORS
330
12A4
102
}
330
12A4
100
AcDbXrecord
280
     1
102
RTVSPropertyOp0
 70
     1
102
RTVSPropertyOp1
 70
     1
102
RTVSPropertyOp2
 70
     1
102
RTVSPropertyOp3
 70
     1
102
RTVSPropertyOp4
 70
     1
102
RTVSPropertyOp5
 70
     1
102
RTVSPropertyOp6
 70
     1
102
RTVSPropertyOp7
 70
     1
102
RTVSPropertyOp8
 70
     1
102
RTVSPropertyOp9
 70
     1
102
RTVSPropertyOp10
 70
     1
102
RTVSPropertyOp11
 70
     1
102
RTVSPropertyOp12
 70
     1
102
RTVSPropertyOp13
 70
     1
102
RTVSPropertyOp14
 70
     1
102
RTVSPropertyOp15
 70
     1
102
RTVSPropertyOp16
 70
     1
102
RTVSPropertyOp17
 70
     1
102
RTVSPropertyOp18
 70
     1
102
RTVSPropertyOp19
 70
     1
102
RTVSPropertyOp20
 70
     1
102
RTVSPropertyOp21
 70
     1
102
RTVSPropertyOp22
 70
     1
102
RTVSPropertyOp23
 70
     1
102
RTVSPropertyOp24
 70
     1
102
RTVSPropertyOp25
 70
     1
102
RTVSPropertyOp26
 70
     1
102
RTVSPropertyOp27
 70
     1
102
RTVSPropertyOp28
 70
     1
102
RTVSPropertyOp29
 70
     1
102
RTVSPropertyOp30
 70
     1
102
RTVSPropertyOp31
 70
     1
102
RTVSPropertyOp32
 70
     1
  0
XRECORD
  5
12A7
102
{ACAD_REACTORS
330
12A6
102
}
330
12A6
100
AcDbXrecord
280
     1
102
RTVSPropertyOp0
 70
     1
102
RTVSPropertyOp1
 70
     1
102
RTVSPropertyOp2
 70
     1
102
RTVSPropertyOp3
 70
     1
102
RTVSPropertyOp4
 70
     1
102
RTVSPropertyOp5
 70
     1
102
RTVSPropertyOp6
 70
     1
102
RTVSPropertyOp7
 70
     1
102
RTVSPropertyOp8
 70
     1
102
RTVSPropertyOp9
 70
     1
102
RTVSPropertyOp10
 70
     1
102
RTVSPropertyOp11
 70
     1
102
RTVSPropertyOp12
 70
     1
102
RTVSPropertyOp13
 70
     1
102
RTVSPropertyOp14
 70
     1
102
RTVSPropertyOp15
 70
     1
102
RTVSPropertyOp16
 70
     1
102
RTVSPropertyOp17
 70
     1
102
RTVSPropertyOp18
 70
     1
102
RTVSPropertyOp19
 70
     1
102
RTVSPropertyOp20
 70
     1
102
RTVSPropertyOp21
 70
     1
102
RTVSPropertyOp22
 70
     1
102
RTVSPropertyOp23
 70
     1
102
RTVSPropertyOp24
 70
     1
102
RTVSPropertyOp25
 70
     1
102
RTVSPropertyOp26
 70
     1
102
RTVSPropertyOp27
 70
     1
102
RTVSPropertyOp28
 70
     1
102
RTVSPropertyOp29
 70
     1
102
RTVSPropertyOp30
 70
     1
102
RTVSPropertyOp31
 70
     1
102
RTVSPropertyOp32
 70
     1
  0
XRECORD
  5
12A9
102
{ACAD_REACTORS
330
12A8
102
}
330
12A8
100
AcDbXrecord
280
     1
102
RTVSPropertyOp0
 70
     1
102
RTVSPropertyOp1
 70
     1
102
RTVSPropertyOp2
 70
     1
102
RTVSPropertyOp3
 70
     1
102
RTVSPropertyOp4
 70
     1
102
RTVSPropertyOp5
 70
     1
102
RTVSPropertyOp6
 70
     1
102
RTVSPropertyOp7
 70
     1
102
RTVSPropertyOp8
 70
     1
102
RTVSPropertyOp9
 70
     1
102
RTVSPropertyOp10
 70
     1
102
RTVSPropertyOp11
 70
     1
102
RTVSPropertyOp12
 70
     1
102
RTVSPropertyOp13
 70
     1
102
RTVSPropertyOp14
 70
     1
102
RTVSPropertyOp15
 70
     1
102
RTVSPropertyOp16
 70
     1
102
RTVSPropertyOp17
 70
     1
102
RTVSPropertyOp18
 70
     1
102
RTVSPropertyOp19
 70
     1
102
RTVSPropertyOp20
 70
     1
102
RTVSPropertyOp21
 70
     1
102
RTVSPropertyOp22
 70
     1
102
RTVSPropertyOp23
 70
     1
102
RTVSPropertyOp24
 70
     1
102
RTVSPropertyOp25
 70
     1
102
RTVSPropertyOp26
 70
     1
102
RTVSPropertyOp27
 70
     1
102
RTVSPropertyOp28
 70
     1
102
RTVSPropertyOp29
 70
     1
102
RTVSPropertyOp30
 70
     1
102
RTVSPropertyOp31
 70
     1
102
RTVSPropertyOp32
 70
     1
  0
XRECORD
  5
12B1
102
{ACAD_REACTORS
330
12B0
102
}
330
12B0
100
AcDbXrecord
280
     1
102
RTVSPropertyOp0
 70
     1
102
RTVSPropertyOp1
 70
     1
102
RTVSPropertyOp2
 70
     1
102
RTVSPropertyOp3
 70
     1
102
RTVSPropertyOp4
 70
     1
102
RTVSPropertyOp5
 70
     1
102
RTVSPropertyOp6
 70
     1
102
RTVSPropertyOp7
 70
     1
102
RTVSPropertyOp8
 70
     1
102
RTVSPropertyOp9
 70
     1
102
RTVSPropertyOp10
 70
     1
102
RTVSPropertyOp11
 70
     1
102
RTVSPropertyOp12
 70
     1
102
RTVSPropertyOp13
 70
     1
102
RTVSPropertyOp14
 70
     1
102
RTVSPropertyOp15
 70
     1
102
RTVSPropertyOp16
 70
     1
102
RTVSPropertyOp17
 70
     1
102
RTVSPropertyOp18
 70
     1
102
RTVSPropertyOp19
 70
     1
102
RTVSPropertyOp20
 70
     1
102
RTVSPropertyOp21
 70
     1
102
RTVSPropertyOp22
 70
     1
102
RTVSPropertyOp23
 70
     1
102
RTVSPropertyOp24
 70
     1
102
RTVSPropertyOp25
 70
     1
102
RTVSPropertyOp26
 70
     1
102
RTVSPropertyOp27
 70
     1
102
RTVSPropertyOp28
 70
     1
102
RTVSPropertyOp29
 70
     1
102
RTVSPropertyOp30
 70
     1
102
RTVSPropertyOp31
 70
     1
102
RTVSPropertyOp32
 70
     1
  0
XRECORD
  5
12CD
102
{ACAD_REACTORS
330
12CC
102
}
330
12CC
100
AcDbXrecord
280
     1
102
RTVSPropertyOp0
 70
     0
102
RTVSPropertyOp1
 70
     0
102
RTVSPropertyOp2
 70
     0
102
RTVSPropertyOp3
 70
     0
102
RTVSPropertyOp4
 70
     0
102
RTVSPropertyOp5
 70
     0
102
RTVSPropertyOp6
 70
     0
102
RTVSPropertyOp7
 70
     0
102
RTVSPropertyOp8
 70
     0
102
RTVSPropertyOp9
 70
     0
102
RTVSPropertyOp10
 70
     0
102
RTVSPropertyOp11
 70
     0
102
RTVSPropertyOp12
 70
     0
102
RTVSPropertyOp13
 70
     0
102
RTVSPropertyOp14
 70
     2
102
RTVSPropertyOp15
 70
     0
102
RTVSPropertyOp16
 70
     0
102
RTVSPropertyOp17
 70
     0
102
RTVSPropertyOp18
 70
     0
102
RTVSPropertyOp19
 70
     0
102
RTVSPropertyOp20
 70
     0
102
RTVSPropertyOp21
 70
     0
102
RTVSPropertyOp22
 70
     0
102
RTVSPropertyOp23
 70
     0
102
RTVSPropertyOp24
 70
     0
102
RTVSPropertyOp25
 70
     0
102
RTVSPropertyOp26
 70
     0
102
RTVSPropertyOp27
 70
     0
102
RTVSPropertyOp28
 70
     1
102
RTVSPropertyOp29
 70
     1
102
RTVSPropertyOp30
 70
     1
102
RTVSPropertyOp31
 70
     1
102
RTVSPropertyOp32
 70
     1
  0
XRECORD
  5
12BD
102
{ACAD_REACTORS
330
12BC
102
}
330
12BC
100
AcDbXrecord
280
     1
102
RTVSPropertyOp0
 70
     1
102
RTVSPropertyOp1
 70
     1
102
RTVSPropertyOp2
 70
     1
102
RTVSPropertyOp3
 70
     1
102
RTVSPropertyOp4
 70
     1
102
RTVSPropertyOp5
 70
     1
102
RTVSPropertyOp6
 70
     1
102
RTVSPropertyOp7
 70
     1
102
RTVSPropertyOp8
 70
     1
102
RTVSPropertyOp9
 70
     1
102
RTVSPropertyOp10
 70
     1
102
RTVSPropertyOp11
 70
     1
102
RTVSPropertyOp12
 70
     1
102
RTVSPropertyOp13
 70
     1
102
RTVSPropertyOp14
 70
     1
102
RTVSPropertyOp15
 70
     1
102
RTVSPropertyOp16
 70
     1
102
RTVSPropertyOp17
 70
     1
102
RTVSPropertyOp18
 70
     1
102
RTVSPropertyOp19
 70
     1
102
RTVSPropertyOp20
 70
     1
102
RTVSPropertyOp21
 70
     1
102
RTVSPropertyOp22
 70
     1
102
RTVSPropertyOp23
 70
     1
102
RTVSPropertyOp24
 70
     1
102
RTVSPropertyOp25
 70
     1
102
RTVSPropertyOp26
 70
     1
102
RTVSPropertyOp27
 70
     1
102
RTVSPropertyOp28
 70
     1
102
RTVSPropertyOp29
 70
     1
102
RTVSPropertyOp30
 70
     1
102
RTVSPropertyOp31
 70
     1
102
RTVSPropertyOp32
 70
     1
  0
XRECORD
  5
12CF
102
{ACAD_REACTORS
330
12CE
102
}
330
12CE
100
AcDbXrecord
280
     1
102
RTVSPropertyOp0
 70
     0
102
RTVSPropertyOp1
 70
     0
102
RTVSPropertyOp2
 70
     0
102
RTVSPropertyOp3
 70
     0
102
RTVSPropertyOp4
 70
     0
102
RTVSPropertyOp5
 70
     0
102
RTVSPropertyOp6
 70
     0
102
RTVSPropertyOp7
 70
     0
102
RTVSPropertyOp8
 70
     0
102
RTVSPropertyOp9
 70
     0
102
RTVSPropertyOp10
 70
     0
102
RTVSPropertyOp11
 70
     0
102
RTVSPropertyOp12
 70
     0
102
RTVSPropertyOp13
 70
     0
102
RTVSPropertyOp14
 70
     2
102
RTVSPropertyOp15
 70
     0
102
RTVSPropertyOp16
 70
     0
102
RTVSPropertyOp17
 70
     0
102
RTVSPropertyOp18
 70
     0
102
RTVSPropertyOp19
 70
     0
102
RTVSPropertyOp20
 70
     0
102
RTVSPropertyOp21
 70
     0
102
RTVSPropertyOp22
 70
     0
102
RTVSPropertyOp23
 70
     0
102
RTVSPropertyOp24
 70
     0
102
RTVSPropertyOp25
 70
     0
102
RTVSPropertyOp26
 70
     0
102
RTVSPropertyOp27
 70
     0
102
RTVSPropertyOp28
 70
     1
102
RTVSPropertyOp29
 70
     1
102
RTVSPropertyOp30
 70
     1
102
RTVSPropertyOp31
 70
     1
102
RTVSPropertyOp32
 70
     1
  0
XRECORD
  5
12B5
102
{ACAD_REACTORS
330
12B4
102
}
330
12B4
100
AcDbXrecord
280
     1
102
RTVSPropertyOp0
 70
     1
102
RTVSPropertyOp1
 70
     1
102
RTVSPropertyOp2
 70
     1
102
RTVSPropertyOp3
 70
     1
102
RTVSPropertyOp4
 70
     1
102
RTVSPropertyOp5
 70
     1
102
RTVSPropertyOp6
 70
     1
102
RTVSPropertyOp7
 70
     1
102
RTVSPropertyOp8
 70
     1
102
RTVSPropertyOp9
 70
     1
102
RTVSPropertyOp10
 70
     1
102
RTVSPropertyOp11
 70
     1
102
RTVSPropertyOp12
 70
     1
102
RTVSPropertyOp13
 70
     1
102
RTVSPropertyOp14
 70
     1
102
RTVSPropertyOp15
 70
     1
102
RTVSPropertyOp16
 70
     1
102
RTVSPropertyOp17
 70
     1
102
RTVSPropertyOp18
 70
     1
102
RTVSPropertyOp19
 70
     1
102
RTVSPropertyOp20
 70
     1
102
RTVSPropertyOp21
 70
     1
102
RTVSPropertyOp22
 70
     1
102
RTVSPropertyOp23
 70
     1
102
RTVSPropertyOp24
 70
     1
102
RTVSPropertyOp25
 70
     1
102
RTVSPropertyOp26
 70
     1
102
RTVSPropertyOp27
 70
     1
102
RTVSPropertyOp28
 70
     1
102
RTVSPropertyOp29
 70
     1
102
RTVSPropertyOp30
 70
     1
102
RTVSPropertyOp31
 70
     1
102
RTVSPropertyOp32
 70
     1
  0
XRECORD
  5
12CB
102
{ACAD_REACTORS
330
12CA
102
}
330
12CA
100
AcDbXrecord
280
     1
102
RTVSPropertyOp0
 70
     1
102
RTVSPropertyOp1
 70
     1
102
RTVSPropertyOp2
 70
     1
102
RTVSPropertyOp3
 70
     1
102
RTVSPropertyOp4
 70
     1
102
RTVSPropertyOp5
 70
     1
102
RTVSPropertyOp6
 70
     1
102
RTVSPropertyOp7
 70
     1
102
RTVSPropertyOp8
 70
     1
102
RTVSPropertyOp9
 70
     1
102
RTVSPropertyOp10
 70
     1
102
RTVSPropertyOp11
 70
     1
102
RTVSPropertyOp12
 70
     1
102
RTVSPropertyOp13
 70
     1
102
RTVSPropertyOp14
 70
     1
102
RTVSPropertyOp15
 70
     1
102
RTVSPropertyOp16
 70
     1
102
RTVSPropertyOp17
 70
     1
102
RTVSPropertyOp18
 70
     1
102
RTVSPropertyOp19
 70
     1
102
RTVSPropertyOp20
 70
     1
102
RTVSPropertyOp21
 70
     1
102
RTVSPropertyOp22
 70
     1
102
RTVSPropertyOp23
 70
     1
102
RTVSPropertyOp24
 70
     1
102
RTVSPropertyOp25
 70
     1
102
RTVSPropertyOp26
 70
     1
102
RTVSPropertyOp27
 70
     1
102
RTVSPropertyOp28
 70
     1
102
RTVSPropertyOp29
 70
     1
102
RTVSPropertyOp30
 70
     1
102
RTVSPropertyOp31
 70
     1
102
RTVSPropertyOp32
 70
     1
  0
XRECORD
  5
12C9
102
{ACAD_REACTORS
330
12C8
102
}
330
12C8
100
AcDbXrecord
280
     1
102
RTVSPropertyOp0
 70
     1
102
RTVSPropertyOp1
 70
     1
102
RTVSPropertyOp2
 70
     1
102
RTVSPropertyOp3
 70
     1
102
RTVSPropertyOp4
 70
     1
102
RTVSPropertyOp5
 70
     1
102
RTVSPropertyOp6
 70
     1
102
RTVSPropertyOp7
 70
     1
102
RTVSPropertyOp8
 70
     1
102
RTVSPropertyOp9
 70
     1
102
RTVSPropertyOp10
 70
     1
102
RTVSPropertyOp11
 70
     1
102
RTVSPropertyOp12
 70
     1
102
RTVSPropertyOp13
 70
     1
102
RTVSPropertyOp14
 70
     1
102
RTVSPropertyOp15
 70
     1
102
RTVSPropertyOp16
 70
     1
102
RTVSPropertyOp17
 70
     1
102
RTVSPropertyOp18
 70
     1
102
RTVSPropertyOp19
 70
     1
102
RTVSPropertyOp20
 70
     1
102
RTVSPropertyOp21
 70
     1
102
RTVSPropertyOp22
 70
     1
102
RTVSPropertyOp23
 70
     1
102
RTVSPropertyOp24
 70
     1
102
RTVSPropertyOp25
 70
     1
102
RTVSPropertyOp26
 70
     1
102
RTVSPropertyOp27
 70
     1
102
RTVSPropertyOp28
 70
     1
102
RTVSPropertyOp29
 70
     1
102
RTVSPropertyOp30
 70
     1
102
RTVSPropertyOp31
 70
     1
102
RTVSPropertyOp32
 70
     1
  0
XRECORD
  5
12C3
102
{ACAD_REACTORS
330
12C2
102
}
330
12C2
100
AcDbXrecord
280
     1
102
RTVSPropertyOp0
 70
     1
102
RTVSPropertyOp1
 70
     1
102
RTVSPropertyOp2
 70
     1
102
RTVSPropertyOp3
 70
     1
102
RTVSPropertyOp4
 70
     1
102
RTVSPropertyOp5
 70
     1
102
RTVSPropertyOp6
 70
     1
102
RTVSPropertyOp7
 70
     1
102
RTVSPropertyOp8
 70
     1
102
RTVSPropertyOp9
 70
     1
102
RTVSPropertyOp10
 70
     1
102
RTVSPropertyOp11
 70
     1
102
RTVSPropertyOp12
 70
     1
102
RTVSPropertyOp13
 70
     1
102
RTVSPropertyOp14
 70
     1
102
RTVSPropertyOp15
 70
     1
102
RTVSPropertyOp16
 70
     1
102
RTVSPropertyOp17
 70
     1
102
RTVSPropertyOp18
 70
     1
102
RTVSPropertyOp19
 70
     1
102
RTVSPropertyOp20
 70
     1
102
RTVSPropertyOp21
 70
     1
102
RTVSPropertyOp22
 70
     1
102
RTVSPropertyOp23
 70
     1
102
RTVSPropertyOp24
 70
     1
102
RTVSPropertyOp25
 70
     1
102
RTVSPropertyOp26
 70
     1
102
RTVSPropertyOp27
 70
     1
102
RTVSPropertyOp28
 70
     1
102
RTVSPropertyOp29
 70
     1
102
RTVSPropertyOp30
 70
     1
102
RTVSPropertyOp31
 70
     1
102
RTVSPropertyOp32
 70
     1
  0
XRECORD
  5
12C5
102
{ACAD_REACTORS
330
12C4
102
}
330
12C4
100
AcDbXrecord
280
     1
102
RTVSPropertyOp0
 70
     1
102
RTVSPropertyOp1
 70
     1
102
RTVSPropertyOp2
 70
     1
102
RTVSPropertyOp3
 70
     1
102
RTVSPropertyOp4
 70
     1
102
RTVSPropertyOp5
 70
     1
102
RTVSPropertyOp6
 70
     1
102
RTVSPropertyOp7
 70
     1
102
RTVSPropertyOp8
 70
     1
102
RTVSPropertyOp9
 70
     1
102
RTVSPropertyOp10
 70
     1
102
RTVSPropertyOp11
 70
     1
102
RTVSPropertyOp12
 70
     1
102
RTVSPropertyOp13
 70
     1
102
RTVSPropertyOp14
 70
     1
102
RTVSPropertyOp15
 70
     1
102
RTVSPropertyOp16
 70
     1
102
RTVSPropertyOp17
 70
     1
102
RTVSPropertyOp18
 70
     1
102
RTVSPropertyOp19
 70
     1
102
RTVSPropertyOp20
 70
     1
102
RTVSPropertyOp21
 70
     1
102
RTVSPropertyOp22
 70
     1
102
RTVSPropertyOp23
 70
     1
102
RTVSPropertyOp24
 70
     1
102
RTVSPropertyOp25
 70
     1
102
RTVSPropertyOp26
 70
     1
102
RTVSPropertyOp27
 70
     1
102
RTVSPropertyOp28
 70
     1
102
RTVSPropertyOp29
 70
     1
102
RTVSPropertyOp30
 70
     1
102
RTVSPropertyOp31
 70
     1
102
RTVSPropertyOp32
 70
     1
  0
XRECORD
  5
12BB
102
{ACAD_REACTORS
330
12BA
102
}
330
12BA
100
AcDbXrecord
280
     1
102
RTVSPropertyOp0
 70
     1
102
RTVSPropertyOp1
 70
     1
102
RTVSPropertyOp2
 70
     1
102
RTVSPropertyOp3
 70
     1
102
RTVSPropertyOp4
 70
     1
102
RTVSPropertyOp5
 70
     1
102
RTVSPropertyOp6
 70
     1
102
RTVSPropertyOp7
 70
     1
102
RTVSPropertyOp8
 70
     1
102
RTVSPropertyOp9
 70
     1
102
RTVSPropertyOp10
 70
     1
102
RTVSPropertyOp11
 70
     1
102
RTVSPropertyOp12
 70
     1
102
RTVSPropertyOp13
 70
     1
102
RTVSPropertyOp14
 70
     1
102
RTVSPropertyOp15
 70
     1
102
RTVSPropertyOp16
 70
     1
102
RTVSPropertyOp17
 70
     1
102
RTVSPropertyOp18
 70
     1
102
RTVSPropertyOp19
 70
     1
102
RTVSPropertyOp20
 70
     1
102
RTVSPropertyOp21
 70
     1
102
RTVSPropertyOp22
 70
     1
102
RTVSPropertyOp23
 70
     1
102
RTVSPropertyOp24
 70
     1
102
RTVSPropertyOp25
 70
     1
102
RTVSPropertyOp26
 70
     1
102
RTVSPropertyOp27
 70
     1
102
RTVSPropertyOp28
 70
     1
102
RTVSPropertyOp29
 70
     1
102
RTVSPropertyOp30
 70
     1
102
RTVSPropertyOp31
 70
     1
102
RTVSPropertyOp32
 70
     1
  0
XRECORD
  5
12AF
102
{ACAD_REACTORS
330
12AE
102
}
330
12AE
100
AcDbXrecord
280
     1
102
RTVSPropertyOp0
 70
     1
102
RTVSPropertyOp1
 70
     1
102
RTVSPropertyOp2
 70
     1
102
RTVSPropertyOp3
 70
     1
102
RTVSPropertyOp4
 70
     1
102
RTVSPropertyOp5
 70
     1
102
RTVSPropertyOp6
 70
     1
102
RTVSPropertyOp7
 70
     1
102
RTVSPropertyOp8
 70
     1
102
RTVSPropertyOp9
 70
     1
102
RTVSPropertyOp10
 70
     1
102
RTVSPropertyOp11
 70
     1
102
RTVSPropertyOp12
 70
     1
102
RTVSPropertyOp13
 70
     1
102
RTVSPropertyOp14
 70
     1
102
RTVSPropertyOp15
 70
     1
102
RTVSPropertyOp16
 70
     1
102
RTVSPropertyOp17
 70
     1
102
RTVSPropertyOp18
 70
     1
102
RTVSPropertyOp19
 70
     1
102
RTVSPropertyOp20
 70
     1
102
RTVSPropertyOp21
 70
     1
102
RTVSPropertyOp22
 70
     1
102
RTVSPropertyOp23
 70
     1
102
RTVSPropertyOp24
 70
     1
102
RTVSPropertyOp25
 70
     1
102
RTVSPropertyOp26
 70
     1
102
RTVSPropertyOp27
 70
     1
102
RTVSPropertyOp28
 70
     1
102
RTVSPropertyOp29
 70
     1
102
RTVSPropertyOp30
 70
     1
102
RTVSPropertyOp31
 70
     1
102
RTVSPropertyOp32
 70
     1
  0
XRECORD
  5
12C7
102
{ACAD_REACTORS
330
12C6
102
}
330
12C6
100
AcDbXrecord
280
     1
102
RTVSPropertyOp0
 70
     1
102
RTVSPropertyOp1
 70
     1
102
RTVSPropertyOp2
 70
     1
102
RTVSPropertyOp3
 70
     1
102
RTVSPropertyOp4
 70
     1
102
RTVSPropertyOp5
 70
     1
102
RTVSPropertyOp6
 70
     1
102
RTVSPropertyOp7
 70
     1
102
RTVSPropertyOp8
 70
     1
102
RTVSPropertyOp9
 70
     1
102
RTVSPropertyOp10
 70
     1
102
RTVSPropertyOp11
 70
     1
102
RTVSPropertyOp12
 70
     1
102
RTVSPropertyOp13
 70
     1
102
RTVSPropertyOp14
 70
     1
102
RTVSPropertyOp15
 70
     1
102
RTVSPropertyOp16
 70
     1
102
RTVSPropertyOp17
 70
     1
102
RTVSPropertyOp18
 70
     1
102
RTVSPropertyOp19
 70
     1
102
RTVSPropertyOp20
 70
     1
102
RTVSPropertyOp21
 70
     1
102
RTVSPropertyOp22
 70
     1
102
RTVSPropertyOp23
 70
     1
102
RTVSPropertyOp24
 70
     1
102
RTVSPropertyOp25
 70
     1
102
RTVSPropertyOp26
 70
     1
102
RTVSPropertyOp27
 70
     1
102
RTVSPropertyOp28
 70
     1
102
RTVSPropertyOp29
 70
     1
102
RTVSPropertyOp30
 70
     1
102
RTVSPropertyOp31
 70
     1
102
RTVSPropertyOp32
 70
     1
  0
ENDSEC
  0
EOF
