  0
SECTION
  2
HEADER
  9
$ACADVER
  1
AC1015
  9
$ACADMAINTVER
 70
    20
  9
$DWGCODEPAGE
  3
ANSI_1250
  9
$INSBASE
 10
0.0
 20
0.0
 30
0.0
  9
$EXTMIN
 10
14350.0
 20
-15.71524430651483
 30
0.0
  9
$EXTMAX
 10
19866.11905762108
 20
8372.56594494149
 30
0.0
  9
$LIMMIN
 10
0.0
 20
0.0
  9
$LIMMAX
 10
14850.0
 20
10500.0
  9
$ORTHOMODE
 70
     0
  9
$REGENMODE
 70
     1
  9
$FILLMODE
 70
     1
  9
$QTEXTMODE
 70
     0
  9
$MIRRTEXT
 70
     0
  9
$LTSCALE
 40
50.0
  9
$ATTMODE
 70
     1
  9
$TEXTSIZE
 40
0.2
  9
$TRACEWID
 40
0.05
  9
$TEXTSTYLE
  7
Standard
  9
$CLAYER
  8
0
  9
$CELTYPE
  6
ByLayer
  9
$CECOLOR
 62
   256
  9
$CELTSCALE
 40
1.0
  9
$DISPSILH
 70
     0
  9
$DIMSCALE
 40
1.0
  9
$DIMASZ
 40
1.799999999999999
  9
$DIMEXO
 40
0.0625
  9
$DIMDLI
 40
0.38
  9
$DIMRND
 40
0.0
  9
$DIMDLE
 40
0.0
  9
$DIMEXE
 40
0.18
  9
$DIMTP
 40
0.0
  9
$DIMTM
 40
0.0
  9
$DIMTXT
 40
0.25
  9
$DIMCEN
 40
0.09
  9
$DIMTSZ
 40
0.0
  9
$DIMTOL
 70
     0
  9
$DIMLIM
 70
     0
  9
$DIMTIH
 70
     1
  9
$DIMTOH
 70
     1
  9
$DIMSE1
 70
     0
  9
$DIMSE2
 70
     0
  9
$DIMTAD
 70
     0
  9
$DIMZIN
 70
     0
  9
$DIMBLK
  1

  9
$DIMASO
 70
     1
  9
$DIMSHO
 70
     1
  9
$DIMPOST
  1

  9
$DIMAPOST
  1

  9
$DIMALT
 70
     0
  9
$DIMALTD
 70
     2
  9
$DIMALTF
 40
25.4
  9
$DIMLFAC
 40
1.0
  9
$DIMTOFL
 70
     0
  9
$DIMTVP
 40
0.0
  9
$DIMTIX
 70
     0
  9
$DIMSOXD
 70
     0
  9
$DIMSAH
 70
     0
  9
$DIMBLK1
  1

  9
$DIMBLK2
  1

  9
$DIMSTYLE
  2
Standard
  9
$DIMCLRD
 70
     0
  9
$DIMCLRE
 70
     0
  9
$DIMCLRT
 70
     0
  9
$DIMTFAC
 40
1.0
  9
$DIMGAP
 40
0.09
  9
$DIMJUST
 70
     0
  9
$DIMSD1
 70
     0
  9
$DIMSD2
 70
     0
  9
$DIMTOLJ
 70
     1
  9
$DIMTZIN
 70
     0
  9
$DIMALTZ
 70
     0
  9
$DIMALTTZ
 70
     0
  9
$DIMUPT
 70
     0
  9
$DIMDEC
 70
     4
  9
$DIMTDEC
 70
     4
  9
$DIMALTU
 70
     2
  9
$DIMALTTD
 70
     2
  9
$DIMTXSTY
  7
Standard
  9
$DIMAUNIT
 70
     0
  9
$DIMADEC
 70
     0
  9
$DIMALTRND
 40
0.0
  9
$DIMAZIN
 70
     0
  9
$DIMDSEP
 70
    46
  9
$DIMATFIT
 70
     3
  9
$DIMFRAC
 70
     0
  9
$DIMLDRBLK
  1

  9
$DIMLUNIT
 70
     2
  9
$DIMLWD
 70
    -2
  9
$DIMLWE
 70
    -2
  9
$DIMTMOVE
 70
     0
  9
$LUNITS
 70
     2
  9
$LUPREC
 70
     2
  9
$SKETCHINC
 40
0.1
  9
$FILLETRAD
 40
0.0
  9
$AUNITS
 70
     0
  9
$AUPREC
 70
     0
  9
$MENU
  1
.
  9
$ELEVATION
 40
0.0
  9
$PELEVATION
 40
0.0
  9
$THICKNESS
 40
0.0
  9
$LIMCHECK
 70
     0
  9
$CHAMFERA
 40
0.0
  9
$CHAMFERB
 40
0.0
  9
$CHAMFERC
 40
0.0
  9
$CHAMFERD
 40
0.0
  9
$SKPOLY
 70
     0
  9
$TDCREATE
 40
2458516.585491123
  9
$TDUCREATE
 40
2458516.543824456
  9
$TDUPDATE
 40
2458914.335645232
  9
$TDUUPDATE
 40
2458914.293978565
  9
$TDINDWG
 40
0.0098281481
  9
$TDUSRTIMER
 40
0.0098279977
  9
$USRTIMER
 70
     1
  9
$ANGBASE
 50
0.0
  9
$ANGDIR
 70
     0
  9
$PDMODE
 70
     0
  9
$PDSIZE
 40
0.0
  9
$PLINEWID
 40
0.0
  9
$SPLFRAME
 70
     0
  9
$SPLINETYPE
 70
     6
  9
$SPLINESEGS
 70
     8
  9
$HANDSEED
  5
1260
  9
$SURFTAB1
 70
     6
  9
$SURFTAB2
 70
     6
  9
$SURFTYPE
 70
     6
  9
$SURFU
 70
     6
  9
$SURFV
 70
     6
  9
$UCSBASE
  2

  9
$UCSNAME
  2

  9
$UCSORG
 10
0.0
 20
0.0
 30
0.0
  9
$UCSXDIR
 10
1.0
 20
0.0
 30
0.0
  9
$UCSYDIR
 10
0.0
 20
1.0
 30
0.0
  9
$UCSORTHOREF
  2

  9
$UCSORTHOVIEW
 70
     0
  9
$UCSORGTOP
 10
0.0
 20
0.0
 30
0.0
  9
$UCSORGBOTTOM
 10
0.0
 20
0.0
 30
0.0
  9
$UCSORGLEFT
 10
0.0
 20
0.0
 30
0.0
  9
$UCSORGRIGHT
 10
0.0
 20
0.0
 30
0.0
  9
$UCSORGFRONT
 10
0.0
 20
0.0
 30
0.0
  9
$UCSORGBACK
 10
0.0
 20
0.0
 30
0.0
  9
$PUCSBASE
  2

  9
$PUCSNAME
  2

  9
$PUCSORG
 10
0.0
 20
0.0
 30
0.0
  9
$PUCSXDIR
 10
1.0
 20
0.0
 30
0.0
  9
$PUCSYDIR
 10
0.0
 20
1.0
 30
0.0
  9
$PUCSORTHOREF
  2

  9
$PUCSORTHOVIEW
 70
     0
  9
$PUCSORGTOP
 10
0.0
 20
0.0
 30
0.0
  9
$PUCSORGBOTTOM
 10
0.0
 20
0.0
 30
0.0
  9
$PUCSORGLEFT
 10
0.0
 20
0.0
 30
0.0
  9
$PUCSORGRIGHT
 10
0.0
 20
0.0
 30
0.0
  9
$PUCSORGFRONT
 10
0.0
 20
0.0
 30
0.0
  9
$PUCSORGBACK
 10
0.0
 20
0.0
 30
0.0
  9
$USERI1
 70
     0
  9
$USERI2
 70
     0
  9
$USERI3
 70
     0
  9
$USERI4
 70
     0
  9
$USERI5
 70
     0
  9
$USERR1
 40
0.0
  9
$USERR2
 40
0.0
  9
$USERR3
 40
0.0
  9
$USERR4
 40
0.0
  9
$USERR5
 40
0.0
  9
$WORLDVIEW
 70
     1
  9
$SHADEDGE
 70
     3
  9
$SHADEDIF
 70
    70
  9
$TILEMODE
 70
     1
  9
$MAXACTVP
 70
    64
  9
$PINSBASE
 10
0.0
 20
0.0
 30
0.0
  9
$PLIMCHECK
 70
     0
  9
$PEXTMIN
 10
0.0
 20
0.0
 30
0.0
  9
$PEXTMAX
 10
14850.0
 20
10500.0
 30
0.0
  9
$PLIMMIN
 10
0.0
 20
0.0
  9
$PLIMMAX
 10
14850.0
 20
10500.0
  9
$UNITMODE
 70
     0
  9
$VISRETAIN
 70
     1
  9
$PLINEGEN
 70
     0
  9
$PSLTSCALE
 70
     1
  9
$TREEDEPTH
 70
  3020
  9
$CMLSTYLE
  2
Standard
  9
$CMLJUST
 70
     0
  9
$CMLSCALE
 40
1.0
  9
$PROXYGRAPHICS
 70
     1
  9
$MEASUREMENT
 70
     1
  9
$CELWEIGHT
370
    -1
  9
$ENDCAPS
280
     0
  9
$JOINSTYLE
280
     0
  9
$LWDISPLAY
290
     0
  9
$INSUNITS
 70
     4
  9
$HYPERLINKBASE
  1

  9
$STYLESHEET
  1

  9
$XEDIT
290
     1
  9
$CEPSNTYPE
380
     0
  9
$PSTYLEMODE
290
     1
  9
$FINGERPRINTGUID
  2
{97A8E022-7BBB-4BA2-B2E1-D60B6627B895}
  9
$VERSIONGUID
  2
{BEE60236-7E43-4A8E-9008-20B77FC84574}
  9
$EXTNAMES
290
     1
  9
$PSVPSCALE
 40
0.0
  9
$OLESTARTUP
290
     0
  0
ENDSEC
  0
SECTION
  2
CLASSES
  0
CLASS
  1
ACDBDICTIONARYWDFLT
  2
AcDbDictionaryWithDefault
  3
ObjectDBX Classes
 90
        0
280
     0
281
     0
  0
CLASS
  1
MATERIAL
  2
AcDbMaterial
  3
ObjectDBX Classes
 90
     1153
280
     0
281
     0
  0
CLASS
  1
VISUALSTYLE
  2
AcDbVisualStyle
  3
ObjectDBX Classes
 90
     4095
280
     0
281
     0
  0
CLASS
  1
SCALE
  2
AcDbScale
  3
ObjectDBX Classes
 90
     1153
280
     0
281
     0
  0
CLASS
  1
TABLESTYLE
  2
AcDbTableStyle
  3
ObjectDBX Classes
 90
     4095
280
     0
281
     0
  0
CLASS
  1
MLEADERSTYLE
  2
AcDbMLeaderStyle
  3
ACDB_MLEADERSTYLE_CLASS
 90
     4095
280
     0
281
     0
  0
CLASS
  1
CELLSTYLEMAP
  2
AcDbCellStyleMap
  3
ObjectDBX Classes
 90
     1152
280
     0
281
     0
  0
CLASS
  1
DICTIONARYVAR
  2
AcDbDictionaryVar
  3
ObjectDBX Classes
 90
        0
280
     0
281
     0
  0
CLASS
  1
ACDBPLACEHOLDER
  2
AcDbPlaceHolder
  3
ObjectDBX Classes
 90
        0
280
     0
281
     0
  0
CLASS
  1
LAYOUT
  2
AcDbLayout
  3
ObjectDBX Classes
 90
        0
280
     0
281
     0
  0
CLASS
  1
ACME_DOCUMENT
  2
AcMeDbDoc
  3
AcMeServices
 90
     1024
280
     0
281
     0
  0
CLASS
  1
AMGSETTINGSOBJ
  2
AmgSettingsObj
  3
"AcadM|Product Description: AutoCAD Mechanical|Company: Autodesk, Inc."
 90
     1024
280
     0
281
     0
  0
CLASS
  1
ACMESCOPE
  2
AcMeScope
  3
AcMeServices
 90
     1024
280
     0
281
     0
  0
CLASS
  1
ACMECOMMANDHISTORY
  2
AcMeCommandHistory
  3
AcMeServices
 90
     1024
280
     0
281
     0
  0
CLASS
  1
ACIMSYSVARMAN
  2
AcImSysVarManager
  3
AcMeServices
 90
     1024
280
     0
281
     0
  0
CLASS
  1
ACIMINTSYSVAR
  2
AcImIntSysVar
  3
AcMeServices
 90
     1024
280
     0
281
     0
  0
CLASS
  1
ACMESTATEMGR
  2
AcMeStateMgr
  3
AcMeServices
 90
     1024
280
     0
281
     0
  0
CLASS
  1
ACDBENTITYCACHE
  2
AcMeEntityCache
  3
AcMeServices
 90
     1024
280
     0
281
     0
  0
CLASS
  1
ACGREFMASTER
  2
AcGrefMaster
  3
AcAttribServices
 90
     1024
280
     0
281
     0
  0
CLASS
  1
AM_DRAWING_MGR
  2
AcDmDwgMgr
  3
AcMechDwgViewMgmt
 90
     1024
280
     0
281
     0
  0
CLASS
  1
AM_DWG_DOCUMENT
  2
AcDmDwgDocument
  3
AcMechDwgViewMgmt
 90
     1024
280
     0
281
     0
  0
CLASS
  1
AM_DWG_SHEET
  2
AcDmSheet
  3
AcMechDwgViewMgmt
 90
     1024
280
     0
281
     0
  0
CLASS
  1
AM_VIEWDIMPARMAP
  2
AcDmViewDimParMap
  3
AcMechDwgViewMgmt
 90
     1024
280
     0
281
     0
  0
CLASS
  1
AMDTINTERNALREACTOR
  2
AmdtInternalReactor
  3
AcMeServices
 90
     1024
280
     0
281
     0
  0
CLASS
  1
ACIMREALSYSVAR
  2
AcImRealSysVar
  3
AcMeServices
 90
     1024
280
     0
281
     0
  0
CLASS
  1
AM_DWGMGR_NAME
  2
AcDmDwgMgrName
  3
AcMechDwgViewMgmt
 90
     1024
280
     0
281
     0
  0
CLASS
  1
ACME_DATABASE
  2
AcMeDbDatabase
  3
AcMeServices
 90
     1024
280
     0
281
     0
  0
CLASS
  1
ACRFINSADJUSTERMGR
  2
AcRfInsAdjusterMgr
  3
AcMeServices
 90
     1024
280
     0
281
     0
  0
CLASS
  1
ACGREFACADMASTER
  2
AcGrefacadMaster
  3
AcGrefServices
 90
     1024
280
     0
281
     0
  0
CLASS
  1
AMDTMENUSTATEMGR
  2
AmdtMenuStateMgr
  3
McadcomServices
 90
     1024
280
     0
281
     0
  0
CLASS
  1
AMDTMCOMMENUSTATE
  2
AmdtMcomMenuState
  3
McadcomServices
 90
     1024
280
     0
281
     0
  0
CLASS
  1
AMIMASTER
  2
AmiMaster
  3
AmiServices
 90
     1024
280
     0
281
     0
  0
CLASS
  1
MAPIAMMOUDLE
  2
MApiAmModule
  3
MApiAmServices
 90
     1024
280
     0
281
     0
  0
CLASS
  1
ACIMSTRSYSVAR
  2
AcImStrSysVar
  3
AcMeServices
 90
     1024
280
     0
281
     0
  0
CLASS
  1
AMDTDMMENUSTATE
  2
AmdtDmMenuState
  3
AcMechDwgViewMgmt
 90
     1024
280
     0
281
     0
  0
CLASS
  1
AMDTAMMENUSTATE
  2
AmdtAmMenuState
  3
DesignerAssemblies
 90
     1024
280
     0
281
     0
  0
CLASS
  1
ACAMPROJECT
  2
AcAmProject
  3
DesignerAssemblies
 90
     1024
280
     0
281
     0
  0
CLASS
  1
ACAMGRCOMPDEF
  2
AcAmGrCompDef
  3
DesignerAssemblies
 90
     1024
280
     0
281
     0
  0
CLASS
  1
ACAMCOMPDEF
  2
AcAmCompDef
  3
DesignerAssemblies
 90
     1024
280
     0
281
     0
  0
CLASS
  1
ACAMCOMPDEFMGR
  2
AcAmCompDefMgr
  3
DesignerAssemblies
 90
     1024
280
     0
281
     0
  0
CLASS
  1
AMCONTEXTMGR
  2
AcAmContextMgr
  3
DesignerAssemblies
 90
     1024
280
     0
281
     0
  0
CLASS
  1
ACAMCONTEXTMODELER
  2
AcAmContextModeler
  3
DesignerAssemblies
 90
     1024
280
     0
281
     0
  0
CLASS
  1
ACMDATADICTIONARY
  2
AcmDataDictionary
  3
"AcmSymBB|Product Description: AutoCAD Mechanical|Company: Autodesk, Inc."
 90
     1024
280
     0
281
     0
  0
CLASS
  1
ACAMGRCOMPDEFSET
  2
AcAmGrCompDefSet
  3
DesignerAssemblies
 90
     1024
280
     0
281
     0
  0
CLASS
  1
AMDTBROWSERDBTAB
  2
AmdtBrowserDbTab
  3
McadcomServices
 90
     1024
280
     0
281
     0
  0
CLASS
  1
CBROWSERAPPOBJECT
  2
CBrowserAppObject
  3
McadcomServices
 90
     1024
280
     0
281
     0
  0
CLASS
  1
DM_PLACEHOLDER
  2
AcDmSelsetPlaceholder
  3
AcMechDwgViewMgmt
 90
     1024
280
     0
281
     0
  0
CLASS
  1
EXACXREFPANELOBJECT
  2
ExAcXREFPanelObject
  3
EXAC_ESW
 90
     1025
280
     0
281
     0
  0
CLASS
  1
NPOCOLLECTION
  2
AcDbImpNonPersistentObjectsCollection
  3
ObjectDBX Classes
 90
     1153
280
     0
281
     0
  0
CLASS
  1
ACMSTANDARDISO
  2
AcmStandardISO
  3
"Amdt_StdImp|Product Description: AutoCAD Mechanical|Company: Autodesk, Inc."
 90
     1024
280
     0
281
     0
  0
CLASS
  1
AMDTEDGESTANDARDISO13715
  2
AmdtEdgeStdISO13715
  3
"Amdt_StdImp|Product Description: AutoCAD Mechanical|Company: Autodesk, Inc."
 90
     1024
280
     0
281
     0
  0
CLASS
  1
ACMSURFSTANDARDISO2002
  2
AcmSurfTextStdISO2002
  3
"Amdt_StdImp|Product Description: AutoCAD Mechanical|Company: Autodesk, Inc."
 90
     1024
280
     0
281
     0
  0
CLASS
  1
ACMFCFSTANDARDISO
  2
AcmFCFStdISO
  3
"Amdt_StdImp|Product Description: AutoCAD Mechanical|Company: Autodesk, Inc."
 90
     1024
280
     0
281
     0
  0
CLASS
  1
ACMWELDSTANDARDISO
  2
AcmWeldingStdISO
  3
"Amdt_StdImp|Product Description: AutoCAD Mechanical|Company: Autodesk, Inc."
 90
     1024
280
     0
281
     0
  0
CLASS
  1
ACMIDSTANDARDISO
  2
AcmIdStdISO
  3
"Amdt_StdImp|Product Description: AutoCAD Mechanical|Company: Autodesk, Inc."
 90
     1024
280
     0
281
     0
  0
CLASS
  1
ACMDATUMSTANDARDISO
  2
AcmDatumStdISO
  3
"Amdt_StdImp|Product Description: AutoCAD Mechanical|Company: Autodesk, Inc."
 90
     1024
280
     0
281
     0
  0
CLASS
  1
ACMBOMSTANDARDISO
  2
AcmBOMStdISO
  3
"Amdt_StdImp|Product Description: AutoCAD Mechanical|Company: Autodesk, Inc."
 90
     1024
280
     0
281
     0
  0
CLASS
  1
ACMDETAILSTANDARDISO
  2
AmdtDetailSymStdISO
  3
"Amdt_StdImp|Product Description: AutoCAD Mechanical|Company: Autodesk, Inc."
 90
     1024
280
     0
281
     0
  0
CLASS
  1
ACMSECTIONSTANDARDISO2001
  2
AmdtSectionSymStdISO2001
  3
"Amdt_StdImp|Product Description: AutoCAD Mechanical|Company: Autodesk, Inc."
 90
     1024
280
     0
281
     0
  0
CLASS
  1
ACMCENTERLINESTANDARDISO
  2
AmdtCenterLineStdISO
  3
"Amdt_StdImp|Product Description: AutoCAD Mechanical|Company: Autodesk, Inc."
 90
     1024
280
     0
281
     0
  0
CLASS
  1
ACMTHREADLINESTANDARDISO
  2
AmdtThreadLineStdISO
  3
"Amdt_StdImp|Product Description: AutoCAD Mechanical|Company: Autodesk, Inc."
 90
     1024
280
     0
281
     0
  0
CLASS
  1
ACMNOTESTANDARDISO
  2
AmdtNoteStdISO
  3
"Amdt_StdImp|Product Description: AutoCAD Mechanical|Company: Autodesk, Inc."
 90
     1024
280
     0
281
     0
  0
CLASS
  1
ACMTAPERSTANDARDISO
  2
AcmTaperStdISO
  3
"Amdt_StdImp|Product Description: AutoCAD Mechanical|Company: Autodesk, Inc."
 90
     1024
280
     0
281
     0
  0
CLASS
  1
ACMANOOTATIONVIEWSTANDARDISO
  2
AmdtAnViewStdISO
  3
"Amdt_StdImp|Product Description: AutoCAD Mechanical|Company: Autodesk, Inc."
 90
     1024
280
     0
281
     0
  0
CLASS
  1
ACAMGLAYSTD
  2
AcAmgLayStd
  3
"AmgLay|Product Description: AutoCAD Mechanical|Company: Autodesk, Inc."
 90
     1024
280
     0
281
     0
  0
CLASS
  1
ACAMGDIMSTD
  2
AcAmgDimStd
  3
"AmgDim|Product Description: AutoCAD Mechanical|Company: Autodesk, Inc."
 90
     1024
280
     0
281
     0
  0
CLASS
  1
AMGOBJPROPCFG
  2
AmgObjPropCfg
  3
"AmgLay|Product Description: AutoCAD Mechanical|Company: Autodesk, Inc."
 90
     1025
280
     0
281
     0
  0
CLASS
  1
ACAMGHOLECHARTSTDISO
  2
AcAmgHoleChartStdISO
  3
AmgDim|Product Description: AutoCAD Mechanical|Company: Autodesk, Inc.
 90
     1024
280
     0
281
     0
  0
CLASS
  1
ACAMGTITLESTD
  2
AcAmgTitleStd
  3
"AmgTitle|Product Description: AutoCAD Mechanical|Company: Autodesk, Inc."
 90
     4095
280
     0
281
     0
  0
CLASS
  1
AMDTNOTETEMPLATEDB
  2
AmdtNoteTemplateDB
  3
AcmSymBB|Product Description: AutoCAD Mechanical|Company: Autodesk, Inc.
 90
     1024
280
     0
281
     0
  0
CLASS
  1
ACAMGFILTERDAT
  2
AcAmgFilterDat
  3
"AcadM|Product Description: AutoCAD Mechanical|Company: Autodesk, Inc."
 90
    33792
280
     0
281
     0
  0
ENDSEC
  0
SECTION
  2
TABLES
  0
TABLE
  2
VPORT
  5
8
102
{ACAD_XDICTIONARY
360
C47
102
}
330
0
100
AcDbSymbolTable
 70
     1
  0
VPORT
  5
57
330
8
100
AcDbSymbolTableRecord
100
AcDbViewportTableRecord
  2
*Active
 70
     0
 10
0.0
 20
0.0
 11
1.0
 21
1.0
 12
16935.02484118561
 22
4461.770946868099
 13
0.0
 23
0.0
 14
1.0
 24
1.0
 15
0.0
 25
0.0
 16
0.0
 26
0.0
 36
1.0
 17
0.0
 27
0.0
 37
0.0
 40
10515.3745686292
 41
2.820205479452054
 42
50.0
 43
0.0
 44
0.0
 50
0.0
 51
0.0
 71
     0
 72
   100
 73
     1
 74
     1
 75
     0
 76
     0
 77
     0
 78
     0
281
     0
 65
     0
110
0.0
120
0.0
130
0.0
111
1.0
121
0.0
131
0.0
112
0.0
122
1.0
132
0.0
 79
     0
146
0.0
  0
ENDTAB
  0
TABLE
  2
LTYPE
  5
5
330
0
100
AcDbSymbolTable
 70
    15
  0
LTYPE
  5
5B
330
5
100
AcDbSymbolTableRecord
100
AcDbLinetypeTableRecord
  2
ByBlock
 70
     0
  3

 72
    65
 73
     0
 40
0.0
  0
LTYPE
  5
5C
330
5
100
AcDbSymbolTableRecord
100
AcDbLinetypeTableRecord
  2
ByLayer
 70
     0
  3

 72
    65
 73
     0
 40
0.0
  0
LTYPE
  5
5D
330
5
100
AcDbSymbolTableRecord
100
AcDbLinetypeTableRecord
  2
Continuous
 70
     0
  3
Solid line
 72
    65
 73
     0
 40
0.0
  0
LTYPE
  5
86
330
5
100
AcDbSymbolTableRecord
100
AcDbLinetypeTableRecord
  2
CENTER
 70
     0
  3
Center ____ _ ____ _ ____ _ ____ _ ____ _ ____
 72
    65
 73
     4
 40
50.8
 49
31.75
 74
     0
 49
-6.349999999999997
 74
     0
 49
6.349999999999997
 74
     0
 49
-6.349999999999997
 74
     0
  0
LTYPE
  5
93
330
5
100
AcDbSymbolTableRecord
100
AcDbLinetypeTableRecord
  2
HIDDEN
 70
     0
  3
Hidden __ __ __ __ __ __ __ __ __ __ __ __ __ _
 72
    65
 73
     2
 40
9.524999999999996
 49
6.349999999999997
 74
     0
 49
-3.174999999999998
 74
     0
  0
LTYPE
  5
97
330
5
100
AcDbSymbolTableRecord
100
AcDbLinetypeTableRecord
  2
PHANTOM2
 70
     0
  3
Phantom (.5x) ___ _ _ ___ _ _ ___ _ _ ___ _ _
 72
    65
 73
     6
 40
31.75
 49
15.875
 74
     0
 49
-3.174999999999998
 74
     0
 49
3.174999999999998
 74
     0
 49
-3.174999999999998
 74
     0
 49
3.174999999999998
 74
     0
 49
-3.174999999999998
 74
     0
  0
LTYPE
  5
D0B
330
5
100
AcDbSymbolTableRecord
100
AcDbLinetypeTableRecord
  2
AM_ISO02W050
 70
     0
  3
__ __ __ __ __ __ __ __ __ __ __ __ __ __ __
 72
    65
 73
     2
 40
7.5
 49
6.0
 74
     0
 49
-1.5
 74
     0
  0
LTYPE
  5
D0C
330
5
100
AcDbSymbolTableRecord
100
AcDbLinetypeTableRecord
  2
AM_ISO08W050
 70
     0
  3
____ . ____ . ____ . ____ . ____ . ____ . ____
 72
    65
 73
     4
 40
18.0
 49
12.0
 74
     0
 49
-1.5
 74
     0
 49
3.0
 74
     0
 49
-1.5
 74
     0
  0
LTYPE
  5
D0D
330
5
100
AcDbSymbolTableRecord
100
AcDbLinetypeTableRecord
  2
AM_ISO09W050
 70
     0
  3
_____ . . _____ . . _____ . . ____ .. ____
 72
    65
 73
     6
 40
22.5
 49
12.0
 74
     0
 49
-1.5
 74
     0
 49
3.0
 74
     0
 49
-1.5
 74
     0
 49
3.0
 74
     0
 49
-1.5
 74
     0
  0
LTYPE
  5
D0E
330
5
100
AcDbSymbolTableRecord
100
AcDbLinetypeTableRecord
  2
Amconstr
 70
     0
  3
_______________________
 72
    65
 73
     2
 40
9999.0
 49
9999.0
 74
     0
 49
0.0
 74
     0
  0
LTYPE
  5
D0F
330
5
100
AcDbSymbolTableRecord
100
AcDbLinetypeTableRecord
  2
AM_ISO08W050x2
 70
     0
  3
__ . __ . __ . __ . __ . __
 72
    65
 73
     4
 40
9.0
 49
6.0
 74
     0
 49
-0.75
 74
     0
 49
1.5
 74
     0
 49
-0.75
 74
     0
  0
LTYPE
  5
D10
330
5
100
AcDbSymbolTableRecord
100
AcDbLinetypeTableRecord
  2
AM_ISO02W050x2
 70
     0
  3
 _ _ _ _ _ _ _ _ _ _ _ _
 72
    65
 73
     2
 40
3.75
 49
3.0
 74
     0
 49
-0.75
 74
     0
  0
LTYPE
  5
D13
330
5
100
AcDbSymbolTableRecord
100
AcDbLinetypeTableRecord
  2
Amzigzag
 70
     0
  3
/\/-/\/-/\/-/\/-/\/-/\/
 72
    65
 73
     2
 40
11.0001
 49
0.0001
 74
     4
 75
   136
340
D12
 46
0.04
 50
0.0
 44
0.0
 45
0.0
 49
-11.0
 74
     0
  0
LTYPE
  5
D22
330
5
100
AcDbSymbolTableRecord
100
AcDbLinetypeTableRecord
  2
ACISOWELD
 70
     0
  3
_ _ _ _ _
 72
    65
 73
     2
 40
2.0
 49
2.0
 74
     0
 49
-1.0
 74
     0
  0
LTYPE
  5
D23
330
5
100
AcDbSymbolTableRecord
100
AcDbLinetypeTableRecord
  2
ACISOTGB
 70
     0
  3
__ . . __ . .
 72
    65
 73
     6
 40
9.0
 49
4.0
 74
     0
 49
-1.0
 74
     0
 49
1.0
 74
     0
 49
-1.0
 74
     0
 49
1.0
 74
     0
 49
-1.0
 74
     0
  0
LTYPE
  5
D24
330
5
100
AcDbSymbolTableRecord
100
AcDbLinetypeTableRecord
  2
ACISOTGL
 70
     0
  3
_ _ _ _ _
 72
    65
 73
     2
 40
3.0
 49
2.0
 74
     0
 49
-1.0
 74
     0
  0
ENDTAB
  0
TABLE
  2
LAYER
  5
2
330
0
100
AcDbSymbolTable
 70
     5
  0
LAYER
  5
54
330
2
100
AcDbSymbolTableRecord
100
AcDbLayerTableRecord
  2
0
 70
     0
 62
     7
  6
Continuous
370
    -3
390
F
  0
LAYER
  5
BA
330
2
100
AcDbSymbolTableRecord
100
AcDbLayerTableRecord
  2
Dimension (ISO)
 70
     0
 62
   161
  6
Continuous
370
    18
390
F
  0
LAYER
  5
C5
330
2
100
AcDbSymbolTableRecord
100
AcDbLayerTableRecord
  2
Title (ISO)
 70
     0
 62
     7
  6
Continuous
370
    30
390
F
  0
LAYER
  5
C8
330
2
100
AcDbSymbolTableRecord
100
AcDbLayerTableRecord
  2
Visible (ISO)
 70
     0
 62
     7
  6
Continuous
370
    35
390
F
  0
LAYER
  5
6A2
330
2
100
AcDbSymbolTableRecord
100
AcDbLayerTableRecord
  2
Defpoints
 70
     0
 62
     7
  6
Continuous
290
     0
370
    -3
390
F
  0
ENDTAB
  0
TABLE
  2
STYLE
  5
3
330
0
100
AcDbSymbolTable
 70
     6
  0
STYLE
  5
55
330
3
100
AcDbSymbolTableRecord
100
AcDbTextStyleTableRecord
  2
Standard
 70
     0
 40
0.0
 41
1.0
 50
0.0
 71
     0
 42
0.2
  3
tahoma.ttf
  4

1001
ACAD
1000
Tahoma
1071
      256
  0
STYLE
  5
CD
330
3
100
AcDbSymbolTableRecord
100
AcDbTextStyleTableRecord
  2
Label Text (ISO)
 70
     0
 40
0.0
 41
1.0
 50
0.0
 71
     0
 42
0.2
  3
tahoma.ttf
  4

1001
ACAD
1000
Tahoma
1071
      256
  0
STYLE
  5
CE
330
3
100
AcDbSymbolTableRecord
100
AcDbTextStyleTableRecord
  2
Note Text (ISO)
 70
     0
 40
0.0
 41
1.0
 50
0.0
 71
     0
 42
0.2
  3
tahoma.ttf
  4

1001
ACAD
1000
Tahoma
1071
      256
  0
STYLE
  5
D12
330
3
100
AcDbSymbolTableRecord
100
AcDbTextStyleTableRecord
  2

 70
     1
 40
0.0
 41
1.0
 50
0.0
 71
     0
 42
0.2
  3
genltshp.shx
  4

  0
STYLE
  5
D21
330
3
100
AcDbSymbolTableRecord
100
AcDbTextStyleTableRecord
  2
ACISOGDT
 70
     0
 40
0.0
 41
1.0
 50
0.0
 71
     0
 42
0.2
  3
amgdt.shx
  4

  0
STYLE
  5
114C
330
3
100
AcDbSymbolTableRecord
100
AcDbTextStyleTableRecord
  2
ACISOTS
 70
     0
 40
1.0
 41
1.0
 50
0.0
 71
     0
 42
0.2
  3
isocp.shx
  4

  0
ENDTAB
  0
TABLE
  2
VIEW
  5
6
330
0
100
AcDbSymbolTable
 70
     0
  0
ENDTAB
  0
TABLE
  2
UCS
  5
7
330
0
100
AcDbSymbolTable
 70
     0
  0
ENDTAB
  0
TABLE
  2
APPID
  5
9
330
0
100
AcDbSymbolTable
 70
    18
  0
APPID
  5
56
330
9
100
AcDbSymbolTableRecord
100
AcDbRegAppTableRecord
  2
ACAD
 70
     0
  0
APPID
  5
5E
330
9
100
AcDbSymbolTableRecord
100
AcDbRegAppTableRecord
  2
AcadAnnotative
 70
     0
  0
APPID
  5
C29
330
9
100
AcDbSymbolTableRecord
100
AcDbRegAppTableRecord
  2
AcadAnnoPO
 70
     0
  0
APPID
  5
C7D
330
9
100
AcDbSymbolTableRecord
100
AcDbRegAppTableRecord
  2
ACAD_MLEADERVER
 70
     0
  0
APPID
  5
CA1
330
9
100
AcDbSymbolTableRecord
100
AcDbRegAppTableRecord
  2
MCAD_NO_VIS
 70
     0
  0
APPID
  5
CA2
330
9
100
AcDbSymbolTableRecord
100
AcDbRegAppTableRecord
  2
ACAD_TEMP_GRAPHIC
 70
     0
  0
APPID
  5
CCD
330
9
100
AcDbSymbolTableRecord
100
AcDbRegAppTableRecord
  2
AD_DRAW
 70
     0
  0
APPID
  5
CD0
330
9
100
AcDbSymbolTableRecord
100
AcDbRegAppTableRecord
  2
ACATTRIBSERVICES
 70
     0
  0
APPID
  5
CE9
330
9
100
AcDbSymbolTableRecord
100
AcDbRegAppTableRecord
  2
DESIGNERASSEMBLIES
 70
     0
  0
APPID
  5
CEE
330
9
100
AcDbSymbolTableRecord
100
AcDbRegAppTableRecord
  2
ACADM_DIM_EDIT
 70
     0
  0
APPID
  5
CEF
330
9
100
AcDbSymbolTableRecord
100
AcDbRegAppTableRecord
  2
AMDT_DM_ADJ
 70
     0
  0
APPID
  5
D08
330
9
100
AcDbSymbolTableRecord
100
AcDbRegAppTableRecord
  2
ACAD_DSTYLE_DIMJAG
 70
     0
  0
APPID
  5
D09
330
9
100
AcDbSymbolTableRecord
100
AcDbRegAppTableRecord
  2
ACAD_DSTYLE_DIMBREAK
 70
     0
  0
APPID
  5
1029
330
9
100
AcDbSymbolTableRecord
100
AcDbRegAppTableRecord
  2
ACAD_DSTYLE_DIMARC_LENGTH_SYMBOL
 70
     0
  0
APPID
  5
102A
330
9
100
AcDbSymbolTableRecord
100
AcDbRegAppTableRecord
  2
ACAD_DSTYLE_DIM_LINETYPE
 70
     0
  0
APPID
  5
102B
330
9
100
AcDbSymbolTableRecord
100
AcDbRegAppTableRecord
  2
ACAD_DSTYLE_DIM_EXT1_LINETYPE
 70
     0
  0
APPID
  5
102C
330
9
100
AcDbSymbolTableRecord
100
AcDbRegAppTableRecord
  2
ACAD_DSTYLE_DIM_EXT2_LINETYPE
 70
     0
  0
APPID
  5
1090
330
9
100
AcDbSymbolTableRecord
100
AcDbRegAppTableRecord
  2
ACAD_EXEMPT_FROM_CAD_STANDARDS
 70
     0
  0
ENDTAB
  0
TABLE
  2
DIMSTYLE
  5
A
330
0
100
AcDbSymbolTable
 70
     9
100
AcDbDimStyleTable
 71
     2
340
D5
340
58
  0
DIMSTYLE
105
58
330
A
100
AcDbSymbolTableRecord
100
AcDbDimStyleTableRecord
  2
Standard
 70
     0
340
55
  0
DIMSTYLE
105
D5
102
{ACAD_REACTORS
330
6A1
330
784
330
86C
330
96F
330
A57
330
B39
102
}
330
A
100
AcDbSymbolTableRecord
100
AcDbDimStyleTableRecord
  2
Default (ISO)
 70
     0
 40
50.0
 41
2.5
 42
0.5
 43
5.999999999999999
 44
1.0
 45
0.00000001
 46
10.0
 73
     0
 77
     1
 78
     8
 79
     2
140
3.5
143
0.03937
146
0.7142857313156128
147
0.762
171
     3
172
     1
176
   256
177
   256
178
   256
271
     2
272
     2
274
     3
278
    44
340
CD
371
    -1
372
    -1
  0
DIMSTYLE
105
D07
102
{ACAD_REACTORS
330
11F9
102
}
330
A
100
AcDbSymbolTableRecord
100
AcDbDimStyleTableRecord
  2
AM_ISO
 70
     0
  4
"
 41
3.5
 42
1.0
 43
10.0
 44
1.0
 47
0.1
 48
0.1
 73
     0
 74
     0
 77
     1
 78
     8
 79
     2
140
3.5
141
0.0
143
0.0393701
146
0.71
147
1.5
172
     1
176
   256
177
   256
178
     2
271
     2
272
     3
274
     4
283
     0
284
     8
340
55
371
    -1
372
    -1
1001
ACAD_DSTYLE_DIMJAG
1070
   388
1040
1.5
1001
ACAD_DSTYLE_DIMBREAK
1070
   391
1040
3.75
1001
ACAD_DSTYLE_DIMARC_LENGTH_SYMBOL
1070
   379
1070
     1
1001
ACAD_DSTYLE_DIM_LINETYPE
1070
   380
1005
5B
1001
ACAD_DSTYLE_DIM_EXT1_LINETYPE
1070
   381
1005
5B
1001
ACAD_DSTYLE_DIM_EXT2_LINETYPE
1070
   382
1005
5B
  0
DIMSTYLE
105
D14
330
A
100
AcDbSymbolTableRecord
100
AcDbDimStyleTableRecord
  2
AM_ISO$3
 70
     0
  4
"
 41
3.5
 42
1.0
 43
10.0
 44
1.0
 47
0.1
 48
0.1
 73
     0
 77
     1
 78
     8
 79
     2
140
3.5
141
0.0
143
0.0393701
146
0.71
147
1.5
176
   256
177
   256
178
     2
271
     2
272
     3
274
     4
283
     0
284
     8
288
     1
289
     0
340
55
371
    -1
372
    -1
1001
ACAD_DSTYLE_DIMBREAK
1070
   391
1040
3.75
1001
ACAD_DSTYLE_DIMJAG
1070
   388
1040
1.5
1001
ACAD_DSTYLE_DIMARC_LENGTH_SYMBOL
1070
   379
1070
     1
1001
ACAD_DSTYLE_DIM_LINETYPE
1070
   380
1005
5B
1001
ACAD_DSTYLE_DIM_EXT1_LINETYPE
1070
   381
1005
5B
1001
ACAD_DSTYLE_DIM_EXT2_LINETYPE
1070
   382
1005
5B
  0
DIMSTYLE
105
D15
330
A
100
AcDbSymbolTableRecord
100
AcDbDimStyleTableRecord
  2
AM_ISO$4
 70
     0
  4
"
 41
3.5
 42
1.0
 43
10.0
 44
1.0
 47
0.1
 48
0.1
 73
     0
 77
     1
 78
     8
 79
     2
140
3.5
141
0.0
143
0.0393701
146
0.71
147
1.5
176
   256
177
   256
178
     2
271
     2
272
     3
274
     4
283
     0
284
     8
288
     1
289
     0
340
55
371
    -1
372
    -1
1001
ACAD_DSTYLE_DIMBREAK
1070
   391
1040
3.75
1001
ACAD_DSTYLE_DIMJAG
1070
   388
1040
1.5
1001
ACAD_DSTYLE_DIMARC_LENGTH_SYMBOL
1070
   379
1070
     1
1001
ACAD_DSTYLE_DIM_LINETYPE
1070
   380
1005
5B
1001
ACAD_DSTYLE_DIM_EXT1_LINETYPE
1070
   381
1005
5B
1001
ACAD_DSTYLE_DIM_EXT2_LINETYPE
1070
   382
1005
5B
  0
DIMSTYLE
105
D16
330
A
100
AcDbSymbolTableRecord
100
AcDbDimStyleTableRecord
  2
AM_ISO$6
 70
     0
  4
"
 41
3.5
 42
1.0
 43
10.0
 44
1.0
 47
0.1
 48
0.1
 73
     0
 74
     0
 78
     8
 79
     2
140
3.5
141
0.0
143
0.0393701
146
0.71
147
1.5
172
     1
176
   256
177
   256
178
     2
271
     2
272
     3
274
     4
283
     0
284
     8
340
55
371
    -1
372
    -1
1001
ACAD_DSTYLE_DIMBREAK
1070
   391
1040
3.75
1001
ACAD_DSTYLE_DIMJAG
1070
   388
1040
1.5
1001
ACAD_DSTYLE_DIMARC_LENGTH_SYMBOL
1070
   379
1070
     1
1001
ACAD_DSTYLE_DIM_LINETYPE
1070
   380
1005
5B
1001
ACAD_DSTYLE_DIM_EXT1_LINETYPE
1070
   381
1005
5B
1001
ACAD_DSTYLE_DIM_EXT2_LINETYPE
1070
   382
1005
5B
  0
DIMSTYLE
105
D17
330
A
100
AcDbSymbolTableRecord
100
AcDbDimStyleTableRecord
  2
AM_ISO$7
 70
     0
  4
"
 41
3.5
 42
1.0
 43
10.0
 44
1.0
 47
0.1
 48
0.1
 73
     0
 74
     0
 77
     1
 78
     8
 79
     2
140
3.5
141
0.0
143
0.0393701
146
0.71
147
1.5
172
     1
176
   256
177
   256
178
     2
271
     2
272
     3
274
     4
283
     0
284
     8
340
55
371
    -1
372
    -1
1001
ACAD_DSTYLE_DIMBREAK
1070
   391
1040
3.75
1001
ACAD_DSTYLE_DIMJAG
1070
   388
1040
1.5
1001
ACAD_DSTYLE_DIMARC_LENGTH_SYMBOL
1070
   379
1070
     1
1001
ACAD_DSTYLE_DIM_LINETYPE
1070
   380
1005
5B
1001
ACAD_DSTYLE_DIM_EXT1_LINETYPE
1070
   381
1005
5B
1001
ACAD_DSTYLE_DIM_EXT2_LINETYPE
1070
   382
1005
5B
  0
DIMSTYLE
105
D18
330
A
100
AcDbSymbolTableRecord
100
AcDbDimStyleTableRecord
  2
AM_ISO$SF
 70
     0
  4
"
 41
3.5
 42
1.0
 43
10.0
 44
1.0
 47
0.1
 48
0.1
 73
     0
 74
     0
 75
     1
 76
     1
 77
     1
 78
     8
 79
     2
140
3.5
141
0.0
143
0.0393701
146
0.71
147
1.5
172
     1
176
   256
177
   256
178
     2
271
     2
272
     3
274
     4
283
     0
284
     8
340
55
371
    -1
372
    -1
1001
ACAD_DSTYLE_DIMBREAK
1070
   391
1040
3.75
1001
ACAD_DSTYLE_DIMJAG
1070
   388
1040
1.5
1001
ACAD_DSTYLE_DIMARC_LENGTH_SYMBOL
1070
   379
1070
     1
1001
ACAD_DSTYLE_DIM_LINETYPE
1070
   380
1005
5B
1001
ACAD_DSTYLE_DIM_EXT1_LINETYPE
1070
   381
1005
5B
1001
ACAD_DSTYLE_DIM_EXT2_LINETYPE
1070
   382
1005
5B
  0
DIMSTYLE
105
D1D
330
A
100
AcDbSymbolTableRecord
100
AcDbDimStyleTableRecord
  2
AM_ISO$SH
 70
     0
  4
"
 41
3.5
 42
1.0
 43
10.0
 44
1.0
 47
0.1
 48
0.1
 73
     0
 74
     0
 75
     1
 76
     1
 77
     1
 78
     8
 79
     2
140
3.5
141
0.0
143
0.0393701
144
2.0
146
0.71
147
1.5
172
     1
173
     1
176
   256
177
   256
178
     2
271
     2
272
     3
274
     4
283
     0
284
     8
340
55
343
D19
371
    -1
372
    -1
1001
ACAD_DSTYLE_DIMBREAK
1070
   391
1040
3.75
1001
ACAD_DSTYLE_DIMJAG
1070
   388
1040
1.5
1001
ACAD_DSTYLE_DIMARC_LENGTH_SYMBOL
1070
   379
1070
     1
1001
ACAD_DSTYLE_DIM_LINETYPE
1070
   380
1005
5B
1001
ACAD_DSTYLE_DIM_EXT1_LINETYPE
1070
   381
1005
5B
1001
ACAD_DSTYLE_DIM_EXT2_LINETYPE
1070
   382
1005
5B
  0
ENDTAB
  0
TABLE
  2
BLOCK_RECORD
  5
1
330
0
100
AcDbSymbolTable
 70
    11
  0
BLOCK_RECORD
  5
6C
330
1
100
AcDbSymbolTableRecord
100
AcDbBlockTableRecord
  2
*Model_Space
340
6F
  0
BLOCK_RECORD
  5
68
330
1
100
AcDbSymbolTableRecord
100
AcDbBlockTableRecord
  2
*Paper_Space
340
6B
  0
BLOCK_RECORD
  5
70
330
1
100
AcDbSymbolTableRecord
100
AcDbBlockTableRecord
  2
*Paper_Space0
340
73
  0
BLOCK_RECORD
  5
6A3
330
1
100
AcDbSymbolTableRecord
100
AcDbBlockTableRecord
  2
*D1
340
0
  0
BLOCK_RECORD
  5
785
330
1
100
AcDbSymbolTableRecord
100
AcDbBlockTableRecord
  2
*D2
340
0
  0
BLOCK_RECORD
  5
86D
330
1
100
AcDbSymbolTableRecord
100
AcDbBlockTableRecord
  2
*D3
340
0
  0
BLOCK_RECORD
  5
970
330
1
100
AcDbSymbolTableRecord
100
AcDbBlockTableRecord
  2
*D4
340
0
  0
BLOCK_RECORD
  5
A58
330
1
100
AcDbSymbolTableRecord
100
AcDbBlockTableRecord
  2
*D5
340
0
  0
BLOCK_RECORD
  5
B3A
330
1
100
AcDbSymbolTableRecord
100
AcDbBlockTableRecord
  2
*D6
340
0
  0
BLOCK_RECORD
  5
C21
330
1
100
AcDbSymbolTableRecord
100
AcDbBlockTableRecord
  2
Tabelki rysunkowe Rzut
340
0
102
{BLKREFS
331
C2C
102
}
  0
BLOCK_RECORD
  5
D19
330
1
100
AcDbSymbolTableRecord
100
AcDbBlockTableRecord
  2
GENAXEH
340
0
  0
BLOCK_RECORD
  5
D32
330
1
100
AcDbSymbolTableRecord
100
AcDbBlockTableRecord
  2
14070_Bieznia-kolowa-chomik
340
0
310
2800000020000000200000000100080000000000000400000000000000000000000000000000000000000000000080000080000000808000800000008000800080800000C0C0C000C0DCC000F0CAA6000020400000206000002080000020A0000020C0000020E00000400000004020000040400000406000004080000040A0
310
000040C0000040E00000600000006020000060400000606000006080000060A0000060C0000060E00000800000008020000080400000806000008080000080A0000080C0000080E00000A0000000A0200000A0400000A0600000A0800000A0A00000A0C00000A0E00000C0000000C0200000C0400000C0600000C0800000C0
310
A00000C0C00000C0E00000E0000000E0200000E0400000E0600000E0800000E0A00000E0C00000E0E00040000000400020004000400040006000400080004000A0004000C0004000E00040200000402020004020400040206000402080004020A0004020C0004020E000404000004040200040404000404060004040800040
310
40A0004040C0004040E00040600000406020004060400040606000406080004060A0004060C0004060E00040800000408020004080400040806000408080004080A0004080C0004080E00040A0000040A0200040A0400040A0600040A0800040A0A00040A0C00040A0E00040C0000040C0200040C0400040C0600040C08000
310
40C0A00040C0C00040C0E00040E0000040E0200040E0400040E0600040E0800040E0A00040E0C00040E0E00080000000800020008000400080006000800080008000A0008000C0008000E00080200000802020008020400080206000802080008020A0008020C0008020E00080400000804020008040400080406000804080
310
008040A0008040C0008040E00080600000806020008060400080606000806080008060A0008060C0008060E00080800000808020008080400080806000808080008080A0008080C0008080E00080A0000080A0200080A0400080A0600080A0800080A0A00080A0C00080A0E00080C0000080C0200080C0400080C0600080C0
310
800080C0A00080C0C00080C0E00080E0000080E0200080E0400080E0600080E0800080E0A00080E0C00080E0E000C0000000C0002000C0004000C0006000C0008000C000A000C000C000C000E000C0200000C0202000C0204000C0206000C0208000C020A000C020C000C020E000C0400000C0402000C0404000C0406000C0
310
408000C040A000C040C000C040E000C0600000C0602000C0604000C0606000C0608000C060A000C060C000C060E000C0800000C0802000C0804000C0806000C0808000C080A000C080C000C080E000C0A00000C0A02000C0A04000C0A06000C0A08000C0A0A000C0A0C000C0A0E000C0C00000C0C02000C0C04000C0C06000
310
C0C08000C0C0A000F0FBFF00A4A0A000808080000000FF0000FF000000FFFF00FF000000FF00FF00FFFF0000FFFFFF0049494949494949494949494949494949494949494949494949494949494949494949494949494949494949494949494949494949494949494949494949494949494949494949494949494949494949
310
49494949494949494949494949494949494949494949494949494949494949494949494949494949494949494949494949494949494949494949494949494949494949494949494949494949494949494949494949494949494949FFFFFFFFFFFFFFFFFFFFFFFF4949494949494949494949494949494949FFFFFF49494949
310
4949494949494949FFFFFF4949494949494949494949FFFFFF494949494949494949494949494949494949FFFFFF4949494949494949FF4949494949494949494949494949494949494949494949FF494949494949FF494949494949494949494949494949494949494949494949FF494949494949FF494949494949494949
310
494949494949494949494949494949FF4949494949FF4949494949494949494949494949494949494949494949494949FF49494949FF4949494949494949494949494949494949494949494949494949FF49494949FF4949494949494949494949494949494949494949494949494949FF494949FF494949494949FFFFFFFF
310
FFFFFFFFFFFFFFFFFFFFFFFF494949494949FF4949FF494949494949FF49FFFF49FF49FFFF49FF49FFFF49FF494949494949FF4949FF494949494949FF49FFFF49FF49FFFF49FF49FFFF49FF494949494949FF4949FF494949494949FFFFFFFFFFFFFFFFFFFFFFFFFFFFFFFF494949494949FF494949FF4949494949494949
310
494949494949494949494949494949494949FF49494949FF4949494949494949494949494949494949494949494949494949FF49494949FF4949494949494949494949494949494949494949494949494949FF4949494949FF494949494949494949494949494949494949494949494949FF494949494949FF494949494949
310
494949494949494949494949494949494949FF49494949494949FF4949494949494949494949494949494949494949494949FF4949494949494949FF49494949494949494949494949494949494949FFFFFF49494949494949494949FFFFFF49494949494949494949494949FFFFFF49494949494949494949494949494949
310
FFFFFFFFFFFFFFFFFFFFFFFFFF494949494949494949494949494949494949494949494949494949494949494949494949494949494949494949494949494949494949494949494949494949494949494949494949494949494949494949494949494949494949494949494949494949494949494949494949494949494949
310
4949494949494949494949494949494949494949494949494949494949494949494949494949494949494949494949494949494949494949
102
{BLKREFS
331
FDC
102
}
1001
ACAD
1000
DesignCenter Data
1002
{
1070
     1
1070
     4
1002
}
  0
ENDTAB
  0
ENDSEC
  0
SECTION
  2
BLOCKS
  0
BLOCK
  5
6D
330
6C
100
AcDbEntity
  8
0
100
AcDbBlockBegin
  2
*Model_Space
 70
     0
 10
0.0
 20
0.0
 30
0.0
  3
*Model_Space
  1

  0
ENDBLK
  5
6E
330
6C
100
AcDbEntity
  8
0
100
AcDbBlockEnd
  0
BLOCK
  5
69
330
68
100
AcDbEntity
 67
     1
  8
0
100
AcDbBlockBegin
  2
*Paper_Space
 70
     0
 10
0.0
 20
0.0
 30
0.0
  3
*Paper_Space
  1

  0
ENDBLK
  5
6A
330
68
100
AcDbEntity
 67
     1
  8
0
100
AcDbBlockEnd
  0
BLOCK
  5
71
330
70
100
AcDbEntity
 67
     1
  8
0
100
AcDbBlockBegin
  2
*Paper_Space0
 70
     0
 10
0.0
 20
0.0
 30
0.0
  3
*Paper_Space0
  1

  0
ENDBLK
  5
72
330
70
100
AcDbEntity
 67
     1
  8
0
100
AcDbBlockEnd
  0
BLOCK
  5
6A4
330
6A3
100
AcDbEntity
  8
0
100
AcDbBlockBegin
  2
*D1
 70
     1
 10
0.0
 20
0.0
 30
0.0
  3
*D1
  1

  0
LINE
  5
77B
330
6A3
100
AcDbEntity
  8
Dimension (ISO)
100
AcDbLine
 10
14396.11905762108
 20
2911.060412468254
 30
0.0
 11
14396.11905762108
 21
873.0000967965816
 31
0.0
  0
LINE
  5
77C
330
6A3
100
AcDbEntity
  8
Dimension (ISO)
100
AcDbLine
 10
19316.11905762108
 20
2911.060412468253
 30
0.0
 11
19316.11905762108
 21
873.0000967965816
 31
0.0
  0
LINE
  5
77D
330
6A3
100
AcDbEntity
  8
Dimension (ISO)
100
AcDbLine
 10
14521.11905762108
 20
923.0000967965814
 30
0.0
 11
19191.11905762108
 21
923.0000967965814
 31
0.0
  0
SOLID
  5
77E
330
6A3
100
AcDbEntity
  8
Dimension (ISO)
100
AcDbTrace
 10
14521.11905762108
 20
943.8334301299148
 30
0.0
 11
14521.11905762108
 21
902.166763463248
 31
0.0
 12
14396.11905762108
 22
923.0000967965814
 32
0.0
 13
14396.11905762108
 23
923.0000967965814
 33
0.0
  0
SOLID
  5
77F
330
6A3
100
AcDbEntity
  8
Dimension (ISO)
100
AcDbTrace
 10
19191.11905762108
 20
943.8334301299148
 30
0.0
 11
19191.11905762108
 21
902.166763463248
 31
0.0
 12
19316.11905762108
 22
923.0000967965814
 32
0.0
 13
19316.11905762108
 23
923.0000967965814
 33
0.0
  0
MTEXT
  5
780
330
6A3
100
AcDbEntity
  8
Dimension (ISO)
100
AcDbMText
 10
16856.11905762108
 20
1143.386865262874
 30
0.0
 40
175.0
 41
0.0
 71
     2
 72
     1
  1
\A1;4920
  7
Label Text (ISO)
 73
     1
 44
1.0
1001
ACAD
1000
MTEXTBEGIN
1070
    73
1070
     1
1070
    44
1040
1.0
1070
    74
1070
     0
1000
MTEXTEND
  0
POINT
  5
781
330
6A3
100
AcDbEntity
  8
Defpoints
 62
     0
100
AcDbPoint
 10
14396.11905762108
 20
2936.060412468254
 30
0.0
  0
POINT
  5
782
330
6A3
100
AcDbEntity
  8
Defpoints
 62
     0
100
AcDbPoint
 10
19316.11905762108
 20
2936.060412468253
 30
0.0
  0
POINT
  5
783
330
6A3
100
AcDbEntity
  8
Defpoints
 62
     0
100
AcDbPoint
 10
19316.11905762108
 20
923.0000967965814
 30
0.0
  0
ENDBLK
  5
6A5
330
6A3
100
AcDbEntity
  8
0
100
AcDbBlockEnd
  0
BLOCK
  5
786
330
785
100
AcDbEntity
  8
0
100
AcDbBlockBegin
  2
*D2
 70
     1
 10
0.0
 20
0.0
 30
0.0
  3
*D2
  1

  0
LINE
  5
863
330
785
100
AcDbEntity
  8
Dimension (ISO)
100
AcDbLine
 10
17841.11905762108
 20
1436.060412468253
 30
0.0
 11
19866.11905762108
 21
1436.060412468252
 31
0.0
  0
LINE
  5
864
330
785
100
AcDbEntity
  8
Dimension (ISO)
100
AcDbLine
 10
17841.11905762108
 20
4936.060412468253
 30
0.0
 11
19866.11905762108
 21
4936.060412468252
 31
0.0
  0
LINE
  5
865
330
785
100
AcDbEntity
  8
Dimension (ISO)
100
AcDbLine
 10
19816.11905762108
 20
1561.060412468252
 30
0.0
 11
19816.11905762108
 21
4811.060412468252
 31
0.0
  0
SOLID
  5
866
330
785
100
AcDbEntity
  8
Dimension (ISO)
100
AcDbTrace
 10
19795.28572428774
 20
1561.060412468252
 30
0.0
 11
19836.95239095441
 21
1561.060412468252
 31
0.0
 12
19816.11905762108
 22
1436.060412468252
 32
0.0
 13
19816.11905762108
 23
1436.060412468252
 33
0.0
  0
SOLID
  5
867
330
785
100
AcDbEntity
  8
Dimension (ISO)
100
AcDbTrace
 10
19795.28572428774
 20
4811.060412468252
 30
0.0
 11
19836.95239095441
 21
4811.060412468252
 31
0.0
 12
19816.11905762108
 22
4936.060412468252
 32
0.0
 13
19816.11905762108
 23
4936.060412468252
 33
0.0
  0
MTEXT
  5
868
330
785
100
AcDbEntity
  8
Dimension (ISO)
100
AcDbMText
 10
19595.73228915479
 20
3186.060412468253
 30
0.0
 40
175.0
 41
0.0
 71
     2
 72
     1
  1
\A1;3500
  7
Label Text (ISO)
 11
0.0000000000000001
 21
1.0
 31
0.0
 73
     1
 44
1.0
1001
ACAD
1000
MTEXTBEGIN
1070
    73
1070
     1
1070
    44
1040
1.0
1070
    74
1070
     0
1000
MTEXTEND
  0
POINT
  5
869
330
785
100
AcDbEntity
  8
Defpoints
 62
     0
100
AcDbPoint
 10
17816.11905762108
 20
1436.060412468253
 30
0.0
  0
POINT
  5
86A
330
785
100
AcDbEntity
  8
Defpoints
 62
     0
100
AcDbPoint
 10
17816.11905762108
 20
4936.060412468253
 30
0.0
  0
POINT
  5
86B
330
785
100
AcDbEntity
  8
Defpoints
 62
     0
100
AcDbPoint
 10
19816.11905762108
 20
4936.060412468252
 30
0.0
  0
ENDBLK
  5
787
330
785
100
AcDbEntity
  8
0
100
AcDbBlockEnd
  0
BLOCK
  5
86E
330
86D
100
AcDbEntity
  8
0
100
AcDbBlockBegin
  2
*D3
 70
     1
 10
0.0
 20
0.0
 30
0.0
  3
*D3
  1

  0
LINE
  5
965
330
86D
100
AcDbEntity
  8
Dimension (ISO)
100
AcDbLine
 10
15667.77618281828
 20
5637.062127598627
 30
0.0
 11
15319.8369715373
 21
5637.062127598627
 31
0.0
  0
LINE
  5
966
330
86D
100
AcDbEntity
  8
Dimension (ISO)
100
AcDbLine
 10
15369.8369715373
 20
5512.062127598627
 30
0.0
 11
15369.8369715373
 21
5387.062127598627
 31
0.0
  0
LINE
  5
967
330
86D
100
AcDbEntity
  8
Dimension (ISO)
100
AcDbLine
 10
15369.8369715373
 20
6112.06212751193
 30
0.0
 11
15369.8369715373
 21
6686.297719460359
 31
0.0
  0
LINE
  5
968
330
86D
100
AcDbEntity
  8
Dimension (ISO)
100
AcDbLine
 10
15369.8369715373
 20
5637.062127598627
 30
0.0
 11
15369.8369715373
 21
5987.06212751193
 31
0.0
  0
SOLID
  5
969
330
86D
100
AcDbEntity
  8
Dimension (ISO)
100
AcDbTrace
 10
15349.00363820397
 20
5512.062127598627
 30
0.0
 11
15390.67030487063
 21
5512.062127598627
 31
0.0
 12
15369.8369715373
 22
5637.062127598627
 32
0.0
 13
15369.8369715373
 23
5637.062127598627
 33
0.0
  0
SOLID
  5
96A
330
86D
100
AcDbEntity
  8
Dimension (ISO)
100
AcDbTrace
 10
15349.00363820397
 20
6112.06212751193
 30
0.0
 11
15390.67030487063
 21
6112.06212751193
 31
0.0
 12
15369.8369715373
 22
5987.06212751193
 32
0.0
 13
15369.8369715373
 23
5987.06212751193
 33
0.0
  0
MTEXT
  5
96B
330
86D
100
AcDbEntity
  8
Dimension (ISO)
100
AcDbMText
 10
15149.450203071
 20
6461.679923486148
 30
0.0
 40
175.0
 41
0.0
 71
     2
 72
     1
  1
\A1;350
  7
Label Text (ISO)
 11
0.0000000000000001
 21
1.0
 31
0.0
 73
     1
 44
1.0
1001
ACAD
1000
MTEXTBEGIN
1070
    73
1070
     1
1070
    44
1040
1.0
1070
    74
1070
     0
1000
MTEXTEND
  0
POINT
  5
96C
330
86D
100
AcDbEntity
  8
Defpoints
 62
     0
100
AcDbPoint
 10
15146.11905762226
 20
5987.06212751193
 30
0.0
  0
POINT
  5
96D
330
86D
100
AcDbEntity
  8
Defpoints
 62
     0
100
AcDbPoint
 10
15692.77618281827
 20
5637.062127598627
 30
0.0
  0
POINT
  5
96E
330
86D
100
AcDbEntity
  8
Defpoints
 62
     0
100
AcDbPoint
 10
15369.8369715373
 20
5637.062127598627
 30
0.0
  0
ENDBLK
  5
86F
330
86D
100
AcDbEntity
  8
0
100
AcDbBlockEnd
  0
BLOCK
  5
971
330
970
100
AcDbEntity
  8
0
100
AcDbBlockBegin
  2
*D4
 70
     1
 10
0.0
 20
0.0
 30
0.0
  3
*D4
  1

  0
LINE
  5
A4E
330
970
100
AcDbEntity
  8
Dimension (ISO)
100
AcDbLine
 10
15921.11905762226
 20
5987.062127548639
 30
0.0
 11
18716.17759916143
 21
5987.062127548639
 31
0.0
  0
LINE
  5
A4F
330
970
100
AcDbEntity
  8
Dimension (ISO)
100
AcDbLine
 10
16881.11905756056
 20
8372.56594494149
 30
0.0
 11
18716.17759916143
 21
8372.56594494149
 31
0.0
  0
LINE
  5
A50
330
970
100
AcDbEntity
  8
Dimension (ISO)
100
AcDbLine
 10
18666.17759916143
 20
6112.062127548639
 30
0.0
 11
18666.17759916143
 21
8247.56594494149
 31
0.0
  0
SOLID
  5
A51
330
970
100
AcDbEntity
  8
Dimension (ISO)
100
AcDbTrace
 10
18645.3442658281
 20
6112.062127548639
 30
0.0
 11
18687.01093249476
 21
6112.062127548639
 31
0.0
 12
18666.17759916143
 22
5987.062127548639
 32
0.0
 13
18666.17759916143
 23
5987.062127548639
 33
0.0
  0
SOLID
  5
A52
330
970
100
AcDbEntity
  8
Dimension (ISO)
100
AcDbTrace
 10
18645.3442658281
 20
8247.56594494149
 30
0.0
 11
18687.01093249477
 21
8247.56594494149
 31
0.0
 12
18666.17759916143
 22
8372.56594494149
 32
0.0
 13
18666.17759916143
 23
8372.56594494149
 33
0.0
  0
MTEXT
  5
A53
330
970
100
AcDbEntity
  8
Dimension (ISO)
100
AcDbMText
 10
18445.08565944382
 20
7179.814036245066
 30
0.0
 40
175.0
 41
0.0
 71
     2
 72
     1
  1
\A1;2386
  7
Label Text (ISO)
 11
0.0000000000000001
 21
1.0
 31
0.0
 73
     1
 44
1.0
1001
ACAD
1000
MTEXTBEGIN
1070
    73
1070
     1
1070
    44
1040
1.0
1070
    74
1070
     0
1000
MTEXTEND
  0
POINT
  5
A54
330
970
100
AcDbEntity
  8
Defpoints
 62
     0
100
AcDbPoint
 10
15896.11905762225
 20
5987.062127548639
 30
0.0
  0
POINT
  5
A55
330
970
100
AcDbEntity
  8
Defpoints
 62
     0
100
AcDbPoint
 10
16856.11905756056
 20
8372.56594494149
 30
0.0
  0
POINT
  5
A56
330
970
100
AcDbEntity
  8
Defpoints
 62
     0
100
AcDbPoint
 10
18666.17759916143
 20
8372.56594494149
 30
0.0
  0
ENDBLK
  5
972
330
970
100
AcDbEntity
  8
0
100
AcDbBlockEnd
  0
BLOCK
  5
A59
330
A58
100
AcDbEntity
  8
0
100
AcDbBlockBegin
  2
*D5
 70
     1
 10
0.0
 20
0.0
 30
0.0
  3
*D5
  1

  0
LINE
  5
B30
330
A58
100
AcDbEntity
  8
Dimension (ISO)
100
AcDbLine
 10
15596.28777175922
 20
2914.560412468562
 30
0.0
 11
15596.28777175922
 21
2267.797561198177
 31
0.0
  0
LINE
  5
B31
330
A58
100
AcDbEntity
  8
Dimension (ISO)
100
AcDbLine
 10
18115.95034335954
 20
2914.560412468568
 30
0.0
 11
18115.95034335954
 21
2267.797561198177
 31
0.0
  0
LINE
  5
B32
330
A58
100
AcDbEntity
  8
Dimension (ISO)
100
AcDbLine
 10
15721.28777175922
 20
2317.797561198178
 30
0.0
 11
17990.95034335954
 21
2317.797561198178
 31
0.0
  0
SOLID
  5
B33
330
A58
100
AcDbEntity
  8
Dimension (ISO)
100
AcDbTrace
 10
15721.28777175922
 20
2338.630894531511
 30
0.0
 11
15721.28777175922
 21
2296.964227864844
 31
0.0
 12
15596.28777175922
 22
2317.797561198178
 32
0.0
 13
15596.28777175922
 23
2317.797561198178
 33
0.0
  0
SOLID
  5
B34
330
A58
100
AcDbEntity
  8
Dimension (ISO)
100
AcDbTrace
 10
17990.95034335954
 20
2338.630894531511
 30
0.0
 11
17990.95034335954
 21
2296.964227864844
 31
0.0
 12
18115.95034335954
 22
2317.797561198178
 32
0.0
 13
18115.95034335954
 23
2317.797561198178
 33
0.0
  0
MTEXT
  5
B35
330
A58
100
AcDbEntity
  8
Dimension (ISO)
100
AcDbMText
 10
16856.11905755938
 20
2538.18432966447
 30
0.0
 40
175.0
 41
0.0
 71
     2
 72
     1
  1
\A1;2520
  7
Label Text (ISO)
 73
     1
 44
1.0
1001
ACAD
1000
MTEXTBEGIN
1070
    73
1070
     1
1070
    44
1040
1.0
1070
    74
1070
     0
1000
MTEXTEND
  0
POINT
  5
B36
330
A58
100
AcDbEntity
  8
Defpoints
 62
     0
100
AcDbPoint
 10
15596.28777175922
 20
2939.560412468562
 30
0.0
  0
POINT
  5
B37
330
A58
100
AcDbEntity
  8
Defpoints
 62
     0
100
AcDbPoint
 10
18115.95034335954
 20
2939.560412468568
 30
0.0
  0
POINT
  5
B38
330
A58
100
AcDbEntity
  8
Defpoints
 62
     0
100
AcDbPoint
 10
18115.95034335954
 20
2317.797561198178
 30
0.0
  0
ENDBLK
  5
A5A
330
A58
100
AcDbEntity
  8
0
100
AcDbBlockEnd
  0
BLOCK
  5
B3B
330
B3A
100
AcDbEntity
  8
0
100
AcDbBlockBegin
  2
*D6
 70
     1
 10
0.0
 20
0.0
 30
0.0
  3
*D6
  1

  0
LINE
  5
C18
330
B3A
100
AcDbEntity
  8
Dimension (ISO)
100
AcDbLine
 10
17880.96592083395
 20
2916.060412468778
 30
0.0
 11
18596.0930601376
 21
2916.060412468778
 31
0.0
  0
LINE
  5
C19
330
B3A
100
AcDbEntity
  8
Dimension (ISO)
100
AcDbLine
 10
17881.11905755938
 20
3456.060412468735
 30
0.0
 11
18596.0930601376
 21
3456.060412468735
 31
0.0
  0
LINE
  5
C1A
330
B3A
100
AcDbEntity
  8
Dimension (ISO)
100
AcDbLine
 10
18546.0930601376
 20
3041.060412468778
 30
0.0
 11
18546.0930601376
 21
3331.060412468735
 31
0.0
  0
SOLID
  5
C1B
330
B3A
100
AcDbEntity
  8
Dimension (ISO)
100
AcDbTrace
 10
18525.25972680426
 20
3041.060412468778
 30
0.0
 11
18566.92639347093
 21
3041.060412468778
 31
0.0
 12
18546.0930601376
 22
2916.060412468778
 32
0.0
 13
18546.0930601376
 23
2916.060412468778
 33
0.0
  0
SOLID
  5
C1C
330
B3A
100
AcDbEntity
  8
Dimension (ISO)
100
AcDbTrace
 10
18525.25972680426
 20
3331.060412468735
 30
0.0
 11
18566.92639347093
 21
3331.060412468735
 31
0.0
 12
18546.0930601376
 22
3456.060412468735
 32
0.0
 13
18546.0930601376
 23
3456.060412468735
 33
0.0
  0
MTEXT
  5
C1D
330
B3A
100
AcDbEntity
  8
Dimension (ISO)
100
AcDbMText
 10
18325.82382021319
 20
3186.060412468756
 30
0.0
 40
175.0
 41
0.0
 71
     2
 72
     1
  1
\A1;540
  7
Label Text (ISO)
 11
0.0000000000000001
 21
1.0
 31
0.0
 73
     1
 44
1.0
1001
ACAD
1000
MTEXTBEGIN
1070
    73
1070
     1
1070
    44
1040
1.0
1070
    74
1070
     0
1000
MTEXTEND
  0
POINT
  5
C1E
330
B3A
100
AcDbEntity
  8
Defpoints
 62
     0
100
AcDbPoint
 10
17855.96592083395
 20
2916.060412468778
 30
0.0
  0
POINT
  5
C1F
330
B3A
100
AcDbEntity
  8
Defpoints
 62
     0
100
AcDbPoint
 10
17856.11905755938
 20
3456.060412468735
 30
0.0
  0
POINT
  5
C20
330
B3A
100
AcDbEntity
  8
Defpoints
 62
     0
100
AcDbPoint
 10
18546.0930601376
 20
3456.060412468735
 30
0.0
  0
ENDBLK
  5
B3C
330
B3A
100
AcDbEntity
  8
0
100
AcDbBlockEnd
  0
BLOCK
  5
C22
330
C21
100
AcDbEntity
  8
0
100
AcDbBlockBegin
  2
Tabelki rysunkowe Rzut
 70
     2
 10
0.0
 20
0.0
 30
0.0
  3
Tabelki rysunkowe Rzut
  1

  0
TEXT
  5
C24
330
C21
100
AcDbEntity
  8
Title (ISO)
100
AcDbText
 10
166.7768162971836
 20
11.24130542460445
 30
0.0
 40
2.5
  1
Obowiązuje od:
  7
Note Text (ISO)
 11
166.7768162971836
 21
13.74130542460445
 31
0.0
100
AcDbText
 73
     3
  0
TEXT
  5
C26
330
C21
100
AcDbEntity
  8
Title (ISO)
100
AcDbText
 10
166.7768162971836
 20
18.24130542460446
 30
0.0
 40
2.5
  1
Nr kat.:
  7
Note Text (ISO)
 11
166.7768162971836
 21
20.74130542460446
 31
0.0
100
AcDbText
 73
     3
  0
TEXT
  5
C27
330
C21
100
AcDbEntity
  8
Title (ISO)
100
AcDbText
 10
166.7768162971836
 20
14.74130542460445
 30
0.0
 40
2.5
  1
Nazwa:
  7
Note Text (ISO)
 11
166.7768162971836
 21
17.24130542460445
 31
0.0
100
AcDbText
 73
     3
  0
ATTDEF
  5
C28
102
{ACAD_XDICTIONARY
360
C33
102
}
330
C21
100
AcDbEntity
  8
Title (ISO)
100
AcDbText
 10
178.0179177099777
 20
18.14056669024304
 30
0.0
 40
2.5
  1
14070
  7
Note Text (ISO)
100
AcDbAttributeDefinition
  3
Numer katalogowy
  2
Numer_katalogowy_001
 70
     0
  0
ATTDEF
  5
C2A
102
{ACAD_XDICTIONARY
360
C36
102
}
330
C21
100
AcDbEntity
  8
Title (ISO)
100
AcDbText
 10
190.4107988369824
 20
11.13720873189255
 30
0.0
 40
2.5
  1
2019-02-01
  7
Note Text (ISO)
100
AcDbAttributeDefinition
  3
DATA UTWORZENIA
  2
DATA_UTWORZENIA_001
 70
     0
  0
ATTDEF
  5
C2B
102
{ACAD_XDICTIONARY
360
C39
102
}
330
C21
100
AcDbEntity
  8
Title (ISO)
100
AcDbText
 10
178.2697645862628
 20
14.5163222312757
 30
0.0
 40
2.5
  1
Bieznia kolowa
  7
Note Text (ISO)
100
AcDbAttributeDefinition
  3
Nazwa
  2
Nazwa_001
 70
     0
  0
ENDBLK
  5
C23
330
C21
100
AcDbEntity
  8
0
100
AcDbBlockEnd
  0
BLOCK
  5
D1B
330
D19
100
AcDbEntity
  8
0
100
AcDbBlockBegin
  2
GENAXEH
 70
     0
 10
0.0
 20
0.0
 30
0.0
  3
GENAXEH
  1

  0
LINE
  5
D1A
330
D19
100
AcDbEntity
  8
0
100
AcDbLine
 10
-1.0
 20
0.0
 30
0.0
 11
1.0
 21
0.0
 31
0.0
  0
ENDBLK
  5
D1C
330
D19
100
AcDbEntity
  8
0
100
AcDbBlockEnd
  0
BLOCK
  5
D33
330
D32
100
AcDbEntity
  8
0
100
AcDbBlockBegin
  2
14070_Bieznia-kolowa-chomik
 70
     0
 10
0.0
 20
0.0
 30
0.0
  3
14070_Bieznia-kolowa-chomik
  1

  0
LINE
  5
D35
330
D32
100
AcDbEntity
  8
Visible (ISO)
100
AcDbLine
 10
-1000.0
 20
269.9999999996967
 30
0.0
 11
-698.2127015463466
 21
269.9999999999091
 31
0.0
  0
LINE
  5
D36
330
D32
100
AcDbEntity
  8
Visible (ISO)
100
AcDbLine
 10
-698.2127015463502
 20
-270.000000000091
 30
0.0
 11
-1000.0
 21
-270.0000000003033
 31
0.0
  0
LINE
  5
D37
330
D32
100
AcDbEntity
  8
Visible (ISO)
100
AcDbLine
 10
-1000.0
 20
269.9999999996967
 30
0.0
 11
-1000.0
 21
252.0182205985748
 31
0.0
  0
LINE
  5
D38
330
D32
100
AcDbEntity
  8
Visible (ISO)
100
AcDbLine
 10
-1000.0
 20
-253.4117795756561
 30
0.0
 11
-1000.0
 21
-270.0000000003033
 31
0.0
  0
LINE
  5
D39
330
D32
100
AcDbEntity
  8
Visible (ISO)
100
AcDbLine
 10
-698.2127015463502
 20
-270.000000000091
 30
0.0
 11
-698.2127015463502
 21
-254.0000000000909
 31
0.0
  0
LINE
  5
D3A
330
D32
100
AcDbEntity
  8
Visible (ISO)
100
AcDbLine
 10
-698.2127015463502
 20
253.999999999909
 30
0.0
 11
-698.2127015463502
 21
269.9999999999091
 31
0.0
  0
LINE
  5
D3B
330
D32
100
AcDbEntity
  8
Visible (ISO)
100
AcDbLine
 10
-17.5
 20
-270.0000000000064
 30
0.0
 11
-17.5
 21
-253.9580398915564
 31
0.0
  0
LINE
  5
D3C
330
D32
100
AcDbEntity
  8
Visible (ISO)
100
AcDbLine
 10
-17.5
 20
-208.0000000000082
 30
0.0
 11
-17.5
 21
-207.5000000000064
 31
0.0
  0
LINE
  5
D3D
330
D32
100
AcDbEntity
  8
Visible (ISO)
100
AcDbLine
 10
-17.5
 20
207.4999999999936
 30
0.0
 11
-17.5
 21
207.9999999999945
 31
0.0
  0
LINE
  5
D3E
330
D32
100
AcDbEntity
  8
Visible (ISO)
100
AcDbLine
 10
-17.5
 20
253.9580398915432
 30
0.0
 11
-17.5
 21
269.9999999999936
 31
0.0
  0
LINE
  5
D3F
330
D32
100
AcDbEntity
  8
Visible (ISO)
100
AcDbLine
 10
-17.50000000000364
 20
-270.0000000000059
 30
0.0
 11
-694.6241284987843
 21
-270.0000000000896
 31
0.0
  0
LINE
  5
D40
330
D32
100
AcDbEntity
  8
Visible (ISO)
100
AcDbLine
 10
-694.6241284987808
 20
269.9999999999104
 30
0.0
 11
-17.5
 21
269.9999999999936
 31
0.0
  0
LINE
  5
D41
330
D32
100
AcDbEntity
  8
Visible (ISO)
100
AcDbLine
 10
-694.6241284987843
 20
269.9999999999104
 30
0.0
 11
-694.6241284987843
 21
253.3075640497786
 31
0.0
  0
LINE
  5
D42
330
D32
100
AcDbEntity
  8
Visible (ISO)
100
AcDbLine
 10
-694.6241284987843
 20
207.9999999999113
 30
0.0
 11
-694.6241284987843
 21
207.4999999999104
 31
0.0
  0
LINE
  5
D43
330
D32
100
AcDbEntity
  8
Visible (ISO)
100
AcDbLine
 10
-694.6241284987843
 20
-207.5000000000896
 30
0.0
 11
-694.6241284987843
 21
-208.000000000091
 31
0.0
  0
LINE
  5
D44
330
D32
100
AcDbEntity
  8
Visible (ISO)
100
AcDbLine
 10
-694.6241284987843
 20
-253.3075640499583
 30
0.0
 11
-694.6241284987843
 21
-270.0000000000896
 31
0.0
  0
LINE
  5
D45
330
D32
100
AcDbEntity
  8
Visible (ISO)
100
AcDbLine
 10
-12.5
 20
269.9999999999936
 30
0.0
 11
-12.5
 21
253.9999999999936
 31
0.0
  0
LINE
  5
D46
330
D32
100
AcDbEntity
  8
Visible (ISO)
100
AcDbLine
 10
-12.5
 20
-254.0000000000068
 30
0.0
 11
-12.5
 21
-270.0000000000064
 31
0.0
  0
LINE
  5
D47
330
D32
100
AcDbEntity
  8
Visible (ISO)
100
AcDbLine
 10
999.846863274568
 20
-270.0000000002983
 30
0.0
 11
-12.5
 21
-270.0000000000064
 31
0.0
  0
LINE
  5
D48
330
D32
100
AcDbEntity
  8
Visible (ISO)
100
AcDbLine
 10
-12.50000000000364
 20
269.9999999999936
 30
0.0
 11
999.846863274568
 21
269.9999999997022
 31
0.0
  0
LINE
  5
D49
330
D32
100
AcDbEntity
  8
Visible (ISO)
100
AcDbLine
 10
1000.0
 20
-270.0000000003033
 30
0.0
 11
999.8874936711617
 21
-270.0000000002988
 31
0.0
  0
LINE
  5
D4A
330
D32
100
AcDbEntity
  8
Visible (ISO)
100
AcDbLine
 10
999.8874936711617
 20
269.9999999997012
 30
0.0
 11
1000.0
 21
269.9999999996967
 31
0.0
  0
LINE
  5
D4B
330
D32
100
AcDbEntity
  8
Visible (ISO)
100
AcDbLine
 10
1000.0
 20
269.9999999996967
 30
0.0
 11
1000.0
 21
252.0181299391638
 31
0.0
  0
LINE
  5
D4C
330
D32
100
AcDbEntity
  8
Visible (ISO)
100
AcDbLine
 10
1000.0
 20
-253.4117795756561
 30
0.0
 11
1000.0
 21
-270.0000000003033
 31
0.0
  0
LINE
  5
D4D
330
D32
100
AcDbEntity
  8
Visible (ISO)
100
AcDbLine
 10
999.846863274568
 20
-270.0000000002979
 30
0.0
 11
999.846863274568
 21
-253.367778872589
 31
0.0
  0
LINE
  5
D4E
330
D32
100
AcDbEntity
  8
Visible (ISO)
100
AcDbLine
 10
999.846863274568
 20
251.4002624813165
 30
0.0
 11
999.846863274568
 21
269.9999999997022
 31
0.0
  0
LINE
  5
D4F
330
D32
100
AcDbEntity
  8
Visible (ISO)
100
AcDbLine
 10
999.8874936711617
 20
269.9999999997012
 30
0.0
 11
999.8874936711617
 21
251.6297191544481
 31
0.0
  0
LINE
  5
D50
330
D32
100
AcDbEntity
  8
Visible (ISO)
100
AcDbLine
 10
999.8874936711617
 20
-253.3796576789479
 30
0.0
 11
999.8874936711617
 21
-270.0000000002988
 31
0.0
  0
ELLIPSE
  5
D51
330
D32
100
AcDbEntity
  8
Visible (ISO)
100
AcDbEllipse
 10
-940.5093640964876
 20
-150.0000000001878
 30
0.0
 11
-0.0000000000003196
 21
-2.600000000000015
 31
0.0
210
0.0
220
0.0
230
1.0
 40
0.3826834323650896
 41
4.332063011841776
 42
5.092714948928088
  0
ELLIPSE
  5
D52
330
D32
100
AcDbEntity
  8
Visible (ISO)
100
AcDbEllipse
 10
-940.5093640964876
 20
149.9999999998122
 30
0.0
 11
-0.0000000000003196
 21
-2.59999999999999
 31
0.0
210
0.0
220
0.0
230
1.0
 40
0.3826834323650896
 41
4.332063011842093
 42
5.092714948928088
  0
ELLIPSE
  5
D53
330
D32
100
AcDbEntity
  8
Visible (ISO)
100
AcDbEllipse
 10
-942.3571231615117
 20
-150.0000000001878
 30
0.0
 11
-0.0000000000000001
 21
2.6
 31
0.0
210
0.0
220
0.0
230
1.0
 40
0.3826834323650896
 41
0.0
 42
6.283185307179584
  0
ELLIPSE
  5
D54
330
D32
100
AcDbEntity
  8
Visible (ISO)
100
AcDbEllipse
 10
-942.3571231615117
 20
149.9999999998126
 30
0.0
 11
-0.0000000000000001
 21
2.6
 31
0.0
210
0.0
220
0.0
230
1.0
 40
0.3826834323650896
 41
0.0
 42
6.283185307179584
  0
LINE
  5
D55
330
D32
100
AcDbEntity
  8
Visible (ISO)
100
AcDbLine
 10
-919.0589699204393
 20
207.9999999998153
 30
0.0
 11
-919.0589699204393
 21
207.499999999814
 31
0.0
  0
LINE
  5
D56
330
D32
100
AcDbEntity
  8
Visible (ISO)
100
AcDbLine
 10
-947.1776857523583
 20
207.9999999998099
 30
0.0
 11
-947.1776857523583
 21
207.4999999998095
 31
0.0
  0
LINE
  5
D57
330
D32
100
AcDbEntity
  8
Visible (ISO)
100
AcDbLine
 10
-947.1776857523583
 20
-207.500000000191
 30
0.0
 11
-947.1776857523583
 21
-208.0000000001923
 31
0.0
  0
ELLIPSE
  5
D58
330
D32
100
AcDbEntity
  8
Visible (ISO)
100
AcDbEllipse
 10
-719.8347032479013
 20
-150.00000000009
 30
0.0
 11
-0.0000000000005817
 21
-2.599999999999985
 31
0.0
210
0.0
220
0.0
230
1.0
 40
0.7071067811865474
 41
3.536383773288898
 42
5.888394187478906
  0
ELLIPSE
  5
D59
330
D32
100
AcDbEntity
  8
Visible (ISO)
100
AcDbEllipse
 10
-719.8347032479013
 20
149.9999999999104
 30
0.0
 11
-0.0000000000005817
 21
-2.600000000000011
 31
0.0
210
0.0
220
0.0
230
1.0
 40
0.7071067811865471
 41
3.536383773288898
 42
5.888394187478906
  0
ELLIPSE
  5
D5A
330
D32
100
AcDbEntity
  8
Visible (ISO)
100
AcDbEllipse
 10
-721.2489168102749
 20
-150.0000000000891
 30
0.0
 11
-0.0000000000000001
 21
2.6
 31
0.0
210
0.0
220
0.0
230
1.0
 40
0.7071067811865472
 41
0.0
 42
6.283185307179584
  0
ELLIPSE
  5
D5B
330
D32
100
AcDbEntity
  8
Visible (ISO)
100
AcDbEllipse
 10
-721.2489168102749
 20
149.9999999999108
 30
0.0
 11
-0.0000000000000001
 21
2.6
 31
0.0
210
0.0
220
0.0
230
1.0
 40
0.7071067811865472
 41
0.0
 42
6.283185307179584
  0
LINE
  5
D5C
330
D32
100
AcDbEntity
  8
Visible (ISO)
100
AcDbLine
 10
-697.7428201558669
 20
207.9999999999109
 30
0.0
 11
-697.7428201558669
 21
207.49999999991
 31
0.0
  0
LINE
  5
D5D
330
D32
100
AcDbEntity
  8
Visible (ISO)
100
AcDbLine
 10
-697.7428201558669
 20
-207.50000000009
 30
0.0
 11
-697.7428201558669
 21
-208.0000000000914
 31
0.0
  0
LINE
  5
D5E
330
D32
100
AcDbEntity
  8
Visible (ISO)
100
AcDbLine
 10
-730.6128778409547
 20
207.9999999999091
 30
0.0
 11
-730.6128778409547
 21
207.4999999999077
 31
0.0
  0
LINE
  5
D5F
330
D32
100
AcDbEntity
  8
Visible (ISO)
100
AcDbLine
 10
-730.6128778409547
 20
-207.5000000000923
 30
0.0
 11
-730.6128778409547
 21
-208.0000000000937
 31
0.0
  0
ELLIPSE
  5
D60
330
D32
100
AcDbEntity
  8
Visible (ISO)
100
AcDbEllipse
 10
-389.5717341476593
 20
-150.0000000000241
 30
0.0
 11
0.0000000000018617
 21
2.599999999999992
 31
0.0
210
0.0
220
0.0
230
1.0
 40
0.9238795325112864
 41
0.1599946334491325
 42
2.981598020142232
  0
ELLIPSE
  5
D61
330
D32
100
AcDbEntity
  8
Visible (ISO)
100
AcDbEllipse
 10
-389.5717341476593
 20
149.9999999999754
 30
0.0
 11
0.0000000000018613
 21
2.599999999999989
 31
0.0
210
0.0
220
0.0
230
0.9999999999999998
 40
0.9238795325112862
 41
0.1599946334491324
 42
2.981598020142231
  0
ELLIPSE
  5
D62
330
D32
100
AcDbEntity
  8
Visible (ISO)
100
AcDbEllipse
 10
-390.3371010123883
 20
-150.0000000000236
 30
0.0
 11
-0.0000000000000001
 21
2.6
 31
0.0
210
0.0
220
0.0
230
1.0
 40
0.9238795325112864
 41
0.0
 42
6.283185307179584
  0
ELLIPSE
  5
D63
330
D32
100
AcDbEntity
  8
Visible (ISO)
100
AcDbEllipse
 10
-390.3371010123883
 20
149.9999999999759
 30
0.0
 11
-0.0000000000000001
 21
2.6
 31
0.0
210
0.0
220
0.0
230
1.0
 40
0.9238795325112864
 41
0.0
 42
6.283185307179584
  0
LINE
  5
D64
330
D32
100
AcDbEntity
  8
Visible (ISO)
100
AcDbLine
 10
-369.7449282720481
 20
207.9999999999741
 30
0.0
 11
-369.7449282720481
 21
207.4999999999732
 31
0.0
  0
LINE
  5
D65
330
D32
100
AcDbEntity
  8
Visible (ISO)
100
AcDbLine
 10
-369.7449282720481
 20
-207.5000000000268
 30
0.0
 11
-369.7449282720481
 21
-208.0000000000282
 31
0.0
  0
LINE
  5
D66
330
D32
100
AcDbEntity
  8
Visible (ISO)
100
AcDbLine
 10
-403.2756051054274
 20
207.999999999975
 30
0.0
 11
-403.2756051054274
 21
207.4999999999745
 31
0.0
  0
LINE
  5
D67
330
D32
100
AcDbEntity
  8
Visible (ISO)
100
AcDbLine
 10
-403.2756051054274
 20
-207.5000000000259
 30
0.0
 11
-403.2756051054274
 21
-208.0000000000273
 31
0.0
  0
CIRCLE
  5
D68
330
D32
100
AcDbEntity
  8
Visible (ISO)
100
AcDbCircle
 10
0.0
 20
-150.0000000000009
 30
0.0
 40
2.6
  0
CIRCLE
  5
D69
330
D32
100
AcDbEntity
  8
Visible (ISO)
100
AcDbCircle
 10
0.0
 20
149.9999999999991
 30
0.0
 40
2.6
  0
LINE
  5
D6A
330
D32
100
AcDbEntity
  8
Visible (ISO)
100
AcDbLine
 10
15.0
 20
-208.0000000000032
 30
0.0
 11
15.0
 21
-207.5000000000018
 31
0.0
  0
LINE
  5
D6B
330
D32
100
AcDbEntity
  8
Visible (ISO)
100
AcDbLine
 10
15.0
 20
207.4999999999986
 30
0.0
 11
15.0
 21
207.9999999999996
 31
0.0
  0
LINE
  5
D6C
330
D32
100
AcDbEntity
  8
Visible (ISO)
100
AcDbLine
 10
-15.0
 20
207.9999999999996
 30
0.0
 11
-15.0
 21
207.4999999999986
 31
0.0
  0
LINE
  5
D6D
330
D32
100
AcDbEntity
  8
Visible (ISO)
100
AcDbLine
 10
-15.0
 20
-207.5000000000018
 30
0.0
 11
-15.0
 21
-208.0000000000027
 31
0.0
  0
ELLIPSE
  5
D6E
330
D32
100
AcDbEntity
  8
Visible (ISO)
100
AcDbEllipse
 10
389.5717341476629
 20
-150.0000000000241
 30
0.0
 11
0.0000000000018628
 21
-2.600000000000008
 31
0.0
210
0.0
220
0.0
230
1.0
 40
0.9238795325112862
 41
0.1599946334475878
 42
2.981598020142173
  0
ELLIPSE
  5
D6F
330
D32
100
AcDbEntity
  8
Visible (ISO)
100
AcDbEllipse
 10
389.5717341476629
 20
149.9999999999754
 30
0.0
 11
0.0000000000018628
 21
-2.59999999999999
 31
0.0
210
0.0
220
0.0
230
1.0
 40
0.9238795325112862
 41
0.1599946334475878
 42
2.981598020142173
  0
ELLIPSE
  5
D70
330
D32
100
AcDbEntity
  8
Visible (ISO)
100
AcDbEllipse
 10
390.3371010123919
 20
-150.0000000000236
 30
0.0
 11
-0.0000000000000001
 21
2.6
 31
0.0
210
0.0
220
0.0
230
1.0
 40
0.9238795325112864
 41
0.0
 42
6.283185307179584
  0
ELLIPSE
  5
D71
330
D32
100
AcDbEntity
  8
Visible (ISO)
100
AcDbEllipse
 10
390.3371010123919
 20
149.9999999999759
 30
0.0
 11
-0.0000000000000001
 21
2.6
 31
0.0
210
0.0
220
0.0
230
1.0
 40
0.9238795325112864
 41
0.0
 42
6.283185307179584
  0
LINE
  5
D72
330
D32
100
AcDbEntity
  8
Visible (ISO)
100
AcDbLine
 10
403.2756051054311
 20
207.9999999999754
 30
0.0
 11
403.2756051054311
 21
207.4999999999741
 31
0.0
  0
LINE
  5
D73
330
D32
100
AcDbEntity
  8
Visible (ISO)
100
AcDbLine
 10
403.2756051054311
 20
-207.5000000000259
 30
0.0
 11
403.2756051054311
 21
-208.0000000000273
 31
0.0
  0
LINE
  5
D74
330
D32
100
AcDbEntity
  8
Visible (ISO)
100
AcDbLine
 10
369.7449282720518
 20
-208.0000000000286
 30
0.0
 11
369.7449282720518
 21
-207.5000000000268
 31
0.0
  0
LINE
  5
D75
330
D32
100
AcDbEntity
  8
Visible (ISO)
100
AcDbLine
 10
369.7449282720518
 20
207.4999999999732
 30
0.0
 11
369.7449282720518
 21
207.9999999999741
 31
0.0
  0
ELLIPSE
  5
D76
330
D32
100
AcDbEntity
  8
Visible (ISO)
100
AcDbEllipse
 10
719.8347032479032
 20
-150.00000000009
 30
0.0
 11
-0.0000000000009611
 21
2.600000000000009
 31
0.0
210
0.0
220
0.0
230
1.0
 40
0.7071067811865472
 41
3.536383773288056
 42
5.888394187478065
  0
ELLIPSE
  5
D77
330
D32
100
AcDbEntity
  8
Visible (ISO)
100
AcDbEllipse
 10
719.8347032479032
 20
149.9999999999104
 30
0.0
 11
-0.0000000000009608
 21
2.6
 31
0.0
210
0.0
220
0.0
230
1.0
 40
0.7071067811865472
 41
3.536383773288056
 42
5.888394187478129
  0
ELLIPSE
  5
D78
330
D32
100
AcDbEntity
  8
Visible (ISO)
100
AcDbEllipse
 10
721.2489168102766
 20
-150.0000000000891
 30
0.0
 11
-0.0000000000000001
 21
2.6
 31
0.0
210
0.0
220
0.0
230
1.0
 40
0.7071067811865472
 41
0.0
 42
6.283185307179584
  0
ELLIPSE
  5
D79
330
D32
100
AcDbEntity
  8
Visible (ISO)
100
AcDbEllipse
 10
721.2489168102766
 20
149.9999999999108
 30
0.0
 11
-0.0000000000000001
 21
2.6
 31
0.0
210
0.0
220
0.0
230
1.0
 40
0.7071067811865472
 41
0.0
 42
6.283185307179584
  0
LINE
  5
D7A
330
D32
100
AcDbEntity
  8
Visible (ISO)
100
AcDbLine
 10
730.6128778409584
 20
207.9999999999091
 30
0.0
 11
730.6128778409584
 21
207.4999999999077
 31
0.0
  0
LINE
  5
D7B
330
D32
100
AcDbEntity
  8
Visible (ISO)
100
AcDbLine
 10
730.6128778409584
 20
-207.5000000000923
 30
0.0
 11
730.6128778409584
 21
-208.0000000000937
 31
0.0
  0
LINE
  5
D7C
330
D32
100
AcDbEntity
  8
Visible (ISO)
100
AcDbLine
 10
697.7428201558686
 20
-208.0000000000914
 30
0.0
 11
697.7428201558686
 21
-207.5000000000905
 31
0.0
  0
LINE
  5
D7D
330
D32
100
AcDbEntity
  8
Visible (ISO)
100
AcDbLine
 10
697.7428201558686
 20
207.4999999999095
 30
0.0
 11
697.7428201558686
 21
207.9999999999113
 31
0.0
  0
ELLIPSE
  5
D7E
330
D32
100
AcDbEntity
  8
Visible (ISO)
100
AcDbEllipse
 10
940.5093640964917
 20
-150.0000000001878
 30
0.0
 11
-0.0000000000003194
 21
2.600000000000031
 31
0.0
210
0.0
220
0.0
230
1.0
 40
0.3826834323650897
 41
4.332063011841288
 42
5.092714948927286
  0
ELLIPSE
  5
D7F
330
D32
100
AcDbEntity
  8
Visible (ISO)
100
AcDbEllipse
 10
940.5093640964917
 20
149.9999999998122
 30
0.0
 11
-0.0000000000003199
 21
2.60000000000008
 31
0.0
210
0.0
220
0.0
230
1.0
 40
0.3826834323650899
 41
4.332063011841128
 42
5.092714948927443
  0
ELLIPSE
  5
D80
330
D32
100
AcDbEntity
  8
Visible (ISO)
100
AcDbEllipse
 10
942.3571231615131
 20
-150.0000000001878
 30
0.0
 11
-0.0000000000000001
 21
2.6
 31
0.0
210
0.0
220
0.0
230
1.0
 40
0.3826834323650898
 41
0.0
 42
6.283185307179584
  0
ELLIPSE
  5
D81
330
D32
100
AcDbEntity
  8
Visible (ISO)
100
AcDbEllipse
 10
942.3571231615131
 20
149.9999999998126
 30
0.0
 11
-0.0000000000000001
 21
2.6
 31
0.0
210
0.0
220
0.0
230
1.0
 40
0.3826834323650898
 41
0.0
 42
6.283185307179584
  0
LINE
  5
D82
330
D32
100
AcDbEntity
  8
Visible (ISO)
100
AcDbLine
 10
947.1776857523618
 20
207.9999999998104
 30
0.0
 11
947.1776857523618
 21
207.499999999809
 31
0.0
  0
LINE
  5
D83
330
D32
100
AcDbEntity
  8
Visible (ISO)
100
AcDbLine
 10
947.1776857523618
 20
-207.5000000001915
 30
0.0
 11
947.1776857523618
 21
-208.0000000001923
 31
0.0
  0
LINE
  5
D84
330
D32
100
AcDbEntity
  8
Visible (ISO)
100
AcDbLine
 10
919.0589699204393
 20
207.499999999814
 30
0.0
 11
919.0589699204393
 21
207.9999999998153
 31
0.0
  0
LINE
  5
D85
330
D32
100
AcDbEntity
  8
Visible (ISO)
100
AcDbLine
 10
1125.0
 20
-246.0000000003038
 30
0.0
 11
1125.0
 21
-250.0000000003038
 31
0.0
  0
LINE
  5
D86
330
D32
100
AcDbEntity
  8
Visible (ISO)
100
AcDbLine
 10
-1125.0
 20
-246.0000000003038
 30
0.0
 11
-1125.0
 21
-250.0000000003038
 31
0.0
  0
LINE
  5
D87
330
D32
100
AcDbEntity
  8
Visible (ISO)
100
AcDbLine
 10
-1125.0
 20
-250.0000000003038
 30
0.0
 11
0.0
 21
-249.99999999997
 31
0.0
  0
LINE
  5
D88
330
D32
100
AcDbEntity
  8
Visible (ISO)
100
AcDbLine
 10
-1125.0
 20
-246.0000000003038
 30
0.0
 11
0.0
 21
-245.99999999997
 31
0.0
  0
LINE
  5
D89
330
D32
100
AcDbEntity
  8
Visible (ISO)
100
AcDbLine
 10
-1125.0
 20
-246.0000000003038
 30
0.0
 11
-1125.0
 21
-250.0000000003038
 31
0.0
  0
LINE
  5
D8A
330
D32
100
AcDbEntity
  8
Visible (ISO)
100
AcDbLine
 10
0.0
 20
-245.99999999997
 30
0.0
 11
0.0
 21
-249.99999999997
 31
0.0
  0
LINE
  5
D8B
330
D32
100
AcDbEntity
  8
Visible (ISO)
100
AcDbLine
 10
0.0
 20
-249.99999999997
 30
0.0
 11
1125.0
 21
-250.0000000003038
 31
0.0
  0
LINE
  5
D8C
330
D32
100
AcDbEntity
  8
Visible (ISO)
100
AcDbLine
 10
0.0
 20
-245.99999999997
 30
0.0
 11
1125.0
 21
-246.0000000003038
 31
0.0
  0
LINE
  5
D8D
330
D32
100
AcDbEntity
  8
Visible (ISO)
100
AcDbLine
 10
0.0
 20
-245.99999999997
 30
0.0
 11
0.0
 21
-249.99999999997
 31
0.0
  0
LINE
  5
D8E
330
D32
100
AcDbEntity
  8
Visible (ISO)
100
AcDbLine
 10
1125.0
 20
-246.0000000003038
 30
0.0
 11
1125.0
 21
-250.0000000003038
 31
0.0
  0
LINE
  5
D8F
330
D32
100
AcDbEntity
  8
Visible (ISO)
100
AcDbLine
 10
-1125.0
 20
245.9999999996967
 30
0.0
 11
-1125.0
 21
249.9999999996967
 31
0.0
  0
LINE
  5
D90
330
D32
100
AcDbEntity
  8
Visible (ISO)
100
AcDbLine
 10
1125.0
 20
245.9999999996967
 30
0.0
 11
1125.0
 21
249.9999999996967
 31
0.0
  0
LINE
  5
D91
330
D32
100
AcDbEntity
  8
Visible (ISO)
100
AcDbLine
 10
1125.0
 20
249.9999999996967
 30
0.0
 11
0.0
 21
250.0000000000305
 31
0.0
  0
LINE
  5
D92
330
D32
100
AcDbEntity
  8
Visible (ISO)
100
AcDbLine
 10
1125.0
 20
245.9999999996967
 30
0.0
 11
0.0
 21
246.0000000000305
 31
0.0
  0
LINE
  5
D93
330
D32
100
AcDbEntity
  8
Visible (ISO)
100
AcDbLine
 10
1125.0
 20
245.9999999996967
 30
0.0
 11
1125.0
 21
249.9999999996967
 31
0.0
  0
LINE
  5
D94
330
D32
100
AcDbEntity
  8
Visible (ISO)
100
AcDbLine
 10
0.0
 20
246.0000000000309
 30
0.0
 11
0.0
 21
250.0000000000305
 31
0.0
  0
LINE
  5
D95
330
D32
100
AcDbEntity
  8
Visible (ISO)
100
AcDbLine
 10
0.0
 20
250.0000000000305
 30
0.0
 11
-1125.0
 21
249.9999999996967
 31
0.0
  0
LINE
  5
D96
330
D32
100
AcDbEntity
  8
Visible (ISO)
100
AcDbLine
 10
0.0
 20
246.0000000000305
 30
0.0
 11
-1125.0
 21
245.9999999996967
 31
0.0
  0
LINE
  5
D97
330
D32
100
AcDbEntity
  8
Visible (ISO)
100
AcDbLine
 10
0.0
 20
246.0000000000309
 30
0.0
 11
0.0
 21
250.0000000000305
 31
0.0
  0
LINE
  5
D98
330
D32
100
AcDbEntity
  8
Visible (ISO)
100
AcDbLine
 10
-1125.0
 20
245.9999999996967
 30
0.0
 11
-1125.0
 21
249.9999999996967
 31
0.0
  0
SPLINE
  5
D99
330
D32
100
AcDbEntity
  8
Visible (ISO)
100
AcDbSpline
210
0.0
220
0.0
230
1.0
 70
     8
 71
     3
 72
    23
 73
    19
 74
     0
 42
0.0000000001
 43
0.0000000001
 40
-0.4520256890731666
 40
-0.4520256890731666
 40
-0.4520256890731666
 40
-0.4520256890731666
 40
-0.339018937187789
 40
-0.339018937187789
 40
-0.2260121853024117
 40
-0.2260121853024117
 40
-0.1130060926512058
 40
-0.1130060926512058
 40
0.0
 40
0.0
 40
0.0
 40
0.1130062878631176
 40
0.1130062878631176
 40
0.2260125757262353
 40
0.2260125757262353
 40
0.3390191323997812
 40
0.3390191323997812
 40
0.4520256890733271
 40
0.4520256890733271
 40
0.4520256890733271
 40
0.4520256890733271
 10
943.7729423779892
 20
152.9999999998122
 30
0.0
 10
943.9162420900247
 20
152.9999999998117
 30
0.0
 10
944.0688806204452
 20
152.9247185979388
 30
0.0
 10
944.3492955877699
 20
152.6185566064337
 30
0.0
 10
944.4770830580999
 20
152.3876760419289
 30
0.0
 10
944.6787150854216
 20
151.85496069922
 30
0.0
 10
944.7660014951615
 20
151.5176182881082
 30
0.0
 10
944.8817028196573
 20
150.7784814465753
 30
0.0
 10
944.9101287343401
 20
150.3766869753153
 30
0.0
 10
944.9101287343401
 20
149.9999999998113
 30
0.0
 10
944.9101287343401
 20
149.623312373601
 30
0.0
 10
944.8817027222647
 20
149.2215172527471
 30
0.0
 10
944.7660010301698
 20
148.482379419142
 30
0.0
 10
944.678714350157
 20
148.1450366655513
 30
0.0
 10
944.477082060148
 20
147.6123220133631
 30
0.0
 10
944.3492947186895
 20
147.3814421630413
 30
0.0
 10
944.068880126535
 20
147.0752811437019
 30
0.0
 10
943.9162418424857
 20
146.9999999998122
 30
0.0
 10
943.7729423779892
 20
146.9999999998122
 30
0.0
  0
LINE
  5
D9A
330
D32
100
AcDbEntity
  8
Visible (ISO)
100
AcDbLine
 10
941.8595252161757
 20
146.999999999814
 30
0.0
 11
943.7729423779892
 21
146.9999999998126
 31
0.0
  0
SPLINE
  5
D9B
330
D32
100
AcDbEntity
  8
Visible (ISO)
100
AcDbSpline
210
0.0
220
0.0
230
1.0
 70
     8
 71
     3
 72
    22
 73
    18
 74
     0
 42
0.0000000001
 43
0.0000000001
 40
0.4520242997446941
 40
0.4520242997446941
 40
0.4520242997446941
 40
0.4520242997446941
 40
0.5650308564182373
 40
0.5650308564182373
 40
0.6780374130917805
 40
0.6780374130917805
 40
0.7910437009548984
 40
0.7910437009548984
 40
0.9040499888180162
 40
0.9040499888180162
 40
1.017056081469223
 40
1.017056081469223
 40
1.130062174120429
 40
1.130062174120429
 40
1.243068926005802
 40
1.243068926005802
 40
1.356075677891174
 40
1.356075677891174
 40
1.356075677891174
 40
1.356075677891174
 10
941.8595252161612
 20
146.9999999998135
 30
0.0
 10
941.7145206325294
 20
146.9999999998135
 30
0.0
 10
941.5596385687459
 20
147.0752811437036
 30
0.0
 10
941.2743417120328
 20
147.3814421630436
 30
0.0
 10
941.1439379119219
 20
147.6123220133659
 30
0.0
 10
940.9378480587877
 20
148.1450366655544
 30
0.0
 10
940.8484268313513
 20
148.4823794191447
 30
0.0
 10
940.7298027769174
 20
149.2215172527499
 30
0.0
 10
940.7006109783214
 20
149.6233123736042
 30
0.0
 10
940.7006109783214
 20
150.3766869753181
 30
0.0
 10
940.7298026768547
 20
150.7784814465781
 30
0.0
 10
940.848426354827
 20
151.5176182881109
 30
0.0
 10
940.9378473059261
 20
151.8549606992228
 30
0.0
 10
941.1439368932477
 20
152.3876760419316
 30
0.0
 10
941.2743408266106
 20
152.6185566064355
 30
0.0
 10
941.5596380674504
 20
152.9247185979406
 30
0.0
 10
941.7145203820435
 20
152.9999999998135
 30
0.0
 10
941.8595252161612
 20
152.9999999998135
 30
0.0
  0
LINE
  5
D9C
330
D32
100
AcDbEntity
  8
Visible (ISO)
100
AcDbLine
 10
943.7729423779856
 20
152.9999999998122
 30
0.0
 11
941.8595252161612
 21
152.9999999998135
 31
0.0
  0
LINE
  5
D9D
330
D32
100
AcDbEntity
  8
Visible (ISO)
100
AcDbLine
 10
1020.5
 20
152.9999999996967
 30
0.0
 11
1020.496937771004
 21
152.9999999996976
 31
0.0
  0
LINE
  5
D9E
330
D32
100
AcDbEntity
  8
Visible (ISO)
100
AcDbLine
 10
1020.496937771004
 20
146.999999999698
 30
0.0
 11
1020.5
 21
146.9999999996971
 31
0.0
  0
SPLINE
  5
D9F
330
D32
100
AcDbEntity
  8
Visible (ISO)
100
AcDbSpline
210
0.0
220
0.0
230
1.0
 70
     8
 71
     3
 72
    22
 73
    18
 74
     0
 42
0.0000000001
 43
0.0000000001
 40
0.4520242997446922
 40
0.4520242997446922
 40
0.4520242997446922
 40
0.4520242997446922
 40
0.5650310516300685
 40
0.5650310516300685
 40
0.6780378035154448
 40
0.6780378035154448
 40
0.7910438961666522
 40
0.7910438961666522
 40
0.9040499888178599
 40
0.9040499888178599
 40
1.017056081469067
 40
1.017056081469067
 40
1.130062174120274
 40
1.130062174120274
 40
1.24306892600565
 40
1.24306892600565
 40
1.356075677891027
 40
1.356075677891027
 40
1.356075677891027
 40
1.356075677891027
 10
1020.496937771008
 20
146.9999999996976
 30
0.0
 10
1020.496014965585
 20
146.9999999996976
 30
0.0
 10
1020.494800638338
 20
147.0752814015714
 30
0.0
 10
1020.492158370951
 20
147.3814433930765
 30
0.0
 10
1020.490742351361
 20
147.6123239575809
 30
0.0
 10
1020.488329937274
 20
148.1450393002897
 30
0.0
 10
1020.487174731817
 20
148.4823817114015
 30
0.0
 10
1020.485593165515
 20
149.2215185529344
 30
0.0
 10
1020.485178726274
 20
149.6233130241944
 30
0.0
 10
1020.485178726274
 20
150.3766869752025
 30
0.0
 10
1020.485593165515
 20
150.7784814464621
 30
0.0
 10
1020.487174731817
 20
151.5176182879954
 30
0.0
 10
1020.488329937274
 20
151.8549606991068
 30
0.0
 10
1020.490742351361
 20
152.3876760418156
 30
0.0
 10
1020.492158370951
 20
152.61855660632
 30
0.0
 10
1020.494800638338
 20
152.9247185978247
 30
0.0
 10
1020.496014965585
 20
152.9999999996976
 30
0.0
 10
1020.496937771008
 20
152.9999999996976
 30
0.0
  0
SPLINE
  5
DA0
330
D32
100
AcDbEntity
  8
Visible (ISO)
100
AcDbSpline
210
0.0
220
0.0
230
1.0
 70
     8
 71
     3
 72
    23
 73
    19
 74
     0
 42
0.0000000001
 43
0.0000000001
 40
-0.4520256890731666
 40
-0.4520256890731666
 40
-0.4520256890731666
 40
-0.4520256890731666
 40
-0.3390189371877912
 40
-0.3390189371877912
 40
-0.2260121853024157
 40
-0.2260121853024157
 40
-0.1130060926512078
 40
-0.1130060926512078
 40
0.0
 40
0.0
 40
0.0
 40
0.1130062878631181
 40
0.1130062878631181
 40
0.2260125757262362
 40
0.2260125757262362
 40
0.3390191323997803
 40
0.3390191323997803
 40
0.4520256890733246
 40
0.4520256890733246
 40
0.4520256890733246
 40
0.4520256890733246
 10
2.5
 20
152.9999999999995
 30
0.0
 10
2.876688042615568
 20
152.9999999999995
 30
0.0
 10
3.278483389640312
 20
152.9247185981267
 30
0.0
 10
4.017622009603655
 20
152.6185566066219
 30
0.0
 10
4.3549653355185
 20
152.3876760421171
 30
0.0
 10
4.887679297189606
 20
151.8549606994083
 30
0.0
 10
5.11855859048228
 20
151.5176182882965
 30
0.0
 10
5.424718960446623
 20
150.7784814467636
 30
0.0
 10
5.5
 20
150.3766869755036
 30
0.0
 10
5.5
 20
150.0
 30
0.0
 10
5.5
 20
149.6233123737893
 30
0.0
 10
5.424718702462996
 20
149.2215172529354
 30
0.0
 10
5.118557360332488
 20
148.4823794193303
 30
0.0
 10
4.887677352857281
 20
148.14503666574
 30
0.0
 10
4.354962700668693
 20
147.6123220135514
 30
0.0
 10
4.017619717233174
 20
147.3814421632291
 30
0.0
 10
3.278482089343015
 20
147.0752811438897
 30
0.0
 10
2.876687391912127
 20
147.0
 30
0.0
 10
2.5
 20
147.0
 30
0.0
  0
LINE
  5
DA1
330
D32
100
AcDbEntity
  8
Visible (ISO)
100
AcDbLine
 10
-0.0000000000945874
 20
146.9999999999995
 30
0.0
 11
2.5
 21
146.9999999999995
 31
0.0
  0
LINE
  5
DA2
330
D32
100
AcDbEntity
  8
Visible (ISO)
100
AcDbLine
 10
2.500000000003635
 20
152.9999999999995
 30
0.0
 11
0.0
 21
152.9999999999995
 31
0.0
  0
SPLINE
  5
DA3
330
D32
100
AcDbEntity
  8
Visible (ISO)
100
AcDbSpline
210
0.0
220
0.0
230
1.0
 70
     8
 71
     3
 72
    23
 73
    19
 74
     0
 42
0.0000000001
 43
0.0000000001
 40
-0.4520256890731629
 40
-0.4520256890731629
 40
-0.4520256890731629
 40
-0.4520256890731629
 40
-0.3390189371877896
 40
-0.3390189371877896
 40
-0.2260121853024164
 40
-0.2260121853024164
 40
-0.1130060926512082
 40
-0.1130060926512082
 40
0.0
 40
0.0
 40
0.0
 40
0.1130062878631167
 40
0.1130062878631167
 40
0.2260125757262335
 40
0.2260125757262335
 40
0.3390191323997793
 40
0.3390191323997793
 40
0.4520256890733254
 40
0.4520256890733254
 40
0.4520256890733254
 40
0.4520256890733254
 10
392.8369696955524
 20
152.9999999999768
 30
0.0
 10
393.1846309259199
 20
152.9999999999768
 30
0.0
 10
393.555376720371
 20
152.924718598103
 30
0.0
 10
394.2372406110953
 20
152.6185566065983
 30
0.0
 10
394.5483633181029
 20
152.3876760420935
 30
0.0
 10
395.0396036530691
 20
151.8549606993847
 30
0.0
 10
395.2524662286305
 20
151.5176182882728
 30
0.0
 10
395.5347162888902
 20
150.7784814467404
 30
0.0
 10
395.6041083014861
 20
150.3766869754804
 30
0.0
 10
395.6041083014861
 20
149.9999999999759
 30
0.0
 10
395.6041083014861
 20
149.6233123737656
 30
0.0
 10
395.5347160510937
 20
149.2215172529121
 30
0.0
 10
395.2524650945088
 20
148.4823794193066
 30
0.0
 10
395.039601860386
 20
148.1450366657163
 30
0.0
 10
394.5483608881077
 20
147.6123220135282
 30
0.0
 10
394.2372384966075
 20
147.3814421632059
 30
0.0
 10
393.5553755205838
 20
147.0752811438665
 30
0.0
 10
393.1846303253552
 20
146.9999999999763
 30
0.0
 10
392.8369696955524
 20
146.9999999999763
 30
0.0
  0
LINE
  5
DA4
330
D32
100
AcDbEntity
  8
Visible (ISO)
100
AcDbLine
 10
388.2175720329506
 20
146.9999999999771
 30
0.0
 11
392.8369696955524
 21
146.9999999999768
 31
0.0
  0
SPLINE
  5
DA5
330
D32
100
AcDbEntity
  8
Visible (ISO)
100
AcDbSpline
210
0.0
220
0.0
230
1.0
 70
     8
 71
     3
 72
    22
 73
    18
 74
     0
 42
0.0000000001
 43
0.0000000001
 40
0.4520242997446859
 40
0.4520242997446859
 40
0.4520242997446859
 40
0.4520242997446859
 40
0.565030856418229
 40
0.565030856418229
 40
0.6780374130917715
 40
0.6780374130917715
 40
0.7910437009548927
 40
0.7910437009548927
 40
0.9040499888180139
 40
0.9040499888180139
 40
1.01705608146922
 40
1.01705608146922
 40
1.130062174120429
 40
1.130062174120429
 40
1.24306892600581
 40
1.24306892600581
 40
1.356075677891188
 40
1.356075677891188
 40
1.356075677891188
 40
1.356075677891188
 10
388.2175720329941
 20
146.9999999999768
 30
0.0
 10
387.8692051197177
 20
146.9999999999771
 30
0.0
 10
387.4975305204898
 20
147.0752811438669
 30
0.0
 10
386.8136452442741
 20
147.3814421632064
 30
0.0
 10
386.5014390801116
 20
147.612322013529
 30
0.0
 10
386.0083517247332
 20
148.1450366657172
 30
0.0
 10
385.7946043321208
 20
148.4823794193076
 30
0.0
 10
385.5111428934179
 20
149.2215172529131
 30
0.0
 10
385.4414334438625
 20
149.623312373767
 30
0.0
 10
385.4414334438625
 20
150.3766869754818
 30
0.0
 10
385.5111426545191
 20
150.7784814467413
 30
0.0
 10
385.7946031932188
 20
151.5176182882742
 30
0.0
 10
386.008349924763
 20
151.8549606993856
 30
0.0
 10
386.501436641538
 20
152.3876760420944
 30
0.0
 10
386.8136431230159
 20
152.6185566065992
 30
0.0
 10
387.4975293176431
 20
152.9247185981039
 30
0.0
 10
387.8692045179341
 20
152.9999999999771
 30
0.0
 10
388.2175720329941
 20
152.9999999999771
 30
0.0
  0
LINE
  5
DA6
330
D32
100
AcDbEntity
  8
Visible (ISO)
100
AcDbLine
 10
392.8369696955306
 20
152.9999999999768
 30
0.0
 11
388.2175720329941
 21
152.9999999999771
 31
0.0
  0
LINE
  5
DA7
330
D32
100
AcDbEntity
  8
Visible (ISO)
100
AcDbLine
 10
1020.496937771004
 20
-153.0000000003024
 30
0.0
 11
1020.5
 21
-153.0000000003033
 31
0.0
  0
LINE
  5
DA8
330
D32
100
AcDbEntity
  8
Visible (ISO)
100
AcDbLine
 10
1020.5
 20
-147.0000000003028
 30
0.0
 11
1020.496937771004
 21
-147.0000000003019
 31
0.0
  0
SPLINE
  5
DA9
330
D32
100
AcDbEntity
  8
Visible (ISO)
100
AcDbSpline
210
0.0
220
0.0
230
1.0
 70
     8
 71
     3
 72
    23
 73
    19
 74
     0
 42
0.0000000001
 43
0.0000000001
 40
-0.4520256890731666
 40
-0.4520256890731666
 40
-0.4520256890731666
 40
-0.4520256890731666
 40
-0.3390189371877912
 40
-0.3390189371877912
 40
-0.2260121853024157
 40
-0.2260121853024157
 40
-0.1130060926512078
 40
-0.1130060926512078
 40
0.0
 40
0.0
 40
0.0
 40
0.1130062878631181
 40
0.1130062878631181
 40
0.2260125757262362
 40
0.2260125757262362
 40
0.3390191323997802
 40
0.3390191323997802
 40
0.4520256890733246
 40
0.4520256890733246
 40
0.4520256890733246
 40
0.4520256890733246
 10
1020.496937771008
 20
-153.0000000003024
 30
0.0
 10
1020.496014965585
 20
-153.0000000003024
 30
0.0
 10
1020.494800638338
 20
-152.9247185984286
 30
0.0
 10
1020.492158370951
 20
-152.6185566069239
 30
0.0
 10
1020.490742351361
 20
-152.3876760424191
 30
0.0
 10
1020.488329937274
 20
-151.8549606997098
 30
0.0
 10
1020.487174731817
 20
-151.5176182885984
 30
0.0
 10
1020.485593165515
 20
-150.7784814470656
 30
0.0
 10
1020.485178726274
 20
-150.3766869758055
 30
0.0
 10
1020.485178726274
 20
-150.0000000003015
 30
0.0
 10
1020.485178726274
 20
-149.6233123740908
 30
0.0
 10
1020.485593166955
 20
-149.2215172532374
 30
0.0
 10
1020.487174738057
 20
-148.4823794196318
 30
0.0
 10
1020.488329946798
 20
-148.1450366660415
 30
0.0
 10
1020.490742362573
 20
-147.6123220138538
 30
0.0
 10
1020.492158379799
 20
-147.3814421635311
 30
0.0
 10
1020.494800642336
 20
-147.0752811441921
 30
0.0
 10
1020.496014967179
 20
-147.0000000003024
 30
0.0
 10
1020.496937771008
 20
-147.0000000003024
 30
0.0
  0
LINE
  5
DAA
330
D32
100
AcDbEntity
  8
Visible (ISO)
100
AcDbLine
 10
2.500000000003635
 20
-147.0
 30
0.0
 11
0.0
 21
-147.0
 31
0.0
  0
SPLINE
  5
DAB
330
D32
100
AcDbEntity
  8
Visible (ISO)
100
AcDbSpline
210
0.0
220
0.0
230
1.0
 70
     8
 71
     3
 72
    22
 73
    18
 74
     0
 42
0.0000000001
 43
0.0000000001
 40
0.4520242997446945
 40
0.4520242997446945
 40
0.4520242997446945
 40
0.4520242997446945
 40
0.5650308564182384
 40
0.5650308564182384
 40
0.6780374130917825
 40
0.6780374130917825
 40
0.7910437009549005
 40
0.7910437009549005
 40
0.9040499888180184
 40
0.9040499888180184
 40
1.017056081469224
 40
1.017056081469224
 40
1.130062174120432
 40
1.130062174120432
 40
1.243068926005807
 40
1.243068926005807
 40
1.356075677891183
 40
1.356075677891183
 40
1.356075677891183
 40
1.356075677891183
 10
2.5
 20
-147.0
 30
0.0
 10
2.876687391912127
 20
-147.0
 30
0.0
 10
3.278482089343015
 20
-147.0752811438901
 30
0.0
 10
4.017619717233174
 20
-147.3814421632296
 30
0.0
 10
4.354962700668693
 20
-147.6123220135523
 30
0.0
 10
4.887677352857281
 20
-148.14503666574
 30
0.0
 10
5.118557360332488
 20
-148.4823794193307
 30
0.0
 10
5.424718702462996
 20
-149.2215172529363
 30
0.0
 10
5.5
 20
-149.6233123737897
 30
0.0
 10
5.5
 20
-150.3766869755045
 30
0.0
 10
5.424718960446623
 20
-150.7784814467645
 30
0.0
 10
5.11855859048228
 20
-151.5176182882969
 30
0.0
 10
4.887679297189606
 20
-151.8549606994083
 30
0.0
 10
4.3549653355185
 20
-152.3876760421176
 30
0.0
 10
4.017622009603655
 20
-152.6185566066224
 30
0.0
 10
3.278483389640312
 20
-152.9247185981267
 30
0.0
 10
2.876688042615568
 20
-153.0000000000004
 30
0.0
 10
2.5
 20
-153.0000000000004
 30
0.0
  0
LINE
  5
DAC
330
D32
100
AcDbEntity
  8
Visible (ISO)
100
AcDbLine
 10
-0.0000000000945874
 20
-153.0000000000004
 30
0.0
 11
2.5
 21
-153.0000000000004
 31
0.0
  0
SPLINE
  5
DAD
330
D32
100
AcDbEntity
  8
Visible (ISO)
100
AcDbSpline
210
0.0
220
0.0
230
1.0
 70
     8
 71
     3
 72
    22
 73
    18
 74
     0
 42
0.0000000001
 43
0.0000000001
 40
0.4520242997446941
 40
0.4520242997446941
 40
0.4520242997446941
 40
0.4520242997446941
 40
0.5650308564182402
 40
0.5650308564182402
 40
0.6780374130917858
 40
0.6780374130917858
 40
0.7910437009549025
 40
0.7910437009549025
 40
0.9040499888180193
 40
0.9040499888180193
 40
1.017056081469227
 40
1.017056081469227
 40
1.130062174120435
 40
1.130062174120435
 40
1.243068926005806
 40
1.243068926005806
 40
1.35607567789118
 40
1.35607567789118
 40
1.35607567789118
 40
1.35607567789118
 10
392.8369696955524
 20
-147.0000000000236
 30
0.0
 10
393.1846303253552
 20
-147.0000000000236
 30
0.0
 10
393.5553755205838
 20
-147.0752811439138
 30
0.0
 10
394.2372384966075
 20
-147.3814421632532
 30
0.0
 10
394.5483608881077
 20
-147.6123220135755
 30
0.0
 10
395.039601860386
 20
-148.1450366657636
 30
0.0
 10
395.2524650945088
 20
-148.4823794193544
 30
0.0
 10
395.5347160510937
 20
-149.2215172529595
 30
0.0
 10
395.6041083014861
 20
-149.6233123738134
 30
0.0
 10
395.6041083014861
 20
-150.3766869755277
 30
0.0
 10
395.5347162888902
 20
-150.7784814467877
 30
0.0
 10
395.2524662286305
 20
-151.5176182883206
 30
0.0
 10
395.0396036530691
 20
-151.8549606994324
 30
0.0
 10
394.5483633181029
 20
-152.3876760421412
 30
0.0
 10
394.2372406110953
 20
-152.6185566066456
 30
0.0
 10
393.555376720371
 20
-152.9247185981503
 30
0.0
 10
393.1846309259199
 20
-153.0000000000232
 30
0.0
 10
392.8369696955524
 20
-153.0000000000232
 30
0.0
  0
LINE
  5
DAE
330
D32
100
AcDbEntity
  8
Visible (ISO)
100
AcDbLine
 10
392.8369696955306
 20
-147.0000000000236
 30
0.0
 11
388.2175720329941
 21
-147.0000000000232
 31
0.0
  0
SPLINE
  5
DAF
330
D32
100
AcDbEntity
  8
Visible (ISO)
100
AcDbSpline
210
0.0
220
0.0
230
1.0
 70
     8
 71
     3
 72
    23
 73
    19
 74
     0
 42
0.0000000001
 43
0.0000000001
 40
-0.4520256890731762
 40
-0.4520256890731762
 40
-0.4520256890731762
 40
-0.4520256890731762
 40
-0.3390189371877967
 40
-0.3390189371877967
 40
-0.2260121853024175
 40
-0.2260121853024175
 40
-0.1130060926512086
 40
-0.1130060926512086
 40
0.0
 40
0.0
 40
0.0
 40
0.1130062878631213
 40
0.1130062878631213
 40
0.2260125757262426
 40
0.2260125757262426
 40
0.3390191323997854
 40
0.3390191323997854
 40
0.4520256890733282
 40
0.4520256890733282
 40
0.4520256890733282
 40
0.4520256890733282
 10
388.2175720329941
 20
-153.0000000000226
 30
0.0
 10
387.8692045179341
 20
-153.0000000000226
 30
0.0
 10
387.4975293176431
 20
-152.9247185981494
 30
0.0
 10
386.8136431230159
 20
-152.6185566066451
 30
0.0
 10
386.501436641538
 20
-152.3876760421403
 30
0.0
 10
386.008349924763
 20
-151.8549606994311
 30
0.0
 10
385.7946031932188
 20
-151.5176182883192
 30
0.0
 10
385.5111426545191
 20
-150.7784814467864
 30
0.0
 10
385.4414334438625
 20
-150.3766869755263
 30
0.0
 10
385.4414334438625
 20
-150.0000000000227
 30
0.0
 10
385.4414334438625
 20
-149.623312373812
 30
0.0
 10
385.5111428934179
 20
-149.2215172529581
 30
0.0
 10
385.7946043321208
 20
-148.482379419353
 30
0.0
 10
386.0083517247332
 20
-148.1450366657627
 30
0.0
 10
386.5014390801116
 20
-147.6123220135741
 30
0.0
 10
386.8136452442741
 20
-147.3814421632523
 30
0.0
 10
387.4975305204898
 20
-147.0752811439129
 30
0.0
 10
387.8692051197177
 20
-147.0000000000227
 30
0.0
 10
388.2175720329941
 20
-147.0000000000232
 30
0.0
  0
LINE
  5
DB0
330
D32
100
AcDbEntity
  8
Visible (ISO)
100
AcDbLine
 10
388.2175720329506
 20
-153.0000000000226
 30
0.0
 11
392.8369696955524
 21
-153.0000000000232
 31
0.0
  0
SPLINE
  5
DB1
330
D32
100
AcDbEntity
  8
Visible (ISO)
100
AcDbSpline
210
0.0
220
0.0
230
1.0
 70
     8
 71
     3
 72
    22
 73
    18
 74
     0
 42
0.0000000001
 43
0.0000000001
 40
0.4520242997446962
 40
0.4520242997446962
 40
0.4520242997446962
 40
0.4520242997446962
 40
0.5650308564182424
 40
0.5650308564182424
 40
0.6780374130917881
 40
0.6780374130917881
 40
0.7910437009549059
 40
0.7910437009549059
 40
0.9040499888180232
 40
0.9040499888180232
 40
1.017056081469229
 40
1.017056081469229
 40
1.130062174120435
 40
1.130062174120435
 40
1.243068926005812
 40
1.243068926005812
 40
1.356075677891187
 40
1.356075677891187
 40
1.356075677891187
 40
1.356075677891187
 10
943.7729423779892
 20
-147.0000000001878
 30
0.0
 10
943.9162418424857
 20
-147.0000000001878
 30
0.0
 10
944.068880126535
 20
-147.0752811440779
 30
0.0
 10
944.3492947186895
 20
-147.3814421634174
 30
0.0
 10
944.477082060148
 20
-147.6123220137401
 30
0.0
 10
944.678714350157
 20
-148.1450366659283
 30
0.0
 10
944.7660010301698
 20
-148.482379419519
 30
0.0
 10
944.8817027222647
 20
-149.2215172531246
 30
0.0
 10
944.9101287343401
 20
-149.623312373978
 30
0.0
 10
944.9101287343401
 20
-150.3766869756928
 30
0.0
 10
944.8817028196573
 20
-150.7784814469528
 30
0.0
 10
944.7660014951615
 20
-151.5176182884852
 30
0.0
 10
944.6787150854216
 20
-151.8549606995971
 30
0.0
 10
944.4770830580999
 20
-152.3876760423059
 30
0.0
 10
944.3492955877699
 20
-152.6185566068102
 30
0.0
 10
944.0688806204452
 20
-152.9247185983145
 30
0.0
 10
943.9162420900247
 20
-153.0000000001883
 30
0.0
 10
943.7729423779892
 20
-153.0000000001878
 30
0.0
  0
LINE
  5
DB2
330
D32
100
AcDbEntity
  8
Visible (ISO)
100
AcDbLine
 10
943.7729423779856
 20
-147.0000000001878
 30
0.0
 11
941.8595252161612
 21
-147.0000000001864
 31
0.0
  0
SPLINE
  5
DB3
330
D32
100
AcDbEntity
  8
Visible (ISO)
100
AcDbSpline
210
0.0
220
0.0
230
1.0
 70
     8
 71
     3
 72
    23
 73
    19
 74
     0
 42
0.0000000001
 43
0.0000000001
 40
-0.4520256890731602
 40
-0.4520256890731602
 40
-0.4520256890731602
 40
-0.4520256890731602
 40
-0.3390189371877894
 40
-0.3390189371877894
 40
-0.2260121853024188
 40
-0.2260121853024188
 40
-0.1130060926512095
 40
-0.1130060926512095
 40
0.0
 40
0.0
 40
0.0
 40
0.1130062878631179
 40
0.1130062878631179
 40
0.2260125757262358
 40
0.2260125757262358
 40
0.339019132399779
 40
0.339019132399779
 40
0.4520256890733223
 40
0.4520256890733223
 40
0.4520256890733223
 40
0.4520256890733223
 10
941.8595252161612
 20
-153.0000000001864
 30
0.0
 10
941.7145203820435
 20
-153.0000000001864
 30
0.0
 10
941.5596380674504
 20
-152.9247185983126
 30
0.0
 10
941.2743408266106
 20
-152.6185566068079
 30
0.0
 10
941.1439368932477
 20
-152.3876760423031
 30
0.0
 10
940.9378473059261
 20
-151.8549606995943
 30
0.0
 10
940.848426354827
 20
-151.5176182884825
 30
0.0
 10
940.7298026768547
 20
-150.77848144695
 30
0.0
 10
940.7006109783214
 20
-150.3766869756896
 30
0.0
 10
940.7006109783214
 20
-150.000000000186
 30
0.0
 10
940.7006109783214
 20
-149.6233123739753
 30
0.0
 10
940.7298027769174
 20
-149.2215172531214
 30
0.0
 10
940.8484268313513
 20
-148.4823794195167
 30
0.0
 10
940.9378480587877
 20
-148.1450366659255
 30
0.0
 10
941.1439379119219
 20
-147.6123220137378
 30
0.0
 10
941.2743417120328
 20
-147.3814421634155
 30
0.0
 10
941.5596385687459
 20
-147.0752811440761
 30
0.0
 10
941.7145206325294
 20
-147.0000000001864
 30
0.0
 10
941.8595252161612
 20
-147.0000000001864
 30
0.0
  0
LINE
  5
DB4
330
D32
100
AcDbEntity
  8
Visible (ISO)
100
AcDbLine
 10
941.8595252161757
 20
-153.0000000001864
 30
0.0
 11
943.7729423779892
 21
-153.0000000001878
 31
0.0
  0
LINE
  5
DB5
330
D32
100
AcDbEntity
  8
Visible (ISO)
100
AcDbLine
 10
1020.5
 20
-147.0000000003028
 30
0.0
 11
1020.5
 21
146.9999999996971
 31
0.0
  0
LINE
  5
DB6
330
D32
100
AcDbEntity
  8
Visible (ISO)
100
AcDbLine
 10
1020.5
 20
152.9999999996967
 30
0.0
 11
1020.5
 21
207.4999999996967
 31
0.0
  0
LINE
  5
DB7
330
D32
100
AcDbEntity
  8
Visible (ISO)
100
AcDbLine
 10
0.0
 20
207.4999999999995
 30
0.0
 11
0.0
 21
152.9999999999995
 31
0.0
  0
LINE
  5
DB8
330
D32
100
AcDbEntity
  8
Visible (ISO)
100
AcDbLine
 10
1020.5
 20
-207.5000000003033
 30
0.0
 11
1020.5
 21
-153.0000000003033
 31
0.0
  0
LINE
  5
DB9
330
D32
100
AcDbEntity
  8
Visible (ISO)
100
AcDbLine
 10
0.0
 20
147.0
 30
0.0
 11
0.0
 21
-147.0
 31
0.0
  0
LINE
  5
DBA
330
D32
100
AcDbEntity
  8
Visible (ISO)
100
AcDbLine
 10
1020.189434613683
 20
207.4999999997044
 30
0.0
 11
1020.500000000003
 21
207.4999999996967
 31
0.0
  0
LINE
  5
DBB
330
D32
100
AcDbEntity
  8
Visible (ISO)
100
AcDbLine
 10
0.0
 20
207.4999999999995
 30
0.0
 11
996.2833684379219
 21
207.4999999997626
 31
0.0
  0
LINE
  5
DBC
330
D32
100
AcDbEntity
  8
Visible (ISO)
100
AcDbLine
 10
0.0
 20
-153.0000000000004
 30
0.0
 11
0.0
 21
-207.5000000000005
 31
0.0
  0
LINE
  5
DBD
330
D32
100
AcDbEntity
  8
Visible (ISO)
100
AcDbLine
 10
771.5212804668151
 20
-207.5000000001046
 30
0.0
 11
0.0
 21
-207.5000000000005
 31
0.0
  0
LINE
  5
DBE
330
D32
100
AcDbEntity
  8
Visible (ISO)
100
AcDbLine
 10
996.2833684379292
 20
-207.5000000002374
 30
0.0
 11
795.4273466425766
 21
-207.5000000001137
 31
0.0
  0
LINE
  5
DBF
330
D32
100
AcDbEntity
  8
Visible (ISO)
100
AcDbLine
 10
1020.500000000003
 20
-207.5000000003033
 30
0.0
 11
1020.18943461369
 21
-207.5000000002956
 31
0.0
  0
SPLINE
  5
DC0
330
D32
100
AcDbEntity
  8
Visible (ISO)
100
AcDbSpline
210
0.0
220
0.0
230
1.0
 70
     8
 71
     3
 72
    23
 73
    19
 74
     0
 42
0.0000000001
 43
0.0000000001
 40
1.356074288562709
 40
1.356074288562709
 40
1.356074288562709
 40
1.356074288562709
 40
1.469081040448086
 40
1.469081040448086
 40
1.582087792333464
 40
1.582087792333464
 40
1.695093884984669
 40
1.695093884984669
 40
1.808099977635879
 40
1.808099977635879
 40
1.808099977635879
 40
1.921106265498994
 40
1.921106265498994
 40
2.034112553362108
 40
2.034112553362108
 40
2.147119110035657
 40
2.147119110035657
 40
2.260125666709205
 40
2.260125666709205
 40
2.260125666709205
 40
2.260125666709205
 10
719.8325379250197
 20
-153.0000000000882
 30
0.0
 10
719.5655267337205
 20
-153.0000000000882
 30
0.0
 10
719.2805558601612
 20
-152.9247185982149
 30
0.0
 10
718.7560375645626
 20
-152.6185566067097
 30
0.0
 10
718.5164985341652
 20
-152.3876760422058
 30
0.0
 10
718.1381070450734
 20
-151.8549606994966
 30
0.0
 10
717.9740338775371
 20
-151.5176182883842
 30
0.0
 10
717.7564274675459
 20
-150.7784814468518
 30
0.0
 10
717.7029026811906
 20
-150.3766869755918
 30
0.0
 10
717.7029026811906
 20
-150.0000000000877
 30
0.0
 10
717.7029026811906
 20
-149.6233123738775
 30
0.0
 10
717.7564276509911
 20
-149.2215172530236
 30
0.0
 10
717.9740347518018
 20
-148.4823794194185
 30
0.0
 10
718.1381084266575
 20
-148.1450366658277
 30
0.0
 10
718.5165004052143
 20
-147.6123220136396
 30
0.0
 10
718.7560391917686
 20
-147.3814421633174
 30
0.0
 10
719.2805567824397
 20
-147.0752811439783
 30
0.0
 10
719.5655271949654
 20
-147.0000000000882
 30
0.0
 10
719.8325379250197
 20
-147.0000000000882
 30
0.0
  0
LINE
  5
DC1
330
D32
100
AcDbEntity
  8
Visible (ISO)
100
AcDbLine
 10
723.3680718309367
 20
-147.0000000000891
 30
0.0
 11
719.8325379250197
 21
-147.0000000000882
 31
0.0
  0
SPLINE
  5
DC2
330
D32
100
AcDbEntity
  8
Visible (ISO)
100
AcDbSpline
210
0.0
220
0.0
230
1.0
 70
     8
 71
     3
 72
    22
 73
    18
 74
     0
 42
0.0000000001
 43
0.0000000001
 40
0.4520242997447025
 40
0.4520242997447025
 40
0.4520242997447025
 40
0.4520242997447025
 40
0.5650308564182449
 40
0.5650308564182449
 40
0.6780374130917874
 40
0.6780374130917874
 40
0.791043700954905
 40
0.791043700954905
 40
0.9040499888180219
 40
0.9040499888180219
 40
1.017056081469229
 40
1.017056081469229
 40
1.130062174120435
 40
1.130062174120435
 40
1.24306892600581
 40
1.24306892600581
 40
1.356075677891181
 40
1.356075677891181
 40
1.356075677891181
 40
1.356075677891181
 10
723.3680718309515
 20
-147.0000000000891
 30
0.0
 10
723.633777519313
 20
-147.0000000000891
 30
0.0
 10
723.9170306171835
 20
-147.0752811439802
 30
0.0
 10
724.4378114843382
 20
-147.3814421633192
 30
0.0
 10
724.6753477201345
 20
-147.6123220136419
 30
0.0
 10
725.0503280275734
 20
-148.1450366658296
 30
0.0
 10
725.2127679905643
 20
-148.4823794194208
 30
0.0
 10
725.428138412073
 20
-149.2215172530259
 30
0.0
 10
725.4810772742421
 20
-149.6233123738793
 30
0.0
 10
725.4810772742421
 20
-150.3766869755941
 30
0.0
 10
725.4281385934738
 20
-150.7784814468541
 30
0.0
 10
725.2127688559994
 20
-151.5176182883865
 30
0.0
 10
725.0503293956935
 20
-151.8549606994984
 30
0.0
 10
724.6753495753218
 20
-152.3876760422071
 30
0.0
 10
724.4378130990335
 20
-152.6185566067115
 30
0.0
 10
723.9170315338051
 20
-152.9247185982158
 30
0.0
 10
723.6337779783022
 20
-153.0000000000896
 30
0.0
 10
723.3680718309515
 20
-153.0000000000896
 30
0.0
  0
LINE
  5
DC3
330
D32
100
AcDbEntity
  8
Visible (ISO)
100
AcDbLine
 10
719.8325379250308
 20
-153.0000000000887
 30
0.0
 11
723.3680718309515
 21
-153.0000000000896
 31
0.0
  0
SPLINE
  5
DC4
330
D32
100
AcDbEntity
  8
Visible (ISO)
100
AcDbSpline
210
0.0
220
0.0
230
1.0
 70
     8
 71
     3
 72
    23
 73
    19
 74
     0
 42
0.0000000001
 43
0.0000000001
 40
-0.4520256890731613
 40
-0.4520256890731613
 40
-0.4520256890731613
 40
-0.4520256890731613
 40
-0.3390189371877881
 40
-0.3390189371877881
 40
-0.2260121853024146
 40
-0.2260121853024146
 40
-0.1130060926512073
 40
-0.1130060926512073
 40
0.0
 40
0.0
 40
0.0
 40
0.1130062878631173
 40
0.1130062878631173
 40
0.2260125757262346
 40
0.2260125757262346
 40
0.3390191323997773
 40
0.3390191323997773
 40
0.4520256890733199
 40
0.4520256890733199
 40
0.4520256890733199
 40
0.4520256890733199
 10
723.3680718309515
 20
152.9999999999104
 30
0.0
 10
723.6337779783022
 20
152.9999999999104
 30
0.0
 10
723.9170315338051
 20
152.9247185980371
 30
0.0
 10
724.4378130990335
 20
152.6185566065319
 30
0.0
 10
724.6753495753218
 20
152.3876760420276
 30
0.0
 10
725.0503293956935
 20
151.8549606993188
 30
0.0
 10
725.2127688559994
 20
151.5176182882069
 30
0.0
 10
725.4281385934738
 20
150.778481446674
 30
0.0
 10
725.4810772742421
 20
150.376686975414
 30
0.0
 10
725.4810772742421
 20
149.9999999999099
 30
0.0
 10
725.4810772742421
 20
149.6233123736997
 30
0.0
 10
725.428138412073
 20
149.2215172528458
 30
0.0
 10
725.2127679905643
 20
148.4823794192407
 30
0.0
 10
725.0503280275734
 20
148.1450366656504
 30
0.0
 10
724.6753477201345
 20
147.6123220134618
 30
0.0
 10
724.4378114843382
 20
147.3814421631399
 30
0.0
 10
723.9170306171835
 20
147.0752811438005
 30
0.0
 10
723.633777519313
 20
146.9999999999108
 30
0.0
 10
723.3680718309515
 20
146.9999999999108
 30
0.0
  0
LINE
  5
DC5
330
D32
100
AcDbEntity
  8
Visible (ISO)
100
AcDbLine
 10
719.8325379250308
 20
146.9999999999117
 30
0.0
 11
723.3680718309515
 21
146.9999999999108
 31
0.0
  0
SPLINE
  5
DC6
330
D32
100
AcDbEntity
  8
Visible (ISO)
100
AcDbSpline
210
0.0
220
0.0
230
1.0
 70
     8
 71
     3
 72
    22
 73
    18
 74
     0
 42
0.0000000001
 43
0.0000000001
 40
0.4520242997446962
 40
0.4520242997446962
 40
0.4520242997446962
 40
0.4520242997446962
 40
0.5650308564182436
 40
0.5650308564182436
 40
0.6780374130917913
 40
0.6780374130917913
 40
0.7910437009549069
 40
0.7910437009549069
 40
0.9040499888180219
 40
0.9040499888180219
 40
1.017056081469229
 40
1.017056081469229
 40
1.130062174120435
 40
1.130062174120435
 40
1.243068926005812
 40
1.243068926005812
 40
1.356075677891189
 40
1.356075677891189
 40
1.356075677891189
 40
1.356075677891189
 10
719.8325379250197
 20
146.9999999999117
 30
0.0
 10
719.5655271949654
 20
146.9999999999117
 30
0.0
 10
719.2805567824397
 20
147.0752811438019
 30
0.0
 10
718.7560391917686
 20
147.3814421631414
 30
0.0
 10
718.5165004052143
 20
147.6123220134636
 30
0.0
 10
718.1381084266575
 20
148.1450366656518
 30
0.0
 10
717.9740347518018
 20
148.482379419243
 30
0.0
 10
717.7564276509911
 20
149.2215172528481
 30
0.0
 10
717.7029026811906
 20
149.623312373702
 30
0.0
 10
717.7029026811906
 20
150.3766869754163
 30
0.0
 10
717.7564274675459
 20
150.7784814466763
 30
0.0
 10
717.9740338775371
 20
151.5176182882087
 30
0.0
 10
718.1381070450734
 20
151.8549606993206
 30
0.0
 10
718.5164985341652
 20
152.3876760420298
 30
0.0
 10
718.7560375645626
 20
152.6185566065336
 30
0.0
 10
719.2805558601612
 20
152.9247185980384
 30
0.0
 10
719.5655267337205
 20
152.9999999999118
 30
0.0
 10
719.8325379250197
 20
152.9999999999118
 30
0.0
  0
LINE
  5
DC7
330
D32
100
AcDbEntity
  8
Visible (ISO)
100
AcDbLine
 10
723.3680718309367
 20
152.9999999999108
 30
0.0
 11
719.8325379250197
 21
152.9999999999118
 31
0.0
  0
SPLINE
  5
DC8
330
D32
100
AcDbEntity
  8
Visible (ISO)
100
AcDbSpline
210
0.0
220
0.0
230
1.0
 70
     8
 71
     3
 72
    23
 73
    19
 74
     0
 42
0.0000000001
 43
0.0000000001
 40
-0.4520256890731666
 40
-0.4520256890731666
 40
-0.4520256890731666
 40
-0.4520256890731666
 40
-0.339018937187789
 40
-0.339018937187789
 40
-0.2260121853024117
 40
-0.2260121853024117
 40
-0.1130060926512058
 40
-0.1130060926512058
 40
0.0
 40
0.0
 40
0.0
 40
0.1130062878631176
 40
0.1130062878631176
 40
0.2260125757262353
 40
0.2260125757262353
 40
0.3390191323997812
 40
0.3390191323997812
 40
0.4520256890733271
 40
0.4520256890733271
 40
0.4520256890733271
 40
0.4520256890733271
 10
-388.2175720329941
 20
152.9999999999771
 30
0.0
 10
-387.8692045179341
 20
152.9999999999771
 30
0.0
 10
-387.4975293176431
 20
152.9247185981039
 30
0.0
 10
-386.8136431230159
 20
152.6185566065992
 30
0.0
 10
-386.5014366415343
 20
152.3876760420944
 30
0.0
 10
-386.0083499247594
 20
151.8549606993856
 30
0.0
 10
-385.7946031932188
 20
151.5176182882742
 30
0.0
 10
-385.5111426545191
 20
150.7784814467413
 30
0.0
 10
-385.4414334438589
 20
150.3766869754818
 30
0.0
 10
-385.4414334438589
 20
149.9999999999771
 30
0.0
 10
-385.4414334438589
 20
149.623312373767
 30
0.0
 10
-385.5111428934179
 20
149.2215172529131
 30
0.0
 10
-385.7946043321172
 20
148.4823794193076
 30
0.0
 10
-386.0083517247332
 20
148.1450366657172
 30
0.0
 10
-386.5014390801116
 20
147.612322013529
 30
0.0
 10
-386.8136452442704
 20
147.3814421632064
 30
0.0
 10
-387.4975305204862
 20
147.0752811438669
 30
0.0
 10
-387.8692051197177
 20
146.9999999999768
 30
0.0
 10
-388.2175720329941
 20
146.9999999999768
 30
0.0
  0
LINE
  5
DC9
330
D32
100
AcDbEntity
  8
Visible (ISO)
100
AcDbLine
 10
-392.8369696955233
 20
146.9999999999768
 30
0.0
 11
-388.2175720329941
 21
146.9999999999771
 31
0.0
  0
SPLINE
  5
DCA
330
D32
100
AcDbEntity
  8
Visible (ISO)
100
AcDbSpline
210
0.0
220
0.0
230
1.0
 70
     8
 71
     3
 72
    22
 73
    18
 74
     0
 42
0.0000000001
 43
0.0000000001
 40
0.4520242997446941
 40
0.4520242997446941
 40
0.4520242997446941
 40
0.4520242997446941
 40
0.5650308564182373
 40
0.5650308564182373
 40
0.6780374130917805
 40
0.6780374130917805
 40
0.7910437009548984
 40
0.7910437009548984
 40
0.9040499888180162
 40
0.9040499888180162
 40
1.017056081469223
 40
1.017056081469223
 40
1.130062174120429
 40
1.130062174120429
 40
1.243068926005802
 40
1.243068926005802
 40
1.356075677891174
 40
1.356075677891174
 40
1.356075677891174
 40
1.356075677891174
 10
-392.8369696955487
 20
146.9999999999763
 30
0.0
 10
-393.1846303253552
 20
146.9999999999763
 30
0.0
 10
-393.5553755205838
 20
147.0752811438665
 30
0.0
 10
-394.2372384966075
 20
147.3814421632055
 30
0.0
 10
-394.5483608881077
 20
147.6123220135282
 30
0.0
 10
-395.0396018603824
 20
148.1450366657159
 30
0.0
 10
-395.2524650945088
 20
148.4823794193066
 30
0.0
 10
-395.5347160510937
 20
149.2215172529121
 30
0.0
 10
-395.6041083014825
 20
149.6233123737656
 30
0.0
 10
-395.6041083014825
 20
150.3766869754804
 30
0.0
 10
-395.5347162888867
 20
150.7784814467404
 30
0.0
 10
-395.2524662286305
 20
151.5176182882728
 30
0.0
 10
-395.0396036530691
 20
151.8549606993842
 30
0.0
 10
-394.5483633180993
 20
152.3876760420935
 30
0.0
 10
-394.2372406110953
 20
152.6185566065983
 30
0.0
 10
-393.555376720371
 20
152.924718598103
 30
0.0
 10
-393.1846309259163
 20
152.9999999999763
 30
0.0
 10
-392.8369696955487
 20
152.9999999999768
 30
0.0
  0
LINE
  5
DCB
330
D32
100
AcDbEntity
  8
Visible (ISO)
100
AcDbLine
 10
-388.2175720329978
 20
152.9999999999771
 30
0.0
 11
-392.8369696955524
 21
152.9999999999768
 31
0.0
  0
LINE
  5
DCC
330
D32
100
AcDbEntity
  8
Visible (ISO)
100
AcDbLine
 10
-0.0000000000436557
 20
152.9999999999995
 30
0.0
 11
-2.5
 21
152.9999999999995
 31
0.0
  0
LINE
  5
DCD
330
D32
100
AcDbEntity
  8
Visible (ISO)
100
AcDbLine
 10
-2.500000000003635
 20
147.0
 30
0.0
 11
0.0
 21
147.0
 31
0.0
  0
SPLINE
  5
DCE
330
D32
100
AcDbEntity
  8
Visible (ISO)
100
AcDbSpline
210
0.0
220
0.0
230
1.0
 70
     8
 71
     3
 72
    22
 73
    18
 74
     0
 42
0.0000000001
 43
0.0000000001
 40
0.4520242997446922
 40
0.4520242997446922
 40
0.4520242997446922
 40
0.4520242997446922
 40
0.5650310516300685
 40
0.5650310516300685
 40
0.6780378035154448
 40
0.6780378035154448
 40
0.7910438961666522
 40
0.7910438961666522
 40
0.9040499888178599
 40
0.9040499888178599
 40
1.017056081469067
 40
1.017056081469067
 40
1.130062174120274
 40
1.130062174120274
 40
1.24306892600565
 40
1.24306892600565
 40
1.356075677891027
 40
1.356075677891027
 40
1.356075677891027
 40
1.356075677891027
 10
-2.5
 20
147.0
 30
0.0
 10
-2.876688042615568
 20
147.0
 30
0.0
 10
-3.278483389636676
 20
147.0752814018733
 30
0.0
 10
-4.017622009603655
 20
147.381443393378
 30
0.0
 10
-4.3549653355185
 20
147.6123239578823
 30
0.0
 10
-4.887679297189606
 20
148.1450393005911
 30
0.0
 10
-5.11855859048228
 20
148.482381711703
 30
0.0
 10
-5.424718960446623
 20
149.2215185532359
 30
0.0
 10
-5.499999999996362
 20
149.6233130244959
 30
0.0
 10
-5.499999999996362
 20
150.3766869755036
 30
0.0
 10
-5.424718960446623
 20
150.7784814467636
 30
0.0
 10
-5.11855859048228
 20
151.5176182882965
 30
0.0
 10
-4.887679297189606
 20
151.8549606994083
 30
0.0
 10
-4.3549653355185
 20
152.3876760421171
 30
0.0
 10
-4.017622009603655
 20
152.6185566066219
 30
0.0
 10
-3.278483389636676
 20
152.9247185981267
 30
0.0
 10
-2.876688042615568
 20
152.9999999999995
 30
0.0
 10
-2.5
 20
152.9999999999995
 30
0.0
  0
SPLINE
  5
DCF
330
D32
100
AcDbEntity
  8
Visible (ISO)
100
AcDbSpline
210
0.0
220
0.0
230
1.0
 70
     8
 71
     3
 72
    23
 73
    19
 74
     0
 42
0.0000000001
 43
0.0000000001
 40
-0.4520256890731666
 40
-0.4520256890731666
 40
-0.4520256890731666
 40
-0.4520256890731666
 40
-0.3390189371877912
 40
-0.3390189371877912
 40
-0.2260121853024157
 40
-0.2260121853024157
 40
-0.1130060926512078
 40
-0.1130060926512078
 40
0.0
 40
0.0
 40
0.0
 40
0.1130062878631181
 40
0.1130062878631181
 40
0.2260125757262362
 40
0.2260125757262362
 40
0.3390191323997803
 40
0.3390191323997803
 40
0.4520256890733246
 40
0.4520256890733246
 40
0.4520256890733246
 40
0.4520256890733246
 10
-1020.496937771006
 20
152.9999999996976
 30
0.0
 10
-1020.496014965583
 20
152.9999999996976
 30
0.0
 10
-1020.494800638338
 20
152.9247185978247
 30
0.0
 10
-1020.492158370953
 20
152.6185566063204
 30
0.0
 10
-1020.490742351363
 20
152.3876760418156
 30
0.0
 10
-1020.488329937276
 20
151.8549606991068
 30
0.0
 10
-1020.487174731815
 20
151.5176182879954
 30
0.0
 10
-1020.485593165513
 20
150.7784814464626
 30
0.0
 10
-1020.485178726276
 20
150.3766869752025
 30
0.0
 10
-1020.485178726276
 20
149.9999999996985
 30
0.0
 10
-1020.485178726276
 20
149.6233123734882
 30
0.0
 10
-1020.485593166957
 20
149.2215172526344
 30
0.0
 10
-1020.487174738058
 20
148.4823794190291
 30
0.0
 10
-1020.488329946796
 20
148.1450366654385
 30
0.0
 10
-1020.490742362577
 20
147.6123220132499
 30
0.0
 10
-1020.492158379799
 20
147.3814421629277
 30
0.0
 10
-1020.494800642338
 20
147.0752811435881
 30
0.0
 10
-1020.496014967179
 20
146.999999999698
 30
0.0
 10
-1020.496937771006
 20
146.9999999996976
 30
0.0
  0
LINE
  5
DD0
330
D32
100
AcDbEntity
  8
Visible (ISO)
100
AcDbLine
 10
-1020.499999999998
 20
146.9999999996967
 30
0.0
 11
-1020.496937771004
 21
146.9999999996976
 31
0.0
  0
LINE
  5
DD1
330
D32
100
AcDbEntity
  8
Visible (ISO)
100
AcDbLine
 10
-1020.496937771006
 20
152.9999999996976
 30
0.0
 11
-1020.5
 21
152.9999999996967
 31
0.0
  0
SPLINE
  5
DD2
330
D32
100
AcDbEntity
  8
Visible (ISO)
100
AcDbSpline
210
0.0
220
0.0
230
1.0
 70
     8
 71
     3
 72
    23
 73
    19
 74
     0
 42
0.0000000001
 43
0.0000000001
 40
-0.4520256890731629
 40
-0.4520256890731629
 40
-0.4520256890731629
 40
-0.4520256890731629
 40
-0.3390189371877896
 40
-0.3390189371877896
 40
-0.2260121853024164
 40
-0.2260121853024164
 40
-0.1130060926512082
 40
-0.1130060926512082
 40
0.0
 40
0.0
 40
0.0
 40
0.1130062878631167
 40
0.1130062878631167
 40
0.2260125757262335
 40
0.2260125757262335
 40
0.3390191323997793
 40
0.3390191323997793
 40
0.4520256890733254
 40
0.4520256890733254
 40
0.4520256890733254
 40
0.4520256890733254
 10
-941.8595252161631
 20
152.9999999998135
 30
0.0
 10
-941.7145203820435
 20
152.9999999998135
 30
0.0
 10
-941.5596380674488
 20
152.9247185979406
 30
0.0
 10
-941.2743408266106
 20
152.6185566064359
 30
0.0
 10
-941.1439368932459
 20
152.3876760419316
 30
0.0
 10
-940.937847305924
 20
151.8549606992228
 30
0.0
 10
-940.8484263548253
 20
151.5176182881109
 30
0.0
 10
-940.7298026768566
 20
150.7784814465781
 30
0.0
 10
-940.7006109783194
 20
150.3766869753185
 30
0.0
 10
-940.7006109783194
 20
149.9999999998144
 30
0.0
 10
-940.7006109783194
 20
149.6233123736042
 30
0.0
 10
-940.7298027769156
 20
149.2215172527499
 30
0.0
 10
-940.8484268313513
 20
148.4823794191447
 30
0.0
 10
-940.9378480587855
 20
148.1450366655544
 30
0.0
 10
-941.1439379119183
 20
147.6123220133659
 30
0.0
 10
-941.2743417120328
 20
147.3814421630436
 30
0.0
 10
-941.559638568744
 20
147.0752811437041
 30
0.0
 10
-941.7145206325294
 20
146.999999999814
 30
0.0
 10
-941.8595252161631
 20
146.9999999998135
 30
0.0
  0
LINE
  5
DD3
330
D32
100
AcDbEntity
  8
Visible (ISO)
100
AcDbLine
 10
-943.7729423780076
 20
146.9999999998126
 30
0.0
 11
-941.8595252161631
 21
146.999999999814
 31
0.0
  0
SPLINE
  5
DD4
330
D32
100
AcDbEntity
  8
Visible (ISO)
100
AcDbSpline
210
0.0
220
0.0
230
1.0
 70
     8
 71
     3
 72
    22
 73
    18
 74
     0
 42
0.0000000001
 43
0.0000000001
 40
0.4520242997446859
 40
0.4520242997446859
 40
0.4520242997446859
 40
0.4520242997446859
 40
0.565030856418229
 40
0.565030856418229
 40
0.6780374130917715
 40
0.6780374130917715
 40
0.7910437009548927
 40
0.7910437009548927
 40
0.9040499888180139
 40
0.9040499888180139
 40
1.01705608146922
 40
1.01705608146922
 40
1.130062174120429
 40
1.130062174120429
 40
1.24306892600581
 40
1.24306892600581
 40
1.356075677891188
 40
1.356075677891188
 40
1.356075677891188
 40
1.356075677891188
 10
-943.7729423779874
 20
146.9999999998122
 30
0.0
 10
-943.9162418424857
 20
146.9999999998122
 30
0.0
 10
-944.0688801265364
 20
147.0752811437019
 30
0.0
 10
-944.3492947186914
 20
147.3814421630413
 30
0.0
 10
-944.477082060148
 20
147.6123220133631
 30
0.0
 10
-944.678714350157
 20
148.1450366655517
 30
0.0
 10
-944.7660010301715
 20
148.482379419142
 30
0.0
 10
-944.8817027222647
 20
149.2215172527471
 30
0.0
 10
-944.9101287343363
 20
149.623312373601
 30
0.0
 10
-944.9101287343363
 20
150.3766869753153
 30
0.0
 10
-944.8817028196573
 20
150.7784814465753
 30
0.0
 10
-944.7660014951615
 20
151.5176182881082
 30
0.0
 10
-944.6787150854234
 20
151.85496069922
 30
0.0
 10
-944.4770830580999
 20
152.3876760419293
 30
0.0
 10
-944.3492955877699
 20
152.6185566064341
 30
0.0
 10
-944.0688806204452
 20
152.9247185979388
 30
0.0
 10
-943.9162420900263
 20
152.9999999998117
 30
0.0
 10
-943.7729423779874
 20
152.9999999998122
 30
0.0
  0
LINE
  5
DD5
330
D32
100
AcDbEntity
  8
Visible (ISO)
100
AcDbLine
 10
-941.8595252161704
 20
152.9999999998135
 30
0.0
 11
-943.7729423779874
 21
152.9999999998122
 31
0.0
  0
LINE
  5
DD6
330
D32
100
AcDbEntity
  8
Visible (ISO)
100
AcDbLine
 10
-2.500000000003635
 20
-153.0000000000004
 30
0.0
 11
0.0
 21
-153.0000000000004
 31
0.0
  0
LINE
  5
DD7
330
D32
100
AcDbEntity
  8
Visible (ISO)
100
AcDbLine
 10
-0.0000000000436557
 20
-147.0
 30
0.0
 11
-2.5
 21
-147.0
 31
0.0
  0
SPLINE
  5
DD8
330
D32
100
AcDbEntity
  8
Visible (ISO)
100
AcDbSpline
210
0.0
220
0.0
230
1.0
 70
     8
 71
     3
 72
    23
 73
    19
 74
     0
 42
0.0000000001
 43
0.0000000001
 40
-0.4520256890731666
 40
-0.4520256890731666
 40
-0.4520256890731666
 40
-0.4520256890731666
 40
-0.3390189371877912
 40
-0.3390189371877912
 40
-0.2260121853024157
 40
-0.2260121853024157
 40
-0.1130060926512078
 40
-0.1130060926512078
 40
0.0
 40
0.0
 40
0.0
 40
0.1130062878631181
 40
0.1130062878631181
 40
0.2260125757262362
 40
0.2260125757262362
 40
0.3390191323997802
 40
0.3390191323997802
 40
0.4520256890733246
 40
0.4520256890733246
 40
0.4520256890733246
 40
0.4520256890733246
 10
-2.5
 20
-153.0000000000004
 30
0.0
 10
-2.876688042615568
 20
-153.0000000000004
 30
0.0
 10
-3.278483389636676
 20
-152.9247185981271
 30
0.0
 10
-4.017622009603655
 20
-152.6185566066224
 30
0.0
 10
-4.3549653355185
 20
-152.3876760421176
 30
0.0
 10
-4.887679297189606
 20
-151.8549606994088
 30
0.0
 10
-5.11855859048228
 20
-151.5176182882969
 30
0.0
 10
-5.424718960446623
 20
-150.7784814467645
 30
0.0
 10
-5.499999999996362
 20
-150.3766869755045
 30
0.0
 10
-5.499999999996362
 20
-150.0
 30
0.0
 10
-5.499999999996362
 20
-149.6233123737897
 30
0.0
 10
-5.424718702462996
 20
-149.2215172529363
 30
0.0
 10
-5.118557360328848
 20
-148.4823794193307
 30
0.0
 10
-4.887677352857281
 20
-148.14503666574
 30
0.0
 10
-4.354962700672331
 20
-147.6123220135523
 30
0.0
 10
-4.017619717236811
 20
-147.3814421632296
 30
0.0
 10
-3.278482089343015
 20
-147.0752811438901
 30
0.0
 10
-2.876687391912127
 20
-147.0
 30
0.0
 10
-2.5
 20
-147.0
 30
0.0
  0
LINE
  5
DD9
330
D32
100
AcDbEntity
  8
Visible (ISO)
100
AcDbLine
 10
-1020.496937771006
 20
-147.0000000003019
 30
0.0
 11
-1020.5
 21
-147.0000000003028
 31
0.0
  0
SPLINE
  5
DDA
330
D32
100
AcDbEntity
  8
Visible (ISO)
100
AcDbSpline
210
0.0
220
0.0
230
1.0
 70
     8
 71
     3
 72
    22
 73
    18
 74
     0
 42
0.0000000001
 43
0.0000000001
 40
0.4520242997446945
 40
0.4520242997446945
 40
0.4520242997446945
 40
0.4520242997446945
 40
0.5650308564182384
 40
0.5650308564182384
 40
0.6780374130917825
 40
0.6780374130917825
 40
0.7910437009549005
 40
0.7910437009549005
 40
0.9040499888180184
 40
0.9040499888180184
 40
1.017056081469224
 40
1.017056081469224
 40
1.130062174120432
 40
1.130062174120432
 40
1.243068926005807
 40
1.243068926005807
 40
1.356075677891183
 40
1.356075677891183
 40
1.356075677891183
 40
1.356075677891183
 10
-1020.496937771006
 20
-147.0000000003024
 30
0.0
 10
-1020.496014967179
 20
-147.0000000003019
 30
0.0
 10
-1020.494800642338
 20
-147.0752811441921
 30
0.0
 10
-1020.492158379799
 20
-147.3814421635311
 30
0.0
 10
-1020.490742362577
 20
-147.6123220138538
 30
0.0
 10
-1020.488329946796
 20
-148.1450366660415
 30
0.0
 10
-1020.487174738058
 20
-148.4823794196318
 30
0.0
 10
-1020.485593166957
 20
-149.2215172532374
 30
0.0
 10
-1020.485178726276
 20
-149.6233123740908
 30
0.0
 10
-1020.485178726276
 20
-150.3766869758055
 30
0.0
 10
-1020.485593165513
 20
-150.7784814470656
 30
0.0
 10
-1020.487174731815
 20
-151.517618288598
 30
0.0
 10
-1020.488329937276
 20
-151.8549606997098
 30
0.0
 10
-1020.490742351363
 20
-152.3876760424191
 30
0.0
 10
-1020.492158370953
 20
-152.6185566069239
 30
0.0
 10
-1020.494800638338
 20
-152.9247185984286
 30
0.0
 10
-1020.496014965583
 20
-153.0000000003024
 30
0.0
 10
-1020.496937771006
 20
-153.0000000003024
 30
0.0
  0
LINE
  5
DDB
330
D32
100
AcDbEntity
  8
Visible (ISO)
100
AcDbLine
 10
-1020.499999999998
 20
-153.0000000003033
 30
0.0
 11
-1020.496937771004
 21
-153.0000000003024
 31
0.0
  0
SPLINE
  5
DDC
330
D32
100
AcDbEntity
  8
Visible (ISO)
100
AcDbSpline
210
0.0
220
0.0
230
1.0
 70
     8
 71
     3
 72
    22
 73
    18
 74
     0
 42
0.0000000001
 43
0.0000000001
 40
0.4520242997446941
 40
0.4520242997446941
 40
0.4520242997446941
 40
0.4520242997446941
 40
0.5650308564182402
 40
0.5650308564182402
 40
0.6780374130917858
 40
0.6780374130917858
 40
0.7910437009549025
 40
0.7910437009549025
 40
0.9040499888180193
 40
0.9040499888180193
 40
1.017056081469227
 40
1.017056081469227
 40
1.130062174120435
 40
1.130062174120435
 40
1.243068926005806
 40
1.243068926005806
 40
1.35607567789118
 40
1.35607567789118
 40
1.35607567789118
 40
1.35607567789118
 10
-941.8595252161631
 20
-147.0000000001864
 30
0.0
 10
-941.7145206325294
 20
-147.0000000001864
 30
0.0
 10
-941.559638568744
 20
-147.0752811440761
 30
0.0
 10
-941.2743417120328
 20
-147.3814421634151
 30
0.0
 10
-941.1439379119183
 20
-147.6123220137378
 30
0.0
 10
-940.9378480587855
 20
-148.1450366659255
 30
0.0
 10
-940.8484268313513
 20
-148.4823794195167
 30
0.0
 10
-940.7298027769156
 20
-149.2215172531214
 30
0.0
 10
-940.7006109783194
 20
-149.6233123739753
 30
0.0
 10
-940.7006109783194
 20
-150.3766869756896
 30
0.0
 10
-940.7298026768566
 20
-150.7784814469496
 30
0.0
 10
-940.8484263548253
 20
-151.5176182884825
 30
0.0
 10
-940.937847305924
 20
-151.8549606995939
 30
0.0
 10
-941.1439368932459
 20
-152.3876760423031
 30
0.0
 10
-941.2743408266106
 20
-152.6185566068079
 30
0.0
 10
-941.5596380674488
 20
-152.9247185983126
 30
0.0
 10
-941.7145203820435
 20
-153.0000000001864
 30
0.0
 10
-941.8595252161631
 20
-153.0000000001864
 30
0.0
  0
LINE
  5
DDD
330
D32
100
AcDbEntity
  8
Visible (ISO)
100
AcDbLine
 10
-941.8595252161704
 20
-147.0000000001864
 30
0.0
 11
-943.7729423779874
 21
-147.0000000001878
 31
0.0
  0
SPLINE
  5
DDE
330
D32
100
AcDbEntity
  8
Visible (ISO)
100
AcDbSpline
210
0.0
220
0.0
230
1.0
 70
     8
 71
     3
 72
    23
 73
    19
 74
     0
 42
0.0000000001
 43
0.0000000001
 40
-0.4520256890731762
 40
-0.4520256890731762
 40
-0.4520256890731762
 40
-0.4520256890731762
 40
-0.3390189371877967
 40
-0.3390189371877967
 40
-0.2260121853024175
 40
-0.2260121853024175
 40
-0.1130060926512086
 40
-0.1130060926512086
 40
0.0
 40
0.0
 40
0.0
 40
0.1130062878631213
 40
0.1130062878631213
 40
0.2260125757262426
 40
0.2260125757262426
 40
0.3390191323997854
 40
0.3390191323997854
 40
0.4520256890733282
 40
0.4520256890733282
 40
0.4520256890733282
 40
0.4520256890733282
 10
-943.7729423779874
 20
-153.0000000001878
 30
0.0
 10
-943.9162420900263
 20
-153.0000000001883
 30
0.0
 10
-944.0688806204452
 20
-152.9247185983145
 30
0.0
 10
-944.3492955877699
 20
-152.6185566068102
 30
0.0
 10
-944.4770830580999
 20
-152.3876760423054
 30
0.0
 10
-944.6787150854234
 20
-151.8549606995966
 30
0.0
 10
-944.7660014951615
 20
-151.5176182884852
 30
0.0
 10
-944.8817028196573
 20
-150.7784814469528
 30
0.0
 10
-944.9101287343363
 20
-150.3766869756928
 30
0.0
 10
-944.9101287343363
 20
-150.0000000001882
 30
0.0
 10
-944.9101287343363
 20
-149.623312373978
 30
0.0
 10
-944.8817027222647
 20
-149.2215172531246
 30
0.0
 10
-944.7660010301715
 20
-148.482379419519
 30
0.0
 10
-944.678714350157
 20
-148.1450366659283
 30
0.0
 10
-944.477082060148
 20
-147.6123220137401
 30
0.0
 10
-944.3492947186914
 20
-147.3814421634174
 30
0.0
 10
-944.0688801265364
 20
-147.0752811440779
 30
0.0
 10
-943.9162418424857
 20
-147.0000000001878
 30
0.0
 10
-943.7729423779874
 20
-147.0000000001878
 30
0.0
  0
LINE
  5
DDF
330
D32
100
AcDbEntity
  8
Visible (ISO)
100
AcDbLine
 10
-943.7729423780076
 20
-153.0000000001878
 30
0.0
 11
-941.8595252161631
 21
-153.0000000001864
 31
0.0
  0
SPLINE
  5
DE0
330
D32
100
AcDbEntity
  8
Visible (ISO)
100
AcDbSpline
210
0.0
220
0.0
230
1.0
 70
     8
 71
     3
 72
    22
 73
    18
 74
     0
 42
0.0000000001
 43
0.0000000001
 40
0.4520242997446962
 40
0.4520242997446962
 40
0.4520242997446962
 40
0.4520242997446962
 40
0.5650308564182424
 40
0.5650308564182424
 40
0.6780374130917881
 40
0.6780374130917881
 40
0.7910437009549059
 40
0.7910437009549059
 40
0.9040499888180232
 40
0.9040499888180232
 40
1.017056081469229
 40
1.017056081469229
 40
1.130062174120435
 40
1.130062174120435
 40
1.243068926005812
 40
1.243068926005812
 40
1.356075677891187
 40
1.356075677891187
 40
1.356075677891187
 40
1.356075677891187
 10
-388.2175720329941
 20
-147.0000000000232
 30
0.0
 10
-387.8692051197177
 20
-147.0000000000232
 30
0.0
 10
-387.4975305204862
 20
-147.0752811439129
 30
0.0
 10
-386.8136452442704
 20
-147.3814421632523
 30
0.0
 10
-386.5014390801116
 20
-147.6123220135746
 30
0.0
 10
-386.0083517247332
 20
-148.1450366657627
 30
0.0
 10
-385.7946043321172
 20
-148.482379419353
 30
0.0
 10
-385.5111428934179
 20
-149.2215172529581
 30
0.0
 10
-385.4414334438589
 20
-149.6233123738125
 30
0.0
 10
-385.4414334438589
 20
-150.3766869755263
 30
0.0
 10
-385.5111426545191
 20
-150.7784814467864
 30
0.0
 10
-385.7946031932188
 20
-151.5176182883197
 30
0.0
 10
-386.0083499247594
 20
-151.8549606994311
 30
0.0
 10
-386.5014366415343
 20
-152.3876760421403
 30
0.0
 10
-386.8136431230159
 20
-152.6185566066451
 30
0.0
 10
-387.4975293176431
 20
-152.9247185981498
 30
0.0
 10
-387.8692045179341
 20
-153.0000000000226
 30
0.0
 10
-388.2175720329941
 20
-153.0000000000226
 30
0.0
  0
LINE
  5
DE1
330
D32
100
AcDbEntity
  8
Visible (ISO)
100
AcDbLine
 10
-388.2175720329978
 20
-147.0000000000232
 30
0.0
 11
-392.8369696955524
 21
-147.0000000000241
 31
0.0
  0
SPLINE
  5
DE2
330
D32
100
AcDbEntity
  8
Visible (ISO)
100
AcDbSpline
210
0.0
220
0.0
230
1.0
 70
     8
 71
     3
 72
    23
 73
    19
 74
     0
 42
0.0000000001
 43
0.0000000001
 40
-0.4520256890731602
 40
-0.4520256890731602
 40
-0.4520256890731602
 40
-0.4520256890731602
 40
-0.3390189371877894
 40
-0.3390189371877894
 40
-0.2260121853024188
 40
-0.2260121853024188
 40
-0.1130060926512095
 40
-0.1130060926512095
 40
0.0
 40
0.0
 40
0.0
 40
0.1130062878631179
 40
0.1130062878631179
 40
0.2260125757262358
 40
0.2260125757262358
 40
0.339019132399779
 40
0.339019132399779
 40
0.4520256890733223
 40
0.4520256890733223
 40
0.4520256890733223
 40
0.4520256890733223
 10
-392.8369696955487
 20
-153.0000000000232
 30
0.0
 10
-393.1846309259163
 20
-153.0000000000236
 30
0.0
 10
-393.555376720371
 20
-152.9247185981503
 30
0.0
 10
-394.2372406110953
 20
-152.618556606646
 30
0.0
 10
-394.5483633180993
 20
-152.3876760421412
 30
0.0
 10
-395.0396036530691
 20
-151.8549606994324
 30
0.0
 10
-395.2524662286305
 20
-151.5176182883206
 30
0.0
 10
-395.5347162888867
 20
-150.7784814467877
 30
0.0
 10
-395.6041083014825
 20
-150.3766869755277
 30
0.0
 10
-395.6041083014825
 20
-150.0000000000241
 30
0.0
 10
-395.6041083014825
 20
-149.6233123738134
 30
0.0
 10
-395.5347160510937
 20
-149.2215172529595
 30
0.0
 10
-395.2524650945088
 20
-148.4823794193544
 30
0.0
 10
-395.0396018603824
 20
-148.1450366657641
 30
0.0
 10
-394.5483608881077
 20
-147.6123220135755
 30
0.0
 10
-394.2372384966075
 20
-147.3814421632532
 30
0.0
 10
-393.5553755205838
 20
-147.0752811439138
 30
0.0
 10
-393.1846303253552
 20
-147.0000000000236
 30
0.0
 10
-392.8369696955487
 20
-147.0000000000236
 30
0.0
  0
LINE
  5
DE3
330
D32
100
AcDbEntity
  8
Visible (ISO)
100
AcDbLine
 10
-392.8369696955233
 20
-153.0000000000232
 30
0.0
 11
-388.2175720329941
 21
-153.0000000000226
 31
0.0
  0
LINE
  5
DE4
330
D32
100
AcDbEntity
  8
Visible (ISO)
100
AcDbLine
 10
0.0
 20
-147.0
 30
0.0
 11
0.0
 21
147.0
 31
0.0
  0
LINE
  5
DE5
330
D32
100
AcDbEntity
  8
Visible (ISO)
100
AcDbLine
 10
0.0
 20
152.9999999999995
 30
0.0
 11
0.0
 21
207.4999999999995
 31
0.0
  0
LINE
  5
DE6
330
D32
100
AcDbEntity
  8
Visible (ISO)
100
AcDbLine
 10
-1020.5
 20
207.4999999996967
 30
0.0
 11
-1020.5
 21
152.9999999996967
 31
0.0
  0
LINE
  5
DE7
330
D32
100
AcDbEntity
  8
Visible (ISO)
100
AcDbLine
 10
0.0
 20
-207.5000000000005
 30
0.0
 11
0.0
 21
-153.0000000000004
 31
0.0
  0
LINE
  5
DE8
330
D32
100
AcDbEntity
  8
Visible (ISO)
100
AcDbLine
 10
-1020.5
 20
146.9999999996971
 30
0.0
 11
-1020.5
 21
-147.0000000003028
 31
0.0
  0
LINE
  5
DE9
330
D32
100
AcDbEntity
  8
Visible (ISO)
100
AcDbLine
 10
-771.5212804668173
 20
207.4999999998949
 30
0.0
 11
0.0
 21
207.4999999999995
 31
0.0
  0
LINE
  5
DEA
330
D32
100
AcDbEntity
  8
Visible (ISO)
100
AcDbLine
 10
-996.2833684379274
 20
207.4999999997626
 30
0.0
 11
-795.4273466425766
 21
207.4999999998863
 31
0.0
  0
LINE
  5
DEB
330
D32
100
AcDbEntity
  8
Visible (ISO)
100
AcDbLine
 10
-1020.5
 20
207.4999999996967
 30
0.0
 11
-1020.189434613689
 21
207.4999999997044
 31
0.0
  0
LINE
  5
DEC
330
D32
100
AcDbEntity
  8
Visible (ISO)
100
AcDbLine
 10
-1020.5
 20
-153.0000000003033
 30
0.0
 11
-1020.5
 21
-207.5000000003033
 31
0.0
  0
LINE
  5
DED
330
D32
100
AcDbEntity
  8
Visible (ISO)
100
AcDbLine
 10
-1020.189434613683
 20
-207.5000000002956
 30
0.0
 11
-1020.500000000001
 21
-207.5000000003033
 31
0.0
  0
LINE
  5
DEE
330
D32
100
AcDbEntity
  8
Visible (ISO)
100
AcDbLine
 10
0.0
 20
-207.5000000000005
 30
0.0
 11
-996.2833684379219
 21
-207.5000000002374
 31
0.0
  0
SPLINE
  5
DEF
330
D32
100
AcDbEntity
  8
Visible (ISO)
100
AcDbSpline
210
0.0
220
0.0
230
1.0
 70
     8
 71
     3
 72
    23
 73
    19
 74
     0
 42
0.0000000001
 43
0.0000000001
 40
1.356074288562709
 40
1.356074288562709
 40
1.356074288562709
 40
1.356074288562709
 40
1.469081040448086
 40
1.469081040448086
 40
1.582087792333464
 40
1.582087792333464
 40
1.695093884984669
 40
1.695093884984669
 40
1.808099977635879
 40
1.808099977635879
 40
1.808099977635879
 40
1.921106265498994
 40
1.921106265498994
 40
2.034112553362108
 40
2.034112553362108
 40
2.147119110035657
 40
2.147119110035657
 40
2.260125666709205
 40
2.260125666709205
 40
2.260125666709205
 40
2.260125666709205
 10
-723.3680718309515
 20
-153.0000000000896
 30
0.0
 10
-723.6337779783042
 20
-153.0000000000896
 30
0.0
 10
-723.9170315338051
 20
-152.9247185982162
 30
0.0
 10
-724.4378130990335
 20
-152.6185566067115
 30
0.0
 10
-724.6753495753218
 20
-152.3876760422071
 30
0.0
 10
-725.0503293956917
 20
-151.8549606994984
 30
0.0
 10
-725.2127688559994
 20
-151.5176182883865
 30
0.0
 10
-725.4281385934755
 20
-150.7784814468541
 30
0.0
 10
-725.4810772742421
 20
-150.3766869755941
 30
0.0
 10
-725.4810772742421
 20
-150.00000000009
 30
0.0
 10
-725.4810772742421
 20
-149.6233123738793
 30
0.0
 10
-725.428138412073
 20
-149.2215172530259
 30
0.0
 10
-725.2127679905661
 20
-148.4823794194208
 30
0.0
 10
-725.0503280275752
 20
-148.1450366658296
 30
0.0
 10
-724.6753477201328
 20
-147.6123220136414
 30
0.0
 10
-724.43781148434
 20
-147.3814421633192
 30
0.0
 10
-723.9170306171835
 20
-147.0752811439797
 30
0.0
 10
-723.6337775193152
 20
-147.0000000000891
 30
0.0
 10
-723.3680718309515
 20
-147.0000000000891
 30
0.0
  0
LINE
  5
DF0
330
D32
100
AcDbEntity
  8
Visible (ISO)
100
AcDbLine
 10
-719.8325379250363
 20
-147.0000000000887
 30
0.0
 11
-723.3680718309515
 21
-147.0000000000896
 31
0.0
  0
SPLINE
  5
DF1
330
D32
100
AcDbEntity
  8
Visible (ISO)
100
AcDbSpline
210
0.0
220
0.0
230
1.0
 70
     8
 71
     3
 72
    22
 73
    18
 74
     0
 42
0.0000000001
 43
0.0000000001
 40
0.4520242997447025
 40
0.4520242997447025
 40
0.4520242997447025
 40
0.4520242997447025
 40
0.5650308564182449
 40
0.5650308564182449
 40
0.6780374130917874
 40
0.6780374130917874
 40
0.791043700954905
 40
0.791043700954905
 40
0.9040499888180219
 40
0.9040499888180219
 40
1.017056081469229
 40
1.017056081469229
 40
1.130062174120435
 40
1.130062174120435
 40
1.24306892600581
 40
1.24306892600581
 40
1.356075677891181
 40
1.356075677891181
 40
1.356075677891181
 40
1.356075677891181
 10
-719.8325379250182
 20
-147.0000000000882
 30
0.0
 10
-719.5655271949654
 20
-147.0000000000882
 30
0.0
 10
-719.280556782436
 20
-147.0752811439783
 30
0.0
 10
-718.7560391917668
 20
-147.3814421633174
 30
0.0
 10
-718.5165004052122
 20
-147.6123220136396
 30
0.0
 10
-718.1381084266575
 20
-148.1450366658277
 30
0.0
 10
-717.9740347518018
 20
-148.4823794194185
 30
0.0
 10
-717.7564276509892
 20
-149.2215172530236
 30
0.0
 10
-717.7029026811887
 20
-149.6233123738775
 30
0.0
 10
-717.7029026811887
 20
-150.3766869755918
 30
0.0
 10
-717.7564274675459
 20
-150.7784814468518
 30
0.0
 10
-717.9740338775391
 20
-151.5176182883842
 30
0.0
 10
-718.1381070450716
 20
-151.8549606994966
 30
0.0
 10
-718.5164985341652
 20
-152.3876760422053
 30
0.0
 10
-718.7560375645642
 20
-152.6185566067097
 30
0.0
 10
-719.2805558601628
 20
-152.9247185982144
 30
0.0
 10
-719.5655267337205
 20
-153.0000000000882
 30
0.0
 10
-719.8325379250182
 20
-153.0000000000882
 30
0.0
  0
LINE
  5
DF2
330
D32
100
AcDbEntity
  8
Visible (ISO)
100
AcDbLine
 10
-723.3680718309367
 20
-153.0000000000891
 30
0.0
 11
-719.8325379250182
 21
-153.0000000000882
 31
0.0
  0
SPLINE
  5
DF3
330
D32
100
AcDbEntity
  8
Visible (ISO)
100
AcDbSpline
210
0.0
220
0.0
230
1.0
 70
     8
 71
     3
 72
    23
 73
    19
 74
     0
 42
0.0000000001
 43
0.0000000001
 40
-0.4520256890731613
 40
-0.4520256890731613
 40
-0.4520256890731613
 40
-0.4520256890731613
 40
-0.3390189371877881
 40
-0.3390189371877881
 40
-0.2260121853024146
 40
-0.2260121853024146
 40
-0.1130060926512073
 40
-0.1130060926512073
 40
0.0
 40
0.0
 40
0.0
 40
0.1130062878631173
 40
0.1130062878631173
 40
0.2260125757262346
 40
0.2260125757262346
 40
0.3390191323997773
 40
0.3390191323997773
 40
0.4520256890733199
 40
0.4520256890733199
 40
0.4520256890733199
 40
0.4520256890733199
 10
-719.8325379250182
 20
152.9999999999118
 30
0.0
 10
-719.5655267337205
 20
152.9999999999118
 30
0.0
 10
-719.2805558601628
 20
152.924718598038
 30
0.0
 10
-718.7560375645642
 20
152.6185566065336
 30
0.0
 10
-718.5164985341652
 20
152.3876760420294
 30
0.0
 10
-718.1381070450716
 20
151.8549606993206
 30
0.0
 10
-717.9740338775391
 20
151.5176182882087
 30
0.0
 10
-717.7564274675459
 20
150.7784814466763
 30
0.0
 10
-717.7029026811887
 20
150.3766869754163
 30
0.0
 10
-717.7029026811887
 20
149.9999999999122
 30
0.0
 10
-717.7029026811887
 20
149.623312373702
 30
0.0
 10
-717.7564276509892
 20
149.2215172528481
 30
0.0
 10
-717.9740347518018
 20
148.482379419243
 30
0.0
 10
-718.1381084266575
 20
148.1450366656518
 30
0.0
 10
-718.5165004052122
 20
147.6123220134636
 30
0.0
 10
-718.7560391917668
 20
147.3814421631414
 30
0.0
 10
-719.280556782436
 20
147.0752811438019
 30
0.0
 10
-719.5655271949654
 20
146.9999999999117
 30
0.0
 10
-719.8325379250182
 20
146.9999999999117
 30
0.0
  0
LINE
  5
DF4
330
D32
100
AcDbEntity
  8
Visible (ISO)
100
AcDbLine
 10
-723.3680718309367
 20
146.9999999999113
 30
0.0
 11
-719.8325379250182
 21
146.9999999999122
 31
0.0
  0
SPLINE
  5
DF5
330
D32
100
AcDbEntity
  8
Visible (ISO)
100
AcDbSpline
210
0.0
220
0.0
230
1.0
 70
     8
 71
     3
 72
    22
 73
    18
 74
     0
 42
0.0000000001
 43
0.0000000001
 40
0.4520242997446962
 40
0.4520242997446962
 40
0.4520242997446962
 40
0.4520242997446962
 40
0.5650308564182436
 40
0.5650308564182436
 40
0.6780374130917913
 40
0.6780374130917913
 40
0.7910437009549069
 40
0.7910437009549069
 40
0.9040499888180219
 40
0.9040499888180219
 40
1.017056081469229
 40
1.017056081469229
 40
1.130062174120435
 40
1.130062174120435
 40
1.243068926005812
 40
1.243068926005812
 40
1.356075677891189
 40
1.356075677891189
 40
1.356075677891189
 40
1.356075677891189
 10
-723.3680718309515
 20
146.9999999999108
 30
0.0
 10
-723.6337775193152
 20
146.9999999999108
 30
0.0
 10
-723.9170306171835
 20
147.0752811438005
 30
0.0
 10
-724.43781148434
 20
147.3814421631399
 30
0.0
 10
-724.6753477201328
 20
147.6123220134618
 30
0.0
 10
-725.0503280275752
 20
148.1450366656504
 30
0.0
 10
-725.2127679905661
 20
148.4823794192407
 30
0.0
 10
-725.428138412073
 20
149.2215172528458
 30
0.0
 10
-725.4810772742421
 20
149.6233123736997
 30
0.0
 10
-725.4810772742421
 20
150.376686975414
 30
0.0
 10
-725.4281385934755
 20
150.778481446674
 30
0.0
 10
-725.2127688559994
 20
151.5176182882069
 30
0.0
 10
-725.0503293956917
 20
151.8549606993188
 30
0.0
 10
-724.6753495753218
 20
152.3876760420276
 30
0.0
 10
-724.4378130990335
 20
152.6185566065319
 30
0.0
 10
-723.9170315338051
 20
152.9247185980371
 30
0.0
 10
-723.6337779783042
 20
152.9999999999104
 30
0.0
 10
-723.3680718309515
 20
152.9999999999104
 30
0.0
  0
LINE
  5
DF6
330
D32
100
AcDbEntity
  8
Visible (ISO)
100
AcDbLine
 10
-719.8325379250363
 20
152.9999999999113
 30
0.0
 11
-723.3680718309515
 21
152.9999999999104
 31
0.0
  0
LINE
  5
DF7
330
D32
100
AcDbEntity
  8
Visible (ISO)
100
AcDbLine
 10
-1125.0
 20
-227.0000000003042
 30
0.0
 11
-1039.364474075197
 21
-227.0000000001769
 31
0.0
  0
LINE
  5
DF8
330
D32
100
AcDbEntity
  8
Visible (ISO)
100
AcDbLine
 10
-1039.364474075199
 20
-246.0000000001764
 30
0.0
 11
-1125.000000000001
 21
-246.0000000003047
 31
0.0
  0
LINE
  5
DF9
330
D32
100
AcDbEntity
  8
Visible (ISO)
100
AcDbLine
 10
-1039.364474075197
 20
-246.0000000001769
 30
0.0
 11
-1039.364474075197
 21
-227.0000000001769
 31
0.0
  0
LINE
  5
DFA
330
D32
100
AcDbEntity
  8
Visible (ISO)
100
AcDbLine
 10
-1125.0
 20
-246.0000000003047
 30
0.0
 11
-1125.0
 21
-227.0000000003047
 31
0.0
  0
LINE
  5
DFB
330
D32
100
AcDbEntity
  8
Visible (ISO)
100
AcDbLine
 10
-1039.364474075197
 20
-246.0000000001769
 30
0.0
 11
-1039.364474075197
 21
-227.0000000001769
 31
0.0
  0
LINE
  5
DFC
330
D32
100
AcDbEntity
  8
Visible (ISO)
100
AcDbLine
 10
-1039.364474075197
 20
-227.0000000001764
 30
0.0
 11
-430.5188614107246
 21
-226.9999999999964
 31
0.0
  0
LINE
  5
DFD
330
D32
100
AcDbEntity
  8
Visible (ISO)
100
AcDbLine
 10
-430.5188614107246
 20
-245.9999999999963
 30
0.0
 11
-1039.364474075197
 21
-246.0000000001769
 31
0.0
  0
LINE
  5
DFE
330
D32
100
AcDbEntity
  8
Visible (ISO)
100
AcDbLine
 10
-430.5188614107246
 20
-245.9999999999963
 30
0.0
 11
-430.5188614107246
 21
-226.9999999999964
 31
0.0
  0
LINE
  5
DFF
330
D32
100
AcDbEntity
  8
Visible (ISO)
100
AcDbLine
 10
-430.5188614107246
 20
-245.9999999999963
 30
0.0
 11
-430.5188614107246
 21
-226.9999999999964
 31
0.0
  0
LINE
  5
E00
330
D32
100
AcDbEntity
  8
Visible (ISO)
100
AcDbLine
 10
-430.5188614107246
 20
-226.9999999999964
 30
0.0
 11
430.5188614107246
 21
-226.9999999999964
 31
0.0
  0
LINE
  5
E01
330
D32
100
AcDbEntity
  8
Visible (ISO)
100
AcDbLine
 10
430.5188614107246
 20
-245.9999999999963
 30
0.0
 11
-430.5188614107246
 21
-245.9999999999963
 31
0.0
  0
LINE
  5
E02
330
D32
100
AcDbEntity
  8
Visible (ISO)
100
AcDbLine
 10
430.5188614107246
 20
-245.9999999999963
 30
0.0
 11
430.5188614107246
 21
-226.9999999999964
 31
0.0
  0
LINE
  5
E03
330
D32
100
AcDbEntity
  8
Visible (ISO)
100
AcDbLine
 10
430.5188614107246
 20
-245.9999999999963
 30
0.0
 11
430.5188614107246
 21
-226.9999999999964
 31
0.0
  0
LINE
  5
E04
330
D32
100
AcDbEntity
  8
Visible (ISO)
100
AcDbLine
 10
430.5188614107246
 20
-226.9999999999964
 30
0.0
 11
1039.364474075195
 21
-227.0000000001769
 31
0.0
  0
LINE
  5
E05
330
D32
100
AcDbEntity
  8
Visible (ISO)
100
AcDbLine
 10
1039.364474075199
 20
-246.0000000001769
 30
0.0
 11
430.5188614107246
 21
-245.9999999999963
 31
0.0
  0
LINE
  5
E06
330
D32
100
AcDbEntity
  8
Visible (ISO)
100
AcDbLine
 10
1039.364474075195
 20
-246.0000000001769
 30
0.0
 11
1039.364474075195
 21
-227.0000000001769
 31
0.0
  0
LINE
  5
E07
330
D32
100
AcDbEntity
  8
Visible (ISO)
100
AcDbLine
 10
1039.364474075195
 20
-246.0000000001769
 30
0.0
 11
1039.364474075195
 21
-227.0000000001769
 31
0.0
  0
LINE
  5
E08
330
D32
100
AcDbEntity
  8
Visible (ISO)
100
AcDbLine
 10
1039.364474075199
 20
-227.0000000001764
 30
0.0
 11
1125.0
 21
-227.0000000003042
 31
0.0
  0
LINE
  5
E09
330
D32
100
AcDbEntity
  8
Visible (ISO)
100
AcDbLine
 10
1125.0
 20
-246.0000000003047
 30
0.0
 11
1039.364474075199
 21
-246.0000000001769
 31
0.0
  0
LINE
  5
E0A
330
D32
100
AcDbEntity
  8
Visible (ISO)
100
AcDbLine
 10
1125.0
 20
-246.0000000003047
 30
0.0
 11
1125.0
 21
-227.0000000003047
 31
0.0
  0
LINE
  5
E0B
330
D32
100
AcDbEntity
  8
Visible (ISO)
100
AcDbLine
 10
1125.0
 20
226.9999999996981
 30
0.0
 11
1039.364474075199
 21
226.9999999998254
 31
0.0
  0
LINE
  5
E0C
330
D32
100
AcDbEntity
  8
Visible (ISO)
100
AcDbLine
 10
1039.364474075199
 20
245.9999999998258
 30
0.0
 11
1125.0
 21
245.9999999996981
 31
0.0
  0
LINE
  5
E0D
330
D32
100
AcDbEntity
  8
Visible (ISO)
100
AcDbLine
 10
1039.364474075199
 20
245.9999999998258
 30
0.0
 11
1039.364474075199
 21
226.9999999998254
 31
0.0
  0
LINE
  5
E0E
330
D32
100
AcDbEntity
  8
Visible (ISO)
100
AcDbLine
 10
1125.0
 20
245.9999999996981
 30
0.0
 11
1125.0
 21
226.9999999996981
 31
0.0
  0
LINE
  5
E0F
330
D32
100
AcDbEntity
  8
Visible (ISO)
100
AcDbLine
 10
1039.364474075195
 20
245.9999999998258
 30
0.0
 11
1039.364474075195
 21
226.9999999998254
 31
0.0
  0
LINE
  5
E10
330
D32
100
AcDbEntity
  8
Visible (ISO)
100
AcDbLine
 10
1039.364474075199
 20
226.9999999998254
 30
0.0
 11
430.5188614107246
 21
227.0000000000063
 31
0.0
  0
LINE
  5
E11
330
D32
100
AcDbEntity
  8
Visible (ISO)
100
AcDbLine
 10
430.5188614107246
 20
246.0000000000064
 30
0.0
 11
1039.364474075195
 21
245.9999999998258
 31
0.0
  0
LINE
  5
E12
330
D32
100
AcDbEntity
  8
Visible (ISO)
100
AcDbLine
 10
430.5188614107246
 20
246.0000000000064
 30
0.0
 11
430.5188614107246
 21
227.0000000000063
 31
0.0
  0
LINE
  5
E13
330
D32
100
AcDbEntity
  8
Visible (ISO)
100
AcDbLine
 10
430.5188614107246
 20
246.0000000000064
 30
0.0
 11
430.5188614107246
 21
227.0000000000063
 31
0.0
  0
LINE
  5
E14
330
D32
100
AcDbEntity
  8
Visible (ISO)
100
AcDbLine
 10
430.5188614107246
 20
227.0000000000059
 30
0.0
 11
-430.5188614107246
 21
227.0000000000059
 31
0.0
  0
LINE
  5
E15
330
D32
100
AcDbEntity
  8
Visible (ISO)
100
AcDbLine
 10
-430.5188614107246
 20
246.0000000000059
 30
0.0
 11
430.5188614107246
 21
246.0000000000064
 31
0.0
  0
LINE
  5
E16
330
D32
100
AcDbEntity
  8
Visible (ISO)
100
AcDbLine
 10
-430.5188614107246
 20
246.0000000000059
 30
0.0
 11
-430.5188614107246
 21
227.0000000000063
 31
0.0
  0
LINE
  5
E17
330
D32
100
AcDbEntity
  8
Visible (ISO)
100
AcDbLine
 10
-430.5188614107246
 20
246.0000000000059
 30
0.0
 11
-430.5188614107246
 21
227.0000000000063
 31
0.0
  0
LINE
  5
E18
330
D32
100
AcDbEntity
  8
Visible (ISO)
100
AcDbLine
 10
-430.5188614107246
 20
227.0000000000059
 30
0.0
 11
-1039.364474075195
 21
226.9999999998254
 31
0.0
  0
LINE
  5
E19
330
D32
100
AcDbEntity
  8
Visible (ISO)
100
AcDbLine
 10
-1039.364474075197
 20
245.9999999998258
 30
0.0
 11
-430.5188614107246
 21
246.0000000000059
 31
0.0
  0
LINE
  5
E1A
330
D32
100
AcDbEntity
  8
Visible (ISO)
100
AcDbLine
 10
-1039.364474075195
 20
245.9999999998258
 30
0.0
 11
-1039.364474075195
 21
226.9999999998254
 31
0.0
  0
LINE
  5
E1B
330
D32
100
AcDbEntity
  8
Visible (ISO)
100
AcDbLine
 10
-1039.364474075197
 20
245.9999999998254
 30
0.0
 11
-1039.364474075197
 21
226.9999999998254
 31
0.0
  0
LINE
  5
E1C
330
D32
100
AcDbEntity
  8
Visible (ISO)
100
AcDbLine
 10
-1039.364474075197
 20
226.9999999998254
 30
0.0
 11
-1125.0
 21
226.9999999996976
 31
0.0
  0
LINE
  5
E1D
330
D32
100
AcDbEntity
  8
Visible (ISO)
100
AcDbLine
 10
-1125.000000000001
 20
245.9999999996976
 30
0.0
 11
-1039.364474075199
 21
245.9999999998254
 31
0.0
  0
LINE
  5
E1E
330
D32
100
AcDbEntity
  8
Visible (ISO)
100
AcDbLine
 10
-1125.0
 20
245.9999999996976
 30
0.0
 11
-1125.0
 21
226.9999999996976
 31
0.0
  0
LINE
  5
E1F
330
D32
100
AcDbEntity
  8
Visible (ISO)
100
AcDbLine
 10
-1039.364474075195
 20
-227.0000000001769
 30
0.0
 11
-1039.364474075195
 21
-208.0000000001769
 31
0.0
  0
LINE
  5
E20
330
D32
100
AcDbEntity
  8
Visible (ISO)
100
AcDbLine
 10
-1039.364474075195
 20
-208.0000000001764
 30
0.0
 11
-1124.999999999996
 21
-208.0000000003042
 31
0.0
  0
LINE
  5
E21
330
D32
100
AcDbEntity
  8
Visible (ISO)
100
AcDbLine
 10
-1124.999999999994
 20
-227.0000000003042
 30
0.0
 11
-1039.364474075195
 21
-227.0000000001769
 31
0.0
  0
LINE
  5
E22
330
D32
100
AcDbEntity
  8
Visible (ISO)
100
AcDbLine
 10
-1124.999999999996
 20
-208.0000000003042
 30
0.0
 11
-1124.999999999996
 21
-227.0000000003042
 31
0.0
  0
LINE
  5
E23
330
D32
100
AcDbEntity
  8
Visible (ISO)
100
AcDbLine
 10
-430.5188614107246
 20
-226.9999999999964
 30
0.0
 11
-430.5188614107246
 21
-207.9999999999959
 31
0.0
  0
LINE
  5
E24
330
D32
100
AcDbEntity
  8
Visible (ISO)
100
AcDbLine
 10
-430.5188614107246
 20
-207.9999999999959
 30
0.0
 11
-1039.364474075189
 21
-208.0000000001769
 31
0.0
  0
LINE
  5
E25
330
D32
100
AcDbEntity
  8
Visible (ISO)
100
AcDbLine
 10
-1039.364474075189
 20
-227.0000000001769
 30
0.0
 11
-1039.364474075189
 21
-208.0000000001769
 31
0.0
  0
LINE
  5
E26
330
D32
100
AcDbEntity
  8
Visible (ISO)
100
AcDbLine
 10
-1039.364474075189
 20
-227.0000000001764
 30
0.0
 11
-430.5188614107246
 21
-226.9999999999964
 31
0.0
  0
LINE
  5
E27
330
D32
100
AcDbEntity
  8
Visible (ISO)
100
AcDbLine
 10
430.5188614107281
 20
-226.9999999999964
 30
0.0
 11
430.5188614107281
 21
-207.9999999999959
 31
0.0
  0
LINE
  5
E28
330
D32
100
AcDbEntity
  8
Visible (ISO)
100
AcDbLine
 10
430.5188614107246
 20
-207.9999999999959
 30
0.0
 11
-430.5188614107136
 21
-207.9999999999959
 31
0.0
  0
LINE
  5
E29
330
D32
100
AcDbEntity
  8
Visible (ISO)
100
AcDbLine
 10
-430.5188614107136
 20
-226.9999999999964
 30
0.0
 11
-430.5188614107136
 21
-207.9999999999959
 31
0.0
  0
LINE
  5
E2A
330
D32
100
AcDbEntity
  8
Visible (ISO)
100
AcDbLine
 10
-430.5188614107101
 20
-226.9999999999964
 30
0.0
 11
430.5188614107281
 21
-226.9999999999964
 31
0.0
  0
LINE
  5
E2B
330
D32
100
AcDbEntity
  8
Visible (ISO)
100
AcDbLine
 10
1039.364474075199
 20
-227.0000000001769
 30
0.0
 11
1039.364474075199
 21
-208.0000000001769
 31
0.0
  0
LINE
  5
E2C
330
D32
100
AcDbEntity
  8
Visible (ISO)
100
AcDbLine
 10
1039.364474075199
 20
-208.0000000001764
 30
0.0
 11
430.5188614107355
 21
-207.9999999999959
 31
0.0
  0
LINE
  5
E2D
330
D32
100
AcDbEntity
  8
Visible (ISO)
100
AcDbLine
 10
430.5188614107355
 20
-226.9999999999964
 30
0.0
 11
430.5188614107355
 21
-207.9999999999959
 31
0.0
  0
LINE
  5
E2E
330
D32
100
AcDbEntity
  8
Visible (ISO)
100
AcDbLine
 10
430.5188614107319
 20
-226.9999999999964
 30
0.0
 11
1039.364474075199
 21
-227.0000000001769
 31
0.0
  0
LINE
  5
E2F
330
D32
100
AcDbEntity
  8
Visible (ISO)
100
AcDbLine
 10
1125.0
 20
-208.0000000003042
 30
0.0
 11
1039.364474075199
 21
-208.0000000001769
 31
0.0
  0
LINE
  5
E30
330
D32
100
AcDbEntity
  8
Visible (ISO)
100
AcDbLine
 10
1039.364474075199
 20
-227.0000000001769
 30
0.0
 11
1039.364474075199
 21
-208.0000000001769
 31
0.0
  0
LINE
  5
E31
330
D32
100
AcDbEntity
  8
Visible (ISO)
100
AcDbLine
 10
1039.364474075199
 20
-227.0000000001764
 30
0.0
 11
1125.0
 21
-227.0000000003042
 31
0.0
  0
LINE
  5
E32
330
D32
100
AcDbEntity
  8
Visible (ISO)
100
AcDbLine
 10
1125.0
 20
-208.0000000003042
 30
0.0
 11
1125.0
 21
-227.0000000003042
 31
0.0
  0
LINE
  5
E33
330
D32
100
AcDbEntity
  8
Visible (ISO)
100
AcDbLine
 10
1039.364474075199
 20
226.9999999998254
 30
0.0
 11
1039.364474075199
 21
207.9999999998254
 31
0.0
  0
LINE
  5
E34
330
D32
100
AcDbEntity
  8
Visible (ISO)
100
AcDbLine
 10
1039.364474075195
 20
207.9999999998254
 30
0.0
 11
1125.0
 21
207.9999999996976
 31
0.0
  0
LINE
  5
E35
330
D32
100
AcDbEntity
  8
Visible (ISO)
100
AcDbLine
 10
1125.0
 20
226.9999999996976
 30
0.0
 11
1039.364474075199
 21
226.9999999998254
 31
0.0
  0
LINE
  5
E36
330
D32
100
AcDbEntity
  8
Visible (ISO)
100
AcDbLine
 10
1125.0
 20
207.9999999996981
 30
0.0
 11
1125.0
 21
226.9999999996976
 31
0.0
  0
LINE
  5
E37
330
D32
100
AcDbEntity
  8
Visible (ISO)
100
AcDbLine
 10
430.5188614107281
 20
227.0000000000063
 30
0.0
 11
430.5188614107281
 21
208.0000000000059
 31
0.0
  0
LINE
  5
E38
330
D32
100
AcDbEntity
  8
Visible (ISO)
100
AcDbLine
 10
430.5188614107246
 20
208.0000000000059
 30
0.0
 11
1039.364474075191
 21
207.9999999998254
 31
0.0
  0
LINE
  5
E39
330
D32
100
AcDbEntity
  8
Visible (ISO)
100
AcDbLine
 10
1039.364474075191
 20
226.9999999998254
 30
0.0
 11
1039.364474075191
 21
207.9999999998254
 31
0.0
  0
LINE
  5
E3A
330
D32
100
AcDbEntity
  8
Visible (ISO)
100
AcDbLine
 10
1039.364474075191
 20
226.9999999998254
 30
0.0
 11
430.5188614107281
 21
227.0000000000063
 31
0.0
  0
LINE
  5
E3B
330
D32
100
AcDbEntity
  8
Visible (ISO)
100
AcDbLine
 10
-430.5188614107246
 20
227.0000000000059
 30
0.0
 11
-430.5188614107246
 21
208.0000000000059
 31
0.0
  0
LINE
  5
E3C
330
D32
100
AcDbEntity
  8
Visible (ISO)
100
AcDbLine
 10
-430.5188614107207
 20
208.0000000000059
 30
0.0
 11
430.5188614107173
 21
208.0000000000059
 31
0.0
  0
LINE
  5
E3D
330
D32
100
AcDbEntity
  8
Visible (ISO)
100
AcDbLine
 10
430.5188614107173
 20
227.0000000000063
 30
0.0
 11
430.5188614107173
 21
208.0000000000059
 31
0.0
  0
LINE
  5
E3E
330
D32
100
AcDbEntity
  8
Visible (ISO)
100
AcDbLine
 10
430.5188614107136
 20
227.0000000000063
 30
0.0
 11
-430.5188614107246
 21
227.0000000000059
 31
0.0
  0
LINE
  5
E3F
330
D32
100
AcDbEntity
  8
Visible (ISO)
100
AcDbLine
 10
-1039.364474075195
 20
226.9999999998249
 30
0.0
 11
-1039.364474075195
 21
207.9999999998254
 31
0.0
  0
LINE
  5
E40
330
D32
100
AcDbEntity
  8
Visible (ISO)
100
AcDbLine
 10
-1039.364474075195
 20
207.9999999998249
 30
0.0
 11
-430.5188614107319
 21
208.0000000000059
 31
0.0
  0
LINE
  5
E41
330
D32
100
AcDbEntity
  8
Visible (ISO)
100
AcDbLine
 10
-430.5188614107319
 20
227.0000000000059
 30
0.0
 11
-430.5188614107319
 21
208.0000000000059
 31
0.0
  0
LINE
  5
E42
330
D32
100
AcDbEntity
  8
Visible (ISO)
100
AcDbLine
 10
-430.5188614107281
 20
227.0000000000059
 30
0.0
 11
-1039.364474075195
 21
226.9999999998249
 31
0.0
  0
LINE
  5
E43
330
D32
100
AcDbEntity
  8
Visible (ISO)
100
AcDbLine
 10
-1124.999999999996
 20
207.9999999996976
 30
0.0
 11
-1039.364474075195
 21
207.9999999998254
 31
0.0
  0
LINE
  5
E44
330
D32
100
AcDbEntity
  8
Visible (ISO)
100
AcDbLine
 10
-1039.364474075195
 20
226.9999999998254
 30
0.0
 11
-1039.364474075195
 21
207.9999999998254
 31
0.0
  0
LINE
  5
E45
330
D32
100
AcDbEntity
  8
Visible (ISO)
100
AcDbLine
 10
-1039.364474075195
 20
226.9999999998254
 30
0.0
 11
-1124.999999999996
 21
226.9999999996976
 31
0.0
  0
LINE
  5
E46
330
D32
100
AcDbEntity
  8
Visible (ISO)
100
AcDbLine
 10
-1124.999999999996
 20
207.9999999996976
 30
0.0
 11
-1124.999999999996
 21
226.9999999996976
 31
0.0
  0
ARC
  5
E47
330
D32
100
AcDbEntity
  8
Visible (ISO)
100
AcDbCircle
 10
-1037.833365521617
 20
-221.1250000001892
 30
0.0
 40
18.12499999999992
100
AcDbArc
 50
46.39718102732513
 51
133.6028189726748
  0
ARC
  5
E48
330
D32
100
AcDbEntity
  8
Visible (ISO)
100
AcDbCircle
 10
-1008.236401525802
 20
-221.1250000001683
 30
0.0
 40
18.12499999999992
100
AcDbArc
 50
46.39718102732513
 51
133.6028189726748
  0
ARC
  5
E49
330
D32
100
AcDbEntity
  8
Visible (ISO)
100
AcDbCircle
 10
1008.23640152581
 20
-221.1250000001683
 30
0.0
 40
18.12499999999991
100
AcDbArc
 50
46.39718102732513
 51
133.6028189726748
  0
ARC
  5
E4A
330
D32
100
AcDbEntity
  8
Visible (ISO)
100
AcDbCircle
 10
783.4743135546995
 20
-221.1250000000719
 30
0.0
 40
18.12499999999991
100
AcDbArc
 50
46.39718102732513
 51
133.6028189726748
  0
ARC
  5
E4B
330
D32
100
AcDbEntity
  8
Visible (ISO)
100
AcDbCircle
 10
1037.833365521615
 20
221.124999999813
 30
0.0
 40
18.12499999999992
100
AcDbArc
 50
226.3971810273251
 51
313.6028189726749
  0
ARC
  5
E4C
330
D32
100
AcDbEntity
  8
Visible (ISO)
100
AcDbCircle
 10
1008.236401525802
 20
221.1249999998345
 30
0.0
 40
18.12499999999992
100
AcDbArc
 50
226.3971810273251
 51
313.6028189726749
  0
ARC
  5
E4D
330
D32
100
AcDbEntity
  8
Visible (ISO)
100
AcDbCircle
 10
-1008.236401525806
 20
221.1249999998345
 30
0.0
 40
18.12499999999992
100
AcDbArc
 50
226.3971810273251
 51
313.6028189726749
  0
ARC
  5
E4E
330
D32
100
AcDbEntity
  8
Visible (ISO)
100
AcDbCircle
 10
-783.4743135546959
 20
221.1249999999304
 30
0.0
 40
18.12499999999991
100
AcDbArc
 50
226.3971810273251
 51
313.6028189726749
  0
ARC
  5
E4F
330
D32
100
AcDbEntity
  8
Visible (ISO)
100
AcDbCircle
 10
-1022.299979996001
 20
-251.0000000002988
 30
0.0
 40
3.000000000000003
100
AcDbArc
 50
180.0
 51
270.0
  0
LINE
  5
E50
330
D32
100
AcDbEntity
  8
Visible (ISO)
100
AcDbLine
 10
-1021.299979996
 20
-254.0000000002983
 30
0.0
 11
-1022.299979996
 21
-254.0000000002988
 31
0.0
  0
LINE
  5
E51
330
D32
100
AcDbEntity
  8
Visible (ISO)
100
AcDbLine
 10
-1021.299979996
 20
-254.0000000002983
 30
0.0
 11
-1002.855921855182
 21
-254.0000000002983
 31
0.0
  0
SPLINE
  5
E52
330
D32
100
AcDbEntity
  8
Visible (ISO)
100
AcDbSpline
210
0.0
220
0.0
230
1.0
 70
     8
 71
     3
 72
    10
 73
     6
 74
     0
 42
0.0000000001
 43
0.0000000001
 40
-0.0006495334830793
 40
-0.0006495334830793
 40
-0.0006495334830793
 40
-0.0006495334830793
 40
0.0758859732824112
 40
0.0758859732824112
 40
0.1131120673600183
 40
0.1131120673600183
 40
0.1131120673600183
 40
0.1131120673600183
 10
-1002.855921855182
 20
-254.0000000003083
 30
0.0
 10
-1002.586076414061
 20
-254.0000000003083
 30
0.0
 10
-1002.314642612853
 20
-253.9644303307973
 30
0.0
 10
-1001.919745928095
 20
-253.8567767284112
 30
0.0
 10
-1001.791592972262
 20
-253.8128130119894
 30
0.0
 10
-1001.665137671256
 20
-253.7595356915108
 30
0.0
  0
SPLINE
  5
E53
330
D32
100
AcDbEntity
  8
Visible (ISO)
100
AcDbSpline
210
0.0
220
0.0
230
1.0
 70
     8
 71
     3
 72
    10
 73
     6
 74
     0
 42
0.0000000001
 43
0.0000000001
 40
-0.382677533827571
 40
-0.382677533827571
 40
-0.382677533827571
 40
-0.382677533827571
 40
-0.3061420270620569
 40
-0.3061420270620569
 40
-0.2689336516429124
 40
-0.2689336516429124
 40
-0.2689336516429124
 40
-0.2689336516429124
 10
-1002.855921855182
 20
-254.0000000002983
 30
0.0
 10
-1002.586076414152
 20
-254.0000000002983
 30
0.0
 10
-1002.314642612853
 20
-253.9644303307873
 30
0.0
 10
-1001.919807434258
 20
-253.8567934957232
 30
0.0
 10
-1001.791644817425
 20
-253.8128419399654
 30
0.0
 10
-1001.665318140605
 20
-253.7596117426019
 30
0.0
  0
LINE
  5
E54
330
D32
100
AcDbEntity
  8
Visible (ISO)
100
AcDbLine
 10
-1025.299979996002
 20
-250.0000000002988
 30
0.0
 11
-1025.299979996002
 21
-251.0000000002988
 31
0.0
  0
LINE
  5
E55
330
D32
100
AcDbEntity
  8
Visible (ISO)
100
AcDbLine
 10
-950.6049625228442
 20
-254.0000000001914
 30
0.0
 11
-938.3590926871621
 21
-254.0000000001828
 31
0.0
  0
LINE
  5
E56
330
D32
100
AcDbEntity
  8
Visible (ISO)
100
AcDbLine
 10
-937.0525297222847
 20
-254.0000000001823
 30
0.0
 11
-938.3590926871621
 21
-254.0000000001828
 31
0.0
  0
LINE
  5
E57
330
D32
100
AcDbEntity
  8
Visible (ISO)
100
AcDbLine
 10
-937.0525297222847
 20
-254.0000000001828
 30
0.0
 11
-920.0124419095336
 21
-254.0000000001846
 31
0.0
  0
LINE
  5
E58
330
D32
100
AcDbEntity
  8
Visible (ISO)
100
AcDbLine
 10
-950.6049625228442
 20
-254.0000000001914
 30
0.0
 11
-950.6810829903315
 21
-254.0000000001914
 31
0.0
  0
SPLINE
  5
E59
330
D32
100
AcDbEntity
  8
Visible (ISO)
100
AcDbSpline
210
0.0
220
0.0
230
1.0
 70
     8
 71
     3
 72
    10
 73
     6
 74
     0
 42
0.0000000001
 43
0.0000000001
 40
-0.382677533827571
 40
-0.382677533827571
 40
-0.382677533827571
 40
-0.382677533827571
 40
-0.3061420270620569
 40
-0.3061420270620569
 40
-0.2962786563876905
 40
-0.2962786563876905
 40
-0.2962786563876905
 40
-0.2962786563876905
 10
-920.0124419095336
 20
-254.0000000001846
 30
0.0
 10
-919.7082948733806
 20
-254.0000000001846
 30
0.0
 10
-919.4023486650658
 20
-253.9693169397842
 30
0.0
 10
-919.0610977233516
 20
-253.8977520431972
 30
0.0
 10
-919.0221120272326
 20
-253.889036620993
 30
0.0
 10
-918.9832887740394
 20
-253.8797663646997
 30
0.0
  0
ARC
  5
E5A
330
D32
100
AcDbEntity
  8
Visible (ISO)
100
AcDbCircle
 10
-950.6810829903333
 20
-251.0000000001915
 30
0.0
 40
3.000000000000008
100
AcDbArc
 50
180.0
 51
270.0
  0
LINE
  5
E5B
330
D32
100
AcDbEntity
  8
Visible (ISO)
100
AcDbLine
 10
-953.6810829903334
 20
-250.0000000001914
 30
0.0
 11
-953.6810829903334
 21
-251.0000000001915
 31
0.0
  0
LINE
  5
E5C
330
D32
100
AcDbEntity
  8
Visible (ISO)
100
AcDbLine
 10
-734.1889567610304
 20
-254.0000000000923
 30
0.0
 11
-711.5615397630607
 21
-254.0000000000855
 31
0.0
  0
LINE
  5
E5D
330
D32
100
AcDbEntity
  8
Visible (ISO)
100
AcDbLine
 10
-710.1473262006875
 20
-254.0000000000859
 30
0.0
 11
-711.5615397630572
 21
-254.0000000000859
 31
0.0
  0
LINE
  5
E5E
330
D32
100
AcDbEntity
  8
Visible (ISO)
100
AcDbLine
 10
-710.1473262006875
 20
-254.0000000000855
 30
0.0
 11
-697.1054076167147
 21
-254.0000000000896
 31
0.0
  0
LINE
  5
E5F
330
D32
100
AcDbEntity
  8
Visible (ISO)
100
AcDbLine
 10
-734.1889567610269
 20
-254.0000000000928
 30
0.0
 11
-734.4818499798439
 21
-254.0000000000928
 31
0.0
  0
SPLINE
  5
E60
330
D32
100
AcDbEntity
  8
Visible (ISO)
100
AcDbSpline
210
0.0
220
0.0
230
1.0
 70
     8
 71
     3
 72
    18
 73
    14
 74
     0
 42
0.0000000001
 43
0.0000000001
 40
-0.382677533827571
 40
-0.382677533827571
 40
-0.382677533827571
 40
-0.382677533827571
 40
-0.3061420270620569
 40
-0.3061420270620569
 40
-0.2296065202965427
 40
-0.2296065202965427
 40
-0.1530710135310285
 40
-0.1530710135310285
 40
-0.0765355067655144
 40
-0.0765355067655144
 40
-0.0223187035352694
 40
-0.0223187035352694
 40
-0.0000000000000002
 40
-0.0000000000000002
 40
-0.0000000000000002
 40
-0.0000000000000002
 10
-697.1054076167147
 20
-254.0000000000896
 30
0.0
 10
-696.7875975920487
 20
-254.0000000000896
 30
0.0
 10
-696.4679208708949
 20
-253.9702865872773
 30
0.0
 10
-695.8357800020892
 20
-253.8473656217266
 30
0.0
 10
-695.5215202230465
 20
-253.7542014917899
 30
0.0
 10
-694.9062623075294
 20
-253.488869760095
 30
0.0
 10
-694.6057834580842
 20
-253.3177362185456
 30
0.0
 10
-694.0419075023782
 20
-252.8631804500892
 30
0.0
 10
-693.7795276082324
 20
-252.5800892911834
 30
0.0
 10
-693.4378919755562
 20
-251.9738239215226
 30
0.0
 10
-693.330937716975
 20
-251.687798610792
 30
0.0
 10
-693.2616244711518
 20
-251.2558319441782
 30
0.0
 10
-693.2513423700148
 20
-251.1275054514749
 30
0.0
 10
-693.2513423700148
 20
-251.0000000000896
 30
0.0
  0
ARC
  5
E61
330
D32
100
AcDbEntity
  8
Visible (ISO)
100
AcDbCircle
 10
-734.4818499798439
 20
-251.0000000000923
 30
0.0
 40
3.000000000000008
100
AcDbArc
 50
180.0
 51
270.0
  0
LINE
  5
E62
330
D32
100
AcDbEntity
  8
Visible (ISO)
100
AcDbLine
 10
-737.4818499798439
 20
-250.0000000000928
 30
0.0
 11
-737.4818499798439
 21
-251.0000000000923
 31
0.0
  0
LINE
  5
E63
330
D32
100
AcDbEntity
  8
Visible (ISO)
100
AcDbLine
 10
-693.2513423700148
 20
-251.0000000000896
 30
0.0
 11
-693.2513423700148
 21
-250.0000000000896
 31
0.0
  0
LINE
  5
E64
330
D32
100
AcDbEntity
  8
Visible (ISO)
100
AcDbLine
 10
-405.9993377718128
 20
-254.000000000025
 30
0.0
 11
-376.4351927314529
 21
-254.0000000000209
 31
0.0
  0
LINE
  5
E65
330
D32
100
AcDbEntity
  8
Visible (ISO)
100
AcDbLine
 10
-375.1286297665756
 20
-254.0000000000214
 30
0.0
 11
-376.4351927314529
 21
-254.0000000000209
 31
0.0
  0
LINE
  5
E66
330
D32
100
AcDbEntity
  8
Visible (ISO)
100
AcDbLine
 10
-375.1286297665756
 20
-254.0000000000214
 30
0.0
 11
-368.0703942905056
 21
-254.0000000000264
 31
0.0
  0
LINE
  5
E67
330
D32
100
AcDbEntity
  8
Visible (ISO)
100
AcDbLine
 10
-405.9993377718162
 20
-254.0000000000246
 30
0.0
 11
-406.61665433945
 21
-254.000000000025
 31
0.0
  0
SPLINE
  5
E68
330
D32
100
AcDbEntity
  8
Visible (ISO)
100
AcDbSpline
210
0.0
220
0.0
230
1.0
 70
     8
 71
     3
 72
    18
 73
    14
 74
     0
 42
0.0000000001
 43
0.0000000001
 40
-0.382677533827571
 40
-0.382677533827571
 40
-0.382677533827571
 40
-0.382677533827571
 40
-0.3061420270620569
 40
-0.3061420270620569
 40
-0.2296065202965427
 40
-0.2296065202965427
 40
-0.1530710135310285
 40
-0.1530710135310285
 40
-0.0770365879924007
 40
-0.0770365879924007
 40
-0.0216523159567337
 40
-0.0216523159567337
 40
-0.0000000000000002
 40
-0.0000000000000002
 40
-0.0000000000000002
 40
-0.0000000000000002
 10
-368.0703942905056
 20
-254.0000000000264
 30
0.0
 10
-367.7674255479542
 20
-254.0000000000264
 30
0.0
 10
-367.4626749352974
 20
-253.9692187378359
 30
0.0
 10
-366.8605349256213
 20
-253.8420236053003
 30
0.0
 10
-366.5614027368392
 20
-253.7456102853612
 30
0.0
 10
-365.977489153327
 20
-253.4720276245439
 30
0.0
 10
-365.6932001965033
 20
-253.2957455018163
 30
0.0
 10
-365.1661439229392
 20
-252.8340975168044
 30
0.0
 10
-364.9246693631393
 20
-252.5499159061733
 30
0.0
 10
-364.6102530108255
 20
-251.9477826987845
 30
0.0
 10
-364.512406844904
 20
-251.661797802361
 30
0.0
 10
-364.4519862290799
 20
-251.2399294814591
 30
0.0
 10
-364.4433931091371
 20
-251.1195892397186
 30
0.0
 10
-364.4433931091371
 20
-251.0000000000268
 30
0.0
  0
ARC
  5
E69
330
D32
100
AcDbEntity
  8
Visible (ISO)
100
AcDbCircle
 10
-406.6166543394464
 20
-251.000000000025
 30
0.0
 40
3.000000000000008
100
AcDbArc
 50
180.0
 51
270.0
  0
LINE
  5
E6A
330
D32
100
AcDbEntity
  8
Visible (ISO)
100
AcDbLine
 10
-409.6166543394464
 20
-250.000000000025
 30
0.0
 11
-409.6166543394464
 21
-251.000000000025
 31
0.0
  0
LINE
  5
E6B
330
D32
100
AcDbEntity
  8
Visible (ISO)
100
AcDbLine
 10
-364.4433931091371
 20
-251.0000000000268
 30
0.0
 11
-364.4433931091371
 21
-250.0000000000268
 31
0.0
  0
ARC
  5
E6C
330
D32
100
AcDbEntity
  8
Visible (ISO)
100
AcDbCircle
 10
-17.0
 20
-251.0000000000005
 30
0.0
 40
3.000000000000006
100
AcDbArc
 50
180.0
 51
270.0
  0
LINE
  5
E6D
330
D32
100
AcDbEntity
  8
Visible (ISO)
100
AcDbLine
 10
-16.00000000000363
 20
-254.0000000000004
 30
0.0
 11
16.0
 21
-254.0000000000004
 31
0.0
  0
ARC
  5
E6E
330
D32
100
AcDbEntity
  8
Visible (ISO)
100
AcDbCircle
 10
17.0
 20
-251.0000000000005
 30
0.0
 40
3.000000000000003
100
AcDbArc
 50
270.0
 51
0.0
  0
LINE
  5
E6F
330
D32
100
AcDbEntity
  8
Visible (ISO)
100
AcDbLine
 10
17.00000000000364
 20
-254.0000000000009
 30
0.0
 11
16.0
 21
-254.0000000000004
 31
0.0
  0
LINE
  5
E70
330
D32
100
AcDbEntity
  8
Visible (ISO)
100
AcDbLine
 10
-16.00000000000363
 20
-254.0000000000004
 30
0.0
 11
-17.00000000000364
 21
-254.0000000000009
 31
0.0
  0
LINE
  5
E71
330
D32
100
AcDbEntity
  8
Visible (ISO)
100
AcDbLine
 10
-20.0
 20
-250.0000000000009
 30
0.0
 11
-20.0
 21
-251.0000000000005
 31
0.0
  0
LINE
  5
E72
330
D32
100
AcDbEntity
  8
Visible (ISO)
100
AcDbLine
 10
20.0
 20
-251.0000000000005
 30
0.0
 11
20.0
 21
-250.0000000000009
 31
0.0
  0
LINE
  5
E73
330
D32
100
AcDbEntity
  8
Visible (ISO)
100
AcDbLine
 10
368.0703942905056
 20
-254.0000000000264
 30
0.0
 11
375.1286297665756
 21
-254.0000000000214
 31
0.0
  0
LINE
  5
E74
330
D32
100
AcDbEntity
  8
Visible (ISO)
100
AcDbLine
 10
376.4351927314529
 20
-254.0000000000209
 30
0.0
 11
405.9993377718128
 21
-254.000000000025
 31
0.0
  0
LINE
  5
E75
330
D32
100
AcDbEntity
  8
Visible (ISO)
100
AcDbLine
 10
406.61665433945
 20
-254.000000000025
 30
0.0
 11
405.9993377718162
 21
-254.0000000000246
 31
0.0
  0
LINE
  5
E76
330
D32
100
AcDbEntity
  8
Visible (ISO)
100
AcDbLine
 10
376.4351927314529
 20
-254.0000000000209
 30
0.0
 11
375.1286297665756
 21
-254.0000000000214
 31
0.0
  0
SPLINE
  5
E77
330
D32
100
AcDbEntity
  8
Visible (ISO)
100
AcDbSpline
210
0.0
220
0.0
230
1.0
 70
     8
 71
     3
 72
    18
 73
    14
 74
     0
 42
0.0000000001
 43
0.0000000001
 40
-0.0006495334830793
 40
-0.0006495334830793
 40
-0.0006495334830793
 40
-0.0006495334830793
 40
0.0758859732824112
 40
0.0758859732824112
 40
0.1524214800479017
 40
0.1524214800479017
 40
0.2289569868133921
 40
0.2289569868133921
 40
0.3049914123511563
 40
0.3049914123511563
 40
0.3603756843869768
 40
0.3603756843869768
 40
0.3820280003443731
 40
0.3820280003443731
 40
0.3820280003443731
 40
0.3820280003443731
 10
368.0703942905056
 20
-254.0000000000264
 30
0.0
 10
367.7674255478814
 20
-254.0000000000264
 30
0.0
 10
367.4626749352938
 20
-253.9692187378355
 30
0.0
 10
366.8605349256213
 20
-253.8420236053003
 30
0.0
 10
366.5614027368357
 20
-253.7456102853612
 30
0.0
 10
365.9774891533233
 20
-253.4720276245435
 30
0.0
 10
365.6932001964997
 20
-253.2957455018159
 30
0.0
 10
365.1661439229392
 20
-252.8340975168067
 30
0.0
 10
364.924669363143
 20
-252.5499159061787
 30
0.0
 10
364.6102530108255
 20
-251.9477826987964
 30
0.0
 10
364.512406844904
 20
-251.6617978023723
 30
0.0
 10
364.4519862290799
 20
-251.2399294814668
 30
0.0
 10
364.4433931091371
 20
-251.1195892397223
 30
0.0
 10
364.4433931091371
 20
-251.0000000000268
 30
0.0
  0
ARC
  5
E78
330
D32
100
AcDbEntity
  8
Visible (ISO)
100
AcDbCircle
 10
406.6166543394464
 20
-251.000000000025
 30
0.0
 40
3.000000000000008
100
AcDbArc
 50
270.0
 51
0.0
  0
LINE
  5
E79
330
D32
100
AcDbEntity
  8
Visible (ISO)
100
AcDbLine
 10
364.4433931091371
 20
-251.0000000000268
 30
0.0
 11
364.4433931091371
 21
-250.0000000000268
 31
0.0
  0
LINE
  5
E7A
330
D32
100
AcDbEntity
  8
Visible (ISO)
100
AcDbLine
 10
409.6166543394464
 20
-251.000000000025
 30
0.0
 11
409.6166543394464
 21
-250.000000000025
 31
0.0
  0
LINE
  5
E7B
330
D32
100
AcDbEntity
  8
Visible (ISO)
100
AcDbLine
 10
697.1054076167128
 20
-254.0000000000896
 30
0.0
 11
710.1473262006875
 21
-254.0000000000855
 31
0.0
  0
LINE
  5
E7C
330
D32
100
AcDbEntity
  8
Visible (ISO)
100
AcDbLine
 10
711.5615397630607
 20
-254.0000000000855
 30
0.0
 11
734.1889567610304
 21
-254.0000000000923
 31
0.0
  0
LINE
  5
E7D
330
D32
100
AcDbEntity
  8
Visible (ISO)
100
AcDbLine
 10
734.4818499798421
 20
-254.0000000000928
 30
0.0
 11
734.1889567610269
 21
-254.0000000000928
 31
0.0
  0
LINE
  5
E7E
330
D32
100
AcDbEntity
  8
Visible (ISO)
100
AcDbLine
 10
711.5615397630572
 20
-254.0000000000859
 30
0.0
 11
710.1473262006875
 21
-254.0000000000859
 31
0.0
  0
SPLINE
  5
E7F
330
D32
100
AcDbEntity
  8
Visible (ISO)
100
AcDbSpline
210
0.0
220
0.0
230
1.0
 70
     8
 71
     3
 72
    18
 73
    14
 74
     0
 42
0.0000000001
 43
0.0000000001
 40
-0.0006495334830793
 40
-0.0006495334830793
 40
-0.0006495334830793
 40
-0.0006495334830793
 40
0.0758859732824112
 40
0.0758859732824112
 40
0.1524214800479017
 40
0.1524214800479017
 40
0.2289569868133921
 40
0.2289569868133921
 40
0.3054924935788827
 40
0.3054924935788827
 40
0.3597092968091812
 40
0.3597092968091812
 40
0.3820280003443731
 40
0.3820280003443731
 40
0.3820280003443731
 40
0.3820280003443731
 10
697.1054076167128
 20
-254.0000000000896
 30
0.0
 10
696.787597591985
 20
-254.0000000000896
 30
0.0
 10
696.4679208708912
 20
-253.9702865872773
 30
0.0
 10
695.8357800020892
 20
-253.8473656217266
 30
0.0
 10
695.5215202230465
 20
-253.7542014917895
 30
0.0
 10
694.9062623075294
 20
-253.4888697600945
 30
0.0
 10
694.6057834580824
 20
-253.3177362185452
 30
0.0
 10
694.0419075023782
 20
-252.8631804500887
 30
0.0
 10
693.7795276082287
 20
-252.5800892911834
 30
0.0
 10
693.4378919755545
 20
-251.9738239215221
 30
0.0
 10
693.3309377169718
 20
-251.6877986107911
 30
0.0
 10
693.2616244711534
 20
-251.2558319441773
 30
0.0
 10
693.2513423700148
 20
-251.1275054514745
 30
0.0
 10
693.2513423700148
 20
-251.0000000000896
 30
0.0
  0
ARC
  5
E80
330
D32
100
AcDbEntity
  8
Visible (ISO)
100
AcDbCircle
 10
734.4818499798421
 20
-251.0000000000923
 30
0.0
 40
3.000000000000008
100
AcDbArc
 50
270.0
 51
0.0
  0
LINE
  5
E81
330
D32
100
AcDbEntity
  8
Visible (ISO)
100
AcDbLine
 10
693.2513423700148
 20
-251.0000000000896
 30
0.0
 11
693.2513423700148
 21
-250.0000000000896
 31
0.0
  0
LINE
  5
E82
330
D32
100
AcDbEntity
  8
Visible (ISO)
100
AcDbLine
 10
737.481849979842
 20
-251.0000000000923
 30
0.0
 11
737.481849979842
 21
-250.0000000000928
 31
0.0
  0
LINE
  5
E83
330
D32
100
AcDbEntity
  8
Visible (ISO)
100
AcDbLine
 10
920.0124419095372
 20
-254.0000000001846
 30
0.0
 11
937.052529722292
 21
-254.0000000001828
 31
0.0
  0
LINE
  5
E84
330
D32
100
AcDbEntity
  8
Visible (ISO)
100
AcDbLine
 10
938.3590926871656
 20
-254.0000000001828
 30
0.0
 11
950.6049625228481
 21
-254.0000000001914
 31
0.0
  0
LINE
  5
E85
330
D32
100
AcDbEntity
  8
Visible (ISO)
100
AcDbLine
 10
950.6810829903406
 20
-254.0000000001914
 30
0.0
 11
950.6049625228481
 21
-254.0000000001914
 31
0.0
  0
LINE
  5
E86
330
D32
100
AcDbEntity
  8
Visible (ISO)
100
AcDbLine
 10
938.3590926871656
 20
-254.0000000001828
 30
0.0
 11
937.0525297222883
 21
-254.0000000001823
 31
0.0
  0
SPLINE
  5
E87
330
D32
100
AcDbEntity
  8
Visible (ISO)
100
AcDbSpline
210
0.0
220
0.0
230
1.0
 70
     8
 71
     3
 72
    10
 73
     6
 74
     0
 42
0.0000000001
 43
0.0000000001
 40
-0.0006495334830793
 40
-0.0006495334830793
 40
-0.0006495334830793
 40
-0.0006495334830793
 40
0.0758859732824112
 40
0.0758859732824112
 40
0.0857493439566776
 40
0.0857493439566776
 40
0.0857493439566776
 40
0.0857493439566776
 10
920.0124419095372
 20
-254.0000000001851
 30
0.0
 10
919.7082948733113
 20
-254.0000000001846
 30
0.0
 10
919.4023486650658
 20
-253.9693169397838
 30
0.0
 10
919.0610977233555
 20
-253.8977520431972
 30
0.0
 10
919.0221120272363
 20
-253.889036620993
 30
0.0
 10
918.9832887740449
 20
-253.8797663646997
 30
0.0
  0
ARC
  5
E88
330
D32
100
AcDbEntity
  8
Visible (ISO)
100
AcDbCircle
 10
950.681082990337
 20
-251.0000000001915
 30
0.0
 40
3.000000000000008
100
AcDbArc
 50
270.0
 51
0.0
  0
LINE
  5
E89
330
D32
100
AcDbEntity
  8
Visible (ISO)
100
AcDbLine
 10
953.681082990337
 20
-251.0000000001915
 30
0.0
 11
953.681082990337
 21
-250.0000000001914
 31
0.0
  0
LINE
  5
E8A
330
D32
100
AcDbEntity
  8
Visible (ISO)
100
AcDbLine
 10
1002.855921855182
 20
-254.0000000002983
 30
0.0
 11
1021.299979996001
 21
-254.0000000002983
 31
0.0
  0
ARC
  5
E8B
330
D32
100
AcDbEntity
  8
Visible (ISO)
100
AcDbCircle
 10
1022.299979996001
 20
-251.0000000002988
 30
0.0
 40
3.000000000000008
100
AcDbArc
 50
270.0
 51
0.0
  0
LINE
  5
E8C
330
D32
100
AcDbEntity
  8
Visible (ISO)
100
AcDbLine
 10
1022.299979996001
 20
-254.0000000002988
 30
0.0
 11
1021.299979996001
 21
-254.0000000002983
 31
0.0
  0
SPLINE
  5
E8D
330
D32
100
AcDbEntity
  8
Visible (ISO)
100
AcDbSpline
210
0.0
220
0.0
230
1.0
 70
     8
 71
     3
 72
    10
 73
     6
 74
     0
 42
0.0000000001
 43
0.0000000001
 40
-0.0006495334830793
 40
-0.0006495334830793
 40
-0.0006495334830793
 40
-0.0006495334830793
 40
0.0758859732824112
 40
0.0758859732824112
 40
0.1131120673600016
 40
0.1131120673600016
 40
0.1131120673600016
 40
0.1131120673600016
 10
1002.855921855182
 20
-254.0000000002983
 30
0.0
 10
1002.586076414063
 20
-254.0000000002983
 30
0.0
 10
1002.314642612855
 20
-253.9644303307873
 30
0.0
 10
1001.919745928098
 20
-253.8567767284003
 30
0.0
 10
1001.791592972262
 20
-253.8128130119789
 30
0.0
 10
1001.665137671258
 20
-253.7595356914999
 30
0.0
  0
SPLINE
  5
E8E
330
D32
100
AcDbEntity
  8
Visible (ISO)
100
AcDbSpline
210
0.0
220
0.0
230
1.0
 70
     8
 71
     3
 72
    10
 73
     6
 74
     0
 42
0.0000000001
 43
0.0000000001
 40
-0.382677533827571
 40
-0.382677533827571
 40
-0.382677533827571
 40
-0.382677533827571
 40
-0.3061420270620569
 40
-0.3061420270620569
 40
-0.2689336516429322
 40
-0.2689336516429322
 40
-0.2689336516429322
 40
-0.2689336516429322
 10
1002.855921855182
 20
-254.0000000003083
 30
0.0
 10
1002.586076414154
 20
-254.0000000003083
 30
0.0
 10
1002.314642612855
 20
-253.9644303307973
 30
0.0
 10
1001.919807434264
 20
-253.8567934957332
 30
0.0
 10
1001.791644817425
 20
-253.8128419399765
 30
0.0
 10
1001.665318140607
 20
-253.7596117426124
 30
0.0
  0
LINE
  5
E8F
330
D32
100
AcDbEntity
  8
Visible (ISO)
100
AcDbLine
 10
1025.299979996002
 20
-251.0000000002988
 30
0.0
 11
1025.299979996002
 21
-250.0000000002988
 31
0.0
  0
ARC
  5
E90
330
D32
100
AcDbEntity
  8
Visible (ISO)
100
AcDbCircle
 10
1022.299979996001
 20
250.9999999997017
 30
0.0
 40
3.000000000000003
100
AcDbArc
 50
0.0
 51
90.0
  0
LINE
  5
E91
330
D32
100
AcDbEntity
  8
Visible (ISO)
100
AcDbLine
 10
1021.299979996001
 20
253.9999999997021
 30
0.0
 11
1022.299979996001
 21
253.9999999997017
 31
0.0
  0
LINE
  5
E92
330
D32
100
AcDbEntity
  8
Visible (ISO)
100
AcDbLine
 10
1021.299979996001
 20
253.9999999997021
 30
0.0
 11
1002.855921855182
 21
253.9999999997021
 31
0.0
  0
SPLINE
  5
E93
330
D32
100
AcDbEntity
  8
Visible (ISO)
100
AcDbSpline
210
0.0
220
0.0
230
1.0
 70
     8
 71
     3
 72
    16
 73
    12
 74
     0
 42
0.0000000001
 43
0.0000000001
 40
-0.0006495334830793
 40
-0.0006495334830793
 40
-0.0006495334830793
 40
-0.0006495334830793
 40
0.0758859732824112
 40
0.0758859732824112
 40
0.1524214800479017
 40
0.1524214800479017
 40
0.2289569868133921
 40
0.2289569868133921
 40
0.3046225279494437
 40
0.3046225279494437
 40
0.3121821047898599
 40
0.3121821047898599
 40
0.3121821047898599
 40
0.3121821047898599
 10
1002.855921855182
 20
253.9999999996922
 30
0.0
 10
1002.586076414063
 20
253.9999999996922
 30
0.0
 10
1002.314642612855
 20
253.9644303301807
 30
0.0
 10
1001.783292532265
 20
253.8195778851955
 30
0.0
 10
1001.5218380197
 20
253.7101686058691
 30
0.0
 10
1001.02196348858
 20
253.408024802728
 30
0.0
 10
1000.784172379673
 20
253.2160270458253
 30
0.0
 10
1000.359446559192
 20
252.7362582204305
 30
0.0
 10
1000.174015840093
 20
252.4509167494384
 30
0.0
 10
1000.025373190907
 20
252.0857440044865
 30
0.0
 10
1000.012405740442
 20
252.0520826973252
 30
0.0
 10
1000.000001882959
 20
252.0181351008068
 30
0.0
  0
SPLINE
  5
E94
330
D32
100
AcDbEntity
  8
Visible (ISO)
100
AcDbSpline
210
0.0
220
0.0
230
1.0
 70
     8
 71
     3
 72
    18
 73
    14
 74
     0
 42
0.0000000001
 43
0.0000000001
 40
-0.382677533827571
 40
-0.382677533827571
 40
-0.382677533827571
 40
-0.382677533827571
 40
-0.3061420270620569
 40
-0.3061420270620569
 40
-0.2296065202965427
 40
-0.2296065202965427
 40
-0.1530710135310285
 40
-0.1530710135310285
 40
-0.0774054723896628
 40
-0.0774054723896628
 40
-0.0179148372699714
 40
-0.0179148372699714
 40
-0.0000000000000002
 40
-0.0000000000000002
 40
-0.0000000000000002
 40
-0.0000000000000002
 10
1002.855921855182
 20
253.9999999997021
 30
0.0
 10
1002.586076414154
 20
253.9999999997021
 30
0.0
 10
1002.314642612855
 20
253.9644303301912
 30
0.0
 10
1001.783292532265
 20
253.819577885206
 30
0.0
 10
1001.5218380197
 20
253.71016860588
 30
0.0
 10
1001.021963488583
 20
253.408024802739
 30
0.0
 10
1000.784172379673
 20
253.2160270458367
 30
0.0
 10
1000.359446559178
 20
252.736258220426
 30
0.0
 10
1000.174015840068
 20
252.4509167494088
 30
0.0
 10
999.9326227056336
 20
251.8578824217529
 30
0.0
 10
999.8595318722657
 20
251.5699818866046
 30
0.0
 10
999.8238007980145
 20
251.1807593362273
 30
0.0
 10
999.8196640754068
 20
251.0901464046869
 30
0.0
 10
999.8196640754068
 20
250.9999999997026
 30
0.0
  0
LINE
  5
E95
330
D32
100
AcDbEntity
  8
Visible (ISO)
100
AcDbLine
 10
1025.299979996002
 20
249.9999999997017
 30
0.0
 11
1025.299979996002
 21
250.9999999997017
 31
0.0
  0
LINE
  5
E96
330
D32
100
AcDbEntity
  8
Visible (ISO)
100
AcDbLine
 10
999.8196640754068
 20
250.9999999997026
 30
0.0
 11
999.8196640754068
 21
249.9999999997026
 31
0.0
  0
LINE
  5
E97
330
D32
100
AcDbEntity
  8
Visible (ISO)
100
AcDbLine
 10
950.6049625228481
 20
253.9999999998086
 30
0.0
 11
938.3590926871656
 21
253.9999999998172
 31
0.0
  0
LINE
  5
E98
330
D32
100
AcDbEntity
  8
Visible (ISO)
100
AcDbLine
 10
937.0525297222883
 20
253.9999999998177
 30
0.0
 11
938.3590926871656
 21
253.9999999998172
 31
0.0
  0
LINE
  5
E99
330
D32
100
AcDbEntity
  8
Visible (ISO)
100
AcDbLine
 10
937.052529722292
 20
253.9999999998172
 30
0.0
 11
920.0124419095372
 21
253.9999999998149
 31
0.0
  0
LINE
  5
E9A
330
D32
100
AcDbEntity
  8
Visible (ISO)
100
AcDbLine
 10
950.6049625228481
 20
253.9999999998086
 30
0.0
 11
950.6810829903406
 21
253.9999999998086
 31
0.0
  0
SPLINE
  5
E9B
330
D32
100
AcDbEntity
  8
Visible (ISO)
100
AcDbSpline
210
0.0
220
0.0
230
1.0
 70
     8
 71
     3
 72
    18
 73
    14
 74
     0
 42
0.0000000001
 43
0.0000000001
 40
-0.382677533827571
 40
-0.382677533827571
 40
-0.382677533827571
 40
-0.382677533827571
 40
-0.3061420270620569
 40
-0.3061420270620569
 40
-0.2296065202965427
 40
-0.2296065202965427
 40
-0.1530710135310285
 40
-0.1530710135310285
 40
-0.076925710121943
 40
-0.076925710121943
 40
-0.0216693446576244
 40
-0.0216693446576244
 40
-0.0000000000000002
 40
-0.0000000000000002
 40
-0.0000000000000002
 40
-0.0000000000000002
 10
920.0124419095372
 20
253.9999999998154
 30
0.0
 10
919.7082948733839
 20
253.9999999998154
 30
0.0
 10
919.4023486650694
 20
253.9693169394145
 30
0.0
 10
918.7977617877333
 20
253.8425269673876
 30
0.0
 10
918.4973740913811
 20
253.7464250693756
 30
0.0
 10
917.9107854845387
 20
253.4736322403887
 30
0.0
 10
917.6250770253316
 20
253.2978418670264
 30
0.0
 10
917.0944957281172
 20
252.8366508421223
 30
0.0
 10
916.8509213702707
 20
252.5522450556982
 30
0.0
 10
916.5341070028771
 20
251.949318346477
 30
0.0
 10
916.4355544364225
 20
251.6633470878896
 30
0.0
 10
916.37452096989
 20
251.2408699747862
 30
0.0
 10
916.3658181591527
 20
251.1200578760681
 30
0.0
 10
916.3658181591527
 20
250.9999999998154
 30
0.0
  0
ARC
  5
E9C
330
D32
100
AcDbEntity
  8
Visible (ISO)
100
AcDbCircle
 10
950.681082990337
 20
250.9999999998081
 30
0.0
 40
3.000000000000008
100
AcDbArc
 50
0.0
 51
90.0
  0
LINE
  5
E9D
330
D32
100
AcDbEntity
  8
Visible (ISO)
100
AcDbLine
 10
953.681082990337
 20
249.9999999998085
 30
0.0
 11
953.681082990337
 21
250.9999999998081
 31
0.0
  0
LINE
  5
E9E
330
D32
100
AcDbEntity
  8
Visible (ISO)
100
AcDbLine
 10
916.3658181591527
 20
250.9999999998154
 30
0.0
 11
916.3658181591527
 21
249.9999999998154
 31
0.0
  0
LINE
  5
E9F
330
D32
100
AcDbEntity
  8
Visible (ISO)
100
AcDbLine
 10
734.1889567610341
 20
253.9999999999077
 30
0.0
 11
711.5615397630643
 21
253.999999999915
 31
0.0
  0
LINE
  5
EA0
330
D32
100
AcDbEntity
  8
Visible (ISO)
100
AcDbLine
 10
710.147326200691
 20
253.9999999999145
 30
0.0
 11
711.5615397630607
 21
253.9999999999145
 31
0.0
  0
LINE
  5
EA1
330
D32
100
AcDbEntity
  8
Visible (ISO)
100
AcDbLine
 10
710.147326200691
 20
253.999999999915
 30
0.0
 11
697.1054076167163
 21
253.9999999999109
 31
0.0
  0
LINE
  5
EA2
330
D32
100
AcDbEntity
  8
Visible (ISO)
100
AcDbLine
 10
734.1889567610304
 20
253.9999999999077
 30
0.0
 11
734.4818499798456
 21
253.9999999999077
 31
0.0
  0
SPLINE
  5
EA3
330
D32
100
AcDbEntity
  8
Visible (ISO)
100
AcDbSpline
210
0.0
220
0.0
230
1.0
 70
     8
 71
     3
 72
    18
 73
    14
 74
     0
 42
0.0000000001
 43
0.0000000001
 40
-0.382677533827571
 40
-0.382677533827571
 40
-0.382677533827571
 40
-0.382677533827571
 40
-0.3061420270620569
 40
-0.3061420270620569
 40
-0.2296065202965427
 40
-0.2296065202965427
 40
-0.1530710135310285
 40
-0.1530710135310285
 40
-0.0765355067655144
 40
-0.0765355067655144
 40
-0.0223187035352694
 40
-0.0223187035352694
 40
-0.0000000000000002
 40
-0.0000000000000002
 40
-0.0000000000000002
 40
-0.0000000000000002
 10
697.1054076167163
 20
253.9999999999109
 30
0.0
 10
696.7875975920541
 20
253.9999999999109
 30
0.0
 10
696.4679208708984
 20
253.9702865870991
 30
0.0
 10
695.835780002093
 20
253.8473656215479
 30
0.0
 10
695.5215202230499
 20
253.7542014916107
 30
0.0
 10
694.9062623075332
 20
253.4888697599163
 30
0.0
 10
694.6057834580861
 20
253.3177362183669
 30
0.0
 10
694.0419075023819
 20
252.8631804499109
 30
0.0
 10
693.779527608236
 20
252.5800892910051
 30
0.0
 10
693.4378919755581
 20
251.9738239213439
 30
0.0
 10
693.330937716979
 20
251.6877986106133
 30
0.0
 10
693.2616244711534
 20
251.2558319439995
 30
0.0
 10
693.2513423700182
 20
251.1275054512966
 30
0.0
 10
693.2513423700182
 20
250.9999999999109
 30
0.0
  0
ARC
  5
EA4
330
D32
100
AcDbEntity
  8
Visible (ISO)
100
AcDbCircle
 10
734.4818499798456
 20
250.9999999999077
 30
0.0
 40
3.000000000000008
100
AcDbArc
 50
0.0
 51
90.0
  0
LINE
  5
EA5
330
D32
100
AcDbEntity
  8
Visible (ISO)
100
AcDbLine
 10
737.4818499798457
 20
249.9999999999077
 30
0.0
 11
737.4818499798457
 21
250.9999999999077
 31
0.0
  0
LINE
  5
EA6
330
D32
100
AcDbEntity
  8
Visible (ISO)
100
AcDbLine
 10
693.2513423700182
 20
250.9999999999109
 30
0.0
 11
693.2513423700182
 21
249.9999999999109
 31
0.0
  0
LINE
  5
EA7
330
D32
100
AcDbEntity
  8
Visible (ISO)
100
AcDbLine
 10
405.9993377718128
 20
253.999999999975
 30
0.0
 11
376.4351927314529
 21
253.9999999999791
 31
0.0
  0
LINE
  5
EA8
330
D32
100
AcDbEntity
  8
Visible (ISO)
100
AcDbLine
 10
375.1286297665756
 20
253.9999999999786
 30
0.0
 11
376.4351927314529
 21
253.9999999999791
 31
0.0
  0
LINE
  5
EA9
330
D32
100
AcDbEntity
  8
Visible (ISO)
100
AcDbLine
 10
375.1286297665756
 20
253.9999999999786
 30
0.0
 11
368.0703942905056
 21
253.9999999999736
 31
0.0
  0
LINE
  5
EAA
330
D32
100
AcDbEntity
  8
Visible (ISO)
100
AcDbLine
 10
405.9993377718162
 20
253.9999999999754
 30
0.0
 11
406.61665433945
 21
253.999999999975
 31
0.0
  0
SPLINE
  5
EAB
330
D32
100
AcDbEntity
  8
Visible (ISO)
100
AcDbSpline
210
0.0
220
0.0
230
1.0
 70
     8
 71
     3
 72
    18
 73
    14
 74
     0
 42
0.0000000001
 43
0.0000000001
 40
-0.382677533827571
 40
-0.382677533827571
 40
-0.382677533827571
 40
-0.382677533827571
 40
-0.3061420270620569
 40
-0.3061420270620569
 40
-0.2296065202965427
 40
-0.2296065202965427
 40
-0.1530710135310285
 40
-0.1530710135310285
 40
-0.0770365879924007
 40
-0.0770365879924007
 40
-0.0216523159567337
 40
-0.0216523159567337
 40
-0.0000000000000002
 40
-0.0000000000000002
 40
-0.0000000000000002
 40
-0.0000000000000002
 10
368.0703942905056
 20
253.9999999999736
 30
0.0
 10
367.7674255479542
 20
253.9999999999736
 30
0.0
 10
367.4626749352974
 20
253.9692187377823
 30
0.0
 10
366.8605349256213
 20
253.8420236052475
 30
0.0
 10
366.5614027368392
 20
253.745610285308
 30
0.0
 10
365.977489153327
 20
253.4720276244898
 30
0.0
 10
365.6932001965033
 20
253.2957455017627
 30
0.0
 10
365.1661439229392
 20
252.8340975167503
 30
0.0
 10
364.9246693631358
 20
252.5499159061192
 30
0.0
 10
364.6102530108219
 20
251.9477826987309
 30
0.0
 10
364.5124068449003
 20
251.6617978023073
 30
0.0
 10
364.4519862290799
 20
251.2399294814059
 30
0.0
 10
364.4433931091371
 20
251.1195892396649
 30
0.0
 10
364.4433931091371
 20
250.9999999999732
 30
0.0
  0
ARC
  5
EAC
330
D32
100
AcDbEntity
  8
Visible (ISO)
100
AcDbCircle
 10
406.6166543394464
 20
250.9999999999745
 30
0.0
 40
3.000000000000008
100
AcDbArc
 50
0.0
 51
90.0
  0
LINE
  5
EAD
330
D32
100
AcDbEntity
  8
Visible (ISO)
100
AcDbLine
 10
409.6166543394464
 20
249.999999999975
 30
0.0
 11
409.6166543394464
 21
250.9999999999745
 31
0.0
  0
LINE
  5
EAE
330
D32
100
AcDbEntity
  8
Visible (ISO)
100
AcDbLine
 10
364.4433931091371
 20
250.9999999999732
 30
0.0
 11
364.4433931091371
 21
249.9999999999732
 31
0.0
  0
ARC
  5
EAF
330
D32
100
AcDbEntity
  8
Visible (ISO)
100
AcDbCircle
 10
17.0
 20
251.0
 30
0.0
 40
3.000000000000008
100
AcDbArc
 50
0.0
 51
90.0
  0
LINE
  5
EB0
330
D32
100
AcDbEntity
  8
Visible (ISO)
100
AcDbLine
 10
16.0
 20
254.0
 30
0.0
 11
-16.00000000000363
 21
254.0
 31
0.0
  0
ARC
  5
EB1
330
D32
100
AcDbEntity
  8
Visible (ISO)
100
AcDbCircle
 10
-17.0
 20
251.0
 30
0.0
 40
3.000000000000003
100
AcDbArc
 50
90.0
 51
180.0
  0
LINE
  5
EB2
330
D32
100
AcDbEntity
  8
Visible (ISO)
100
AcDbLine
 10
-17.00000000000364
 20
253.9999999999996
 30
0.0
 11
-16.00000000000363
 21
254.0
 31
0.0
  0
LINE
  5
EB3
330
D32
100
AcDbEntity
  8
Visible (ISO)
100
AcDbLine
 10
16.0
 20
254.0
 30
0.0
 11
17.00000000000364
 21
253.9999999999996
 31
0.0
  0
LINE
  5
EB4
330
D32
100
AcDbEntity
  8
Visible (ISO)
100
AcDbLine
 10
20.0
 20
249.9999999999996
 30
0.0
 11
20.0
 21
251.0
 31
0.0
  0
LINE
  5
EB5
330
D32
100
AcDbEntity
  8
Visible (ISO)
100
AcDbLine
 10
-20.0
 20
251.0
 30
0.0
 11
-20.0
 21
249.9999999999996
 31
0.0
  0
LINE
  5
EB6
330
D32
100
AcDbEntity
  8
Visible (ISO)
100
AcDbLine
 10
-368.070394290502
 20
253.9999999999736
 30
0.0
 11
-375.128629766572
 21
253.9999999999786
 31
0.0
  0
LINE
  5
EB7
330
D32
100
AcDbEntity
  8
Visible (ISO)
100
AcDbLine
 10
-376.4351927314492
 20
253.9999999999791
 30
0.0
 11
-405.9993377718091
 21
253.999999999975
 31
0.0
  0
LINE
  5
EB8
330
D32
100
AcDbEntity
  8
Visible (ISO)
100
AcDbLine
 10
-406.6166543394464
 20
253.999999999975
 30
0.0
 11
-405.9993377718128
 21
253.9999999999754
 31
0.0
  0
LINE
  5
EB9
330
D32
100
AcDbEntity
  8
Visible (ISO)
100
AcDbLine
 10
-376.4351927314492
 20
253.9999999999791
 30
0.0
 11
-375.128629766572
 21
253.9999999999786
 31
0.0
  0
SPLINE
  5
EBA
330
D32
100
AcDbEntity
  8
Visible (ISO)
100
AcDbSpline
210
0.0
220
0.0
230
1.0
 70
     8
 71
     3
 72
    18
 73
    14
 74
     0
 42
0.0000000001
 43
0.0000000001
 40
-0.0006495334830793
 40
-0.0006495334830793
 40
-0.0006495334830793
 40
-0.0006495334830793
 40
0.0758859732824112
 40
0.0758859732824112
 40
0.1524214800479017
 40
0.1524214800479017
 40
0.2289569868133921
 40
0.2289569868133921
 40
0.3049914123511563
 40
0.3049914123511563
 40
0.3603756843869768
 40
0.3603756843869768
 40
0.3820280003443731
 40
0.3820280003443731
 40
0.3820280003443731
 40
0.3820280003443731
 10
-368.070394290502
 20
253.9999999999736
 30
0.0
 10
-367.7674255478778
 20
253.9999999999736
 30
0.0
 10
-367.4626749352901
 20
253.9692187377823
 30
0.0
 10
-366.8605349256177
 20
253.842023605247
 30
0.0
 10
-366.561402736832
 20
253.7456102853075
 30
0.0
 10
-365.9774891533198
 20
253.4720276244893
 30
0.0
 10
-365.693200196496
 20
253.2957455017622
 30
0.0
 10
-365.1661439229357
 20
252.8340975167525
 30
0.0
 10
-364.924669363143
 20
252.5499159061255
 30
0.0
 10
-364.6102530108255
 20
251.9477826987422
 30
0.0
 10
-364.512406844904
 20
251.6617978023187
 30
0.0
 10
-364.4519862290763
 20
251.2399294814127
 30
0.0
 10
-364.4433931091335
 20
251.1195892396686
 30
0.0
 10
-364.4433931091335
 20
250.9999999999732
 30
0.0
  0
ARC
  5
EBB
330
D32
100
AcDbEntity
  8
Visible (ISO)
100
AcDbCircle
 10
-406.6166543394428
 20
250.9999999999745
 30
0.0
 40
3.000000000000008
100
AcDbArc
 50
90.0
 51
180.0
  0
LINE
  5
EBC
330
D32
100
AcDbEntity
  8
Visible (ISO)
100
AcDbLine
 10
-364.4433931091335
 20
250.9999999999732
 30
0.0
 11
-364.4433931091335
 21
249.9999999999732
 31
0.0
  0
LINE
  5
EBD
330
D32
100
AcDbEntity
  8
Visible (ISO)
100
AcDbLine
 10
-409.6166543394464
 20
250.9999999999745
 30
0.0
 11
-409.6166543394464
 21
249.999999999975
 31
0.0
  0
LINE
  5
EBE
330
D32
100
AcDbEntity
  8
Visible (ISO)
100
AcDbLine
 10
-697.1054076167147
 20
253.9999999999104
 30
0.0
 11
-710.1473262006875
 21
253.9999999999145
 31
0.0
  0
LINE
  5
EBF
330
D32
100
AcDbEntity
  8
Visible (ISO)
100
AcDbLine
 10
-711.5615397630607
 20
253.9999999999145
 30
0.0
 11
-734.1889567610304
 21
253.9999999999077
 31
0.0
  0
LINE
  5
EC0
330
D32
100
AcDbEntity
  8
Visible (ISO)
100
AcDbLine
 10
-734.4818499798439
 20
253.9999999999072
 30
0.0
 11
-734.1889567610269
 21
253.9999999999072
 31
0.0
  0
LINE
  5
EC1
330
D32
100
AcDbEntity
  8
Visible (ISO)
100
AcDbLine
 10
-711.5615397630572
 20
253.9999999999141
 30
0.0
 11
-710.1473262006875
 21
253.9999999999141
 31
0.0
  0
SPLINE
  5
EC2
330
D32
100
AcDbEntity
  8
Visible (ISO)
100
AcDbSpline
210
0.0
220
0.0
230
1.0
 70
     8
 71
     3
 72
    18
 73
    14
 74
     0
 42
0.0000000001
 43
0.0000000001
 40
-0.0006495334830793
 40
-0.0006495334830793
 40
-0.0006495334830793
 40
-0.0006495334830793
 40
0.0758859732824112
 40
0.0758859732824112
 40
0.1524214800479017
 40
0.1524214800479017
 40
0.2289569868133921
 40
0.2289569868133921
 40
0.3054924935788827
 40
0.3054924935788827
 40
0.3597092968091812
 40
0.3597092968091812
 40
0.3820280003443731
 40
0.3820280003443731
 40
0.3820280003443731
 40
0.3820280003443731
 10
-697.1054076167147
 20
253.9999999999104
 30
0.0
 10
-696.787597591985
 20
253.9999999999104
 30
0.0
 10
-696.4679208708912
 20
253.9702865870982
 30
0.0
 10
-695.8357800020892
 20
253.8473656215474
 30
0.0
 10
-695.5215202230465
 20
253.7542014916103
 30
0.0
 10
-694.9062623075294
 20
253.4888697599154
 30
0.0
 10
-694.6057834580842
 20
253.317736218366
 30
0.0
 10
-694.0419075023782
 20
252.86318044991
 30
0.0
 10
-693.7795276082287
 20
252.5800892910043
 30
0.0
 10
-693.4378919755562
 20
251.973823921343
 30
0.0
 10
-693.3309377169718
 20
251.6877986106119
 30
0.0
 10
-693.2616244711518
 20
251.2558319439981
 30
0.0
 10
-693.2513423700148
 20
251.1275054512958
 30
0.0
 10
-693.2513423700148
 20
250.9999999999104
 30
0.0
  0
ARC
  5
EC3
330
D32
100
AcDbEntity
  8
Visible (ISO)
100
AcDbCircle
 10
-734.4818499798439
 20
250.9999999999072
 30
0.0
 40
3.000000000000008
100
AcDbArc
 50
90.0
 51
180.0
  0
LINE
  5
EC4
330
D32
100
AcDbEntity
  8
Visible (ISO)
100
AcDbLine
 10
-693.2513423700148
 20
250.9999999999104
 30
0.0
 11
-693.2513423700148
 21
249.9999999999104
 31
0.0
  0
LINE
  5
EC5
330
D32
100
AcDbEntity
  8
Visible (ISO)
100
AcDbLine
 10
-737.4818499798439
 20
250.9999999999072
 30
0.0
 11
-737.4818499798439
 21
249.9999999999072
 31
0.0
  0
LINE
  5
EC6
330
D32
100
AcDbEntity
  8
Visible (ISO)
100
AcDbLine
 10
-920.0124419095336
 20
253.9999999998149
 30
0.0
 11
-937.0525297222847
 21
253.9999999998172
 31
0.0
  0
LINE
  5
EC7
330
D32
100
AcDbEntity
  8
Visible (ISO)
100
AcDbLine
 10
-938.3590926871621
 20
253.9999999998172
 30
0.0
 11
-950.6049625228442
 21
253.9999999998086
 31
0.0
  0
LINE
  5
EC8
330
D32
100
AcDbEntity
  8
Visible (ISO)
100
AcDbLine
 10
-950.6810829903315
 20
253.9999999998086
 30
0.0
 11
-950.6049625228442
 21
253.9999999998086
 31
0.0
  0
LINE
  5
EC9
330
D32
100
AcDbEntity
  8
Visible (ISO)
100
AcDbLine
 10
-938.3590926871621
 20
253.9999999998172
 30
0.0
 11
-937.0525297222847
 21
253.9999999998177
 31
0.0
  0
SPLINE
  5
ECA
330
D32
100
AcDbEntity
  8
Visible (ISO)
100
AcDbSpline
210
0.0
220
0.0
230
1.0
 70
     8
 71
     3
 72
    18
 73
    14
 74
     0
 42
0.0000000001
 43
0.0000000001
 40
-0.0006495334830793
 40
-0.0006495334830793
 40
-0.0006495334830793
 40
-0.0006495334830793
 40
0.0758859732824112
 40
0.0758859732824112
 40
0.1524214800479017
 40
0.1524214800479017
 40
0.2289569868133921
 40
0.2289569868133921
 40
0.3051022902211925
 40
0.3051022902211925
 40
0.3603586556857728
 40
0.3603586556857728
 40
0.3820280003443731
 40
0.3820280003443731
 40
0.3820280003443731
 40
0.3820280003443731
 10
-920.0124419095336
 20
253.9999999998154
 30
0.0
 10
-919.7082948733113
 20
253.9999999998154
 30
0.0
 10
-919.4023486650639
 20
253.9693169394145
 30
0.0
 10
-918.7977617877296
 20
253.8425269673876
 30
0.0
 10
-918.4973740913774
 20
253.7464250693756
 30
0.0
 10
-917.9107854845353
 20
253.4736322403883
 30
0.0
 10
-917.6250770253282
 20
253.2978418670264
 30
0.0
 10
-917.0944957281172
 20
252.8366508421254
 30
0.0
 10
-916.850921370278
 20
252.5522450557073
 30
0.0
 10
-916.5341070028807
 20
251.9493183464942
 30
0.0
 10
-916.4355544364225
 20
251.6633470879069
 30
0.0
 10
-916.3745209698843
 20
251.2408699747971
 30
0.0
 10
-916.3658181591506
 20
251.120057876074
 30
0.0
 10
-916.3658181591506
 20
250.9999999998154
 30
0.0
  0
ARC
  5
ECB
330
D32
100
AcDbEntity
  8
Visible (ISO)
100
AcDbCircle
 10
-950.6810829903333
 20
250.9999999998081
 30
0.0
 40
3.000000000000008
100
AcDbArc
 50
90.0
 51
180.0
  0
LINE
  5
ECC
330
D32
100
AcDbEntity
  8
Visible (ISO)
100
AcDbLine
 10
-916.3658181591506
 20
250.9999999998158
 30
0.0
 11
-916.3658181591506
 21
249.9999999998154
 31
0.0
  0
LINE
  5
ECD
330
D32
100
AcDbEntity
  8
Visible (ISO)
100
AcDbLine
 10
-953.6810829903334
 20
250.9999999998081
 30
0.0
 11
-953.6810829903334
 21
249.9999999998085
 31
0.0
  0
LINE
  5
ECE
330
D32
100
AcDbEntity
  8
Visible (ISO)
100
AcDbLine
 10
-1002.855921855183
 20
253.9999999997017
 30
0.0
 11
-1021.299979996001
 21
253.9999999997017
 31
0.0
  0
ARC
  5
ECF
330
D32
100
AcDbEntity
  8
Visible (ISO)
100
AcDbCircle
 10
-1022.299979996003
 20
250.9999999997012
 30
0.0
 40
3.000000000000008
100
AcDbArc
 50
90.0
 51
180.0
  0
LINE
  5
ED0
330
D32
100
AcDbEntity
  8
Visible (ISO)
100
AcDbLine
 10
-1022.299979996001
 20
253.9999999997012
 30
0.0
 11
-1021.299979996001
 21
253.9999999997017
 31
0.0
  0
SPLINE
  5
ED1
330
D32
100
AcDbEntity
  8
Visible (ISO)
100
AcDbSpline
210
0.0
220
0.0
230
1.0
 70
     8
 71
     3
 72
    18
 73
    14
 74
     0
 42
0.0000000001
 43
0.0000000001
 40
-0.0006495334830793
 40
-0.0006495334830793
 40
-0.0006495334830793
 40
-0.0006495334830793
 40
0.0758859732824112
 40
0.0758859732824112
 40
0.1524214800479017
 40
0.1524214800479017
 40
0.2289569868133921
 40
0.2289569868133921
 40
0.3046225279494437
 40
0.3046225279494437
 40
0.364113163070094
 40
0.364113163070094
 40
0.3820280003443731
 40
0.3820280003443731
 40
0.3820280003443731
 40
0.3820280003443731
 10
-1002.855921855183
 20
253.9999999997017
 30
0.0
 10
-1002.586076414063
 20
253.9999999997017
 30
0.0
 10
-1002.314642612855
 20
253.9644303301907
 30
0.0
 10
-1001.783292532267
 20
253.819577885205
 30
0.0
 10
-1001.521838019704
 20
253.710168605879
 30
0.0
 10
-1001.021963488581
 20
253.4080248027381
 30
0.0
 10
-1000.784172379675
 20
253.2160270458362
 30
0.0
 10
-1000.35944655919
 20
252.7362582204414
 30
0.0
 10
-1000.174015840093
 20
252.4509167494489
 30
0.0
 10
-999.9326227056537
 20
251.857882421822
 30
0.0
 10
-999.8595318722784
 20
251.5699818866728
 30
0.0
 10
-999.8238007980198
 20
251.18075933627
 30
0.0
 10
-999.8196640754049
 20
251.0901464047083
 30
0.0
 10
-999.8196640754049
 20
250.9999999997021
 30
0.0
  0
SPLINE
  5
ED2
330
D32
100
AcDbEntity
  8
Visible (ISO)
100
AcDbSpline
210
0.0
220
0.0
230
1.0
 70
     8
 71
     3
 72
    16
 73
    12
 74
     0
 42
0.0000000001
 43
0.0000000001
 40
-0.382677533827571
 40
-0.382677533827571
 40
-0.382677533827571
 40
-0.382677533827571
 40
-0.3061420270620569
 40
-0.3061420270620569
 40
-0.2296065202965427
 40
-0.2296065202965427
 40
-0.1530710135310285
 40
-0.1530710135310285
 40
-0.0774054723896628
 40
-0.0774054723896628
 40
-0.0698455130671213
 40
-0.0698455130671213
 40
-0.0698455130671213
 40
-0.0698455130671213
 10
-1002.855921855183
 20
253.9999999996917
 30
0.0
 10
-1002.586076414154
 20
253.9999999996917
 30
0.0
 10
-1002.314642612855
 20
253.9644303301802
 30
0.0
 10
-1001.783292532269
 20
253.8195778851955
 30
0.0
 10
-1001.521838019704
 20
253.7101686058691
 30
0.0
 10
-1001.021963488581
 20
253.408024802728
 30
0.0
 10
-1000.784172379675
 20
253.2160270458253
 30
0.0
 10
-1000.359446559178
 20
252.7362582204141
 30
0.0
 10
-1000.174015840066
 20
252.4509167493975
 30
0.0
 10
-1000.025372507756
 20
252.0857423261723
 30
0.0
 10
-1000.012405702124
 20
252.0521370493993
 30
0.0
 10
-1000.0
 20
252.0181299391584
 30
0.0
  0
LINE
  5
ED3
330
D32
100
AcDbEntity
  8
Visible (ISO)
100
AcDbLine
 10
-1025.299979996003
 20
250.9999999997012
 30
0.0
 11
-1025.299979996003
 21
249.9999999997012
 31
0.0
  0
LINE
  5
ED4
330
D32
100
AcDbEntity
  8
Visible (ISO)
100
AcDbLine
 10
-999.8196640754049
 20
250.9999999997021
 30
0.0
 11
-999.8196640754049
 21
249.9999999997021
 31
0.0
  0
LINE
  5
ED5
330
D32
100
AcDbEntity
  8
Visible (ISO)
100
AcDbLine
 10
-715.8903710760148
 20
-270.0000000000959
 30
0.0
 11
-715.8903710760148
 21
-254.0000000000964
 31
0.0
  0
LINE
  5
ED6
330
D32
100
AcDbEntity
  8
Visible (ISO)
100
AcDbLine
 10
-715.8903710760148
 20
253.9999999999036
 30
0.0
 11
-715.8903710760148
 21
269.9999999999045
 31
0.0
  0
LINE
  5
ED7
330
D32
100
AcDbEntity
  8
Visible (ISO)
100
AcDbLine
 10
12.49999999999636
 20
-270.0000000000055
 30
0.0
 11
-715.8903710760148
 21
-270.0000000000955
 31
0.0
  0
LINE
  5
ED8
330
D32
100
AcDbEntity
  8
Visible (ISO)
100
AcDbLine
 10
-715.8903710760148
 20
269.9999999999045
 30
0.0
 11
12.5
 21
269.9999999999941
 31
0.0
  0
LINE
  5
ED9
330
D32
100
AcDbEntity
  8
Visible (ISO)
100
AcDbLine
 10
12.5
 20
-270.0000000000059
 30
0.0
 11
12.5
 21
-254.0000000000063
 31
0.0
  0
LINE
  5
EDA
330
D32
100
AcDbEntity
  8
Visible (ISO)
100
AcDbLine
 10
12.5
 20
253.9999999999936
 30
0.0
 11
12.5
 21
269.9999999999941
 31
0.0
  0
LINE
  5
EDB
330
D32
100
AcDbEntity
  8
Visible (ISO)
100
AcDbLine
 10
698.2127015463447
 20
-270.0000000000905
 30
0.0
 11
698.2127015463447
 21
-254.0000000000909
 31
0.0
  0
LINE
  5
EDC
330
D32
100
AcDbEntity
  8
Visible (ISO)
100
AcDbLine
 10
698.2127015463447
 20
253.9999999999095
 30
0.0
 11
698.2127015463447
 21
269.9999999999095
 31
0.0
  0
LINE
  5
EDD
330
D32
100
AcDbEntity
  8
Visible (ISO)
100
AcDbLine
 10
1000.0
 20
-270.0000000003029
 30
0.0
 11
698.2127015463484
 21
-270.0000000000905
 31
0.0
  0
LINE
  5
EDE
330
D32
100
AcDbEntity
  8
Visible (ISO)
100
AcDbLine
 10
698.2127015463447
 20
269.9999999999095
 30
0.0
 11
1000.0
 21
269.9999999996971
 31
0.0
  0
LINE
  5
EDF
330
D32
100
AcDbEntity
  8
Visible (ISO)
100
AcDbLine
 10
1000.0
 20
269.9999999996971
 30
0.0
 11
1000.0
 21
252.0181299391643
 31
0.0
  0
LINE
  5
EE0
330
D32
100
AcDbEntity
  8
Visible (ISO)
100
AcDbLine
 10
1000.0
 20
-253.4117795756561
 30
0.0
 11
1000.0
 21
-270.0000000003029
 31
0.0
  0
LINE
  5
EE1
330
D32
100
AcDbEntity
  8
Visible (ISO)
100
AcDbLine
 10
-719.3728658403122
 20
-270.000000000095
 30
0.0
 11
-999.8468632745737
 21
-270.0000000002951
 31
0.0
  0
LINE
  5
EE2
330
D32
100
AcDbEntity
  8
Visible (ISO)
100
AcDbLine
 10
-999.8468632745716
 20
269.9999999997044
 30
0.0
 11
-719.3728658403122
 21
269.999999999905
 31
0.0
  0
LINE
  5
EE3
330
D32
100
AcDbEntity
  8
Visible (ISO)
100
AcDbLine
 10
-719.3728658403122
 20
-270.000000000095
 30
0.0
 11
-719.3728658403122
 21
-254.0000000000973
 31
0.0
  0
LINE
  5
EE4
330
D32
100
AcDbEntity
  8
Visible (ISO)
100
AcDbLine
 10
-719.3728658403122
 20
253.9999999999031
 30
0.0
 11
-719.3728658403122
 21
269.9999999999054
 31
0.0
  0
LINE
  5
EE5
330
D32
100
AcDbEntity
  8
Visible (ISO)
100
AcDbLine
 10
-999.8468632745737
 20
269.9999999997049
 30
0.0
 11
-999.8468632745737
 21
251.4005356016765
 31
0.0
  0
LINE
  5
EE6
330
D32
100
AcDbEntity
  8
Visible (ISO)
100
AcDbLine
 10
-999.8468632745737
 20
-253.367778872589
 30
0.0
 11
-999.8468632745737
 21
-270.0000000002956
 31
0.0
  0
LINE
  5
EE7
330
D32
100
AcDbEntity
  8
Visible (ISO)
100
AcDbLine
 10
694.6241284987881
 20
-270.0000000000873
 30
0.0
 11
17.5
 21
-270.0000000000037
 31
0.0
  0
LINE
  5
EE8
330
D32
100
AcDbEntity
  8
Visible (ISO)
100
AcDbLine
 10
17.5
 20
269.9999999999964
 30
0.0
 11
694.6241284987843
 21
269.9999999999127
 31
0.0
  0
LINE
  5
EE9
330
D32
100
AcDbEntity
  8
Visible (ISO)
100
AcDbLine
 10
694.6241284987843
 20
-270.0000000000878
 30
0.0
 11
694.6241284987843
 21
-253.3075640499587
 31
0.0
  0
LINE
  5
EEA
330
D32
100
AcDbEntity
  8
Visible (ISO)
100
AcDbLine
 10
694.6241284987843
 20
-208.0000000000914
 30
0.0
 11
694.6241284987843
 21
-207.50000000009
 31
0.0
  0
LINE
  5
EEB
330
D32
100
AcDbEntity
  8
Visible (ISO)
100
AcDbLine
 10
694.6241284987843
 20
207.49999999991
 30
0.0
 11
694.6241284987843
 21
207.9999999999113
 31
0.0
  0
LINE
  5
EEC
330
D32
100
AcDbEntity
  8
Visible (ISO)
100
AcDbLine
 10
694.6241284987843
 20
253.3075640497782
 30
0.0
 11
694.6241284987843
 21
269.9999999999127
 31
0.0
  0
LINE
  5
EED
330
D32
100
AcDbEntity
  8
Visible (ISO)
100
AcDbLine
 10
17.5
 20
269.9999999999964
 30
0.0
 11
17.5
 21
253.9580398915432
 31
0.0
  0
LINE
  5
EEE
330
D32
100
AcDbEntity
  8
Visible (ISO)
100
AcDbLine
 10
17.49999999999636
 20
207.9999999999945
 30
0.0
 11
17.49999999999636
 21
207.4999999999936
 31
0.0
  0
LINE
  5
EEF
330
D32
100
AcDbEntity
  8
Visible (ISO)
100
AcDbLine
 10
17.5
 20
-207.5000000000068
 30
0.0
 11
17.5
 21
-208.0000000000082
 31
0.0
  0
LINE
  5
EF0
330
D32
100
AcDbEntity
  8
Visible (ISO)
100
AcDbLine
 10
17.5
 20
-253.9580398915564
 30
0.0
 11
17.5
 21
-270.0000000000037
 31
0.0
  0
SPLINE
  5
EF1
330
D32
100
AcDbEntity
  8
Visible (ISO)
100
AcDbSpline
210
0.0
220
0.0
230
1.0
 70
    12
 71
     2
 72
     6
 73
     3
 74
     0
 42
0.0000000001
 43
0.0000000001
 40
0.3099592287807007
 40
0.3099592287807007
 40
0.3099592287807007
 40
0.6199184575614014
 40
0.6199184575614014
 40
0.6199184575614014
 10
1108.0
 20
-245.400000000303
 30
0.0
 41
1.0
 10
1106.75735931288
 20
-245.4000000003031
 30
0.0
 41
1.098684113467806
 10
1105.0
 20
-246.1174389355169
 30
0.0
 41
1.0
  0
SPLINE
  5
EF2
330
D32
100
AcDbEntity
  8
Visible (ISO)
100
AcDbSpline
210
0.0
220
0.0
230
1.0
 70
    28
 71
     2
 72
     6
 73
     3
 74
     0
 42
0.0000000001
 43
0.0000000001
 40
0.0
 40
0.0
 40
0.0
 40
0.3099592287807002
 40
0.3099592287807002
 40
0.3099592287807002
 10
1105.0
 20
-246.1174389355169
 30
0.0
 41
1.0
 10
1105.0
 20
-245.4000000003034
 30
0.0
 41
1.098684113467805
 10
1105.0
 20
-245.4000000003039
 30
0.0
 41
1.0
  0
SPLINE
  5
EF3
330
D32
100
AcDbEntity
  8
Visible (ISO)
100
AcDbSpline
210
0.0
220
0.0
230
1.0
 70
    12
 71
     2
 72
     6
 73
     3
 74
     0
 42
0.0000000001
 43
0.0000000001
 40
0.0
 40
0.0
 40
0.0
 40
0.3099592287807007
 40
0.3099592287807007
 40
0.3099592287807007
 10
1111.0
 20
-246.1174389355169
 30
0.0
 41
1.0
 10
1109.24264068712
 20
-245.4000000003031
 30
0.0
 41
1.098684113467806
 10
1108.0
 20
-245.400000000303
 30
0.0
 41
1.0
  0
SPLINE
  5
EF4
330
D32
100
AcDbEntity
  8
Visible (ISO)
100
AcDbSpline
210
0.0
220
0.0
230
1.0
 70
    28
 71
     2
 72
     6
 73
     3
 74
     0
 42
0.0000000001
 43
0.0000000001
 40
0.3099592287807001
 40
0.3099592287807001
 40
0.3099592287807001
 40
0.6199184575614001
 40
0.6199184575614001
 40
0.6199184575614001
 10
1111.0
 20
-245.4000000003039
 30
0.0
 41
1.0
 10
1111.0
 20
-245.4000000003034
 30
0.0
 41
1.098684113467798
 10
1111.0
 20
-246.1174389355169
 30
0.0
 41
1.0
  0
LINE
  5
EF5
330
D32
100
AcDbEntity
  8
Visible (ISO)
100
AcDbLine
 10
1116.275000000001
 20
-250.7818090385872
 30
0.0
 11
1099.724999999998
 21
-250.7818090385872
 31
0.0
  0
ARC
  5
EF6
330
D32
100
AcDbEntity
  8
Visible (ISO)
100
AcDbCircle
 10
1108.0
 20
-241.2800000003035
 30
0.0
 40
12.6
100
AcDbArc
 50
228.9478237047254
 51
311.0521762952746
  0
LINE
  5
EF7
330
D32
100
AcDbEntity
  8
Visible (ISO)
100
AcDbLine
 10
1099.724999999998
 20
-250.7818090385872
 30
0.0
 11
1099.724999999998
 21
-250.0000000003038
 31
0.0
  0
LINE
  5
EF8
330
D32
100
AcDbEntity
  8
Visible (ISO)
100
AcDbLine
 10
1116.275000000001
 20
-250.7818090385872
 30
0.0
 11
1116.275000000001
 21
-250.0000000003038
 31
0.0
  0
SPLINE
  5
EF9
330
D32
100
AcDbEntity
  8
Visible (ISO)
100
AcDbSpline
210
0.0
220
0.0
230
1.0
 70
    28
 71
     2
 72
     6
 73
     3
 74
     0
 42
0.0000000001
 43
0.0000000001
 40
0.3099592287807002
 40
0.3099592287807002
 40
0.3099592287807002
 40
0.6199184575614006
 40
0.6199184575614006
 40
0.6199184575614006
 10
-1104.999999999998
 20
-245.4000000003039
 30
0.0
 41
1.0
 10
-1104.999999999998
 20
-245.4000000003034
 30
0.0
 41
1.098684113467802
 10
-1104.999999999998
 20
-246.1174389355169
 30
0.0
 41
1.0
  0
SPLINE
  5
EFA
330
D32
100
AcDbEntity
  8
Visible (ISO)
100
AcDbSpline
210
0.0
220
0.0
230
1.0
 70
    12
 71
     2
 72
     6
 73
     3
 74
     0
 42
0.0000000001
 43
0.0000000001
 40
0.0
 40
0.0
 40
0.0
 40
0.3099592287807002
 40
0.3099592287807002
 40
0.3099592287807002
 10
-1104.999999999998
 20
-246.1174389355169
 30
0.0
 41
1.0
 10
-1106.757359312878
 20
-245.400000000303
 30
0.0
 41
1.098684113467809
 10
-1107.999999999998
 20
-245.400000000303
 30
0.0
 41
1.0
  0
SPLINE
  5
EFB
330
D32
100
AcDbEntity
  8
Visible (ISO)
100
AcDbSpline
210
0.0
220
0.0
230
1.0
 70
    28
 71
     2
 72
     6
 73
     3
 74
     0
 42
0.0000000001
 43
0.0000000001
 40
0.0
 40
0.0
 40
0.0
 40
0.3099592287807001
 40
0.3099592287807001
 40
0.3099592287807001
 10
-1110.999999999998
 20
-246.1174389355169
 30
0.0
 41
1.0
 10
-1110.999999999998
 20
-245.4000000003034
 30
0.0
 41
1.098684113467812
 10
-1110.999999999998
 20
-245.4000000003039
 30
0.0
 41
1.0
  0
SPLINE
  5
EFC
330
D32
100
AcDbEntity
  8
Visible (ISO)
100
AcDbSpline
210
0.0
220
0.0
230
1.0
 70
    12
 71
     2
 72
     6
 73
     3
 74
     0
 42
0.0000000001
 43
0.0000000001
 40
0.3099592287807002
 40
0.3099592287807002
 40
0.3099592287807002
 40
0.6199184575614006
 40
0.6199184575614006
 40
0.6199184575614006
 10
-1107.999999999998
 20
-245.400000000303
 30
0.0
 41
1.0
 10
-1109.242640687118
 20
-245.400000000303
 30
0.0
 41
1.098684113467809
 10
-1110.999999999998
 20
-246.1174389355169
 30
0.0
 41
1.0
  0
LINE
  5
EFD
330
D32
100
AcDbEntity
  8
Visible (ISO)
100
AcDbLine
 10
-1099.725
 20
-250.7818090385872
 30
0.0
 11
-1116.274999999998
 21
-250.7818090385872
 31
0.0
  0
ARC
  5
EFE
330
D32
100
AcDbEntity
  8
Visible (ISO)
100
AcDbCircle
 10
-1107.999999999998
 20
-241.2800000003035
 30
0.0
 40
12.6
100
AcDbArc
 50
228.9478237047254
 51
311.0521762952746
  0
LINE
  5
EFF
330
D32
100
AcDbEntity
  8
Visible (ISO)
100
AcDbLine
 10
-1116.274999999998
 20
-250.7818090385872
 30
0.0
 11
-1116.274999999998
 21
-250.0000000003038
 31
0.0
  0
LINE
  5
F00
330
D32
100
AcDbEntity
  8
Visible (ISO)
100
AcDbLine
 10
-1099.725
 20
-250.7818090385872
 30
0.0
 11
-1099.725
 21
-250.0000000003038
 31
0.0
  0
LINE
  5
F01
330
D32
100
AcDbEntity
  8
Visible (ISO)
100
AcDbLine
 10
-1029.558365521616
 20
-250.7818090384717
 30
0.0
 11
-1046.108365521615
 21
-250.7818090384717
 31
0.0
  0
ARC
  5
F02
330
D32
100
AcDbEntity
  8
Visible (ISO)
100
AcDbCircle
 10
-1037.833365521615
 20
-241.2800000001884
 30
0.0
 40
12.6
100
AcDbArc
 50
228.9478237047254
 51
311.0521762952746
  0
LINE
  5
F03
330
D32
100
AcDbEntity
  8
Visible (ISO)
100
AcDbLine
 10
-1046.108365521615
 20
-250.7818090384717
 30
0.0
 11
-1046.108365521615
 21
-250.0000000001882
 31
0.0
  0
LINE
  5
F04
330
D32
100
AcDbEntity
  8
Visible (ISO)
100
AcDbLine
 10
-1029.558365521616
 20
-250.7818090384717
 30
0.0
 11
-1029.558365521616
 21
-250.0000000001882
 31
0.0
  0
LINE
  5
F05
330
D32
100
AcDbEntity
  8
Visible (ISO)
100
AcDbLine
 10
-999.9614015258083
 20
-250.7818090384508
 30
0.0
 11
-1016.511401525808
 21
-250.7818090384508
 31
0.0
  0
ARC
  5
F06
330
D32
100
AcDbEntity
  8
Visible (ISO)
100
AcDbCircle
 10
-1008.236401525808
 20
-241.2800000001675
 30
0.0
 40
12.6
100
AcDbArc
 50
228.9478237047254
 51
311.0521762952746
  0
LINE
  5
F07
330
D32
100
AcDbEntity
  8
Visible (ISO)
100
AcDbLine
 10
-1016.511401525808
 20
-250.7818090384508
 30
0.0
 11
-1016.511401525808
 21
-250.0000000001673
 31
0.0
  0
LINE
  5
F08
330
D32
100
AcDbEntity
  8
Visible (ISO)
100
AcDbLine
 10
-999.9614015258083
 20
-250.7818090384508
 30
0.0
 11
-999.9614015258083
 21
-250.0000000001673
 31
0.0
  0
LINE
  5
F09
330
D32
100
AcDbEntity
  8
Visible (ISO)
100
AcDbLine
 10
-775.1993135546909
 20
-250.7818090383544
 30
0.0
 11
-791.7493135546919
 21
-250.7818090383544
 31
0.0
  0
ARC
  5
F0A
330
D32
100
AcDbEntity
  8
Visible (ISO)
100
AcDbCircle
 10
-783.4743135546922
 20
-241.2800000000711
 30
0.0
 40
12.6
100
AcDbArc
 50
228.9478237047254
 51
311.0521762952746
  0
LINE
  5
F0B
330
D32
100
AcDbEntity
  8
Visible (ISO)
100
AcDbLine
 10
-791.7493135546919
 20
-250.7818090383544
 30
0.0
 11
-791.7493135546919
 21
-250.000000000071
 31
0.0
  0
LINE
  5
F0C
330
D32
100
AcDbEntity
  8
Visible (ISO)
100
AcDbLine
 10
-775.1993135546909
 20
-250.7818090383544
 30
0.0
 11
-775.1993135546909
 21
-250.000000000071
 31
0.0
  0
LINE
  5
F0D
330
D32
100
AcDbEntity
  8
Visible (ISO)
100
AcDbLine
 10
-451.2066194781763
 20
-250.7818090382875
 30
0.0
 11
-467.7566194781756
 21
-250.7818090382875
 31
0.0
  0
ARC
  5
F0E
330
D32
100
AcDbEntity
  8
Visible (ISO)
100
AcDbCircle
 10
-459.4816194781741
 20
-241.2800000000043
 30
0.0
 40
12.6
100
AcDbArc
 50
228.9478237047254
 51
311.0521762952746
  0
LINE
  5
F0F
330
D32
100
AcDbEntity
  8
Visible (ISO)
100
AcDbLine
 10
-467.7566194781756
 20
-250.7818090382875
 30
0.0
 11
-467.7566194781756
 21
-250.0000000000041
 31
0.0
  0
LINE
  5
F10
330
D32
100
AcDbEntity
  8
Visible (ISO)
100
AcDbLine
 10
-451.2066194781763
 20
-250.7818090382875
 30
0.0
 11
-451.2066194781763
 21
-250.0000000000041
 31
0.0
  0
LINE
  5
F11
330
D32
100
AcDbEntity
  8
Visible (ISO)
100
AcDbLine
 10
-379.753227594425
 20
-250.781809038279
 30
0.0
 11
-396.3032275944279
 21
-250.781809038279
 31
0.0
  0
ARC
  5
F12
330
D32
100
AcDbEntity
  8
Visible (ISO)
100
AcDbCircle
 10
-388.0282275944265
 20
-241.2799999999957
 30
0.0
 40
12.6
100
AcDbArc
 50
228.9478237047254
 51
311.0521762952746
  0
LINE
  5
F13
330
D32
100
AcDbEntity
  8
Visible (ISO)
100
AcDbLine
 10
-396.3032275944279
 20
-250.781809038279
 30
0.0
 11
-396.3032275944279
 21
-249.9999999999955
 31
0.0
  0
LINE
  5
F14
330
D32
100
AcDbEntity
  8
Visible (ISO)
100
AcDbLine
 10
-379.753227594425
 20
-250.781809038279
 30
0.0
 11
-379.753227594425
 21
-249.9999999999955
 31
0.0
  0
LINE
  5
F15
330
D32
100
AcDbEntity
  8
Visible (ISO)
100
AcDbLine
 10
8.275000000001455
 20
-250.7818090382579
 30
0.0
 11
-8.275000000001455
 21
-250.7818090382579
 31
0.0
  0
ARC
  5
F16
330
D32
100
AcDbEntity
  8
Visible (ISO)
100
AcDbCircle
 10
0.0
 20
-241.2799999999748
 30
0.0
 40
12.6
100
AcDbArc
 50
228.9478237047254
 51
311.0521762952746
  0
LINE
  5
F17
330
D32
100
AcDbEntity
  8
Visible (ISO)
100
AcDbLine
 10
-8.275000000001455
 20
-250.7818090382579
 30
0.0
 11
-8.275000000001455
 21
-249.9999999999745
 31
0.0
  0
LINE
  5
F18
330
D32
100
AcDbEntity
  8
Visible (ISO)
100
AcDbLine
 10
8.275000000001455
 20
-250.7818090382579
 30
0.0
 11
8.275000000001455
 21
-249.9999999999745
 31
0.0
  0
LINE
  5
F19
330
D32
100
AcDbEntity
  8
Visible (ISO)
100
AcDbLine
 10
396.3032275944315
 20
-250.781809038279
 30
0.0
 11
379.7532275944286
 21
-250.781809038279
 31
0.0
  0
ARC
  5
F1A
330
D32
100
AcDbEntity
  8
Visible (ISO)
100
AcDbCircle
 10
388.0282275944302
 20
-241.2799999999957
 30
0.0
 40
12.6
100
AcDbArc
 50
228.9478237047254
 51
311.0521762952746
  0
LINE
  5
F1B
330
D32
100
AcDbEntity
  8
Visible (ISO)
100
AcDbLine
 10
379.7532275944286
 20
-250.781809038279
 30
0.0
 11
379.7532275944286
 21
-249.9999999999955
 31
0.0
  0
LINE
  5
F1C
330
D32
100
AcDbEntity
  8
Visible (ISO)
100
AcDbLine
 10
396.3032275944315
 20
-250.781809038279
 30
0.0
 11
396.3032275944315
 21
-249.9999999999955
 31
0.0
  0
LINE
  5
F1D
330
D32
100
AcDbEntity
  8
Visible (ISO)
100
AcDbLine
 10
467.7566194781756
 20
-250.7818090382875
 30
0.0
 11
451.2066194781728
 21
-250.7818090382875
 31
0.0
  0
ARC
  5
F1E
330
D32
100
AcDbEntity
  8
Visible (ISO)
100
AcDbCircle
 10
459.4816194781741
 20
-241.2800000000043
 30
0.0
 40
12.6
100
AcDbArc
 50
228.9478237047254
 51
311.0521762952746
  0
LINE
  5
F1F
330
D32
100
AcDbEntity
  8
Visible (ISO)
100
AcDbLine
 10
451.2066194781728
 20
-250.7818090382875
 30
0.0
 11
451.2066194781728
 21
-250.0000000000041
 31
0.0
  0
LINE
  5
F20
330
D32
100
AcDbEntity
  8
Visible (ISO)
100
AcDbLine
 10
467.7566194781756
 20
-250.7818090382875
 30
0.0
 11
467.7566194781756
 21
-250.0000000000041
 31
0.0
  0
LINE
  5
F21
330
D32
100
AcDbEntity
  8
Visible (ISO)
100
AcDbLine
 10
791.7493135546974
 20
-250.7818090383544
 30
0.0
 11
775.1993135546945
 21
-250.7818090383544
 31
0.0
  0
ARC
  5
F22
330
D32
100
AcDbEntity
  8
Visible (ISO)
100
AcDbCircle
 10
783.4743135546959
 20
-241.2800000000711
 30
0.0
 40
12.6
100
AcDbArc
 50
228.9478237047254
 51
311.0521762952746
  0
LINE
  5
F23
330
D32
100
AcDbEntity
  8
Visible (ISO)
100
AcDbLine
 10
775.1993135546945
 20
-250.7818090383544
 30
0.0
 11
775.1993135546945
 21
-250.000000000071
 31
0.0
  0
LINE
  5
F24
330
D32
100
AcDbEntity
  8
Visible (ISO)
100
AcDbLine
 10
791.7493135546974
 20
-250.7818090383544
 30
0.0
 11
791.7493135546974
 21
-250.000000000071
 31
0.0
  0
LINE
  5
F25
330
D32
100
AcDbEntity
  8
Visible (ISO)
100
AcDbLine
 10
1016.511401525811
 20
-250.7818090384508
 30
0.0
 11
999.9614015258083
 21
-250.7818090384508
 31
0.0
  0
ARC
  5
F26
330
D32
100
AcDbEntity
  8
Visible (ISO)
100
AcDbCircle
 10
1008.23640152581
 20
-241.2800000001675
 30
0.0
 40
12.6
100
AcDbArc
 50
228.9478237047254
 51
311.0521762952746
  0
LINE
  5
F27
330
D32
100
AcDbEntity
  8
Visible (ISO)
100
AcDbLine
 10
999.9614015258083
 20
-250.7818090384508
 30
0.0
 11
999.9614015258083
 21
-250.0000000001673
 31
0.0
  0
LINE
  5
F28
330
D32
100
AcDbEntity
  8
Visible (ISO)
100
AcDbLine
 10
1016.511401525811
 20
-250.7818090384508
 30
0.0
 11
1016.511401525811
 21
-250.0000000001673
 31
0.0
  0
LINE
  5
F29
330
D32
100
AcDbEntity
  8
Visible (ISO)
100
AcDbLine
 10
1046.108365521617
 20
-250.7818090384717
 30
0.0
 11
1029.558365521618
 21
-250.7818090384717
 31
0.0
  0
ARC
  5
F2A
330
D32
100
AcDbEntity
  8
Visible (ISO)
100
AcDbCircle
 10
1037.833365521615
 20
-241.2800000001884
 30
0.0
 40
12.6
100
AcDbArc
 50
228.9478237047254
 51
311.0521762952746
  0
LINE
  5
F2B
330
D32
100
AcDbEntity
  8
Visible (ISO)
100
AcDbLine
 10
1029.558365521618
 20
-250.7818090384717
 30
0.0
 11
1029.558365521618
 21
-250.0000000001882
 31
0.0
  0
LINE
  5
F2C
330
D32
100
AcDbEntity
  8
Visible (ISO)
100
AcDbLine
 10
1046.108365521617
 20
-250.7818090384717
 30
0.0
 11
1046.108365521617
 21
-250.0000000001882
 31
0.0
  0
LINE
  5
F2D
330
D32
100
AcDbEntity
  8
Visible (ISO)
100
AcDbLine
 10
-952.0394396902812
 20
-208.0000000001987
 30
0.0
 11
-952.0394396902812
 21
-207.5000000001983
 31
0.0
  0
LINE
  5
F2E
330
D32
100
AcDbEntity
  8
Visible (ISO)
100
AcDbLine
 10
-925.0602577085427
 20
-208.0000000001791
 30
0.0
 11
-925.0602577085427
 21
-207.5000000001787
 31
0.0
  0
LINE
  5
F2F
330
D32
100
AcDbEntity
  8
Visible (ISO)
100
AcDbLine
 10
-913.0602577085427
 20
-208.0000000001791
 30
0.0
 11
-913.0602577085427
 21
-207.5000000001787
 31
0.0
  0
LINE
  5
F30
330
D32
100
AcDbEntity
  8
Visible (ISO)
100
AcDbLine
 10
-797.0070717400687
 20
-208.0000000001173
 30
0.0
 11
-797.0070717400687
 21
-207.5000000001169
 31
0.0
  0
LINE
  5
F31
330
D32
100
AcDbEntity
  8
Visible (ISO)
100
AcDbLine
 10
-785.0070717400686
 20
-208.0000000001173
 30
0.0
 11
-785.0070717400686
 21
-207.5000000001169
 31
0.0
  0
LINE
  5
F32
330
D32
100
AcDbEntity
  8
Visible (ISO)
100
AcDbLine
 10
-634.0189586765664
 20
-208.0000000000687
 30
0.0
 11
-634.0189586765664
 21
-207.5000000000687
 31
0.0
  0
LINE
  5
F33
330
D32
100
AcDbEntity
  8
Visible (ISO)
100
AcDbLine
 10
-622.0189586765664
 20
-208.0000000000687
 30
0.0
 11
-622.0189586765664
 21
-207.5000000000687
 31
0.0
  0
LINE
  5
F34
330
D32
100
AcDbEntity
  8
Visible (ISO)
100
AcDbLine
 10
-424.841548441298
 20
-208.0000000000305
 30
0.0
 11
-424.841548441298
 21
-207.5000000000305
 31
0.0
  0
LINE
  5
F35
330
D32
100
AcDbEntity
  8
Visible (ISO)
100
AcDbLine
 10
-412.8415484412981
 20
-208.0000000000305
 30
0.0
 11
-412.8415484412981
 21
-207.5000000000305
 31
0.0
  0
LINE
  5
F36
330
D32
100
AcDbEntity
  8
Visible (ISO)
100
AcDbLine
 10
-359.7080413992517
 20
-208.0000000000227
 30
0.0
 11
-359.7080413992517
 21
-207.5000000000223
 31
0.0
  0
LINE
  5
F37
330
D32
100
AcDbEntity
  8
Visible (ISO)
100
AcDbLine
 10
-347.7080413992517
 20
-208.0000000000227
 30
0.0
 11
-347.7080413992517
 21
-207.5000000000223
 31
0.0
  0
LINE
  5
F38
330
D32
100
AcDbEntity
  8
Visible (ISO)
100
AcDbLine
 10
-121.25
 20
-208.0000000000059
 30
0.0
 11
-121.25
 21
-207.5000000000055
 31
0.0
  0
LINE
  5
F39
330
D32
100
AcDbEntity
  8
Visible (ISO)
100
AcDbLine
 10
-109.25
 20
-208.0000000000059
 30
0.0
 11
-109.25
 21
-207.5000000000055
 31
0.0
  0
LINE
  5
F3A
330
D32
100
AcDbEntity
  8
Visible (ISO)
100
AcDbLine
 10
109.25
 20
-208.0000000000059
 30
0.0
 11
109.25
 21
-207.5000000000055
 31
0.0
  0
LINE
  5
F3B
330
D32
100
AcDbEntity
  8
Visible (ISO)
100
AcDbLine
 10
121.25
 20
-208.0000000000059
 30
0.0
 11
121.25
 21
-207.5000000000055
 31
0.0
  0
LINE
  5
F3C
330
D32
100
AcDbEntity
  8
Visible (ISO)
100
AcDbLine
 10
347.7080413992517
 20
-208.0000000000227
 30
0.0
 11
347.7080413992517
 21
-207.5000000000223
 31
0.0
  0
LINE
  5
F3D
330
D32
100
AcDbEntity
  8
Visible (ISO)
100
AcDbLine
 10
359.7080413992517
 20
-208.0000000000227
 30
0.0
 11
359.7080413992517
 21
-207.5000000000223
 31
0.0
  0
LINE
  5
F3E
330
D32
100
AcDbEntity
  8
Visible (ISO)
100
AcDbLine
 10
412.8415484412981
 20
-208.0000000000305
 30
0.0
 11
412.8415484412981
 21
-207.5000000000305
 31
0.0
  0
LINE
  5
F3F
330
D32
100
AcDbEntity
  8
Visible (ISO)
100
AcDbLine
 10
424.8415484413016
 20
-208.0000000000305
 30
0.0
 11
424.8415484413016
 21
-207.5000000000305
 31
0.0
  0
LINE
  5
F40
330
D32
100
AcDbEntity
  8
Visible (ISO)
100
AcDbLine
 10
622.01895867657
 20
-208.0000000000687
 30
0.0
 11
622.01895867657
 21
-207.5000000000687
 31
0.0
  0
LINE
  5
F41
330
D32
100
AcDbEntity
  8
Visible (ISO)
100
AcDbLine
 10
634.01895867657
 20
-208.0000000000687
 30
0.0
 11
634.01895867657
 21
-207.5000000000687
 31
0.0
  0
LINE
  5
F42
330
D32
100
AcDbEntity
  8
Visible (ISO)
100
AcDbLine
 10
797.0070717400702
 20
-208.0000000001173
 30
0.0
 11
797.0070717400702
 21
-207.5000000001169
 31
0.0
  0
LINE
  5
F43
330
D32
100
AcDbEntity
  8
Visible (ISO)
100
AcDbLine
 10
913.0602577085447
 20
-208.0000000001791
 30
0.0
 11
913.0602577085447
 21
-207.5000000001787
 31
0.0
  0
LINE
  5
F44
330
D32
100
AcDbEntity
  8
Visible (ISO)
100
AcDbLine
 10
925.0602577085446
 20
-208.0000000001791
 30
0.0
 11
925.0602577085446
 21
-207.5000000001787
 31
0.0
  0
LINE
  5
F45
330
D32
100
AcDbEntity
  8
Visible (ISO)
100
AcDbLine
 10
952.0394396902847
 20
-208.0000000001987
 30
0.0
 11
952.0394396902847
 21
-207.5000000001983
 31
0.0
  0
LINE
  5
F46
330
D32
100
AcDbEntity
  8
Visible (ISO)
100
AcDbLine
 10
-995.1279287878334
 20
-250.7818090385526
 30
0.0
 11
-999.9614015258083
 21
-250.7818090385504
 31
0.0
  0
ARC
  5
F47
330
D32
100
AcDbEntity
  8
Visible (ISO)
100
AcDbCircle
 10
-1003.402928787831
 20
-241.2800000002694
 30
0.0
 40
12.6
100
AcDbArc
 50
258.9418900152276
 51
311.0521762952746
  0
LINE
  5
F48
330
D32
100
AcDbEntity
  8
Visible (ISO)
100
AcDbLine
 10
-995.1279287878334
 20
-250.7818090385526
 30
0.0
 11
-995.1279287878334
 21
-250.0000000002692
 31
0.0
  0
LINE
  5
F49
330
D32
100
AcDbEntity
  8
Visible (ISO)
100
AcDbLine
 10
-910.7852577085433
 20
-250.7818090384626
 30
0.0
 11
-927.3352577085423
 21
-250.7818090384626
 31
0.0
  0
ARC
  5
F4A
330
D32
100
AcDbEntity
  8
Visible (ISO)
100
AcDbCircle
 10
-919.0602577085426
 20
-241.2800000001794
 30
0.0
 40
12.6
100
AcDbArc
 50
228.9478237047254
 51
311.0521762952746
  0
LINE
  5
F4B
330
D32
100
AcDbEntity
  8
Visible (ISO)
100
AcDbLine
 10
-927.3352577085423
 20
-250.7818090384626
 30
0.0
 11
-927.3352577085423
 21
-250.0000000001792
 31
0.0
  0
LINE
  5
F4C
330
D32
100
AcDbEntity
  8
Visible (ISO)
100
AcDbLine
 10
-910.7852577085433
 20
-250.7818090384626
 30
0.0
 11
-910.7852577085433
 21
-250.0000000001792
 31
0.0
  0
LINE
  5
F4D
330
D32
100
AcDbEntity
  8
Visible (ISO)
100
AcDbLine
 10
-791.7493135546919
 20
-250.7818090383976
 30
0.0
 11
-799.28207174007
 21
-250.7818090384003
 31
0.0
  0
ARC
  5
F4E
330
D32
100
AcDbEntity
  8
Visible (ISO)
100
AcDbCircle
 10
-791.0070717400685
 20
-241.2800000001171
 30
0.0
 40
12.6
100
AcDbArc
 50
228.9478237047254
 51
287.3926858676915
  0
LINE
  5
F4F
330
D32
100
AcDbEntity
  8
Visible (ISO)
100
AcDbLine
 10
-799.28207174007
 20
-250.7818090384003
 30
0.0
 11
-799.28207174007
 21
-250.0000000001169
 31
0.0
  0
LINE
  5
F50
330
D32
100
AcDbEntity
  8
Visible (ISO)
100
AcDbLine
 10
-619.7439586765646
 20
-250.7818090383521
 30
0.0
 11
-636.2939586765677
 21
-250.7818090383521
 31
0.0
  0
ARC
  5
F51
330
D32
100
AcDbEntity
  8
Visible (ISO)
100
AcDbCircle
 10
-628.0189586765664
 20
-241.2800000000689
 30
0.0
 40
12.6
100
AcDbArc
 50
228.9478237047254
 51
311.0521762952746
  0
LINE
  5
F52
330
D32
100
AcDbEntity
  8
Visible (ISO)
100
AcDbLine
 10
-636.2939586765677
 20
-250.7818090383521
 30
0.0
 11
-636.2939586765677
 21
-250.0000000000687
 31
0.0
  0
LINE
  5
F53
330
D32
100
AcDbEntity
  8
Visible (ISO)
100
AcDbLine
 10
-619.7439586765646
 20
-250.7818090383521
 30
0.0
 11
-619.7439586765646
 21
-250.0000000000687
 31
0.0
  0
LINE
  5
F54
330
D32
100
AcDbEntity
  8
Visible (ISO)
100
AcDbLine
 10
-410.5665484412964
 20
-250.7818090383143
 30
0.0
 11
-427.1165484412957
 21
-250.7818090383143
 31
0.0
  0
ARC
  5
F55
330
D32
100
AcDbEntity
  8
Visible (ISO)
100
AcDbCircle
 10
-418.8415484412979
 20
-241.2800000000311
 30
0.0
 40
12.6
100
AcDbArc
 50
228.9478237047254
 51
311.0521762952746
  0
LINE
  5
F56
330
D32
100
AcDbEntity
  8
Visible (ISO)
100
AcDbLine
 10
-427.1165484412957
 20
-250.7818090383143
 30
0.0
 11
-427.1165484412957
 21
-250.0000000000309
 31
0.0
  0
LINE
  5
F57
330
D32
100
AcDbEntity
  8
Visible (ISO)
100
AcDbLine
 10
-410.5665484412964
 20
-250.7818090383143
 30
0.0
 11
-410.5665484412964
 21
-250.0000000000309
 31
0.0
  0
LINE
  5
F58
330
D32
100
AcDbEntity
  8
Visible (ISO)
100
AcDbLine
 10
-345.4330413992502
 20
-250.7818090383062
 30
0.0
 11
-361.9830413992532
 21
-250.7818090383062
 31
0.0
  0
ARC
  5
F59
330
D32
100
AcDbEntity
  8
Visible (ISO)
100
AcDbCircle
 10
-353.7080413992517
 20
-241.2800000000229
 30
0.0
 40
12.6
100
AcDbArc
 50
228.9478237047254
 51
311.0521762952746
  0
LINE
  5
F5A
330
D32
100
AcDbEntity
  8
Visible (ISO)
100
AcDbLine
 10
-361.9830413992532
 20
-250.7818090383062
 30
0.0
 11
-361.9830413992532
 21
-250.0000000000227
 31
0.0
  0
LINE
  5
F5B
330
D32
100
AcDbEntity
  8
Visible (ISO)
100
AcDbLine
 10
-345.4330413992502
 20
-250.7818090383062
 30
0.0
 11
-345.4330413992502
 21
-250.0000000000227
 31
0.0
  0
LINE
  5
F5C
330
D32
100
AcDbEntity
  8
Visible (ISO)
100
AcDbLine
 10
-106.9749999999985
 20
-250.7818090382889
 30
0.0
 11
-123.5250000000014
 21
-250.7818090382889
 31
0.0
  0
ARC
  5
F5D
330
D32
100
AcDbEntity
  8
Visible (ISO)
100
AcDbCircle
 10
-115.25
 20
-241.2800000000057
 30
0.0
 40
12.6
100
AcDbArc
 50
228.9478237047254
 51
311.0521762952746
  0
LINE
  5
F5E
330
D32
100
AcDbEntity
  8
Visible (ISO)
100
AcDbLine
 10
-123.5250000000014
 20
-250.7818090382889
 30
0.0
 11
-123.5250000000014
 21
-250.0000000000055
 31
0.0
  0
LINE
  5
F5F
330
D32
100
AcDbEntity
  8
Visible (ISO)
100
AcDbLine
 10
-106.9749999999985
 20
-250.7818090382889
 30
0.0
 11
-106.9749999999985
 21
-250.0000000000055
 31
0.0
  0
LINE
  5
F60
330
D32
100
AcDbEntity
  8
Visible (ISO)
100
AcDbLine
 10
123.5250000000014
 20
-250.7818090382889
 30
0.0
 11
106.9749999999985
 21
-250.7818090382889
 31
0.0
  0
ARC
  5
F61
330
D32
100
AcDbEntity
  8
Visible (ISO)
100
AcDbCircle
 10
115.25
 20
-241.2800000000057
 30
0.0
 40
12.6
100
AcDbArc
 50
228.9478237047254
 51
311.0521762952746
  0
LINE
  5
F62
330
D32
100
AcDbEntity
  8
Visible (ISO)
100
AcDbLine
 10
106.9749999999985
 20
-250.7818090382889
 30
0.0
 11
106.9749999999985
 21
-250.0000000000055
 31
0.0
  0
LINE
  5
F63
330
D32
100
AcDbEntity
  8
Visible (ISO)
100
AcDbLine
 10
123.5250000000014
 20
-250.7818090382889
 30
0.0
 11
123.5250000000014
 21
-250.0000000000055
 31
0.0
  0
LINE
  5
F64
330
D32
100
AcDbEntity
  8
Visible (ISO)
100
AcDbLine
 10
361.9830413992532
 20
-250.7818090383062
 30
0.0
 11
345.4330413992502
 21
-250.7818090383062
 31
0.0
  0
ARC
  5
F65
330
D32
100
AcDbEntity
  8
Visible (ISO)
100
AcDbCircle
 10
353.7080413992517
 20
-241.2800000000229
 30
0.0
 40
12.6
100
AcDbArc
 50
228.9478237047254
 51
311.0521762952746
  0
LINE
  5
F66
330
D32
100
AcDbEntity
  8
Visible (ISO)
100
AcDbLine
 10
345.4330413992502
 20
-250.7818090383062
 30
0.0
 11
345.4330413992502
 21
-250.0000000000227
 31
0.0
  0
LINE
  5
F67
330
D32
100
AcDbEntity
  8
Visible (ISO)
100
AcDbLine
 10
361.9830413992532
 20
-250.7818090383062
 30
0.0
 11
361.9830413992532
 21
-250.0000000000227
 31
0.0
  0
LINE
  5
F68
330
D32
100
AcDbEntity
  8
Visible (ISO)
100
AcDbLine
 10
427.1165484412995
 20
-250.7818090383143
 30
0.0
 11
410.5665484413002
 21
-250.7818090383143
 31
0.0
  0
ARC
  5
F69
330
D32
100
AcDbEntity
  8
Visible (ISO)
100
AcDbCircle
 10
418.8415484412979
 20
-241.2800000000311
 30
0.0
 40
12.6
100
AcDbArc
 50
228.9478237047254
 51
311.0521762952746
  0
LINE
  5
F6A
330
D32
100
AcDbEntity
  8
Visible (ISO)
100
AcDbLine
 10
410.5665484413002
 20
-250.7818090383143
 30
0.0
 11
410.5665484413002
 21
-250.0000000000309
 31
0.0
  0
LINE
  5
F6B
330
D32
100
AcDbEntity
  8
Visible (ISO)
100
AcDbLine
 10
427.1165484412995
 20
-250.7818090383143
 30
0.0
 11
427.1165484412995
 21
-250.0000000000309
 31
0.0
  0
LINE
  5
F6C
330
D32
100
AcDbEntity
  8
Visible (ISO)
100
AcDbLine
 10
636.2939586765715
 20
-250.7818090383521
 30
0.0
 11
619.7439586765685
 21
-250.7818090383521
 31
0.0
  0
ARC
  5
F6D
330
D32
100
AcDbEntity
  8
Visible (ISO)
100
AcDbCircle
 10
628.01895867657
 20
-241.2800000000689
 30
0.0
 40
12.6
100
AcDbArc
 50
228.9478237047254
 51
311.0521762952746
  0
LINE
  5
F6E
330
D32
100
AcDbEntity
  8
Visible (ISO)
100
AcDbLine
 10
619.7439586765685
 20
-250.7818090383521
 30
0.0
 11
619.7439586765685
 21
-250.0000000000687
 31
0.0
  0
LINE
  5
F6F
330
D32
100
AcDbEntity
  8
Visible (ISO)
100
AcDbLine
 10
636.2939586765715
 20
-250.7818090383521
 30
0.0
 11
636.2939586765715
 21
-250.0000000000687
 31
0.0
  0
LINE
  5
F70
330
D32
100
AcDbEntity
  8
Visible (ISO)
100
AcDbLine
 10
799.2820717400682
 20
-250.7818090384003
 30
0.0
 11
791.7493135546974
 21
-250.7818090383976
 31
0.0
  0
ARC
  5
F71
330
D32
100
AcDbEntity
  8
Visible (ISO)
100
AcDbCircle
 10
791.0070717400666
 20
-241.2800000001171
 30
0.0
 40
12.6
100
AcDbArc
 50
252.6073141323085
 51
311.0521762952746
  0
LINE
  5
F72
330
D32
100
AcDbEntity
  8
Visible (ISO)
100
AcDbLine
 10
799.2820717400682
 20
-250.7818090384003
 30
0.0
 11
799.2820717400682
 21
-250.0000000001169
 31
0.0
  0
LINE
  5
F73
330
D32
100
AcDbEntity
  8
Visible (ISO)
100
AcDbLine
 10
927.3352577085459
 20
-250.7818090384626
 30
0.0
 11
910.7852577085433
 21
-250.7818090384626
 31
0.0
  0
ARC
  5
F74
330
D32
100
AcDbEntity
  8
Visible (ISO)
100
AcDbCircle
 10
919.0602577085446
 20
-241.2800000001794
 30
0.0
 40
12.6
100
AcDbArc
 50
228.9478237047254
 51
311.0521762952746
  0
LINE
  5
F75
330
D32
100
AcDbEntity
  8
Visible (ISO)
100
AcDbLine
 10
910.7852577085433
 20
-250.7818090384626
 30
0.0
 11
910.7852577085433
 21
-250.0000000001792
 31
0.0
  0
LINE
  5
F76
330
D32
100
AcDbEntity
  8
Visible (ISO)
100
AcDbLine
 10
927.3352577085459
 20
-250.7818090384626
 30
0.0
 11
927.3352577085459
 21
-250.0000000001792
 31
0.0
  0
LINE
  5
F77
330
D32
100
AcDbEntity
  8
Visible (ISO)
100
AcDbLine
 10
999.9614015258083
 20
-250.7818090385504
 30
0.0
 11
995.1279287878314
 21
-250.7818090385526
 31
0.0
  0
ARC
  5
F78
330
D32
100
AcDbEntity
  8
Visible (ISO)
100
AcDbCircle
 10
1003.402928787833
 20
-241.2800000002694
 30
0.0
 40
12.6
100
AcDbArc
 50
228.9478237047254
 51
281.0581099847724
  0
LINE
  5
F79
330
D32
100
AcDbEntity
  8
Visible (ISO)
100
AcDbLine
 10
995.1279287878314
 20
-250.7818090385526
 30
0.0
 11
995.1279287878314
 21
-250.0000000002692
 31
0.0
  0
LINE
  5
F7A
330
D32
100
AcDbEntity
  8
Visible (ISO)
100
AcDbLine
 10
-1020.499999999998
 20
204.9999999996262
 30
0.0
 11
-1020.774204091216
 21
204.9999999996262
 31
0.0
  0
LINE
  5
F7B
330
D32
100
AcDbEntity
  8
Visible (ISO)
100
AcDbLine
 10
-1020.774204091216
 20
204.9999999996262
 30
0.0
 11
-1022.30227893695
 21
204.999999999628
 31
0.0
  0
LINE
  5
F7C
330
D32
100
AcDbEntity
  8
Visible (ISO)
100
AcDbLine
 10
-1020.774204091216
 20
207.9999999996271
 30
0.0
 11
-1020.774204091216
 21
204.9999999996262
 31
0.0
  0
LINE
  5
F7D
330
D32
100
AcDbEntity
  8
Visible (ISO)
100
AcDbLine
 10
-1022.949732516766
 20
205.6117313036452
 30
0.0
 11
-1022.949732516766
 21
207.9999999996299
 31
0.0
  0
LINE
  5
F7E
330
D32
100
AcDbEntity
  8
Visible (ISO)
100
AcDbLine
 10
1022.30227893695
 20
204.9999999996289
 30
0.0
 11
1020.774204091216
 21
204.9999999996266
 31
0.0
  0
LINE
  5
F7F
330
D32
100
AcDbEntity
  8
Visible (ISO)
100
AcDbLine
 10
1020.774204091216
 20
204.9999999996266
 30
0.0
 11
1020.5
 21
204.9999999996266
 31
0.0
  0
LINE
  5
F80
330
D32
100
AcDbEntity
  8
Visible (ISO)
100
AcDbLine
 10
1020.774204091216
 20
207.9999999996275
 30
0.0
 11
1020.774204091216
 21
204.9999999996266
 31
0.0
  0
LINE
  5
F81
330
D32
100
AcDbEntity
  8
Visible (ISO)
100
AcDbLine
 10
1022.949732516765
 20
207.9999999996307
 30
0.0
 11
1022.949732516765
 21
205.6117313036448
 31
0.0
  0
LINE
  5
F82
330
D32
100
AcDbEntity
  8
Visible (ISO)
100
AcDbLine
 10
1020.5
 20
-205.0000000003743
 30
0.0
 11
1020.774204091216
 21
-205.0000000003743
 31
0.0
  0
LINE
  5
F83
330
D32
100
AcDbEntity
  8
Visible (ISO)
100
AcDbLine
 10
1020.774204091216
 20
-205.0000000003743
 30
0.0
 11
1022.30227893695
 21
-205.000000000372
 31
0.0
  0
LINE
  5
F84
330
D32
100
AcDbEntity
  8
Visible (ISO)
100
AcDbLine
 10
1020.774204091216
 20
-208.0000000003752
 30
0.0
 11
1020.774204091216
 21
-205.0000000003743
 31
0.0
  0
LINE
  5
F85
330
D32
100
AcDbEntity
  8
Visible (ISO)
100
AcDbLine
 10
1022.949732516765
 20
-205.611731304386
 30
0.0
 11
1022.949732516765
 21
-208.000000000372
 31
0.0
  0
LINE
  5
F86
330
D32
100
AcDbEntity
  8
Visible (ISO)
100
AcDbLine
 10
-1022.302278936951
 20
-205.000000000372
 30
0.0
 11
-1020.774204091216
 21
-205.0000000003743
 31
0.0
  0
LINE
  5
F87
330
D32
100
AcDbEntity
  8
Visible (ISO)
100
AcDbLine
 10
-1020.774204091216
 20
-205.0000000003743
 30
0.0
 11
-1020.5
 21
-205.0000000003743
 31
0.0
  0
LINE
  5
F88
330
D32
100
AcDbEntity
  8
Visible (ISO)
100
AcDbLine
 10
-1020.774204091216
 20
-208.0000000003752
 30
0.0
 11
-1020.774204091216
 21
-205.0000000003743
 31
0.0
  0
LINE
  5
F89
330
D32
100
AcDbEntity
  8
Visible (ISO)
100
AcDbLine
 10
-1022.949732516766
 20
-208.000000000372
 30
0.0
 11
-1022.949732516766
 21
-205.6117313043869
 31
0.0
  0
LINE
  5
F8A
330
D32
100
AcDbEntity
  8
Visible (ISO)
100
AcDbLine
 10
1113.168840671849
 20
251.4999999996421
 30
0.0
 11
1025.258019887547
 21
251.4999999995584
 31
0.0
  0
LINE
  5
F8B
330
D32
100
AcDbEntity
  8
Visible (ISO)
100
AcDbLine
 10
1255.048835182526
 20
251.4999999996344
 30
0.0
 11
1258.076966301701
 21
251.499999999633
 31
0.0
  0
LINE
  5
F8C
330
D32
100
AcDbEntity
  8
Visible (ISO)
100
AcDbLine
 10
1258.076966301701
 20
250.3700408211616
 30
0.0
 11
1258.076966301701
 21
251.499999999633
 31
0.0
  0
LINE
  5
F8D
330
D32
100
AcDbEntity
  8
Visible (ISO)
100
AcDbLine
 10
-1258.076966301701
 20
251.4999999996326
 30
0.0
 11
-1255.048835182528
 21
251.4999999996339
 31
0.0
  0
LINE
  5
F8E
330
D32
100
AcDbEntity
  8
Visible (ISO)
100
AcDbLine
 10
-1258.076966301701
 20
251.4999999996326
 30
0.0
 11
-1258.076966301701
 21
250.3700408211539
 31
0.0
  0
LINE
  5
F8F
330
D32
100
AcDbEntity
  8
Visible (ISO)
100
AcDbLine
 10
-1025.258019887551
 20
251.499999999558
 30
0.0
 11
-1113.168840671851
 21
251.4999999996421
 31
0.0
  0
LINE
  5
F90
330
D32
100
AcDbEntity
  8
Visible (ISO)
100
AcDbLine
 10
-1100.630359574583
 20
-251.5000000003797
 30
0.0
 11
-1045.203005947038
 21
-251.5000000004316
 31
0.0
  0
LINE
  5
F91
330
D32
100
AcDbEntity
  8
Visible (ISO)
100
AcDbLine
 10
-1030.463725096197
 20
-251.5000000004416
 30
0.0
 11
-1025.258019887553
 21
-251.5000000004452
 31
0.0
  0
LINE
  5
F92
330
D32
100
AcDbEntity
  8
Visible (ISO)
100
AcDbLine
 10
-1255.048835182528
 20
-251.5000000003688
 30
0.0
 11
-1258.076966301703
 21
-251.5000000003702
 31
0.0
  0
LINE
  5
F93
330
D32
100
AcDbEntity
  8
Visible (ISO)
100
AcDbLine
 10
-1258.076966301703
 20
-250.3700408218988
 30
0.0
 11
-1258.076966301703
 21
-251.5000000003702
 31
0.0
  0
LINE
  5
F94
330
D32
100
AcDbEntity
  8
Visible (ISO)
100
AcDbLine
 10
1258.076966301701
 20
-251.5000000003702
 30
0.0
 11
1255.048835182526
 21
-251.5000000003688
 31
0.0
  0
LINE
  5
F95
330
D32
100
AcDbEntity
  8
Visible (ISO)
100
AcDbLine
 10
1258.076966301701
 20
-251.5000000003702
 30
0.0
 11
1258.076966301701
 21
-250.3700408218915
 31
0.0
  0
LINE
  5
F96
330
D32
100
AcDbEntity
  8
Visible (ISO)
100
AcDbLine
 10
1025.258019887551
 20
-251.5000000004452
 30
0.0
 11
1030.463725096186
 21
-251.5000000004416
 31
0.0
  0
LINE
  5
F97
330
D32
100
AcDbEntity
  8
Visible (ISO)
100
AcDbLine
 10
1045.203005947034
 20
-251.5000000004316
 30
0.0
 11
1100.630359574577
 21
-251.5000000003797
 31
0.0
  0
ELLIPSE
  5
F98
330
D32
100
AcDbEntity
  8
Visible (ISO)
100
AcDbEllipse
 10
1233.211954353206
 20
-195.5000000003615
 30
0.0
 11
0.0000000000025301
 21
-2.6
 31
0.0
210
0.0
220
0.0
230
1.0
 40
0.9564901235252694
 41
0.3596702069211735
 42
2.781922446668062
  0
ELLIPSE
  5
F99
330
D32
100
AcDbEntity
  8
Visible (ISO)
100
AcDbEllipse
 10
1234.962542588502
 20
-195.5000000003597
 30
0.0
 11
0.0000000000000021
 21
2.6
 31
0.0
210
0.0
220
0.0
230
1.0
 40
0.9564901235252694
 41
0.0
 42
6.283185307179584
  0
ELLIPSE
  5
F9A
330
D32
100
AcDbEntity
  8
Visible (ISO)
100
AcDbEllipse
 10
1233.21195435321
 20
195.4999999996385
 30
0.0
 11
0.0000000000025243
 21
-2.599999999999989
 31
0.0
210
0.0
220
0.0
230
0.9999999999999998
 40
0.9564901235252694
 41
0.3596702069211757
 42
2.781922446668064
  0
ELLIPSE
  5
F9B
330
D32
100
AcDbEntity
  8
Visible (ISO)
100
AcDbEllipse
 10
1234.962542588502
 20
195.4999999996398
 30
0.0
 11
0.0000000000000021
 21
2.6
 31
0.0
210
0.0
220
0.0
230
1.0
 40
0.9564901235252694
 41
0.0
 42
6.283185307179584
  0
ELLIPSE
  5
F9C
330
D32
100
AcDbEntity
  8
Visible (ISO)
100
AcDbEllipse
 10
1042.870419771676
 20
195.4999999996557
 30
0.0
 11
0.0000000000025274
 21
-2.600000000000034
 31
0.0
210
0.0
220
0.0
230
1.0
 40
0.956490123525269
 41
0.3596702069211746
 42
2.781922446668064
  0
ELLIPSE
  5
F9D
330
D32
100
AcDbEntity
  8
Visible (ISO)
100
AcDbEllipse
 10
1044.621008006972
 20
195.4999999996575
 30
0.0
 11
0.0000000000000021
 21
2.6
 31
0.0
210
0.0
220
0.0
230
1.0
 40
0.9564901235252694
 41
0.0
 42
6.283185307179584
  0
ELLIPSE
  5
F9E
330
D32
100
AcDbEntity
  8
Visible (ISO)
100
AcDbEllipse
 10
1042.870419771676
 20
-195.5000000003438
 30
0.0
 11
0.0000000000025241
 21
-2.600000000000004
 31
0.0
210
0.0
220
0.0
230
1.0
 40
0.9564901235252694
 41
0.3596702069211759
 42
2.781922446668064
  0
ELLIPSE
  5
F9F
330
D32
100
AcDbEntity
  8
Visible (ISO)
100
AcDbEllipse
 10
1044.621008006972
 20
-195.5000000003424
 30
0.0
 11
0.0000000000000021
 21
2.6
 31
0.0
210
0.0
220
0.0
230
1.0
 40
0.9564901235252694
 41
0.0
 42
6.283185307179584
  0
ELLIPSE
  5
FA0
330
D32
100
AcDbEntity
  8
Visible (ISO)
100
AcDbEllipse
 10
1019.432808566376
 20
-209.0000000003461
 30
0.0
 11
-0.0000000000048568
 21
4.999999999999976
 31
0.0
210
0.0
220
0.0
230
1.0
 40
0.9564901235252694
 41
4.913746901173893
 42
6.058143205246111
  0
ELLIPSE
  5
FA1
330
D32
100
AcDbEntity
  8
Visible (ISO)
100
AcDbEllipse
 10
1021.183396801673
 20
-209.0000000003442
 30
0.0
 11
-0.0000000000048581
 21
5.00000000000004
 31
0.0
210
0.0
220
0.0
230
0.9999999999999998
 40
0.9564901235252694
 41
4.913746901174325
 42
6.28318530717857
  0
ELLIPSE
  5
FA2
330
D32
100
AcDbEntity
  8
Visible (ISO)
100
AcDbEllipse
 10
1080.400338792202
 20
-209.0000000003493
 30
0.0
 11
0.000000000000021
 21
4.999999999999976
 31
0.0
210
0.0
220
0.0
230
1.0
 40
0.9564901235252694
 41
0.0000000000000993
 42
1.369438406004855
  0
ELLIPSE
  5
FA3
330
D32
100
AcDbEntity
  8
Visible (ISO)
100
AcDbEllipse
 10
1255.048835182529
 20
-246.5000000003615
 30
0.0
 11
0.0000000000000087
 21
-5.0
 31
0.0
210
0.0
220
0.0
230
1.0
 40
0.9564901235252694
 41
0.0
 42
1.570796326794715
  0
ELLIPSE
  5
FA4
330
D32
100
AcDbEntity
  8
Visible (ISO)
100
AcDbEllipse
 10
1108.386390054227
 20
-209.0000000003538
 30
0.0
 11
-0.000000000000013
 21
4.999999999999968
 31
0.0
210
0.0
220
0.0
230
1.0
 40
0.9564901235252689
 41
4.913746901174738
 42
6.283185307179677
  0
ELLIPSE
  5
FA5
330
D32
100
AcDbEntity
  8
Visible (ISO)
100
AcDbEllipse
 10
1019.432808566376
 20
208.9999999996544
 30
0.0
 11
0.0000000000048566
 21
-4.999999999999747
 31
0.0
210
0.0
220
0.0
230
1.0
 40
0.9564901235252694
 41
0.2250421019314501
 42
1.369438406003741
  0
ELLIPSE
  5
FA6
330
D32
100
AcDbEntity
  8
Visible (ISO)
100
AcDbEllipse
 10
1108.386390054227
 20
208.9999999996462
 30
0.0
 11
0.0000000000048611
 21
-5.000000000000006
 31
0.0
210
0.0
220
0.0
230
1.0
 40
0.9564901235252698
 41
0.0
 42
1.369438406003739
  0
ELLIPSE
  5
FA7
330
D32
100
AcDbEntity
  8
Visible (ISO)
100
AcDbEllipse
 10
1110.13697828952
 20
-209.000000000352
 30
0.0
 11
-0.0000000000048586
 21
5.0
 31
0.0
210
0.0
220
0.0
230
1.0
 40
0.956490123525269
 41
4.913746901173803
 42
6.28318530717857
  0
ELLIPSE
  5
FA8
330
D32
100
AcDbEntity
  8
Visible (ISO)
100
AcDbEllipse
 10
1021.183396801673
 20
208.9999999996562
 30
0.0
 11
-0.000000000000106
 21
-4.999999999999856
 31
0.0
210
0.0
220
0.0
230
1.0
 40
0.9564901235252694
 41
0.0000000000001188
 42
1.285923599510186
  0
ELLIPSE
  5
FA9
330
D32
100
AcDbEntity
  8
Visible (ISO)
100
AcDbEllipse
 10
1110.13697828952
 20
208.999999999648
 30
0.0
 11
0.000000000000013
 21
-5.0
 31
0.0
210
0.0
220
0.0
230
1.0
 40
0.9564901235252694
 41
0.0000000000000916
 42
1.369438406004759
  0
ELLIPSE
  5
FAA
330
D32
100
AcDbEntity
  8
Visible (ISO)
100
AcDbEllipse
 10
1080.400338792202
 20
208.9999999996507
 30
0.0
 11
0.0000000000048617
 21
-4.999999999999903
 31
0.0
210
0.0
220
0.0
230
1.0
 40
0.956490123525269
 41
4.913746901173803
 42
6.283185307178569
  0
ELLIPSE
  5
FAB
330
D32
100
AcDbEntity
  8
Visible (ISO)
100
AcDbEllipse
 10
1255.048835182529
 20
246.4999999996385
 30
0.0
 11
-0.0000000000000385
 21
4.999999999999928
 31
0.0
210
0.0
220
0.0
230
1.0
 40
0.9564901235252694
 41
4.712388980384681
 42
6.283185307179672
  0
LINE
  5
FAC
330
D32
100
AcDbEntity
  8
Visible (ISO)
100
AcDbLine
 10
1110.13697828952
 20
-204.000000000352
 30
0.0
 11
1080.400338792202
 21
-204.0000000003497
 31
0.0
  0
LINE
  5
FAD
330
D32
100
AcDbEntity
  8
Visible (ISO)
100
AcDbLine
 10
1259.831285800155
 20
246.499999999638
 30
0.0
 11
1259.831285800155
 21
-246.500000000362
 31
0.0
  0
LINE
  5
FAE
330
D32
100
AcDbEntity
  8
Visible (ISO)
100
AcDbLine
 10
1113.168840671853
 20
251.4999999996494
 30
0.0
 11
1113.168840671853
 21
249.9999999996457
 31
0.0
  0
LINE
  5
FAF
330
D32
100
AcDbEntity
  8
Visible (ISO)
100
AcDbLine
 10
1020.500000000003
 20
203.9999999996562
 30
0.0
 11
1021.183396801673
 21
203.9999999996562
 31
0.0
  0
LINE
  5
FB0
330
D32
100
AcDbEntity
  8
Visible (ISO)
100
AcDbLine
 10
1080.400338792202
 20
203.9999999996508
 30
0.0
 11
1110.13697828952
 21
203.999999999648
 31
0.0
  0
LINE
  5
FB1
330
D32
100
AcDbEntity
  8
Visible (ISO)
100
AcDbLine
 10
1114.919428907145
 20
249.9999999996476
 30
0.0
 11
1114.919428907145
 21
251.4999999996512
 31
0.0
  0
LINE
  5
FB2
330
D32
100
AcDbEntity
  8
Visible (ISO)
100
AcDbLine
 10
1113.168840671853
 20
251.4999999996494
 30
0.0
 11
1114.919428907145
 21
251.4999999996512
 31
0.0
  0
LINE
  5
FB3
330
D32
100
AcDbEntity
  8
Visible (ISO)
100
AcDbLine
 10
1255.048835182529
 20
-251.5000000003615
 30
0.0
 11
1115.369640425426
 21
-251.5000000003484
 31
0.0
  0
LINE
  5
FB4
330
D32
100
AcDbEntity
  8
Visible (ISO)
100
AcDbLine
 10
1114.919428907145
 20
251.4999999996512
 30
0.0
 11
1255.048835182529
 21
251.4999999996385
 31
0.0
  0
LINE
  5
FB5
330
D32
100
AcDbEntity
  8
Visible (ISO)
100
AcDbLine
 10
1021.183396801673
 20
-204.0000000003443
 30
0.0
 11
1020.500000000003
 21
-204.0000000003443
 31
0.0
  0
ELLIPSE
  5
FB6
330
D32
100
AcDbEntity
  8
Visible (ISO)
100
AcDbEllipse
 10
-1233.211954353204
 20
195.4999999996307
 30
0.0
 11
0.0000000000025294
 21
2.6
 31
0.0
210
0.0
220
0.0
230
1.0
 40
0.956490123525269
 41
0.3596702069224579
 42
2.781922446669346
  0
ELLIPSE
  5
FB7
330
D32
100
AcDbEntity
  8
Visible (ISO)
100
AcDbEllipse
 10
-1234.962542588499
 20
195.4999999996324
 30
0.0
 11
-0.0000000000000024
 21
-2.6
 31
0.0
210
0.0
220
0.0
230
1.0
 40
0.9564901235252694
 41
0.0
 42
6.283185307179584
  0
ELLIPSE
  5
FB8
330
D32
100
AcDbEntity
  8
Visible (ISO)
100
AcDbEllipse
 10
-1233.211954353204
 20
-195.5000000003688
 30
0.0
 11
0.0000000000025292
 21
2.599999999999996
 31
0.0
210
0.0
220
0.0
230
1.0
 40
0.956490123525269
 41
0.3596702069224577
 42
2.781922446669288
  0
ELLIPSE
  5
FB9
330
D32
100
AcDbEntity
  8
Visible (ISO)
100
AcDbEllipse
 10
-1234.962542588499
 20
-195.500000000367
 30
0.0
 11
-0.0000000000000024
 21
-2.6
 31
0.0
210
0.0
220
0.0
230
1.0
 40
0.9564901235252694
 41
0.0
 42
6.283185307179584
  0
ELLIPSE
  5
FBA
330
D32
100
AcDbEntity
  8
Visible (ISO)
100
AcDbEllipse
 10
-1042.870419771676
 20
-195.5000000003515
 30
0.0
 11
0.0000000000025264
 21
2.600000000000004
 31
0.0
210
0.0
220
0.0
230
1.0
 40
0.956490123525269
 41
0.3596702069224565
 42
2.781922446668618
  0
ELLIPSE
  5
FBB
330
D32
100
AcDbEntity
  8
Visible (ISO)
100
AcDbEllipse
 10
-1044.621008006968
 20
-195.5000000003501
 30
0.0
 11
-0.0000000000000024
 21
-2.6
 31
0.0
210
0.0
220
0.0
230
1.0
 40
0.9564901235252694
 41
0.0
 42
6.283185307179584
  0
ELLIPSE
  5
FBC
330
D32
100
AcDbEntity
  8
Visible (ISO)
100
AcDbEllipse
 10
-1042.870419771674
 20
195.499999999648
 30
0.0
 11
0.0000000000025325
 21
2.600000000000004
 31
0.0
210
0.0
220
0.0
230
1.0
 40
0.956490123525269
 41
0.3596702069224591
 42
2.781922446669288
  0
ELLIPSE
  5
FBD
330
D32
100
AcDbEntity
  8
Visible (ISO)
100
AcDbEllipse
 10
-1044.621008006968
 20
195.4999999996498
 30
0.0
 11
-0.0000000000000024
 21
-2.6
 31
0.0
210
0.0
220
0.0
230
1.0
 40
0.9564901235252694
 41
0.0
 42
6.283185307179584
  0
ELLIPSE
  5
FBE
330
D32
100
AcDbEntity
  8
Visible (ISO)
100
AcDbEllipse
 10
-1019.432808566374
 20
208.9999999996539
 30
0.0
 11
-0.0000000000048698
 21
-4.999999999999917
 31
0.0
210
0.0
220
0.0
230
1.0
 40
0.9564901235252692
 41
4.913746901176021
 42
6.058143205248156
  0
ELLIPSE
  5
FBF
330
D32
100
AcDbEntity
  8
Visible (ISO)
100
AcDbEllipse
 10
-1021.183396801667
 20
208.9999999996562
 30
0.0
 11
-0.0000000000048696
 21
-5.000000000000077
 31
0.0
210
0.0
220
0.0
230
1.0
 40
0.956490123525269
 41
4.913746901176454
 42
6.283185307180604
  0
ELLIPSE
  5
FC0
330
D32
100
AcDbEntity
  8
Visible (ISO)
100
AcDbEllipse
 10
-1080.400338792198
 20
208.9999999996503
 30
0.0
 11
0.0000000000000124
 21
-5.00000000000003
 31
0.0
210
0.0
220
0.0
230
1.0
 40
0.9564901235252694
 41
0.0
 42
1.369438406004751
  0
ELLIPSE
  5
FC1
330
D32
100
AcDbEntity
  8
Visible (ISO)
100
AcDbEllipse
 10
-1255.048835182528
 20
246.4999999996308
 30
0.0
 11
-0.0000000000000081
 21
5.0
 31
0.0
210
0.0
220
0.0
230
1.0
 40
0.9564901235252694
 41
0.0
 42
1.570796326795071
  0
ELLIPSE
  5
FC2
330
D32
100
AcDbEntity
  8
Visible (ISO)
100
AcDbEllipse
 10
-1108.386390054223
 20
208.9999999996462
 30
0.0
 11
-0.0000000000000216
 21
-5.000000000000006
 31
0.0
210
0.0
220
0.0
230
1.0
 40
0.956490123525269
 41
4.913746901174826
 42
6.283185307179496
  0
ELLIPSE
  5
FC3
330
D32
100
AcDbEntity
  8
Visible (ISO)
100
AcDbEllipse
 10
-1019.432808566374
 20
-209.0000000003461
 30
0.0
 11
0.0000000000048689
 21
5.000000000000174
 31
0.0
210
0.0
220
0.0
230
1.0
 40
0.9564901235252694
 41
0.2250421019334752
 42
1.36943840600578
  0
ELLIPSE
  5
FC4
330
D32
100
AcDbEntity
  8
Visible (ISO)
100
AcDbEllipse
 10
-1108.386390054225
 20
-209.0000000003538
 30
0.0
 11
0.0000000000048692
 21
4.999999999999923
 31
0.0
210
0.0
220
0.0
230
0.9999999999999998
 40
0.956490123525269
 41
0.0
 42
1.36943840600578
  0
ELLIPSE
  5
FC5
330
D32
100
AcDbEntity
  8
Visible (ISO)
100
AcDbEllipse
 10
-1110.136978289518
 20
208.9999999996476
 30
0.0
 11
-0.0000000000048673
 21
-4.999999999999963
 31
0.0
210
0.0
220
0.0
230
1.0
 40
0.956490123525269
 41
4.913746901175771
 42
6.283185307180604
  0
ELLIPSE
  5
FC6
330
D32
100
AcDbEntity
  8
Visible (ISO)
100
AcDbEllipse
 10
-1021.183396801667
 20
-209.0000000003447
 30
0.0
 11
-0.0000000000001313
 21
5.000000000000212
 31
0.0
210
0.0
220
0.0
230
1.0
 40
0.956490123525269
 41
0.0
 42
1.285923599510041
  0
ELLIPSE
  5
FC7
330
D32
100
AcDbEntity
  8
Visible (ISO)
100
AcDbEllipse
 10
-1110.136978289518
 20
-209.0000000003524
 30
0.0
 11
0.0000000000000046
 21
5.0
 31
0.0
210
0.0
220
0.0
230
1.0
 40
0.9564901235252694
 41
0.0
 42
1.369438406004757
  0
ELLIPSE
  5
FC8
330
D32
100
AcDbEntity
  8
Visible (ISO)
100
AcDbEllipse
 10
-1080.400338792198
 20
-209.0000000003497
 30
0.0
 11
0.0000000000048682
 21
4.999999999999901
 31
0.0
210
0.0
220
0.0
230
1.0
 40
0.9564901235252694
 41
4.913746901175771
 42
6.283185307180604
  0
ELLIPSE
  5
FC9
330
D32
100
AcDbEntity
  8
Visible (ISO)
100
AcDbEllipse
 10
-1255.048835182528
 20
-246.5000000003688
 30
0.0
 11
0.0000000000000379
 21
-4.999999999999928
 31
0.0
210
0.0
220
0.0
230
1.0
 40
0.9564901235252694
 41
4.712388980384681
 42
6.283185307179482
  0
LINE
  5
FCA
330
D32
100
AcDbEntity
  8
Visible (ISO)
100
AcDbLine
 10
-1110.136978289518
 20
203.9999999996476
 30
0.0
 11
-1080.400338792198
 21
203.9999999996503
 31
0.0
  0
LINE
  5
FCB
330
D32
100
AcDbEntity
  8
Visible (ISO)
100
AcDbLine
 10
-1259.831285800155
 20
-246.5000000003692
 30
0.0
 11
-1259.831285800155
 21
246.4999999996303
 31
0.0
  0
LINE
  5
FCC
330
D32
100
AcDbEntity
  8
Visible (ISO)
100
AcDbLine
 10
-1113.168840671851
 20
249.9999999996453
 30
0.0
 11
-1113.168840671851
 21
251.4999999996412
 31
0.0
  0
LINE
  5
FCD
330
D32
100
AcDbEntity
  8
Visible (ISO)
100
AcDbLine
 10
-1113.168840671851
 20
251.4999999996412
 30
0.0
 11
-1114.919428907145
 21
251.499999999643
 31
0.0
  0
LINE
  5
FCE
330
D32
100
AcDbEntity
  8
Visible (ISO)
100
AcDbLine
 10
-1114.919428907145
 20
251.499999999643
 30
0.0
 11
-1114.919428907145
 21
249.9999999996471
 31
0.0
  0
LINE
  5
FCF
330
D32
100
AcDbEntity
  8
Visible (ISO)
100
AcDbLine
 10
-1020.499999999998
 20
-204.0000000003443
 30
0.0
 11
-1021.183396801669
 21
-204.0000000003447
 31
0.0
  0
LINE
  5
FD0
330
D32
100
AcDbEntity
  8
Visible (ISO)
100
AcDbLine
 10
-1080.4003387922
 20
-204.0000000003497
 30
0.0
 11
-1110.136978289518
 21
-204.000000000352
 31
0.0
  0
LINE
  5
FD1
330
D32
100
AcDbEntity
  8
Visible (ISO)
100
AcDbLine
 10
-1255.048835182528
 20
251.4999999996307
 30
0.0
 11
-1114.919428907145
 21
251.499999999643
 31
0.0
  0
LINE
  5
FD2
330
D32
100
AcDbEntity
  8
Visible (ISO)
100
AcDbLine
 10
-1115.369640425415
 20
-251.5000000003565
 30
0.0
 11
-1255.048835182528
 21
-251.5000000003688
 31
0.0
  0
LINE
  5
FD3
330
D32
100
AcDbEntity
  8
Visible (ISO)
100
AcDbLine
 10
-1021.183396801667
 20
203.9999999996557
 30
0.0
 11
-1020.499999999998
 21
203.9999999996557
 31
0.0
  0
ARC
  5
FD4
330
D32
100
AcDbEntity
  8
Visible (ISO)
100
AcDbCircle
 10
960.0000000616963
 20
-250.0000000006771
 30
0.0
 40
1500.0
100
AcDbArc
 50
270.0
 51
0.0
  0
ARC
  5
FD5
330
D32
100
AcDbEntity
  8
Visible (ISO)
100
AcDbCircle
 10
-959.9999999383037
 20
-250.0000000006767
 30
0.0
 40
1500.0
100
AcDbArc
 50
180.0
 51
270.0
  0
ARC
  5
FD6
330
D32
100
AcDbEntity
  8
Visible (ISO)
100
AcDbCircle
 10
-959.9999999383037
 20
249.9999999993224
 30
0.0
 40
1500.0
100
AcDbArc
 50
90.0
 51
180.0
  0
ARC
  5
FD7
330
D32
100
AcDbEntity
  8
Visible (ISO)
100
AcDbCircle
 10
960.0000000616963
 20
249.9999999993229
 30
0.0
 40
1500.0
100
AcDbArc
 50
0.0
 51
90.0
  0
LINE
  5
FD8
330
D32
100
AcDbEntity
  8
Visible (ISO)
100
AcDbLine
 10
2460.000000061697
 20
249.9999999993229
 30
0.0
 11
2460.000000061697
 21
-250.0000000006771
 31
0.0
  0
LINE
  5
FD9
330
D32
100
AcDbEntity
  8
Visible (ISO)
100
AcDbLine
 10
-2459.999999938304
 20
-250.0000000006762
 30
0.0
 11
-2459.999999938304
 21
249.9999999993229
 31
0.0
  0
LINE
  5
FDA
330
D32
100
AcDbEntity
  8
Visible (ISO)
100
AcDbLine
 10
-959.9999999383037
 20
1749.999999999323
 30
0.0
 11
960.0000000616963
 21
1749.999999999323
 31
0.0
  0
LINE
  5
FDB
330
D32
100
AcDbEntity
  8
Visible (ISO)
100
AcDbLine
 10
960.0000000616963
 20
-1750.000000000676
 30
0.0
 11
-959.9999999383037
 21
-1750.000000000676
 31
0.0
  0
ENDBLK
  5
D34
330
D32
100
AcDbEntity
  8
0
100
AcDbBlockEnd
  0
ENDSEC
  0
SECTION
  2
ENTITIES
  0
ARC
  5
174
330
6C
100
AcDbEntity
  8
Visible (ISO)
100
AcDbCircle
 10
16856.11905756056
 20
7247.565944941491
 30
0.0
 40
999.9999999999996
100
AcDbArc
 50
181.0027273267944
 51
313.9972726732052
  0
ARC
  5
17C
330
6C
100
AcDbEntity
  8
Visible (ISO)
100
AcDbCircle
 10
16856.11905756056
 20
7247.565944941491
 30
0.0
 40
982.0000000000003
100
AcDbArc
 50
179.2706552074314
 51
313.9788908139403
  0
ARC
  5
182
330
6C
100
AcDbEntity
  8
Visible (ISO)
100
AcDbCircle
 10
16856.11905756056
 20
7247.565944941491
 30
0.0
 40
1000.0
100
AcDbArc
 50
134.2837841038051
 51
180.8594689248356
  0
ARC
  5
189
330
6C
100
AcDbEntity
  8
Visible (ISO)
100
AcDbCircle
 10
16856.11905756056
 20
7247.565944941491
 30
0.0
 40
982.0000000000003
100
AcDbArc
 50
136.0211091860593
 51
178.9788908139406
  0
ARC
  5
18E
330
6C
100
AcDbEntity
  8
Visible (ISO)
100
AcDbCircle
 10
16856.11905756056
 20
7247.565944941491
 30
0.0
 40
999.9999999999996
100
AcDbArc
 50
91.00272732679473
 51
133.9972726732054
  0
ARC
  5
199
330
6C
100
AcDbEntity
  8
Visible (ISO)
100
AcDbCircle
 10
16856.11905756056
 20
7247.565944941491
 30
0.0
 40
982.0000000000003
100
AcDbArc
 50
89.27065520743106
 51
135.7293447925687
  0
ARC
  5
1A1
330
6C
100
AcDbEntity
  8
Visible (ISO)
100
AcDbCircle
 10
16856.11905756056
 20
7247.565944941491
 30
0.0
 40
999.9999999999996
100
AcDbArc
 50
1.002727326794764
 51
90.71621589619491
  0
ARC
  5
1A2
330
6C
100
AcDbEntity
  8
Visible (ISO)
100
AcDbCircle
 10
16856.11905756056
 20
7247.565944941491
 30
0.0
 40
1000.0
100
AcDbArc
 50
314.2837841038046
 51
0.8594689248365128
  0
ARC
  5
1A3
330
6C
100
AcDbEntity
  8
Visible (ISO)
100
AcDbCircle
 10
16856.11905756056
 20
7247.565944941491
 30
0.0
 40
982.0000000000003
100
AcDbArc
 50
1.021109186059345
 51
88.97889081394096
  0
ARC
  5
1A4
330
6C
100
AcDbEntity
  8
Visible (ISO)
100
AcDbCircle
 10
16856.11905756056
 20
7247.565944941491
 30
0.0
 40
981.9999999999991
100
AcDbArc
 50
314.2706552074309
 51
0.7293447925685557
  0
ARC
  5
1C4
330
6C
100
AcDbEntity
  8
Visible (ISO)
100
AcDbCircle
 10
16856.11905756056
 20
7247.565944941491
 30
0.0
 40
1124.999999999999
100
AcDbArc
 50
270.0
 51
0.0
  0
ARC
  5
1E9
330
6C
100
AcDbEntity
  8
Visible (ISO)
100
AcDbCircle
 10
16856.11905756056
 20
7247.565944941491
 30
0.0
 40
1124.999999999999
100
AcDbArc
 50
180.0
 51
270.0
  0
ARC
  5
20E
330
6C
100
AcDbEntity
  8
Visible (ISO)
100
AcDbCircle
 10
16856.11905756056
 20
7247.565944941491
 30
0.0
 40
1124.999999999999
100
AcDbArc
 50
90.0
 51
180.0
  0
ARC
  5
233
330
6C
100
AcDbEntity
  8
Visible (ISO)
100
AcDbCircle
 10
16856.11905756056
 20
7247.565944941491
 30
0.0
 40
1124.999999999999
100
AcDbArc
 50
0.0
 51
90.0
  0
ARC
  5
2AE
330
6C
100
AcDbEntity
  8
Visible (ISO)
100
AcDbCircle
 10
16856.11905756056
 20
7247.565944941491
 30
0.0
 40
1000.0
100
AcDbArc
 50
269.2837841038053
 51
315.7162158961952
  0
ARC
  5
2AF
330
6C
100
AcDbEntity
  8
Visible (ISO)
100
AcDbCircle
 10
16856.11905756056
 20
7247.565944941491
 30
0.0
 40
982.0
100
AcDbArc
 50
271.0211091860594
 51
313.9788908139408
  0
ARC
  5
2BA
330
6C
100
AcDbEntity
  8
Visible (ISO)
100
AcDbCircle
 10
16856.11905756056
 20
7247.565944941491
 30
0.0
 40
1000.0
100
AcDbArc
 50
179.2837841038055
 51
225.7162158961949
  0
ARC
  5
2BB
330
6C
100
AcDbEntity
  8
Visible (ISO)
100
AcDbCircle
 10
16856.11905756056
 20
7247.565944941491
 30
0.0
 40
982.0000000000003
100
AcDbArc
 50
181.0211091860589
 51
223.9788908139407
  0
ARC
  5
2C6
330
6C
100
AcDbEntity
  8
Visible (ISO)
100
AcDbCircle
 10
16856.11905756056
 20
7247.565944941491
 30
0.0
 40
1000.0
100
AcDbArc
 50
89.28378410380529
 51
135.7162158961951
  0
ARC
  5
2C7
330
6C
100
AcDbEntity
  8
Visible (ISO)
100
AcDbCircle
 10
16856.11905756056
 20
7247.565944941491
 30
0.0
 40
982.0
100
AcDbArc
 50
91.0211091860595
 51
133.9788908139408
  0
ARC
  5
2D2
330
6C
100
AcDbEntity
  8
Visible (ISO)
100
AcDbCircle
 10
16856.11905756056
 20
7247.565944941491
 30
0.0
 40
1000.0
100
AcDbArc
 50
359.2837841038055
 51
45.71621589619481
  0
ARC
  5
2D3
330
6C
100
AcDbEntity
  8
Visible (ISO)
100
AcDbCircle
 10
16856.11905756056
 20
7247.565944941491
 30
0.0
 40
982.0000000000003
100
AcDbArc
 50
1.021109186059345
 51
43.97889081394077
  0
ARC
  5
2E7
330
6C
100
AcDbEntity
  8
Visible (ISO)
100
AcDbCircle
 10
16856.11905756056
 20
7247.565944941491
 30
0.0
 40
1000.000000000002
100
AcDbArc
 50
316.0027273267948
 51
358.9972726732057
  0
ARC
  5
2E8
330
6C
100
AcDbEntity
  8
Visible (ISO)
100
AcDbCircle
 10
16856.11905756056
 20
7247.565944941491
 30
0.0
 40
982.0000000000023
100
AcDbArc
 50
314.2706552074315
 51
0.7293447925685557
  0
ARC
  5
2F5
330
6C
100
AcDbEntity
  8
Visible (ISO)
100
AcDbCircle
 10
16856.11905756056
 20
7247.565944941491
 30
0.0
 40
1000.000000000002
100
AcDbArc
 50
226.0027273267945
 51
268.9972726732053
  0
ARC
  5
2F6
330
6C
100
AcDbEntity
  8
Visible (ISO)
100
AcDbCircle
 10
16856.11905756056
 20
7247.565944941491
 30
0.0
 40
982.0000000000023
100
AcDbArc
 50
224.2706552074311
 51
270.7293447925687
  0
ARC
  5
303
330
6C
100
AcDbEntity
  8
Visible (ISO)
100
AcDbCircle
 10
16856.11905756056
 20
7247.565944941491
 30
0.0
 40
1000.000000000002
100
AcDbArc
 50
136.0027273267948
 51
178.9972726732056
  0
ARC
  5
304
330
6C
100
AcDbEntity
  8
Visible (ISO)
100
AcDbCircle
 10
16856.11905756056
 20
7247.565944941491
 30
0.0
 40
982.0000000000023
100
AcDbArc
 50
134.2706552074312
 51
180.7293447925686
  0
ARC
  5
311
330
6C
100
AcDbEntity
  8
Visible (ISO)
100
AcDbCircle
 10
16856.11905756056
 20
7247.565944941491
 30
0.0
 40
1000.000000000002
100
AcDbArc
 50
46.00272732679446
 51
88.99727267320526
  0
ARC
  5
312
330
6C
100
AcDbEntity
  8
Visible (ISO)
100
AcDbCircle
 10
16856.11905756056
 20
7247.565944941491
 30
0.0
 40
982.0000000000023
100
AcDbArc
 50
44.27065520743115
 51
90.7293447925687
  0
LINE
  5
38A
330
6C
100
AcDbEntity
  8
Visible (ISO)
100
AcDbLine
 10
17729.46193230271
 20
5795.06212759863
 30
0.0
 11
17744.46193230271
 21
5795.06212759863
 31
0.0
  0
LINE
  5
38B
330
6C
100
AcDbEntity
  8
Visible (ISO)
100
AcDbLine
 10
17729.46193230271
 20
5795.06212759863
 30
0.0
 11
17729.46193230271
 21
5787.06212759863
 31
0.0
  0
LINE
  5
38C
330
6C
100
AcDbEntity
  8
Visible (ISO)
100
AcDbLine
 10
17794.46193230271
 20
5795.06212759863
 30
0.0
 11
17809.46193230271
 21
5795.06212759863
 31
0.0
  0
LINE
  5
38D
330
6C
100
AcDbEntity
  8
Visible (ISO)
100
AcDbLine
 10
17809.46193230271
 20
5787.06212759863
 30
0.0
 11
17809.46193230271
 21
5795.06212759863
 31
0.0
  0
LINE
  5
38E
330
6C
100
AcDbEntity
  8
Visible (ISO)
100
AcDbLine
 10
17744.46193230271
 20
5795.06212759863
 30
0.0
 11
17794.46193230271
 21
5795.06212759863
 31
0.0
  0
LINE
  5
38F
330
6C
100
AcDbEntity
  8
Visible (ISO)
100
AcDbLine
 10
15967.77618281828
 20
5795.062127598627
 30
0.0
 11
15982.77618281828
 21
5795.062127598627
 31
0.0
  0
LINE
  5
390
330
6C
100
AcDbEntity
  8
Visible (ISO)
100
AcDbLine
 10
15982.77618281828
 20
5787.062127598627
 30
0.0
 11
15982.77618281828
 21
5795.062127598627
 31
0.0
  0
LINE
  5
391
330
6C
100
AcDbEntity
  8
Visible (ISO)
100
AcDbLine
 10
15902.77618281828
 20
5795.062127598627
 30
0.0
 11
15917.77618281828
 21
5795.062127598627
 31
0.0
  0
LINE
  5
392
330
6C
100
AcDbEntity
  8
Visible (ISO)
100
AcDbLine
 10
15902.77618281828
 20
5795.062127598627
 30
0.0
 11
15902.77618281828
 21
5787.062127598627
 31
0.0
  0
LINE
  5
393
330
6C
100
AcDbEntity
  8
Visible (ISO)
100
AcDbLine
 10
15967.77618281828
 20
5795.062127598627
 30
0.0
 11
15917.77618281828
 21
5795.062127598627
 31
0.0
  0
LINE
  5
394
330
6C
100
AcDbEntity
  8
Visible (ISO)
100
AcDbLine
 10
17750.46193230271
 20
5795.062127598628
 30
0.0
 11
17750.46193230271
 21
5977.062127639388
 31
0.0
  0
LINE
  5
395
330
6C
100
AcDbEntity
  8
Visible (ISO)
100
AcDbLine
 10
17788.46193230271
 20
5795.062127598628
 30
0.0
 11
17788.46193230271
 21
5977.062127641247
 31
0.0
  0
LINE
  5
396
330
6C
100
AcDbEntity
  8
Visible (ISO)
100
AcDbLine
 10
15923.77618281829
 20
5795.062127598627
 30
0.0
 11
15923.77618281829
 21
5977.062127549982
 31
0.0
  0
LINE
  5
397
330
6C
100
AcDbEntity
  8
Visible (ISO)
100
AcDbLine
 10
15961.77618281828
 20
5795.062127598627
 30
0.0
 11
15961.77618281828
 21
5977.062127551842
 31
0.0
  0
LINE
  5
398
330
6C
100
AcDbEntity
  8
Visible (ISO)
100
AcDbLine
 10
17795.73486692598
 20
5987.062127641633
 30
0.0
 11
17800.82895512484
 21
6003.762040113361
 31
0.0
  0
LINE
  5
399
330
6C
100
AcDbEntity
  8
Visible (ISO)
100
AcDbLine
 10
18113.72016455109
 20
7029.511027294742
 30
0.0
 11
18114.19975512541
 21
7031.083265603277
 31
0.0
  0
LINE
  5
39A
330
6C
100
AcDbEntity
  8
Visible (ISO)
100
AcDbLine
 10
17789.74817030249
 20
5988.000499561085
 30
0.0
 11
17789.46193230284
 21
5987.062127598603
 31
0.0
  0
LINE
  5
39B
330
6C
100
AcDbEntity
  8
Visible (ISO)
100
AcDbLine
 10
15598.03835999572
 20
7031.083265603276
 30
0.0
 11
15598.51795057003
 21
7029.511027294742
 31
0.0
  0
LINE
  5
39C
330
6C
100
AcDbEntity
  8
Visible (ISO)
100
AcDbLine
 10
15911.40915999629
 20
6003.762040113361
 30
0.0
 11
15916.50324822321
 21
5987.062127549652
 31
0.0
  0
LINE
  5
39D
330
6C
100
AcDbEntity
  8
Visible (ISO)
100
AcDbLine
 10
15922.77618281829
 20
5987.062127598603
 30
0.0
 11
15922.48994481864
 21
5988.000499561085
 31
0.0
  0
LINE
  5
39E
330
6C
100
AcDbEntity
  8
Visible (ISO)
100
AcDbLine
 10
18111.1678927431
 20
7038.281029873852
 30
0.0
 11
18115.95034336072
 21
7036.82220634444
 31
0.0
  0
LINE
  5
39F
330
6C
100
AcDbEntity
  8
Visible (ISO)
100
AcDbLine
 10
18114.19975512543
 20
7031.083265603289
 30
0.0
 11
18110.65484739168
 21
7032.164592986477
 31
0.0
  0
LINE
  5
3A0
330
6C
100
AcDbEntity
  8
Visible (ISO)
100
AcDbLine
 10
18114.19975512543
 20
7031.083265603289
 30
0.0
 11
18115.95034336072
 21
7036.82220634444
 31
0.0
  0
LINE
  5
3A1
330
6C
100
AcDbEntity
  8
Visible (ISO)
100
AcDbLine
 10
17967.9144719988
 20
7075.705663217863
 30
0.0
 11
17969.28789823242
 21
7075.286717646712
 31
0.0
  0
LINE
  5
3A2
330
6C
100
AcDbEntity
  8
Visible (ISO)
100
AcDbLine
 10
17971.03848646771
 20
7081.02565838786
 30
0.0
 11
17968.82468065954
 21
7081.700950672241
 31
0.0
  0
LINE
  5
3A3
330
6C
100
AcDbEntity
  8
Visible (ISO)
100
AcDbLine
 10
17969.28789823242
 20
7075.286717646712
 30
0.0
 11
18109.4173045078
 21
7032.5420891327
 31
0.0
  0
LINE
  5
3A4
330
6C
100
AcDbEntity
  8
Visible (ISO)
100
AcDbLine
 10
17969.28789823242
 20
7075.286717646712
 30
0.0
 11
17971.03848646771
 21
7081.025658387862
 31
0.0
  0
LINE
  5
3A5
330
6C
100
AcDbEntity
  8
Visible (ISO)
100
AcDbLine
 10
18111.1678927431
 20
7038.281029873852
 30
0.0
 11
17971.03848646771
 21
7081.025658387862
 31
0.0
  0
LINE
  5
3A6
330
6C
100
AcDbEntity
  8
Visible (ISO)
100
AcDbLine
 10
15596.28777176041
 20
7036.82220634444
 30
0.0
 11
15598.0383599957
 21
7031.083265603289
 31
0.0
  0
LINE
  5
3A7
330
6C
100
AcDbEntity
  8
Visible (ISO)
100
AcDbLine
 10
15742.95021688871
 20
7075.286717646709
 30
0.0
 11
15744.32364312233
 21
7075.705663217863
 31
0.0
  0
LINE
  5
3A8
330
6C
100
AcDbEntity
  8
Visible (ISO)
100
AcDbLine
 10
15601.58326772945
 20
7032.164592986477
 30
0.0
 11
15598.0383599957
 21
7031.083265603289
 31
0.0
  0
LINE
  5
3A9
330
6C
100
AcDbEntity
  8
Visible (ISO)
100
AcDbLine
 10
15743.4134344616
 20
7081.700950672241
 30
0.0
 11
15741.19962865342
 21
7081.025658387862
 31
0.0
  0
LINE
  5
3AA
330
6C
100
AcDbEntity
  8
Visible (ISO)
100
AcDbLine
 10
15596.28777176041
 20
7036.82220634444
 30
0.0
 11
15601.07022237803
 21
7038.281029873852
 31
0.0
  0
LINE
  5
3AB
330
6C
100
AcDbEntity
  8
Visible (ISO)
100
AcDbLine
 10
15602.82081061333
 20
7032.5420891327
 30
0.0
 11
15742.95021688871
 21
7075.286717646712
 31
0.0
  0
LINE
  5
3AC
330
6C
100
AcDbEntity
  8
Visible (ISO)
100
AcDbLine
 10
15742.95021688871
 20
7075.286717646712
 30
0.0
 11
15741.19962865342
 21
7081.025658387862
 31
0.0
  0
LINE
  5
3AD
330
6C
100
AcDbEntity
  8
Visible (ISO)
100
AcDbLine
 10
15741.19962865342
 20
7081.025658387862
 30
0.0
 11
15601.07022237803
 21
7038.281029873852
 31
0.0
  0
ARC
  5
3AE
330
6C
100
AcDbEntity
  8
Visible (ISO)
100
AcDbCircle
 10
16851.11905756056
 20
5992.062127598608
 30
0.0
 40
5.000000000000011
100
AcDbArc
 50
270.0
 51
0.0
  0
ARC
  5
3B0
330
6C
100
AcDbEntity
  8
Visible (ISO)
100
AcDbCircle
 10
15736.41563093482
 20
7068.065982817329
 30
0.0
 40
5.000000000000266
100
AcDbArc
 50
9.107609680832323
 51
106.9636359643849
  0
ARC
  5
3B1
330
6C
100
AcDbEntity
  8
Visible (ISO)
100
AcDbCircle
 10
15603.04209125886
 20
7027.382142368854
 30
0.0
 40
5.000000000000115
100
AcDbArc
 50
106.9636359644044
 51
180.1155246897623
  0
ARC
  5
3B2
330
6C
100
AcDbEntity
  8
Visible (ISO)
100
AcDbCircle
 10
15925.40596568357
 20
5992.062127598608
 30
0.0
 40
5.000000000000016
100
AcDbArc
 50
214.4741433209148
 51
270.0
  0
LINE
  5
3B3
330
6C
100
AcDbEntity
  8
Visible (ISO)
100
AcDbLine
 10
16856.11905756056
 20
6113.576967922758
 30
0.0
 11
16856.11905756056
 21
5992.062127598608
 31
0.0
  0
ARC
  5
3B4
330
6C
100
AcDbEntity
  8
Visible (ISO)
100
AcDbCircle
 10
16856.11905756056
 20
7247.565944941491
 30
0.0
 40
1128.999999999999
100
AcDbArc
 50
189.1076096808395
 51
269.7473722876519
  0
LINE
  5
3B5
330
6C
100
AcDbEntity
  8
Visible (ISO)
100
AcDbLine
 10
15601.58326772945
 20
7032.164592986481
 30
0.0
 11
15734.95680740541
 21
7072.848433434957
 31
0.0
  0
ARC
  5
3B6
330
6C
100
AcDbEntity
  8
Visible (ISO)
100
AcDbCircle
 10
17438.65362892492
 20
7031.083265603292
 30
0.0
 40
1840.615268929188
100
AcDbArc
 50
180.1155246897685
 51
214.4741433209062
  0
ARC
  5
3BE
330
6C
100
AcDbEntity
  8
Visible (ISO)
100
AcDbCircle
 10
16861.11905756056
 20
5992.062127598608
 30
0.0
 40
5.000000000000012
100
AcDbArc
 50
180.0
 51
270.0
  0
ARC
  5
3C0
330
6C
100
AcDbEntity
  8
Visible (ISO)
100
AcDbCircle
 10
17975.8224841863
 20
7068.065982817329
 30
0.0
 40
5.000000000000175
100
AcDbArc
 50
73.03636403557908
 51
170.8923903191576
  0
ARC
  5
3C1
330
6C
100
AcDbEntity
  8
Visible (ISO)
100
AcDbCircle
 10
18109.19602386227
 20
7027.382142368854
 30
0.0
 40
5.000000000000206
100
AcDbArc
 50
359.884475310244
 51
73.03636403561508
  0
ARC
  5
3C2
330
6C
100
AcDbEntity
  8
Visible (ISO)
100
AcDbCircle
 10
17786.83214943756
 20
5992.062127598611
 30
0.0
 40
5.000000000000077
100
AcDbArc
 50
270.0
 51
325.5258566791135
  0
LINE
  5
3C3
330
6C
100
AcDbEntity
  8
Visible (ISO)
100
AcDbLine
 10
16856.11905756056
 20
5992.062127598608
 30
0.0
 11
16856.11905756056
 21
6113.576967922758
 31
0.0
  0
LINE
  5
3C4
330
6C
100
AcDbEntity
  8
Visible (ISO)
100
AcDbLine
 10
17977.28130771572
 20
7072.848433434957
 30
0.0
 11
18110.65484739168
 21
7032.164592986481
 31
0.0
  0
ARC
  5
3C5
330
6C
100
AcDbEntity
  8
Visible (ISO)
100
AcDbCircle
 10
16273.5844861962
 20
7031.083265603291
 30
0.0
 40
1840.615268929187
100
AcDbArc
 50
325.5258566790938
 51
359.8844753102314
  0
ARC
  5
3C6
330
6C
100
AcDbEntity
  8
Visible (ISO)
100
AcDbCircle
 10
16856.11905756056
 20
7247.565944941491
 30
0.0
 40
1128.999999999999
100
AcDbArc
 50
270.2526277123482
 51
350.8923903191605
  0
LINE
  5
3CE
330
6C
100
AcDbEntity
  8
Visible (ISO)
100
AcDbLine
 10
16002.77618281828
 20
5787.062127598628
 30
0.0
 11
15882.77618281828
 21
5787.062127598628
 31
0.0
  0
ELLIPSE
  5
3CF
330
6C
100
AcDbEntity
  8
Visible (ISO)
100
AcDbEllipse
 10
16002.77618281828
 20
5712.062127598627
 30
0.0
 11
-190.0
 21
0.0000000000000795
 31
0.0
210
0.0
220
0.0
230
1.0
 40
0.3947368421052627
 41
3.141592653589794
 42
4.712388980384688
  0
ELLIPSE
  5
3D0
330
6C
100
AcDbEntity
  8
Visible (ISO)
100
AcDbEllipse
 10
15882.77618281828
 20
5712.062127598627
 30
0.0
 11
190.0
 21
-0.0000000000000097
 31
0.0
210
0.0
220
0.0
230
1.0
 40
0.3947368421052627
 41
1.570796326794896
 42
3.141592653589794
  0
LINE
  5
3D1
330
6C
100
AcDbEntity
  8
Visible (ISO)
100
AcDbLine
 10
16192.77618281827
 20
5637.062127598628
 30
0.0
 11
16192.77618281827
 21
5712.062127598627
 31
0.0
  0
LINE
  5
3D2
330
6C
100
AcDbEntity
  8
Visible (ISO)
100
AcDbLine
 10
15692.77618281827
 20
5637.062127598628
 30
0.0
 11
15692.77618281827
 21
5712.062127598628
 31
0.0
  0
LINE
  5
3D3
330
6C
100
AcDbEntity
  8
Visible (ISO)
100
AcDbLine
 10
16192.77618281827
 20
5637.062127598628
 30
0.0
 11
15692.77618281827
 21
5637.062127598628
 31
0.0
  0
LINE
  5
3D4
330
6C
100
AcDbEntity
  8
Visible (ISO)
100
AcDbLine
 10
17709.46193230284
 20
5787.062127598623
 30
0.0
 11
17829.46193230284
 21
5787.062127598623
 31
0.0
  0
ELLIPSE
  5
3D5
330
6C
100
AcDbEntity
  8
Visible (ISO)
100
AcDbEllipse
 10
17709.46193230284
 20
5712.062127598623
 30
0.0
 11
190.0
 21
0.0000000000000795
 31
0.0
210
0.0
220
0.0
230
1.0
 40
0.3947368421052627
 41
1.570796326794896
 42
3.14159265358979
  0
ELLIPSE
  5
3D6
330
6C
100
AcDbEntity
  8
Visible (ISO)
100
AcDbEllipse
 10
17829.46193230284
 20
5712.062127598623
 30
0.0
 11
-190.0
 21
-0.0000000000000097
 31
0.0
210
0.0
220
0.0
230
1.0
 40
0.3947368421052627
 41
3.14159265358979
 42
4.712388980384688
  0
LINE
  5
3D7
330
6C
100
AcDbEntity
  8
Visible (ISO)
100
AcDbLine
 10
17519.46193230284
 20
5712.062127598623
 30
0.0
 11
17519.46193230284
 21
5637.06212759862
 31
0.0
  0
LINE
  5
3D8
330
6C
100
AcDbEntity
  8
Visible (ISO)
100
AcDbLine
 10
17519.46193230284
 20
5637.06212759862
 30
0.0
 11
18019.46193230284
 21
5637.06212759862
 31
0.0
  0
LINE
  5
3D9
330
6C
100
AcDbEntity
  8
Visible (ISO)
100
AcDbLine
 10
18019.46193230284
 20
5712.062127598623
 30
0.0
 11
18019.46193230284
 21
5637.06212759862
 31
0.0
  0
LINE
  5
3DA
330
6C
100
AcDbEntity
  8
Visible (ISO)
100
AcDbLine
 10
15927.77618281828
 20
5798.062127598626
 30
0.0
 11
15957.77618281828
 21
5798.062127598626
 31
0.0
  0
LINE
  5
3DB
330
6C
100
AcDbEntity
  8
Visible (ISO)
100
AcDbLine
 10
15927.77618281828
 20
5795.062127598627
 30
0.0
 11
15927.77618281828
 21
5798.062127598626
 31
0.0
  0
LINE
  5
3DC
330
6C
100
AcDbEntity
  8
Visible (ISO)
100
AcDbLine
 10
15957.77618281828
 20
5795.062127598627
 30
0.0
 11
15957.77618281828
 21
5798.062127598626
 31
0.0
  0
LINE
  5
3DD
330
6C
100
AcDbEntity
  8
Visible (ISO)
100
AcDbLine
 10
17754.46193230285
 20
5798.062127598619
 30
0.0
 11
17784.46193230285
 21
5798.062127598619
 31
0.0
  0
LINE
  5
3DE
330
6C
100
AcDbEntity
  8
Visible (ISO)
100
AcDbLine
 10
17754.46193230285
 20
5795.062127598619
 30
0.0
 11
17754.46193230285
 21
5798.062127598619
 31
0.0
  0
LINE
  5
3DF
330
6C
100
AcDbEntity
  8
Visible (ISO)
100
AcDbLine
 10
17784.46193230285
 20
5795.062127598619
 30
0.0
 11
17784.46193230285
 21
5798.062127598619
 31
0.0
  0
LINE
  5
3E0
330
6C
100
AcDbEntity
  8
Visible (ISO)
100
AcDbLine
 10
15950.77618281828
 20
5786.144627598628
 30
0.0
 11
15950.77618281828
 21
5769.289127598627
 31
0.0
  0
LINE
  5
3E1
330
6C
100
AcDbEntity
  8
Visible (ISO)
100
AcDbLine
 10
15934.77618281828
 20
5786.144627598625
 30
0.0
 11
15934.77618281828
 21
5769.289127598627
 31
0.0
  0
LINE
  5
3E2
330
6C
100
AcDbEntity
  8
Visible (ISO)
100
AcDbLine
 10
15928.47618274794
 20
5812.062127599327
 30
0.0
 11
15957.07618274794
 21
5812.062127597926
 31
0.0
  0
ARC
  5
3E3
330
6C
100
AcDbEntity
  8
Visible (ISO)
100
AcDbCircle
 10
15957.07618274791
 20
5811.562127597927
 30
0.0
 40
0.5
100
AcDbArc
 50
0.0
 51
89.9999999971502
  0
ARC
  5
3E4
330
6C
100
AcDbEntity
  8
Visible (ISO)
100
AcDbCircle
 10
15928.47618274791
 20
5811.562127599326
 30
0.0
 40
0.5
100
AcDbArc
 50
89.9999999971502
 51
180.0
  0
ARC
  5
3E5
330
6C
100
AcDbEntity
  8
Visible (ISO)
100
AcDbCircle
 10
15957.04643151944
 20
5812.562127597928
 30
0.0
 40
0.5
100
AcDbArc
 50
184.4622631562737
 51
269.9999999971502
  0
ARC
  5
3E6
330
6C
100
AcDbEntity
  8
Visible (ISO)
100
AcDbCircle
 10
15928.50593397648
 20
5812.562127599326
 30
0.0
 40
0.5
100
AcDbArc
 50
269.9999999971502
 51
355.5377368381138
  0
LINE
  5
3E7
330
6C
100
AcDbEntity
  8
Visible (ISO)
100
AcDbLine
 10
15957.57618274791
 20
5811.5621275979
 30
0.0
 11
15957.57618274725
 21
5798.0621275979
 31
0.0
  0
LINE
  5
3E8
330
6C
100
AcDbEntity
  8
Visible (ISO)
100
AcDbLine
 10
15927.97618274791
 20
5811.562127599351
 30
0.0
 11
15927.97618274725
 21
5798.062127599353
 31
0.0
  0
ARC
  5
3E9
330
6C
100
AcDbEntity
  8
Visible (ISO)
100
AcDbCircle
 10
15942.77618274791
 20
5811.44849123499
 30
0.0
 40
13.81363636363637
100
AcDbArc
 50
4.462263156242423
 51
175.5377368381448
  0
LINE
  5
3EA
330
6C
100
AcDbEntity
  8
Visible (ISO)
100
AcDbLine
 10
17755.16193223251
 20
5812.06212759932
 30
0.0
 11
17783.76193223251
 21
5812.062127597918
 31
0.0
  0
ARC
  5
3EB
330
6C
100
AcDbEntity
  8
Visible (ISO)
100
AcDbCircle
 10
17783.76193223248
 20
5811.562127597919
 30
0.0
 40
0.5
100
AcDbArc
 50
0.0
 51
89.9999999971502
  0
ARC
  5
3EC
330
6C
100
AcDbEntity
  8
Visible (ISO)
100
AcDbCircle
 10
17755.16193223249
 20
5811.562127599319
 30
0.0
 40
0.5
100
AcDbArc
 50
89.9999999971502
 51
180.0
  0
ARC
  5
3ED
330
6C
100
AcDbEntity
  8
Visible (ISO)
100
AcDbCircle
 10
17783.73218100401
 20
5812.562127597917
 30
0.0
 40
0.5
100
AcDbArc
 50
184.4622631562579
 51
269.9999999971502
  0
ARC
  5
3EE
330
6C
100
AcDbEntity
  8
Visible (ISO)
100
AcDbCircle
 10
17755.19168346105
 20
5812.562127599318
 30
0.0
 40
0.5000000000000001
100
AcDbArc
 50
269.9999999971502
 51
355.5377368379964
  0
LINE
  5
3EF
330
6C
100
AcDbEntity
  8
Visible (ISO)
100
AcDbLine
 10
17784.26193223249
 20
5811.562127597896
 30
0.0
 11
17784.26193223182
 21
5798.062127597894
 31
0.0
  0
LINE
  5
3F0
330
6C
100
AcDbEntity
  8
Visible (ISO)
100
AcDbLine
 10
17754.66193223248
 20
5811.562127599343
 30
0.0
 11
17754.66193223182
 21
5798.062127599344
 31
0.0
  0
ARC
  5
3F1
330
6C
100
AcDbEntity
  8
Visible (ISO)
100
AcDbCircle
 10
17769.46193223248
 20
5811.448491234983
 30
0.0
 40
13.81363636363637
100
AcDbArc
 50
4.462263156242423
 51
175.5377368381491
  0
LINE
  5
3F2
330
6C
100
AcDbEntity
  8
Visible (ISO)
100
AcDbLine
 10
17816.11905762226
 20
5987.062127642616
 30
0.0
 11
19316.11905762226
 21
5987.062127716032
 31
0.0
  0
LINE
  5
3F3
330
6C
100
AcDbEntity
  8
Visible (ISO)
100
AcDbLine
 10
19316.11905762275
 20
5977.062127716031
 30
0.0
 11
17816.11905762275
 21
5977.062127642614
 31
0.0
  0
LINE
  5
3F4
330
6C
100
AcDbEntity
  8
Visible (ISO)
100
AcDbLine
 10
19316.11905762275
 20
5977.062127716031
 30
0.0
 11
19316.11905762226
 21
5987.062127716032
 31
0.0
  0
LINE
  5
3F5
330
6C
100
AcDbEntity
  8
Visible (ISO)
100
AcDbLine
 10
15896.11905762275
 20
5977.062127548641
 30
0.0
 11
14396.11905762275
 21
5977.062127475218
 31
0.0
  0
LINE
  5
3F6
330
6C
100
AcDbEntity
  8
Visible (ISO)
100
AcDbLine
 10
14396.11905762226
 20
5987.062127475218
 30
0.0
 11
15896.11905762225
 21
5987.062127548639
 31
0.0
  0
LINE
  5
3F7
330
6C
100
AcDbEntity
  8
Visible (ISO)
100
AcDbLine
 10
14396.11905762226
 20
5987.062127475218
 30
0.0
 11
14396.11905762275
 21
5977.062127475218
 31
0.0
  0
LINE
  5
3F8
330
6C
100
AcDbEntity
  8
Visible (ISO)
100
AcDbLine
 10
17816.11905762275
 20
5977.062127642614
 30
0.0
 11
15896.11905762275
 21
5977.062127548641
 31
0.0
  0
LINE
  5
3F9
330
6C
100
AcDbEntity
  8
Visible (ISO)
100
AcDbLine
 10
17816.11905762226
 20
5987.062127642616
 30
0.0
 11
15896.11905762225
 21
5987.062127548641
 31
0.0
  0
DIMENSION
  5
6A1
330
6C
100
AcDbEntity
  8
Dimension (ISO)
100
AcDbDimension
  2
*D1
 10
19316.11905762108
 20
923.0000967965814
 30
0.0
 11
16856.11905762108
 21
923.0000967965814
 31
0.0
 70
   160
  1
<>
 71
     2
 42
4920.000000000001
  3
Default (ISO)
100
AcDbAlignedDimension
 13
14396.11905762108
 23
2936.060412468254
 33
0.0
 14
19316.11905762108
 24
2936.060412468253
 34
0.0
 50
180.0
100
AcDbRotatedDimension
1001
ACAD
1000
DSTYLE
1002
{
1070
   172
1070
     0
1070
   289
1070
     1
1070
    74
1070
     0
1070
   271
1070
     2
1070
   272
1070
     2
1070
    48
1040
0.0
1070
    47
1040
0.0
1002
}
  0
DIMENSION
  5
784
330
6C
100
AcDbEntity
  8
Dimension (ISO)
100
AcDbDimension
  2
*D2
 10
19816.11905762108
 20
4936.060412468252
 30
0.0
 11
19816.11905762108
 21
3186.060412468253
 31
0.0
 70
   160
  1
<>
 71
     2
 42
3500.0
  3
Default (ISO)
100
AcDbAlignedDimension
 13
17816.11905762108
 23
1436.060412468253
 33
0.0
 14
17816.11905762108
 24
4936.060412468253
 34
0.0
 50
90.0
100
AcDbRotatedDimension
1001
ACAD
1000
DSTYLE
1002
{
1070
   172
1070
     0
1070
   289
1070
     1
1070
    74
1070
     0
1070
   271
1070
     2
1070
   272
1070
     2
1070
    48
1040
0.0
1070
    47
1040
0.0
1002
}
  0
DIMENSION
  5
86C
330
6C
100
AcDbEntity
  8
Dimension (ISO)
100
AcDbDimension
  2
*D3
 10
15369.8369715373
 20
5637.062127598627
 30
0.0
 11
15369.8369715373
 21
6461.679923486148
 31
0.0
 70
   160
  1
<>
 71
     2
 42
349.9999999133033
  3
Default (ISO)
100
AcDbAlignedDimension
 13
15146.11905762226
 23
5987.06212751193
 33
0.0
 14
15692.77618281827
 24
5637.062127598627
 34
0.0
 50
90.0
100
AcDbRotatedDimension
1001
ACAD
1000
DSTYLE
1002
{
1070
   172
1070
     1
1070
   289
1070
     1
1070
    74
1070
     0
1070
   271
1070
     2
1070
    75
1070
     1
1070
   272
1070
     2
1070
    48
1040
0.0
1070
    47
1040
0.0
1002
}
  0
DIMENSION
  5
96F
330
6C
100
AcDbEntity
  8
Dimension (ISO)
100
AcDbDimension
  2
*D4
 10
18666.17759916143
 20
8372.56594494149
 30
0.0
 11
18666.17759916143
 21
7179.814036245066
 31
0.0
 70
   160
  1
<>
 71
     2
 42
2385.503817392853
  3
Default (ISO)
100
AcDbAlignedDimension
 13
15896.11905762225
 23
5987.062127548639
 33
0.0
 14
16856.11905756056
 24
8372.56594494149
 34
0.0
 50
90.0
100
AcDbRotatedDimension
1001
ACAD
1000
DSTYLE
1002
{
1070
   172
1070
     0
1070
   289
1070
     1
1070
    74
1070
     0
1070
   271
1070
     0
1070
   272
1070
     2
1070
    48
1040
0.0
1070
    47
1040
0.0
1002
}
  0
DIMENSION
  5
A57
330
6C
100
AcDbEntity
  8
Dimension (ISO)
100
AcDbDimension
  2
*D5
 10
18115.95034335954
 20
2317.797561198178
 30
0.0
 11
16856.11905755938
 21
2317.797561198178
 31
0.0
 70
   160
  1
<>
 71
     2
 42
2519.662571600311
  3
Default (ISO)
100
AcDbAlignedDimension
 13
15596.28777175922
 23
2939.560412468562
 33
0.0
 14
18115.95034335954
 24
2939.560412468568
 34
0.0
100
AcDbRotatedDimension
1001
ACAD
1000
DSTYLE
1002
{
1070
   172
1070
     0
1070
   289
1070
     1
1070
    74
1070
     0
1070
   271
1070
     0
1070
   272
1070
     2
1070
    48
1040
0.0
1070
    47
1040
0.0
1002
}
  0
DIMENSION
  5
B39
330
6C
100
AcDbEntity
  8
Dimension (ISO)
100
AcDbDimension
  2
*D6
 10
18546.0930601376
 20
3456.060412468735
 30
0.0
 11
18546.0930601376
 21
3186.060412468756
 31
0.0
 70
   160
  1
<>
 71
     2
 42
539.9999999999558
  3
Default (ISO)
100
AcDbAlignedDimension
 13
17855.96592083395
 23
2916.060412468778
 33
0.0
 14
17856.11905755938
 24
3456.060412468735
 34
0.0
 50
270.0
100
AcDbRotatedDimension
1001
ACAD
1000
DSTYLE
1002
{
1070
   172
1070
     0
1070
   289
1070
     1
1070
    74
1070
     0
1070
   271
1070
     2
1070
   272
1070
     2
1070
    48
1040
0.0
1070
    47
1040
0.0
1002
}
  0
INSERT
  5
C2C
330
6C
100
AcDbEntity
  8
0
100
AcDbBlockReference
 66
     1
  2
Tabelki rysunkowe Rzut
 10
6011.159185140821
 20
-537.0652712302228
 30
0.0
 41
50.0
 42
50.0
 43
50.0
  0
ATTRIB
  5
C2E
102
{ACAD_XDICTIONARY
360
C3C
102
}
330
C2C
100
AcDbEntity
  8
Title (ISO)
100
AcDbText
 10
14912.0550706397
 20
369.9630632819287
 30
0.0
 40
125.0
  1
14070
  7
Note Text (ISO)
100
AcDbAttribute
  2
Numer_katalogowy_001
 70
     0
  0
ATTRIB
  5
C2F
102
{ACAD_XDICTIONARY
360
C3F
102
}
330
C2C
100
AcDbEntity
  8
Title (ISO)
100
AcDbText
 10
15531.69912698994
 20
19.79516536440525
 30
0.0
 40
125.0
  1
2019-02-01
  7
Note Text (ISO)
100
AcDbAttribute
  2
DATA_UTWORZENIA_001
 70
     0
  0
ATTRIB
  5
C30
102
{ACAD_XDICTIONARY
360
C42
102
}
330
C2C
100
AcDbEntity
  8
Title (ISO)
100
AcDbText
 10
14924.64741445396
 20
188.7508403335623
 30
0.0
 40
125.0
  1
Karuzela Chomik
  7
Note Text (ISO)
100
AcDbAttribute
  2
Nazwa_001
 70
     0
  0
SEQEND
  5
C2D
330
C2C
100
AcDbEntity
  8
0
  0
INSERT
  5
FDC
330
6C
100
AcDbEntity
  8
0
100
AcDbBlockReference
  2
14070_Bieznia-kolowa-chomik
 10
16856.11905755938
 20
3186.06041246893
 30
0.0
  0
ENDSEC
  0
SECTION
  2
OBJECTS
  0
DICTIONARY
  5
C
330
0
100
AcDbDictionary
281
     1
  3
ACAD_2007HEADERVARS_RT
350
1224
  3
ACAD_COLOR
350
63
  3
ACAD_GROUP
350
D
  3
ACAD_LAYOUT
350
62
  3
ACAD_MATERIAL
350
10
  3
ACAD_MLEADERSTYLE
350
66
  3
ACAD_MLINESTYLE
350
5F
  3
ACAD_PLOTSETTINGS
350
61
  3
ACAD_PLOTSTYLENAME
350
E
  3
ACAD_SCALELIST
350
42
  3
ACAD_TABLESTYLE
350
64
  3
ACAD_VISUALSTYLE
350
29
  3
ACDB_RECOMPOSE_DATA
350
1222
  3
AcDbVariableDictionary
350
C88
  3
AcmDictionary
350
CEA
  3
AMG
350
C9C
  3
AMGSNAPSETTINGS
350
D2B
  3
DWGPROPS
350
1223
  0
DICTIONARY
  5
C47
330
8
100
AcDbDictionary
280
     1
281
     1
  0
DICTIONARY
  5
C33
330
C28
100
AcDbDictionary
280
     1
281
     1
  3
ACAD_MLATT
360
1217
  3
ACAD_XREC_ROUNDTRIP
360
1216
  0
DICTIONARY
  5
C36
330
C2A
100
AcDbDictionary
280
     1
281
     1
  3
ACAD_MLATT
360
1219
  3
ACAD_XREC_ROUNDTRIP
360
1218
  0
DICTIONARY
  5
C39
330
C2B
100
AcDbDictionary
280
     1
281
     1
  3
ACAD_MLATT
360
121B
  3
ACAD_XREC_ROUNDTRIP
360
121A
  0
DICTIONARY
  5
C3C
330
C2E
100
AcDbDictionary
280
     1
281
     1
  3
ACAD_MLATT
360
121D
  3
ACAD_XREC_ROUNDTRIP
360
121C
  0
DICTIONARY
  5
C3F
330
C2F
100
AcDbDictionary
280
     1
281
     1
  3
ACAD_MLATT
360
121F
  3
ACAD_XREC_ROUNDTRIP
360
121E
  0
DICTIONARY
  5
C42
330
C30
100
AcDbDictionary
280
     1
281
     1
  3
ACAD_MLATT
360
1221
  3
ACAD_XREC_ROUNDTRIP
360
1220
  0
DICTIONARY
  5
1224
102
{ACAD_REACTORS
330
C
102
}
330
C
100
AcDbDictionary
281
     1
  3
DIMARCSYM
350
1225
  3
DIMLTEX1
350
1227
  3
DIMLTEX2
350
1228
  3
DIMLTYPE
350
1226
  0
DICTIONARY
  5
63
102
{ACAD_REACTORS
330
C
102
}
330
C
100
AcDbDictionary
281
     1
  0
DICTIONARY
  5
D
102
{ACAD_REACTORS
330
C
102
}
330
C
100
AcDbDictionary
281
     1
  0
DICTIONARY
  5
62
102
{ACAD_REACTORS
330
C
102
}
330
C
100
AcDbDictionary
281
     1
  3
Layout1
350
6B
  3
Layout2
350
73
  3
Model
350
6F
  0
DICTIONARY
  5
10
102
{ACAD_REACTORS
330
C
102
}
330
C
100
AcDbDictionary
281
     1
  3
ByBlock
350
19
  3
ByLayer
350
11
  3
Global
350
21
  0
DICTIONARY
  5
66
102
{ACAD_REACTORS
330
C
102
}
330
C
100
AcDbDictionary
281
     1
  3
Standard
350
67
  0
DICTIONARY
  5
5F
102
{ACAD_REACTORS
330
C
102
}
330
C
100
AcDbDictionary
281
     1
  3
Standard
350
60
  0
DICTIONARY
  5
61
102
{ACAD_REACTORS
330
C
102
}
330
C
100
AcDbDictionary
281
     1
  0
ACDBDICTIONARYWDFLT
  5
E
102
{ACAD_REACTORS
330
C
102
}
330
C
100
AcDbDictionary
281
     1
  3
Normal
350
F
100
AcDbDictionaryWithDefault
340
F
  0
DICTIONARY
  5
42
102
{ACAD_REACTORS
330
C
102
}
330
C
100
AcDbDictionary
281
     1
  3
A0
350
43
  3
A1
350
44
  3
A2
350
45
  3
A3
350
46
  3
A4
350
47
  3
A5
350
48
  3
A6
350
49
  3
A7
350
4A
  3
A8
350
4B
  3
A9
350
4C
  3
B0
350
4D
  3
B1
350
4E
  3
B2
350
4F
  3
B3
350
50
  3
B4
350
51
  3
B5
350
52
  3
B6
350
53
  0
DICTIONARY
  5
64
102
{ACAD_REACTORS
330
C
102
}
330
C
100
AcDbDictionary
281
     1
  3
Standard
350
65
  0
DICTIONARY
  5
29
102
{ACAD_REACTORS
330
C
102
}
330
C
100
AcDbDictionary
281
     1
  3
2dWireframe
350
2F
  3
Basic
350
2E
  3
Brighten
350
35
  3
ColorChange
350
39
  3
Conceptual
350
32
  3
Dim
350
34
  3
EdgeColorOff
350
41
  3
Facepattern
350
38
  3
Flat
350
2A
  3
FlatWithEdges
350
2B
  3
Gouraud
350
2C
  3
GouraudWithEdges
350
2D
  3
Hidden
350
31
  3
JitterOff
350
3F
  3
Linepattern
350
37
  3
OverhangOff
350
40
  3
Realistic
350
33
  3
Shaded
350
3E
  3
Shaded with edges
350
3D
  3
Shades of Gray
350
3A
  3
Sketchy
350
3B
  3
Thicken
350
36
  3
Wireframe
350
30
  3
X-Ray
350
3C
  0
XRECORD
  5
1222
102
{ACAD_REACTORS
330
C
102
}
330
C
100
AcDbXrecord
280
     1
 90
        1
330
65
330
C28
330
C2A
330
C2B
330
C2E
330
C2F
330
C30
  0
DICTIONARY
  5
C88
102
{ACAD_REACTORS
330
C
102
}
330
C
100
AcDbDictionary
281
     1
  3
CANNOSCALE
350
C8C
  3
CMLEADERSTYLE
350
C8A
  3
CTABLESTYLE
350
C89
  3
DIMASSOC
350
C93
  3
HIDETEXT
350
C92
  3
INDEXCTL
350
C91
  3
LAYEREVAL
350
C8E
  3
LAYERNOTIFY
350
C8F
  3
LIGHTINGUNITS
350
C8D
  3
MSLTSCALE
350
C8B
  3
SORTENTS
350
C90
  3
XCLIPFRAME
350
1214
  0
DICTIONARY
  5
CEA
102
{ACAD_REACTORS
330
C
102
}
330
C
100
AcDbDictionary
281
     1
  3
AcmStdDictionary
350
CF5
  0
DICTIONARY
  5
C9C
102
{ACAD_REACTORS
330
C
102
}
330
C
100
AcDbDictionary
281
     1
  0
DICTIONARY
  5
D2B
102
{ACAD_REACTORS
330
C
102
}
330
C
100
AcDbDictionary
281
     1
  0
XRECORD
  5
1223
102
{ACAD_REACTORS
330
C
102
}
330
C
100
AcDbXrecord
280
     1
  1
DWGPROPS COOKIE
  2

  3

  4
Maruszak Marcin
  6

  7

  8
Natalia
  9
v1
300
Menadżer=
301
Firma=Muller
302
Kategoria=
303
Numer części=14070.000 Bieżnia chomik IM
304
Opis=
305
Projekt=14070-14075 Bieżnia chomik
306
Projektant=Maruszak Marcin
307
Inżynier=
308
Zatwierdził=
309
Centrum kosztów=
 40
0.0098279976851852
 41
2458516.585491123
 42
2458914.335645232
  1

 90
       18
300
Dostawca=
300
Stan użytkownika=
300
Stan projektu=PracaWToku
300
Sprawdził=
300
Zatwierdził konstrukcję=Muller
300
Zatwierdził do produkcji=
300
Kolor=szary
300
Stanowisko=Giętarka
  0
XRECORD
  5
1217
102
{ACAD_REACTORS
330
C33
102
}
330
C33
100
AcDbXrecord
280
     1
 70
     4
 70
     0
 70
     0
 40
1.0
  2
Numer_katalogowy
  1
Embedded Object
 10
178.3973670048064
 20
20.69093606566278
 30
0.0
 40
2.5
 41
39.63119806127143
 46
0.0
 71
     1
 72
     5
  1
14070
  7
Note Text (ISO)
 73
     1
 44
1.0
  0
XRECORD
  5
1216
102
{ACAD_REACTORS
330
C33
102
}
330
C33
100
AcDbXrecord
280
     1
102
ACAD_MATT_HEIGHT
140
2.5
  0
XRECORD
  5
1219
102
{ACAD_REACTORS
330
C36
102
}
330
C36
100
AcDbXrecord
280
     1
 70
     4
 70
     0
 70
     0
 40
1.0
  2
DATA_UTWORZENIA
  1
Embedded Object
 10
190.5938075676742
 20
13.68925708649296
 30
0.0
 40
2.5
 41
40.52963831958745
 46
0.0
 71
     1
 72
     5
  1
2019-02-01
  7
Note Text (ISO)
 73
     1
 44
1.0
  0
XRECORD
  5
1218
102
{ACAD_REACTORS
330
C36
102
}
330
C36
100
AcDbXrecord
280
     1
102
ACAD_MATT_HEIGHT
140
2.5
  0
XRECORD
  5
121B
102
{ACAD_REACTORS
330
C39
102
}
330
C39
100
AcDbXrecord
280
     1
 70
     4
 70
     0
 70
     0
 40
1.0
  2
Nazwa
  1
Embedded Object
 10
178.5232904425422
 20
17.1288138363798
 30
0.0
 40
2.5
 41
38.632931107587
 46
0.0
 71
     1
 72
     5
  1
Bieznia kolowa
  7
Note Text (ISO)
 73
     1
 44
1.0
  0
XRECORD
  5
121A
102
{ACAD_REACTORS
330
C39
102
}
330
C39
100
AcDbXrecord
280
     1
102
ACAD_MATT_HEIGHT
140
2.5
  0
XRECORD
  5
121D
102
{ACAD_REACTORS
330
C3C
102
}
330
C3C
100
AcDbXrecord
280
     1
 70
     2
 70
     0
 70
     0
 40
1.0
  2
Numer_katalogowy
  1
Embedded Object
 10
14931.02753538114
 20
497.481532052916
 30
0.0
 40
125.0
 41
1981.559903063571
 46
0.0
 71
     1
 72
     5
  1
14070
  7
Note Text (ISO)
 73
     1
 44
1.0
  0
XRECORD
  5
121C
102
{ACAD_REACTORS
330
C3C
102
}
330
C3C
100
AcDbXrecord
280
     1
102
ACAD_MATT_HEIGHT
140
125.0
  0
XRECORD
  5
121F
102
{ACAD_REACTORS
330
C3F
102
}
330
C3F
100
AcDbXrecord
280
     1
 70
     2
 70
     0
 70
     0
 40
1.0
  2
DATA_UTWORZENIA
  1
Embedded Object
 10
15540.84956352453
 20
147.3975830944254
 30
0.0
 40
125.0
 41
2026.481915979373
 46
0.0
 71
     1
 72
     5
  1
2019-02-01
  7
Note Text (ISO)
 73
     1
 44
1.0
  0
XRECORD
  5
121E
102
{ACAD_REACTORS
330
C3F
102
}
330
C3F
100
AcDbXrecord
280
     1
102
ACAD_MATT_HEIGHT
140
125.0
  0
XRECORD
  5
1221
102
{ACAD_REACTORS
330
C42
102
}
330
C42
100
AcDbXrecord
280
     1
 70
     2
 70
     0
 70
     0
 40
1.0
  2
Nazwa
  1
Embedded Object
 10
14937.32370726793
 20
319.3754205887672
 30
0.0
 40
125.0
 41
1931.64655537935
 46
0.0
 71
     1
 72
     5
  1
Karuzela Chomik
  7
Note Text (ISO)
 73
     1
 44
1.0
  0
XRECORD
  5
1220
102
{ACAD_REACTORS
330
C42
102
}
330
C42
100
AcDbXrecord
280
     1
102
ACAD_MATT_HEIGHT
140
125.0
  0
XRECORD
  5
1225
102
{ACAD_REACTORS
330
1224
102
}
330
1224
100
AcDbXrecord
280
     1
 70
     1
  0
XRECORD
  5
1227
102
{ACAD_REACTORS
330
1224
102
}
330
1224
100
AcDbXrecord
280
     1
340
5B
  0
XRECORD
  5
1228
102
{ACAD_REACTORS
330
1224
102
}
330
1224
100
AcDbXrecord
280
     1
340
5B
  0
XRECORD
  5
1226
102
{ACAD_REACTORS
330
1224
102
}
330
1224
100
AcDbXrecord
280
     1
340
5B
  0
LAYOUT
  5
6B
102
{ACAD_XDICTIONARY
360
125A
102
}
102
{ACAD_REACTORS
330
62
102
}
330
62
100
AcDbPlotSettings
  1

  2

  4

  6

 40
0.0
 41
0.0
 42
0.0
 43
0.0
 44
0.0
 45
0.0
 46
0.0
 47
0.0
 48
0.0
 49
0.0
140
0.0
141
0.0
142
1.0
143
1.0
 70
   688
 72
     0
 73
     0
 74
     5
  7

 75
    16
147
1.0
148
0.0
149
0.0
100
AcDbLayout
  1
Layout1
 70
     1
 71
     1
 10
0.0
 20
0.0
 11
14850.0
 21
10500.0
 12
0.0
 22
0.0
 32
0.0
 14
0.0
 24
0.0
 34
0.0
 15
14850.0
 25
10500.0
 35
0.0
146
0.0
 13
0.0
 23
0.0
 33
0.0
 16
1.0
 26
0.0
 36
0.0
 17
0.0
 27
1.0
 37
0.0
 76
     0
330
68
  0
LAYOUT
  5
73
102
{ACAD_XDICTIONARY
360
125E
102
}
102
{ACAD_REACTORS
330
62
102
}
330
62
100
AcDbPlotSettings
  1

  2

  4

  6

 40
0.0
 41
0.0
 42
0.0
 43
0.0
 44
0.0
 45
0.0
 46
0.0
 47
0.0
 48
0.0
 49
0.0
140
0.0
141
0.0
142
1.0
143
1.0
 70
   688
 72
     0
 73
     0
 74
     5
  7

 75
    16
147
1.0
148
0.0
149
0.0
100
AcDbLayout
  1
Layout2
 70
     1
 71
     2
 10
0.0
 20
0.0
 11
12.0
 21
9.0
 12
0.0
 22
0.0
 32
0.0
 14
0.0
 24
0.0
 34
0.0
 15
0.0
 25
0.0
 35
0.0
146
0.0
 13
0.0
 23
0.0
 33
0.0
 16
1.0
 26
0.0
 36
0.0
 17
0.0
 27
1.0
 37
0.0
 76
     0
330
70
  0
LAYOUT
  5
6F
102
{ACAD_XDICTIONARY
360
125C
102
}
102
{ACAD_REACTORS
330
62
102
}
330
62
100
AcDbPlotSettings
  1

  2

  4

  6

 40
0.0
 41
0.0
 42
0.0
 43
0.0
 44
0.0
 45
0.0
 46
0.0
 47
0.0
 48
0.0
 49
0.0
140
0.0
141
0.0
142
1.0
143
1.0
 70
  1712
 72
     0
 73
     0
 74
     0
  7

 75
     0
147
1.0
148
0.0
149
0.0
100
AcDbLayout
  1
Model
 70
     1
 71
     0
 10
0.0
 20
0.0
 11
12.0
 21
9.0
 12
0.0
 22
0.0
 32
0.0
 14
0.0
 24
0.0
 34
0.0
 15
0.0
 25
0.0
 35
0.0
146
0.0
 13
0.0
 23
0.0
 33
0.0
 16
1.0
 26
0.0
 36
0.0
 17
0.0
 27
1.0
 37
0.0
 76
     0
330
6C
331
57
  0
MATERIAL
  5
19
102
{ACAD_XDICTIONARY
360
1A
102
}
102
{ACAD_REACTORS
330
10
102
}
330
10
100
AcDbMaterial
  1
ByBlock
 72
     0
 43
0.0208333333333333
 43
0.0
 43
0.0
 43
0.0
 43
0.0
 43
0.0208333333333333
 43
0.0
 43
0.0
 43
0.0
 43
0.0
 43
1.0
 43
0.0
 43
0.0
 43
0.0
 43
0.0
 43
1.0
 77
     0
 47
0.0208333333333333
 47
0.0
 47
0.0
 47
0.0
 47
0.0
 47
0.0208333333333333
 47
0.0
 47
0.0
 47
0.0
 47
0.0
 47
1.0
 47
0.0
 47
0.0
 47
0.0
 47
0.0
 47
1.0
171
     0
 49
0.0208333333333333
 49
0.0
 49
0.0
 49
0.0
 49
0.0
 49
0.0208333333333333
 49
0.0
 49
0.0
 49
0.0
 49
0.0
 49
1.0
 49
0.0
 49
0.0
 49
0.0
 49
0.0
 49
1.0
175
     0
142
0.0208333333333333
142
0.0
142
0.0
142
0.0
142
0.0
142
0.0208333333333333
142
0.0
142
0.0
142
0.0
142
0.0
142
1.0
142
0.0
142
0.0
142
0.0
142
0.0
142
1.0
179
     0
144
0.0208333333333333
144
0.0
144
0.0
144
0.0
144
0.0
144
0.0208333333333333
144
0.0
144
0.0
144
0.0
144
0.0
144
1.0
144
0.0
144
0.0
144
0.0
144
0.0
144
1.0
147
0.0208333333333333
147
0.0
147
0.0
147
0.0
147
0.0
147
0.0208333333333333
147
0.0
147
0.0
147
0.0
147
0.0
147
1.0
147
0.0
147
0.0
147
0.0
147
0.0
147
1.0
  0
MATERIAL
  5
11
102
{ACAD_XDICTIONARY
360
12
102
}
102
{ACAD_REACTORS
330
10
102
}
330
10
100
AcDbMaterial
  1
ByLayer
 72
     0
 43
0.0208333333333333
 43
0.0
 43
0.0
 43
0.0
 43
0.0
 43
0.0208333333333333
 43
0.0
 43
0.0
 43
0.0
 43
0.0
 43
1.0
 43
0.0
 43
0.0
 43
0.0
 43
0.0
 43
1.0
 77
     0
 47
0.0208333333333333
 47
0.0
 47
0.0
 47
0.0
 47
0.0
 47
0.0208333333333333
 47
0.0
 47
0.0
 47
0.0
 47
0.0
 47
1.0
 47
0.0
 47
0.0
 47
0.0
 47
0.0
 47
1.0
171
     0
 49
0.0208333333333333
 49
0.0
 49
0.0
 49
0.0
 49
0.0
 49
0.0208333333333333
 49
0.0
 49
0.0
 49
0.0
 49
0.0
 49
1.0
 49
0.0
 49
0.0
 49
0.0
 49
0.0
 49
1.0
175
     0
142
0.0208333333333333
142
0.0
142
0.0
142
0.0
142
0.0
142
0.0208333333333333
142
0.0
142
0.0
142
0.0
142
0.0
142
1.0
142
0.0
142
0.0
142
0.0
142
0.0
142
1.0
179
     0
144
0.0208333333333333
144
0.0
144
0.0
144
0.0
144
0.0
144
0.0208333333333333
144
0.0
144
0.0
144
0.0
144
0.0
144
1.0
144
0.0
144
0.0
144
0.0
144
0.0
144
1.0
147
0.0208333333333333
147
0.0
147
0.0
147
0.0
147
0.0
147
0.0208333333333333
147
0.0
147
0.0
147
0.0
147
0.0
147
1.0
147
0.0
147
0.0
147
0.0
147
0.0
147
1.0
  0
MATERIAL
  5
21
102
{ACAD_XDICTIONARY
360
22
102
}
102
{ACAD_REACTORS
330
10
102
}
330
10
100
AcDbMaterial
  1
Global
 72
     0
 43
0.0208333333333333
 43
0.0
 43
0.0
 43
0.0
 43
0.0
 43
0.0208333333333333
 43
0.0
 43
0.0
 43
0.0
 43
0.0
 43
1.0
 43
0.0
 43
0.0
 43
0.0
 43
0.0
 43
1.0
 77
     0
 47
0.0208333333333333
 47
0.0
 47
0.0
 47
0.0
 47
0.0
 47
0.0208333333333333
 47
0.0
 47
0.0
 47
0.0
 47
0.0
 47
1.0
 47
0.0
 47
0.0
 47
0.0
 47
0.0
 47
1.0
171
     0
 49
0.0208333333333333
 49
0.0
 49
0.0
 49
0.0
 49
0.0
 49
0.0208333333333333
 49
0.0
 49
0.0
 49
0.0
 49
0.0
 49
1.0
 49
0.0
 49
0.0
 49
0.0
 49
0.0
 49
1.0
175
     0
142
0.0208333333333333
142
0.0
142
0.0
142
0.0
142
0.0
142
0.0208333333333333
142
0.0
142
0.0
142
0.0
142
0.0
142
1.0
142
0.0
142
0.0
142
0.0
142
0.0
142
1.0
179
     0
144
0.0208333333333333
144
0.0
144
0.0
144
0.0
144
0.0
144
0.0208333333333333
144
0.0
144
0.0
144
0.0
144
0.0
144
1.0
144
0.0
144
0.0
144
0.0
144
0.0
144
1.0
147
0.0208333333333333
147
0.0
147
0.0
147
0.0
147
0.0
147
0.0208333333333333
147
0.0
147
0.0
147
0.0
147
0.0
147
1.0
147
0.0
147
0.0
147
0.0
147
0.0
147
1.0
  0
MLEADERSTYLE
  5
67
102
{ACAD_REACTORS
330
66
102
}
330
66
100
AcDbMLeaderStyle
170
     2
171
     1
172
     0
 90
        2
 40
0.0
 41
0.0
173
     1
 91
-1056964608
340
5B
 92
       -2
290
     1
 42
0.09
291
     1
 43
0.36
  3
Standard
 44
0.18
300

342
55
174
     1
178
     6
175
     1
176
     0
 93
-1056964608
 45
0.18
292
     0
297
     0
 46
0.18
 94
-1056964608
 47
1.0
 49
1.0
140
1.0
293
     1
141
0.0
294
     1
177
     0
142
1.0
295
     0
296
     0
143
0.125
1001
ACAD_MLEADERVER
1070
     2
  0
MLINESTYLE
  5
60
102
{ACAD_REACTORS
330
5F
102
}
330
5F
100
AcDbMlineStyle
  2
STANDARD
 70
     0
  3

 62
   256
 51
90.0
 52
90.0
 71
     2
 49
0.5
 62
   256
  6
BYLAYER
 49
-0.5
 62
   256
  6
BYLAYER
  0
ACDBPLACEHOLDER
  5
F
102
{ACAD_REACTORS
330
E
102
}
330
E
  0
SCALE
  5
43
102
{ACAD_REACTORS
330
42
102
}
330
42
100
AcDbScale
 70
     0
300
1:1
140
1.0
141
1.0
290
     1
  0
SCALE
  5
44
102
{ACAD_REACTORS
330
42
102
}
330
42
100
AcDbScale
 70
     0
300
1/128" = 1'-0"
140
0.0078125
141
12.0
290
     0
  0
SCALE
  5
45
102
{ACAD_REACTORS
330
42
102
}
330
42
100
AcDbScale
 70
     0
300
1/64" = 1'-0"
140
0.015625
141
12.0
290
     0
  0
SCALE
  5
46
102
{ACAD_REACTORS
330
42
102
}
330
42
100
AcDbScale
 70
     0
300
1/32" = 1'-0"
140
0.03125
141
12.0
290
     0
  0
SCALE
  5
47
102
{ACAD_REACTORS
330
42
102
}
330
42
100
AcDbScale
 70
     0
300
1/16" = 1'-0"
140
0.0625
141
12.0
290
     0
  0
SCALE
  5
48
102
{ACAD_REACTORS
330
42
102
}
330
42
100
AcDbScale
 70
     0
300
3/32" = 1'-0"
140
0.09375
141
12.0
290
     0
  0
SCALE
  5
49
102
{ACAD_REACTORS
330
42
102
}
330
42
100
AcDbScale
 70
     0
300
1/8" = 1'-0"
140
0.125
141
12.0
290
     0
  0
SCALE
  5
4A
102
{ACAD_REACTORS
330
42
102
}
330
42
100
AcDbScale
 70
     0
300
3/16" = 1'-0"
140
0.1875
141
12.0
290
     0
  0
SCALE
  5
4B
102
{ACAD_REACTORS
330
42
102
}
330
42
100
AcDbScale
 70
     0
300
1/4" = 1'-0"
140
0.25
141
12.0
290
     0
  0
SCALE
  5
4C
102
{ACAD_REACTORS
330
42
102
}
330
42
100
AcDbScale
 70
     0
300
3/8" = 1'-0"
140
0.375
141
12.0
290
     0
  0
SCALE
  5
4D
102
{ACAD_REACTORS
330
42
102
}
330
42
100
AcDbScale
 70
     0
300
1/2" = 1'-0"
140
0.5
141
12.0
290
     0
  0
SCALE
  5
4E
102
{ACAD_REACTORS
330
42
102
}
330
42
100
AcDbScale
 70
     0
300
3/4" = 1'-0"
140
0.75
141
12.0
290
     0
  0
SCALE
  5
4F
102
{ACAD_REACTORS
330
42
102
}
330
42
100
AcDbScale
 70
     0
300
1" = 1'-0"
140
1.0
141
12.0
290
     0
  0
SCALE
  5
50
102
{ACAD_REACTORS
330
42
102
}
330
42
100
AcDbScale
 70
     0
300
1-1/2" = 1'-0"
140
1.5
141
12.0
290
     0
  0
SCALE
  5
51
102
{ACAD_REACTORS
330
42
102
}
330
42
100
AcDbScale
 70
     0
300
3" = 1'-0"
140
3.0
141
12.0
290
     0
  0
SCALE
  5
52
102
{ACAD_REACTORS
330
42
102
}
330
42
100
AcDbScale
 70
     0
300
6" = 1'-0"
140
6.0
141
12.0
290
     0
  0
SCALE
  5
53
102
{ACAD_REACTORS
330
42
102
}
330
42
100
AcDbScale
 70
     0
300
1'-0" = 1'-0"
140
12.0
141
12.0
290
     0
  0
TABLESTYLE
  5
65
102
{ACAD_XDICTIONARY
360
C31
102
}
102
{ACAD_REACTORS
330
64
102
}
330
64
100
AcDbTableStyle
  3
Standard
 70
     0
 71
     0
 40
0.06
 41
0.06
280
     0
281
     0
  7
Standard
140
0.18
170
     2
 62
     0
 63
     7
283
     0
274
    -2
284
     1
 64
     0
275
    -2
285
     1
 65
     0
276
    -2
286
     1
 66
     0
277
    -2
287
     1
 67
     0
278
    -2
288
     1
 68
     0
279
    -2
289
     1
 69
     0
  7
Standard
140
0.25
170
     5
 62
     0
 63
     7
283
     0
274
    -2
284
     1
 64
     0
275
    -2
285
     1
 65
     0
276
    -2
286
     1
 66
     0
277
    -2
287
     1
 67
     0
278
    -2
288
     1
 68
     0
279
    -2
289
     1
 69
     0
  7
Standard
140
0.18
170
     5
 62
     0
 63
     7
283
     0
274
    -2
284
     1
 64
     0
275
    -2
285
     1
 65
     0
276
    -2
286
     1
 66
     0
277
    -2
287
     1
 67
     0
278
    -2
288
     1
 68
     0
279
    -2
289
     1
 69
     0
  0
VISUALSTYLE
  5
2F
102
{ACAD_XDICTIONARY
360
1233
102
}
102
{ACAD_REACTORS
330
29
102
}
330
29
100
AcDbVisualStyle
  2

 70
     4
 71
     0
 72
     2
 73
     0
 90
        0
 40
-0.6
 41
-30.0
 62
     5
 63
     7
 74
     1
 91
        4
 64
     7
 65
   257
 75
     1
175
     1
 42
1.0
 92
        0
 66
   257
 43
1.0
 76
     1
 77
     6
 78
     2
 67
     7
 79
     5
170
     0
171
     0
290
     0
174
     0
 93
        1
 44
0.0
173
     0
291
     0
 45
0.0
1001
ACAD
1000
AcDbSavedByObjectVersion
1070
     0
  0
VISUALSTYLE
  5
2E
102
{ACAD_XDICTIONARY
360
1231
102
}
102
{ACAD_REACTORS
330
29
102
}
330
29
100
AcDbVisualStyle
  2

 70
     7
 71
     1
 72
     0
 73
     1
 90
        0
 40
-0.6
 41
-30.0
 62
     5
 63
     7
 74
     0
 91
        4
 64
     7
 65
   257
 75
     1
175
     1
 42
1.0
 92
        8
 66
     7
 43
1.0
 76
     1
 77
     6
 78
     2
 67
     7
 79
     5
170
     0
171
     0
290
     0
174
     0
 93
        1
 44
0.0
173
     0
291
     1
 45
0.0
1001
ACAD
1000
AcDbSavedByObjectVersion
1070
     0
  0
VISUALSTYLE
  5
35
102
{ACAD_XDICTIONARY
360
123F
102
}
102
{ACAD_REACTORS
330
29
102
}
330
29
100
AcDbVisualStyle
  2

 70
    12
 71
     2
 72
     2
 73
     0
 90
        0
 40
-0.6
 41
-30.0
 62
     5
 63
     7
 74
     1
 91
        4
 64
     7
 65
   257
 75
     1
175
     1
 42
1.0
 92
        8
 66
     7
 43
1.0
 76
     1
 77
     6
 78
     2
 67
     7
 79
     5
170
     0
171
     0
290
     0
174
     0
 93
        1
 44
50.0
173
     0
291
     1
 45
0.0
1001
ACAD
1000
AcDbSavedByObjectVersion
1070
     0
  0
VISUALSTYLE
  5
39
102
{ACAD_XDICTIONARY
360
1247
102
}
102
{ACAD_REACTORS
330
29
102
}
330
29
100
AcDbVisualStyle
  2

 70
    16
 71
     2
 72
     2
 73
     3
 90
        0
 40
-0.6
 41
-30.0
 62
     5
 63
     8
 74
     1
 91
        4
 64
     7
 65
   257
 75
     1
175
     1
 42
1.0
 92
        8
 66
     8
 43
1.0
 76
     1
 77
     6
 78
     2
 67
     7
 79
     5
170
     0
171
     0
290
     0
174
     0
 93
        1
 44
0.0
173
     0
291
     1
 45
0.0
1001
ACAD
1000
AcDbSavedByObjectVersion
1070
     0
  0
VISUALSTYLE
  5
32
102
{ACAD_XDICTIONARY
360
1239
102
}
102
{ACAD_REACTORS
330
29
102
}
330
29
100
AcDbVisualStyle
  2

 70
     9
 71
     3
 72
     2
 73
     0
 90
        0
 40
-0.6
 41
-30.0
 62
     5
 63
     7
 74
     2
 91
        2
 64
     7
 65
   257
 75
     1
175
     1
 42
179.0
 92
        8
 66
     7
 43
1.0
 76
     1
 77
     6
 78
     2
 67
     7
 79
     3
170
     0
171
     0
290
     0
174
     0
 93
        1
 44
0.0
173
     0
291
     0
 45
0.0
1001
ACAD
1000
AcDbSavedByObjectVersion
1070
     0
  0
VISUALSTYLE
  5
34
102
{ACAD_XDICTIONARY
360
123D
102
}
102
{ACAD_REACTORS
330
29
102
}
330
29
100
AcDbVisualStyle
  2

 70
    11
 71
     2
 72
     2
 73
     0
 90
        0
 40
-0.6
 41
-30.0
 62
     5
 63
     7
 74
     1
 91
        4
 64
     7
 65
   257
 75
     1
175
     1
 42
1.0
 92
        8
 66
     7
 43
1.0
 76
     1
 77
     6
 78
     2
 67
     7
 79
     5
170
     0
171
     0
290
     0
174
     0
 93
        1
 44
-50.0
173
     0
291
     1
 45
0.0
1001
ACAD
1000
AcDbSavedByObjectVersion
1070
     0
  0
VISUALSTYLE
  5
41
102
{ACAD_XDICTIONARY
360
1257
102
}
102
{ACAD_REACTORS
330
29
102
}
330
29
100
AcDbVisualStyle
  2

 70
    22
 71
     2
 72
     2
 73
     0
 90
        0
 40
-0.6
 41
-30.0
 62
     5
 63
     7
 74
     1
 91
        4
 64
     7
 65
   257
 75
     1
175
     1
 42
1.0
 92
        8
 66
     7
 43
1.0
 76
     1
 77
     6
 78
     2
 67
     7
 79
     5
170
     0
171
     0
290
     0
174
     0
 93
        1
 44
0.0
173
     0
291
     1
 45
0.0
1001
ACAD
1000
AcDbSavedByObjectVersion
1070
     0
  0
VISUALSTYLE
  5
38
102
{ACAD_XDICTIONARY
360
1245
102
}
102
{ACAD_REACTORS
330
29
102
}
330
29
100
AcDbVisualStyle
  2

 70
    15
 71
     2
 72
     2
 73
     0
 90
        0
 40
-0.6
 41
-30.0
 62
     5
 63
     7
 74
     1
 91
        4
 64
     7
 65
   257
 75
     1
175
     1
 42
1.0
 92
        8
 66
     7
 43
1.0
 76
     1
 77
     6
 78
     2
 67
     7
 79
     5
170
     0
171
     0
290
     0
174
     0
 93
        1
 44
0.0
173
     0
291
     1
 45
0.0
1001
ACAD
1000
AcDbSavedByObjectVersion
1070
     0
  0
VISUALSTYLE
  5
2A
102
{ACAD_XDICTIONARY
360
1229
102
}
102
{ACAD_REACTORS
330
29
102
}
330
29
100
AcDbVisualStyle
  2

 70
     0
 71
     2
 72
     1
 73
     1
 90
        2
 40
-0.6
 41
30.0
 62
     5
 63
     7
 74
     0
 91
        0
 64
     7
 65
   257
 75
     1
175
     1
 42
1.0
 92
        8
 66
     7
 43
1.0
 76
     1
 77
     6
 78
     2
 67
     7
 79
     5
170
     0
171
     0
290
     0
174
     0
 93
       13
 44
0.0
173
     0
291
     1
 45
0.0
1001
ACAD
1000
AcDbSavedByObjectVersion
1070
     0
  0
VISUALSTYLE
  5
2B
102
{ACAD_XDICTIONARY
360
122B
102
}
102
{ACAD_REACTORS
330
29
102
}
330
29
100
AcDbVisualStyle
  2

 70
     1
 71
     2
 72
     1
 73
     1
 90
        2
 40
-0.6
 41
30.0
 62
     5
 63
     7
 74
     1
 91
        0
 64
     7
 65
   257
 75
     1
175
     1
 42
1.0
 92
        0
 66
   257
 43
1.0
 76
     1
 77
     6
 78
     2
 67
     7
 79
     5
170
     0
171
     0
290
     0
174
     0
 93
       13
 44
0.0
173
     0
291
     1
 45
0.0
1001
ACAD
1000
AcDbSavedByObjectVersion
1070
     0
  0
VISUALSTYLE
  5
2C
102
{ACAD_XDICTIONARY
360
122D
102
}
102
{ACAD_REACTORS
330
29
102
}
330
29
100
AcDbVisualStyle
  2

 70
     2
 71
     2
 72
     2
 73
     1
 90
        2
 40
-0.6
 41
30.0
 62
     5
 63
     7
 74
     0
 91
        0
 64
     7
 65
   257
 75
     1
175
     1
 42
1.0
 92
        0
 66
     7
 43
1.0
 76
     1
 77
     6
 78
     2
 67
     7
 79
     5
170
     0
171
     0
290
     0
174
     0
 93
       13
 44
0.0
173
     0
291
     1
 45
0.0
1001
ACAD
1000
AcDbSavedByObjectVersion
1070
     0
  0
VISUALSTYLE
  5
2D
102
{ACAD_XDICTIONARY
360
122F
102
}
102
{ACAD_REACTORS
330
29
102
}
330
29
100
AcDbVisualStyle
  2

 70
     3
 71
     2
 72
     2
 73
     1
 90
        2
 40
-0.6
 41
30.0
 62
     5
 63
     7
 74
     1
 91
        0
 64
     7
 65
   257
 75
     1
175
     1
 42
1.0
 92
        0
 66
   257
 43
1.0
 76
     1
 77
     6
 78
     2
 67
     7
 79
     5
170
     0
171
     0
290
     0
174
     0
 93
       13
 44
0.0
173
     0
291
     1
 45
0.0
1001
ACAD
1000
AcDbSavedByObjectVersion
1070
     0
  0
VISUALSTYLE
  5
31
102
{ACAD_XDICTIONARY
360
1237
102
}
102
{ACAD_REACTORS
330
29
102
}
330
29
100
AcDbVisualStyle
  2

 70
     6
 71
     1
 72
     2
 73
     2
 90
        0
 40
-0.6
 41
-30.0
 62
     5
 63
     7
 74
     2
 91
        2
 64
     7
 65
   257
 75
     2
175
     1
 42
40.0
 92
        0
 66
   257
 43
1.0
 76
     1
 77
     6
 78
     2
 67
     7
 79
     3
170
     0
171
     0
290
     0
174
     0
 93
        1
 44
0.0
173
     0
291
     0
 45
0.0
1001
ACAD
1000
AcDbSavedByObjectVersion
1070
     0
  0
VISUALSTYLE
  5
3F
102
{ACAD_XDICTIONARY
360
1253
102
}
102
{ACAD_REACTORS
330
29
102
}
330
29
100
AcDbVisualStyle
  2

 70
    20
 71
     2
 72
     2
 73
     0
 90
        0
 40
-0.6
 41
-30.0
 62
     5
 63
     7
 74
     1
 91
        4
 64
     7
 65
   257
 75
     1
175
     1
 42
1.0
 92
       10
 66
     7
 43
1.0
 76
     1
 77
     6
 78
     2
 67
     7
 79
     5
170
     0
171
     0
290
     0
174
     0
 93
        1
 44
0.0
173
     0
291
     1
 45
0.0
1001
ACAD
1000
AcDbSavedByObjectVersion
1070
     0
  0
VISUALSTYLE
  5
37
102
{ACAD_XDICTIONARY
360
1243
102
}
102
{ACAD_REACTORS
330
29
102
}
330
29
100
AcDbVisualStyle
  2

 70
    14
 71
     2
 72
     2
 73
     0
 90
        0
 40
-0.6
 41
-30.0
 62
     5
 63
     7
 74
     1
 91
        4
 64
     7
 65
   257
 75
     7
175
     7
 42
1.0
 92
        8
 66
     7
 43
1.0
 76
     1
 77
     6
 78
     2
 67
     7
 79
     5
170
     0
171
     0
290
     0
174
     0
 93
        1
 44
0.0
173
     0
291
     1
 45
0.0
1001
ACAD
1000
AcDbSavedByObjectVersion
1070
     0
  0
VISUALSTYLE
  5
40
102
{ACAD_XDICTIONARY
360
1255
102
}
102
{ACAD_REACTORS
330
29
102
}
330
29
100
AcDbVisualStyle
  2

 70
    21
 71
     2
 72
     2
 73
     0
 90
        0
 40
-0.6
 41
-30.0
 62
     5
 63
     7
 74
     1
 91
        4
 64
     7
 65
   257
 75
     1
175
     1
 42
1.0
 92
        9
 66
     7
 43
1.0
 76
     1
 77
     6
 78
     2
 67
     7
 79
     5
170
     0
171
     0
290
     0
174
     0
 93
        1
 44
0.0
173
     0
291
     1
 45
0.0
1001
ACAD
1000
AcDbSavedByObjectVersion
1070
     0
  0
VISUALSTYLE
  5
33
102
{ACAD_XDICTIONARY
360
123B
102
}
102
{ACAD_REACTORS
330
29
102
}
330
29
100
AcDbVisualStyle
  2

 70
     8
 71
     2
 72
     2
 73
     0
 90
        2
 40
-0.6
 41
30.0
 62
     5
 63
     7
 74
     0
 91
        0
 64
     7
 65
   257
 75
     1
175
     1
 42
1.0
 92
        8
 66
   257
 43
1.0
 76
     1
 77
     6
 78
     2
 67
     7
 79
     3
170
     0
171
     0
290
     0
174
     0
 93
       13
 44
0.0
173
     0
291
     0
 45
0.0
1001
ACAD
1000
AcDbSavedByObjectVersion
1070
     0
  0
VISUALSTYLE
  5
3E
102
{ACAD_XDICTIONARY
360
1251
102
}
102
{ACAD_REACTORS
330
29
102
}
330
29
100
AcDbVisualStyle
  2

 70
    27
 71
     2
 72
     2
 73
     1
 90
        2
 40
-0.6
 41
30.0
 62
     5
 63
     7
 74
     0
 91
        4
 64
     7
 65
   257
 75
     1
175
     1
 42
1.0
 92
        8
 66
   257
 43
1.0
 76
     1
 77
     6
 78
     2
 67
     8
 79
     3
170
     0
171
     0
290
     0
174
     0
 93
        5
 44
0.0
173
     0
291
     0
 45
0.0
1001
ACAD
1000
AcDbSavedByObjectVersion
1070
     0
  0
VISUALSTYLE
  5
3D
102
{ACAD_XDICTIONARY
360
124F
102
}
102
{ACAD_REACTORS
330
29
102
}
330
29
100
AcDbVisualStyle
  2

 70
    26
 71
     2
 72
     2
 73
     1
 90
        2
 40
-0.6
 41
30.0
 62
     5
 63
     7
 74
     1
 91
       10
 64
     7
 65
   257
 75
     2
175
     1
 42
1.0
 92
        8
 66
   257
 43
1.0
 76
     1
 77
     6
 78
     2
 67
     7
 79
     3
170
     0
171
     0
290
     0
174
     0
 93
        5
 44
0.0
173
     0
291
     0
 45
0.0
1001
ACAD
1000
AcDbSavedByObjectVersion
1070
     0
  0
VISUALSTYLE
  5
3A
102
{ACAD_XDICTIONARY
360
1249
102
}
102
{ACAD_REACTORS
330
29
102
}
330
29
100
AcDbVisualStyle
  2

 70
    23
 71
     2
 72
     2
 73
     3
 90
        0
 40
-0.6
 41
-30.0
 62
     5
 63
     7
 74
     2
 91
        2
 64
     7
 65
     7
 75
     1
175
     1
 42
40.0
 92
        8
 66
     7
 43
1.0
 76
     1
 77
     6
 78
     2
 67
     7
 79
     3
170
     0
171
     0
290
     0
174
     0
 93
        1
 44
0.0
173
     0
291
     0
 45
0.0
1001
ACAD
1000
AcDbSavedByObjectVersion
1070
     0
  0
VISUALSTYLE
  5
3B
102
{ACAD_XDICTIONARY
360
124B
102
}
102
{ACAD_REACTORS
330
29
102
}
330
29
100
AcDbVisualStyle
  2

 70
    24
 71
     1
 72
     2
 73
     2
 90
        0
 40
-0.6
 41
-30.0
 62
     5
 63
     7
 74
     2
 91
        2
 64
     7
 65
     7
 75
     1
175
     1
 42
40.0
 92
       11
 66
     7
 43
1.0
 76
     1
 77
     6
 78
     2
 67
     7
 79
     6
170
     0
171
     0
290
     0
174
     0
 93
        1
 44
0.0
173
     0
291
     0
 45
0.0
1001
ACAD
1000
AcDbSavedByObjectVersion
1070
     0
  0
VISUALSTYLE
  5
36
102
{ACAD_XDICTIONARY
360
1241
102
}
102
{ACAD_REACTORS
330
29
102
}
330
29
100
AcDbVisualStyle
  2

 70
    13
 71
     2
 72
     2
 73
     0
 90
        0
 40
-0.6
 41
-30.0
 62
     5
 63
     7
 74
     1
 91
        4
 64
     7
 65
   257
 75
     1
175
     1
 42
1.0
 92
       12
 66
     7
 43
1.0
 76
     1
 77
     6
 78
     2
 67
     7
 79
     5
170
     0
171
     0
290
     0
174
     0
 93
        1
 44
0.0
173
     0
291
     1
 45
0.0
1001
ACAD
1000
AcDbSavedByObjectVersion
1070
     0
  0
VISUALSTYLE
  5
30
102
{ACAD_XDICTIONARY
360
1235
102
}
102
{ACAD_REACTORS
330
29
102
}
330
29
100
AcDbVisualStyle
  2

 70
     5
 71
     0
 72
     2
 73
     0
 90
        0
 40
-0.6
 41
-30.0
 62
     5
 63
     7
 74
     1
 91
        4
 64
     7
 65
   257
 75
     1
175
     1
 42
1.0
 92
        0
 66
   257
 43
1.0
 76
     1
 77
     6
 78
     2
 67
     7
 79
     3
170
     0
171
     0
290
     0
174
     0
 93
        1
 44
0.0
173
     0
291
     0
 45
0.0
1001
ACAD
1000
AcDbSavedByObjectVersion
1070
     0
  0
VISUALSTYLE
  5
3C
102
{ACAD_XDICTIONARY
360
124D
102
}
102
{ACAD_REACTORS
330
29
102
}
330
29
100
AcDbVisualStyle
  2

 70
    25
 71
     2
 72
     2
 73
     1
 90
        1
 40
0.5
 41
-30.0
 62
     5
 63
     7
 74
     1
 91
        0
 64
     7
 65
   257
 75
     1
175
     1
 42
1.0
 92
        8
 66
     7
 43
1.0
 76
     1
 77
     6
 78
     2
 67
     7
 79
     3
170
     0
171
     0
290
     0
174
     0
 93
       13
 44
0.0
173
     0
291
     0
 45
0.0
1001
ACAD
1000
AcDbSavedByObjectVersion
1070
     0
  0
DICTIONARYVAR
  5
C8C
102
{ACAD_REACTORS
330
C88
102
}
330
C88
100
DictionaryVariables
280
     0
  1
1:1
  0
DICTIONARYVAR
  5
C8A
102
{ACAD_REACTORS
330
C88
102
}
330
C88
100
DictionaryVariables
280
     0
  1
STANDARD
  0
DICTIONARYVAR
  5
C89
102
{ACAD_REACTORS
330
C88
102
}
330
C88
100
DictionaryVariables
280
     0
  1
STANDARD
  0
DICTIONARYVAR
  5
C93
102
{ACAD_REACTORS
330
C88
102
}
330
C88
100
DictionaryVariables
280
     0
  1
1
  0
DICTIONARYVAR
  5
C92
102
{ACAD_REACTORS
330
C88
102
}
330
C88
100
DictionaryVariables
280
     0
  1
1
  0
DICTIONARYVAR
  5
C91
102
{ACAD_REACTORS
330
C88
102
}
330
C88
100
DictionaryVariables
280
     0
  1
0
  0
DICTIONARYVAR
  5
C8E
102
{ACAD_REACTORS
330
C88
102
}
330
C88
100
DictionaryVariables
280
     0
  1
0
  0
DICTIONARYVAR
  5
C8F
102
{ACAD_REACTORS
330
C88
102
}
330
C88
100
DictionaryVariables
280
     0
  1
0
  0
DICTIONARYVAR
  5
C8D
102
{ACAD_REACTORS
330
C88
102
}
330
C88
100
DictionaryVariables
280
     0
  1
2
  0
DICTIONARYVAR
  5
C8B
102
{ACAD_REACTORS
330
C88
102
}
330
C88
100
DictionaryVariables
280
     0
  1
1
  0
DICTIONARYVAR
  5
C90
102
{ACAD_REACTORS
330
C88
102
}
330
C88
100
DictionaryVariables
280
     0
  1
127
  0
DICTIONARYVAR
  5
1214
102
{ACAD_REACTORS
330
C88
102
}
330
C88
100
DictionaryVariables
280
     0
  1
2
  0
DICTIONARY
  5
CF5
102
{ACAD_REACTORS
330
CEA
102
}
330
CEA
100
AcDbDictionary
281
     1
  0
DICTIONARY
  5
125A
330
6B
100
AcDbDictionary
280
     1
281
     1
  3
ACAD_XREC_ROUNDTRIP
360
125B
  0
DICTIONARY
  5
125E
330
73
100
AcDbDictionary
280
     1
281
     1
  3
ACAD_XREC_ROUNDTRIP
360
125F
  0
DICTIONARY
  5
125C
330
6F
100
AcDbDictionary
280
     1
281
     1
  3
ACAD_XREC_ROUNDTRIP
360
125D
  0
DICTIONARY
  5
1A
330
19
100
AcDbDictionary
280
     1
281
     1
  3
ACAD_XREC_ROUNDTRIP
360
10A8
  3
BUMPTILE
360
1C
  3
DIFFUSETILE
360
1B
  3
OPACITYTILE
360
1F
  3
REFLECTIONTILE
360
1E
  3
REFRACTIONTILE
360
20
  3
SPECULARTILE
360
1D
  0
DICTIONARY
  5
12
330
11
100
AcDbDictionary
280
     1
281
     1
  3
ACAD_XREC_ROUNDTRIP
360
10A7
  3
BUMPTILE
360
14
  3
DIFFUSETILE
360
13
  3
OPACITYTILE
360
17
  3
REFLECTIONTILE
360
16
  3
REFRACTIONTILE
360
18
  3
SPECULARTILE
360
15
  0
DICTIONARY
  5
22
330
21
100
AcDbDictionary
280
     1
281
     1
  3
ACAD_XREC_ROUNDTRIP
360
10A9
  3
BUMPTILE
360
24
  3
DIFFUSETILE
360
23
  3
OPACITYTILE
360
27
  3
REFLECTIONTILE
360
26
  3
REFRACTIONTILE
360
28
  3
SPECULARTILE
360
25
  0
DICTIONARY
  5
C31
330
65
100
AcDbDictionary
280
     1
281
     1
  3
ACAD_ROUNDTRIP_2008_TABLESTYLE_CELLSTYLEMAP
360
1215
  3
ACAD_XREC_ROUNDTRIP
360
1259
  0
DICTIONARY
  5
1233
330
2F
100
AcDbDictionary
280
     1
281
     1
  3
ACAD_XREC_ROUNDTRIP
360
1234
  0
DICTIONARY
  5
1231
330
2E
100
AcDbDictionary
280
     1
281
     1
  3
ACAD_XREC_ROUNDTRIP
360
1232
  0
DICTIONARY
  5
123F
330
35
100
AcDbDictionary
280
     1
281
     1
  3
ACAD_XREC_ROUNDTRIP
360
1240
  0
DICTIONARY
  5
1247
330
39
100
AcDbDictionary
280
     1
281
     1
  3
ACAD_XREC_ROUNDTRIP
360
1248
  0
DICTIONARY
  5
1239
330
32
100
AcDbDictionary
280
     1
281
     1
  3
ACAD_XREC_ROUNDTRIP
360
123A
  0
DICTIONARY
  5
123D
330
34
100
AcDbDictionary
280
     1
281
     1
  3
ACAD_XREC_ROUNDTRIP
360
123E
  0
DICTIONARY
  5
1257
330
41
100
AcDbDictionary
280
     1
281
     1
  3
ACAD_XREC_ROUNDTRIP
360
1258
  0
DICTIONARY
  5
1245
330
38
100
AcDbDictionary
280
     1
281
     1
  3
ACAD_XREC_ROUNDTRIP
360
1246
  0
DICTIONARY
  5
1229
330
2A
100
AcDbDictionary
280
     1
281
     1
  3
ACAD_XREC_ROUNDTRIP
360
122A
  0
DICTIONARY
  5
122B
330
2B
100
AcDbDictionary
280
     1
281
     1
  3
ACAD_XREC_ROUNDTRIP
360
122C
  0
DICTIONARY
  5
122D
330
2C
100
AcDbDictionary
280
     1
281
     1
  3
ACAD_XREC_ROUNDTRIP
360
122E
  0
DICTIONARY
  5
122F
330
2D
100
AcDbDictionary
280
     1
281
     1
  3
ACAD_XREC_ROUNDTRIP
360
1230
  0
DICTIONARY
  5
1237
330
31
100
AcDbDictionary
280
     1
281
     1
  3
ACAD_XREC_ROUNDTRIP
360
1238
  0
DICTIONARY
  5
1253
330
3F
100
AcDbDictionary
280
     1
281
     1
  3
ACAD_XREC_ROUNDTRIP
360
1254
  0
DICTIONARY
  5
1243
330
37
100
AcDbDictionary
280
     1
281
     1
  3
ACAD_XREC_ROUNDTRIP
360
1244
  0
DICTIONARY
  5
1255
330
40
100
AcDbDictionary
280
     1
281
     1
  3
ACAD_XREC_ROUNDTRIP
360
1256
  0
DICTIONARY
  5
123B
330
33
100
AcDbDictionary
280
     1
281
     1
  3
ACAD_XREC_ROUNDTRIP
360
123C
  0
DICTIONARY
  5
1251
330
3E
100
AcDbDictionary
280
     1
281
     1
  3
ACAD_XREC_ROUNDTRIP
360
1252
  0
DICTIONARY
  5
124F
330
3D
100
AcDbDictionary
280
     1
281
     1
  3
ACAD_XREC_ROUNDTRIP
360
1250
  0
DICTIONARY
  5
1249
330
3A
100
AcDbDictionary
280
     1
281
     1
  3
ACAD_XREC_ROUNDTRIP
360
124A
  0
DICTIONARY
  5
124B
330
3B
100
AcDbDictionary
280
     1
281
     1
  3
ACAD_XREC_ROUNDTRIP
360
124C
  0
DICTIONARY
  5
1241
330
36
100
AcDbDictionary
280
     1
281
     1
  3
ACAD_XREC_ROUNDTRIP
360
1242
  0
DICTIONARY
  5
1235
330
30
100
AcDbDictionary
280
     1
281
     1
  3
ACAD_XREC_ROUNDTRIP
360
1236
  0
DICTIONARY
  5
124D
330
3C
100
AcDbDictionary
280
     1
281
     1
  3
ACAD_XREC_ROUNDTRIP
360
124E
  0
XRECORD
  5
125B
102
{ACAD_REACTORS
330
125A
102
}
330
125A
100
AcDbXrecord
280
     1
102
SHADEPLOT
 70
     0
102
SHADEPLOTRESLEVEL
 70
     2
102
SHADEPLOTCUSTOMDPI
 70
   300
  0
XRECORD
  5
125F
102
{ACAD_REACTORS
330
125E
102
}
330
125E
100
AcDbXrecord
280
     1
102
SHADEPLOT
 70
     0
102
SHADEPLOTRESLEVEL
 70
     2
102
SHADEPLOTCUSTOMDPI
 70
   300
  0
XRECORD
  5
125D
102
{ACAD_REACTORS
330
125C
102
}
330
125C
100
AcDbXrecord
280
     1
102
SHADEPLOT
 70
     0
102
SHADEPLOTRESLEVEL
 70
     2
102
SHADEPLOTCUSTOMDPI
 70
   300
  0
XRECORD
  5
10A8
102
{ACAD_REACTORS
330
1A
102
}
330
1A
100
AcDbXrecord
280
     1
102
MATERIAL
148
0.0
149
0.0
149
0.0
 93
        0
 94
      127
282
     0
 72
     0
 77
     0
171
     0
175
     0
179
     0
273
     0
  0
XRECORD
  5
1C
102
{ACAD_REACTORS
330
1A
102
}
330
1A
100
AcDbXrecord
280
     1
270
     1
271
     1
  0
XRECORD
  5
1B
102
{ACAD_REACTORS
330
1A
102
}
330
1A
100
AcDbXrecord
280
     1
270
     1
271
     1
  0
XRECORD
  5
1F
102
{ACAD_REACTORS
330
1A
102
}
330
1A
100
AcDbXrecord
280
     1
270
     1
271
     1
  0
XRECORD
  5
1E
102
{ACAD_REACTORS
330
1A
102
}
330
1A
100
AcDbXrecord
280
     1
270
     1
271
     1
  0
XRECORD
  5
20
102
{ACAD_REACTORS
330
1A
102
}
330
1A
100
AcDbXrecord
280
     1
270
     1
271
     1
  0
XRECORD
  5
1D
102
{ACAD_REACTORS
330
1A
102
}
330
1A
100
AcDbXrecord
280
     1
270
     1
271
     1
  0
XRECORD
  5
10A7
102
{ACAD_REACTORS
330
12
102
}
330
12
100
AcDbXrecord
280
     1
102
MATERIAL
148
0.0
149
0.0
149
0.0
 93
        0
 94
      127
282
     0
 72
     0
 77
     0
171
     0
175
     0
179
     0
273
     0
  0
XRECORD
  5
14
102
{ACAD_REACTORS
330
12
102
}
330
12
100
AcDbXrecord
280
     1
270
     1
271
     1
  0
XRECORD
  5
13
102
{ACAD_REACTORS
330
12
102
}
330
12
100
AcDbXrecord
280
     1
270
     1
271
     1
  0
XRECORD
  5
17
102
{ACAD_REACTORS
330
12
102
}
330
12
100
AcDbXrecord
280
     1
270
     1
271
     1
  0
XRECORD
  5
16
102
{ACAD_REACTORS
330
12
102
}
330
12
100
AcDbXrecord
280
     1
270
     1
271
     1
  0
XRECORD
  5
18
102
{ACAD_REACTORS
330
12
102
}
330
12
100
AcDbXrecord
280
     1
270
     1
271
     1
  0
XRECORD
  5
15
102
{ACAD_REACTORS
330
12
102
}
330
12
100
AcDbXrecord
280
     1
270
     1
271
     1
  0
XRECORD
  5
10A9
102
{ACAD_REACTORS
330
22
102
}
330
22
100
AcDbXrecord
280
     1
102
MATERIAL
148
0.0
149
0.0
149
0.0
 93
        0
 94
      127
282
     0
 72
     0
 77
     0
171
     0
175
     0
179
     0
273
     0
  0
XRECORD
  5
24
102
{ACAD_REACTORS
330
22
102
}
330
22
100
AcDbXrecord
280
     1
270
     1
271
     1
  0
XRECORD
  5
23
102
{ACAD_REACTORS
330
22
102
}
330
22
100
AcDbXrecord
280
     1
270
     1
271
     1
  0
XRECORD
  5
27
102
{ACAD_REACTORS
330
22
102
}
330
22
100
AcDbXrecord
280
     1
270
     1
271
     1
  0
XRECORD
  5
26
102
{ACAD_REACTORS
330
22
102
}
330
22
100
AcDbXrecord
280
     1
270
     1
271
     1
  0
XRECORD
  5
28
102
{ACAD_REACTORS
330
22
102
}
330
22
100
AcDbXrecord
280
     1
270
     1
271
     1
  0
XRECORD
  5
25
102
{ACAD_REACTORS
330
22
102
}
330
22
100
AcDbXrecord
280
     1
270
     1
271
     1
  0
CELLSTYLEMAP
  5
1215
102
{ACAD_REACTORS
330
C31
102
}
330
C31
100
AcDbCellStyleMap
 90
        3
300
CELLSTYLE
  1
TABLEFORMAT_BEGIN
 90
        5
170
     1
 91
        0
 92
    32768
 62
   257
 93
        1
300
CONTENTFORMAT
  1
CONTENTFORMAT_BEGIN
 90
        0
 91
        0
 92
      512
 93
        0
300

 40
0.0
140
1.0
 94
        5
 62
     0
340
55
144
0.25
309
CONTENTFORMAT_END
171
     1
301
MARGIN
  1
CELLMARGIN_BEGIN
 40
0.06
 40
0.06
 40
0.06
 40
0.06
 40
0.18
 40
0.18
309
CELLMARGIN_END
 94
        6
 95
        1
302
GRIDFORMAT
  1
GRIDFORMAT_BEGIN
 90
        0
 91
        1
 62
     0
 92
       -2
340
0
 93
        0
 40
0.045
309
GRIDFORMAT_END
 95
        2
302
GRIDFORMAT
  1
GRIDFORMAT_BEGIN
 90
        0
 91
        1
 62
     0
 92
       -2
340
0
 93
        0
 40
0.045
309
GRIDFORMAT_END
 95
        4
302
GRIDFORMAT
  1
GRIDFORMAT_BEGIN
 90
        0
 91
        1
 62
     0
 92
       -2
340
0
 93
        0
 40
0.045
309
GRIDFORMAT_END
 95
        8
302
GRIDFORMAT
  1
GRIDFORMAT_BEGIN
 90
        0
 91
        1
 62
     0
 92
       -2
340
0
 93
        0
 40
0.045
309
GRIDFORMAT_END
 95
       16
302
GRIDFORMAT
  1
GRIDFORMAT_BEGIN
 90
        0
 91
        1
 62
     0
 92
       -2
340
0
 93
        0
 40
0.045
309
GRIDFORMAT_END
 95
       32
302
GRIDFORMAT
  1
GRIDFORMAT_BEGIN
 90
        0
 91
        1
 62
     0
 92
       -2
340
0
 93
        0
 40
0.045
309
GRIDFORMAT_END
309
TABLEFORMAT_END
  1
CELLSTYLE_BEGIN
 90
        1
 91
        1
300
_TITLE
309
CELLSTYLE_END
300
CELLSTYLE
  1
TABLEFORMAT_BEGIN
 90
        5
170
     1
 91
        0
 92
        0
 62
   257
 93
        1
300
CONTENTFORMAT
  1
CONTENTFORMAT_BEGIN
 90
        0
 91
        0
 92
      512
 93
        0
300

 40
0.0
140
1.0
 94
        5
 62
     0
340
55
144
0.18
309
CONTENTFORMAT_END
171
     1
301
MARGIN
  1
CELLMARGIN_BEGIN
 40
0.06
 40
0.06
 40
0.06
 40
0.06
 40
0.18
 40
0.18
309
CELLMARGIN_END
 94
        6
 95
        1
302
GRIDFORMAT
  1
GRIDFORMAT_BEGIN
 90
        0
 91
        1
 62
     0
 92
       -2
340
0
 93
        0
 40
0.045
309
GRIDFORMAT_END
 95
        2
302
GRIDFORMAT
  1
GRIDFORMAT_BEGIN
 90
        0
 91
        1
 62
     0
 92
       -2
340
0
 93
        0
 40
0.045
309
GRIDFORMAT_END
 95
        4
302
GRIDFORMAT
  1
GRIDFORMAT_BEGIN
 90
        0
 91
        1
 62
     0
 92
       -2
340
0
 93
        0
 40
0.045
309
GRIDFORMAT_END
 95
        8
302
GRIDFORMAT
  1
GRIDFORMAT_BEGIN
 90
        0
 91
        1
 62
     0
 92
       -2
340
0
 93
        0
 40
0.045
309
GRIDFORMAT_END
 95
       16
302
GRIDFORMAT
  1
GRIDFORMAT_BEGIN
 90
        0
 91
        1
 62
     0
 92
       -2
340
0
 93
        0
 40
0.045
309
GRIDFORMAT_END
 95
       32
302
GRIDFORMAT
  1
GRIDFORMAT_BEGIN
 90
        0
 91
        1
 62
     0
 92
       -2
340
0
 93
        0
 40
0.045
309
GRIDFORMAT_END
309
TABLEFORMAT_END
  1
CELLSTYLE_BEGIN
 90
        2
 91
        1
300
_HEADER
309
CELLSTYLE_END
300
CELLSTYLE
  1
TABLEFORMAT_BEGIN
 90
        5
170
     1
 91
        0
 92
        0
 62
   257
 93
        1
300
CONTENTFORMAT
  1
CONTENTFORMAT_BEGIN
 90
        0
 91
        0
 92
      512
 93
        0
300

 40
0.0
140
1.0
 94
        2
 62
     0
340
55
144
0.18
309
CONTENTFORMAT_END
171
     1
301
MARGIN
  1
CELLMARGIN_BEGIN
 40
0.06
 40
0.06
 40
0.06
 40
0.06
 40
0.18
 40
0.18
309
CELLMARGIN_END
 94
        6
 95
        1
302
GRIDFORMAT
  1
GRIDFORMAT_BEGIN
 90
        0
 91
        1
 62
     0
 92
       -2
340
0
 93
        0
 40
0.045
309
GRIDFORMAT_END
 95
        2
302
GRIDFORMAT
  1
GRIDFORMAT_BEGIN
 90
        0
 91
        1
 62
     0
 92
       -2
340
0
 93
        0
 40
0.045
309
GRIDFORMAT_END
 95
        4
302
GRIDFORMAT
  1
GRIDFORMAT_BEGIN
 90
        0
 91
        1
 62
     0
 92
       -2
340
0
 93
        0
 40
0.045
309
GRIDFORMAT_END
 95
        8
302
GRIDFORMAT
  1
GRIDFORMAT_BEGIN
 90
        0
 91
        1
 62
     0
 92
       -2
340
0
 93
        0
 40
0.045
309
GRIDFORMAT_END
 95
       16
302
GRIDFORMAT
  1
GRIDFORMAT_BEGIN
 90
        0
 91
        1
 62
     0
 92
       -2
340
0
 93
        0
 40
0.045
309
GRIDFORMAT_END
 95
       32
302
GRIDFORMAT
  1
GRIDFORMAT_BEGIN
 90
        0
 91
        1
 62
     0
 92
       -2
340
0
 93
        0
 40
0.045
309
GRIDFORMAT_END
309
TABLEFORMAT_END
  1
CELLSTYLE_BEGIN
 90
        3
 91
        2
300
_DATA
309
CELLSTYLE_END
  0
XRECORD
  5
1259
102
{ACAD_REACTORS
330
C31
102
}
330
C31
100
AcDbXrecord
280
     1
102
ACAD_ROUNDTRIP_PRE2007_TABLESTYLE
 90
      512
 91
        0
  1

 92
      512
 93
        0
  2

 94
      512
 95
        0
  3

  0
XRECORD
  5
1234
102
{ACAD_REACTORS
330
1233
102
}
330
1233
100
AcDbXrecord
280
     1
102
RTVSPropertyOp0
 70
     1
102
RTVSPropertyOp1
 70
     1
102
RTVSPropertyOp2
 70
     1
102
RTVSPropertyOp3
 70
     1
102
RTVSPropertyOp4
 70
     1
102
RTVSPropertyOp5
 70
     1
102
RTVSPropertyOp6
 70
     1
102
RTVSPropertyOp7
 70
     1
102
RTVSPropertyOp8
 70
     1
102
RTVSPropertyOp9
 70
     1
102
RTVSPropertyOp10
 70
     1
102
RTVSPropertyOp11
 70
     1
102
RTVSPropertyOp12
 70
     1
102
RTVSPropertyOp13
 70
     1
102
RTVSPropertyOp14
 70
     1
102
RTVSPropertyOp15
 70
     1
102
RTVSPropertyOp16
 70
     1
102
RTVSPropertyOp17
 70
     1
102
RTVSPropertyOp18
 70
     1
102
RTVSPropertyOp19
 70
     1
102
RTVSPropertyOp20
 70
     1
102
RTVSPropertyOp21
 70
     1
102
RTVSPropertyOp22
 70
     1
102
RTVSPropertyOp23
 70
     1
102
RTVSPropertyOp24
 70
     1
102
RTVSPropertyOp25
 70
     1
102
RTVSPropertyOp26
 70
     1
102
RTVSPropertyOp27
 70
     1
102
RTVSPropertyOp28
 70
     1
102
RTVSPropertyOp29
 70
     1
102
RTVSPropertyOp30
 70
     1
102
RTVSPropertyOp31
 70
     1
102
RTVSPropertyOp32
 70
     1
  0
XRECORD
  5
1232
102
{ACAD_REACTORS
330
1231
102
}
330
1231
100
AcDbXrecord
280
     1
102
RTVSPropertyOp0
 70
     1
102
RTVSPropertyOp1
 70
     1
102
RTVSPropertyOp2
 70
     1
102
RTVSPropertyOp3
 70
     1
102
RTVSPropertyOp4
 70
     1
102
RTVSPropertyOp5
 70
     1
102
RTVSPropertyOp6
 70
     1
102
RTVSPropertyOp7
 70
     1
102
RTVSPropertyOp8
 70
     1
102
RTVSPropertyOp9
 70
     1
102
RTVSPropertyOp10
 70
     1
102
RTVSPropertyOp11
 70
     1
102
RTVSPropertyOp12
 70
     1
102
RTVSPropertyOp13
 70
     1
102
RTVSPropertyOp14
 70
     1
102
RTVSPropertyOp15
 70
     1
102
RTVSPropertyOp16
 70
     1
102
RTVSPropertyOp17
 70
     1
102
RTVSPropertyOp18
 70
     1
102
RTVSPropertyOp19
 70
     1
102
RTVSPropertyOp20
 70
     1
102
RTVSPropertyOp21
 70
     1
102
RTVSPropertyOp22
 70
     1
102
RTVSPropertyOp23
 70
     1
102
RTVSPropertyOp24
 70
     1
102
RTVSPropertyOp25
 70
     1
102
RTVSPropertyOp26
 70
     1
102
RTVSPropertyOp27
 70
     1
102
RTVSPropertyOp28
 70
     1
102
RTVSPropertyOp29
 70
     1
102
RTVSPropertyOp30
 70
     1
102
RTVSPropertyOp31
 70
     1
102
RTVSPropertyOp32
 70
     1
  0
XRECORD
  5
1240
102
{ACAD_REACTORS
330
123F
102
}
330
123F
100
AcDbXrecord
280
     1
102
RTVSPropertyOp0
 70
     1
102
RTVSPropertyOp1
 70
     1
102
RTVSPropertyOp2
 70
     1
102
RTVSPropertyOp3
 70
     1
102
RTVSPropertyOp4
 70
     1
102
RTVSPropertyOp5
 70
     1
102
RTVSPropertyOp6
 70
     1
102
RTVSPropertyOp7
 70
     1
102
RTVSPropertyOp8
 70
     1
102
RTVSPropertyOp9
 70
     1
102
RTVSPropertyOp10
 70
     1
102
RTVSPropertyOp11
 70
     1
102
RTVSPropertyOp12
 70
     1
102
RTVSPropertyOp13
 70
     1
102
RTVSPropertyOp14
 70
     1
102
RTVSPropertyOp15
 70
     1
102
RTVSPropertyOp16
 70
     1
102
RTVSPropertyOp17
 70
     1
102
RTVSPropertyOp18
 70
     1
102
RTVSPropertyOp19
 70
     1
102
RTVSPropertyOp20
 70
     1
102
RTVSPropertyOp21
 70
     1
102
RTVSPropertyOp22
 70
     1
102
RTVSPropertyOp23
 70
     1
102
RTVSPropertyOp24
 70
     1
102
RTVSPropertyOp25
 70
     1
102
RTVSPropertyOp26
 70
     1
102
RTVSPropertyOp27
 70
     1
102
RTVSPropertyOp28
 70
     1
102
RTVSPropertyOp29
 70
     1
102
RTVSPropertyOp30
 70
     1
102
RTVSPropertyOp31
 70
     1
102
RTVSPropertyOp32
 70
     1
  0
XRECORD
  5
1248
102
{ACAD_REACTORS
330
1247
102
}
330
1247
100
AcDbXrecord
280
     1
102
RTVSPropertyOp0
 70
     1
102
RTVSPropertyOp1
 70
     1
102
RTVSPropertyOp2
 70
     1
102
RTVSPropertyOp3
 70
     1
102
RTVSPropertyOp4
 70
     1
102
RTVSPropertyOp5
 70
     1
102
RTVSPropertyOp6
 70
     1
102
RTVSPropertyOp7
 70
     1
102
RTVSPropertyOp8
 70
     1
102
RTVSPropertyOp9
 70
     1
102
RTVSPropertyOp10
 70
     1
102
RTVSPropertyOp11
 70
     1
102
RTVSPropertyOp12
 70
     1
102
RTVSPropertyOp13
 70
     1
102
RTVSPropertyOp14
 70
     1
102
RTVSPropertyOp15
 70
     1
102
RTVSPropertyOp16
 70
     1
102
RTVSPropertyOp17
 70
     1
102
RTVSPropertyOp18
 70
     1
102
RTVSPropertyOp19
 70
     1
102
RTVSPropertyOp20
 70
     1
102
RTVSPropertyOp21
 70
     1
102
RTVSPropertyOp22
 70
     1
102
RTVSPropertyOp23
 70
     1
102
RTVSPropertyOp24
 70
     1
102
RTVSPropertyOp25
 70
     1
102
RTVSPropertyOp26
 70
     1
102
RTVSPropertyOp27
 70
     1
102
RTVSPropertyOp28
 70
     1
102
RTVSPropertyOp29
 70
     1
102
RTVSPropertyOp30
 70
     1
102
RTVSPropertyOp31
 70
     1
102
RTVSPropertyOp32
 70
     1
  0
XRECORD
  5
123A
102
{ACAD_REACTORS
330
1239
102
}
330
1239
100
AcDbXrecord
280
     1
102
RTVSPropertyOp0
 70
     1
102
RTVSPropertyOp1
 70
     1
102
RTVSPropertyOp2
 70
     1
102
RTVSPropertyOp3
 70
     1
102
RTVSPropertyOp4
 70
     1
102
RTVSPropertyOp5
 70
     1
102
RTVSPropertyOp6
 70
     1
102
RTVSPropertyOp7
 70
     1
102
RTVSPropertyOp8
 70
     1
102
RTVSPropertyOp9
 70
     1
102
RTVSPropertyOp10
 70
     1
102
RTVSPropertyOp11
 70
     1
102
RTVSPropertyOp12
 70
     1
102
RTVSPropertyOp13
 70
     1
102
RTVSPropertyOp14
 70
     1
102
RTVSPropertyOp15
 70
     1
102
RTVSPropertyOp16
 70
     1
102
RTVSPropertyOp17
 70
     1
102
RTVSPropertyOp18
 70
     1
102
RTVSPropertyOp19
 70
     1
102
RTVSPropertyOp20
 70
     1
102
RTVSPropertyOp21
 70
     1
102
RTVSPropertyOp22
 70
     1
102
RTVSPropertyOp23
 70
     1
102
RTVSPropertyOp24
 70
     1
102
RTVSPropertyOp25
 70
     1
102
RTVSPropertyOp26
 70
     1
102
RTVSPropertyOp27
 70
     1
102
RTVSPropertyOp28
 70
     1
102
RTVSPropertyOp29
 70
     1
102
RTVSPropertyOp30
 70
     1
102
RTVSPropertyOp31
 70
     1
102
RTVSPropertyOp32
 70
     1
  0
XRECORD
  5
123E
102
{ACAD_REACTORS
330
123D
102
}
330
123D
100
AcDbXrecord
280
     1
102
RTVSPropertyOp0
 70
     1
102
RTVSPropertyOp1
 70
     1
102
RTVSPropertyOp2
 70
     1
102
RTVSPropertyOp3
 70
     1
102
RTVSPropertyOp4
 70
     1
102
RTVSPropertyOp5
 70
     1
102
RTVSPropertyOp6
 70
     1
102
RTVSPropertyOp7
 70
     1
102
RTVSPropertyOp8
 70
     1
102
RTVSPropertyOp9
 70
     1
102
RTVSPropertyOp10
 70
     1
102
RTVSPropertyOp11
 70
     1
102
RTVSPropertyOp12
 70
     1
102
RTVSPropertyOp13
 70
     1
102
RTVSPropertyOp14
 70
     1
102
RTVSPropertyOp15
 70
     1
102
RTVSPropertyOp16
 70
     1
102
RTVSPropertyOp17
 70
     1
102
RTVSPropertyOp18
 70
     1
102
RTVSPropertyOp19
 70
     1
102
RTVSPropertyOp20
 70
     1
102
RTVSPropertyOp21
 70
     1
102
RTVSPropertyOp22
 70
     1
102
RTVSPropertyOp23
 70
     1
102
RTVSPropertyOp24
 70
     1
102
RTVSPropertyOp25
 70
     1
102
RTVSPropertyOp26
 70
     1
102
RTVSPropertyOp27
 70
     1
102
RTVSPropertyOp28
 70
     1
102
RTVSPropertyOp29
 70
     1
102
RTVSPropertyOp30
 70
     1
102
RTVSPropertyOp31
 70
     1
102
RTVSPropertyOp32
 70
     1
  0
XRECORD
  5
1258
102
{ACAD_REACTORS
330
1257
102
}
330
1257
100
AcDbXrecord
280
     1
102
RTVSPropertyOp0
 70
     0
102
RTVSPropertyOp1
 70
     0
102
RTVSPropertyOp2
 70
     0
102
RTVSPropertyOp3
 70
     0
102
RTVSPropertyOp4
 70
     0
102
RTVSPropertyOp5
 70
     0
102
RTVSPropertyOp6
 70
     0
102
RTVSPropertyOp7
 70
     0
102
RTVSPropertyOp8
 70
     0
102
RTVSPropertyOp9
 70
     0
102
RTVSPropertyOp10
 70
     0
102
RTVSPropertyOp11
 70
     0
102
RTVSPropertyOp12
 70
     0
102
RTVSPropertyOp13
 70
     0
102
RTVSPropertyOp14
 70
     2
102
RTVSPropertyOp15
 70
     0
102
RTVSPropertyOp16
 70
     0
102
RTVSPropertyOp17
 70
     0
102
RTVSPropertyOp18
 70
     0
102
RTVSPropertyOp19
 70
     0
102
RTVSPropertyOp20
 70
     0
102
RTVSPropertyOp21
 70
     0
102
RTVSPropertyOp22
 70
     0
102
RTVSPropertyOp23
 70
     0
102
RTVSPropertyOp24
 70
     0
102
RTVSPropertyOp25
 70
     0
102
RTVSPropertyOp26
 70
     0
102
RTVSPropertyOp27
 70
     0
102
RTVSPropertyOp28
 70
     0
102
RTVSPropertyOp29
 70
     0
102
RTVSPropertyOp30
 70
     0
102
RTVSPropertyOp31
 70
     0
102
RTVSPropertyOp32
 70
     0
  0
XRECORD
  5
1246
102
{ACAD_REACTORS
330
1245
102
}
330
1245
100
AcDbXrecord
280
     1
102
RTVSPropertyOp0
 70
     1
102
RTVSPropertyOp1
 70
     1
102
RTVSPropertyOp2
 70
     1
102
RTVSPropertyOp3
 70
     1
102
RTVSPropertyOp4
 70
     1
102
RTVSPropertyOp5
 70
     1
102
RTVSPropertyOp6
 70
     1
102
RTVSPropertyOp7
 70
     1
102
RTVSPropertyOp8
 70
     1
102
RTVSPropertyOp9
 70
     1
102
RTVSPropertyOp10
 70
     1
102
RTVSPropertyOp11
 70
     1
102
RTVSPropertyOp12
 70
     1
102
RTVSPropertyOp13
 70
     1
102
RTVSPropertyOp14
 70
     1
102
RTVSPropertyOp15
 70
     1
102
RTVSPropertyOp16
 70
     1
102
RTVSPropertyOp17
 70
     1
102
RTVSPropertyOp18
 70
     1
102
RTVSPropertyOp19
 70
     1
102
RTVSPropertyOp20
 70
     1
102
RTVSPropertyOp21
 70
     1
102
RTVSPropertyOp22
 70
     1
102
RTVSPropertyOp23
 70
     1
102
RTVSPropertyOp24
 70
     1
102
RTVSPropertyOp25
 70
     1
102
RTVSPropertyOp26
 70
     1
102
RTVSPropertyOp27
 70
     1
102
RTVSPropertyOp28
 70
     1
102
RTVSPropertyOp29
 70
     1
102
RTVSPropertyOp30
 70
     1
102
RTVSPropertyOp31
 70
     1
102
RTVSPropertyOp32
 70
     1
  0
XRECORD
  5
122A
102
{ACAD_REACTORS
330
1229
102
}
330
1229
100
AcDbXrecord
280
     1
102
RTVSPropertyOp0
 70
     1
102
RTVSPropertyOp1
 70
     1
102
RTVSPropertyOp2
 70
     1
102
RTVSPropertyOp3
 70
     1
102
RTVSPropertyOp4
 70
     1
102
RTVSPropertyOp5
 70
     1
102
RTVSPropertyOp6
 70
     1
102
RTVSPropertyOp7
 70
     1
102
RTVSPropertyOp8
 70
     1
102
RTVSPropertyOp9
 70
     1
102
RTVSPropertyOp10
 70
     1
102
RTVSPropertyOp11
 70
     1
102
RTVSPropertyOp12
 70
     1
102
RTVSPropertyOp13
 70
     1
102
RTVSPropertyOp14
 70
     1
102
RTVSPropertyOp15
 70
     1
102
RTVSPropertyOp16
 70
     1
102
RTVSPropertyOp17
 70
     1
102
RTVSPropertyOp18
 70
     1
102
RTVSPropertyOp19
 70
     1
102
RTVSPropertyOp20
 70
     1
102
RTVSPropertyOp21
 70
     1
102
RTVSPropertyOp22
 70
     1
102
RTVSPropertyOp23
 70
     1
102
RTVSPropertyOp24
 70
     1
102
RTVSPropertyOp25
 70
     1
102
RTVSPropertyOp26
 70
     1
102
RTVSPropertyOp27
 70
     1
102
RTVSPropertyOp28
 70
     1
102
RTVSPropertyOp29
 70
     1
102
RTVSPropertyOp30
 70
     1
102
RTVSPropertyOp31
 70
     1
102
RTVSPropertyOp32
 70
     1
  0
XRECORD
  5
122C
102
{ACAD_REACTORS
330
122B
102
}
330
122B
100
AcDbXrecord
280
     1
102
RTVSPropertyOp0
 70
     1
102
RTVSPropertyOp1
 70
     1
102
RTVSPropertyOp2
 70
     1
102
RTVSPropertyOp3
 70
     1
102
RTVSPropertyOp4
 70
     1
102
RTVSPropertyOp5
 70
     1
102
RTVSPropertyOp6
 70
     1
102
RTVSPropertyOp7
 70
     1
102
RTVSPropertyOp8
 70
     1
102
RTVSPropertyOp9
 70
     1
102
RTVSPropertyOp10
 70
     1
102
RTVSPropertyOp11
 70
     1
102
RTVSPropertyOp12
 70
     1
102
RTVSPropertyOp13
 70
     1
102
RTVSPropertyOp14
 70
     1
102
RTVSPropertyOp15
 70
     1
102
RTVSPropertyOp16
 70
     1
102
RTVSPropertyOp17
 70
     1
102
RTVSPropertyOp18
 70
     1
102
RTVSPropertyOp19
 70
     1
102
RTVSPropertyOp20
 70
     1
102
RTVSPropertyOp21
 70
     1
102
RTVSPropertyOp22
 70
     1
102
RTVSPropertyOp23
 70
     1
102
RTVSPropertyOp24
 70
     1
102
RTVSPropertyOp25
 70
     1
102
RTVSPropertyOp26
 70
     1
102
RTVSPropertyOp27
 70
     1
102
RTVSPropertyOp28
 70
     1
102
RTVSPropertyOp29
 70
     1
102
RTVSPropertyOp30
 70
     1
102
RTVSPropertyOp31
 70
     1
102
RTVSPropertyOp32
 70
     1
  0
XRECORD
  5
122E
102
{ACAD_REACTORS
330
122D
102
}
330
122D
100
AcDbXrecord
280
     1
102
RTVSPropertyOp0
 70
     1
102
RTVSPropertyOp1
 70
     1
102
RTVSPropertyOp2
 70
     1
102
RTVSPropertyOp3
 70
     1
102
RTVSPropertyOp4
 70
     1
102
RTVSPropertyOp5
 70
     1
102
RTVSPropertyOp6
 70
     1
102
RTVSPropertyOp7
 70
     1
102
RTVSPropertyOp8
 70
     1
102
RTVSPropertyOp9
 70
     1
102
RTVSPropertyOp10
 70
     1
102
RTVSPropertyOp11
 70
     1
102
RTVSPropertyOp12
 70
     1
102
RTVSPropertyOp13
 70
     1
102
RTVSPropertyOp14
 70
     1
102
RTVSPropertyOp15
 70
     1
102
RTVSPropertyOp16
 70
     1
102
RTVSPropertyOp17
 70
     1
102
RTVSPropertyOp18
 70
     1
102
RTVSPropertyOp19
 70
     1
102
RTVSPropertyOp20
 70
     1
102
RTVSPropertyOp21
 70
     1
102
RTVSPropertyOp22
 70
     1
102
RTVSPropertyOp23
 70
     1
102
RTVSPropertyOp24
 70
     1
102
RTVSPropertyOp25
 70
     1
102
RTVSPropertyOp26
 70
     1
102
RTVSPropertyOp27
 70
     1
102
RTVSPropertyOp28
 70
     1
102
RTVSPropertyOp29
 70
     1
102
RTVSPropertyOp30
 70
     1
102
RTVSPropertyOp31
 70
     1
102
RTVSPropertyOp32
 70
     1
  0
XRECORD
  5
1230
102
{ACAD_REACTORS
330
122F
102
}
330
122F
100
AcDbXrecord
280
     1
102
RTVSPropertyOp0
 70
     1
102
RTVSPropertyOp1
 70
     1
102
RTVSPropertyOp2
 70
     1
102
RTVSPropertyOp3
 70
     1
102
RTVSPropertyOp4
 70
     1
102
RTVSPropertyOp5
 70
     1
102
RTVSPropertyOp6
 70
     1
102
RTVSPropertyOp7
 70
     1
102
RTVSPropertyOp8
 70
     1
102
RTVSPropertyOp9
 70
     1
102
RTVSPropertyOp10
 70
     1
102
RTVSPropertyOp11
 70
     1
102
RTVSPropertyOp12
 70
     1
102
RTVSPropertyOp13
 70
     1
102
RTVSPropertyOp14
 70
     1
102
RTVSPropertyOp15
 70
     1
102
RTVSPropertyOp16
 70
     1
102
RTVSPropertyOp17
 70
     1
102
RTVSPropertyOp18
 70
     1
102
RTVSPropertyOp19
 70
     1
102
RTVSPropertyOp20
 70
     1
102
RTVSPropertyOp21
 70
     1
102
RTVSPropertyOp22
 70
     1
102
RTVSPropertyOp23
 70
     1
102
RTVSPropertyOp24
 70
     1
102
RTVSPropertyOp25
 70
     1
102
RTVSPropertyOp26
 70
     1
102
RTVSPropertyOp27
 70
     1
102
RTVSPropertyOp28
 70
     1
102
RTVSPropertyOp29
 70
     1
102
RTVSPropertyOp30
 70
     1
102
RTVSPropertyOp31
 70
     1
102
RTVSPropertyOp32
 70
     1
  0
XRECORD
  5
1238
102
{ACAD_REACTORS
330
1237
102
}
330
1237
100
AcDbXrecord
280
     1
102
RTVSPropertyOp0
 70
     1
102
RTVSPropertyOp1
 70
     1
102
RTVSPropertyOp2
 70
     1
102
RTVSPropertyOp3
 70
     1
102
RTVSPropertyOp4
 70
     1
102
RTVSPropertyOp5
 70
     1
102
RTVSPropertyOp6
 70
     1
102
RTVSPropertyOp7
 70
     1
102
RTVSPropertyOp8
 70
     1
102
RTVSPropertyOp9
 70
     1
102
RTVSPropertyOp10
 70
     1
102
RTVSPropertyOp11
 70
     1
102
RTVSPropertyOp12
 70
     1
102
RTVSPropertyOp13
 70
     1
102
RTVSPropertyOp14
 70
     1
102
RTVSPropertyOp15
 70
     1
102
RTVSPropertyOp16
 70
     1
102
RTVSPropertyOp17
 70
     1
102
RTVSPropertyOp18
 70
     1
102
RTVSPropertyOp19
 70
     1
102
RTVSPropertyOp20
 70
     1
102
RTVSPropertyOp21
 70
     1
102
RTVSPropertyOp22
 70
     1
102
RTVSPropertyOp23
 70
     1
102
RTVSPropertyOp24
 70
     1
102
RTVSPropertyOp25
 70
     1
102
RTVSPropertyOp26
 70
     1
102
RTVSPropertyOp27
 70
     1
102
RTVSPropertyOp28
 70
     1
102
RTVSPropertyOp29
 70
     1
102
RTVSPropertyOp30
 70
     1
102
RTVSPropertyOp31
 70
     1
102
RTVSPropertyOp32
 70
     1
  0
XRECORD
  5
1254
102
{ACAD_REACTORS
330
1253
102
}
330
1253
100
AcDbXrecord
280
     1
102
RTVSPropertyOp0
 70
     0
102
RTVSPropertyOp1
 70
     0
102
RTVSPropertyOp2
 70
     0
102
RTVSPropertyOp3
 70
     0
102
RTVSPropertyOp4
 70
     0
102
RTVSPropertyOp5
 70
     0
102
RTVSPropertyOp6
 70
     0
102
RTVSPropertyOp7
 70
     0
102
RTVSPropertyOp8
 70
     0
102
RTVSPropertyOp9
 70
     0
102
RTVSPropertyOp10
 70
     0
102
RTVSPropertyOp11
 70
     0
102
RTVSPropertyOp12
 70
     0
102
RTVSPropertyOp13
 70
     0
102
RTVSPropertyOp14
 70
     2
102
RTVSPropertyOp15
 70
     0
102
RTVSPropertyOp16
 70
     0
102
RTVSPropertyOp17
 70
     0
102
RTVSPropertyOp18
 70
     0
102
RTVSPropertyOp19
 70
     0
102
RTVSPropertyOp20
 70
     0
102
RTVSPropertyOp21
 70
     0
102
RTVSPropertyOp22
 70
     0
102
RTVSPropertyOp23
 70
     0
102
RTVSPropertyOp24
 70
     0
102
RTVSPropertyOp25
 70
     0
102
RTVSPropertyOp26
 70
     0
102
RTVSPropertyOp27
 70
     0
102
RTVSPropertyOp28
 70
     0
102
RTVSPropertyOp29
 70
     0
102
RTVSPropertyOp30
 70
     0
102
RTVSPropertyOp31
 70
     0
102
RTVSPropertyOp32
 70
     0
  0
XRECORD
  5
1244
102
{ACAD_REACTORS
330
1243
102
}
330
1243
100
AcDbXrecord
280
     1
102
RTVSPropertyOp0
 70
     1
102
RTVSPropertyOp1
 70
     1
102
RTVSPropertyOp2
 70
     1
102
RTVSPropertyOp3
 70
     1
102
RTVSPropertyOp4
 70
     1
102
RTVSPropertyOp5
 70
     1
102
RTVSPropertyOp6
 70
     1
102
RTVSPropertyOp7
 70
     1
102
RTVSPropertyOp8
 70
     1
102
RTVSPropertyOp9
 70
     1
102
RTVSPropertyOp10
 70
     1
102
RTVSPropertyOp11
 70
     1
102
RTVSPropertyOp12
 70
     1
102
RTVSPropertyOp13
 70
     1
102
RTVSPropertyOp14
 70
     1
102
RTVSPropertyOp15
 70
     1
102
RTVSPropertyOp16
 70
     1
102
RTVSPropertyOp17
 70
     1
102
RTVSPropertyOp18
 70
     1
102
RTVSPropertyOp19
 70
     1
102
RTVSPropertyOp20
 70
     1
102
RTVSPropertyOp21
 70
     1
102
RTVSPropertyOp22
 70
     1
102
RTVSPropertyOp23
 70
     1
102
RTVSPropertyOp24
 70
     1
102
RTVSPropertyOp25
 70
     1
102
RTVSPropertyOp26
 70
     1
102
RTVSPropertyOp27
 70
     1
102
RTVSPropertyOp28
 70
     1
102
RTVSPropertyOp29
 70
     1
102
RTVSPropertyOp30
 70
     1
102
RTVSPropertyOp31
 70
     1
102
RTVSPropertyOp32
 70
     1
  0
XRECORD
  5
1256
102
{ACAD_REACTORS
330
1255
102
}
330
1255
100
AcDbXrecord
280
     1
102
RTVSPropertyOp0
 70
     0
102
RTVSPropertyOp1
 70
     0
102
RTVSPropertyOp2
 70
     0
102
RTVSPropertyOp3
 70
     0
102
RTVSPropertyOp4
 70
     0
102
RTVSPropertyOp5
 70
     0
102
RTVSPropertyOp6
 70
     0
102
RTVSPropertyOp7
 70
     0
102
RTVSPropertyOp8
 70
     0
102
RTVSPropertyOp9
 70
     0
102
RTVSPropertyOp10
 70
     0
102
RTVSPropertyOp11
 70
     0
102
RTVSPropertyOp12
 70
     0
102
RTVSPropertyOp13
 70
     0
102
RTVSPropertyOp14
 70
     2
102
RTVSPropertyOp15
 70
     0
102
RTVSPropertyOp16
 70
     0
102
RTVSPropertyOp17
 70
     0
102
RTVSPropertyOp18
 70
     0
102
RTVSPropertyOp19
 70
     0
102
RTVSPropertyOp20
 70
     0
102
RTVSPropertyOp21
 70
     0
102
RTVSPropertyOp22
 70
     0
102
RTVSPropertyOp23
 70
     0
102
RTVSPropertyOp24
 70
     0
102
RTVSPropertyOp25
 70
     0
102
RTVSPropertyOp26
 70
     0
102
RTVSPropertyOp27
 70
     0
102
RTVSPropertyOp28
 70
     0
102
RTVSPropertyOp29
 70
     0
102
RTVSPropertyOp30
 70
     0
102
RTVSPropertyOp31
 70
     0
102
RTVSPropertyOp32
 70
     0
  0
XRECORD
  5
123C
102
{ACAD_REACTORS
330
123B
102
}
330
123B
100
AcDbXrecord
280
     1
102
RTVSPropertyOp0
 70
     1
102
RTVSPropertyOp1
 70
     1
102
RTVSPropertyOp2
 70
     1
102
RTVSPropertyOp3
 70
     1
102
RTVSPropertyOp4
 70
     1
102
RTVSPropertyOp5
 70
     1
102
RTVSPropertyOp6
 70
     1
102
RTVSPropertyOp7
 70
     1
102
RTVSPropertyOp8
 70
     1
102
RTVSPropertyOp9
 70
     1
102
RTVSPropertyOp10
 70
     1
102
RTVSPropertyOp11
 70
     1
102
RTVSPropertyOp12
 70
     1
102
RTVSPropertyOp13
 70
     1
102
RTVSPropertyOp14
 70
     1
102
RTVSPropertyOp15
 70
     1
102
RTVSPropertyOp16
 70
     1
102
RTVSPropertyOp17
 70
     1
102
RTVSPropertyOp18
 70
     1
102
RTVSPropertyOp19
 70
     1
102
RTVSPropertyOp20
 70
     1
102
RTVSPropertyOp21
 70
     1
102
RTVSPropertyOp22
 70
     1
102
RTVSPropertyOp23
 70
     1
102
RTVSPropertyOp24
 70
     1
102
RTVSPropertyOp25
 70
     1
102
RTVSPropertyOp26
 70
     1
102
RTVSPropertyOp27
 70
     1
102
RTVSPropertyOp28
 70
     1
102
RTVSPropertyOp29
 70
     1
102
RTVSPropertyOp30
 70
     1
102
RTVSPropertyOp31
 70
     1
102
RTVSPropertyOp32
 70
     1
  0
XRECORD
  5
1252
102
{ACAD_REACTORS
330
1251
102
}
330
1251
100
AcDbXrecord
280
     1
102
RTVSPropertyOp0
 70
     1
102
RTVSPropertyOp1
 70
     1
102
RTVSPropertyOp2
 70
     1
102
RTVSPropertyOp3
 70
     1
102
RTVSPropertyOp4
 70
     1
102
RTVSPropertyOp5
 70
     1
102
RTVSPropertyOp6
 70
     1
102
RTVSPropertyOp7
 70
     1
102
RTVSPropertyOp8
 70
     1
102
RTVSPropertyOp9
 70
     1
102
RTVSPropertyOp10
 70
     1
102
RTVSPropertyOp11
 70
     1
102
RTVSPropertyOp12
 70
     1
102
RTVSPropertyOp13
 70
     1
102
RTVSPropertyOp14
 70
     1
102
RTVSPropertyOp15
 70
     1
102
RTVSPropertyOp16
 70
     1
102
RTVSPropertyOp17
 70
     1
102
RTVSPropertyOp18
 70
     1
102
RTVSPropertyOp19
 70
     1
102
RTVSPropertyOp20
 70
     1
102
RTVSPropertyOp21
 70
     1
102
RTVSPropertyOp22
 70
     1
102
RTVSPropertyOp23
 70
     1
102
RTVSPropertyOp24
 70
     1
102
RTVSPropertyOp25
 70
     1
102
RTVSPropertyOp26
 70
     1
102
RTVSPropertyOp27
 70
     1
102
RTVSPropertyOp28
 70
     1
102
RTVSPropertyOp29
 70
     1
102
RTVSPropertyOp30
 70
     1
102
RTVSPropertyOp31
 70
     1
102
RTVSPropertyOp32
 70
     1
  0
XRECORD
  5
1250
102
{ACAD_REACTORS
330
124F
102
}
330
124F
100
AcDbXrecord
280
     1
102
RTVSPropertyOp0
 70
     1
102
RTVSPropertyOp1
 70
     1
102
RTVSPropertyOp2
 70
     1
102
RTVSPropertyOp3
 70
     1
102
RTVSPropertyOp4
 70
     1
102
RTVSPropertyOp5
 70
     1
102
RTVSPropertyOp6
 70
     1
102
RTVSPropertyOp7
 70
     1
102
RTVSPropertyOp8
 70
     1
102
RTVSPropertyOp9
 70
     1
102
RTVSPropertyOp10
 70
     1
102
RTVSPropertyOp11
 70
     1
102
RTVSPropertyOp12
 70
     1
102
RTVSPropertyOp13
 70
     1
102
RTVSPropertyOp14
 70
     1
102
RTVSPropertyOp15
 70
     1
102
RTVSPropertyOp16
 70
     1
102
RTVSPropertyOp17
 70
     1
102
RTVSPropertyOp18
 70
     1
102
RTVSPropertyOp19
 70
     1
102
RTVSPropertyOp20
 70
     1
102
RTVSPropertyOp21
 70
     1
102
RTVSPropertyOp22
 70
     1
102
RTVSPropertyOp23
 70
     1
102
RTVSPropertyOp24
 70
     1
102
RTVSPropertyOp25
 70
     1
102
RTVSPropertyOp26
 70
     1
102
RTVSPropertyOp27
 70
     1
102
RTVSPropertyOp28
 70
     1
102
RTVSPropertyOp29
 70
     1
102
RTVSPropertyOp30
 70
     1
102
RTVSPropertyOp31
 70
     1
102
RTVSPropertyOp32
 70
     1
  0
XRECORD
  5
124A
102
{ACAD_REACTORS
330
1249
102
}
330
1249
100
AcDbXrecord
280
     1
102
RTVSPropertyOp0
 70
     1
102
RTVSPropertyOp1
 70
     1
102
RTVSPropertyOp2
 70
     1
102
RTVSPropertyOp3
 70
     1
102
RTVSPropertyOp4
 70
     1
102
RTVSPropertyOp5
 70
     1
102
RTVSPropertyOp6
 70
     1
102
RTVSPropertyOp7
 70
     1
102
RTVSPropertyOp8
 70
     1
102
RTVSPropertyOp9
 70
     1
102
RTVSPropertyOp10
 70
     1
102
RTVSPropertyOp11
 70
     1
102
RTVSPropertyOp12
 70
     1
102
RTVSPropertyOp13
 70
     1
102
RTVSPropertyOp14
 70
     1
102
RTVSPropertyOp15
 70
     1
102
RTVSPropertyOp16
 70
     1
102
RTVSPropertyOp17
 70
     1
102
RTVSPropertyOp18
 70
     1
102
RTVSPropertyOp19
 70
     1
102
RTVSPropertyOp20
 70
     1
102
RTVSPropertyOp21
 70
     1
102
RTVSPropertyOp22
 70
     1
102
RTVSPropertyOp23
 70
     1
102
RTVSPropertyOp24
 70
     1
102
RTVSPropertyOp25
 70
     1
102
RTVSPropertyOp26
 70
     1
102
RTVSPropertyOp27
 70
     1
102
RTVSPropertyOp28
 70
     1
102
RTVSPropertyOp29
 70
     1
102
RTVSPropertyOp30
 70
     1
102
RTVSPropertyOp31
 70
     1
102
RTVSPropertyOp32
 70
     1
  0
XRECORD
  5
124C
102
{ACAD_REACTORS
330
124B
102
}
330
124B
100
AcDbXrecord
280
     1
102
RTVSPropertyOp0
 70
     1
102
RTVSPropertyOp1
 70
     1
102
RTVSPropertyOp2
 70
     1
102
RTVSPropertyOp3
 70
     1
102
RTVSPropertyOp4
 70
     1
102
RTVSPropertyOp5
 70
     1
102
RTVSPropertyOp6
 70
     1
102
RTVSPropertyOp7
 70
     1
102
RTVSPropertyOp8
 70
     1
102
RTVSPropertyOp9
 70
     1
102
RTVSPropertyOp10
 70
     1
102
RTVSPropertyOp11
 70
     1
102
RTVSPropertyOp12
 70
     1
102
RTVSPropertyOp13
 70
     1
102
RTVSPropertyOp14
 70
     1
102
RTVSPropertyOp15
 70
     1
102
RTVSPropertyOp16
 70
     1
102
RTVSPropertyOp17
 70
     1
102
RTVSPropertyOp18
 70
     1
102
RTVSPropertyOp19
 70
     1
102
RTVSPropertyOp20
 70
     1
102
RTVSPropertyOp21
 70
     1
102
RTVSPropertyOp22
 70
     1
102
RTVSPropertyOp23
 70
     1
102
RTVSPropertyOp24
 70
     1
102
RTVSPropertyOp25
 70
     1
102
RTVSPropertyOp26
 70
     1
102
RTVSPropertyOp27
 70
     1
102
RTVSPropertyOp28
 70
     1
102
RTVSPropertyOp29
 70
     1
102
RTVSPropertyOp30
 70
     1
102
RTVSPropertyOp31
 70
     1
102
RTVSPropertyOp32
 70
     1
  0
XRECORD
  5
1242
102
{ACAD_REACTORS
330
1241
102
}
330
1241
100
AcDbXrecord
280
     1
102
RTVSPropertyOp0
 70
     1
102
RTVSPropertyOp1
 70
     1
102
RTVSPropertyOp2
 70
     1
102
RTVSPropertyOp3
 70
     1
102
RTVSPropertyOp4
 70
     1
102
RTVSPropertyOp5
 70
     1
102
RTVSPropertyOp6
 70
     1
102
RTVSPropertyOp7
 70
     1
102
RTVSPropertyOp8
 70
     1
102
RTVSPropertyOp9
 70
     1
102
RTVSPropertyOp10
 70
     1
102
RTVSPropertyOp11
 70
     1
102
RTVSPropertyOp12
 70
     1
102
RTVSPropertyOp13
 70
     1
102
RTVSPropertyOp14
 70
     1
102
RTVSPropertyOp15
 70
     1
102
RTVSPropertyOp16
 70
     1
102
RTVSPropertyOp17
 70
     1
102
RTVSPropertyOp18
 70
     1
102
RTVSPropertyOp19
 70
     1
102
RTVSPropertyOp20
 70
     1
102
RTVSPropertyOp21
 70
     1
102
RTVSPropertyOp22
 70
     1
102
RTVSPropertyOp23
 70
     1
102
RTVSPropertyOp24
 70
     1
102
RTVSPropertyOp25
 70
     1
102
RTVSPropertyOp26
 70
     1
102
RTVSPropertyOp27
 70
     1
102
RTVSPropertyOp28
 70
     1
102
RTVSPropertyOp29
 70
     1
102
RTVSPropertyOp30
 70
     1
102
RTVSPropertyOp31
 70
     1
102
RTVSPropertyOp32
 70
     1
  0
XRECORD
  5
1236
102
{ACAD_REACTORS
330
1235
102
}
330
1235
100
AcDbXrecord
280
     1
102
RTVSPropertyOp0
 70
     1
102
RTVSPropertyOp1
 70
     1
102
RTVSPropertyOp2
 70
     1
102
RTVSPropertyOp3
 70
     1
102
RTVSPropertyOp4
 70
     1
102
RTVSPropertyOp5
 70
     1
102
RTVSPropertyOp6
 70
     1
102
RTVSPropertyOp7
 70
     1
102
RTVSPropertyOp8
 70
     1
102
RTVSPropertyOp9
 70
     1
102
RTVSPropertyOp10
 70
     1
102
RTVSPropertyOp11
 70
     1
102
RTVSPropertyOp12
 70
     1
102
RTVSPropertyOp13
 70
     1
102
RTVSPropertyOp14
 70
     1
102
RTVSPropertyOp15
 70
     1
102
RTVSPropertyOp16
 70
     1
102
RTVSPropertyOp17
 70
     1
102
RTVSPropertyOp18
 70
     1
102
RTVSPropertyOp19
 70
     1
102
RTVSPropertyOp20
 70
     1
102
RTVSPropertyOp21
 70
     1
102
RTVSPropertyOp22
 70
     1
102
RTVSPropertyOp23
 70
     1
102
RTVSPropertyOp24
 70
     1
102
RTVSPropertyOp25
 70
     1
102
RTVSPropertyOp26
 70
     1
102
RTVSPropertyOp27
 70
     1
102
RTVSPropertyOp28
 70
     1
102
RTVSPropertyOp29
 70
     1
102
RTVSPropertyOp30
 70
     1
102
RTVSPropertyOp31
 70
     1
102
RTVSPropertyOp32
 70
     1
  0
XRECORD
  5
124E
102
{ACAD_REACTORS
330
124D
102
}
330
124D
100
AcDbXrecord
280
     1
102
RTVSPropertyOp0
 70
     1
102
RTVSPropertyOp1
 70
     1
102
RTVSPropertyOp2
 70
     1
102
RTVSPropertyOp3
 70
     1
102
RTVSPropertyOp4
 70
     1
102
RTVSPropertyOp5
 70
     1
102
RTVSPropertyOp6
 70
     1
102
RTVSPropertyOp7
 70
     1
102
RTVSPropertyOp8
 70
     1
102
RTVSPropertyOp9
 70
     1
102
RTVSPropertyOp10
 70
     1
102
RTVSPropertyOp11
 70
     1
102
RTVSPropertyOp12
 70
     1
102
RTVSPropertyOp13
 70
     1
102
RTVSPropertyOp14
 70
     1
102
RTVSPropertyOp15
 70
     1
102
RTVSPropertyOp16
 70
     1
102
RTVSPropertyOp17
 70
     1
102
RTVSPropertyOp18
 70
     1
102
RTVSPropertyOp19
 70
     1
102
RTVSPropertyOp20
 70
     1
102
RTVSPropertyOp21
 70
     1
102
RTVSPropertyOp22
 70
     1
102
RTVSPropertyOp23
 70
     1
102
RTVSPropertyOp24
 70
     1
102
RTVSPropertyOp25
 70
     1
102
RTVSPropertyOp26
 70
     1
102
RTVSPropertyOp27
 70
     1
102
RTVSPropertyOp28
 70
     1
102
RTVSPropertyOp29
 70
     1
102
RTVSPropertyOp30
 70
     1
102
RTVSPropertyOp31
 70
     1
102
RTVSPropertyOp32
 70
     1
  0
ENDSEC
  0
EOF
