  0
SECTION
  2
HEADER
  9
$ACADVER
  1
AC1018
  9
$ACADMAINTVER
 70
   104
  9
$DWGCODEPAGE
  3
ANSI_1250
  9
$LASTSAVEDBY
  1
Natalia
  9
$INSBASE
 10
0.0
 20
0.0
 30
0.0
  9
$EXTMIN
 10
1185.658564610373
 20
-311.0238918425566
 30
0.0
  9
$EXTMAX
 10
4391.111796058527
 20
2473.061385630466
 30
0.0
  9
$LIMMIN
 10
0.0
 20
0.0
  9
$LIMMAX
 10
297.0
 20
210.0
  9
$ORTHOMODE
 70
     0
  9
$REGENMODE
 70
     1
  9
$FILLMODE
 70
     1
  9
$QTEXTMODE
 70
     0
  9
$MIRRTEXT
 70
     1
  9
$LTSCALE
 40
2.0
  9
$ATTMODE
 70
     1
  9
$TEXTSIZE
 40
10.0
  9
$TRACEWID
 40
0.05
  9
$TEXTSTYLE
  7
STANDARD
  9
$CLAYER
  8
KRAWĘDZIE
  9
$CELTYPE
  6
BYLAYER
  9
$CECOLOR
 62
   256
  9
$CELTSCALE
 40
1.0
  9
$DISPSILH
 70
     0
  9
$DIMSCALE
 40
1.0
  9
$DIMASZ
 40
60.0
  9
$DIMEXO
 40
1.0
  9
$DIMDLI
 40
10.0
  9
$DIMRND
 40
0.0
  9
$DIMDLE
 40
0.0
  9
$DIMEXE
 40
1.0
  9
$DIMTP
 40
0.1
  9
$DIMTM
 40
0.1
  9
$DIMTXT
 40
60.0
  9
$DIMCEN
 40
0.0
  9
$DIMTSZ
 40
0.0
  9
$DIMTOL
 70
     0
  9
$DIMLIM
 70
     0
  9
$DIMTIH
 70
     0
  9
$DIMTOH
 70
     0
  9
$DIMSE1
 70
     0
  9
$DIMSE2
 70
     0
  9
$DIMTAD
 70
     1
  9
$DIMZIN
 70
     8
  9
$DIMBLK
  1

  9
$DIMASO
 70
     1
  9
$DIMSHO
 70
     1
  9
$DIMPOST
  1

  9
$DIMAPOST
  1
"
  9
$DIMALT
 70
     0
  9
$DIMALTD
 70
     2
  9
$DIMALTF
 40
0.0393701
  9
$DIMLFAC
 40
1.0
  9
$DIMTOFL
 70
     1
  9
$DIMTVP
 40
0.0
  9
$DIMTIX
 70
     0
  9
$DIMSOXD
 70
     0
  9
$DIMSAH
 70
     0
  9
$DIMBLK1
  1

  9
$DIMBLK2
  1

  9
$DIMSTYLE
  2
AM_ISO
  9
$DIMCLRD
 70
   256
  9
$DIMCLRE
 70
   256
  9
$DIMCLRT
 70
    30
  9
$DIMTFAC
 40
0.71
  9
$DIMGAP
 40
1.5
  9
$DIMJUST
 70
     0
  9
$DIMSD1
 70
     0
  9
$DIMSD2
 70
     0
  9
$DIMTOLJ
 70
     0
  9
$DIMTZIN
 70
     8
  9
$DIMALTZ
 70
     0
  9
$DIMALTTZ
 70
     0
  9
$DIMUPT
 70
     0
  9
$DIMDEC
 70
     2
  9
$DIMTDEC
 70
     3
  9
$DIMALTU
 70
     2
  9
$DIMALTTD
 70
     4
  9
$DIMTXSTY
  7
STANDARD
  9
$DIMAUNIT
 70
     0
  9
$DIMADEC
 70
     0
  9
$DIMALTRND
 40
0.0
  9
$DIMAZIN
 70
     2
  9
$DIMDSEP
 70
    46
  9
$DIMATFIT
 70
     3
  9
$DIMFRAC
 70
     0
  9
$DIMLDRBLK
  1

  9
$DIMLUNIT
 70
     2
  9
$DIMLWD
 70
    -1
  9
$DIMLWE
 70
    -1
  9
$DIMTMOVE
 70
     0
  9
$LUNITS
 70
     2
  9
$LUPREC
 70
     2
  9
$SKETCHINC
 40
0.1
  9
$FILLETRAD
 40
25.0
  9
$AUNITS
 70
     0
  9
$AUPREC
 70
     0
  9
$MENU
  1
acad
  9
$ELEVATION
 40
0.0
  9
$PELEVATION
 40
0.0
  9
$THICKNESS
 40
0.0
  9
$LIMCHECK
 70
     0
  9
$CHAMFERA
 40
0.0
  9
$CHAMFERB
 40
0.0
  9
$CHAMFERC
 40
10.0
  9
$CHAMFERD
 40
0.7853981633974483
  9
$SKPOLY
 70
     0
  9
$TDCREATE
 40
2454411.677433982
  9
$TDUCREATE
 40
2454411.594100648
  9
$TDUPDATE
 40
2456555.697724225
  9
$TDUUPDATE
 40
2456555.614390891
  9
$TDINDWG
 40
0.1306800116
  9
$TDUSRTIMER
 40
0.1306798380
  9
$USRTIMER
 70
     1
  9
$ANGBASE
 50
0.0
  9
$ANGDIR
 70
     0
  9
$PDMODE
 70
     2
  9
$PDSIZE
 40
5.0
  9
$PLINEWID
 40
0.0
  9
$SPLFRAME
 70
     0
  9
$SPLINETYPE
 70
     6
  9
$SPLINESEGS
 70
     8
  9
$HANDSEED
  5
F69
  9
$SURFTAB1
 70
     6
  9
$SURFTAB2
 70
     6
  9
$SURFTYPE
 70
     6
  9
$SURFU
 70
     6
  9
$SURFV
 70
     6
  9
$UCSBASE
  2

  9
$UCSNAME
  2

  9
$UCSORG
 10
1771.571570409045
 20
-32.76829788332634
 30
0.0
  9
$UCSXDIR
 10
1.0
 20
0.0
 30
0.0
  9
$UCSYDIR
 10
0.0
 20
1.0
 30
0.0
  9
$UCSORTHOREF
  2

  9
$UCSORTHOVIEW
 70
     0
  9
$UCSORGTOP
 10
0.0
 20
0.0
 30
0.0
  9
$UCSORGBOTTOM
 10
0.0
 20
0.0
 30
0.0
  9
$UCSORGLEFT
 10
0.0
 20
0.0
 30
0.0
  9
$UCSORGRIGHT
 10
0.0
 20
0.0
 30
0.0
  9
$UCSORGFRONT
 10
0.0
 20
0.0
 30
0.0
  9
$UCSORGBACK
 10
0.0
 20
0.0
 30
0.0
  9
$PUCSBASE
  2

  9
$PUCSNAME
  2

  9
$PUCSORG
 10
0.0
 20
0.0
 30
0.0
  9
$PUCSXDIR
 10
1.0
 20
0.0
 30
0.0
  9
$PUCSYDIR
 10
0.0
 20
1.0
 30
0.0
  9
$PUCSORTHOREF
  2

  9
$PUCSORTHOVIEW
 70
     0
  9
$PUCSORGTOP
 10
0.0
 20
0.0
 30
0.0
  9
$PUCSORGBOTTOM
 10
0.0
 20
0.0
 30
0.0
  9
$PUCSORGLEFT
 10
0.0
 20
0.0
 30
0.0
  9
$PUCSORGRIGHT
 10
0.0
 20
0.0
 30
0.0
  9
$PUCSORGFRONT
 10
0.0
 20
0.0
 30
0.0
  9
$PUCSORGBACK
 10
0.0
 20
0.0
 30
0.0
  9
$USERI1
 70
     0
  9
$USERI2
 70
     0
  9
$USERI3
 70
     0
  9
$USERI4
 70
     0
  9
$USERI5
 70
     0
  9
$USERR1
 40
0.0
  9
$USERR2
 40
0.0
  9
$USERR3
 40
0.0
  9
$USERR4
 40
0.0
  9
$USERR5
 40
0.0
  9
$WORLDVIEW
 70
     1
  9
$SHADEDGE
 70
     3
  9
$SHADEDIF
 70
    70
  9
$TILEMODE
 70
     1
  9
$MAXACTVP
 70
    16
  9
$PINSBASE
 10
0.0
 20
0.0
 30
0.0
  9
$PLIMCHECK
 70
     0
  9
$PEXTMIN
 10
0.0
 20
0.0
 30
0.0
  9
$PEXTMAX
 10
0.0
 20
0.0
 30
0.0
  9
$PLIMMIN
 10
0.0
 20
0.0
  9
$PLIMMAX
 10
0.0
 20
0.0
  9
$UNITMODE
 70
     0
  9
$VISRETAIN
 70
     0
  9
$PLINEGEN
 70
     0
  9
$PSLTSCALE
 70
     1
  9
$TREEDEPTH
 70
  3020
  9
$CMLSTYLE
  2
STANDARD
  9
$CMLJUST
 70
     0
  9
$CMLSCALE
 40
1.0
  9
$PROXYGRAPHICS
 70
     1
  9
$MEASUREMENT
 70
     1
  9
$CELWEIGHT
370
    -1
  9
$ENDCAPS
280
     0
  9
$JOINSTYLE
280
     0
  9
$LWDISPLAY
290
     0
  9
$INSUNITS
 70
     0
  9
$HYPERLINKBASE
  1

  9
$STYLESHEET
  1

  9
$XEDIT
290
     1
  9
$CEPSNTYPE
380
     0
  9
$PSTYLEMODE
290
     1
  9
$FINGERPRINTGUID
  2
{C3E5BA9F-301C-4EDA-9299-C8ABA4479589}
  9
$VERSIONGUID
  2
{E027C485-D73E-48CE-BE32-9B30EB13E113}
  9
$EXTNAMES
290
     1
  9
$PSVPSCALE
 40
0.0
  9
$OLESTARTUP
290
     0
  9
$SORTENTS
280
   127
  9
$INDEXCTL
280
     0
  9
$HIDETEXT
280
     0
  9
$XCLIPFRAME
290
     0
  9
$HALOGAP
280
     0
  9
$OBSCOLOR
 70
   257
  9
$OBSLTYPE
280
     0
  9
$INTERSECTIONDISPLAY
280
     0
  9
$INTERSECTIONCOLOR
 70
   257
  9
$DIMASSOC
280
     2
  9
$PROJECTNAME
  1

  0
ENDSEC
  0
SECTION
  2
CLASSES
  0
CLASS
  1
DICTIONARYVAR
  2
AcDbDictionaryVar
  3
ObjectDBX Classes
 90
        0
 91
       11
280
     0
281
     0
  0
CLASS
  1
ACDBDICTIONARYWDFLT
  2
AcDbDictionaryWithDefault
  3
ObjectDBX Classes
 90
        0
 91
        1
280
     0
281
     0
  0
CLASS
  1
MATERIAL
  2
AcDbMaterial
  3
ObjectDBX Classes
 90
     1153
 91
        3
280
     0
281
     0
  0
CLASS
  1
VISUALSTYLE
  2
AcDbVisualStyle
  3
ObjectDBX Classes
 90
     4095
 91
       24
280
     0
281
     0
  0
CLASS
  1
TABLESTYLE
  2
AcDbTableStyle
  3
ObjectDBX Classes
 90
     4095
 91
        1
280
     0
281
     0
  0
CLASS
  1
SCALE
  2
AcDbScale
  3
ObjectDBX Classes
 90
     1153
 91
       17
280
     0
281
     0
  0
CLASS
  1
MLEADERSTYLE
  2
AcDbMLeaderStyle
  3
ACDB_MLEADERSTYLE_CLASS
 90
     4095
 91
        1
280
     0
281
     0
  0
CLASS
  1
ACME_DOCUMENT
  2
AcMeDbDoc
  3
AcMeServices
 90
     1024
 91
        1
280
     0
281
     0
  0
CLASS
  1
AMGSETTINGSOBJ
  2
AmgSettingsObj
  3
"AcadM|Product Description: AutoCAD Mechanical|Company: Autodesk, Inc."
 90
     1024
 91
        2
280
     0
281
     0
  0
CLASS
  1
ACMESCOPE
  2
AcMeScope
  3
AcMeServices
 90
     1024
 91
        1
280
     0
281
     0
  0
CLASS
  1
ACMECOMMANDHISTORY
  2
AcMeCommandHistory
  3
AcMeServices
 90
     1024
 91
        1
280
     0
281
     0
  0
CLASS
  1
ACIMSYSVARMAN
  2
AcImSysVarManager
  3
AcMeServices
 90
     1024
 91
        4
280
     0
281
     0
  0
CLASS
  1
ACIMINTSYSVAR
  2
AcImIntSysVar
  3
AcMeServices
 90
     1024
 91
       27
280
     0
281
     0
  0
CLASS
  1
ACMESTATEMGR
  2
AcMeStateMgr
  3
AcMeServices
 90
     1024
 91
        1
280
     0
281
     0
  0
CLASS
  1
ACDBENTITYCACHE
  2
AcMeEntityCache
  3
AcMeServices
 90
     1024
 91
        1
280
     0
281
     0
  0
CLASS
  1
ACGREFMASTER
  2
AcGrefMaster
  3
AcAttribServices
 90
     1024
 91
        1
280
     0
281
     0
  0
CLASS
  1
AM_DRAWING_MGR
  2
AcDmDwgMgr
  3
AcMechDwgViewMgmt
 90
     1024
 91
        1
280
     0
281
     0
  0
CLASS
  1
AM_DWG_DOCUMENT
  2
AcDmDwgDocument
  3
AcMechDwgViewMgmt
 90
     1024
 91
        1
280
     0
281
     0
  0
CLASS
  1
AM_DWG_SHEET
  2
AcDmSheet
  3
AcMechDwgViewMgmt
 90
     1024
 91
        1
280
     0
281
     0
  0
CLASS
  1
AM_VIEWDIMPARMAP
  2
AcDmViewDimParMap
  3
AcMechDwgViewMgmt
 90
     1024
 91
        1
280
     0
281
     0
  0
CLASS
  1
AMDTINTERNALREACTOR
  2
AmdtInternalReactor
  3
AcMeServices
 90
     1024
 91
        1
280
     0
281
     0
  0
CLASS
  1
ACIMREALSYSVAR
  2
AcImRealSysVar
  3
AcMeServices
 90
     1024
 91
        1
280
     0
281
     0
  0
CLASS
  1
AM_DWGMGR_NAME
  2
AcDmDwgMgrName
  3
AcMechDwgViewMgmt
 90
     1024
 91
        1
280
     0
281
     0
  0
CLASS
  1
ACME_DATABASE
  2
AcMeDbDatabase
  3
AcMeServices
 90
     1024
 91
        3
280
     0
281
     0
  0
CLASS
  1
ACRFINSADJUSTERMGR
  2
AcRfInsAdjusterMgr
  3
AcMeServices
 90
     1024
 91
        1
280
     0
281
     0
  0
CLASS
  1
ACGREFACADMASTER
  2
AcGrefacadMaster
  3
AcGrefServices
 90
     1024
 91
        1
280
     0
281
     0
  0
CLASS
  1
AMDTMENUSTATEMGR
  2
AmdtMenuStateMgr
  3
McadcomServices
 90
     1024
 91
        1
280
     0
281
     0
  0
CLASS
  1
AMDTMCOMMENUSTATE
  2
AmdtMcomMenuState
  3
McadcomServices
 90
     1024
 91
        1
280
     0
281
     0
  0
CLASS
  1
AMIMASTER
  2
AmiMaster
  3
AmiServices
 90
     1024
 91
        1
280
     0
281
     0
  0
CLASS
  1
MAPIAMMOUDLE
  2
MApiAmModule
  3
MApiAmServices
 90
     1024
 91
        1
280
     0
281
     0
  0
CLASS
  1
ACIMSTRSYSVAR
  2
AcImStrSysVar
  3
AcMeServices
 90
     1024
 91
        5
280
     0
281
     0
  0
CLASS
  1
AMDTDMMENUSTATE
  2
AmdtDmMenuState
  3
AcMechDwgViewMgmt
 90
     1024
 91
        1
280
     0
281
     0
  0
CLASS
  1
AMDTAMMENUSTATE
  2
AmdtAmMenuState
  3
DesignerAssemblies
 90
     1024
 91
        1
280
     0
281
     0
  0
CLASS
  1
ACAMPROJECT
  2
AcAmProject
  3
DesignerAssemblies
 90
     1024
 91
        1
280
     0
281
     0
  0
CLASS
  1
ACAMGRCOMPDEF
  2
AcAmGrCompDef
  3
DesignerAssemblies
 90
     1024
 91
        1
280
     0
281
     0
  0
CLASS
  1
ACAMCOMPDEF
  2
AcAmCompDef
  3
DesignerAssemblies
 90
     1024
 91
        1
280
     0
281
     0
  0
CLASS
  1
ACAMCOMPDEFMGR
  2
AcAmCompDefMgr
  3
DesignerAssemblies
 90
     1024
 91
        1
280
     0
281
     0
  0
CLASS
  1
AMCONTEXTMGR
  2
AcAmContextMgr
  3
DesignerAssemblies
 90
     1024
 91
        1
280
     0
281
     0
  0
CLASS
  1
ACAMCONTEXTMODELER
  2
AcAmContextModeler
  3
DesignerAssemblies
 90
     1024
 91
        1
280
     0
281
     0
  0
CLASS
  1
ACMDATADICTIONARY
  2
AcmDataDictionary
  3
"AcmSymBB|Product Description: AutoCAD Mechanical|Company: Autodesk, Inc."
 90
     1024
 91
        1
280
     0
281
     0
  0
CLASS
  1
ACAMGRCOMPDEFSET
  2
AcAmGrCompDefSet
  3
DesignerAssemblies
 90
     1024
 91
        1
280
     0
281
     0
  0
CLASS
  1
AMDTBROWSERDBTAB
  2
AmdtBrowserDbTab
  3
McadcomServices
 90
     1024
 91
        1
280
     0
281
     0
  0
CLASS
  1
CBROWSERAPPOBJECT
  2
CBrowserAppObject
  3
McadcomServices
 90
     1024
 91
        2
280
     0
281
     0
  0
CLASS
  1
DM_PLACEHOLDER
  2
AcDmSelsetPlaceholder
  3
AcMechDwgViewMgmt
 90
     1024
 91
        1
280
     0
281
     0
  0
CLASS
  1
EXACXREFPANELOBJECT
  2
ExAcXREFPanelObject
  3
EXAC_ESW
 90
     1025
 91
        1
280
     0
281
     0
  0
CLASS
  1
NPOCOLLECTION
  2
AcDbImpNonPersistentObjectsCollection
  3
ObjectDBX Classes
 90
     1153
 91
        1
280
     0
281
     0
  0
CLASS
  1
ACMSTANDARDISO
  2
AcmStandardISO
  3
"Amdt_StdImp|Product Description: AutoCAD Mechanical|Company: Autodesk, Inc."
 90
     1024
 91
        1
280
     0
281
     0
  0
CLASS
  1
AMDTEDGESTANDARDISO13715
  2
AmdtEdgeStdISO13715
  3
"Amdt_StdImp|Product Description: AutoCAD Mechanical|Company: Autodesk, Inc."
 90
     1024
 91
        1
280
     0
281
     0
  0
CLASS
  1
ACMSURFSTANDARDISO2002
  2
AcmSurfTextStdISO2002
  3
"Amdt_StdImp|Product Description: AutoCAD Mechanical|Company: Autodesk, Inc."
 90
     1024
 91
        1
280
     0
281
     0
  0
CLASS
  1
ACMFCFSTANDARDISO
  2
AcmFCFStdISO
  3
"Amdt_StdImp|Product Description: AutoCAD Mechanical|Company: Autodesk, Inc."
 90
     1024
 91
        1
280
     0
281
     0
  0
CLASS
  1
ACMWELDSTANDARDISO
  2
AcmWeldingStdISO
  3
"Amdt_StdImp|Product Description: AutoCAD Mechanical|Company: Autodesk, Inc."
 90
     1024
 91
        1
280
     0
281
     0
  0
CLASS
  1
ACMIDSTANDARDISO
  2
AcmIdStdISO
  3
"Amdt_StdImp|Product Description: AutoCAD Mechanical|Company: Autodesk, Inc."
 90
     1024
 91
        1
280
     0
281
     0
  0
CLASS
  1
ACMDATUMSTANDARDISO
  2
AcmDatumStdISO
  3
"Amdt_StdImp|Product Description: AutoCAD Mechanical|Company: Autodesk, Inc."
 90
     1024
 91
        1
280
     0
281
     0
  0
CLASS
  1
ACMBOMSTANDARDISO
  2
AcmBOMStdISO
  3
"Amdt_StdImp|Product Description: AutoCAD Mechanical|Company: Autodesk, Inc."
 90
     1024
 91
        1
280
     0
281
     0
  0
CLASS
  1
ACMDETAILSTANDARDISO
  2
AmdtDetailSymStdISO
  3
"Amdt_StdImp|Product Description: AutoCAD Mechanical|Company: Autodesk, Inc."
 90
     1024
 91
        1
280
     0
281
     0
  0
CLASS
  1
ACMSECTIONSTANDARDISO2001
  2
AmdtSectionSymStdISO2001
  3
"Amdt_StdImp|Product Description: AutoCAD Mechanical|Company: Autodesk, Inc."
 90
     1024
 91
        1
280
     0
281
     0
  0
CLASS
  1
ACMCENTERLINESTANDARDISO
  2
AmdtCenterLineStdISO
  3
"Amdt_StdImp|Product Description: AutoCAD Mechanical|Company: Autodesk, Inc."
 90
     1024
 91
        1
280
     0
281
     0
  0
CLASS
  1
ACMTHREADLINESTANDARDISO
  2
AmdtThreadLineStdISO
  3
"Amdt_StdImp|Product Description: AutoCAD Mechanical|Company: Autodesk, Inc."
 90
     1024
 91
        1
280
     0
281
     0
  0
CLASS
  1
ACMNOTESTANDARDISO
  2
AmdtNoteStdISO
  3
"Amdt_StdImp|Product Description: AutoCAD Mechanical|Company: Autodesk, Inc."
 90
     1024
 91
        1
280
     0
281
     0
  0
CLASS
  1
ACMTAPERSTANDARDISO
  2
AcmTaperStdISO
  3
"Amdt_StdImp|Product Description: AutoCAD Mechanical|Company: Autodesk, Inc."
 90
     1024
 91
        1
280
     0
281
     0
  0
CLASS
  1
ACMANOOTATIONVIEWSTANDARDISO
  2
AmdtAnViewStdISO
  3
"Amdt_StdImp|Product Description: AutoCAD Mechanical|Company: Autodesk, Inc."
 90
     1024
 91
        1
280
     0
281
     0
  0
CLASS
  1
ACAMGLAYSTD
  2
AcAmgLayStd
  3
"AmgLay|Product Description: AutoCAD Mechanical|Company: Autodesk, Inc."
 90
     1024
 91
        1
280
     0
281
     0
  0
CLASS
  1
ACAMGDIMSTD
  2
AcAmgDimStd
  3
"AmgDim|Product Description: AutoCAD Mechanical|Company: Autodesk, Inc."
 90
     1024
 91
        1
280
     0
281
     0
  0
CLASS
  1
AMGOBJPROPCFG
  2
AmgObjPropCfg
  3
"AmgLay|Product Description: AutoCAD Mechanical|Company: Autodesk, Inc."
 90
     1025
 91
        1
280
     0
281
     0
  0
CLASS
  1
ACAMGHOLECHARTSTDISO
  2
AcAmgHoleChartStdISO
  3
AmgDim|Product Description: AutoCAD Mechanical|Company: Autodesk, Inc.
 90
     1024
 91
        1
280
     0
281
     0
  0
CLASS
  1
ACAMGTITLESTD
  2
AcAmgTitleStd
  3
"AmgTitle|Product Description: AutoCAD Mechanical|Company: Autodesk, Inc."
 90
     4095
 91
        1
280
     0
281
     0
  0
CLASS
  1
AMDTNOTETEMPLATEDB
  2
AmdtNoteTemplateDB
  3
AcmSymBB|Product Description: AutoCAD Mechanical|Company: Autodesk, Inc.
 90
     1024
 91
        6
280
     0
281
     0
  0
CLASS
  1
ACAMGFILTERDAT
  2
AcAmgFilterDat
  3
"AcadM|Product Description: AutoCAD Mechanical|Company: Autodesk, Inc."
 90
     1024
 91
        0
280
     0
281
     0
  0
CLASS
  1
CAMSSTRUCTBTNSTATE
  2
StructBtnState
  3
DesignerAssemblies
 90
     1024
 91
        0
280
     0
281
     0
  0
CLASS
  1
DIMASSOC
  2
AcDbDimAssoc
  3
"AcDbDimAssoc|Product Desc:     AcDim ARX App For Dimension|Company:          Autodesk, Inc.|WEB Address:      www.autodesk.com"
 90
        0
 91
        6
280
     0
281
     0
  0
CLASS
  1
ACDBASSOCNETWORK
  2
AcDbAssocNetwork
  3
ObjectDBX Classes
 90
     1025
 91
        6
280
     0
281
     0
  0
CLASS
  1
ACDBASSOC2DCONSTRAINTGROUP
  2
AcDbAssoc2dConstraintGroup
  3
ObjectDBX Classes
 90
     1025
 91
        7
280
     0
281
     0
  0
CLASS
  1
ACDBASSOCGEOMDEPENDENCY
  2
AcDbAssocGeomDependency
  3
ObjectDBX Classes
 90
     1025
 91
       42
280
     0
281
     0
  0
CLASS
  1
SORTENTSTABLE
  2
AcDbSortentsTable
  3
ObjectDBX Classes
 90
        0
 91
        3
280
     0
281
     0
  0
CLASS
  1
CELLSTYLEMAP
  2
AcDbCellStyleMap
  3
ObjectDBX Classes
 90
     1152
 91
        2
280
     0
281
     0
  0
CLASS
  1
ACDB_DYNAMICBLOCKPURGEPREVENTER_VERSION
  2
AcDbDynamicBlockPurgePreventer
  3
ObjectDBX Classes
 90
     1153
 91
        2
280
     0
281
     0
  0
ENDSEC
  0
SECTION
  2
TABLES
  0
TABLE
  2
VPORT
  5
8
330
0
100
AcDbSymbolTable
 70
     1
  0
VPORT
  5
165
330
8
100
AcDbSymbolTableRecord
100
AcDbViewportTableRecord
  2
*Active
 70
     0
 10
0.0
 20
0.0
 11
1.0
 21
1.0
 12
3486.407893874956
 22
712.3561599925124
 13
0.0
 23
0.0
 14
10.0
 24
10.0
 15
10.0
 25
10.0
 16
0.0
 26
0.0
 36
1.0
 17
0.0
 27
0.0
 37
0.0
 40
5497.081495134496
 41
2.036249999999999
 42
50.0
 43
0.0
 44
0.0
 50
0.0
 51
0.0
 71
     0
 72
   100
 73
     1
 74
     3
 75
     0
 76
     1
 77
     0
 78
     0
281
     0
 65
     0
110
1771.571570409045
120
-32.76829788332634
130
0.0
111
1.0
121
0.0
131
0.0
112
0.0
122
1.0
132
0.0
 79
     0
146
0.0
  0
ENDTAB
  0
TABLE
  2
LTYPE
  5
5
330
0
100
AcDbSymbolTable
 70
    17
  0
LTYPE
  5
11
330
5
100
AcDbSymbolTableRecord
100
AcDbLinetypeTableRecord
  2
BYBLOCK
 70
     0
  3

 72
    65
 73
     0
 40
0.0
  0
LTYPE
  5
12
330
5
100
AcDbSymbolTableRecord
100
AcDbLinetypeTableRecord
  2
BYLAYER
 70
     0
  3

 72
    65
 73
     0
 40
0.0
  0
LTYPE
  5
13
330
5
100
AcDbSymbolTableRecord
100
AcDbLinetypeTableRecord
  2
CONTINUOUS
 70
     0
  3
Linia ciągła
 72
    65
 73
     0
 40
0.0
  0
LTYPE
  5
1D
330
5
100
AcDbSymbolTableRecord
100
AcDbLinetypeTableRecord
  2
DASHED
 70
     0
  3
__ __ __ __ __ __ __ __ __ __ __ __ __ __ __ __
 72
    65
 73
     2
 40
19.05
 49
12.7
 74
     0
 49
-6.349999999999998
 74
     0
  0
LTYPE
  5
1E
330
5
100
AcDbSymbolTableRecord
100
AcDbLinetypeTableRecord
  2
CENTER
 70
     0
  3
____ _ ____ _ ____ _ ____ _ ____ _ ____ _ ____ 
 72
    65
 73
     4
 40
50.8
 49
31.75
 74
     0
 49
-6.349999999999998
 74
     0
 49
6.349999999999998
 74
     0
 49
-6.349999999999998
 74
     0
  0
LTYPE
  5
1E2
330
5
100
AcDbSymbolTableRecord
100
AcDbLinetypeTableRecord
  2
HIDDEN
 70
     0
  3
Ukryta __ __ __ __ __ __ __ __ __ __ __ __ __ __
 72
    65
 73
     2
 40
9.525
 49
6.349999999999998
 74
     0
 49
-3.174999999999998
 74
     0
  0
LTYPE
  5
1E3
330
5
100
AcDbSymbolTableRecord
100
AcDbLinetypeTableRecord
  2
PHANTOM2
 70
     0
  3
Linia pozorna (.5x) ___ _ _ ___ _ _ ___ _ _ ___ _ _
 72
    65
 73
     6
 40
31.75
 49
15.875
 74
     0
 49
-3.174999999999998
 74
     0
 49
3.174999999999998
 74
     0
 49
-3.174999999999998
 74
     0
 49
3.174999999999998
 74
     0
 49
-3.174999999999998
 74
     0
  0
LTYPE
  5
223
330
5
100
AcDbSymbolTableRecord
100
AcDbLinetypeTableRecord
  2
AM_ISO02W050
 70
     0
  3
__ __ __ __ __ __ __ __ __ __ __ __ __ __ __
 72
    65
 73
     2
 40
7.5
 49
6.0
 74
     0
 49
-1.5
 74
     0
  0
LTYPE
  5
224
330
5
100
AcDbSymbolTableRecord
100
AcDbLinetypeTableRecord
  2
AM_ISO08W050
 70
     0
  3
____ . ____ . ____ . ____ . ____ . ____ . ____
 72
    65
 73
     4
 40
18.0
 49
12.0
 74
     0
 49
-1.5
 74
     0
 49
3.0
 74
     0
 49
-1.5
 74
     0
  0
LTYPE
  5
225
330
5
100
AcDbSymbolTableRecord
100
AcDbLinetypeTableRecord
  2
AM_ISO09W050
 70
     0
  3
_____ . . _____ . . _____ . . ____ .. ____
 72
    65
 73
     6
 40
22.5
 49
12.0
 74
     0
 49
-1.5
 74
     0
 49
3.0
 74
     0
 49
-1.5
 74
     0
 49
3.0
 74
     0
 49
-1.5
 74
     0
  0
LTYPE
  5
226
330
5
100
AcDbSymbolTableRecord
100
AcDbLinetypeTableRecord
  2
Amconstr
 70
     0
  3
_______________________
 72
    65
 73
     2
 40
9999.0
 49
9999.0
 74
     0
 49
0.0
 74
     0
  0
LTYPE
  5
227
330
5
100
AcDbSymbolTableRecord
100
AcDbLinetypeTableRecord
  2
AM_ISO08W050x2
 70
     0
  3
__ . __ . __ . __ . __ . __
 72
    65
 73
     4
 40
9.0
 49
6.0
 74
     0
 49
-0.75
 74
     0
 49
1.5
 74
     0
 49
-0.75
 74
     0
  0
LTYPE
  5
228
330
5
100
AcDbSymbolTableRecord
100
AcDbLinetypeTableRecord
  2
AM_ISO02W050x2
 70
     0
  3
 _ _ _ _ _ _ _ _ _ _ _ _
 72
    65
 73
     2
 40
3.75
 49
3.0
 74
     0
 49
-0.75
 74
     0
  0
LTYPE
  5
22B
330
5
100
AcDbSymbolTableRecord
100
AcDbLinetypeTableRecord
  2
Amzigzag
 70
     0
  3
/\/-/\/-/\/-/\/-/\/-/\/
 72
    65
 73
     2
 40
11.0001
 49
0.0001
 74
     4
 75
   136
340
22A
 46
0.04
 50
0.0
 44
0.0
 45
0.0
 49
-11.0
 74
     0
  0
LTYPE
  5
23A
330
5
100
AcDbSymbolTableRecord
100
AcDbLinetypeTableRecord
  2
ACISOWELD
 70
     0
  3
_ _ _ _ _
 72
    65
 73
     2
 40
2.0
 49
2.0
 74
     0
 49
-1.0
 74
     0
  0
LTYPE
  5
23B
330
5
100
AcDbSymbolTableRecord
100
AcDbLinetypeTableRecord
  2
ACISOTGB
 70
     0
  3
__ . . __ . .
 72
    65
 73
     6
 40
9.0
 49
4.0
 74
     0
 49
-1.0
 74
     0
 49
1.0
 74
     0
 49
-1.0
 74
     0
 49
1.0
 74
     0
 49
-1.0
 74
     0
  0
LTYPE
  5
23C
330
5
100
AcDbSymbolTableRecord
100
AcDbLinetypeTableRecord
  2
ACISOTGL
 70
     0
  3
_ _ _ _ _
 72
    65
 73
     2
 40
3.0
 49
2.0
 74
     0
 49
-1.0
 74
     0
  0
ENDTAB
  0
TABLE
  2
LAYER
  5
2
102
{ACAD_XDICTIONARY
360
25F
102
}
330
0
100
AcDbSymbolTable
 70
    10
  0
LAYER
  5
E
102
{ACAD_XDICTIONARY
360
24E
102
}
330
2
100
AcDbSymbolTableRecord
100
AcDbLayerTableRecord
  2
0
 70
     0
 62
     5
  6
CONTINUOUS
370
    -3
390
C7
  0
LAYER
  5
22
102
{ACAD_XDICTIONARY
360
250
102
}
330
2
100
AcDbSymbolTableRecord
100
AcDbLayerTableRecord
  2
WYMIARY
 70
     0
 62
     1
  6
CONTINUOUS
370
    -3
390
C7
  0
LAYER
  5
23
102
{ACAD_XDICTIONARY
360
252
102
}
330
2
100
AcDbSymbolTableRecord
100
AcDbLayerTableRecord
  2
OPISY
 70
     0
 62
     2
  6
CONTINUOUS
370
    -3
390
C7
  0
LAYER
  5
24
102
{ACAD_XDICTIONARY
360
254
102
}
330
2
100
AcDbSymbolTableRecord
100
AcDbLayerTableRecord
  2
OSIE
 70
     0
 62
     9
  6
CENTER
370
    -3
390
C7
  0
LAYER
  5
25
102
{ACAD_XDICTIONARY
360
256
102
}
330
2
100
AcDbSymbolTableRecord
100
AcDbLayerTableRecord
  2
KRAWĘDZIE
 70
     0
 62
     7
  6
CONTINUOUS
370
    -3
390
C7
  0
LAYER
  5
26
102
{ACAD_XDICTIONARY
360
258
102
}
330
2
100
AcDbSymbolTableRecord
100
AcDbLayerTableRecord
  2
NIEWIDOCZNE
 70
     0
 62
     4
  6
DASHED
370
    -3
390
C7
  0
LAYER
  5
3E
330
2
100
AcDbSymbolTableRecord
100
AcDbLayerTableRecord
  2
DEFPOINTS
 70
     0
 62
     7
  6
CONTINUOUS
290
     0
370
    -3
390
C7
  0
LAYER
  5
10B
102
{ACAD_XDICTIONARY
360
25A
102
}
330
2
100
AcDbSymbolTableRecord
100
AcDbLayerTableRecord
  2
POMOCNICZE
 70
     0
 62
    45
  6
CONTINUOUS
370
    -3
390
C7
  0
LAYER
  5
271
330
2
100
AcDbSymbolTableRecord
100
AcDbLayerTableRecord
  2
AM_5
 70
     0
 62
     3
  6
CONTINUOUS
370
    25
390
C7
1001
AcAecLayerStandard
1000

1000

  0
LAYER
  5
66F
330
2
100
AcDbSymbolTableRecord
100
AcDbLayerTableRecord
  2
AM_CL
 70
     0
 62
     1
  6
Amconstr
370
    25
390
C7
1001
AcAecLayerStandard
1000

1000

  0
ENDTAB
  0
TABLE
  2
STYLE
  5
3
330
0
100
AcDbSymbolTable
 70
     5
  0
STYLE
  5
F
330
3
100
AcDbSymbolTableRecord
100
AcDbTextStyleTableRecord
  2
STANDARD
 70
     0
 40
0.0
 41
1.0
 50
0.0
 71
     0
 42
10.0
  3
txt
  4

  0
STYLE
  5
1C
330
3
100
AcDbSymbolTableRecord
100
AcDbTextStyleTableRecord
  2
ROMANS
 70
     0
 40
0.0
 41
0.8
 50
0.0
 71
     0
 42
0.2
  3
romans
  4

  0
STYLE
  5
22A
330
3
100
AcDbSymbolTableRecord
100
AcDbTextStyleTableRecord
  2

 70
     1
 40
0.0
 41
1.0
 50
0.0
 71
     0
 42
10.0
  3
genltshp.shx
  4

  0
STYLE
  5
238
330
3
100
AcDbSymbolTableRecord
100
AcDbTextStyleTableRecord
  2
ACISOTS
 70
     0
 40
1.0
 41
1.0
 50
0.0
 71
     0
 42
10.0
  3
isocp.shx
  4

  0
STYLE
  5
239
330
3
100
AcDbSymbolTableRecord
100
AcDbTextStyleTableRecord
  2
ACISOGDT
 70
     0
 40
0.0
 41
1.0
 50
0.0
 71
     0
 42
10.0
  3
amgdt.shx
  4

  0
ENDTAB
  0
TABLE
  2
VIEW
  5
6
330
0
100
AcDbSymbolTable
 70
     0
  0
ENDTAB
  0
TABLE
  2
UCS
  5
7
330
0
100
AcDbSymbolTable
 70
     0
  0
ENDTAB
  0
TABLE
  2
APPID
  5
9
330
0
100
AcDbSymbolTable
 70
    26
  0
APPID
  5
10
330
9
100
AcDbSymbolTableRecord
100
AcDbRegAppTableRecord
  2
ACAD
 70
     0
  0
APPID
  5
1B9
330
9
100
AcDbSymbolTableRecord
100
AcDbRegAppTableRecord
  2
MCAD_NO_VIS
 70
     0
  0
APPID
  5
1BA
330
9
100
AcDbSymbolTableRecord
100
AcDbRegAppTableRecord
  2
ACAD_TEMP_GRAPHIC
 70
     0
  0
APPID
  5
1E5
330
9
100
AcDbSymbolTableRecord
100
AcDbRegAppTableRecord
  2
AD_DRAW
 70
     0
  0
APPID
  5
1E8
330
9
100
AcDbSymbolTableRecord
100
AcDbRegAppTableRecord
  2
ACATTRIBSERVICES
 70
     0
  0
APPID
  5
201
330
9
100
AcDbSymbolTableRecord
100
AcDbRegAppTableRecord
  2
DESIGNERASSEMBLIES
 70
     0
  0
APPID
  5
206
330
9
100
AcDbSymbolTableRecord
100
AcDbRegAppTableRecord
  2
ACADM_DIM_EDIT
 70
     0
  0
APPID
  5
207
330
9
100
AcDbSymbolTableRecord
100
AcDbRegAppTableRecord
  2
AMDT_DM_ADJ
 70
     0
  0
APPID
  5
220
330
9
100
AcDbSymbolTableRecord
100
AcDbRegAppTableRecord
  2
ACAD_DSTYLE_DIMJAG
 70
     0
  0
APPID
  5
221
330
9
100
AcDbSymbolTableRecord
100
AcDbRegAppTableRecord
  2
ACAD_DSTYLE_DIMBREAK
 70
     0
  0
APPID
  5
243
330
9
100
AcDbSymbolTableRecord
100
AcDbRegAppTableRecord
  2
GENIUS_GENSCREG_15
 70
     0
  0
APPID
  5
244
330
9
100
AcDbSymbolTableRecord
100
AcDbRegAppTableRecord
  2
GENIUS_GENOBJ-N-SDF_13
 70
     0
  0
APPID
  5
245
330
9
100
AcDbSymbolTableRecord
100
AcDbRegAppTableRecord
  2
GENIUS_GENODEF_13
 70
     0
  0
APPID
  5
26F
330
9
100
AcDbSymbolTableRecord
100
AcDbRegAppTableRecord
  2
GENIUS_GENREC_14
 70
     0
  0
APPID
  5
270
330
9
100
AcDbSymbolTableRecord
100
AcDbRegAppTableRecord
  2
GENIUS_GENOBJ-N-REC_13
 70
     0
  0
APPID
  5
272
330
9
100
AcDbSymbolTableRecord
100
AcDbRegAppTableRecord
  2
AcAecLayerStandard
 70
     0
  0
APPID
  5
2C5
330
9
100
AcDbSymbolTableRecord
100
AcDbRegAppTableRecord
  2
ACAD_DSTYLE_DIMINSPECT
 70
     0
  0
APPID
  5
2D8
330
9
100
AcDbSymbolTableRecord
100
AcDbRegAppTableRecord
  2
GENIUS_GENDTOL_13
 70
     0
  0
APPID
  5
2D9
330
9
100
AcDbSymbolTableRecord
100
AcDbRegAppTableRecord
  2
ACAD_EXEMPT_FROM_CAD_STANDARDS
 70
     0
  0
APPID
  5
E54
330
9
100
AcDbSymbolTableRecord
100
AcDbRegAppTableRecord
  2
ACAD_MLEADERVER
 70
     0
  0
APPID
  5
E55
330
9
100
AcDbSymbolTableRecord
100
AcDbRegAppTableRecord
  2
ACAD_DSTYLE_DIMARC_LENGTH_SYMBOL
 70
     0
  0
APPID
  5
E56
330
9
100
AcDbSymbolTableRecord
100
AcDbRegAppTableRecord
  2
ACAD_DSTYLE_DIM_LINETYPE
 70
     0
  0
APPID
  5
E57
330
9
100
AcDbSymbolTableRecord
100
AcDbRegAppTableRecord
  2
ACAD_DSTYLE_DIM_EXT1_LINETYPE
 70
     0
  0
APPID
  5
E58
330
9
100
AcDbSymbolTableRecord
100
AcDbRegAppTableRecord
  2
ACAD_DSTYLE_DIM_EXT2_LINETYPE
 70
     0
  0
APPID
  5
E59
330
9
100
AcDbSymbolTableRecord
100
AcDbRegAppTableRecord
  2
AcDbDynamicBlockTrueName2
 70
     0
  0
APPID
  5
E5A
330
9
100
AcDbSymbolTableRecord
100
AcDbRegAppTableRecord
  2
AcDbDynamicBlockGUID
 70
     0
  0
ENDTAB
  0
TABLE
  2
DIMSTYLE
  5
A
330
0
100
AcDbSymbolTable
 70
    11
100
AcDbDimStyleTable
 71
     2
340
21F
340
21
  0
DIMSTYLE
105
21
330
A
100
AcDbSymbolTableRecord
100
AcDbDimStyleTableRecord
  2
SKALA_1
 70
     0
 41
2.0
 42
0.0
 43
3.5
 44
1.0
 45
1.0
 73
     0
 74
     0
 77
     1
 78
    12
140
2.5
141
2.5
145
0.72
146
0.72
147
0.5
172
     1
176
     9
177
     9
178
   256
271
     1
272
     1
284
    12
285
    12
286
    12
289
     0
340
F
  0
DIMSTYLE
105
21F
102
{ACAD_REACTORS
330
EB8
102
}
330
A
100
AcDbSymbolTableRecord
100
AcDbDimStyleTableRecord
  2
AM_ISO
 70
     0
  4
"
 41
60.0
 42
1.0
 43
10.0
 44
1.0
 47
0.1
 48
0.1
 73
     0
 74
     0
 77
     1
 78
     8
 79
     2
140
60.0
141
0.0
143
0.0393701
146
0.71
147
1.5
172
     1
176
   256
177
   256
178
    30
271
     2
272
     3
274
     4
283
     0
284
     8
340
F
371
    -1
372
    -1
1001
ACAD_DSTYLE_DIMJAG
1070
   388
1040
1.5
1001
ACAD_DSTYLE_DIMBREAK
1070
   391
1040
3.75
1001
ACAD_DSTYLE_DIMARC_LENGTH_SYMBOL
1070
   379
1070
     1
1001
ACAD_DSTYLE_DIM_LINETYPE
1070
   380
1005
11
1001
ACAD_DSTYLE_DIM_EXT1_LINETYPE
1070
   381
1005
11
1001
ACAD_DSTYLE_DIM_EXT2_LINETYPE
1070
   382
1005
11
  0
DIMSTYLE
105
22C
330
A
100
AcDbSymbolTableRecord
100
AcDbDimStyleTableRecord
  2
AM_ISO$3
 70
     0
  4
"
 41
60.0
 42
1.0
 43
10.0
 44
1.0
 47
0.1
 48
0.1
 73
     0
 77
     1
 78
     8
 79
     2
140
60.0
141
0.0
143
0.0393701
146
0.71
147
1.5
176
   256
177
   256
178
    30
271
     2
272
     3
274
     4
283
     0
284
     8
288
     1
289
     0
340
F
371
    -1
372
    -1
1001
ACAD_DSTYLE_DIMBREAK
1070
   391
1040
3.75
1001
ACAD_DSTYLE_DIMJAG
1070
   388
1040
1.5
1001
ACAD_DSTYLE_DIMARC_LENGTH_SYMBOL
1070
   379
1070
     1
1001
ACAD_DSTYLE_DIM_LINETYPE
1070
   380
1005
11
1001
ACAD_DSTYLE_DIM_EXT1_LINETYPE
1070
   381
1005
11
1001
ACAD_DSTYLE_DIM_EXT2_LINETYPE
1070
   382
1005
11
  0
DIMSTYLE
105
22D
330
A
100
AcDbSymbolTableRecord
100
AcDbDimStyleTableRecord
  2
AM_ISO$4
 70
     0
  4
"
 41
60.0
 42
1.0
 43
10.0
 44
1.0
 47
0.1
 48
0.1
 73
     0
 77
     1
 78
     8
 79
     2
140
60.0
141
0.0
143
0.0393701
146
0.71
147
1.5
176
   256
177
   256
178
    30
271
     2
272
     3
274
     4
283
     0
284
     8
288
     1
289
     0
340
F
371
    -1
372
    -1
1001
ACAD_DSTYLE_DIMBREAK
1070
   391
1040
3.75
1001
ACAD_DSTYLE_DIMJAG
1070
   388
1040
1.5
1001
ACAD_DSTYLE_DIMARC_LENGTH_SYMBOL
1070
   379
1070
     1
1001
ACAD_DSTYLE_DIM_LINETYPE
1070
   380
1005
11
1001
ACAD_DSTYLE_DIM_EXT1_LINETYPE
1070
   381
1005
11
1001
ACAD_DSTYLE_DIM_EXT2_LINETYPE
1070
   382
1005
11
  0
DIMSTYLE
105
22E
330
A
100
AcDbSymbolTableRecord
100
AcDbDimStyleTableRecord
  2
AM_ISO$6
 70
     0
  4
"
 41
60.0
 42
1.0
 43
10.0
 44
1.0
 47
0.1
 48
0.1
 73
     0
 74
     0
 78
     8
 79
     2
140
60.0
141
0.0
143
0.0393701
146
0.71
147
1.5
172
     1
176
   256
177
   256
178
    30
271
     2
272
     3
274
     4
283
     0
284
     8
340
F
371
    -1
372
    -1
1001
ACAD_DSTYLE_DIMBREAK
1070
   391
1040
3.75
1001
ACAD_DSTYLE_DIMJAG
1070
   388
1040
1.5
1001
ACAD_DSTYLE_DIMARC_LENGTH_SYMBOL
1070
   379
1070
     1
1001
ACAD_DSTYLE_DIM_LINETYPE
1070
   380
1005
11
1001
ACAD_DSTYLE_DIM_EXT1_LINETYPE
1070
   381
1005
11
1001
ACAD_DSTYLE_DIM_EXT2_LINETYPE
1070
   382
1005
11
  0
DIMSTYLE
105
22F
330
A
100
AcDbSymbolTableRecord
100
AcDbDimStyleTableRecord
  2
AM_ISO$7
 70
     0
  4
"
 41
60.0
 42
1.0
 43
10.0
 44
1.0
 47
0.1
 48
0.1
 73
     0
 74
     0
 77
     1
 78
     8
 79
     2
140
60.0
141
0.0
143
0.0393701
146
0.71
147
1.5
172
     1
176
   256
177
   256
178
    30
271
     2
272
     3
274
     4
283
     0
284
     8
340
F
371
    -1
372
    -1
1001
ACAD_DSTYLE_DIMBREAK
1070
   391
1040
3.75
1001
ACAD_DSTYLE_DIMJAG
1070
   388
1040
1.5
1001
ACAD_DSTYLE_DIMARC_LENGTH_SYMBOL
1070
   379
1070
     1
1001
ACAD_DSTYLE_DIM_LINETYPE
1070
   380
1005
11
1001
ACAD_DSTYLE_DIM_EXT1_LINETYPE
1070
   381
1005
11
1001
ACAD_DSTYLE_DIM_EXT2_LINETYPE
1070
   382
1005
11
  0
DIMSTYLE
105
230
330
A
100
AcDbSymbolTableRecord
100
AcDbDimStyleTableRecord
  2
AM_ISO$SF
 70
     0
  4
"
 41
60.0
 42
1.0
 43
10.0
 44
1.0
 47
0.1
 48
0.1
 73
     0
 74
     0
 75
     1
 76
     1
 77
     1
 78
     8
 79
     2
140
60.0
141
0.0
143
0.0393701
146
0.71
147
1.5
172
     1
176
   256
177
   256
178
    30
271
     2
272
     3
274
     4
283
     0
284
     8
340
F
371
    -1
372
    -1
1001
ACAD_DSTYLE_DIMBREAK
1070
   391
1040
3.75
1001
ACAD_DSTYLE_DIMJAG
1070
   388
1040
1.5
1001
ACAD_DSTYLE_DIMARC_LENGTH_SYMBOL
1070
   379
1070
     1
1001
ACAD_DSTYLE_DIM_LINETYPE
1070
   380
1005
11
1001
ACAD_DSTYLE_DIM_EXT1_LINETYPE
1070
   381
1005
11
1001
ACAD_DSTYLE_DIM_EXT2_LINETYPE
1070
   382
1005
11
  0
DIMSTYLE
105
235
330
A
100
AcDbSymbolTableRecord
100
AcDbDimStyleTableRecord
  2
AM_ISO$SH
 70
     0
  4
"
 41
60.0
 42
1.0
 43
10.0
 44
1.0
 47
0.1
 48
0.1
 73
     0
 74
     0
 75
     1
 76
     1
 77
     1
 78
     8
 79
     2
140
60.0
141
0.0
143
0.0393701
144
2.0
146
0.71
147
1.5
172
     1
173
     1
176
   256
177
   256
178
    30
271
     2
272
     3
274
     4
283
     0
284
     8
340
F
343
231
371
    -1
372
    -1
1001
ACAD_DSTYLE_DIMBREAK
1070
   391
1040
3.75
1001
ACAD_DSTYLE_DIMJAG
1070
   388
1040
1.5
1001
ACAD_DSTYLE_DIMARC_LENGTH_SYMBOL
1070
   379
1070
     1
1001
ACAD_DSTYLE_DIM_LINETYPE
1070
   380
1005
11
1001
ACAD_DSTYLE_DIM_EXT1_LINETYPE
1070
   381
1005
11
1001
ACAD_DSTYLE_DIM_EXT2_LINETYPE
1070
   382
1005
11
  0
DIMSTYLE
105
2AD
330
A
100
AcDbSymbolTableRecord
100
AcDbDimStyleTableRecord
  2
SKALA_1$0
 70
     0
 41
2.0
 42
0.0
 43
3.5
 44
1.0
 45
1.0
 73
     0
 74
     0
 77
     1
 78
    12
140
2.5
141
2.5
145
0.72
146
0.72
147
0.5
172
     1
176
     9
177
     9
178
   256
271
     1
272
     1
284
    12
285
    12
286
    12
289
     0
340
F
1001
ACAD_DSTYLE_DIMBREAK
1070
   391
1040
3.75
1001
ACAD_DSTYLE_DIMJAG
1070
   388
1040
1.5
  0
DIMSTYLE
105
40B
102
{ACAD_REACTORS
330
BE3
330
C28
330
C49
330
C6A
330
CBD
330
D10
102
}
330
A
100
AcDbSymbolTableRecord
100
AcDbDimStyleTableRecord
  2
AM_ISO$0
 70
     0
  4
"
 41
60.0
 42
1.0
 43
10.0
 44
1.0
 47
0.1
 48
0.1
 73
     0
 74
     0
 77
     1
 78
     8
 79
     2
140
60.0
141
0.0
143
0.0393701
146
0.71
147
1.5
172
     1
176
   256
177
   256
178
    30
271
     2
272
     3
274
     4
283
     0
284
     8
340
F
371
    -1
372
    -1
1001
ACAD_DSTYLE_DIMBREAK
1070
   391
1040
3.75
1001
ACAD_DSTYLE_DIMJAG
1070
   388
1040
1.5
1001
ACAD_DSTYLE_DIMARC_LENGTH_SYMBOL
1070
   379
1070
     1
1001
ACAD_DSTYLE_DIM_LINETYPE
1070
   380
1005
11
1001
ACAD_DSTYLE_DIM_EXT1_LINETYPE
1070
   381
1005
11
1001
ACAD_DSTYLE_DIM_EXT2_LINETYPE
1070
   382
1005
11
  0
ENDTAB
  0
TABLE
  2
BLOCK_RECORD
  5
1
330
0
100
AcDbSymbolTable
 70
    28
  0
BLOCK_RECORD
  5
17
102
{ACAD_XDICTIONARY
360
473
102
}
330
1
100
AcDbSymbolTableRecord
100
AcDbBlockTableRecord
  2
*MODEL_SPACE
340
CA
  0
BLOCK_RECORD
  5
14
330
1
100
AcDbSymbolTableRecord
100
AcDbBlockTableRecord
  2
*PAPER_SPACE
340
CB
  0
BLOCK_RECORD
  5
231
330
1
100
AcDbSymbolTableRecord
100
AcDbBlockTableRecord
  2
GENAXEH
340
0
  0
BLOCK_RECORD
  5
6D6
330
1
100
AcDbSymbolTableRecord
100
AcDbBlockTableRecord
  2
*D1
340
0
  0
BLOCK_RECORD
  5
71B
330
1
100
AcDbSymbolTableRecord
100
AcDbBlockTableRecord
  2
*D2
340
0
  0
BLOCK_RECORD
  5
748
330
1
100
AcDbSymbolTableRecord
100
AcDbBlockTableRecord
  2
*D3
340
0
  0
BLOCK_RECORD
  5
78D
330
1
100
AcDbSymbolTableRecord
100
AcDbBlockTableRecord
  2
*D4
340
0
  0
BLOCK_RECORD
  5
7AE
330
1
100
AcDbSymbolTableRecord
100
AcDbBlockTableRecord
  2
*D5
340
0
  0
BLOCK_RECORD
  5
8E8
330
1
100
AcDbSymbolTableRecord
100
AcDbBlockTableRecord
  2
*D6
340
0
  0
BLOCK_RECORD
  5
92D
330
1
100
AcDbSymbolTableRecord
100
AcDbBlockTableRecord
  2
*D7
340
0
  0
BLOCK_RECORD
  5
961
330
1
100
AcDbSymbolTableRecord
100
AcDbBlockTableRecord
  2
*D8
340
0
  0
BLOCK_RECORD
  5
9A6
330
1
100
AcDbSymbolTableRecord
100
AcDbBlockTableRecord
  2
*D9
340
0
  0
BLOCK_RECORD
  5
9C7
330
1
100
AcDbSymbolTableRecord
100
AcDbBlockTableRecord
  2
*D10
340
0
  0
BLOCK_RECORD
  5
9E8
330
1
100
AcDbSymbolTableRecord
100
AcDbBlockTableRecord
  2
*D11
340
0
  0
BLOCK_RECORD
  5
A0C
102
{ACAD_XDICTIONARY
360
A0F
102
}
330
1
100
AcDbSymbolTableRecord
100
AcDbBlockTableRecord
  2
*U12
340
0
1001
AcDbDynamicBlockTrueName2
1000
A$C08F678DA
1001
AcDbDynamicBlockGUID
1000
{A7E6D3E4-321B-4D00-B296-092F80342FFC}
  0
BLOCK_RECORD
  5
A6C
102
{ACAD_XDICTIONARY
360
A73
102
}
330
1
100
AcDbSymbolTableRecord
100
AcDbBlockTableRecord
  2
*U13
340
0
1001
AcDbDynamicBlockTrueName2
1000
A$C4AE615F4
1001
AcDbDynamicBlockGUID
1000
{519FCF6C-789A-4E68-8A93-D052E3FB21D0}
  0
BLOCK_RECORD
  5
BE4
330
1
100
AcDbSymbolTableRecord
100
AcDbBlockTableRecord
  2
*D14
340
0
  0
BLOCK_RECORD
  5
C29
330
1
100
AcDbSymbolTableRecord
100
AcDbBlockTableRecord
  2
*D15
340
0
  0
BLOCK_RECORD
  5
C4A
330
1
100
AcDbSymbolTableRecord
100
AcDbBlockTableRecord
  2
*D16
340
0
  0
BLOCK_RECORD
  5
C6B
330
1
100
AcDbSymbolTableRecord
100
AcDbBlockTableRecord
  2
*D17
340
0
  0
BLOCK_RECORD
  5
CBE
330
1
100
AcDbSymbolTableRecord
100
AcDbBlockTableRecord
  2
*D18
340
0
  0
BLOCK_RECORD
  5
D11
330
1
100
AcDbSymbolTableRecord
100
AcDbBlockTableRecord
  2
*D19
340
0
  0
ENDTAB
  0
ENDSEC
  0
SECTION
  2
BLOCKS
  0
BLOCK
  5
29
330
17
100
AcDbEntity
  8
0
100
AcDbBlockBegin
  2
*MODEL_SPACE
 70
     0
 10
0.0
 20
0.0
 30
0.0
  3
*MODEL_SPACE
  1

  0
ENDBLK
  5
2A
330
17
100
AcDbEntity
  8
0
100
AcDbBlockEnd
  0
BLOCK
  5
27
330
14
100
AcDbEntity
 67
     1
  8
0
100
AcDbBlockBegin
  2
*PAPER_SPACE
 70
     0
 10
0.0
 20
0.0
 30
0.0
  3
*PAPER_SPACE
  1

  0
ENDBLK
  5
28
330
14
100
AcDbEntity
 67
     1
  8
0
100
AcDbBlockEnd
  0
BLOCK
  5
233
330
231
100
AcDbEntity
  8
0
100
AcDbBlockBegin
  2
GENAXEH
 70
     0
 10
0.0
 20
0.0
 30
0.0
  3
GENAXEH
  1

  0
LINE
  5
232
330
231
100
AcDbEntity
  8
0
100
AcDbLine
 10
-1.0
 20
0.0
 30
0.0
 11
1.0
 21
0.0
 31
0.0
  0
ENDBLK
  5
234
330
231
100
AcDbEntity
  8
0
100
AcDbBlockEnd
  0
BLOCK
  5
6D7
330
6D6
100
AcDbEntity
  8
0
100
AcDbBlockBegin
  2
*D1
 70
     1
 10
0.0
 20
0.0
 30
0.0
  3
*D1
  1

  0
LINE
  5
73B
330
6D6
100
AcDbEntity
  8
AM_5
  6
ByBlock
440
 16777216
100
AcDbLine
 10
311.5715704090241
 20
-33.76829788330019
 30
0.0
 11
311.5715704090241
 21
-291.4078627527424
 31
0.0
  0
LINE
  5
73C
330
6D6
100
AcDbEntity
  8
AM_5
  6
ByBlock
440
 16777216
100
AcDbLine
 10
1291.571570409024
 20
-33.7682978833
 30
0.0
 11
1291.571570409024
 21
-291.4078627527424
 31
0.0
  0
LINE
  5
73D
330
6D6
100
AcDbEntity
  8
AM_5
  6
ByBlock
440
 16777216
100
AcDbLine
 10
371.5715704090241
 20
-290.4078627527424
 30
0.0
 11
1231.571570409024
 21
-290.4078627527424
 31
0.0
  0
SOLID
  5
73E
330
6D6
100
AcDbEntity
  8
AM_5
440
 16777216
100
AcDbTrace
 10
371.5715704090241
 20
-280.4078627527424
 30
0.0
 11
371.5715704090241
 21
-300.4078627527424
 31
0.0
 12
311.5715704090241
 22
-290.4078627527424
 32
0.0
 13
311.5715704090241
 23
-290.4078627527424
 33
0.0
  0
SOLID
  5
73F
330
6D6
100
AcDbEntity
  8
AM_5
440
 16777216
100
AcDbTrace
 10
1231.571570409024
 20
-280.4078627527424
 30
0.0
 11
1231.571570409024
 21
-300.4078627527424
 31
0.0
 12
1291.571570409024
 22
-290.4078627527424
 32
0.0
 13
1291.571570409024
 23
-290.4078627527424
 33
0.0
  0
MTEXT
  5
740
330
6D6
100
AcDbEntity
  8
AM_5
 62
    30
440
 16777216
100
AcDbMText
 10
812.7292307270691
 20
-258.9078627527424
 30
0.0
 40
60.0
 41
0.0
 71
     5
 72
     1
  1
980
 73
     1
 44
1.0
  0
POINT
  5
741
330
6D6
100
AcDbEntity
  8
DEFPOINTS
 62
     0
440
 16777216
100
AcDbPoint
 10
311.5715704090241
 20
-32.76829788330019
 30
0.0
  0
POINT
  5
742
330
6D6
100
AcDbEntity
  8
DEFPOINTS
 62
     0
440
 16777216
100
AcDbPoint
 10
1291.571570409024
 20
-32.7682978833
 30
0.0
  0
POINT
  5
743
330
6D6
100
AcDbEntity
  8
DEFPOINTS
 62
     0
440
 16777216
100
AcDbPoint
 10
1291.571570409024
 20
-290.4078627527424
 30
0.0
  0
ENDBLK
  5
6D8
330
6D6
100
AcDbEntity
  8
0
100
AcDbBlockEnd
  0
BLOCK
  5
71C
330
71B
100
AcDbEntity
  8
0
100
AcDbBlockBegin
  2
*D2
 70
     1
 10
0.0
 20
0.0
 30
0.0
  3
*D2
  1

  0
LINE
  5
732
330
71B
100
AcDbEntity
  8
AM_5
  6
ByBlock
440
 16777216
100
AcDbLine
 10
1292.571570409024
 20
-32.76829788333349
 30
0.0
 11
1483.49088301313
 21
-32.76829788333355
 31
0.0
  0
LINE
  5
733
330
71B
100
AcDbEntity
  8
AM_5
  6
ByBlock
440
 16777216
100
AcDbLine
 10
1292.571570409064
 20
1167.231702116667
 30
0.0
 11
1483.49088301313
 21
1167.231702116667
 31
0.0
  0
LINE
  5
734
330
71B
100
AcDbEntity
  8
AM_5
  6
ByBlock
440
 16777216
100
AcDbLine
 10
1482.490883013129
 20
27.23170211666645
 30
0.0
 11
1482.49088301313
 21
1107.231702116667
 31
0.0
  0
SOLID
  5
735
330
71B
100
AcDbEntity
  8
AM_5
440
 16777216
100
AcDbTrace
 10
1472.490883013129
 20
27.23170211666646
 30
0.0
 11
1492.49088301313
 21
27.23170211666645
 31
0.0
 12
1482.490883013129
 22
-32.76829788333355
 32
0.0
 13
1482.490883013129
 23
-32.76829788333355
 33
0.0
  0
SOLID
  5
736
330
71B
100
AcDbEntity
  8
AM_5
440
 16777216
100
AcDbTrace
 10
1472.490883013129
 20
1107.231702116667
 30
0.0
 11
1492.49088301313
 21
1107.231702116667
 31
0.0
 12
1482.49088301313
 22
1167.231702116667
 32
0.0
 13
1482.49088301313
 23
1167.231702116667
 33
0.0
  0
MTEXT
  5
737
330
71B
100
AcDbEntity
  8
AM_5
 62
    30
440
 16777216
100
AcDbMText
 10
1450.990883013129
 20
567.2317021166667
 30
0.0
 40
60.0
 41
0.0
 71
     5
 72
     1
  1
1200
 11
0.0000000000000001
 21
1.0
 31
0.0
 73
     1
 44
1.0
  0
POINT
  5
738
330
71B
100
AcDbEntity
  8
DEFPOINTS
 62
     0
440
 16777216
100
AcDbPoint
 10
1291.571570409024
 20
-32.76829788333349
 30
0.0
  0
POINT
  5
739
330
71B
100
AcDbEntity
  8
DEFPOINTS
 62
     0
440
 16777216
100
AcDbPoint
 10
1291.571570409064
 20
1167.231702116667
 30
0.0
  0
POINT
  5
73A
330
71B
100
AcDbEntity
  8
DEFPOINTS
 62
     0
440
 16777216
100
AcDbPoint
 10
1482.49088301313
 20
1167.231702116667
 30
0.0
  0
ENDBLK
  5
71D
330
71B
100
AcDbEntity
  8
0
100
AcDbBlockEnd
  0
BLOCK
  5
749
330
748
100
AcDbEntity
  8
0
100
AcDbBlockBegin
  2
*D3
 70
     1
 10
0.0
 20
0.0
 30
0.0
  3
*D3
  1

  0
LINE
  5
7CF
330
748
100
AcDbEntity
  8
AM_5
  6
ByBlock
440
 16777216
100
AcDbLine
 10
311.5715704090241
 20
-33.76829788330019
 30
0.0
 11
311.5715704090241
 21
-186.2000652603076
 31
0.0
  0
LINE
  5
7D0
330
748
100
AcDbEntity
  8
AM_5
  6
ByBlock
440
 16777216
100
AcDbLine
 10
571.5715704090239
 20
-33.76829788330873
 30
0.0
 11
571.5715704090239
 21
-186.2000652603075
 31
0.0
  0
LINE
  5
7D1
330
748
100
AcDbEntity
  8
AM_5
  6
ByBlock
440
 16777216
100
AcDbLine
 10
371.5715704090241
 20
-185.2000652603076
 30
0.0
 11
511.5715704090241
 21
-185.2000652603076
 31
0.0
  0
SOLID
  5
7D2
330
748
100
AcDbEntity
  8
AM_5
440
 16777216
100
AcDbTrace
 10
371.5715704090241
 20
-175.2000652603076
 30
0.0
 11
371.5715704090241
 21
-195.2000652603075
 31
0.0
 12
311.5715704090241
 22
-185.2000652603076
 32
0.0
 13
311.5715704090241
 23
-185.2000652603076
 33
0.0
  0
SOLID
  5
7D3
330
748
100
AcDbEntity
  8
AM_5
440
 16777216
100
AcDbTrace
 10
511.5715704090241
 20
-175.2000652603076
 30
0.0
 11
511.5715704090241
 21
-195.2000652603075
 31
0.0
 12
571.5715704090239
 22
-185.2000652603076
 32
0.0
 13
571.5715704090239
 23
-185.2000652603076
 33
0.0
  0
MTEXT
  5
7D4
330
748
100
AcDbEntity
  8
AM_5
 62
    30
440
 16777216
100
AcDbMText
 10
441.5715704090239
 20
-153.7000652603076
 30
0.0
 40
60.0
 41
0.0
 71
     5
 72
     1
  1
260
 73
     1
 44
1.0
  0
POINT
  5
7D5
330
748
100
AcDbEntity
  8
DEFPOINTS
 62
     0
440
 16777216
100
AcDbPoint
 10
311.5715704090241
 20
-32.76829788330019
 30
0.0
  0
POINT
  5
7D6
330
748
100
AcDbEntity
  8
DEFPOINTS
 62
     0
440
 16777216
100
AcDbPoint
 10
571.5715704090239
 20
-32.76829788330874
 30
0.0
  0
POINT
  5
7D7
330
748
100
AcDbEntity
  8
DEFPOINTS
 62
     0
440
 16777216
100
AcDbPoint
 10
571.5715704090239
 20
-185.2000652603076
 30
0.0
  0
ENDBLK
  5
74A
330
748
100
AcDbEntity
  8
0
100
AcDbBlockEnd
  0
BLOCK
  5
78E
330
78D
100
AcDbEntity
  8
0
100
AcDbBlockBegin
  2
*D4
 70
     1
 10
0.0
 20
0.0
 30
0.0
  3
*D4
  1

  0
LINE
  5
7D8
330
78D
100
AcDbEntity
  8
AM_5
  6
ByBlock
440
 16777216
100
AcDbLine
 10
571.5715704090239
 20
-33.76829788330902
 30
0.0
 11
571.5715704090239
 21
-186.2000652602983
 31
0.0
  0
LINE
  5
7D9
330
78D
100
AcDbEntity
  8
AM_5
  6
ByBlock
440
 16777216
100
AcDbLine
 10
831.5715704090241
 20
-33.76829788331757
 30
0.0
 11
831.5715704090241
 21
-186.2000652602983
 31
0.0
  0
LINE
  5
7DA
330
78D
100
AcDbEntity
  8
AM_5
  6
ByBlock
440
 16777216
100
AcDbLine
 10
631.5715704090239
 20
-185.2000652602983
 30
0.0
 11
771.571570409024
 21
-185.2000652602983
 31
0.0
  0
SOLID
  5
7DB
330
78D
100
AcDbEntity
  8
AM_5
440
 16777216
100
AcDbTrace
 10
631.5715704090239
 20
-175.2000652602983
 30
0.0
 11
631.5715704090239
 21
-195.2000652602983
 31
0.0
 12
571.5715704090239
 22
-185.2000652602983
 32
0.0
 13
571.5715704090239
 23
-185.2000652602983
 33
0.0
  0
SOLID
  5
7DC
330
78D
100
AcDbEntity
  8
AM_5
440
 16777216
100
AcDbTrace
 10
771.571570409024
 20
-175.2000652602983
 30
0.0
 11
771.571570409024
 21
-195.2000652602983
 31
0.0
 12
831.5715704090241
 22
-185.2000652602983
 32
0.0
 13
831.5715704090241
 23
-185.2000652602983
 33
0.0
  0
MTEXT
  5
7DD
330
78D
100
AcDbEntity
  8
AM_5
 62
    30
440
 16777216
100
AcDbMText
 10
701.571570409024
 20
-153.7000652602983
 30
0.0
 40
60.0
 41
0.0
 71
     5
 72
     1
  1
260
 73
     1
 44
1.0
  0
POINT
  5
7DE
330
78D
100
AcDbEntity
  8
DEFPOINTS
 62
     0
440
 16777216
100
AcDbPoint
 10
571.5715704090239
 20
-32.76829788330902
 30
0.0
  0
POINT
  5
7DF
330
78D
100
AcDbEntity
  8
DEFPOINTS
 62
     0
440
 16777216
100
AcDbPoint
 10
831.5715704090241
 20
-32.76829788331756
 30
0.0
  0
POINT
  5
7E0
330
78D
100
AcDbEntity
  8
DEFPOINTS
 62
     0
440
 16777216
100
AcDbPoint
 10
831.5715704090241
 20
-185.2000652602983
 30
0.0
  0
ENDBLK
  5
78F
330
78D
100
AcDbEntity
  8
0
100
AcDbBlockEnd
  0
BLOCK
  5
7AF
330
7AE
100
AcDbEntity
  8
0
100
AcDbBlockBegin
  2
*D5
 70
     1
 10
0.0
 20
0.0
 30
0.0
  3
*D5
  1

  0
LINE
  5
7E1
330
7AE
100
AcDbEntity
  8
AM_5
  6
ByBlock
440
 16777216
100
AcDbLine
 10
831.5715704090241
 20
-33.76829788331786
 30
0.0
 11
831.5715704090241
 21
-186.2000652602983
 31
0.0
  0
LINE
  5
7E2
330
7AE
100
AcDbEntity
  8
AM_5
  6
ByBlock
440
 16777216
100
AcDbLine
 10
1091.571570409005
 20
-33.76829788332668
 30
0.0
 11
1091.571570409005
 21
-186.2000652602983
 31
0.0
  0
LINE
  5
7E3
330
7AE
100
AcDbEntity
  8
AM_5
  6
ByBlock
440
 16777216
100
AcDbLine
 10
891.571570409024
 20
-185.2000652602983
 30
0.0
 11
1031.571570409005
 21
-185.2000652602983
 31
0.0
  0
SOLID
  5
7E4
330
7AE
100
AcDbEntity
  8
AM_5
440
 16777216
100
AcDbTrace
 10
891.571570409024
 20
-175.2000652602983
 30
0.0
 11
891.571570409024
 21
-195.2000652602983
 31
0.0
 12
831.5715704090241
 22
-185.2000652602983
 32
0.0
 13
831.5715704090241
 23
-185.2000652602983
 33
0.0
  0
SOLID
  5
7E5
330
7AE
100
AcDbEntity
  8
AM_5
440
 16777216
100
AcDbTrace
 10
1031.571570409005
 20
-175.2000652602983
 30
0.0
 11
1031.571570409005
 21
-195.2000652602983
 31
0.0
 12
1091.571570409005
 22
-185.2000652602983
 32
0.0
 13
1091.571570409005
 23
-185.2000652602983
 33
0.0
  0
MTEXT
  5
7E6
330
7AE
100
AcDbEntity
  8
AM_5
 62
    30
440
 16777216
100
AcDbMText
 10
961.5715704090144
 20
-153.7000652602983
 30
0.0
 40
60.0
 41
0.0
 71
     5
 72
     1
  1
260
 73
     1
 44
1.0
  0
POINT
  5
7E7
330
7AE
100
AcDbEntity
  8
DEFPOINTS
 62
     0
440
 16777216
100
AcDbPoint
 10
831.5715704090241
 20
-32.76829788331787
 30
0.0
  0
POINT
  5
7E8
330
7AE
100
AcDbEntity
  8
DEFPOINTS
 62
     0
440
 16777216
100
AcDbPoint
 10
1091.571570409005
 20
-32.76829788332668
 30
0.0
  0
POINT
  5
7E9
330
7AE
100
AcDbEntity
  8
DEFPOINTS
 62
     0
440
 16777216
100
AcDbPoint
 10
1091.571570409005
 20
-185.2000652602983
 30
0.0
  0
ENDBLK
  5
7B0
330
7AE
100
AcDbEntity
  8
0
100
AcDbBlockEnd
  0
BLOCK
  5
8E9
330
8E8
100
AcDbEntity
  8
0
100
AcDbBlockBegin
  2
*D6
 70
     1
 10
0.0
 20
0.0
 30
0.0
  3
*D6
  1

  0
LINE
  5
94E
330
8E8
100
AcDbEntity
  8
AM_5
  6
ByBlock
440
 16777216
100
AcDbLine
 10
571.5715704090454
 20
-33.76829788332638
 30
0.0
 11
571.5715704090454
 21
-172.7719246649531
 31
0.0
  0
LINE
  5
94F
330
8E8
100
AcDbEntity
  8
AM_5
  6
ByBlock
440
 16777216
100
AcDbLine
 10
821.5715704090452
 20
-33.76829788332644
 30
0.0
 11
821.5715704090452
 21
-172.7719246649531
 31
0.0
  0
LINE
  5
950
330
8E8
100
AcDbEntity
  8
AM_5
  6
ByBlock
440
 16777216
100
AcDbLine
 10
631.5715704090454
 20
-171.771924664953
 30
0.0
 11
761.5715704090453
 21
-171.771924664953
 31
0.0
  0
SOLID
  5
951
330
8E8
100
AcDbEntity
  8
AM_5
440
 16777216
100
AcDbTrace
 10
631.5715704090454
 20
-161.771924664953
 30
0.0
 11
631.5715704090454
 21
-181.7719246649531
 31
0.0
 12
571.5715704090454
 22
-171.771924664953
 32
0.0
 13
571.5715704090454
 23
-171.771924664953
 33
0.0
  0
SOLID
  5
952
330
8E8
100
AcDbEntity
  8
AM_5
440
 16777216
100
AcDbTrace
 10
761.5715704090453
 20
-161.771924664953
 30
0.0
 11
761.5715704090453
 21
-181.7719246649531
 31
0.0
 12
821.5715704090452
 22
-171.771924664953
 32
0.0
 13
821.5715704090452
 23
-171.771924664953
 33
0.0
  0
MTEXT
  5
953
330
8E8
100
AcDbEntity
  8
AM_5
 62
    30
440
 16777216
100
AcDbMText
 10
696.5715704090452
 20
-140.2719246649531
 30
0.0
 40
60.0
 41
0.0
 71
     5
 72
     1
  1
250
 73
     1
 44
1.0
  0
POINT
  5
954
330
8E8
100
AcDbEntity
  8
DEFPOINTS
 62
     0
440
 16777216
100
AcDbPoint
 10
571.5715704090454
 20
-32.76829788332638
 30
0.0
  0
POINT
  5
955
330
8E8
100
AcDbEntity
  8
DEFPOINTS
 62
     0
440
 16777216
100
AcDbPoint
 10
821.5715704090452
 20
-32.76829788332644
 30
0.0
  0
POINT
  5
956
330
8E8
100
AcDbEntity
  8
DEFPOINTS
 62
     0
440
 16777216
100
AcDbPoint
 10
821.5715704090452
 20
-171.771924664953
 30
0.0
  0
ENDBLK
  5
8EA
330
8E8
100
AcDbEntity
  8
0
100
AcDbBlockEnd
  0
BLOCK
  5
92E
330
92D
100
AcDbEntity
  8
0
100
AcDbBlockBegin
  2
*D7
 70
     1
 10
0.0
 20
0.0
 30
0.0
  3
*D7
  1

  0
LINE
  5
957
330
92D
100
AcDbEntity
  8
AM_5
  6
ByBlock
440
 16777216
100
AcDbLine
 10
821.5715704090454
 20
-33.76829788332638
 30
0.0
 11
821.5715704090454
 21
-172.7719246649531
 31
0.0
  0
LINE
  5
958
330
92D
100
AcDbEntity
  8
AM_5
  6
ByBlock
440
 16777216
100
AcDbLine
 10
1071.571570409046
 20
-33.76829788332638
 30
0.0
 11
1071.571570409046
 21
-172.7719246649531
 31
0.0
  0
LINE
  5
959
330
92D
100
AcDbEntity
  8
AM_5
  6
ByBlock
440
 16777216
100
AcDbLine
 10
881.5715704090454
 20
-171.771924664953
 30
0.0
 11
1011.571570409046
 21
-171.771924664953
 31
0.0
  0
SOLID
  5
95A
330
92D
100
AcDbEntity
  8
AM_5
440
 16777216
100
AcDbTrace
 10
881.5715704090454
 20
-161.771924664953
 30
0.0
 11
881.5715704090454
 21
-181.7719246649531
 31
0.0
 12
821.5715704090454
 22
-171.771924664953
 32
0.0
 13
821.5715704090454
 23
-171.771924664953
 33
0.0
  0
SOLID
  5
95B
330
92D
100
AcDbEntity
  8
AM_5
440
 16777216
100
AcDbTrace
 10
1011.571570409046
 20
-161.771924664953
 30
0.0
 11
1011.571570409046
 21
-181.7719246649531
 31
0.0
 12
1071.571570409046
 22
-171.771924664953
 32
0.0
 13
1071.571570409046
 23
-171.771924664953
 33
0.0
  0
MTEXT
  5
95C
330
92D
100
AcDbEntity
  8
AM_5
 62
    30
440
 16777216
100
AcDbMText
 10
946.5715704090454
 20
-140.2719246649531
 30
0.0
 40
60.0
 41
0.0
 71
     5
 72
     1
  1
250
 73
     1
 44
1.0
  0
POINT
  5
95D
330
92D
100
AcDbEntity
  8
DEFPOINTS
 62
     0
440
 16777216
100
AcDbPoint
 10
821.5715704090454
 20
-32.76829788332638
 30
0.0
  0
POINT
  5
95E
330
92D
100
AcDbEntity
  8
DEFPOINTS
 62
     0
440
 16777216
100
AcDbPoint
 10
1071.571570409046
 20
-32.76829788332638
 30
0.0
  0
POINT
  5
95F
330
92D
100
AcDbEntity
  8
DEFPOINTS
 62
     0
440
 16777216
100
AcDbPoint
 10
1071.571570409046
 20
-171.771924664953
 30
0.0
  0
ENDBLK
  5
92F
330
92D
100
AcDbEntity
  8
0
100
AcDbBlockEnd
  0
BLOCK
  5
962
330
961
100
AcDbEntity
  8
0
100
AcDbBlockBegin
  2
*D8
 70
     1
 10
0.0
 20
0.0
 30
0.0
  3
*D8
  1

  0
LINE
  5
99C
330
961
100
AcDbEntity
  8
AM_5
  6
ByBlock
440
 16777216
100
AcDbLine
 10
1071.571570409046
 20
-33.76829788332638
 30
0.0
 11
1071.571570409046
 21
-172.7719246649531
 31
0.0
  0
LINE
  5
99D
330
961
100
AcDbEntity
  8
AM_5
  6
ByBlock
440
 16777216
100
AcDbLine
 10
1321.571570409046
 20
-33.76829788332638
 30
0.0
 11
1321.571570409046
 21
-172.7719246649531
 31
0.0
  0
LINE
  5
99E
330
961
100
AcDbEntity
  8
AM_5
  6
ByBlock
440
 16777216
100
AcDbLine
 10
1131.571570409046
 20
-171.771924664953
 30
0.0
 11
1261.571570409046
 21
-171.771924664953
 31
0.0
  0
SOLID
  5
99F
330
961
100
AcDbEntity
  8
AM_5
440
 16777216
100
AcDbTrace
 10
1131.571570409046
 20
-161.771924664953
 30
0.0
 11
1131.571570409046
 21
-181.7719246649531
 31
0.0
 12
1071.571570409046
 22
-171.771924664953
 32
0.0
 13
1071.571570409046
 23
-171.771924664953
 33
0.0
  0
SOLID
  5
9A0
330
961
100
AcDbEntity
  8
AM_5
440
 16777216
100
AcDbTrace
 10
1261.571570409046
 20
-161.771924664953
 30
0.0
 11
1261.571570409046
 21
-181.7719246649531
 31
0.0
 12
1321.571570409046
 22
-171.771924664953
 32
0.0
 13
1321.571570409046
 23
-171.771924664953
 33
0.0
  0
MTEXT
  5
9A1
330
961
100
AcDbEntity
  8
AM_5
 62
    30
440
 16777216
100
AcDbMText
 10
1196.571570409046
 20
-140.2719246649531
 30
0.0
 40
60.0
 41
0.0
 71
     5
 72
     1
  1
250
 73
     1
 44
1.0
  0
POINT
  5
9A2
330
961
100
AcDbEntity
  8
DEFPOINTS
 62
     0
440
 16777216
100
AcDbPoint
 10
1071.571570409046
 20
-32.76829788332638
 30
0.0
  0
POINT
  5
9A3
330
961
100
AcDbEntity
  8
DEFPOINTS
 62
     0
440
 16777216
100
AcDbPoint
 10
1321.571570409046
 20
-32.76829788332638
 30
0.0
  0
POINT
  5
9A4
330
961
100
AcDbEntity
  8
DEFPOINTS
 62
     0
440
 16777216
100
AcDbPoint
 10
1321.571570409046
 20
-171.771924664953
 30
0.0
  0
ENDBLK
  5
963
330
961
100
AcDbEntity
  8
0
100
AcDbBlockEnd
  0
BLOCK
  5
9A7
330
9A6
100
AcDbEntity
  8
0
100
AcDbBlockBegin
  2
*D9
 70
     1
 10
0.0
 20
0.0
 30
0.0
  3
*D9
  1

  0
LINE
  5
9BD
330
9A6
100
AcDbEntity
  8
AM_5
  6
ByBlock
440
 16777216
100
AcDbLine
 10
1321.571570409046
 20
-33.76829788332638
 30
0.0
 11
1321.571570409046
 21
-172.7719246649531
 31
0.0
  0
LINE
  5
9BE
330
9A6
100
AcDbEntity
  8
AM_5
  6
ByBlock
440
 16777216
100
AcDbLine
 10
1571.571570409046
 20
-33.76829788332642
 30
0.0
 11
1571.571570409046
 21
-172.7719246649531
 31
0.0
  0
LINE
  5
9BF
330
9A6
100
AcDbEntity
  8
AM_5
  6
ByBlock
440
 16777216
100
AcDbLine
 10
1381.571570409046
 20
-171.771924664953
 30
0.0
 11
1511.571570409045
 21
-171.771924664953
 31
0.0
  0
SOLID
  5
9C0
330
9A6
100
AcDbEntity
  8
AM_5
440
 16777216
100
AcDbTrace
 10
1381.571570409046
 20
-161.771924664953
 30
0.0
 11
1381.571570409046
 21
-181.7719246649531
 31
0.0
 12
1321.571570409046
 22
-171.771924664953
 32
0.0
 13
1321.571570409046
 23
-171.771924664953
 33
0.0
  0
SOLID
  5
9C1
330
9A6
100
AcDbEntity
  8
AM_5
440
 16777216
100
AcDbTrace
 10
1511.571570409045
 20
-161.771924664953
 30
0.0
 11
1511.571570409045
 21
-181.7719246649531
 31
0.0
 12
1571.571570409046
 22
-171.771924664953
 32
0.0
 13
1571.571570409046
 23
-171.771924664953
 33
0.0
  0
MTEXT
  5
9C2
330
9A6
100
AcDbEntity
  8
AM_5
 62
    30
440
 16777216
100
AcDbMText
 10
1446.571570409046
 20
-140.2719246649531
 30
0.0
 40
60.0
 41
0.0
 71
     5
 72
     1
  1
250
 73
     1
 44
1.0
  0
POINT
  5
9C3
330
9A6
100
AcDbEntity
  8
DEFPOINTS
 62
     0
440
 16777216
100
AcDbPoint
 10
1321.571570409046
 20
-32.76829788332638
 30
0.0
  0
POINT
  5
9C4
330
9A6
100
AcDbEntity
  8
DEFPOINTS
 62
     0
440
 16777216
100
AcDbPoint
 10
1571.571570409046
 20
-32.76829788332642
 30
0.0
  0
POINT
  5
9C5
330
9A6
100
AcDbEntity
  8
DEFPOINTS
 62
     0
440
 16777216
100
AcDbPoint
 10
1571.571570409046
 20
-171.771924664953
 30
0.0
  0
ENDBLK
  5
9A8
330
9A6
100
AcDbEntity
  8
0
100
AcDbBlockEnd
  0
BLOCK
  5
9C8
330
9C7
100
AcDbEntity
  8
0
100
AcDbBlockBegin
  2
*D10
 70
     1
 10
0.0
 20
0.0
 30
0.0
  3
*D10
  1

  0
LINE
  5
9DE
330
9C7
100
AcDbEntity
  8
AM_5
  6
ByBlock
440
 16777216
100
AcDbLine
 10
571.5715704090454
 20
-33.76829788332638
 30
0.0
 11
571.5715704090454
 21
-300.6257496116687
 31
0.0
  0
LINE
  5
9DF
330
9C7
100
AcDbEntity
  8
AM_5
  6
ByBlock
440
 16777216
100
AcDbLine
 10
1771.571570409045
 20
-33.76829788332638
 30
0.0
 11
1771.571570409045
 21
-300.6257496116687
 31
0.0
  0
LINE
  5
9E0
330
9C7
100
AcDbEntity
  8
AM_5
  6
ByBlock
440
 16777216
100
AcDbLine
 10
631.5715704090454
 20
-299.6257496116687
 30
0.0
 11
1711.571570409045
 21
-299.6257496116687
 31
0.0
  0
SOLID
  5
9E1
330
9C7
100
AcDbEntity
  8
AM_5
440
 16777216
100
AcDbTrace
 10
631.5715704090454
 20
-289.6257496116687
 30
0.0
 11
631.5715704090454
 21
-309.6257496116686
 31
0.0
 12
571.5715704090454
 22
-299.6257496116687
 32
0.0
 13
571.5715704090454
 23
-299.6257496116687
 33
0.0
  0
SOLID
  5
9E2
330
9C7
100
AcDbEntity
  8
AM_5
440
 16777216
100
AcDbTrace
 10
1711.571570409045
 20
-289.6257496116687
 30
0.0
 11
1711.571570409045
 21
-309.6257496116686
 31
0.0
 12
1771.571570409045
 22
-299.6257496116687
 32
0.0
 13
1771.571570409045
 23
-299.6257496116687
 33
0.0
  0
MTEXT
  5
9E3
330
9C7
100
AcDbEntity
  8
AM_5
 62
    30
440
 16777216
100
AcDbMText
 10
1171.571570409045
 20
-268.1257496116686
 30
0.0
 40
60.0
 41
0.0
 71
     5
 72
     1
  1
1200
 73
     1
 44
1.0
  0
POINT
  5
9E4
330
9C7
100
AcDbEntity
  8
DEFPOINTS
 62
     0
440
 16777216
100
AcDbPoint
 10
571.5715704090454
 20
-32.76829788332638
 30
0.0
  0
POINT
  5
9E5
330
9C7
100
AcDbEntity
  8
DEFPOINTS
 62
     0
440
 16777216
100
AcDbPoint
 10
1771.571570409045
 20
-32.76829788332638
 30
0.0
  0
POINT
  5
9E6
330
9C7
100
AcDbEntity
  8
DEFPOINTS
 62
     0
440
 16777216
100
AcDbPoint
 10
1771.571570409045
 20
-299.6257496116687
 30
0.0
  0
ENDBLK
  5
9C9
330
9C7
100
AcDbEntity
  8
0
100
AcDbBlockEnd
  0
BLOCK
  5
9E9
330
9E8
100
AcDbEntity
  8
0
100
AcDbBlockBegin
  2
*D11
 70
     1
 10
0.0
 20
0.0
 30
0.0
  3
*D11
  1

  0
LINE
  5
9FF
330
9E8
100
AcDbEntity
  8
AM_5
  6
ByBlock
440
 16777216
100
AcDbLine
 10
1772.571570409045
 20
1167.231702116674
 30
0.0
 11
2019.503153387281
 21
1167.231702116674
 31
0.0
  0
LINE
  5
A00
330
9E8
100
AcDbEntity
  8
AM_5
  6
ByBlock
440
 16777216
100
AcDbLine
 10
1772.571570409045
 20
-32.76829788332638
 30
0.0
 11
2019.503153387281
 21
-32.76829788332644
 31
0.0
  0
LINE
  5
A01
330
9E8
100
AcDbEntity
  8
AM_5
  6
ByBlock
440
 16777216
100
AcDbLine
 10
2018.503153387281
 20
1107.231702116673
 30
0.0
 11
2018.503153387281
 21
27.23170211667356
 31
0.0
  0
SOLID
  5
A02
330
9E8
100
AcDbEntity
  8
AM_5
440
 16777216
100
AcDbTrace
 10
2008.503153387281
 20
1107.231702116673
 30
0.0
 11
2028.503153387281
 21
1107.231702116673
 31
0.0
 12
2018.503153387281
 22
1167.231702116674
 32
0.0
 13
2018.503153387281
 23
1167.231702116674
 33
0.0
  0
SOLID
  5
A03
330
9E8
100
AcDbEntity
  8
AM_5
440
 16777216
100
AcDbTrace
 10
2008.503153387281
 20
27.23170211667356
 30
0.0
 11
2028.503153387281
 21
27.23170211667356
 31
0.0
 12
2018.503153387281
 22
-32.76829788332644
 32
0.0
 13
2018.503153387281
 23
-32.76829788332644
 33
0.0
  0
MTEXT
  5
A04
330
9E8
100
AcDbEntity
  8
AM_5
 62
    30
440
 16777216
100
AcDbMText
 10
1987.003153387281
 20
567.2317021166739
 30
0.0
 40
60.0
 41
0.0
 71
     5
 72
     1
  1
1200
 11
0.0000000000000001
 21
1.0
 31
0.0
 73
     1
 44
1.0
  0
POINT
  5
A05
330
9E8
100
AcDbEntity
  8
DEFPOINTS
 62
     0
440
 16777216
100
AcDbPoint
 10
1771.571570409045
 20
1167.231702116674
 30
0.0
  0
POINT
  5
A06
330
9E8
100
AcDbEntity
  8
DEFPOINTS
 62
     0
440
 16777216
100
AcDbPoint
 10
1771.571570409045
 20
-32.76829788332638
 30
0.0
  0
POINT
  5
A07
330
9E8
100
AcDbEntity
  8
DEFPOINTS
 62
     0
440
 16777216
100
AcDbPoint
 10
2018.503153387281
 20
-32.76829788332644
 30
0.0
  0
ENDBLK
  5
9EA
330
9E8
100
AcDbEntity
  8
0
100
AcDbBlockEnd
  0
BLOCK
  5
A11
330
A0C
100
AcDbEntity
  8
0
100
AcDbBlockBegin
  2
*U12
 70
     1
 10
0.0
 20
0.0
 30
0.0
  3
*U12
  1

  0
LINE
  5
A0D
102
{ACAD_REACTORS
330
A17
102
}
330
A0C
100
AcDbEntity
  8
OPISY
100
AcDbLine
 10
-566.0941551848882
 20
44.33450154309389
 30
0.0
 11
-566.0941551848882
 21
32.76829765427886
 31
0.0
  0
LINE
  5
A0E
102
{ACAD_REACTORS
330
A16
102
}
330
A0C
100
AcDbEntity
  8
OPISY
100
AcDbLine
 10
-560.6167333245476
 20
38.55139959868635
 30
0.0
 11
-571.5715770452292
 21
38.55139959868635
 31
0.0
  0
ENDBLK
  5
A12
330
A0C
100
AcDbEntity
  8
0
100
AcDbBlockEnd
  0
BLOCK
  5
A75
330
A6C
100
AcDbEntity
  8
0
100
AcDbBlockBegin
  2
*U13
 70
     1
 10
0.0
 20
0.0
 30
0.0
  3
*U13
  1

  0
LINE
  5
A6D
102
{ACAD_REACTORS
330
A7B
102
}
330
A6C
100
AcDbEntity
  8
OPISY
100
AcDbLine
 10
-2169.514122465944
 20
-717.8269618710103
 30
0.0
 11
-2169.514122465944
 21
-767.2317055832929
 31
0.0
  0
LINE
  5
A6E
102
{ACAD_REACTORS
330
A7A
102
}
330
A6C
100
AcDbEntity
  8
OPISY
100
AcDbLine
 10
-2169.514122465944
 20
-767.2317055832929
 30
0.0
 11
-2183.190521162607
 21
-753.8601485099499
 31
0.0
  0
LINE
  5
A6F
330
A6C
100
AcDbEntity
  8
OPISY
100
AcDbLine
 10
-2183.190521162607
 20
-753.8601485099499
 30
0.0
 11
-2084.664996270161
 21
-753.8601485099499
 31
0.0
  0
LINE
  5
A70
102
{ACAD_REACTORS
330
A7D
102
}
330
A6C
100
AcDbEntity
  8
OPISY
100
AcDbLine
 10
-2186.055325459045
 20
-726.3038803677302
 30
0.0
 11
-2186.055325459045
 21
-737.8700842565453
 31
0.0
  0
LINE
  5
A71
102
{ACAD_REACTORS
330
A7C
102
}
330
A6C
100
AcDbEntity
  8
OPISY
100
AcDbLine
 10
-2180.539079064633
 20
-732.0869823121377
 30
0.0
 11
-2191.571571853457
 21
-732.0869823121377
 31
0.0
  0
MTEXT
  5
A72
330
A6C
100
AcDbEntity
  8
OPISY
100
AcDbMText
 10
-2152.002714417474
 20
-719.742946477469
 30
0.0
 40
25.0
 41
146.3536665194096
 71
     1
 72
     5
  1
500
 73
     1
 44
1.0
1001
ACAD
1000
ACAD_MTEXT_COLUMN_INFO_BEGIN
1070
    75
1070
     2
1070
    79
1070
     0
1070
    76
1070
     1
1070
    78
1070
     0
1070
    48
1040
146.3536665194096
1070
    49
1040
50.0
1070
    50
1070
     1
1040
0.0
1000
ACAD_MTEXT_COLUMN_INFO_END
  0
ENDBLK
  5
A76
330
A6C
100
AcDbEntity
  8
0
100
AcDbBlockEnd
  0
BLOCK
  5
BE5
330
BE4
100
AcDbEntity
  8
0
100
AcDbBlockBegin
  2
*D14
 70
     1
 10
0.0
 20
0.0
 30
0.0
  3
*D14
  1

  0
LINE
  5
C1F
330
BE4
100
AcDbEntity
  8
AM_5
  6
ByBlock
440
 16777216
100
AcDbLine
 10
1771.571570409044
 20
-33.76829788332657
 30
0.0
 11
1771.571570409044
 21
-302.0238918425566
 31
0.0
  0
LINE
  5
C20
330
BE4
100
AcDbEntity
  8
AM_5
  6
ByBlock
440
 16777216
100
AcDbLine
 10
4171.571570409202
 20
-33.76829788337114
 30
0.0
 11
4171.571570409202
 21
-302.0238918425566
 31
0.0
  0
LINE
  5
C21
330
BE4
100
AcDbEntity
  8
AM_5
  6
ByBlock
440
 16777216
100
AcDbLine
 10
1831.571570409044
 20
-301.0238918425566
 30
0.0
 11
4111.571570409203
 21
-301.0238918425566
 31
0.0
  0
SOLID
  5
C22
330
BE4
100
AcDbEntity
  8
AM_5
440
 16777216
100
AcDbTrace
 10
1831.571570409044
 20
-291.0238918425566
 30
0.0
 11
1831.571570409044
 21
-311.0238918425566
 31
0.0
 12
1771.571570409044
 22
-301.0238918425566
 32
0.0
 13
1771.571570409044
 23
-301.0238918425566
 33
0.0
  0
SOLID
  5
C23
330
BE4
100
AcDbEntity
  8
AM_5
440
 16777216
100
AcDbTrace
 10
4111.571570409203
 20
-291.0238918425566
 30
0.0
 11
4111.571570409203
 21
-311.0238918425566
 31
0.0
 12
4171.571570409202
 22
-301.0238918425566
 32
0.0
 13
4171.571570409202
 23
-301.0238918425566
 33
0.0
  0
MTEXT
  5
C24
330
BE4
100
AcDbEntity
  8
AM_5
 62
    30
440
 16777216
100
AcDbMText
 10
2971.571570409124
 20
-269.5238918425566
 30
0.0
 40
60.0
 41
0.0
 71
     5
 72
     1
  1
2400
 73
     1
 44
1.0
  0
POINT
  5
C25
330
BE4
100
AcDbEntity
  8
DEFPOINTS
 62
     0
440
 16777216
100
AcDbPoint
 10
1771.571570409044
 20
-32.76829788332657
 30
0.0
  0
POINT
  5
C26
330
BE4
100
AcDbEntity
  8
DEFPOINTS
 62
     0
440
 16777216
100
AcDbPoint
 10
4171.571570409202
 20
-32.76829788337114
 30
0.0
  0
POINT
  5
C27
330
BE4
100
AcDbEntity
  8
DEFPOINTS
 62
     0
440
 16777216
100
AcDbPoint
 10
4171.571570409202
 20
-301.0238918425566
 30
0.0
  0
ENDBLK
  5
BE6
330
BE4
100
AcDbEntity
  8
0
100
AcDbBlockEnd
  0
BLOCK
  5
C2A
330
C29
100
AcDbEntity
  8
0
100
AcDbBlockBegin
  2
*D15
 70
     1
 10
0.0
 20
0.0
 30
0.0
  3
*D15
  1

  0
LINE
  5
C40
330
C29
100
AcDbEntity
  8
AM_5
  6
ByBlock
440
 16777216
100
AcDbLine
 10
1770.571570409045
 20
-32.76829788332634
 30
0.0
 11
1527.708937823513
 21
-32.76829788332629
 31
0.0
  0
LINE
  5
C41
330
C29
100
AcDbEntity
  8
AM_5
  6
ByBlock
440
 16777216
100
AcDbLine
 10
1770.571570409045
 20
1507.231702116674
 30
0.0
 11
1527.708937823514
 21
1507.231702116674
 31
0.0
  0
LINE
  5
C42
330
C29
100
AcDbEntity
  8
AM_5
  6
ByBlock
440
 16777216
100
AcDbLine
 10
1528.708937823513
 20
27.23170211667373
 30
0.0
 11
1528.708937823514
 21
1447.231702116674
 31
0.0
  0
SOLID
  5
C43
330
C29
100
AcDbEntity
  8
AM_5
440
 16777216
100
AcDbTrace
 10
1518.708937823513
 20
27.23170211667373
 30
0.0
 11
1538.708937823512
 21
27.23170211667373
 31
0.0
 12
1528.708937823513
 22
-32.76829788332629
 32
0.0
 13
1528.708937823513
 23
-32.76829788332629
 33
0.0
  0
SOLID
  5
C44
330
C29
100
AcDbEntity
  8
AM_5
440
 16777216
100
AcDbTrace
 10
1518.708937823514
 20
1447.231702116674
 30
0.0
 11
1538.708937823512
 21
1447.231702116674
 31
0.0
 12
1528.708937823514
 22
1507.231702116674
 32
0.0
 13
1528.708937823514
 23
1507.231702116674
 33
0.0
  0
MTEXT
  5
C45
330
C29
100
AcDbEntity
  8
AM_5
 62
    30
440
 16777216
100
AcDbMText
 10
1497.208937823512
 20
737.2317021166742
 30
0.0
 40
60.0
 41
0.0
 71
     5
 72
     1
  1
1540
 11
0.0000000000000001
 21
1.0
 31
0.0
 73
     1
 44
1.0
  0
POINT
  5
C46
330
C29
100
AcDbEntity
  8
DEFPOINTS
 62
     0
440
 16777216
100
AcDbPoint
 10
1771.571570409045
 20
-32.76829788332634
 30
0.0
  0
POINT
  5
C47
330
C29
100
AcDbEntity
  8
DEFPOINTS
 62
     0
440
 16777216
100
AcDbPoint
 10
1771.571570409045
 20
1507.231702116674
 30
0.0
  0
POINT
  5
C48
330
C29
100
AcDbEntity
  8
DEFPOINTS
 62
     0
440
 16777216
100
AcDbPoint
 10
1528.708937823514
 20
1507.231702116674
 30
0.0
  0
ENDBLK
  5
C2B
330
C29
100
AcDbEntity
  8
0
100
AcDbBlockEnd
  0
BLOCK
  5
C4B
330
C4A
100
AcDbEntity
  8
0
100
AcDbBlockBegin
  2
*D16
 70
     1
 10
0.0
 20
0.0
 30
0.0
  3
*D16
  1

  0
LINE
  5
C61
330
C4A
100
AcDbEntity
  8
AM_5
  6
ByBlock
440
 16777216
100
AcDbLine
 10
1770.571570409045
 20
-32.76829788332634
 30
0.0
 11
1246.158564610373
 21
-32.76829788332619
 31
0.0
  0
LINE
  5
C62
330
C4A
100
AcDbEntity
  8
AM_5
  6
ByBlock
440
 16777216
100
AcDbLine
 10
2335.571570409046
 20
2217.231702116674
 30
0.0
 11
1246.158564610374
 21
2217.231702116674
 31
0.0
  0
LINE
  5
C63
330
C4A
100
AcDbEntity
  8
AM_5
  6
ByBlock
440
 16777216
100
AcDbLine
 10
1247.158564610373
 20
27.23170211667381
 30
0.0
 11
1247.158564610374
 21
2157.231702116674
 31
0.0
  0
SOLID
  5
C64
330
C4A
100
AcDbEntity
  8
AM_5
440
 16777216
100
AcDbTrace
 10
1237.158564610373
 20
27.23170211667381
 30
0.0
 11
1257.158564610374
 21
27.23170211667381
 31
0.0
 12
1247.158564610373
 22
-32.76829788332619
 32
0.0
 13
1247.158564610373
 23
-32.76829788332619
 33
0.0
  0
SOLID
  5
C65
330
C4A
100
AcDbEntity
  8
AM_5
440
 16777216
100
AcDbTrace
 10
1237.158564610374
 20
2157.231702116674
 30
0.0
 11
1257.158564610374
 21
2157.231702116674
 31
0.0
 12
1247.158564610374
 22
2217.231702116674
 32
0.0
 13
1247.158564610374
 23
2217.231702116674
 33
0.0
  0
MTEXT
  5
C66
330
C4A
100
AcDbEntity
  8
AM_5
 62
    30
440
 16777216
100
AcDbMText
 10
1215.658564610373
 20
1092.231702116674
 30
0.0
 40
60.0
 41
0.0
 71
     5
 72
     1
  1
2250
 11
0.0000000000000001
 21
1.0
 31
0.0
 73
     1
 44
1.0
  0
POINT
  5
C67
330
C4A
100
AcDbEntity
  8
DEFPOINTS
 62
     0
440
 16777216
100
AcDbPoint
 10
1771.571570409045
 20
-32.76829788332634
 30
0.0
  0
POINT
  5
C68
330
C4A
100
AcDbEntity
  8
DEFPOINTS
 62
     0
440
 16777216
100
AcDbPoint
 10
2336.571570409045
 20
2217.231702116674
 30
0.0
  0
POINT
  5
C69
330
C4A
100
AcDbEntity
  8
DEFPOINTS
 62
     0
440
 16777216
100
AcDbPoint
 10
1247.158564610374
 20
2217.231702116674
 30
0.0
  0
ENDBLK
  5
C4C
330
C4A
100
AcDbEntity
  8
0
100
AcDbBlockEnd
  0
BLOCK
  5
C6C
330
C6B
100
AcDbEntity
  8
0
100
AcDbBlockBegin
  2
*D17
 70
     1
 10
0.0
 20
0.0
 30
0.0
  3
*D17
  1

  0
LINE
  5
CB2
330
C6B
100
AcDbEntity
  8
AM_5
  6
ByBlock
440
 16777216
100
AcDbLine
 10
4172.571570409044
 20
1407.231702116674
 30
0.0
 11
4382.111796058529
 21
1407.231702116674
 31
0.0
  0
LINE
  5
CB3
330
C6B
100
AcDbEntity
  8
AM_5
  6
ByBlock
440
 16777216
100
AcDbLine
 10
4172.571570409044
 20
1507.231702116674
 30
0.0
 11
4382.111796058529
 21
1507.231702116674
 31
0.0
  0
LINE
  5
CB4
330
C6B
100
AcDbEntity
  8
AM_5
  6
ByBlock
440
 16777216
100
AcDbLine
 10
4381.111796058529
 20
1347.231702116674
 30
0.0
 11
4381.111796058529
 21
1287.231702116674
 31
0.0
  0
LINE
  5
CB5
330
C6B
100
AcDbEntity
  8
AM_5
  6
ByBlock
440
 16777216
100
AcDbLine
 10
4381.111796058529
 20
1567.231702116673
 30
0.0
 11
4381.111796058529
 21
1750.231702116673
 31
0.0
  0
LINE
  5
CB6
330
C6B
100
AcDbEntity
  8
AM_5
  6
ByBlock
440
 16777216
100
AcDbLine
 10
4381.111796058529
 20
1407.231702116674
 30
0.0
 11
4381.111796058529
 21
1507.231702116674
 31
0.0
  0
SOLID
  5
CB7
330
C6B
100
AcDbEntity
  8
AM_5
440
 16777216
100
AcDbTrace
 10
4371.111796058529
 20
1347.231702116674
 30
0.0
 11
4391.111796058527
 21
1347.231702116674
 31
0.0
 12
4381.111796058529
 22
1407.231702116674
 32
0.0
 13
4381.111796058529
 23
1407.231702116674
 33
0.0
  0
SOLID
  5
CB8
330
C6B
100
AcDbEntity
  8
AM_5
440
 16777216
100
AcDbTrace
 10
4371.111796058529
 20
1567.231702116673
 30
0.0
 11
4391.111796058527
 21
1567.231702116673
 31
0.0
 12
4381.111796058529
 22
1507.231702116674
 32
0.0
 13
4381.111796058529
 23
1507.231702116674
 33
0.0
  0
MTEXT
  5
CB9
330
C6B
100
AcDbEntity
  8
AM_5
 62
    30
440
 16777216
100
AcDbMText
 10
4349.611796058527
 20
1688.731702116674
 30
0.0
 40
60.0
 41
0.0
 71
     5
 72
     1
  1
100
 11
0.0000000000000001
 21
1.0
 31
0.0
 73
     1
 44
1.0
  0
POINT
  5
CBA
330
C6B
100
AcDbEntity
  8
DEFPOINTS
 62
     0
440
 16777216
100
AcDbPoint
 10
4171.571570409044
 20
1407.231702116674
 30
0.0
  0
POINT
  5
CBB
330
C6B
100
AcDbEntity
  8
DEFPOINTS
 62
     0
440
 16777216
100
AcDbPoint
 10
4171.571570409044
 20
1507.231702116674
 30
0.0
  0
POINT
  5
CBC
330
C6B
100
AcDbEntity
  8
DEFPOINTS
 62
     0
440
 16777216
100
AcDbPoint
 10
4381.111796058529
 20
1507.231702116674
 30
0.0
  0
ENDBLK
  5
C6D
330
C6B
100
AcDbEntity
  8
0
100
AcDbBlockEnd
  0
BLOCK
  5
CBF
330
CBE
100
AcDbEntity
  8
0
100
AcDbBlockBegin
  2
*D18
 70
     1
 10
0.0
 20
0.0
 30
0.0
  3
*D18
  1

  0
LINE
  5
D6B
330
CBE
100
AcDbEntity
  8
AM_5
  6
ByBlock
440
 16777216
100
AcDbLine
 10
2336.571570409045
 20
2218.231702116673
 30
0.0
 11
2336.571570409045
 21
2412.291714469868
 31
0.0
  0
LINE
  5
D6C
330
CBE
100
AcDbEntity
  8
AM_5
  6
ByBlock
440
 16777216
100
AcDbLine
 10
2406.571570409046
 20
2218.231702116673
 30
0.0
 11
2406.571570409046
 21
2412.291714469868
 31
0.0
  0
LINE
  5
D6D
330
CBE
100
AcDbEntity
  8
AM_5
  6
ByBlock
440
 16777216
100
AcDbLine
 10
2466.571570409045
 20
2411.291714469868
 30
0.0
 11
2526.571570409045
 21
2411.291714469868
 31
0.0
  0
LINE
  5
D6E
330
CBE
100
AcDbEntity
  8
AM_5
  6
ByBlock
440
 16777216
100
AcDbLine
 10
2276.571570409045
 20
2411.291714469868
 30
0.0
 11
1989.818037741233
 21
2411.291714469868
 31
0.0
  0
LINE
  5
D6F
330
CBE
100
AcDbEntity
  8
AM_5
  6
ByBlock
440
 16777216
100
AcDbLine
 10
2406.571570409046
 20
2411.291714469868
 30
0.0
 11
2336.571570409045
 21
2411.291714469868
 31
0.0
  0
SOLID
  5
D70
330
CBE
100
AcDbEntity
  8
AM_5
440
 16777216
100
AcDbTrace
 10
2466.571570409045
 20
2421.291714469868
 30
0.0
 11
2466.571570409045
 21
2401.291714469868
 31
0.0
 12
2406.571570409046
 22
2411.291714469868
 32
0.0
 13
2406.571570409046
 23
2411.291714469868
 33
0.0
  0
SOLID
  5
D71
330
CBE
100
AcDbEntity
  8
AM_5
440
 16777216
100
AcDbTrace
 10
2276.571570409045
 20
2421.291714469868
 30
0.0
 11
2276.571570409045
 21
2401.291714469868
 31
0.0
 12
2336.571570409045
 22
2411.291714469868
 32
0.0
 13
2336.571570409045
 23
2411.291714469868
 33
0.0
  0
MTEXT
  5
D72
330
CBE
100
AcDbEntity
  8
AM_5
 62
    30
440
 16777216
100
AcDbMText
 10
2036.318037741234
 20
2442.791714469868
 30
0.0
 40
60.0
 41
0.0
 71
     5
 72
     1
  1
70
 73
     1
 44
1.0
  0
POINT
  5
D73
330
CBE
100
AcDbEntity
  8
DEFPOINTS
 62
     0
440
 16777216
100
AcDbPoint
 10
2336.571570409045
 20
2217.231702116674
 30
0.0
  0
POINT
  5
D74
330
CBE
100
AcDbEntity
  8
DEFPOINTS
 62
     0
440
 16777216
100
AcDbPoint
 10
2406.571570409046
 20
2217.231702116674
 30
0.0
  0
POINT
  5
D75
330
CBE
100
AcDbEntity
  8
DEFPOINTS
 62
     0
440
 16777216
100
AcDbPoint
 10
2406.571570409046
 20
2411.291714469868
 30
0.0
  0
ENDBLK
  5
CC0
330
CBE
100
AcDbEntity
  8
0
100
AcDbBlockEnd
  0
BLOCK
  5
D12
330
D11
100
AcDbEntity
  8
0
100
AcDbBlockBegin
  2
*D19
 70
     1
 10
0.0
 20
0.0
 30
0.0
  3
*D19
  1

  0
LINE
  5
D4C
330
D11
100
AcDbEntity
  8
AM_5
  6
ByBlock
440
 16777216
100
AcDbLine
 10
2406.571570409046
 20
2218.231702116673
 30
0.0
 11
2406.571570409046
 21
2412.561385630466
 31
0.0
  0
LINE
  5
D4D
330
D11
100
AcDbEntity
  8
AM_5
  6
ByBlock
440
 16777216
100
AcDbLine
 10
3536.571570409047
 20
2218.231702116673
 30
0.0
 11
3536.571570409047
 21
2412.561385630466
 31
0.0
  0
LINE
  5
D4E
330
D11
100
AcDbEntity
  8
AM_5
  6
ByBlock
440
 16777216
100
AcDbLine
 10
2466.571570409045
 20
2411.561385630466
 30
0.0
 11
3476.571570409046
 21
2411.561385630466
 31
0.0
  0
SOLID
  5
D4F
330
D11
100
AcDbEntity
  8
AM_5
440
 16777216
100
AcDbTrace
 10
2466.571570409045
 20
2421.561385630467
 30
0.0
 11
2466.571570409045
 21
2401.561385630467
 31
0.0
 12
2406.571570409046
 22
2411.561385630466
 32
0.0
 13
2406.571570409046
 23
2411.561385630466
 33
0.0
  0
SOLID
  5
D50
330
D11
100
AcDbEntity
  8
AM_5
440
 16777216
100
AcDbTrace
 10
3476.571570409046
 20
2421.561385630467
 30
0.0
 11
3476.571570409046
 21
2401.561385630467
 31
0.0
 12
3536.571570409047
 22
2411.561385630466
 32
0.0
 13
3536.571570409047
 23
2411.561385630466
 33
0.0
  0
MTEXT
  5
D51
330
D11
100
AcDbEntity
  8
AM_5
 62
    30
440
 16777216
100
AcDbMText
 10
2971.571570409045
 20
2443.061385630466
 30
0.0
 40
60.0
 41
0.0
 71
     5
 72
     1
  1
1130
 73
     1
 44
1.0
  0
POINT
  5
D52
330
D11
100
AcDbEntity
  8
DEFPOINTS
 62
     0
440
 16777216
100
AcDbPoint
 10
2406.571570409046
 20
2217.231702116674
 30
0.0
  0
POINT
  5
D53
330
D11
100
AcDbEntity
  8
DEFPOINTS
 62
     0
440
 16777216
100
AcDbPoint
 10
3536.571570409047
 20
2217.231702116674
 30
0.0
  0
POINT
  5
D54
330
D11
100
AcDbEntity
  8
DEFPOINTS
 62
     0
440
 16777216
100
AcDbPoint
 10
3536.571570409047
 20
2411.561385630466
 30
0.0
  0
ENDBLK
  5
D13
330
D11
100
AcDbEntity
  8
0
100
AcDbBlockEnd
  0
ENDSEC
  0
SECTION
  2
ENTITIES
  0
LWPOLYLINE
  5
BB5
102
{ACAD_XDICTIONARY
360
F67
102
}
102
{ACAD_REACTORS
330
BC0
330
BC3
330
C36
330
C57
330
C7A
102
}
330
17
100
AcDbEntity
  8
KRAWĘDZIE
100
AcDbPolyline
 90
        4
 70
     1
 43
0.0
 10
1771.571570409045
 20
-32.76829788332638
 10
4171.571570409044
 20
-32.76829788332638
 10
4171.571570409044
 20
1507.231702116674
 10
1771.571570409045
 20
1507.231702116674
1001
GENIUS_GENREC_14
1002
{
1000
PYDIR
1011
1771.571570409045
1021
1507.231702116674
1031
0.0
1002
}
1002
{
1000
PXDIR
1011
4171.571570409044
1021
-32.76829788332638
1031
0.0
1002
}
1002
{
1000
PORI
1011
1771.571570409045
1021
-32.76829788332638
1031
0.0
1002
}
1002
{
1000
PINS
1011
1771.571570409045
1021
-32.76829788332638
1031
0.0
1002
}
1002
{
1000
PINS2
1011
4171.571570409044
1021
1507.231702116674
1031
0.0
1002
}
1002
{
1000
C
1070
     1
1002
}
1001
GENIUS_GENOBJ-N-REC_13
1002
{
1000
OWNER
1000
GEN
1002
}
1001
GENIUS_GENODEF_13
1002
{
1000
HIER
1070
     0
1002
}
1002
{
1000
MANEDIT
1070
     0
1002
}
1002
{
1000
NOSEL
1070
     0
1002
}
1002
{
1000
BEHIND
1070
     0
1002
}
1002
{
1000
OTHER
1070
     0
1002
}
1002
{
1000
REACTOR
1002
}
  0
LINE
  5
BBB
102
{ACAD_REACTORS
330
BBF
330
C7A
102
}
330
17
100
AcDbEntity
  8
KRAWĘDZIE
100
AcDbLine
 10
1771.571570409045
 20
1407.231702116674
 30
0.0
 11
4171.571570409044
 21
1407.231702116674
 31
0.0
  0
LINE
  5
BC1
102
{ACAD_REACTORS
330
BC2
102
}
330
17
100
AcDbEntity
  8
KRAWĘDZIE
100
AcDbLine
 10
2371.571570409045
 20
-32.76829788332634
 30
0.0
 11
2371.571570409045
 21
1507.231702116674
 31
0.0
  0
LINE
  5
BC4
102
{ACAD_REACTORS
330
BC5
102
}
330
17
100
AcDbEntity
  8
KRAWĘDZIE
100
AcDbLine
 10
2971.571570409045
 20
-32.76829788332634
 30
0.0
 11
2971.571570409045
 21
1507.231702116674
 31
0.0
  0
LINE
  5
BC6
102
{ACAD_REACTORS
330
BC7
102
}
330
17
100
AcDbEntity
  8
KRAWĘDZIE
100
AcDbLine
 10
3571.571570409047
 20
-32.76829788332634
 30
0.0
 11
3571.571570409047
 21
1507.231702116674
 31
0.0
  0
ARC
  5
BC8
102
{ACAD_REACTORS
330
BF1
330
C57
102
}
330
17
100
AcDbEntity
  8
KRAWĘDZIE
100
AcDbCircle
 10
1309.940508831037
 20
1595.810141459031
 30
0.0
 40
1692.740668296366
100
AcDbArc
 50
285.8257235540716
 51
348.9983693662715
  0
ARC
  5
BCB
102
{ACAD_REACTORS
330
BF1
102
}
330
17
100
AcDbEntity
  8
KRAWĘDZIE
100
AcDbCircle
 10
4633.202631987052
 20
1595.810141459031
 30
0.0
 40
1692.740668296366
100
AcDbArc
 50
191.0016306337333
 51
254.1742764459339
  0
LINE
  5
BCC
102
{ACAD_REACTORS
330
BCD
102
}
330
17
100
AcDbEntity
  8
KRAWĘDZIE
100
AcDbLine
 10
2406.571570409046
 20
2217.231702116674
 30
0.0
 11
2406.571570409046
 21
1507.231702116674
 31
0.0
  0
LINE
  5
BCE
102
{ACAD_REACTORS
330
BCF
330
CCD
330
D1E
102
}
330
17
100
AcDbEntity
  8
KRAWĘDZIE
100
AcDbLine
 10
2406.571570409046
 20
2217.231702116674
 30
0.0
 11
2336.571570409045
 21
2217.231702116674
 31
0.0
  0
LINE
  5
BD2
102
{ACAD_REACTORS
330
BDE
102
}
330
17
100
AcDbEntity
  8
KRAWĘDZIE
100
AcDbLine
 10
3536.571570409047
 20
2217.231702116674
 30
0.0
 11
3536.571570409047
 21
1507.231702116674
 31
0.0
  0
LINE
  5
BD3
102
{ACAD_REACTORS
330
BDF
330
D1E
102
}
330
17
100
AcDbEntity
  8
KRAWĘDZIE
100
AcDbLine
 10
3536.571570409047
 20
2217.231702116674
 30
0.0
 11
3606.571570409045
 21
2217.231702116674
 31
0.0
  0
DIMENSION
  5
BE3
102
{ACAD_XDICTIONARY
360
BF0
102
}
102
{ACAD_REACTORS
330
BF1
102
}
330
17
100
AcDbEntity
  8
AM_5
100
AcDbDimension
  2
*D14
 10
4171.571570409202
 20
-301.0238918425566
 30
0.0
 11
2971.571570409124
 21
-269.5238918425566
 31
0.0
 70
    32
  1
<>
 71
     5
 42
2400.000000000159
  3
AM_ISO$0
100
AcDbAlignedDimension
 13
1771.571570409044
 23
-32.76829788332657
 33
0.0
 14
4171.571570409202
 24
-32.76829788337114
 34
0.0
100
AcDbRotatedDimension
1001
ACAD_DSTYLE_DIMINSPECT
1070
   396
1000
100%
1070
   395
1000

1070
   394
1070
    33
1070
   393
1070
     0
  0
DIMENSION
  5
C28
102
{ACAD_XDICTIONARY
360
C35
102
}
102
{ACAD_REACTORS
330
C36
102
}
330
17
100
AcDbEntity
  8
AM_5
100
AcDbDimension
  2
*D15
 10
1528.708937823514
 20
1507.231702116674
 30
0.0
 11
1497.208937823512
 21
737.2317021166742
 31
0.0
 70
    32
 71
     5
 42
1540.0
  3
AM_ISO$0
100
AcDbAlignedDimension
 13
1771.571570409045
 23
-32.76829788332634
 33
0.0
 14
1771.571570409045
 24
1507.231702116674
 34
0.0
 50
90.0
100
AcDbRotatedDimension
1001
ACAD_DSTYLE_DIMINSPECT
1070
   396
1000
100%
1070
   395
1000

1070
   394
1070
    33
1070
   393
1070
     0
  0
DIMENSION
  5
C49
102
{ACAD_XDICTIONARY
360
C56
102
}
102
{ACAD_REACTORS
330
C57
102
}
330
17
100
AcDbEntity
  8
AM_5
100
AcDbDimension
  2
*D16
 10
1247.158564610374
 20
2217.231702116674
 30
0.0
 11
1215.658564610373
 21
1092.231702116674
 31
0.0
 70
    32
 71
     5
 42
2250.0
  3
AM_ISO$0
100
AcDbAlignedDimension
 13
1771.571570409045
 23
-32.76829788332634
 33
0.0
 14
2336.571570409045
 24
2217.231702116674
 34
0.0
 50
90.0
100
AcDbRotatedDimension
1001
ACAD_DSTYLE_DIMINSPECT
1070
   396
1000
100%
1070
   395
1000

1070
   394
1070
    33
1070
   393
1070
     0
  0
DIMENSION
  5
C6A
102
{ACAD_XDICTIONARY
360
C79
102
}
102
{ACAD_REACTORS
330
C7A
102
}
330
17
100
AcDbEntity
  8
AM_5
100
AcDbDimension
  2
*D17
 10
4381.111796058529
 20
1507.231702116674
 30
0.0
 11
4349.611796058527
 21
1688.731702116674
 31
0.0
 70
    32
  1
<>
 71
     5
 42
99.99999999999978
  3
AM_ISO$0
100
AcDbAlignedDimension
 13
4171.571570409044
 23
1407.231702116674
 33
0.0
 14
4171.571570409044
 24
1507.231702116674
 34
0.0
 50
90.0
100
AcDbRotatedDimension
1001
ACAD_DSTYLE_DIMINSPECT
1070
   396
1000
100%
1070
   395
1000

1070
   394
1070
    33
1070
   393
1070
     0
  0
DIMENSION
  5
CBD
102
{ACAD_XDICTIONARY
360
CCC
102
}
102
{ACAD_REACTORS
330
CCD
102
}
330
17
100
AcDbEntity
  8
AM_5
100
AcDbDimension
  2
*D18
 10
2406.571570409046
 20
2411.291714469868
 30
0.0
 11
2036.318037741234
 21
2411.291714469868
 31
0.0
 70
   160
  1
<>
 71
     5
 42
70.0
  3
AM_ISO$0
100
AcDbAlignedDimension
 13
2336.571570409045
 23
2217.231702116674
 33
0.0
 14
2406.571570409046
 24
2217.231702116674
 34
0.0
100
AcDbRotatedDimension
1001
ACAD_DSTYLE_DIMINSPECT
1070
   396
1000
100%
1070
   395
1000

1070
   394
1070
    33
1070
   393
1070
     0
  0
DIMENSION
  5
D10
102
{ACAD_XDICTIONARY
360
D1D
102
}
102
{ACAD_REACTORS
330
D1E
102
}
330
17
100
AcDbEntity
  8
AM_5
100
AcDbDimension
  2
*D19
 10
3536.571570409047
 20
2411.561385630466
 30
0.0
 11
2971.571570409045
 21
2443.061385630466
 31
0.0
 70
    32
  1
<>
 71
     5
 42
1130.0
  3
AM_ISO$0
100
AcDbAlignedDimension
 13
2406.571570409046
 23
2217.231702116674
 33
0.0
 14
3536.571570409047
 24
2217.231702116674
 34
0.0
100
AcDbRotatedDimension
1001
ACAD_DSTYLE_DIMINSPECT
1070
   396
1000
100%
1070
   395
1000

1070
   394
1070
    33
1070
   393
1070
     0
  0
LINE
  5
DBF
102
{ACAD_REACTORS
330
DC0
102
}
330
17
100
AcDbEntity
  8
KRAWĘDZIE
100
AcDbLine
 10
1771.571570409045
 20
367.2317021166737
 30
0.0
 11
4171.571570409044
 21
367.2317021166735
 31
0.0
  0
LINE
  5
ED2
102
{ACAD_REACTORS
330
ED4
102
}
330
17
100
AcDbEntity
  8
KRAWĘDZIE
100
AcDbLine
 10
2336.571570409045
 20
2217.231702116674
 30
0.0
 11
2336.571570409045
 21
1507.231702116674
 31
0.0
  0
LINE
  5
ED5
102
{ACAD_REACTORS
330
ED6
102
}
330
17
100
AcDbEntity
  8
KRAWĘDZIE
100
AcDbLine
 10
3606.571570409045
 20
2217.231702116674
 30
0.0
 11
3606.571570409045
 21
1507.231702116674
 31
0.0
  0
LINE
  5
EEF
102
{ACAD_REACTORS
330
EF9
102
}
330
17
100
AcDbEntity
  8
OPISY
100
AcDbLine
 10
2680.995202575496
 20
1628.595890751784
 30
0.0
 11
2680.995202575496
 21
1480.381659614931
 31
0.0
  0
LINE
  5
EF0
102
{ACAD_REACTORS
330
EF8
102
}
330
17
100
AcDbEntity
  8
OPISY
100
AcDbLine
 10
2680.995202575496
 20
1480.381659614931
 30
0.0
 11
2639.966006485505
 21
1520.496330834962
 31
0.0
  0
LINE
  5
EF1
102
{ACAD_REACTORS
330
EFC
102
}
330
17
100
AcDbEntity
  8
OPISY
100
AcDbLine
 10
2639.966006485505
 20
1520.496330834951
 30
0.0
 11
2981.599071268814
 21
1520.496330834582
 31
0.0
  0
LINE
  5
EF2
102
{ACAD_REACTORS
330
EFB
102
}
330
17
100
AcDbEntity
  8
OPISY
100
AcDbLine
 10
2630.000654941563
 20
1603.737248364695
 30
0.0
 11
2630.000654941525
 21
1569.038636698206
 31
0.0
  0
LINE
  5
EF3
102
{ACAD_REACTORS
330
EFA
102
}
330
17
100
AcDbEntity
  8
OPISY
100
AcDbLine
 10
2645.126722596796
 20
1586.387942531434
 30
0.0
 11
2614.874587286291
 21
1586.387942531467
 31
0.0
  0
MTEXT
  5
EF4
330
17
100
AcDbEntity
  8
OPISY
100
AcDbMText
 10
2733.529426720905
 20
1622.847936932406
 30
0.0
 40
75.0
 41
146.3536665194096
 71
     1
 72
     5
  1
3000
 73
     1
 44
1.0
1001
ACAD
1000
ACAD_MTEXT_COLUMN_INFO_BEGIN
1070
    75
1070
     2
1070
    79
1070
     0
1070
    76
1070
     1
1070
    78
1070
     0
1070
    48
1040
146.3536665194096
1070
    49
1040
50.0
1070
    50
1070
     1
1040
0.0
1000
ACAD_MTEXT_COLUMN_INFO_END
  0
LINE
  5
F17
102
{ACAD_REACTORS
330
F21
102
}
330
17
100
AcDbEntity
  8
OPISY
100
AcDbLine
 10
2580.883790097947
 20
115.8015665933726
 30
0.0
 11
2580.883790097947
 21
-32.41266454348079
 31
0.0
  0
LINE
  5
F18
102
{ACAD_REACTORS
330
F20
102
}
330
17
100
AcDbEntity
  8
OPISY
100
AcDbLine
 10
2580.883790097947
 20
-32.41266454348079
 30
0.0
 11
2539.854594007957
 21
7.702006676550809
 31
0.0
  0
LINE
  5
F19
102
{ACAD_REACTORS
330
F24
102
}
330
17
100
AcDbEntity
  8
OPISY
100
AcDbLine
 10
2539.854594007957
 20
7.702006676539895
 30
0.0
 11
2698.682824432032
 21
7.702006676368455
 31
0.0
  0
LINE
  5
F1A
102
{ACAD_REACTORS
330
F23
102
}
330
17
100
AcDbEntity
  8
OPISY
100
AcDbLine
 10
2529.889242464014
 20
90.94292420628335
 30
0.0
 11
2529.889242463977
 21
56.24431253979492
 31
0.0
  0
LINE
  5
F1B
102
{ACAD_REACTORS
330
F22
102
}
330
17
100
AcDbEntity
  8
OPISY
100
AcDbLine
 10
2545.015310119248
 20
73.59361837302277
 30
0.0
 11
2514.763174808742
 21
73.5936183730555
 31
0.0
  0
MTEXT
  5
F1C
330
17
100
AcDbEntity
  8
OPISY
100
AcDbMText
 10
2633.418014243356
 20
110.0536127739942
 30
0.0
 40
75.0
 41
146.3536665194096
 71
     1
 72
     5
  1
0
 73
     1
 44
1.0
1001
ACAD
1000
ACAD_MTEXT_COLUMN_INFO_BEGIN
1070
    75
1070
     2
1070
    79
1070
     0
1070
    76
1070
     1
1070
    78
1070
     0
1070
    48
1040
146.3536665194096
1070
    49
1040
50.0
1070
    50
1070
     1
1040
0.0
1000
ACAD_MTEXT_COLUMN_INFO_END
  0
VIEWPORT
  5
122
330
14
100
AcDbEntity
 67
     1
  8
0
100
AcDbViewport
 10
0.0
 20
0.0
 30
0.0
 40
0.0
 41
0.0
 68
     1
 69
     1
 12
0.0
 22
0.0
 13
0.0
 23
0.0
 14
10.0
 24
10.0
 15
10.0
 25
10.0
 16
0.0
 26
0.0
 36
1.0
 17
0.0
 27
0.0
 37
0.0
 42
50.0
 43
0.0
 44
0.0
 45
0.0
 50
0.0
 51
0.0
 72
   100
 90
    32800
  1

281
     0
 71
     1
 74
     0
110
0.0
120
0.0
130
0.0
111
1.0
121
0.0
131
0.0
112
0.0
122
1.0
132
0.0
 79
     0
146
0.0
170
     0
1001
GENIUS_GENOBJ-N-SDF_13
1002
{
1000
OWNER
1000
GEN
1002
}
1001
GENIUS_GENODEF_13
1002
{
1000
HIER
1070
     0
1002
}
1002
{
1000
MANEDIT
1070
     0
1002
}
1002
{
1000
NOSEL
1070
     0
1002
}
1002
{
1000
BEHIND
1070
     0
1002
}
1002
{
1000
OTHER
1070
     0
1002
}
1002
{
1000
REACTOR
1002
}
1001
GENIUS_GENSCREG_15
1000
PF
1040
1.0
1000
DF
1040
1.0
1000
MIN
1011
0.0
1021
0.0
1031
0.0
1000
MAX
1011
0.0
1021
0.0
1031
0.0
1000
FLAGS
1070
     4
  0
VIEWPORT
  5
124
330
14
100
AcDbEntity
 67
     1
  8
KRAWĘDZIE
100
AcDbViewport
 10
0.0
 20
0.0
 30
0.0
 40
0.0
 41
0.0
 68
     2
 69
     2
 12
185.798530530182
 22
113.6074350738232
 13
0.0
 23
0.0
 14
0.5
 24
0.5
 15
10.0
 25
10.0
 16
0.0
 26
0.0
 36
1.0
 17
0.0
 27
0.0
 37
0.0
 42
50.0
 43
0.0
 44
0.0
 45
274.5007467530536
 50
0.0
 51
0.0
 72
   100
 90
    33632
  1

281
     0
 71
     1
 74
     0
110
0.0
120
0.0
130
0.0
111
1.0
121
0.0
131
0.0
112
0.0
122
1.0
132
0.0
 79
     0
146
0.0
170
     0
1001
GENIUS_GENOBJ-N-SDF_13
1002
{
1000
OWNER
1000
GEN
1002
}
1001
GENIUS_GENODEF_13
1002
{
1000
HIER
1070
     0
1002
}
1002
{
1000
MANEDIT
1070
     0
1002
}
1002
{
1000
NOSEL
1070
     0
1002
}
1002
{
1000
BEHIND
1070
     0
1002
}
1002
{
1000
OTHER
1070
     0
1002
}
1002
{
1000
REACTOR
1002
}
1001
GENIUS_GENSCREG_15
1000
PF
1040
1.0
1000
DF
1040
1.0
1000
MIN
1011
0.0
1021
0.0
1031
0.0
1000
MAX
1011
0.0
1021
0.0
1031
0.0
1000
FLAGS
1070
     4
  0
ENDSEC
  0
SECTION
  2
OBJECTS
  0
DICTIONARY
  5
C
330
0
100
AcDbDictionary
281
     1
  3
ACAD_2007HEADERVARS_RT
350
F31
  3
ACAD_ASSOCNETWORK
350
832
  3
ACAD_COLOR
350
199
  3
ACAD_GROUP
350
D
  3
ACAD_LAYOUT
350
C8
  3
ACAD_MATERIAL
350
167
  3
ACAD_MLEADERSTYLE
350
1AE
  3
ACAD_MLINESTYLE
350
1A
  3
ACAD_PLOTSETTINGS
350
C9
  3
ACAD_PLOTSTYLENAME
350
C6
  3
ACAD_SCALELIST
350
19C
  3
ACAD_TABLESTYLE
350
19A
  3
ACAD_VISUALSTYLE
350
180
  3
ACDB_RECOMPOSE_DATA
350
F30
  3
ACDBVARIABLEDICTIONARY
350
2B
  3
AcmDictionary
350
202
  3
AMG
350
1B4
  3
AMGSNAPSETTINGS
350
246
  0
DICTIONARY
  5
25F
330
2
100
AcDbDictionary
280
     1
281
     1
  3
ACAD_LAYERSTATES
360
260
  0
DICTIONARY
  5
24E
330
E
100
AcDbDictionary
280
     1
281
     1
  3
ADSK_XREC_LAYER_RECONCILED
360
24F
  0
DICTIONARY
  5
250
330
22
100
AcDbDictionary
280
     1
281
     1
  3
ADSK_XREC_LAYER_RECONCILED
360
251
  0
DICTIONARY
  5
252
330
23
100
AcDbDictionary
280
     1
281
     1
  3
ADSK_XREC_LAYER_RECONCILED
360
253
  0
DICTIONARY
  5
254
330
24
100
AcDbDictionary
280
     1
281
     1
  3
ADSK_XREC_LAYER_RECONCILED
360
255
  0
DICTIONARY
  5
256
330
25
100
AcDbDictionary
280
     1
281
     1
  3
ADSK_XREC_LAYER_RECONCILED
360
257
  0
DICTIONARY
  5
258
330
26
100
AcDbDictionary
280
     1
281
     1
  3
ADSK_XREC_LAYER_RECONCILED
360
259
  0
DICTIONARY
  5
25A
330
10B
100
AcDbDictionary
280
     1
281
     1
  3
ADSK_XREC_LAYER_RECONCILED
360
25B
  0
DICTIONARY
  5
473
330
17
100
AcDbDictionary
280
     1
281
     1
  3
ACAD_ASSOCNETWORK
360
BBC
  3
ACAD_SORTENTS
360
671
  0
DICTIONARY
  5
A0F
330
A0C
100
AcDbDictionary
280
     1
281
     1
  3
ACAD_ASSOCNETWORK
360
A18
  3
ACAD_SORTENTS
360
A10
  3
AcDbDynamicBlockRoundTripPurgePreventer
360
E5B
  0
DICTIONARY
  5
A73
330
A6C
100
AcDbDictionary
280
     1
281
     1
  3
ACAD_ASSOCNETWORK
360
A7E
  3
ACAD_SORTENTS
360
A74
  3
AcDbDynamicBlockRoundTripPurgePreventer
360
E5C
  0
DICTIONARY
  5
F67
330
BB5
100
AcDbDictionary
280
     1
281
     1
  3
ACAD_XREC_ROUNDTRIP
360
F68
  0
DICTIONARY
  5
BF0
330
BE3
100
AcDbDictionary
280
     1
281
     1
  3
ACAD_DIMASSOC
360
BF1
  0
DICTIONARY
  5
C35
330
C28
100
AcDbDictionary
280
     1
281
     1
  3
ACAD_DIMASSOC
360
C36
  0
DICTIONARY
  5
C56
330
C49
100
AcDbDictionary
280
     1
281
     1
  3
ACAD_DIMASSOC
360
C57
  0
DICTIONARY
  5
C79
330
C6A
100
AcDbDictionary
280
     1
281
     1
  3
ACAD_DIMASSOC
360
C7A
  0
DICTIONARY
  5
CCC
330
CBD
100
AcDbDictionary
280
     1
281
     1
  3
ACAD_DIMASSOC
360
CCD
  0
DICTIONARY
  5
D1D
330
D10
100
AcDbDictionary
280
     1
281
     1
  3
ACAD_DIMASSOC
360
D1E
  0
DICTIONARY
  5
F31
102
{ACAD_REACTORS
330
C
102
}
330
C
100
AcDbDictionary
281
     1
  3
DIMARCSYM
350
F32
  3
DIMLTEX1
350
F34
  3
DIMLTEX2
350
F35
  3
DIMLTYPE
350
F33
  0
DICTIONARY
  5
832
102
{ACAD_REACTORS
330
C
102
}
330
C
100
AcDbDictionary
281
     1
  3
ACAD_ASSOCNETWORK
350
833
  0
DICTIONARY
  5
199
102
{ACAD_REACTORS
330
C
102
}
330
C
100
AcDbDictionary
281
     1
  0
DICTIONARY
  5
D
102
{ACAD_REACTORS
330
C
102
}
330
C
100
AcDbDictionary
281
     1
  0
DICTIONARY
  5
C8
102
{ACAD_REACTORS
330
C
102
}
330
C
100
AcDbDictionary
281
     1
  3
Arkusz1
350
CB
  3
Model
350
CA
  0
DICTIONARY
  5
167
102
{ACAD_REACTORS
330
C
102
}
330
C
100
AcDbDictionary
281
     1
  3
ByBlock
350
170
  3
ByLayer
350
168
  3
Global
350
178
  0
DICTIONARY
  5
1AE
102
{ACAD_REACTORS
330
C
102
}
330
C
100
AcDbDictionary
281
     1
  3
Standard
350
1AF
  0
DICTIONARY
  5
1A
102
{ACAD_REACTORS
330
C
102
}
330
C
100
AcDbDictionary
281
     1
  3
STANDARD
350
1B
  0
DICTIONARY
  5
C9
102
{ACAD_REACTORS
330
C
102
}
330
C
100
AcDbDictionary
281
     1
  0
ACDBDICTIONARYWDFLT
  5
C6
102
{ACAD_REACTORS
330
C
102
}
330
C
100
AcDbDictionary
281
     1
  3
Normal
350
C7
100
AcDbDictionaryWithDefault
340
C7
  0
DICTIONARY
  5
19C
102
{ACAD_REACTORS
330
C
102
}
330
C
100
AcDbDictionary
281
     1
  3
A0
350
19D
  3
A1
350
19E
  3
A2
350
19F
  3
A3
350
1A0
  3
A4
350
1A1
  3
A5
350
1A2
  3
A6
350
1A3
  3
A7
350
1A4
  3
A8
350
1A5
  3
A9
350
1A6
  3
B0
350
1A7
  3
B1
350
1A8
  3
B2
350
1A9
  3
B3
350
1AA
  3
B4
350
1AB
  3
B5
350
1AC
  3
B6
350
1AD
  0
DICTIONARY
  5
19A
102
{ACAD_REACTORS
330
C
102
}
330
C
100
AcDbDictionary
281
     1
  3
Standard
350
19B
  0
DICTIONARY
  5
180
102
{ACAD_REACTORS
330
C
102
}
330
C
100
AcDbDictionary
281
     1
  3
2dWireframe
350
186
  3
Basic
350
185
  3
Brighten
350
18C
  3
ColorChange
350
190
  3
Conceptual
350
189
  3
Dim
350
18B
  3
EdgeColorOff
350
198
  3
Facepattern
350
18F
  3
Flat
350
181
  3
FlatWithEdges
350
182
  3
Gouraud
350
183
  3
GouraudWithEdges
350
184
  3
Hidden
350
188
  3
JitterOff
350
196
  3
Linepattern
350
18E
  3
OverhangOff
350
197
  3
Realistic
350
18A
  3
Shaded
350
195
  3
Shaded with edges
350
194
  3
Shades of Gray
350
191
  3
Sketchy
350
192
  3
Thicken
350
18D
  3
Wireframe
350
187
  3
X-Ray
350
193
  0
XRECORD
  5
F30
102
{ACAD_REACTORS
330
C
102
}
330
C
100
AcDbXrecord
280
     1
 90
        1
330
19B
330
A72
330
EF4
330
F1C
  0
DICTIONARY
  5
2B
102
{ACAD_REACTORS
330
C
102
}
330
C
100
AcDbDictionary
281
     1
  3
CANNOSCALE
350
52A
  3
CMLEADERSTYLE
350
528
  3
CTABLESTYLE
350
527
  3
DIMADEC
350
2C
  3
DIMASSOC
350
D0
  3
LAYEREVAL
350
52C
  3
LAYERNOTIFY
350
52D
  3
LIGHTINGUNITS
350
52B
  3
MSLTSCALE
350
529
  3
XCLIPFRAME
350
F2E
  0
DICTIONARY
  5
202
102
{ACAD_REACTORS
330
C
102
}
330
C
100
AcDbDictionary
281
     1
  3
AcmStdDictionary
350
20D
  0
DICTIONARY
  5
1B4
102
{ACAD_REACTORS
330
C
102
}
330
C
100
AcDbDictionary
281
     1
  0
DICTIONARY
  5
246
102
{ACAD_REACTORS
330
C
102
}
330
C
100
AcDbDictionary
281
     1
  0
DICTIONARY
  5
260
102
{ACAD_REACTORS
330
25F
102
}
330
25F
100
AcDbDictionary
281
     1
  0
XRECORD
  5
24F
102
{ACAD_REACTORS
330
24E
102
}
330
24E
100
AcDbXrecord
280
     1
290
     1
  0
XRECORD
  5
251
102
{ACAD_REACTORS
330
250
102
}
330
250
100
AcDbXrecord
280
     1
290
     1
  0
XRECORD
  5
253
102
{ACAD_REACTORS
330
252
102
}
330
252
100
AcDbXrecord
280
     1
290
     1
  0
XRECORD
  5
255
102
{ACAD_REACTORS
330
254
102
}
330
254
100
AcDbXrecord
280
     1
290
     1
  0
XRECORD
  5
257
102
{ACAD_REACTORS
330
256
102
}
330
256
100
AcDbXrecord
280
     1
290
     1
  0
XRECORD
  5
259
102
{ACAD_REACTORS
330
258
102
}
330
258
100
AcDbXrecord
280
     1
290
     1
  0
XRECORD
  5
25B
102
{ACAD_REACTORS
330
25A
102
}
330
25A
100
AcDbXrecord
280
     1
290
     1
  0
DICTIONARY
  5
BBC
102
{ACAD_REACTORS
330
473
102
}
330
473
100
AcDbDictionary
281
     1
  3
ACAD_ASSOCNETWORK
350
BBD
  0
SORTENTSTABLE
  5
671
102
{ACAD_REACTORS
330
473
102
}
330
473
100
AcDbSortentsTable
330
17
  0
DICTIONARY
  5
A18
102
{ACAD_REACTORS
330
A0F
102
}
330
A0F
100
AcDbDictionary
281
     1
  3
ACAD_ASSOCNETWORK
350
A19
  0
SORTENTSTABLE
  5
A10
102
{ACAD_REACTORS
330
A0F
102
}
330
A0F
100
AcDbSortentsTable
330
A0C
  0
ACDB_DYNAMICBLOCKPURGEPREVENTER_VERSION
  5
E5B
102
{ACAD_REACTORS
330
A0F
102
}
330
A0F
100
AcDbDynamicBlockPurgePreventer
 70
     1
  0
DICTIONARY
  5
A7E
102
{ACAD_REACTORS
330
A73
102
}
330
A73
100
AcDbDictionary
281
     1
  3
ACAD_ASSOCNETWORK
350
A7F
  0
SORTENTSTABLE
  5
A74
102
{ACAD_REACTORS
330
A73
102
}
330
A73
100
AcDbSortentsTable
330
A6C
  0
ACDB_DYNAMICBLOCKPURGEPREVENTER_VERSION
  5
E5C
102
{ACAD_REACTORS
330
A73
102
}
330
A73
100
AcDbDynamicBlockPurgePreventer
 70
     1
  0
XRECORD
  5
F68
102
{ACAD_REACTORS
330
F67
102
}
330
F67
100
AcDbXrecord
280
     1
102
VERTEXIDENTIFIER
310
050000000A0000000B0000000800000009000000
  0
DIMASSOC
  5
BF1
102
{ACAD_REACTORS
330
BF0
102
}
330
BF0
100
AcDbDimAssoc
330
BE3
 90
        3
 70
     0
 71
     0
  1
AcDbOsnapPointRef
 72
    13
331
BC8
 73
     0
 91
        0
 40
0.0
 10
0.0
 20
0.0
 30
2.000000000000000E+50
 75
     0
  1
AcDbOsnapPointRef
 72
     1
331
BCB
 73
     0
 91
        0
 40
0.0
 10
0.0
 20
0.0
 30
2.000000000000000E+50
 75
     0
  0
DIMASSOC
  5
C36
102
{ACAD_REACTORS
330
C35
102
}
330
C35
100
AcDbDimAssoc
330
C28
 90
        3
 70
     0
 71
     0
  1
AcDbOsnapPointRef
 72
    13
331
BB5
 73
     2
 91
        1
 40
0.0
 10
0.0
 20
0.0
 30
2.000000000000000E+50
 75
     0
  1
AcDbOsnapPointRef
 72
     1
331
BB5
 73
     2
 91
        3
 40
0.0
 10
0.0
 20
0.0
 30
2.000000000000000E+50
 75
     0
  0
DIMASSOC
  5
C57
102
{ACAD_REACTORS
330
C56
102
}
330
C56
100
AcDbDimAssoc
330
C49
 90
        1
 70
     0
 71
     0
  1
AcDbOsnapPointRef
 72
     6
331
BB5
 73
     2
 91
        4
 40
1.0
 10
0.0
 20
0.0
 30
0.0
332
BC8
 74
     0
 92
        0
 75
     0
  0
DIMASSOC
  5
C7A
102
{ACAD_REACTORS
330
C79
102
}
330
C79
100
AcDbDimAssoc
330
C6A
 90
        3
 70
     0
 71
     0
  1
AcDbOsnapPointRef
 72
     1
331
BBB
 73
     0
 91
        0
 40
0.0
 10
0.0
 20
0.0
 30
2.000000000000000E+50
 75
     0
  1
AcDbOsnapPointRef
 72
     1
331
BB5
 73
     2
 91
        2
 40
0.0
 10
0.0
 20
0.0
 30
2.000000000000000E+50
 75
     0
  0
DIMASSOC
  5
CCD
102
{ACAD_REACTORS
330
CCC
102
}
330
CCC
100
AcDbDimAssoc
330
CBD
 90
        2
 70
     0
 71
     0
  1
AcDbOsnapPointRef
 72
    13
331
BCE
 73
     0
 91
        0
 40
0.0
 10
0.0
 20
0.0
 30
2.000000000000000E+50
 75
     0
  0
DIMASSOC
  5
D1E
102
{ACAD_REACTORS
330
D1D
102
}
330
D1D
100
AcDbDimAssoc
330
D10
 90
        3
 70
     0
 71
     0
  1
AcDbOsnapPointRef
 72
    13
331
BCE
 73
     0
 91
        0
 40
0.0
 10
0.0
 20
0.0
 30
2.000000000000000E+50
 75
     0
  1
AcDbOsnapPointRef
 72
    13
331
BD3
 73
     0
 91
        0
 40
0.0
 10
0.0
 20
0.0
 30
2.000000000000000E+50
 75
     0
  0
XRECORD
  5
F32
102
{ACAD_REACTORS
330
F31
102
}
330
F31
100
AcDbXrecord
280
     1
 70
     1
  0
XRECORD
  5
F34
102
{ACAD_REACTORS
330
F31
102
}
330
F31
100
AcDbXrecord
280
     1
340
11
  0
XRECORD
  5
F35
102
{ACAD_REACTORS
330
F31
102
}
330
F31
100
AcDbXrecord
280
     1
340
11
  0
XRECORD
  5
F33
102
{ACAD_REACTORS
330
F31
102
}
330
F31
100
AcDbXrecord
280
     1
340
11
  0
ACDBASSOCNETWORK
  5
833
102
{ACAD_REACTORS
330
832
102
}
330
832
100
AcDbAssocAction
 90
        1
 90
        0
330
0
360
0
 90
        0
 90
        0
 90
        0
100
AcDbAssocNetwork
 90
        0
 90
        8
 90
        3
330
A19
330
A7F
330
BBD
 90
        0
  0
LAYOUT
  5
CB
102
{ACAD_REACTORS
330
C8
102
}
330
C8
100
AcDbPlotSettings
  1

  2
Acrobat Distiller
  4

  6

 40
0.0
 41
0.0
 42
0.0
 43
0.0
 44
0.0
 45
0.0
 46
0.0
 47
0.0
 48
0.0
 49
0.0
140
0.0
141
0.0
142
1.0
143
1.0
 70
   688
 72
     0
 73
     1
 74
     1
  7

 75
     0
147
1.0
 76
     0
 77
     2
 78
   300
148
0.0
149
0.0
100
AcDbLayout
  1
Arkusz1
 70
     1
 71
     1
 10
0.0
 20
0.0
 11
0.0
 21
0.0
 12
0.0
 22
0.0
 32
0.0
 14
0.0
 24
0.0
 34
0.0
 15
0.0
 25
0.0
 35
0.0
146
0.0
 13
0.0
 23
0.0
 33
0.0
 16
1.0
 26
0.0
 36
0.0
 17
0.0
 27
1.0
 37
0.0
 76
     0
330
14
331
122
  0
LAYOUT
  5
CA
102
{ACAD_XDICTIONARY
360
265
102
}
102
{ACAD_REACTORS
330
C8
102
}
330
C8
100
AcDbPlotSettings
  1

  2
Acrobat Distiller
  4

  6

 40
0.0
 41
0.0
 42
0.0
 43
0.0
 44
0.0
 45
0.0
 46
0.0
 47
0.0
 48
0.0
 49
0.0
140
0.0
141
0.0
142
1.0
143
1.0
 70
  1712
 72
     0
 73
     0
 74
     0
  7

 75
     0
147
1.0
 76
     0
 77
     2
 78
   300
148
0.0
149
0.0
100
AcDbLayout
  1
Model
 70
     1
 71
     0
 10
0.0
 20
0.0
 11
12.0
 21
9.0
 12
0.0
 22
0.0
 32
0.0
 14
0.0
 24
0.0
 34
0.0
 15
0.0
 25
0.0
 35
0.0
146
0.0
 13
0.0
 23
0.0
 33
0.0
 16
1.0
 26
0.0
 36
0.0
 17
0.0
 27
1.0
 37
0.0
 76
     0
330
17
331
165
  0
MATERIAL
  5
170
102
{ACAD_XDICTIONARY
360
171
102
}
102
{ACAD_REACTORS
330
167
102
}
330
167
100
AcDbMaterial
  1
ByBlock
 72
     0
 43
0.0208333333333333
 43
0.0
 43
0.0
 43
0.0
 43
0.0
 43
0.0208333333333333
 43
0.0
 43
0.0
 43
0.0
 43
0.0
 43
1.0
 43
0.0
 43
0.0
 43
0.0
 43
0.0
 43
1.0
 77
     0
 47
0.0208333333333333
 47
0.0
 47
0.0
 47
0.0
 47
0.0
 47
0.0208333333333333
 47
0.0
 47
0.0
 47
0.0
 47
0.0
 47
1.0
 47
0.0
 47
0.0
 47
0.0
 47
0.0
 47
1.0
171
     0
 49
0.0208333333333333
 49
0.0
 49
0.0
 49
0.0
 49
0.0
 49
0.0208333333333333
 49
0.0
 49
0.0
 49
0.0
 49
0.0
 49
1.0
 49
0.0
 49
0.0
 49
0.0
 49
0.0
 49
1.0
175
     0
142
0.0208333333333333
142
0.0
142
0.0
142
0.0
142
0.0
142
0.0208333333333333
142
0.0
142
0.0
142
0.0
142
0.0
142
1.0
142
0.0
142
0.0
142
0.0
142
0.0
142
1.0
179
     0
144
0.0208333333333333
144
0.0
144
0.0
144
0.0
144
0.0
144
0.0208333333333333
144
0.0
144
0.0
144
0.0
144
0.0
144
1.0
144
0.0
144
0.0
144
0.0
144
0.0
144
1.0
147
0.0208333333333333
147
0.0
147
0.0
147
0.0
147
0.0
147
0.0208333333333333
147
0.0
147
0.0
147
0.0
147
0.0
147
1.0
147
0.0
147
0.0
147
0.0
147
0.0
147
1.0
  0
MATERIAL
  5
168
102
{ACAD_XDICTIONARY
360
169
102
}
102
{ACAD_REACTORS
330
167
102
}
330
167
100
AcDbMaterial
  1
ByLayer
 72
     0
 43
0.0208333333333333
 43
0.0
 43
0.0
 43
0.0
 43
0.0
 43
0.0208333333333333
 43
0.0
 43
0.0
 43
0.0
 43
0.0
 43
1.0
 43
0.0
 43
0.0
 43
0.0
 43
0.0
 43
1.0
 77
     0
 47
0.0208333333333333
 47
0.0
 47
0.0
 47
0.0
 47
0.0
 47
0.0208333333333333
 47
0.0
 47
0.0
 47
0.0
 47
0.0
 47
1.0
 47
0.0
 47
0.0
 47
0.0
 47
0.0
 47
1.0
171
     0
 49
0.0208333333333333
 49
0.0
 49
0.0
 49
0.0
 49
0.0
 49
0.0208333333333333
 49
0.0
 49
0.0
 49
0.0
 49
0.0
 49
1.0
 49
0.0
 49
0.0
 49
0.0
 49
0.0
 49
1.0
175
     0
142
0.0208333333333333
142
0.0
142
0.0
142
0.0
142
0.0
142
0.0208333333333333
142
0.0
142
0.0
142
0.0
142
0.0
142
1.0
142
0.0
142
0.0
142
0.0
142
0.0
142
1.0
179
     0
144
0.0208333333333333
144
0.0
144
0.0
144
0.0
144
0.0
144
0.0208333333333333
144
0.0
144
0.0
144
0.0
144
0.0
144
1.0
144
0.0
144
0.0
144
0.0
144
0.0
144
1.0
147
0.0208333333333333
147
0.0
147
0.0
147
0.0
147
0.0
147
0.0208333333333333
147
0.0
147
0.0
147
0.0
147
0.0
147
1.0
147
0.0
147
0.0
147
0.0
147
0.0
147
1.0
  0
MATERIAL
  5
178
102
{ACAD_XDICTIONARY
360
179
102
}
102
{ACAD_REACTORS
330
167
102
}
330
167
100
AcDbMaterial
  1
Global
 72
     0
 43
0.0208333333333333
 43
0.0
 43
0.0
 43
0.0
 43
0.0
 43
0.0208333333333333
 43
0.0
 43
0.0
 43
0.0
 43
0.0
 43
1.0
 43
0.0
 43
0.0
 43
0.0
 43
0.0
 43
1.0
 77
     0
 47
0.0208333333333333
 47
0.0
 47
0.0
 47
0.0
 47
0.0
 47
0.0208333333333333
 47
0.0
 47
0.0
 47
0.0
 47
0.0
 47
1.0
 47
0.0
 47
0.0
 47
0.0
 47
0.0
 47
1.0
171
     0
 49
0.0208333333333333
 49
0.0
 49
0.0
 49
0.0
 49
0.0
 49
0.0208333333333333
 49
0.0
 49
0.0
 49
0.0
 49
0.0
 49
1.0
 49
0.0
 49
0.0
 49
0.0
 49
0.0
 49
1.0
175
     0
142
0.0208333333333333
142
0.0
142
0.0
142
0.0
142
0.0
142
0.0208333333333333
142
0.0
142
0.0
142
0.0
142
0.0
142
1.0
142
0.0
142
0.0
142
0.0
142
0.0
142
1.0
179
     0
144
0.0208333333333333
144
0.0
144
0.0
144
0.0
144
0.0
144
0.0208333333333333
144
0.0
144
0.0
144
0.0
144
0.0
144
1.0
144
0.0
144
0.0
144
0.0
144
0.0
144
1.0
147
0.0208333333333333
147
0.0
147
0.0
147
0.0
147
0.0
147
0.0208333333333333
147
0.0
147
0.0
147
0.0
147
0.0
147
1.0
147
0.0
147
0.0
147
0.0
147
0.0
147
1.0
  0
MLEADERSTYLE
  5
1AF
102
{ACAD_REACTORS
330
1AE
102
}
330
1AE
100
AcDbMLeaderStyle
170
     2
171
     1
172
     0
 90
        2
 40
0.0
 41
0.0
173
     1
 91
-1056964608
340
11
 92
       -2
290
     1
 42
2.0
291
     1
 43
0.36
  3
Standard
 44
4.0
300

342
F
174
     1
178
     6
175
     1
176
     0
 93
-1056964608
 45
4.0
292
     0
297
     0
 46
4.0
 94
-1056964608
 47
1.0
 49
1.0
140
1.0
293
     1
141
0.0
294
     1
177
     0
142
1.0
295
     0
296
     0
143
0.125
1001
ACAD_MLEADERVER
1070
     2
  0
MLINESTYLE
  5
1B
102
{ACAD_REACTORS
330
1A
102
}
330
1A
100
AcDbMlineStyle
  2
STANDARD
 70
     0
  3

 62
   256
 51
90.0
 52
90.0
 71
     2
 49
0.5
 62
   256
  6
BYLAYER
 49
-0.5
 62
   256
  6
BYLAYER
  0
ACDBPLACEHOLDER
  5
C7
102
{ACAD_REACTORS
330
C6
102
}
330
C6
  0
SCALE
  5
19D
102
{ACAD_REACTORS
330
19C
102
}
330
19C
100
AcDbScale
 70
     0
300
1:1
140
1.0
141
1.0
290
     1
  0
SCALE
  5
19E
102
{ACAD_REACTORS
330
19C
102
}
330
19C
100
AcDbScale
 70
     0
300
1:2
140
1.0
141
2.0
290
     0
  0
SCALE
  5
19F
102
{ACAD_REACTORS
330
19C
102
}
330
19C
100
AcDbScale
 70
     0
300
1:4
140
1.0
141
4.0
290
     0
  0
SCALE
  5
1A0
102
{ACAD_REACTORS
330
19C
102
}
330
19C
100
AcDbScale
 70
     0
300
1:5
140
1.0
141
5.0
290
     0
  0
SCALE
  5
1A1
102
{ACAD_REACTORS
330
19C
102
}
330
19C
100
AcDbScale
 70
     0
300
1:8
140
1.0
141
8.0
290
     0
  0
SCALE
  5
1A2
102
{ACAD_REACTORS
330
19C
102
}
330
19C
100
AcDbScale
 70
     0
300
1:10
140
1.0
141
10.0
290
     0
  0
SCALE
  5
1A3
102
{ACAD_REACTORS
330
19C
102
}
330
19C
100
AcDbScale
 70
     0
300
1:16
140
1.0
141
16.0
290
     0
  0
SCALE
  5
1A4
102
{ACAD_REACTORS
330
19C
102
}
330
19C
100
AcDbScale
 70
     0
300
1:20
140
1.0
141
20.0
290
     0
  0
SCALE
  5
1A5
102
{ACAD_REACTORS
330
19C
102
}
330
19C
100
AcDbScale
 70
     0
300
1:30
140
1.0
141
30.0
290
     0
  0
SCALE
  5
1A6
102
{ACAD_REACTORS
330
19C
102
}
330
19C
100
AcDbScale
 70
     0
300
1:40
140
1.0
141
40.0
290
     0
  0
SCALE
  5
1A7
102
{ACAD_REACTORS
330
19C
102
}
330
19C
100
AcDbScale
 70
     0
300
1:50
140
1.0
141
50.0
290
     0
  0
SCALE
  5
1A8
102
{ACAD_REACTORS
330
19C
102
}
330
19C
100
AcDbScale
 70
     0
300
1:100
140
1.0
141
100.0
290
     0
  0
SCALE
  5
1A9
102
{ACAD_REACTORS
330
19C
102
}
330
19C
100
AcDbScale
 70
     0
300
2:1
140
2.0
141
1.0
290
     0
  0
SCALE
  5
1AA
102
{ACAD_REACTORS
330
19C
102
}
330
19C
100
AcDbScale
 70
     0
300
4:1
140
4.0
141
1.0
290
     0
  0
SCALE
  5
1AB
102
{ACAD_REACTORS
330
19C
102
}
330
19C
100
AcDbScale
 70
     0
300
8:1
140
8.0
141
1.0
290
     0
  0
SCALE
  5
1AC
102
{ACAD_REACTORS
330
19C
102
}
330
19C
100
AcDbScale
 70
     0
300
10:1
140
10.0
141
1.0
290
     0
  0
SCALE
  5
1AD
102
{ACAD_REACTORS
330
19C
102
}
330
19C
100
AcDbScale
 70
     0
300
100:1
140
100.0
141
1.0
290
     0
  0
TABLESTYLE
  5
19B
102
{ACAD_XDICTIONARY
360
E18
102
}
102
{ACAD_REACTORS
330
19A
102
}
330
19A
100
AcDbTableStyle
  3
Standard
 70
     0
 71
     0
 40
1.5
 41
1.5
280
     0
281
     0
  7
STANDARD
140
4.5
170
     2
 62
     0
 63
     7
283
     0
274
    -2
284
     1
 64
     0
275
    -2
285
     1
 65
     0
276
    -2
286
     1
 66
     0
277
    -2
287
     1
 67
     0
278
    -2
288
     1
 68
     0
279
    -2
289
     1
 69
     0
  7
STANDARD
140
6.0
170
     5
 62
     0
 63
     7
283
     0
274
    -2
284
     1
 64
     0
275
    -2
285
     1
 65
     0
276
    -2
286
     1
 66
     0
277
    -2
287
     1
 67
     0
278
    -2
288
     1
 68
     0
279
    -2
289
     1
 69
     0
  7
STANDARD
140
4.5
170
     5
 62
     0
 63
     7
283
     0
274
    -2
284
     1
 64
     0
275
    -2
285
     1
 65
     0
276
    -2
286
     1
 66
     0
277
    -2
287
     1
 67
     0
278
    -2
288
     1
 68
     0
279
    -2
289
     1
 69
     0
  0
VISUALSTYLE
  5
186
102
{ACAD_XDICTIONARY
360
F40
102
}
102
{ACAD_REACTORS
330
180
102
}
330
180
100
AcDbVisualStyle
  2

 70
     4
 71
     0
 72
     2
 73
     0
 90
        0
 40
-0.6
 41
-30.0
 62
     5
 63
     7
421
 16777215
 74
     1
 91
        4
 64
     7
 65
   257
 75
     1
175
     1
 42
1.0
 92
        0
 66
   257
 43
1.0
 76
     1
 77
     6
 78
     2
 67
     7
 79
     5
170
     0
171
     0
290
     0
174
     0
 93
        1
 44
0.0
173
     0
291
     0
 45
0.0
1001
ACAD
1000
AcDbSavedByObjectVersion
1070
     0
  0
VISUALSTYLE
  5
185
102
{ACAD_XDICTIONARY
360
F3E
102
}
102
{ACAD_REACTORS
330
180
102
}
330
180
100
AcDbVisualStyle
  2

 70
     7
 71
     1
 72
     0
 73
     1
 90
        0
 40
-0.6
 41
-30.0
 62
     5
 63
     7
421
 16777215
 74
     0
 91
        4
 64
     7
 65
   257
 75
     1
175
     1
 42
1.0
 92
        8
 66
     7
 43
1.0
 76
     1
 77
     6
 78
     2
 67
     7
 79
     5
170
     0
171
     0
290
     0
174
     0
 93
        1
 44
0.0
173
     0
291
     1
 45
0.0
1001
ACAD
1000
AcDbSavedByObjectVersion
1070
     0
  0
VISUALSTYLE
  5
18C
102
{ACAD_XDICTIONARY
360
F4C
102
}
102
{ACAD_REACTORS
330
180
102
}
330
180
100
AcDbVisualStyle
  2

 70
    12
 71
     2
 72
     2
 73
     0
 90
        0
 40
-0.6
 41
-30.0
 62
     5
 63
     7
421
 16777215
 74
     1
 91
        4
 64
     7
 65
   257
 75
     1
175
     1
 42
1.0
 92
        8
 66
     7
 43
1.0
 76
     1
 77
     6
 78
     2
 67
     7
 79
     5
170
     0
171
     0
290
     0
174
     0
 93
        1
 44
50.0
173
     0
291
     1
 45
0.0
1001
ACAD
1000
AcDbSavedByObjectVersion
1070
     0
  0
VISUALSTYLE
  5
190
102
{ACAD_XDICTIONARY
360
F54
102
}
102
{ACAD_REACTORS
330
180
102
}
330
180
100
AcDbVisualStyle
  2

 70
    16
 71
     2
 72
     2
 73
     3
 90
        0
 40
-0.6
 41
-30.0
 62
     5
 63
     8
421
  8421504
 74
     1
 91
        4
 64
     7
 65
   257
 75
     1
175
     1
 42
1.0
 92
        8
 66
     8
424
  8421504
 43
1.0
 76
     1
 77
     6
 78
     2
 67
     7
 79
     5
170
     0
171
     0
290
     0
174
     0
 93
        1
 44
0.0
173
     0
291
     1
 45
0.0
1001
ACAD
1000
AcDbSavedByObjectVersion
1070
     0
  0
VISUALSTYLE
  5
189
102
{ACAD_XDICTIONARY
360
F46
102
}
102
{ACAD_REACTORS
330
180
102
}
330
180
100
AcDbVisualStyle
  2

 70
     9
 71
     3
 72
     2
 73
     0
 90
        0
 40
-0.6
 41
-30.0
 62
     5
 63
     7
421
 16777215
 74
     2
 91
        2
 64
     7
 65
   257
 75
     1
175
     1
 42
179.0
 92
        8
 66
     7
 43
1.0
 76
     1
 77
     6
 78
     2
 67
     7
 79
     3
170
     0
171
     0
290
     0
174
     0
 93
        1
 44
0.0
173
     0
291
     0
 45
0.0
1001
ACAD
1000
AcDbSavedByObjectVersion
1070
     0
  0
VISUALSTYLE
  5
18B
102
{ACAD_XDICTIONARY
360
F4A
102
}
102
{ACAD_REACTORS
330
180
102
}
330
180
100
AcDbVisualStyle
  2

 70
    11
 71
     2
 72
     2
 73
     0
 90
        0
 40
-0.6
 41
-30.0
 62
     5
 63
     7
421
 16777215
 74
     1
 91
        4
 64
     7
 65
   257
 75
     1
175
     1
 42
1.0
 92
        8
 66
     7
 43
1.0
 76
     1
 77
     6
 78
     2
 67
     7
 79
     5
170
     0
171
     0
290
     0
174
     0
 93
        1
 44
-50.0
173
     0
291
     1
 45
0.0
1001
ACAD
1000
AcDbSavedByObjectVersion
1070
     0
  0
VISUALSTYLE
  5
198
102
{ACAD_XDICTIONARY
360
F64
102
}
102
{ACAD_REACTORS
330
180
102
}
330
180
100
AcDbVisualStyle
  2

 70
    22
 71
     2
 72
     2
 73
     0
 90
        0
 40
-0.6
 41
-30.0
 62
     5
 63
     7
421
 16777215
 74
     1
 91
        4
 64
     7
 65
   257
 75
     1
175
     1
 42
1.0
 92
        8
 66
     7
 43
1.0
 76
     1
 77
     6
 78
     2
 67
     7
 79
     5
170
     0
171
     0
290
     0
174
     0
 93
        1
 44
0.0
173
     0
291
     1
 45
0.0
1001
ACAD
1000
AcDbSavedByObjectVersion
1070
     0
  0
VISUALSTYLE
  5
18F
102
{ACAD_XDICTIONARY
360
F52
102
}
102
{ACAD_REACTORS
330
180
102
}
330
180
100
AcDbVisualStyle
  2

 70
    15
 71
     2
 72
     2
 73
     0
 90
        0
 40
-0.6
 41
-30.0
 62
     5
 63
     7
421
 16777215
 74
     1
 91
        4
 64
     7
 65
   257
 75
     1
175
     1
 42
1.0
 92
        8
 66
     7
 43
1.0
 76
     1
 77
     6
 78
     2
 67
     7
 79
     5
170
     0
171
     0
290
     0
174
     0
 93
        1
 44
0.0
173
     0
291
     1
 45
0.0
1001
ACAD
1000
AcDbSavedByObjectVersion
1070
     0
  0
VISUALSTYLE
  5
181
102
{ACAD_XDICTIONARY
360
F36
102
}
102
{ACAD_REACTORS
330
180
102
}
330
180
100
AcDbVisualStyle
  2

 70
     0
 71
     2
 72
     1
 73
     1
 90
        2
 40
-0.6
 41
30.0
 62
     5
 63
     7
421
 16777215
 74
     0
 91
        0
 64
     7
 65
   257
 75
     1
175
     1
 42
1.0
 92
        8
 66
     7
 43
1.0
 76
     1
 77
     6
 78
     2
 67
     7
 79
     5
170
     0
171
     0
290
     0
174
     0
 93
       13
 44
0.0
173
     0
291
     1
 45
0.0
1001
ACAD
1000
AcDbSavedByObjectVersion
1070
     0
  0
VISUALSTYLE
  5
182
102
{ACAD_XDICTIONARY
360
F38
102
}
102
{ACAD_REACTORS
330
180
102
}
330
180
100
AcDbVisualStyle
  2

 70
     1
 71
     2
 72
     1
 73
     1
 90
        2
 40
-0.6
 41
30.0
 62
     5
 63
     7
421
 16777215
 74
     1
 91
        0
 64
     7
 65
   257
 75
     1
175
     1
 42
1.0
 92
        0
 66
   257
 43
1.0
 76
     1
 77
     6
 78
     2
 67
     7
 79
     5
170
     0
171
     0
290
     0
174
     0
 93
       13
 44
0.0
173
     0
291
     1
 45
0.0
1001
ACAD
1000
AcDbSavedByObjectVersion
1070
     0
  0
VISUALSTYLE
  5
183
102
{ACAD_XDICTIONARY
360
F3A
102
}
102
{ACAD_REACTORS
330
180
102
}
330
180
100
AcDbVisualStyle
  2

 70
     2
 71
     2
 72
     2
 73
     1
 90
        2
 40
-0.6
 41
30.0
 62
     5
 63
     7
421
 16777215
 74
     0
 91
        0
 64
     7
 65
   257
 75
     1
175
     1
 42
1.0
 92
        0
 66
     7
 43
1.0
 76
     1
 77
     6
 78
     2
 67
     7
 79
     5
170
     0
171
     0
290
     0
174
     0
 93
       13
 44
0.0
173
     0
291
     1
 45
0.0
1001
ACAD
1000
AcDbSavedByObjectVersion
1070
     0
  0
VISUALSTYLE
  5
184
102
{ACAD_XDICTIONARY
360
F3C
102
}
102
{ACAD_REACTORS
330
180
102
}
330
180
100
AcDbVisualStyle
  2

 70
     3
 71
     2
 72
     2
 73
     1
 90
        2
 40
-0.6
 41
30.0
 62
     5
 63
     7
421
 16777215
 74
     1
 91
        0
 64
     7
 65
   257
 75
     1
175
     1
 42
1.0
 92
        0
 66
   257
 43
1.0
 76
     1
 77
     6
 78
     2
 67
     7
 79
     5
170
     0
171
     0
290
     0
174
     0
 93
       13
 44
0.0
173
     0
291
     1
 45
0.0
1001
ACAD
1000
AcDbSavedByObjectVersion
1070
     0
  0
VISUALSTYLE
  5
188
102
{ACAD_XDICTIONARY
360
F44
102
}
102
{ACAD_REACTORS
330
180
102
}
330
180
100
AcDbVisualStyle
  2

 70
     6
 71
     1
 72
     2
 73
     2
 90
        0
 40
-0.6
 41
-30.0
 62
     5
 63
     7
421
 16777215
 74
     2
 91
        2
 64
     7
 65
   257
 75
     2
175
     1
 42
40.0
 92
        0
 66
   257
 43
1.0
 76
     1
 77
     6
 78
     2
 67
     7
 79
     3
170
     0
171
     0
290
     0
174
     0
 93
        1
 44
0.0
173
     0
291
     0
 45
0.0
1001
ACAD
1000
AcDbSavedByObjectVersion
1070
     0
  0
VISUALSTYLE
  5
196
102
{ACAD_XDICTIONARY
360
F60
102
}
102
{ACAD_REACTORS
330
180
102
}
330
180
100
AcDbVisualStyle
  2

 70
    20
 71
     2
 72
     2
 73
     0
 90
        0
 40
-0.6
 41
-30.0
 62
     5
 63
     7
421
 16777215
 74
     1
 91
        4
 64
     7
 65
   257
 75
     1
175
     1
 42
1.0
 92
       10
 66
     7
 43
1.0
 76
     1
 77
     6
 78
     2
 67
     7
 79
     5
170
     0
171
     0
290
     0
174
     0
 93
        1
 44
0.0
173
     0
291
     1
 45
0.0
1001
ACAD
1000
AcDbSavedByObjectVersion
1070
     0
  0
VISUALSTYLE
  5
18E
102
{ACAD_XDICTIONARY
360
F50
102
}
102
{ACAD_REACTORS
330
180
102
}
330
180
100
AcDbVisualStyle
  2

 70
    14
 71
     2
 72
     2
 73
     0
 90
        0
 40
-0.6
 41
-30.0
 62
     5
 63
     7
421
 16777215
 74
     1
 91
        4
 64
     7
 65
   257
 75
     7
175
     7
 42
1.0
 92
        8
 66
     7
 43
1.0
 76
     1
 77
     6
 78
     2
 67
     7
 79
     5
170
     0
171
     0
290
     0
174
     0
 93
        1
 44
0.0
173
     0
291
     1
 45
0.0
1001
ACAD
1000
AcDbSavedByObjectVersion
1070
     0
  0
VISUALSTYLE
  5
197
102
{ACAD_XDICTIONARY
360
F62
102
}
102
{ACAD_REACTORS
330
180
102
}
330
180
100
AcDbVisualStyle
  2

 70
    21
 71
     2
 72
     2
 73
     0
 90
        0
 40
-0.6
 41
-30.0
 62
     5
 63
     7
421
 16777215
 74
     1
 91
        4
 64
     7
 65
   257
 75
     1
175
     1
 42
1.0
 92
        9
 66
     7
 43
1.0
 76
     1
 77
     6
 78
     2
 67
     7
 79
     5
170
     0
171
     0
290
     0
174
     0
 93
        1
 44
0.0
173
     0
291
     1
 45
0.0
1001
ACAD
1000
AcDbSavedByObjectVersion
1070
     0
  0
VISUALSTYLE
  5
18A
102
{ACAD_XDICTIONARY
360
F48
102
}
102
{ACAD_REACTORS
330
180
102
}
330
180
100
AcDbVisualStyle
  2

 70
     8
 71
     2
 72
     3
 73
     0
 90
        2
 40
-0.6
 41
30.0
 62
     5
 63
     7
421
 16777215
 74
     0
 91
        0
 64
     7
 65
   257
 75
     1
175
     1
 42
1.0
 92
        8
 66
   257
 43
1.0
 76
     1
 77
     6
 78
     2
 67
     7
 79
     3
170
     0
171
     0
290
     0
174
     0
 93
       13
 44
0.0
173
     0
291
     0
 45
0.0
1001
ACAD
1000
AcDbSavedByObjectVersion
1070
     0
  0
VISUALSTYLE
  5
195
102
{ACAD_XDICTIONARY
360
F5E
102
}
102
{ACAD_REACTORS
330
180
102
}
330
180
100
AcDbVisualStyle
  2

 70
    27
 71
     2
 72
     2
 73
     1
 90
        2
 40
-0.6
 41
30.0
 62
     5
 63
     7
421
 16777215
 74
     0
 91
        4
 64
     7
 65
   257
 75
     1
175
     1
 42
1.0
 92
        8
 66
   257
 43
1.0
 76
     1
 77
     6
 78
     2
 67
     8
425
  7895160
 79
     3
170
     0
171
     0
290
     0
174
     0
 93
        5
 44
0.0
173
     0
291
     0
 45
0.0
1001
ACAD
1000
AcDbSavedByObjectVersion
1070
     0
  0
VISUALSTYLE
  5
194
102
{ACAD_XDICTIONARY
360
F5C
102
}
102
{ACAD_REACTORS
330
180
102
}
330
180
100
AcDbVisualStyle
  2

 70
    26
 71
     2
 72
     2
 73
     1
 90
        2
 40
-0.6
 41
30.0
 62
     5
 63
     7
421
 16777215
 74
     1
 91
       10
 64
     7
 65
   257
 75
     2
175
     1
 42
1.0
 92
        8
 66
   257
 43
1.0
 76
     1
 77
     6
 78
     2
 67
     7
 79
     3
170
     0
171
     0
290
     0
174
     0
 93
        5
 44
0.0
173
     0
291
     0
 45
0.0
1001
ACAD
1000
AcDbSavedByObjectVersion
1070
     0
  0
VISUALSTYLE
  5
191
102
{ACAD_XDICTIONARY
360
F56
102
}
102
{ACAD_REACTORS
330
180
102
}
330
180
100
AcDbVisualStyle
  2

 70
    23
 71
     2
 72
     2
 73
     3
 90
        0
 40
-0.6
 41
-30.0
 62
     5
 63
     7
421
 16777215
 74
     2
 91
        2
 64
     7
 65
     7
 75
     1
175
     1
 42
40.0
 92
        8
 66
     7
 43
1.0
 76
     1
 77
     6
 78
     2
 67
     7
 79
     3
170
     0
171
     0
290
     0
174
     0
 93
        1
 44
0.0
173
     0
291
     0
 45
0.0
1001
ACAD
1000
AcDbSavedByObjectVersion
1070
     0
  0
VISUALSTYLE
  5
192
102
{ACAD_XDICTIONARY
360
F58
102
}
102
{ACAD_REACTORS
330
180
102
}
330
180
100
AcDbVisualStyle
  2

 70
    24
 71
     1
 72
     2
 73
     2
 90
        0
 40
-0.6
 41
-30.0
 62
     5
 63
     7
421
 16777215
 74
     2
 91
        2
 64
     7
 65
     7
 75
     1
175
     1
 42
40.0
 92
       11
 66
     7
 43
1.0
 76
     1
 77
     6
 78
     2
 67
     7
 79
     6
170
     0
171
     0
290
     0
174
     0
 93
        1
 44
0.0
173
     0
291
     0
 45
0.0
1001
ACAD
1000
AcDbSavedByObjectVersion
1070
     0
  0
VISUALSTYLE
  5
18D
102
{ACAD_XDICTIONARY
360
F4E
102
}
102
{ACAD_REACTORS
330
180
102
}
330
180
100
AcDbVisualStyle
  2

 70
    13
 71
     2
 72
     2
 73
     0
 90
        0
 40
-0.6
 41
-30.0
 62
     5
 63
     7
421
 16777215
 74
     1
 91
        4
 64
     7
 65
   257
 75
     1
175
     1
 42
1.0
 92
       12
 66
     7
 43
1.0
 76
     1
 77
     6
 78
     2
 67
     7
 79
     5
170
     0
171
     0
290
     0
174
     0
 93
        1
 44
0.0
173
     0
291
     1
 45
0.0
1001
ACAD
1000
AcDbSavedByObjectVersion
1070
     0
  0
VISUALSTYLE
  5
187
102
{ACAD_XDICTIONARY
360
F42
102
}
102
{ACAD_REACTORS
330
180
102
}
330
180
100
AcDbVisualStyle
  2

 70
     5
 71
     0
 72
     2
 73
     0
 90
        0
 40
-0.6
 41
-30.0
 62
     5
 63
     7
421
 16777215
 74
     1
 91
        4
 64
     7
 65
   257
 75
     1
175
     1
 42
1.0
 92
        0
 66
   257
 43
1.0
 76
     1
 77
     6
 78
     2
 67
     7
 79
     3
170
     0
171
     0
290
     0
174
     0
 93
        1
 44
0.0
173
     0
291
     0
 45
0.0
1001
ACAD
1000
AcDbSavedByObjectVersion
1070
     0
  0
VISUALSTYLE
  5
193
102
{ACAD_XDICTIONARY
360
F5A
102
}
102
{ACAD_REACTORS
330
180
102
}
330
180
100
AcDbVisualStyle
  2

 70
    25
 71
     2
 72
     2
 73
     1
 90
        1
 40
0.5
 41
-30.0
 62
     5
 63
     7
421
 16777215
 74
     1
 91
        0
 64
     7
 65
   257
 75
     1
175
     1
 42
1.0
 92
        8
 66
     7
 43
1.0
 76
     1
 77
     6
 78
     2
 67
     7
 79
     3
170
     0
171
     0
290
     0
174
     0
 93
       13
 44
0.0
173
     0
291
     0
 45
0.0
1001
ACAD
1000
AcDbSavedByObjectVersion
1070
     0
  0
DICTIONARYVAR
  5
52A
102
{ACAD_REACTORS
330
2B
102
}
330
2B
100
DictionaryVariables
280
     0
  1
1:1
  0
DICTIONARYVAR
  5
528
102
{ACAD_REACTORS
330
2B
102
}
330
2B
100
DictionaryVariables
280
     0
  1
STANDARD
  0
DICTIONARYVAR
  5
527
102
{ACAD_REACTORS
330
2B
102
}
330
2B
100
DictionaryVariables
280
     0
  1
STANDARD
  0
DICTIONARYVAR
  5
2C
102
{ACAD_REACTORS
330
2B
102
}
330
2B
100
DictionaryVariables
280
     0
  1
0
  0
DICTIONARYVAR
  5
D0
102
{ACAD_REACTORS
330
2B
102
}
330
2B
100
DictionaryVariables
280
     0
  1
1
  0
DICTIONARYVAR
  5
52C
102
{ACAD_REACTORS
330
2B
102
}
330
2B
100
DictionaryVariables
280
     0
  1
1
  0
DICTIONARYVAR
  5
52D
102
{ACAD_REACTORS
330
2B
102
}
330
2B
100
DictionaryVariables
280
     0
  1
15
  0
DICTIONARYVAR
  5
52B
102
{ACAD_REACTORS
330
2B
102
}
330
2B
100
DictionaryVariables
280
     0
  1
0
  0
DICTIONARYVAR
  5
529
102
{ACAD_REACTORS
330
2B
102
}
330
2B
100
DictionaryVariables
280
     0
  1
0
  0
DICTIONARYVAR
  5
F2E
102
{ACAD_REACTORS
330
2B
102
}
330
2B
100
DictionaryVariables
280
     0
  1
2
  0
DICTIONARY
  5
20D
102
{ACAD_REACTORS
330
202
102
}
330
202
100
AcDbDictionary
281
     1
  0
ACDBASSOCNETWORK
  5
BBD
102
{ACAD_REACTORS
330
BBC
102
}
330
BBC
100
AcDbAssocAction
 90
        1
 90
        0
330
833
360
0
 90
        6
 90
        0
 90
        0
100
AcDbAssocNetwork
 90
        0
 90
        5
 90
        1
360
BBE
 90
        0
  0
ACDBASSOCNETWORK
  5
A19
102
{ACAD_REACTORS
330
A18
102
}
330
A18
100
AcDbAssocAction
 90
        1
 90
        0
330
833
360
0
 90
        2
 90
        0
 90
        0
100
AcDbAssocNetwork
 90
        0
 90
        1
 90
        1
360
A15
 90
        0
  0
ACDBASSOCNETWORK
  5
A7F
102
{ACAD_REACTORS
330
A7E
102
}
330
A7E
100
AcDbAssocAction
 90
        1
 90
        0
330
833
360
0
 90
        4
 90
        0
 90
        0
100
AcDbAssocNetwork
 90
        0
 90
        1
 90
        1
360
A79
 90
        0
  0
DICTIONARY
  5
265
330
CA
100
AcDbDictionary
280
     1
281
     1
  3
ADSK_XREC_LAYOUTTHUMBNAIL
360
266
  0
DICTIONARY
  5
171
330
170
100
AcDbDictionary
280
     1
281
     1
  3
ACAD_XREC_ROUNDTRIP
360
E21
  3
BUMPTILE
360
173
  3
DIFFUSETILE
360
172
  3
OPACITYTILE
360
176
  3
REFLECTIONTILE
360
175
  3
REFRACTIONTILE
360
177
  3
SPECULARTILE
360
174
  0
DICTIONARY
  5
169
330
168
100
AcDbDictionary
280
     1
281
     1
  3
ACAD_XREC_ROUNDTRIP
360
E20
  3
BUMPTILE
360
16B
  3
DIFFUSETILE
360
16A
  3
OPACITYTILE
360
16E
  3
REFLECTIONTILE
360
16D
  3
REFRACTIONTILE
360
16F
  3
SPECULARTILE
360
16C
  0
DICTIONARY
  5
179
330
178
100
AcDbDictionary
280
     1
281
     1
  3
ACAD_XREC_ROUNDTRIP
360
E22
  3
BUMPTILE
360
17B
  3
DIFFUSETILE
360
17A
  3
OPACITYTILE
360
17E
  3
REFLECTIONTILE
360
17D
  3
REFRACTIONTILE
360
17F
  3
SPECULARTILE
360
17C
  0
DICTIONARY
  5
E18
330
19B
100
AcDbDictionary
280
     1
281
     1
  3
ACAD_ROUNDTRIP_2008_TABLESTYLE_CELLSTYLEMAP
360
F2F
  3
ACAD_XREC_ROUNDTRIP
360
F66
  0
DICTIONARY
  5
F40
330
186
100
AcDbDictionary
280
     1
281
     1
  3
ACAD_XREC_ROUNDTRIP
360
F41
  0
DICTIONARY
  5
F3E
330
185
100
AcDbDictionary
280
     1
281
     1
  3
ACAD_XREC_ROUNDTRIP
360
F3F
  0
DICTIONARY
  5
F4C
330
18C
100
AcDbDictionary
280
     1
281
     1
  3
ACAD_XREC_ROUNDTRIP
360
F4D
  0
DICTIONARY
  5
F54
330
190
100
AcDbDictionary
280
     1
281
     1
  3
ACAD_XREC_ROUNDTRIP
360
F55
  0
DICTIONARY
  5
F46
330
189
100
AcDbDictionary
280
     1
281
     1
  3
ACAD_XREC_ROUNDTRIP
360
F47
  0
DICTIONARY
  5
F4A
330
18B
100
AcDbDictionary
280
     1
281
     1
  3
ACAD_XREC_ROUNDTRIP
360
F4B
  0
DICTIONARY
  5
F64
330
198
100
AcDbDictionary
280
     1
281
     1
  3
ACAD_XREC_ROUNDTRIP
360
F65
  0
DICTIONARY
  5
F52
330
18F
100
AcDbDictionary
280
     1
281
     1
  3
ACAD_XREC_ROUNDTRIP
360
F53
  0
DICTIONARY
  5
F36
330
181
100
AcDbDictionary
280
     1
281
     1
  3
ACAD_XREC_ROUNDTRIP
360
F37
  0
DICTIONARY
  5
F38
330
182
100
AcDbDictionary
280
     1
281
     1
  3
ACAD_XREC_ROUNDTRIP
360
F39
  0
DICTIONARY
  5
F3A
330
183
100
AcDbDictionary
280
     1
281
     1
  3
ACAD_XREC_ROUNDTRIP
360
F3B
  0
DICTIONARY
  5
F3C
330
184
100
AcDbDictionary
280
     1
281
     1
  3
ACAD_XREC_ROUNDTRIP
360
F3D
  0
DICTIONARY
  5
F44
330
188
100
AcDbDictionary
280
     1
281
     1
  3
ACAD_XREC_ROUNDTRIP
360
F45
  0
DICTIONARY
  5
F60
330
196
100
AcDbDictionary
280
     1
281
     1
  3
ACAD_XREC_ROUNDTRIP
360
F61
  0
DICTIONARY
  5
F50
330
18E
100
AcDbDictionary
280
     1
281
     1
  3
ACAD_XREC_ROUNDTRIP
360
F51
  0
DICTIONARY
  5
F62
330
197
100
AcDbDictionary
280
     1
281
     1
  3
ACAD_XREC_ROUNDTRIP
360
F63
  0
DICTIONARY
  5
F48
330
18A
100
AcDbDictionary
280
     1
281
     1
  3
ACAD_XREC_ROUNDTRIP
360
F49
  0
DICTIONARY
  5
F5E
330
195
100
AcDbDictionary
280
     1
281
     1
  3
ACAD_XREC_ROUNDTRIP
360
F5F
  0
DICTIONARY
  5
F5C
330
194
100
AcDbDictionary
280
     1
281
     1
  3
ACAD_XREC_ROUNDTRIP
360
F5D
  0
DICTIONARY
  5
F56
330
191
100
AcDbDictionary
280
     1
281
     1
  3
ACAD_XREC_ROUNDTRIP
360
F57
  0
DICTIONARY
  5
F58
330
192
100
AcDbDictionary
280
     1
281
     1
  3
ACAD_XREC_ROUNDTRIP
360
F59
  0
DICTIONARY
  5
F4E
330
18D
100
AcDbDictionary
280
     1
281
     1
  3
ACAD_XREC_ROUNDTRIP
360
F4F
  0
DICTIONARY
  5
F42
330
187
100
AcDbDictionary
280
     1
281
     1
  3
ACAD_XREC_ROUNDTRIP
360
F43
  0
DICTIONARY
  5
F5A
330
193
100
AcDbDictionary
280
     1
281
     1
  3
ACAD_XREC_ROUNDTRIP
360
F5B
  0
ACDBASSOC2DCONSTRAINTGROUP
  5
BBE
330
BBD
100
AcDbAssocAction
 90
        1
 90
        0
330
BBD
360
0
 90
        1
 90
       28
 90
        0
 90
        2
 70
     0
 10
1771.571570409045
 20
1507.231702116674
 30
0.0
 10
1.0
 20
0.0
 30
0.0
 10
0.0
 20
1.0
 30
0.0
360
0
 90
       23
360
BC0
360
BC2
360
BC3
360
BC5
360
BC7
360
BBF
360
BCD
360
BCF
360
BDE
360
BDF
360
DC0
360
F20
360
F21
360
F22
360
F23
360
F24
360
ED4
360
ED6
360
EF8
360
EF9
360
EFA
360
EFB
360
EFC
 90
      188
 90
      160
  1
AcPointCurveConstraint
330
BBE
 90
        8
 70
     0
 90
        2
 90
        7
 90
        6
 90
        0
290
     1
290
     1
  1
AcPointCurveConstraint
330
BBE
 90
      136
 70
     0
 90
        2
 90
      146
 90
      145
 90
        0
290
     1
290
     1
  1
AcPointCurveConstraint
330
BBE
 90
       17
 70
     0
 90
        2
 90
       16
 90
       13
 90
        0
290
     1
290
     1
  1
AcConstrainedImplicitPoint
330
BBE
 90
       81
 70
     1
 90
        2
 90
       89
 90
      115
330
0
 90
        0
280
     1
 90
       -1
 90
       78
  1
AcConstrainedBoundedLine
330
BBE
 90
      145
 70
     1
 90
        5
 90
      126
 90
      128
 90
      136
 90
      122
 90
      125
330
EFA
 90
        0
 10
873.5551521877512
 20
79.15624041476061
 30
0.0
 10
-1.0
 20
0.00000000000108
 30
0.0
290
     0
 10
873.5551521877512
 20
79.15624041476053
 30
0.0
 11
843.3030168772459
 21
79.15624041479327
 31
0.0
  1
AcPerpendicularConstraint
330
BBE
 90
       58
 70
     0
 90
        2
 90
       52
 90
       18
 90
        0
290
     0
290
     1
  1
AcMidPointConstraint
330
BBE
 90
      122
 70
     0
 90
        2
 90
      146
 90
      145
 90
        0
290
     1
290
     1
  1
AcConstrainedBoundedLine
330
BBE
 90
      186
 70
     1
 90
        2
 90
      175
 90
      177
330
F21
 90
        0
 10
809.3122196889019
 20
-1391.430135523301
 30
0.0
 10
0.0
 20
-1.0
 30
0.0
290
     0
 10
809.3122196889019
 20
-1391.430135523301
 30
0.0
 11
809.3122196889019
 21
-1539.644366660154
 31
0.0
  1
AcPointCurveConstraint
330
BBE
 90
        3
 70
     0
 90
        2
 90
        2
 90
        1
 90
        0
290
     1
290
     1
  1
AcPerpendicularConstraint
330
BBE
 90
      131
 70
     0
 90
        2
 90
      150
 90
      137
 90
        0
290
     0
290
     1
  1
AcPointCurveConstraint
330
BBE
 90
      108
 70
     0
 90
        2
 90
      105
 90
       18
 90
        0
290
     0
290
     1
  1
AcConstrainedBoundedLine
330
BBE
 90
      172
 70
     1
 90
        6
 90
      183
 90
      170
 90
      154
 90
      167
 90
      160
 90
      166
330
F23
 90
        0
 10
758.3176720549688
 20
-1416.28877791039
 30
0.0
 10
-0.0000000000010232
 20
-1.0
 30
0.0
290
     0
 10
758.3176720549688
 20
-1416.28877791039
 30
0.0
 11
758.3176720549316
 21
-1450.987389576879
 31
0.0
  1
AcConstrainedImplicitPoint
330
BBE
 90
       53
 70
     1
 90
        2
 90
       54
 90
       64
330
0
 90
        0
280
     0
 90
       -1
 90
       52
  1
AcPerpendicularConstraint
330
BBE
 90
      117
 70
     0
 90
        2
 90
      110
 90
       18
 90
        0
290
     0
290
     1
  1
AcConstrainedImplicitPoint
330
BBE
 90
      181
 70
     1
 90
        3
 90
      171
 90
      157
 90
      179
330
0
 90
        0
280
     2
 90
       -1
 90
      180
  1
AcPointCurveConstraint
330
BBE
 90
       30
 70
     0
 90
        2
 90
       29
 90
       26
 90
        0
290
     1
290
     1
  1
AcPointCurveConstraint
330
BBE
 90
       94
 70
     0
 90
        2
 90
       93
 90
       90
 90
        0
290
     1
290
     1
  1
AcConstrainedBoundedLine
330
BBE
 90
      158
 70
     1
 90
        2
 90
      184
 90
      165
330
F20
 90
        0
 10
809.3122196889019
 20
-1539.644366660154
 30
0.0
 10
-0.715030755461612
 20
0.6990929972071172
 30
0.0
290
     0
 10
809.3122196889019
 20
-1539.644366660154
 30
0.0
 11
768.2830235989115
 21
-1499.529695440123
 31
0.0
  1
AcPointCurveConstraint
330
BBE
 90
       39
 70
     0
 90
        2
 90
       38
 90
       35
 90
        0
290
     1
290
     1
  1
AcConstrainedImplicitPoint
330
BBE
 90
      103
 70
     1
 90
        1
 90
      104
330
0
 90
        0
280
     0
 90
       -1
 90
      102
  1
AcMidPointConstraint
330
BBE
 90
      167
 70
     0
 90
        2
 90
      176
 90
      172
 90
        0
290
     1
290
     1
  1
AcPointCurveConstraint
330
BBE
 90
      112
 70
     0
 90
        2
 90
      111
 90
      110
 90
        0
290
     1
290
     1
  1
AcConstrainedImplicitPoint
330
BBE
 90
      176
 70
     1
 90
        3
 90
      154
 90
      167
 90
      179
330
0
 90
        0
280
     2
 90
       -1
 90
      172
  1
AcPerpendicularConstraint
330
BBE
 90
       25
 70
     0
 90
        2
 90
       13
 90
       18
 90
        0
290
     0
290
     1
  1
AcPointCurveConstraint
330
BBE
 90
       89
 70
     0
 90
        2
 90
       81
 90
       78
 90
        0
290
     1
290
     1
  1
AcPointCoincidenceConstraint
330
BBE
 90
      153
 70
     0
 90
        2
 90
      156
 90
      155
 90
        0
290
     0
290
     1
  1
AcPointCoincidenceConstraint
330
BBE
 90
       34
 70
     0
 90
        2
 90
       29
 90
       31
 90
        0
290
     0
290
     1
  1
AcConstrainedImplicitPoint
330
BBE
 90
      162
 70
     1
 90
        1
 90
      165
330
0
 90
        0
280
     1
 90
       -1
 90
      158
  1
AcPointCurveConstraint
330
BBE
 90
       11
 70
     0
 90
        2
 90
        4
 90
        6
 90
        0
290
     0
290
     1
  1
AcConstrainedImplicitPoint
330
BBE
 90
      139
 70
     1
 90
        1
 90
      126
330
0
 90
        0
280
     0
 90
       -1
 90
      145
  1
AcPointCurveConstraint
330
BBE
 90
       20
 70
     0
 90
        2
 90
       19
 90
       18
 90
        0
290
     1
290
     1
  1
AcConstrainedBoundedLine
330
BBE
 90
       84
 70
     1
 90
        3
 90
       80
 90
       76
 90
       77
330
BDE
 90
        0
 10
1765.000000000001
 20
710.0000000000002
 30
0.0
 10
0.0
 20
-1.0
 30
0.0
290
     0
 10
1765.000000000001
 20
710.0000000000002
 30
0.0
 11
1765.000000000001
 21
0.0
 31
0.0
  1
AcPointCurveConstraint
330
BBE
 90
      148
 70
     0
 90
        2
 90
      143
 90
      137
 90
        0
290
     1
290
     1
  1
AcPointCurveConstraint
330
BBE
 90
       61
 70
     0
 90
        2
 90
       60
 90
       59
 90
        0
290
     1
290
     1
  1
AcPerpendicularConstraint
330
BBE
 90
      125
 70
     0
 90
        2
 90
      137
 90
      145
 90
        0
290
     0
290
     1
  1
AcConstrainedBoundedLine
330
BBE
 90
        6
 70
     1
 90
        6
 90
        8
 90
       10
 90
       11
 90
       12
 90
       95
 90
       96
330
BC0
 90
        0
 10
2399.999999999999
 20
-1540.0
 30
0.0
 10
0.0
 20
1.0
 30
0.0
290
     0
 10
2399.999999999999
 20
-1540.0
 30
0.0
 11
2399.999999999999
 21
0.0
 31
0.0
  1
AcConstrainedImplicitPoint
330
BBE
 90
      134
 70
     1
 90
        1
 90
      133
330
0
 90
        0
280
     1
 90
       -1
 90
      150
  1
AcConstrainedImplicitPoint
330
BBE
 90
      111
 70
     1
 90
        2
 90
      112
 90
      115
330
0
 90
        0
280
     0
 90
       -1
 90
      110
  1
AcPointCurveConstraint
330
BBE
 90
      175
 70
     0
 90
        2
 90
      187
 90
      186
 90
        0
290
     1
290
     1
  1
AcPointCurveConstraint
330
BBE
 90
       56
 70
     0
 90
        2
 90
       55
 90
       52
 90
        0
290
     1
290
     1
  1
AcConstrainedImplicitPoint
330
BBE
 90
      120
 70
     1
 90
        2
 90
      142
 90
      118
330
0
 90
        0
280
     1
 90
       -1
 90
      151
  1
AcPointCurveConstraint
330
BBE
 90
      184
 70
     0
 90
        2
 90
      156
 90
      158
 90
        0
290
     1
290
     1
  1
AcConstrainedBoundedLine
330
BBE
 90
        1
 70
     1
 90
        3
 90
        3
 90
        5
 90
       12
330
BBF
 90
        0
 10
0.0
 20
-100.0
 30
0.0
 10
1.0
 20
0.0
 30
0.0
290
     0
 10
0.0
 20
-100.0
 30
0.0
 11
2399.999999999999
 21
-100.0
 31
0.0
  1
AcPerpendicularConstraint
330
BBE
 90
       65
 70
     0
 90
        2
 90
       59
 90
       52
 90
        0
290
     0
290
     1
  1
AcPointCurveConstraint
330
BBE
 90
      129
 70
     0
 90
        2
 90
      124
 90
      150
 90
        0
290
     1
290
     1
  1
AcPointCurveConstraint
330
BBE
 90
      106
 70
     0
 90
        2
 90
      105
 90
      102
 90
        0
290
     1
290
     1
  1
AcPointCurveConstraint
330
BBE
 90
      170
 70
     0
 90
        2
 90
      182
 90
      172
 90
        0
290
     1
290
     1
  1
AcPointCoincidenceConstraint
330
BBE
 90
      115
 70
     0
 90
        2
 90
      111
 90
       81
 90
        0
290
     0
290
     1
  1
AcPointCoincidenceConstraint
330
BBE
 90
      179
 70
     0
 90
        2
 90
      181
 90
      176
 90
        0
290
     0
290
     1
  1
AcPointCurveConstraint
330
BBE
 90
       28
 70
     0
 90
        2
 90
       27
 90
       26
 90
        0
290
     1
290
     1
  1
AcPointCurveConstraint
330
BBE
 90
       92
 70
     0
 90
        2
 90
       91
 90
       90
 90
        0
290
     1
290
     1
  1
AcConstrainedImplicitPoint
330
BBE
 90
      156
 70
     1
 90
        2
 90
      184
 90
      153
330
0
 90
        0
280
     0
 90
       -1
 90
      158
  1
AcPointCurveConstraint
330
BBE
 90
       37
 70
     0
 90
        2
 90
       36
 90
       35
 90
        0
290
     1
290
     1
  1
AcPointCurveConstraint
330
BBE
 90
      165
 70
     0
 90
        2
 90
      162
 90
      158
 90
        0
290
     1
290
     1
  1
AcConstrainedImplicitPoint
330
BBE
 90
       14
 70
     1
 90
        1
 90
       15
330
0
 90
        0
280
     0
 90
       -1
 90
       13
  1
AcConstrainedBoundedLine
330
BBE
 90
       78
 70
     1
 90
        3
 90
       74
 90
       89
 90
       77
330
BDF
 90
        0
 10
1765.000000000001
 20
710.0000000000002
 30
0.0
 10
1.0
 20
0.0
 30
0.0
290
     0
 10
1765.000000000001
 20
710.0000000000002
 30
0.0
 11
1835.0
 21
710.0000000000002
 31
0.0
  1
AcPointCurveConstraint
330
BBE
 90
      142
 70
     0
 90
        2
 90
      120
 90
      151
 90
        0
290
     1
290
     1
  1
AcPointCoincidenceConstraint
330
BBE
 90
       23
 70
     0
 90
        2
 90
        9
 90
       19
 90
        0
290
     1
290
     1
  1
AcConstrainedImplicitPoint
330
BBE
 90
       87
 70
     1
 90
        1
 90
       76
330
0
 90
        0
280
     1
 90
       -1
 90
       84
  1
AcConstrainedBoundedLine
330
BBE
 90
      151
 70
     1
 90
        2
 90
      140
 90
      142
330
EF9
 90
        0
 10
909.4236321664505
 20
121.3641886351104
 30
0.0
 10
0.0
 20
-1.0
 30
0.0
290
     0
 10
909.4236321664505
 20
121.3641886351104
 30
0.0
 11
909.4236321664505
 21
-26.85004250174302
 31
0.0
  1
AcPointCurveConstraint
330
BBE
 90
       32
 70
     0
 90
        2
 90
       31
 90
       18
 90
        0
290
     1
290
     1
  1
AcPerpendicularConstraint
330
BBE
 90
       96
 70
     0
 90
        2
 90
       90
 90
        6
 90
        0
290
     0
290
     1
  1
AcPerpendicularConstraint
330
BBE
 90
      160
 70
     0
 90
        2
 90
      172
 90
      180
 90
        0
290
     0
290
     1
  1
AcConstrainedImplicitPoint
330
BBE
 90
        9
 70
     1
 90
        2
 90
       10
 90
       23
330
0
 90
        0
280
     1
 90
       -1
 90
        6
  1
AcConstrainedImplicitPoint
330
BBE
 90
       73
 70
     1
 90
        2
 90
       80
 90
       88
330
0
 90
        0
280
     0
 90
       -1
 90
       84
  1
AcConstrainedBoundedLine
330
BBE
 90
      137
 70
     1
 90
        6
 90
      148
 90
      135
 90
      119
 90
      132
 90
      125
 90
      131
330
EFB
 90
        0
 10
858.4290845325172
 20
96.50554624802111
 30
0.0
 10
-0.0000000000010232
 20
-1.0
 30
0.0
290
     0
 10
858.4290845325174
 20
96.50554624802111
 30
0.0
 11
858.4290845324797
 21
61.80693458153268
 31
0.0
  1
AcConstrainedBoundedLine
330
BBE
 90
       18
 70
     1
 90
       14
 90
       20
 90
       22
 90
       24
 90
       25
 90
       32
 90
       33
 90
       40
 90
       41
 90
       57
 90
       58
 90
      108
 90
      109
 90
      116
 90
      117
330
BC3
 90
        0
 10
2399.999999999999
 20
0.0
 30
0.0
 10
-1.0
 20
0.0
 30
0.0
290
     0
 10
2399.999999999999
 20
0.0
 30
0.0
 11
0.0
 21
0.0
 31
0.0
  1
AcConstrainedImplicitPoint
330
BBE
 90
      146
 70
     1
 90
        3
 90
      136
 90
      122
 90
      144
330
0
 90
        0
280
     2
 90
       -1
 90
      145
  1
AcConstrainedBoundedLine
330
BBE
 90
       59
 70
     1
 90
        3
 90
       61
 90
       63
 90
       65
330
BCF
 90
        0
 10
635.0000000000011
 20
710.0000000000002
 30
0.0
 10
-1.0
 20
0.0
 30
0.0
290
     0
 10
635.0000000000011
 20
710.0000000000002
 30
0.0
 11
565.0000000000002
 21
710.0000000000002
 31
0.0
  1
AcConstrainedBoundedLine
330
BBE
 90
      123
 70
     1
 90
        2
 90
      149
 90
      130
330
EF8
 90
        0
 10
909.4236321664505
 20
-26.85004250174302
 30
0.0
 10
-0.715030755461612
 20
0.6990929972071492
 30
0.0
290
     0
 10
909.4236321664505
 20
-26.85004250174302
 30
0.0
 11
868.39443607646
 21
13.26462871828858
 31
0.0
  1
AcConstrainedImplicitPoint
330
BBE
 90
      187
 70
     1
 90
        1
 90
      175
330
0
 90
        0
280
     0
 90
       -1
 90
      186
  1
AcConstrainedImplicitPoint
330
BBE
 90
        4
 70
     1
 90
        2
 90
        5
 90
       11
330
0
 90
        0
280
     1
 90
       -1
 90
        1
  1
AcMidPointConstraint
330
BBE
 90
      132
 70
     0
 90
        2
 90
      141
 90
      137
 90
        0
290
     1
290
     1
  1
AcPerpendicularConstraint
330
BBE
 90
      109
 70
     0
 90
        2
 90
      102
 90
       18
 90
        0
290
     0
290
     1
  1
AcConstrainedImplicitPoint
330
BBE
 90
      173
 70
     1
 90
        1
 90
      163
330
0
 90
        0
280
     1
 90
       -1
 90
      180
  1
AcPointCurveConstraint
330
BBE
 90
       54
 70
     0
 90
        2
 90
       53
 90
       52
 90
        0
290
     1
290
     1
  1
AcPointCoincidenceConstraint
330
BBE
 90
      118
 70
     0
 90
        2
 90
      121
 90
      120
 90
        0
290
     0
290
     1
  1
AcConstrainedImplicitPoint
330
BBE
 90
      182
 70
     1
 90
        1
 90
      170
330
0
 90
        0
280
     1
 90
       -1
 90
      172
  1
AcConstrainedImplicitPoint
330
BBE
 90
       31
 70
     1
 90
        3
 90
       32
 90
       33
 90
       34
330
0
 90
        0
280
     2
 90
       -1
 90
       18
  1
AcPointCurveConstraint
330
BBE
 90
       95
 70
     0
 90
        2
 90
       93
 90
        6
 90
        0
290
     0
290
     1
  1
AcConstrainedImplicitPoint
330
BBE
 90
      159
 70
     1
 90
        1
 90
      164
330
0
 90
        0
280
     0
 90
       -1
 90
      185
  1
AcPointCurveConstraint
330
BBE
 90
       40
 70
     0
 90
        2
 90
       38
 90
       18
 90
        0
290
     0
290
     1
  1
AcPointCurveConstraint
330
BBE
 90
      104
 70
     0
 90
        2
 90
      103
 90
      102
 90
        0
290
     1
290
     1
  1
AcPointCurveConstraint
330
BBE
 90
      168
 70
     0
 90
        2
 90
      169
 90
      185
 90
        0
290
     1
290
     1
  1
AcConstrainedImplicitPoint
330
BBE
 90
      113
 70
     1
 90
        2
 90
      114
 90
      116
330
0
 90
        0
280
     1
 90
       -1
 90
      110
  1
AcPointCurveConstraint
330
BBE
 90
      177
 70
     0
 90
        2
 90
      155
 90
      186
 90
        0
290
     1
290
     1
  1
AcConstrainedBoundedLine
330
BBE
 90
       26
 70
     1
 90
        2
 90
       28
 90
       30
330
BC5
 90
        0
 10
1200.0
 20
-1540.0
 30
0.0
 10
0.0
 20
1.0
 30
0.0
290
     0
 10
1200.0
 20
-1540.0
 30
0.0
 11
1200.0
 21
0.0
 31
0.0
  1
AcConstrainedBoundedLine
330
BBE
 90
       90
 70
     1
 90
        3
 90
       92
 90
       94
 90
       96
330
DC0
 90
        0
 10
0.0
 20
-1140.0
 30
0.0
 10
1.0
 20
0.0
 30
0.0
290
     0
 10
0.0
 20
-1140.0
 30
0.0
 11
2399.999999999999
 21
-1140.0
 31
0.0
  1
AcPointCurveConstraint
330
BBE
 90
      154
 70
     0
 90
        2
 90
      176
 90
      172
 90
        0
290
     1
290
     1
  1
AcConstrainedBoundedLine
330
BBE
 90
       35
 70
     1
 90
        3
 90
       37
 90
       39
 90
       41
330
BC7
 90
        0
 10
1800.000000000001
 20
-1540.0
 30
0.0
 10
0.0
 20
1.0
 30
0.0
290
     0
 10
1800.000000000001
 20
-1540.0
 30
0.0
 11
1800.000000000001
 21
0.0
 31
0.0
  1
AcPointCurveConstraint
330
BBE
 90
      163
 70
     0
 90
        2
 90
      173
 90
      180
 90
        0
290
     1
290
     1
  1
AcPerpendicularConstraint
330
BBE
 90
       12
 70
     0
 90
        2
 90
        1
 90
        6
 90
        0
290
     0
290
     1
  1
AcPointCurveConstraint
330
BBE
 90
       76
 70
     0
 90
        2
 90
       87
 90
       84
 90
        0
290
     1
290
     1
  1
AcPointCurveConstraint
330
BBE
 90
      140
 70
     0
 90
        2
 90
      152
 90
      151
 90
        0
290
     1
290
     1
  1
AcConstrainedImplicitPoint
330
BBE
 90
       21
 70
     1
 90
        1
 90
       22
330
0
 90
        0
280
     1
 90
       -1
 90
       18
  1
AcConstrainedImplicitPoint
330
BBE
 90
       85
 70
     1
 90
        2
 90
       74
 90
       88
330
0
 90
        0
280
     0
 90
       -1
 90
       78
  1
AcPointCurveConstraint
330
BBE
 90
      149
 70
     0
 90
        2
 90
      121
 90
      123
 90
        0
290
     1
290
     1
  1
AcConstrainedImplicitPoint
330
BBE
 90
       62
 70
     1
 90
        2
 90
       63
 90
      107
330
0
 90
        0
280
     1
 90
       -1
 90
       59
  1
AcPointCurveConstraint
330
BBE
 90
      126
 70
     0
 90
        2
 90
      139
 90
      145
 90
        0
290
     1
290
     1
  1
AcConstrainedImplicitPoint
330
BBE
 90
        7
 70
     1
 90
        1
 90
        8
330
0
 90
        0
280
     0
 90
       -1
 90
        6
  1
AcPointCurveConstraint
330
BBE
 90
      135
 70
     0
 90
        2
 90
      147
 90
      137
 90
        0
290
     1
290
     1
  1
AcConstrainedImplicitPoint
330
BBE
 90
       16
 70
     1
 90
        2
 90
       17
 90
       24
330
0
 90
        0
280
     1
 90
       -1
 90
       13
  1
AcPointCurveConstraint
330
BBE
 90
       80
 70
     0
 90
        2
 90
       73
 90
       84
 90
        0
290
     1
290
     1
  1
AcPointCoincidenceConstraint
330
BBE
 90
      144
 70
     0
 90
        2
 90
      146
 90
      141
 90
        0
290
     0
290
     1
  1
AcPointCurveConstraint
330
BBE
 90
       57
 70
     0
 90
        2
 90
       55
 90
       18
 90
        0
290
     0
290
     1
  1
AcConstrainedImplicitPoint
330
BBE
 90
      121
 70
     1
 90
        2
 90
      149
 90
      118
330
0
 90
        0
280
     0
 90
       -1
 90
      123
  1
AcConstrainedBoundedLine
330
BBE
 90
      185
 70
     1
 90
        3
 90
      164
 90
      168
 90
      166
330
F24
 90
        0
 10
768.2830235989115
 20
-1499.529695440134
 30
0.0
 10
1.0
 20
-0.0000000000011369
 30
0.0
290
     0
 10
768.2830235989115
 20
-1499.529695440134
 30
0.0
 11
927.1112540229871
 21
-1499.529695440305
 31
0.0
  1
AcConstrainedImplicitPoint
330
BBE
 90
        2
 70
     1
 90
        1
 90
        3
330
0
 90
        0
280
     0
 90
       -1
 90
        1
  1
AcPointCurveConstraint
330
BBE
 90
      130
 70
     0
 90
        2
 90
      127
 90
      123
 90
        0
290
     1
290
     1
  1
AcPointCurveConstraint
330
BBE
 90
      107
 70
     0
 90
        2
 90
      102
 90
       62
 90
        0
290
     0
290
     1
  1
AcPointCurveConstraint
330
BBE
 90
      171
 70
     0
 90
        2
 90
      181
 90
      180
 90
        0
290
     1
290
     1
  1
AcConstrainedBoundedLine
330
BBE
 90
       52
 70
     1
 90
        4
 90
       54
 90
       56
 90
       58
 90
       65
330
BCD
 90
        0
 10
635.0000000000011
 20
710.0000000000002
 30
0.0
 10
0.0
 20
-1.0
 30
0.0
290
     0
 10
635.0000000000011
 20
710.0000000000002
 30
0.0
 11
635.0000000000011
 21
0.0
 31
0.0
  1
AcPointCurveConstraint
330
BBE
 90
      116
 70
     0
 90
        2
 90
      113
 90
       18
 90
        0
290
     0
290
     1
  1
AcConstrainedBoundedLine
330
BBE
 90
      180
 70
     1
 90
        5
 90
      161
 90
      163
 90
      171
 90
      157
 90
      160
330
F22
 90
        0
 10
773.4437397102026
 20
-1433.638083743651
 30
0.0
 10
-1.0
 20
0.0000000000011369
 30
0.0
290
     0
 10
773.4437397102026
 20
-1433.638083743651
 30
0.0
 11
743.1916043996973
 21
-1433.638083743618
 31
0.0
  1
AcConstrainedImplicitPoint
330
BBE
 90
       29
 70
     1
 90
        2
 90
       30
 90
       34
330
0
 90
        0
280
     1
 90
       -1
 90
       26
  1
AcConstrainedImplicitPoint
330
BBE
 90
       93
 70
     1
 90
        2
 90
       94
 90
       95
330
0
 90
        0
280
     1
 90
       -1
 90
       90
  1
AcMidPointConstraint
330
BBE
 90
      157
 70
     0
 90
        2
 90
      181
 90
      180
 90
        0
290
     1
290
     1
  1
AcConstrainedImplicitPoint
330
BBE
 90
       38
 70
     1
 90
        2
 90
       39
 90
       40
330
0
 90
        0
280
     1
 90
       -1
 90
       35
  1
AcConstrainedBoundedLine
330
BBE
 90
      102
 70
     1
 90
        4
 90
      104
 90
      106
 90
      107
 90
      109
330
ED4
 90
        0
 10
565.0000000000002
 20
710.0000000000002
 30
0.0
 10
0.0
 20
-1.0
 30
0.0
290
     0
 10
565.0000000000002
 20
710.0000000000002
 30
0.0
 11
565.0000000000002
 21
0.0
 31
0.0
  1
AcPerpendicularConstraint
330
BBE
 90
      166
 70
     0
 90
        2
 90
      185
 90
      172
 90
        0
290
     0
290
     1
  1
AcPointCurveConstraint
330
BBE
 90
       15
 70
     0
 90
        2
 90
       14
 90
       13
 90
        0
290
     1
290
     1
  1
AcConstrainedImplicitPoint
330
BBE
 90
      143
 70
     1
 90
        1
 90
      148
330
0
 90
        0
280
     0
 90
       -1
 90
      137
  1
AcPointCurveConstraint
330
BBE
 90
       24
 70
     0
 90
        2
 90
       16
 90
       18
 90
        0
290
     0
290
     1
  1
AcPointCoincidenceConstraint
330
BBE
 90
       88
 70
     0
 90
        2
 90
       85
 90
       73
 90
        0
290
     0
290
     1
  1
AcConstrainedImplicitPoint
330
BBE
 90
      152
 70
     1
 90
        1
 90
      140
330
0
 90
        0
280
     0
 90
       -1
 90
      151
  1
AcMidPointConstraint
330
BBE
 90
       33
 70
     0
 90
        2
 90
       31
 90
       18
 90
        0
290
     1
290
     1
  1
AcPointCurveConstraint
330
BBE
 90
      161
 70
     0
 90
        2
 90
      174
 90
      180
 90
        0
290
     1
290
     1
  1
AcPointCurveConstraint
330
BBE
 90
       10
 70
     0
 90
        2
 90
        9
 90
        6
 90
        0
290
     1
290
     1
  1
AcPointCurveConstraint
330
BBE
 90
       74
 70
     0
 90
        2
 90
       85
 90
       78
 90
        0
290
     1
290
     1
  1
AcConstrainedImplicitPoint
330
BBE
 90
      138
 70
     1
 90
        1
 90
      128
330
0
 90
        0
280
     1
 90
       -1
 90
      145
  1
AcConstrainedImplicitPoint
330
BBE
 90
       19
 70
     1
 90
        2
 90
       20
 90
       23
330
0
 90
        0
280
     0
 90
       -1
 90
       18
  1
AcConstrainedImplicitPoint
330
BBE
 90
      147
 70
     1
 90
        1
 90
      135
330
0
 90
        0
280
     1
 90
       -1
 90
      137
  1
AcConstrainedImplicitPoint
330
BBE
 90
       60
 70
     1
 90
        2
 90
       61
 90
       64
330
0
 90
        0
280
     0
 90
       -1
 90
       59
  1
AcConstrainedImplicitPoint
330
BBE
 90
      124
 70
     0
 90
        1
 90
      129
330
0
 90
        0
280
     0
 90
       -1
 90
      150
  1
AcPointCurveConstraint
330
BBE
 90
        5
 70
     0
 90
        2
 90
        4
 90
        1
 90
        0
290
     1
290
     1
  1
AcPointCurveConstraint
330
BBE
 90
      133
 70
     0
 90
        2
 90
      134
 90
      150
 90
        0
290
     1
290
     1
  1
AcConstrainedBoundedLine
330
BBE
 90
      110
 70
     1
 90
        3
 90
      112
 90
      114
 90
      117
330
ED6
 90
        0
 10
1835.0
 20
710.0000000000002
 30
0.0
 10
0.0
 20
-1.0
 30
0.0
290
     0
 10
1835.0
 20
710.0000000000002
 30
0.0
 11
1835.0
 21
0.0
 31
0.0
  1
AcConstrainedImplicitPoint
330
BBE
 90
      174
 70
     1
 90
        1
 90
      161
330
0
 90
        0
280
     0
 90
       -1
 90
      180
  1
AcConstrainedImplicitPoint
330
BBE
 90
       55
 70
     1
 90
        2
 90
       56
 90
       57
330
0
 90
        0
280
     1
 90
       -1
 90
       52
  1
AcPointCurveConstraint
330
BBE
 90
      119
 70
     0
 90
        2
 90
      141
 90
      137
 90
        0
290
     1
290
     1
  1
AcPointCurveConstraint
330
BBE
 90
      183
 70
     0
 90
        2
 90
      178
 90
      172
 90
        0
290
     1
290
     1
  1
AcPointCoincidenceConstraint
330
BBE
 90
       64
 70
     0
 90
        2
 90
       60
 90
       53
 90
        0
290
     0
290
     1
  1
AcPointCurveConstraint
330
BBE
 90
      128
 70
     0
 90
        2
 90
      138
 90
      145
 90
        0
290
     1
290
     1
  1
AcPerpendicularConstraint
330
BBE
 90
       41
 70
     0
 90
        2
 90
       35
 90
       18
 90
        0
290
     0
290
     1
  1
AcConstrainedImplicitPoint
330
BBE
 90
      105
 70
     1
 90
        2
 90
      106
 90
      108
330
0
 90
        0
280
     1
 90
       -1
 90
      102
  1
AcConstrainedImplicitPoint
330
BBE
 90
      169
 70
     1
 90
        1
 90
      168
330
0
 90
        0
280
     1
 90
       -1
 90
      185
  1
AcPointCurveConstraint
330
BBE
 90
      114
 70
     0
 90
        2
 90
      113
 90
      110
 90
        0
290
     1
290
     1
  1
AcConstrainedImplicitPoint
330
BBE
 90
      178
 70
     1
 90
        1
 90
      183
330
0
 90
        0
280
     0
 90
       -1
 90
      172
  1
AcConstrainedImplicitPoint
330
BBE
 90
       27
 70
     1
 90
        1
 90
       28
330
0
 90
        0
280
     0
 90
       -1
 90
       26
  1
AcConstrainedImplicitPoint
330
BBE
 90
       91
 70
     1
 90
        1
 90
       92
330
0
 90
        0
280
     0
 90
       -1
 90
       90
  1
AcConstrainedImplicitPoint
330
BBE
 90
      155
 70
     1
 90
        2
 90
      177
 90
      153
330
0
 90
        0
280
     1
 90
       -1
 90
      186
  1
AcConstrainedImplicitPoint
330
BBE
 90
       36
 70
     1
 90
        1
 90
       37
330
0
 90
        0
280
     0
 90
       -1
 90
       35
  1
AcPointCurveConstraint
330
BBE
 90
      164
 70
     0
 90
        2
 90
      159
 90
      185
 90
        0
290
     1
290
     1
  1
AcConstrainedBoundedLine
330
BBE
 90
       13
 70
     1
 90
        3
 90
       15
 90
       17
 90
       25
330
BC2
 90
        0
 10
600.0000000000002
 20
-1540.0
 30
0.0
 10
0.0
 20
1.0
 30
0.0
290
     0
 10
600.0000000000002
 20
-1540.0
 30
0.0
 11
600.0000000000002
 21
0.0
 31
0.0
  1
AcPerpendicularConstraint
330
BBE
 90
       77
 70
     0
 90
        2
 90
       78
 90
       84
 90
        0
290
     0
290
     1
  1
AcConstrainedImplicitPoint
330
BBE
 90
      141
 70
     1
 90
        3
 90
      119
 90
      132
 90
      144
330
0
 90
        0
280
     2
 90
       -1
 90
      137
  1
AcPointCurveConstraint
330
BBE
 90
       22
 70
     0
 90
        2
 90
       21
 90
       18
 90
        0
290
     1
290
     1
  1
AcConstrainedBoundedLine
330
BBE
 90
      150
 70
     1
 90
        3
 90
      129
 90
      133
 90
      131
330
EFC
 90
        0
 10
868.39443607646
 20
13.26462871827766
 30
0.0
 10
1.0
 20
-0.00000000000108
 30
0.0
290
     0
 10
868.39443607646
 20
13.26462871827766
 30
0.0
 11
1210.027500859768
 21
13.26462871790863
 31
0.0
  1
AcPointCurveConstraint
330
BBE
 90
       63
 70
     0
 90
        2
 90
       62
 90
       59
 90
        0
290
     1
290
     1
  1
AcConstrainedImplicitPoint
330
BBE
 90
      127
 70
     1
 90
        1
 90
      130
330
0
 90
        0
280
     1
 90
       -1
 90
      123
  0
ACDBASSOC2DCONSTRAINTGROUP
  5
A15
330
A19
100
AcDbAssocAction
 90
        1
 90
        0
330
A19
360
0
 90
        1
 90
       29
 90
        0
 90
        2
 70
     0
 10
-928.459434632392
 20
-92.64237644353944
 30
0.0
 10
1.0
 20
0.0
 30
0.0
 10
0.0
 20
1.0
 30
0.0
360
0
 90
        2
360
A16
360
A17
 90
      209
 90
       17
  1
AcMidPointConstraint
330
A15
 90
      120
 70
     0
 90
        2
 90
      132
 90
      133
 90
        0
290
     1
290
     1
  1
AcConstrainedImplicitPoint
330
A15
 90
      137
 70
     1
 90
        1
 90
      138
330
0
 90
        0
280
     0
 90
       -1
 90
      133
  1
AcConstrainedImplicitPoint
330
A15
 90
      122
 70
     1
 90
        1
 90
      141
330
0
 90
        0
280
     1
 90
       -1
 90
      133
  1
AcMidPointConstraint
330
A15
 90
      130
 70
     0
 90
        2
 90
      119
 90
      131
 90
        0
290
     1
290
     1
  1
AcPointCurveConstraint
330
A15
 90
      138
 70
     0
 90
        2
 90
      137
 90
      133
 90
        0
290
     1
290
     1
  1
AcConstrainedBoundedLine
330
A15
 90
      131
 70
     1
 90
        4
 90
      117
 90
      125
 90
      124
 90
      130
330
A16
 90
        0
 10
367.8427013078443
 20
131.1937760422257
 30
0.0
 10
-1.0
 20
0.0
 30
0.0
290
     0
 10
367.8427013078443
 20
131.1937760422257
 30
0.0
 11
356.8878575871628
 21
131.1937760422257
 31
0.0
  1
AcConstrainedImplicitPoint
330
A15
 90
      139
 70
     1
 90
        1
 90
      117
330
0
 90
        0
280
     0
 90
       -1
 90
      131
  1
AcPointCurveConstraint
330
A15
 90
      124
 70
     0
 90
        2
 90
      119
 90
      131
 90
        0
290
     1
290
     1
  1
AcConstrainedImplicitPoint
330
A15
 90
      132
 70
     1
 90
        3
 90
      140
 90
      120
 90
      134
330
0
 90
        0
280
     2
 90
       -1
 90
      133
  1
AcPointCurveConstraint
330
A15
 90
      140
 70
     0
 90
        2
 90
      132
 90
      133
 90
        0
290
     1
290
     1
  1
AcPointCurveConstraint
330
A15
 90
      117
 70
     0
 90
        2
 90
      139
 90
      131
 90
        0
290
     1
290
     1
  1
AcPointCurveConstraint
330
A15
 90
      125
 70
     0
 90
        2
 90
      126
 90
      131
 90
        0
290
     1
290
     1
  1
AcConstrainedBoundedLine
330
A15
 90
      133
 70
     1
 90
        4
 90
      138
 90
      141
 90
      140
 90
      120
330
A17
 90
        0
 10
362.3652794475037
 20
136.9768779866333
 30
0.0
 10
0.0
 20
-1.0
 30
0.0
290
     0
 10
362.3652794475037
 20
136.9768779866333
 30
0.0
 11
362.3652794475037
 21
125.4106740978183
 31
0.0
  1
AcPointCurveConstraint
330
A15
 90
      141
 70
     0
 90
        2
 90
      122
 90
      133
 90
        0
290
     1
290
     1
  1
AcConstrainedImplicitPoint
330
A15
 90
      126
 70
     1
 90
        1
 90
      125
330
0
 90
        0
280
     1
 90
       -1
 90
      131
  1
AcPointCoincidenceConstraint
330
A15
 90
      134
 70
     0
 90
        2
 90
      119
 90
      132
 90
        0
290
     0
290
     1
  1
AcConstrainedImplicitPoint
330
A15
 90
      119
 70
     1
 90
        3
 90
      124
 90
      130
 90
      134
330
0
 90
        0
280
     2
 90
       -1
 90
      131
  0
ACDBASSOC2DCONSTRAINTGROUP
  5
A79
330
A7F
100
AcDbAssocAction
 90
        1
 90
        0
330
A7F
360
0
 90
        1
 90
       47
 90
        0
 90
        2
 70
     0
 10
-2169.099366846253
 20
-1277.769168095691
 30
0.0
 10
1.0
 20
0.0
 30
0.0
 10
0.0
 20
1.0
 30
0.0
360
0
 90
        4
360
A7A
360
A7B
360
A7C
360
A7D
 90
      326
 90
       28
  1
AcConstrainedImplicitPoint
330
A79
 90
      256
 70
     1
 90
        1
 90
      268
330
0
 90
        0
280
     0
 90
       -1
 90
      267
  1
AcConstrainedImplicitPoint
330
A79
 90
      264
 70
     1
 90
        1
 90
      276
330
0
 90
        0
280
     1
 90
       -1
 90
      262
  1
AcConstrainedImplicitPoint
330
A79
 90
      272
 70
     1
 90
        3
 90
      282
 90
      265
 90
      275
330
0
 90
        0
280
     2
 90
       -1
 90
      267
  1
AcPointCurveConstraint
330
A79
 90
      280
 70
     0
 90
        2
 90
      269
 90
      257
 90
        0
290
     1
290
     1
  1
AcConstrainedBoundedLine
330
A79
 90
      257
 70
     1
 90
        2
 90
      280
 90
      263
330
A7B
 90
        0
 10
-0.4147556196912774
 20
559.9422062246803
 30
0.0
 10
0.0
 20
-1.0
 30
0.0
290
     0
 10
-0.4147556196912774
 20
559.9422062246803
 30
0.0
 11
-0.4147556196912774
 21
510.5374625123976
 31
0.0
  1
AcMidPointConstraint
330
A79
 90
      265
 70
     0
 90
        2
 90
      272
 90
      267
 90
        0
290
     1
290
     1
  1
AcConstrainedBoundedLine
330
A79
 90
      273
 70
     1
 90
        4
 90
      270
 90
      260
 90
      258
 90
      274
330
A7D
 90
        0
 10
-16.95595861279207
 20
551.4652877279603
 30
0.0
 10
0.0
 20
-1.0
 30
0.0
290
     0
 10
-16.95595861279207
 20
551.4652877279603
 30
0.0
 11
-16.95595861279207
 21
539.8990838391453
 31
0.0
  1
AcPointCoincidenceConstraint
330
A79
 90
      281
 70
     0
 90
        2
 90
      259
 90
      266
 90
        0
290
     0
290
     1
  1
AcPointCurveConstraint
330
A79
 90
      258
 70
     0
 90
        2
 90
      277
 90
      273
 90
        0
290
     1
290
     1
  1
AcConstrainedImplicitPoint
330
A79
 90
      266
 70
     1
 90
        2
 90
      263
 90
      281
330
0
 90
        0
280
     1
 90
       -1
 90
      257
  1
AcMidPointConstraint
330
A79
 90
      274
 70
     0
 90
        2
 90
      277
 90
      273
 90
        0
290
     1
290
     1
  1
AcPointCurveConstraint
330
A79
 90
      282
 70
     0
 90
        2
 90
      272
 90
      267
 90
        0
290
     1
290
     1
  1
AcConstrainedImplicitPoint
330
A79
 90
      259
 70
     1
 90
        2
 90
      278
 90
      281
330
0
 90
        0
280
     0
 90
       -1
 90
      262
  1
AcConstrainedBoundedLine
330
A79
 90
      267
 70
     1
 90
        4
 90
      268
 90
      261
 90
      282
 90
      265
330
A7C
 90
        0
 10
-11.43971221838046
 20
545.6821857835527
 30
0.0
 10
-1.0
 20
0.0
 30
0.0
290
     0
 10
-11.43971221838046
 20
545.6821857835527
 30
0.0
 11
-22.47220500720414
 21
545.6821857835527
 31
0.0
  1
AcPointCoincidenceConstraint
330
A79
 90
      275
 70
     0
 90
        2
 90
      272
 90
      277
 90
        0
290
     0
290
     1
  1
AcConstrainedImplicitPoint
330
A79
 90
      283
 70
     1
 90
        1
 90
      270
330
0
 90
        0
280
     0
 90
       -1
 90
      273
  1
AcPointCurveConstraint
330
A79
 90
      260
 70
     0
 90
        2
 90
      271
 90
      273
 90
        0
290
     1
290
     1
  1
AcPointCurveConstraint
330
A79
 90
      268
 70
     0
 90
        2
 90
      256
 90
      267
 90
        0
290
     1
290
     1
  1
AcPointCurveConstraint
330
A79
 90
      276
 70
     0
 90
        2
 90
      264
 90
      262
 90
        0
290
     1
290
     1
  1
AcPointCurveConstraint
330
A79
 90
      261
 70
     0
 90
        2
 90
      279
 90
      267
 90
        0
290
     1
290
     1
  1
AcConstrainedImplicitPoint
330
A79
 90
      269
 70
     1
 90
        1
 90
      280
330
0
 90
        0
280
     0
 90
       -1
 90
      257
  1
AcConstrainedImplicitPoint
330
A79
 90
      277
 70
     1
 90
        3
 90
      258
 90
      274
 90
      275
330
0
 90
        0
280
     2
 90
       -1
 90
      273
  1
AcConstrainedBoundedLine
330
A79
 90
      262
 70
     1
 90
        2
 90
      278
 90
      276
330
A7A
 90
        0
 10
-0.4147556196912774
 20
510.5374625123976
 30
0.0
 10
-0.7150307554615698
 20
0.6990929972071172
 30
0.0
290
     0
 10
-0.4147556196912774
 20
510.5374625123976
 30
0.0
 11
-14.09115431635427
 21
523.9090195857406
 31
0.0
  1
AcPointCurveConstraint
330
A79
 90
      270
 70
     0
 90
        2
 90
      283
 90
      273
 90
        0
290
     1
290
     1
  1
AcPointCurveConstraint
330
A79
 90
      278
 70
     0
 90
        2
 90
      259
 90
      262
 90
        0
290
     1
290
     1
  1
AcPointCurveConstraint
330
A79
 90
      263
 70
     0
 90
        2
 90
      266
 90
      257
 90
        0
290
     1
290
     1
  1
AcConstrainedImplicitPoint
330
A79
 90
      271
 70
     1
 90
        1
 90
      260
330
0
 90
        0
280
     1
 90
       -1
 90
      273
  1
AcConstrainedImplicitPoint
330
A79
 90
      279
 70
     1
 90
        1
 90
      261
330
0
 90
        0
280
     1
 90
       -1
 90
      267
  0
XRECORD
  5
266
102
{ACAD_REACTORS
330
265
102
}
330
265
100
AcDbXrecord
280
     1
310
28000000000100007D0000000100080000000000007D0000000000000000000000010000000000003028210000000000FFFFFF000000000000000000000000000000000000000000000000000000000000000000330000006600000099000000CC000000FF00000000330000333300006633000099330000CC330000FF3300
310
0000660000336600006666000099660000CC660000FF66000000990000339900006699000099990000CC990000FF99000000CC000033CC000066CC000099CC0000CCCC0000FFCC000000FF000033FF000066FF000099FF0000CCFF0000FFFF000000003300330033006600330099003300CC003300FF003300003333003333
310
33006633330099333300CC333300FF33330000663300336633006666330099663300CC663300FF66330000993300339933006699330099993300CC993300FF99330000CC330033CC330066CC330099CC3300CCCC3300FFCC330000FF330033FF330066FF330099FF3300CCFF3300FFFF330000006600330066006600660099
310
006600CC006600FF00660000336600333366006633660099336600CC336600FF33660000666600336666006666660099666600CC666600FF66660000996600339966006699660099996600CC996600FF99660000CC660033CC660066CC660099CC6600CCCC6600FFCC660000FF660033FF660066FF660099FF6600CCFF6600
310
FFFF660000009900330099006600990099009900CC009900FF00990000339900333399006633990099339900CC339900FF33990000669900336699006666990099669900CC669900FF66990000999900339999006699990099999900CC999900FF99990000CC990033CC990066CC990099CC9900CCCC9900FFCC990000FF99
310
0033FF990066FF990099FF9900CCFF9900FFFF99000000CC003300CC006600CC009900CC00CC00CC00FF00CC000033CC003333CC006633CC009933CC00CC33CC00FF33CC000066CC003366CC006666CC009966CC00CC66CC00FF66CC000099CC003399CC006699CC009999CC00CC99CC00FF99CC0000CCCC0033CCCC0066CC
310
CC0099CCCC00CCCCCC00FFCCCC0000FFCC0033FFCC0066FFCC0099FFCC00CCFFCC00FFFFCC000000FF003300FF006600FF009900FF00CC00FF00FF00FF000033FF003333FF006633FF009933FF00CC33FF00FF33FF000066FF003366FF006666FF009966FF00CC66FF00FF66FF000099FF003399FF006699FF009999FF00CC
310
99FF00FF99FF0000CCFF0033CCFF0066CCFF0099CCFF00CCCCFF00FFCCFF0000FFFF0033FFFF0066FFFF0099FFFF00CCFFFF00FFFFFF00000000000D0D0D001A1A1A00282828003535350043434300505050005D5D5D006B6B6B00787878008686860093939300A1A1A100AEAEAE00BBBBBB00C9C9C900D6D6D600E4E4E400
310
F1F1F100FFFFFF000000000000000000000000000000000000000000000000000000000000000000000000000000000000000000000000000000000000000000000000000000000000000000000000000000000000000000000000000000000000000000000000000000000000000000000000000000000000000000000000
310
00000000000000000000000000000000000000000000000000000000000000000000000000000000000000000000000000000000000000000000000000000000000000000000000000000000000000000000000000000000000000000000000000000000000000000000000000000000000000000000000000000000000000
310
00000000000000000000000000000000000000000000000000000000000000000000000000000000000000000000000000000000000000000000000000000000000000000000000000000000000000000000000000000000000000000000000000000000000000000000000000000000000000000000000000000000000000
310
00000000000000000000000000000000000000000000000000000000000000000000000000000000000000000000000000000000000000000000000000000000000000000000000000000000000000000000000000000000000000000000000000000000000000000000000000000000000000000000000000000000000000
310
00000000000000000000000000000000000000000000000000000000000000000000000000000000000000000000000000000000000000000000000000000000000000000000000000000000000000000000000000000000000000000000000000000000000000000000000000000000000000000000000000000000000000
310
00000000000000000000000000000000000000000000000000000000000000000000000000000000000000000000000000000000000000000000000000000000000000000000000000000000000000000000000000000000000000000000000000000000000000000000000000000000000000000000000000000000000000
310
00000000000000000000000000000000000000000000000000000000000000000000000000000000000000000000000000000000000000000000000000000000000000000000000000000000000000000000000000000000000000000000000000000000000000000000000000000000000000000000000000000000000000
310
00000000000000000000000000000000000000000000000000000000000000000000000000000000000000000000000000000000000000000000000000000000000000000000000000000000000000000000000000000000000000000000000000000000000000000000000000000000000000000000000000000000000000
310
00000000000000000000000000000000000000000000000000000000000000000000000000000000000000000000000000000000000000000000000000000000000000000000000000000000000000000000000000000000000000000000000000000000000000000000000000000000000000000000000000000000000000
310
00000000000000000000000000000000000000000000000000000000000000000000000000000000000000000000000000000000000000000000000000000000000000000000000000000000000000000000000000000000000000000000000000000000000000000000000000000000000000000000000000000000000000
310
00000000000000000000000000000000000000000000000000000000000000000000000000000000000000000000000000000000000000000000000000000000000000000000000000000000000000000000000000000000000000000000000000000000000000000000000000000000000000000000000000000000000000
310
00000000000000000000000000000000000000000000000000000000000000000000000000000000000000000000000000000000000000000000000000000000000000000000000000000000000000000000000000000000000000000000000000000000000000000000000000000000000000000000000000000000000000
310
00000000000000000000000000000000000000000000000000000000000000000000000000000000000000000000000000000000000000000000000000000000000000000000000000000000000000000000000000000000000000000000000000000000000000000000000000000000000000000000000000000000000000
310
00000000000000000000000000000000000000000000000000000000000000000000000000000000000000000000000000000000000000000000000000000000000000000000000000000000000000000000000000000000000000000000000000000000000000000000000000000000000000000000000000000000000000
310
00000000000000000000000000000000000000000000000000000000000000000000000000000000000000000000000000000000000000000000000000000000000000000000000000000000000000000000000000000000000000000000000000000000000000000000000000000000000000000000000000000000000000
310
00000000000000000000000000000000000000000000000000000000000000000000000000000000000000000000000000000000000000000000000000000000000000000000000000000000000000000000000000000000000000000000000000000000000000000000000000000000000000000000000000000000000000
310
00000000000000000000000000000000000000000000000000000000000000000000000000000000000000000000000000000000000000000000000000000000000000000000000000000000000000000000000000000000000000000000000000000000000000000000000000000000000000000000000000000000000000
310
00000000000000000000000000000000000000000000000000000000000000000000000000000000000000000000000000000000000000000000000000000000000000000000000000000000000000000000000000000000000000000000000000000000000000000000000000000000000000000000000000000000000000
310
00000000000000000000000000000000000000000000000000000000000000000000000000000000000000000000000000000000000000000000000000000000000000000000000000000000000000000000000000000000000000000000000000000000000000000000000000000000000000000000000000000000000000
310
00000000000000000000000000000000000000000000000000000000000000000000000000000000000000000000000000000000000000000000000000000000000000000000000000000000000000000000000000000000000000000000000000000000000000000000000000000000000000000000000000000000000000
310
00000000000000000000000000000000000000000000000000000000000000000000000000000000000000000000000000000000000000000000000000000000000000000000000000000000000000000000000000000000000000000000000000000000000000000000000000000000000000000000000000000000000000
310
00000000000000000000000000000000000000000000000000000000000000000000000000000000000000000000000000000000000000000000000000000000000000000000000000000000000000000000000000000000000000000000000000000000000000000000000000000000000000000000000000000000000000
310
00000000000000000000000000000000000000000000000000000000000000000000000000000000000000000000000000000000000000000000000000000000000000000000000000000000000000000000000000000000000000000000000000000000000000000000000000000000000000000000000000000000000000
310
00000000000000000000000000000000000000000000000000000000000000000000000000000000000000000000000000000000000000000000000000000000000000000000000000000000000000000000000000000000000000000000000000000000000000000000000000000000000000000000000000000000000000
310
00000000000000000000000000000000000000000000000000000000000000000000000000000000000000000000000000000000000000000000000000000000000000000000000000000000000000000000000000000000000000000000000000000000000000000000000000000000000000000000000000000000000000
310
00000000000000000000000000000000000000000000000000000000000000000000000000000000000000000000000000000000000000000000000000000000000000000000000000000000000000000000000000000000000000000000000000000000000000000000000000000000000000000000000000000000000000
310
00000000000000000000000000000000000000000000000000000000000000000000000000000000000000000000000000000000000000000000000000000000000000000000000000000000000000000000000000000000000000000000000000000000000000000000000000000000000000000000000000000000000000
310
00000000000000000000000000000000000000000000000000000000000000000000000000000000000000000000000000000000000000000000000000000000000000000000000000000000000000000000000000000000000000000000000000000000000000000000000000000000000000000000000000000000000000
310
00000000000000000000000000000000000000000000000000000000000000000000000000000000000000000000000000000000000000000000000000000000000000000000000000000000000000000000000000000000000000000000000000000000000000000000000000000000000000000000000000000000000000
310
00000000000000000000000000000000000000000000000000000000000000000000000000000000000000000000000000000000000000000000000000000000000000000000000000000000000000000000000000000000000000000000000000000000000000000000000000000000000000000000000000000000000000
310
00000000000000000000000000000000000000000000000000000000000000000000000000000000000000000000000000000000000000000000000000000000000000000000000000000000000000000000000000000000000000000000000000000000000000000000000000000000000000000000000000000000000000
310
00000000000000000000000000000000000000000000000000000000000000000000000000000000000000000000000000000000000000000000000000000000000000000000000000000000000000000000000000000000000000000000000000000000000000000000000000000000000000000000000000000000000000
310
00000000000000000000000000000000000000000000000000000000000000000000000000000000000000000000000000000000000000000000000000000000000000000000000000000000000000000000000000000000000000000000000000000000000000000000000000000000000000000000000000000000000000
310
00000000000000000000000000000000000000000000000000000000000000000000000000000000000000000000000000000000000000000000000000000000000000000000000000000000000000000000000000000000000000000000000000000000000000000000000000000000000000000000000000000000000000
310
00000000000000000000000000000000000000000000000000000000000000000000000000000000000000000000000000000000000000000000000000000000000000000000000000000000000000000000000000000000000000000000000000000000000000000000000000000000000000000000000000000000000000
310
00000000000000000000000000000000000000000000000000000000000000000000000000000000000000000000000000000000000000000000000000000000000000000000000000000000000000000000000000000000000000000000000000000000000000000000000000000000000000000000000000000000000000
310
00000000000000000000000000000000000000000000000000000000000000000000000000000000000000000000000000000000000000000000000000000000000000000000000000000000000000000000000000000000000000000000000000000000000000000000000000000000000000000000000000000000000000
310
00000000000000000000000000000000000000000000000000000000000000000000000000000000000000000000000000000000000000000000000000000000000000000000000000000000000000000000000000000000000000000000000000000000000000000000000000000000000000000000000000000000000000
310
00000000000000000000000000000000000000000000000000000000000000000000000000000000000000000000000000000000000000000000000000000000000000000000000000000000000000000000000000000000000000000000000000000000000000000000000000000000000000000000000000000000000000
310
00000000000000000000000000000000000000000000000000000000000000000000000000000000000000000000000000000000000000000000000000000000000000000000000000000000000000000000000000000000000000000000000000000000000000000000000000000000000000000000000000000000000000
310
00000000000000000000000000000000000000000000000000000000000000000000000000000000000000000000000000000000000000000000000000000000000000000000000000000000000000000000000000000000000000000000000000000000000000000000000000000000000000000000000000000000000000
310
00000000000000000000000000000000000000000000000000000000000000000000000000002800000000000000000000000000000000000000000000000000000000000000000000000000000000000000000000000000000000000000000000000000000000000000000000002800000000000000000000000000000000
310
00000000000000000000000000000000000000000000000000000000000000000000000000000000000000000000000000000000000000000000000000000000000000000000000000000000000000000000000000000000000000000000000000000000000000000000000000000000000000000000000000000000000000
310
00000000000000000000000000000000000000000000000000000000000000000000000000002828282828282828282828282828282828282828282828282828282828282828282828CACACACACACACA2828282828282828282828282828282828282828282828282828282828282828282828000000000000000000000000
310
00000000000000000000000000000000000000000000000000000000000000000000000000000000000000000000000000000000000000000000000000000000000000000000000000000000000000000000000000000000000000000000000000000000000000000000000000000000000000000000000000000000000000
310
000000000000000000000000000000000000000000000000000000000000000000000000000000002800000000000000000000000000000000000000000000000000000000000000000000CACACACACACACA000000000000000000000000000000000000000000000000000000000000000000002800000000000000000000
310
00000000000000000000000000000000000000000000000000000000000000000000000000000000000000000000000000000000000000000000000000000000000000000000000000000000000000000000000000000000000000000000000000000000000000000000000000000000000000000000000000000000000000
310
0000000000000000000000000000000000000000000000000000000000000000000000000000000000002800000000000000000000000000000000000000000000000000000000000000000000CACACA00CACACA00000000000000000000000000000000000000000000000000000000000000000000280000000000000000
310
00000000000000000000000000000000000000000000000000000000000000000000000000000000000000000000000000000000000000000000000000000000000000000000000000000000000000000000000000000000000000000000000000000000000000000000000000000000000000000000000000000000000000
310
00000000000000000000000000000000000000000000000000000000000000000000000000000000000000002800000000000000000000000000000000000000000000000000000000000000000000000000000000000000000000000000000000000000000000000000000000000000000000000000000028000000000000
310
00000000000000000000000000000000000000000000000000000000000000000000000000000000000000000000000000000000000000000000000000000000000000000000000000000000000000000000000000000000000000000000000000000000000000000000000000000000000000000000000000000000000000
310
00000000000000000000000000000000000000000000000000000000000000000000000000000000000000000000280000000000000000000000000000000000000000000000000000000000000000000000000000000000000000000000000000000000000000000000000000000000000000000000000000002800000000
310
00000000000000000000000000000000000000000000000000000000000000000000000000000000000000000000000000000000000000000000000000000000000000000000000000000000000000000000000000000000000000000000000000000000000000000000000000000000000000000000000000000000000000
310
00000000000000000000000000000000000000000000000000000000000000000000000000000000000000000000000028000000000000000000000000000000000000000000000000000000000000000000000000000000000000000000000000000000000000000000000000000000000000000000000000000000280000
310
00000000000000000000000000000000000000000000000000000000000000000000000000000000000000000000000000000000000000000000000000000000000000000000000000000000000000000000000000000000000000000000000000000000000000000000000000000000000000000000000000000000000000
310
00000000000000000000000000000000000000000000000000000000000000000000000000000000000000000000000000002800000000000000000000000000000000000000000000000000000000000000000000000000000000000000000000000000000000000000000000000000000000000000000000000000000028
310
00000000000000000000000000000000000000000000000000000000000000000000000000000000000000000000000000000000000000000000000000000000000000000000000000000000000000000000000000000000000000000000000000000000000000000000000000000000000000000000000000000000000000
310
00000000000000000000000000000000000000000000000000000000000000000000000000000000000000000000000000000000280000000000000000000000000000000000000000000000000000000000000000000000000000000000000000000000000000000000000000000000000000000000000000000000000000
310
00280000000000000000000000000000000000000000000000000000000000000000000000000000000000000000000000000000000000000000000000000000000000000000000000000000000000000000000000000000000000000000000000000000000000000000000000000000000000000000000000000000000000
310
000000000000000000000000000000000000000000000000000000000000000000000000002828282828282828282828282828282828285FF5F5F5F5F5F5F5F5F5F5F5F5F5F5F5F5F5F5F5F5F5F5F5F5F5F5F5F5F5F5F5F5F5F5F5F5F5F5F5F5F5F5F5F5F5F5F5F5F5F5F5F5F5F5F5F5F5F5F5F5F5F5F5F5F5F5F5F5F5F5F5
310
F5F55F28000000000000000000000000000000000000000000000000000000000000000000000000000000000000000000000000000000000000000000000000000000000000000000000000000000000000000000000000000000000000000000000000000000000000000000000000000000000000000000000000000000
310
0000000000000000000000000000000000000000000000000000000000000000000000000000002828000000000000002800000000000000F5005F5F000000000000000000000000000000F5000000000000000000000000000000000000F5000000000000000000000000000000000000F500000000000000000000000000
310
00005F5F00F500000000000000000000000000000000000000000000000000000000000000000000000000000000000000000000000000000000000000000000000000000000000000000000000000000000000000000000000000000000000000000000000000000000000000000000000000000000000000000000000000
310
00000000000000000000000000000000000000000000000000000000000000000000000000000000002828000000000000002800000000000000F50000005F5F5F000000000000000000000000F5000000000000000000000000000000000000F5000000000000000000000000000000000000F50000000000000000000000
310
005F5F5F000000F50000000000000000000000000000000000000000000000000000000000000000000000000000000000000000000000000000000000000000000000000000000000000000000000000000000000000000000000000000000000000000000000000000000000000000000000000000000000000000000000
310
000000000000000000000000000000000000000000000000000000000000000000000000000000000000002800000000000000002800000000000000F50000000000005F5F00000000000000000000F5000000000000000000000000000000000000F5000000000000000000000000000000000000F5000000000000000000
310
005F5F000000000000F5000000000000000000000000000000000000000000000000000000000000000000000000000000000000000000000000000000000000000000000000000000000000000000000000000000000000000000000000000000000000000000000000000000000000000000000000000000000000000000
310
0000000000000000000000000000000000000000000000000000000000000000000000000000000000000000002800000000000000002800000000000000F500000000000000005F5F0000000000000000F5000000000000000000000000000000000000F5000000000000000000000000000000000000F500000000000000
310
005F5F0000000000000000F500000000000000000000000000000000000000000000000000000000000000000000000000000000000000000000000000000000000000000000000000000000000000000000000000000000000000000000000000000000000000000000000000000000000000000000000000000000000000
310
00000000000000000000000000000000000000000000000000000000000000000000000000000000000000000000002800000000000000002800000000000000F5000000000000000000005F00000000000000F5000000000000000000000000000000000000F5000000000000000000000000000000000000F50000000000
310
005F5F00000000000000000000F50000000000000000000000000000000000000000000000000000000000000000000000000000000000000000000000000000000000000000000000000000000000000000000000000000000000000000000000000000000000000000000000000000000000000000000000000000000000
310
000000000000000000000000000000000000000000000000000000000000000000000000000000000000000000000000002800000000000000002800000000000000F500000000000000000000005F5F0000000000F5000000000000000000000000000000000000F5000000000000000000000000000000000000F5000000
310
005F5F000000000000000000000000F5000000000000000000000000000000000000000000000000000000000000000000000000000000000000000000000000000000000000000000000000000000000000000000000000000000000000000000000000000000000000000000000000000000000000000000000000000000
310
0000000000000000000000000000000000000000000000000000000000000000000000000000000000000000000000000000002800000000000000002800000000000000F5000000000000000000000000005F00000000F5000000000000000000000000000000000000F5000000000000000000000000000000000000F500
310
00005F0000000000000000000000000000F500000000000000000000000000000000000000000000000000000000000000000000000000000000000000000000000000000000000000000000000000000000000000000000000000000000000000000000000000000000000000000000000000000000000000000000000000
310
00000000000000000000000000000000000000000000000000000000000000000000000000000000000000000000000000000000002800000000000000002800000000000000F500000000000000000000000000005F5F0000F5000000000000000000000000000000000000F5000000000000000000000000000000000000
310
F5005F5F000000000000000000000000000000F50000000000000000000000000000000000000000000000000000000000000000000000000000000000000000000000000000000000000000000000000000000000000000000000000000000000000000000000000000000000000000000000000000000000000000000000
310
000000000000000000000000000000000000000000000000000000000000000000000000000000000000000000000000000000000000002800000000000000002800000000000000F5000000000000000000000000000000005F5FF5000000000000000000000000000000000000F500000000000000000000000000000000
310
0000F55F0000000000000000000000000000000000F5000000000000000000000000000000000000000000000000000000000000000000000000000000000000000000000000000000000000000000000000000000000000000000000000000000000000000000000000000000000000000000000000000000000000000000
310
0000000000000000000000000000000000000000000000000000000000000000000000000000000000000000000000000000000000000000002800000000000000002800000000000000F50000000000000000000000000000000000005F000000000000000000000000000000000000F50000000000000000000000000000
310
000000005F000000000000000000000000000000000000F500000000000000000000000000000000000000000000000000000000000000000000000000000000000000000000000000000000000000000000000000000000000000000000000000000000000000000000000000000000000000000000000000000000000000
310
00000000000000000000000000000000000000000000000000000000000000000000000000000000000000000000000000000000000000000000002800000000000000002800000000000000F5000000000000000000000000000000000000F55F0000000000000000000000000000000000F5000000000000000000000000
310
000000005F5FF5000000000000000000000000000000000000F50000000000000000000000000000000000000000000000000000000000000000000000000000000000000000000000000000000000000000000000000000000000000000000000000000000000000000000000000000000000000000000000000000000000
310
000000000000000000000000000000000000000000000000000000000000000000000000000000000000000000000000000000000000000000000000002800000000000000002800000000000000F5000000000000000000000000000000000000F5005F5F000000000000000000000000000000F500000000000000000000
310
00000000005F0000F5000000000000000000000000000000000000F5000000000000000000000000000000000000000000000000000000000000000000000000000000000000000000000000000000000000000000000000000000000000000000000000000000000000000000000000000000000000000000000000000000
310
0000000000000000000000000000000000000000000000000000000000000000000000000000000000000000000000000000000000000000000000000000002800000000000000002800000000000000F5F5F5F5F5F5F5F5F5F5F5F5F5F5F5F5F5F5F5F5F5F5F5F5F5F5F5F5F5F5F5F5F5F5F5F5F5F5F5F5F5F5F5F5F5F5F5
310
F5F5F5F5F5F5F5F5F5F5F5F5F5F5F5F5F5F5F5F5F5F5F5F5F5F5F5F5F5F500000000000000000000000000000000000000000000000000000000000000000000000000000000000000000000000000000000000000000000000000000000000000000000000000000000000000000000000000000000000000000000000000
310
00000000000000000000000000000000000000000000000000000000000000000000000000000000000000000000000000000000000000000000000000000000002800000000000000002800000000000000F5000000000000000000000000000000000000F5000000005F00000000000000000000000000F5000000000000
310
000000000000005F00000000F5000000000000000000000000000000000000F50000000000000000000000000000000000000000000000000000000000000000000000000000000000000000000000000000000000000000000000000000000000000000000000000000000000000000000000000000000000000000000000
310
000000000000000000000000000000000000000000000000000000000000000000000000000000000000000000000000000000000000000000000000000000000000002800000000000000002800000000000000F5000000000000000000000000000000000000F500000000005F000000000000000000000000F500000000
310
00000000000000005F0000000000F5000000000000000000000000000000000000F5000000000000000000000000000000000000000000000000000000000000000000000000000000000000000000000000000000000000000000000000000000000000000000000000000000000000000000000000000000000000000000
310
0000000000000000000000000000000000000000000000000000000000000000000000000000000000000000000000000000000000000000000000000000000000000000002800000000000000002800000000000000F5000000000000000000000000000000000000F500000000005F000000000000000000000000F50000
310
0000000000000000005F000000000000F5000000000000000000000000000000000000F500000000000000000000000000000000000000000000000000000000000000000000000000000000000000000000000000000000000000000000000000000000000000000000000000000000000000000000000000000000000000
310
00000000000000000000000000000000000000000000000000000000000000000000000000000000000000000000000000000000000000000000000000000000000000000000002800000000000000002800000000000000F5000000000000000000000000000000000000F50000000000005F0000000000000000000000F5
310
000000000000000000005F00000000000000F5000000000000000000000000000000000000F50000000000000000000000000000000000000000000000000000000000000000000000000000000000000000000000000000000000000000000000000000000000000000000000000000000000000000000000000000000000
310
000000000000000000000000000000000000000000000000000000000000000000000000000000000000000000000000000000000000000000000000000000000000000000000000002800000000000000002800000000000000F5000000000000000000000000000000000000F5000000000000005F000000000000000000
310
00F50000000000000000005F0000000000000000F5000000000000000000000000000000000000F5000000000000000000000000000000000000000000000000000000000000000000000000000000000000000000000000000000000000000000000000000000000000000000000000000000000000000000000000000000
310
0000000000000000000000000000000000000000000000000000000000000000000000000000000000000000000000000000000000000000000000000000000000000000000000000000002800000000000000002800000000000000F5000000000000000000000000000000000000F500000000000000005F000000000000
310
000000F50000000000000000005F0000000000000000F5000000000000000000000000000000000000F500000000000000000000000000000000000000000000000000000000000000000000000000000000000000000000000000000000000000000000000000000000000000000000000000000000000000000000000000
310
00000000000000000000000000000000000000000000000000000000000000000000000000000000000000000000000000000000000000000000000000000000000000000000000000000000002800000000000000002800000000000000F5000000000000000000000000000000000000F50000000000000000005F000000
310
0000000000F500000000000000005F000000000000000000F5000000000000000000000000000000000000F50000000000000000000000000000000000000000000000000000000000000000000000000000000000000000000000000000000000000000000000000000000000000000000000000000000000000000000000
310
0000000000000000000000000000000000000000000000000000000000000000000000000000000000000000000000000000000000000000000000000000000000000000000000000000000000000028000000000000CACACA00000000000000F5000000000000000000000000000000000000F5000000000000000000005F
310
00000000000000F5000000000000005F00000000000000000000F5000000000000000000000000000000000000F5000000000000000000000000000000000000000000000000000000000000000000000000000000000000000000000000000000000000000000000000000000000000000000000000000000000000000000
310
00000000000000000000000000000000000000000000000000000000000000000000000000000000000000000000000000000000000000000000000000000000000000000000000000000000000000000028000000000000CACACA00000000000000F5000000000000000000000000000000000000F5000000000000000000
310
005F00000000000000F50000000000005F0000000000000000000000F5000000000000000000000000000000000000F500000000000000000000000000000000000000000000000000000000000000000000000000000000000000000000000000000000000000000000000000000000000000000000000000000000000000
310
000000000000000000000000000000000000000000000000000000000000000000000000000000000000000000000000000000000000000000000000000000000000000000000000000000000000000000000028000000000000CACACA00000000000000F5000000000000000000000000000000000000F500000000000000
310
000000005F000000000000F50000000000005F0000000000000000000000F5000000000000000000000000000000000000F50000000000000000000000000000000000000000000000000000000000000000000000000000000000000000000000000000000000000000000000000000000000000000000000000000000000
310
0000000000000000000000000000000000000000000000000000000000000000000000000000000000000000000000000000000000000000000000000000000000000000000000000000000000000000000000000028000000000000CACACA00000000000000F5000000000000000000000000000000000000F50000000000
310
0000000000005F000000000000F500000000005F000000000000000000000000F5000000000000000000000000000000000000F5000000000000000000000000000000000000000000000000000000000000000000000000000000000000000000000000000000000000000000000000000000000000000000000000000000
310
00000000000000000000000000000000000000000000000000000000000000000000000000000000000000000000000000000000000000000000000000000000000000000000000000000000000000000000000000000028000000000000CACACA00000000000000F5000000000000000000000000000000000000F5000000
310
0000000000000000005F0000000000F500000000005F000000000000000000000000F5000000000000000000000000000000000000F500000000000000000000000000000000000000000000000000000000000000000000000000000000000000000000000000000000000000000000000000000000000000000000000000
310
000000000000000000000000000000000000000000000000000000000000000000000000000000000000000000000000000000000000000000000000000000000000000000000000000000000000000000000000000000000028000000000000CACACA00000000000000F5000000000000000000000000000000000000F500
310
00000000000000000000005F0000000000F5000000005F00000000000000000000000000F5000000000000000000000000000000000000F50000000000000000000000000000000000000000000000000000000000000000000000000000000000000000000000000000000000000000000000000000000000000000000000
310
0000000000000000000000000000000000000000000000000000000000000000000000000000000000000000000000000000000000000000000000000000000000000000000000000000000000000000000000000000000000000028000000000000CACACA00000000000000F5000000000000000000000000000000000000
310
F5000000000000000000000000005F00000000F5000000005F00000000000000000000000000F5000000000000000000000000000000000000F5000000000000000000000000000000000000000000000000000000000000000000000000000000000000000000000000000000000000000000000000000000000000000000
310
0000000000000000000000000000000000000000000000000000000000000000000000000000000000000000000000000000000000000000000000000000000000000000000000000000000000000000000000000000000000000000002800000000000000002800000000000000F500000000000000000000000000000000
310
0000F5000000000000000000000000005F00000000F50000005F0000000000000000000000000000F5000000000000000000000000000000000000F500000000000000000000000000000000000000000000000000000000000000000000000000000000000000000000000000000000000000000000000000000000000000
310
00000000000000000000000000000000000000000000000000000000000000000000000000000000000000000000000000000000000000000000000000000000000000000000000000000000000000000000000000000000000000000000002800000000000000002800000000000000F50000000000000000000000000000
310
00000000F500000000000000000000000000005F000000F50000005F0000000000000000000000000000F5000000000000000000000000000000000000F50000000000000000000000000000000000000000000000000000000000000000000000000000000000000000000000000000000000000000000000000000000000
310
000000000000000000000000000000000000000000000000000000000000000000000000000000000000000000000000000000000000000000000000000000000000000000000000000000000000000000000000000000000000000000000000002800000000000000002800000000000000F5000000000000000000000000
310
000000000000F500000000000000000000000000005F000000F500005F000000000000000000000000000000F5000000000000000000000000000000000000F5000000000000000000000000000000000000000000000000000000000000000000000000000000000000000000000000000000000000000000000000000000
310
0000000000000000000000000000000000000000000000000000000000000000000000000000000000000000000000000000000000000000000000000000000000000000000000000000000000000000000000000000000000000000000000000000002800000000000000002800000000000000F500000000000000000000
310
0000000000000000F50000000000000000000000000000005F0000F500005F000000000000000000000000000000F5000000000000000000000000000000000000F500000000000000000000000000000000000000000000000000000000000000000000000000000000000000000000000000000000000000000000000000
310
000000000000000000000000000000000000000000000000000000000000000000000000000000000000000000000000000000000000000000000000000000000000000000000000000000000000000000000000000000000000000000000000000000CACACA00000000000000002800000000000000F50000000000000000
310
00000000000000000000F50000000000000000000000000000005F0000F500005F000000000000000000000000000000F5000000000000000000000000000000000000F50000000000000000000000000000000000000000000000000000000000000000000000000000000000000000000000000000000000000000000000
310
0000000000000000000000000000000000000000000000000000000000000000000000000000000000000000000000000000000000000000000000000000000000000000000000000000000000000000000000000000000000000000000000000000000000CACACA00000000000000002800000000000000F5000000000000
310
000000000000000000000000F5000000000000000000000000000000005F00F5005F00000000000000000000000000000000F5000000000000000000000000000000000000F5000000000000000000000000000000000000000000000000000000000000000000000000000000000000000000000000000000000000000000
310
00000000000000000000000000000000000000000000000000000000000000000000000000000000000000000000000000000000000000000000000000000000000000000000000000000000000000000000000000000000000000000000000000000000000000CACACA00000000000000002800000000000000F500000000
310
0000000000000000000000000000F5000000000000000000000000000000005F00F5005F00000000000000000000000000000000F5000000000000000000000000000000000000F500000000000000000000000000000000000000000000000000000000000000000000000000000000000000000000000000000000000000
310
000000000000000000000000000000000000000000000000000000000000000000000000000000000000000000000000000000000000000000000000000000000000000000000000000000000000000000000000000000000000000000000000000000000000000000CACACA00000000000000002800000000000000F50000
310
00000000000000000000000000000000F500000000000000000000000000000000005FF55F0000000000000000000000000000000000F5000000000000000000000000000000000000F50000000000000000000000000000000000000000000000000000000000000000000000000000000000000000000000000000000000
310
0000000000000000000000000000000000000000000000000000000000000000000000000000000000000000000000000000000000000000000000000000000000000000000000000000000000000000000000000000000000000000000000000000000000000000000000CACACA00000000000000002800000000000000F5
310
000000000000000000000000000000000000F500000000000000000000000000000000005FF55F0000000000000000000000000000000000F5000000000000000000000000000000000000F5000000000000000000000000000000000000000000000000000000000000000000000000000000000000000000000000000000
310
00000000000000000000000000000000000000000000000000000000000000000000000000000000000000000000000000000000000000000000000000000000000000000000000000000000000000000000000000000000000000000000000000000000000000000000000000CACACA000000000000000028000000000000
310
00F5000000000000000000000000000000000000F500000000000000000000000000000000005FF55F0000000000000000000000000000000000F5000000000000000000000000000000000000F500000000000000000000000000000000000000000000000000000000000000000000000000000000000000000000000000
310
000000000000000000000000000000000000000000000000000000000000000000000000000000000000000000000000000000000000000000000000000000000000000000000000000000000000000000000000000000000000000000000000000000000000000000000000000000CACACA00000000000000002800000000
310
000000F5000000000000000000000000000000000000F500000000000000000000000000000000005FF55F0000000000000000000000000000000000F5000000000000000000000000000000000000F50000000000000000000000000000000000000000000000000000000000000000000000000000000000000000000000
310
000000000000000000000000000000000000000000000000000000000000000000000000000000000000000000000000000000000000000000000000000000000000000000000000000000000000000000000000000000000000000000000000000000000000000000000000000000000000CACA0000000000000000280000
310
0000000000F5000000000000000000000000000000000000F50000000000000000000000000000000000005F000000000000000000000000000000000000F5000000000000000000000000000000000000F5000000000000000000000000000000000000000000000000000000000000000000000000000000000000000000
310
00000000000000000000000000000000000000000000000000000000000000000000000000000000000000000000000000000000000000000000000000000000000000000000000000000000000000000000000000000000000000000000000000000000000000000000000000000000000000000028000000000000000028
310
00000000000000F5000000000000000000000000000000000000F50000000000000000000000000000000000005F000000000000000000000000000000000000F5000000000000000000000000000000000000F500000000000000000000000000000000000000000000000000000000000000000000000000000000000000
310
00000000000000000000000000000000000000000000000000000000000000000000000000000000000000000000000000000000000000000000000000000000000000000000000000000000000000000000000000000000000000000000000000000000000000000000000000000000000000000000002800000000000000
310
002800000000000000F5000000000000000000000000000000000000F50000000000000000000000000000000000005F000000000000000000000000000000000000F5000000000000000000000000000000000000F50000000000280000000000000000000000000000000000000000000000000000000000000000000000
310
00000000000000000000000000000000000000000000000000000000000000000000000000000000000000000000000000000000000000000000000000000000000000000000000000000000000000000000000000000000000000000000000000000000000000000000000000000000000000000000000000280000000000
310
0000002800000000000000F5000000000000000000000000000000000000F5000000000000000000000000000000000000F5000000000000000000000000000000000000F5000000000000000000000000000000000000F5000000000028000000000000000000000000000000000000000000000000000000000000000000
310
00000000000000000000000000000000000000000000000000000000000000000000000000000000000000000000000000000000000000000000000000000000000000000000000000000000000000000000000000000000000000000000000000000000000000000000000000000000000000000000000000000028000000
310
00000000002800000000000000F5000000000000000000000000000000000000F5000000000000000000000000000000000000F5000000000000000000000000000000000000F5000000000000000000000000000000000000F500000000002828000000000000000000000000000000000000000000000000000000000000
310
00000000000000000000000000000000000000000000000000000000000000000000000000000000000000000000000000000000000000000000000000000000000000000000000000000000000000000000000000000000000000000000000000000000000000000000000000000000000000000000000000000000002800
310
000000000000002800000000000000F5000000000000000000000000000000000000F5000000000000000000000000000000000000F5000000000000000000000000000000000000F5000000000000000000000000000000000000F50000000000282800000000000000000000000000000000000000000000000000000000
310
00000000000000000000000000000000000000000000000000000000000000000000000000000000000000000000000000000000000000000000000000000000000000000000000000000000000000000000000000000000000000000000000000000000000000000000000000000000000000000000000000000000000000
310
2800000000000000002800000000000000F5F5F5F5F5F5F5F5F5F5F5F5F5F5F5F5F5F5F5F5F5F5F5F5F5F5F5F5F5F5F5F5F5F5F5F5F5F5F5F5F5F5F5F5F5F5F5F5F5F5F5F5F5F5F5F5F5F5F5F5F5F5F5F5F5F5F5F5F5F5F5F5F5F5F5F528282828282828000000000000000000000000000000000000000000000000000000
310
00000000000000000000000000000000000000000000000000000000000000000000000000000000000000000000000000000000000000000000000000000000000000000000000000000000000000000000000000000000000000000000000000000000000000000000000000000000000000000000000000000000000000
310
00002800000000000000002800000000000000F5000000000000000000000000000000000000F5000000000000000000000000000000000000F5000000000000000000000000000000000000F5000000000000000000000000000000000000F500000000002800000000000000000000000000000000000000000000000000
310
00000000000000000000000000000000000000000000000000000000000000000000000000000000000000000000000000000000000000000000000000000000000000000000000000000000000000000000000000000000000000000000000000000000000000000000000000000000000000000000000000000000000000
310
000000002800000000000000002800000000000000F5000000000000000000000000000000000000F5000000000000000000000000000000000000F5000000000000000000000000000000000000F5000000000000000000000000000000000000F50000000000280000000000000000000000000000000000000000000000
310
00000000000000000000000000000000000000000000000000000000000000000000000000000000000000000000000000000000000000000000000000000000000000000000000000000000000000000000000000000000000000000000000000000000000000000000000000000000000000000000000000000000000000
310
000000000000280000000000000000282828282828282828F5F5F5F5F5F5F5F5F5F5F5F5F5F5F5F5F5F5F5F5F5F5F5F5F5F5F5F5F5F5F5F5F5F5F5F5F5F5F5F5F5F5F5F5F5F5F5F5F5F5F5F5F5F5F5F5F5F5F5F5F5F5F5F5F5F5F5F5F5F5F5F5F5F5F528282828282828000000000000000000000000000000000000000000
310
00000000000000000000000000000000000000000000000000000000000000000000000000000000000000000000000000000000000000000000000000000000000000000000000000000000000000000000000000000000000000000000000000000000000000000000000000000000000000000000000000000000000000
310
00000000000000002800000000000000000000000000000000000000000000000000000000000000000000F500F50000000000000000000000000000000000000000000000000000000000000000000000F500F500000000000000000000000000000000000000000000002828000000000000000000000000000000000000
310
00000000000000000000000000000000000000000000000000000000000000000000000000000000000000000000000000000000000000000000000000000000000000000000000000000000000000000000000000000000000000000000000000000000000000000000000000000000000000000000000000000000000000
310
000000000000000000002800000000000000000000000000000000000000000000000000000000000000000000F500F50000000000000000000000000000000000000000000000000000000000000000000000F500F50000000000000000000000000000000000000000000000282800000000000000000000000000000000
310
00000000000000000000000000000000000000000000000000000000000000000000000000000000000000000000000000000000000000000000000000000000000000000000000000000000000000000000000000000000000000000000000000000000000000000000000000000000000000000000000000000000000000
310
0000000000000000000000002800000000000000000000000000000000000000000000000000000000000000000000F500F50000000000000000000000000000000000000000000000000000000000000000000000F500F5000000000000000000000000000000000000000000000028000000000000000000000000000000
310
00000000000000000000000000000000000000000000000000000000000000000000000000000000000000000000000000000000000000000000000000000000000000000000000000000000000000000000000000000000000000000000000000000000000000000000000000000000000000000000000000000000000000
310
00000000000000000000000000002800000000000000000000000000000000000000000000000000000000000000000000F500F50000000000000000000000000000000000000000000000000000000000000000000000F500F5000000000000000000000000000000000000000000CACACA00000000000000000000000000
310
00000000000000000000000000000000000000000000000000000000000000000000000000000000000000000000000000000000000000000000000000000000000000000000000000000000000000000000000000000000000000000000000000000000000000000000000000000000000000000000000000000000000000
310
000000000000000000000000000000002800000000000000000000000000000000000000000000000000000000000000000000F500F50000000000000000000000000000000000000000000000000000000000000000000000F500F500000000000000000000000000000000000000000000CACA0000000000000000000000
310
00000000000000000000000000000000000000000000000000000000000000000000000000000000000000000000000000000000000000000000000000000000000000000000000000000000000000000000000000000000000000000000000000000000000000000000000000000000000000000000000000000000000000
310
0000000000000000000000000000000000002800000000000000000000000000000000000000000000000000000000000000000000F500F50000000000000000000000000000000000000000000000000000000000000000000000F500F5000000000000000000000000000000000000000000CACACA000000000000000000
310
00000000000000000000000000000000000000000000000000000000000000000000000000000000000000000000000000000000000000000000000000000000000000000000000000000000000000000000000000000000000000000000000000000000000000000000000000000000000000000000000000000000000000
310
00000000000000000000000000000000000000002800000000000000000000000000000000000000000000000000000000000000000000F500F50000000000000000000000000000000000000000000000000000000000000000000000F500F5000000000000000000000000000000000000000000CACACA00000000000000
310
00000000000000000000000000000000000000000000000000000000000000000000000000000000000000000000000000000000000000000000000000000000000000000000000000000000000000000000000000000000000000000000000000000000000000000000000000000000000000000000000000000000000000
310
000000000000000000000000000000000000000000002800000000000000000000000000000000000000000000000000000000000000000000F500F50000000000000000000000000000000000000000000000000000000000000000000000F500F500000000000000000000000000000000000000000000CACA0000000000
310
00000000000000000000000000000000000000000000000000000000000000000000000000000000000000000000000000000000000000000000000000000000000000000000000000000000000000000000000000000000000000000000000000000000000000000000000000000000000000000000000000000000000000
310
0000000000000000000000000000000000000000000000002800000000000000000000000000000000000000000000000000000000000000000000F500F50000000000000000000000000000000000000000000000000000000000000000000000F500F5000000000000000000000000000000000000000000000000000000
310
00000000000000000000000000000000000000000000000000000000000000000000000000000000000000000000000000000000000000000000000000000000000000000000000000000000000000000000000000000000000000000000000000000000000000000000000000000000000000000000000000000000000000
310
00000000000000000000000000000000000000000000000000002800000000000000000000000000000000000000000000000000000000000000000000F500F50000000000000000000000000000000000000000000000000000000000000000000000F500F500000000000000000000000000000000000000000000000000
310
00000000000000000000000000000000000000000000000000000000000000000000000000000000000000000000000000000000000000000000000000000000000000000000000000000000000000000000000000000000000000000000000000000000000000000000000000000000000000000000000000000000000000
310
000000000000000000000000000000000000000000000000000000002800000000000000000000000000000000000000000000000000000000000000000000F500F50000000000000000000000000000000000000000000000000000000000000000000000F500F50000000000000000000000000000000000000000000000
310
00000000000000000000000000000000000000000000000000000000000000000000000000000000000000000000000000000000000000000000000000000000000000000000000000000000000000000000000000000000000000000000000000000000000000000000000000000000000000000000000000000000000000
310
0000000000000000000000000000000000000000000000000000000000002800000000000000000000000000000000000000000000000000000000000000000000F500F50000000000000000000000000000000000000000000000000000000000000000000000F500F5000000000000000000000000000000000000000000
310
00000000000000000000000000000000000000000000000000000000000000000000000000000000000000000000000000000000000000000000000000000000000000000000000000000000000000000000000000000000000000000000000000000000000000000000000000000000000000000000000000000000000000
310
00000000000000000000000000000000000000000000000000000000000000002800000000000000000000000000000000000000000000000000000000000000000000F500F50000000000000000000000000000000000000000000000000000000000000000000000F500F500000000000000000000000000000000000000
310
00000000000000000000000000000000000000000000000000000000000000000000000000000000000000000000000000000000000000000000000000000000000000000000000000000000000000000000000000000000000000000000000000000000000000000000000000000000000000000000000000000000000000
310
000000000000000000000000000000000000000000000000000000000000000000002800000000000000000000000000000000000000000000000000000000000000000000F500F50000000000000000000000000000000000000000000000000000000000000000000000F500F50000000000000000000000000000000000
310
00000000000000000000000000000000000000000000000000000000000000000000000000000000000000000000000000000000000000000000000000000000000000000000000000000000000000000000000000000000000000000000000000000000000000000000000000000000000000000000000000000000000000
310
0000000000000000000000000000000000000000000000000000000000000000000000002800000000000000000000000000000000000000000000000000000000000000000000F500F50000000000000000000000000000000000000000000000000000000000000000000000F500F5000000000000000000000000000000
310
00000000000000000000000000000000000000000000000000000000000000000000000000000000000000000000000000000000000000000000000000000000000000000000000000000000000000000000000000000000000000000000000000000000000000000000000000000000000000000000000000000000000000
310
00000000000000000000000000000000000000000000000000000000000000000000000000002800000000000000000000000000000000000000000000000000000000000000000000F500F50000000000000000000000000000000000000000000000000000000000000000000000F500F500000000000000000000000000
310
00000000000000000000000000000000000000000000000000000000000000000000000000000000000000000000000000000000000000000000000000000000000000000000000000000000000000000000000000000000000000000000000000000000000000000000000000000000000000000000000000000000000000
310
000000000000000000000000000000000000000000000000000000000000000000000000000000002800000000000000000000000000000000000000000000000000000000000000000000F500F50000000000000000000000000000000000000000000000000000000000000000000000F500F50000000000000000000000
310
00000000000000000000000000000000000000000000000000000000000000000000000000000000000000000000000000000000000000000000000000000000000000000000000000000000000000000000000000000000000000000000000000000000000000000000000000000000000000000000000000000000000000
310
0000000000000000000000000000000000000000000000000000000000000000000000000000000000002800000000000000000000000000000000000000000000000000000000000000000000F500F50000000000000000000000000000000000000000000000000000000000000000000000F500F5000000000000000000
310
00000000000000000000000000000000000000000000000000000000000000000000000000000000000000000000000000000000000000000000000000000000000000000000000000000000000000000000000000000000000000000000000000000000000000000000000000000000000000000000000000000000000000
310
00000000000000000000000000000000000000000000000000000000000000000000000000000000000000002800000000000000000000000000000000000000000000000000000000000000000000F500F50000000000000000000000000000000000000000000000000000000000000000000000F500F500000000000000
310
00000000000000000000000000000000000000000000000000000000000000000000000000000000000000000000000000000000000000000000000000000000000000000000000000000000000000000000000000000000000000000000000000000000000000000000000000000000000000000000000000000000000000
310
000000000000000000000000000000000000000000000000000000000000000000000000000000000000000000002800000000000000000000000000000000000000000000000000000000000000000000F500F50000000000000000000000000000000000000000000000000000000000000000000000F500F50000000000
310
00000000000000000000000000000000000000000000000000000000000000000000000000000000000000000000000000000000000000000000000000000000000000000000000000000000000000000000000000000000000000000000000000000000000000000000000000000000000000000000000000000000000000
310
0000000000000000000000000000000000000000000000000000000000000000000000000000000000000000000000002828000000000000000000000000000000000000000000000000000000000000000000F500F50000000000000000000000000000000000000000000000000000000000000000000000F500F5000000
310
00000000000000000000000000000000000000000000000000000000000000000000000000000000000000000000000000000000000000000000000000000000000000000000000000000000000000000000000000000000000000000000000000000000000000000000000000000000000000000000000000000000000000
310
0000000000000000000000000000000000000000000000000000000000000000000000000000000000000000000000000000282828282828282828282828282828282828282828282828282828282828282828282828F528000000000000000000000000000000000000000000000000000000000000000000000028F5F500
310
00000000000000000000000000000000000000000000000000000000000000000000000000000000000000000000000000000000000000000000000000000000000000000000000000000000000000000000000000000000000000000000000000000000000000000000000000000000000000000000000000000000000000
310
00000000000000000000000000000000000000000000000000000000000000000000000000000000000000000000000000000000000000000000000000000000000000000000000000000000000000000000000000000028002800000000000000000000000000000000000000000000000000000000000000000000002800
310
00000000000000000000000000000000000000000000000000000000000000000000000000000000000000000000000000000000000000000000000000000000000000000000000000000000000000000000000000000000000000000000000000000000000000000000000000000000000000000000000000000000000000
310
00000000000000000000000000000000000000000000000000000000000000000000000000000000000000000000000000000000000000000000000000000000000000000000000000000000000000000000000000000000002800280000000000000000000000000000000000000000000000000000000000000000000000
310
28000000000000000000000000000000000000000000000000000000000000000000000000000000000000000000000000000000000000000000000000000000000000000000000000000000000000000000000000000000000000000000000000000000000000000000000000000000000000000000000000000000000000
310
00000000000000000000000000000000000000000000000000000000000000000000000000000000000000000000000000000000000000000000000000000000000000000000000000000000000000000000000000000000000000280028000000000000000000000000000000000000000000000000000000000000000000
310
00002800000000000000000000000000000000000000000000000000000000000000000000000000000000000000000000000000000000000000000000000000000000000000000000000000000000000000000000000000000000000000000000000000000000000000000000000000000000000000000000000000000000
310
00000000000000000000000000000000000000000000000000000000000000000000000000000000000000000000000000000000000000000000000000000000000000000000000000000000000000000000000000000000000000000028002800000000000000000000000000000000000000000000000000000000000000
310
00000000280000000000000000000000000000000000000000000000000000000000000000000000000000000000000000000000000000000000000000000000000000000000000000000000000000000000000000000000000000000000000000000000000000000000000000000000000000000000000000000000000000
310
00000000000000000000000000000000000000000000000000000000000000000000000000000000000000000000000000000000000000000000000000000000000000000000000000000000000000000000000000000000000000000000002800280000000000000000000000000000000000000000000000000000000000
310
00000000000028000000000000000000000000000000000000000000000000000000000000000000000000000000000000000000000000000000000000000000000000000000000000000000000000000000000000000000000000000000000000000000000000000000000000000000000000000000000000000000000000
310
00000000000000000000000000000000000000000000000000000000000000000000000000000000000000000000000000000000000000000000000000000000000000000000000000000000000000000000000000000000000000000000002800280028002800000000000000000000000000000000000000000000000000
310
00000000000028002800000000000000000000000000000000000000000000000000000000000000000000000000000000000000000000000000000000000000000000000000000000000000000000000000000000000000000000000000000000000000000000000000000000000000000000000000000000000000000000
310
00000000000000000000000000000000000000000000000000000000000000000000000000000000000000000000000000000000000000000000000000000000000000000000000000000000000000000000000000000000CA28CACA282828282828282828282828282828282828282828282828CACACACACACA2828282828
310
28282828282828282828280000000000000000000000000000000000000000000000000000000000000000000000000000000000000000000000000000000000000000000000000000000000000000000000000000000000000000000000000000000000000000000000000000000000000000000000000000000000000000
310
000000000000000000000000000000000000000000000000000000000000000000000000000000000000000000000000000000000000000000000000000000000000000000000000000000000000000000000000000000000000CACACACA000000000000000000000000000000000000000000000000CACACACACACA000000
310
00000000000000000000000000000000000000000000000000000000000000000000000000000000000000000000000000000000000000000000000000000000000000000000000000000000000000000000000000000000000000000000000000000000000000000000000000000000000000000000000000000000000000
310
00000000000000000000000000000000000000000000000000000000000000000000000000000000000000000000000000000000000000000000000000000000000000000000000000000000000000000000000000000000000000000000000000000000000000000000000000000000000000000000000000000000000000
310
00000000000000000000000000000000000000000000000000000000000000000000000000000000000000000000000000000000000000000000000000000000000000000000000000000000000000000000000000000000000000000000000000000000000000000000000000000000000000000000000000000000000000
310
00000000000000000000000000000000000000000000000000000000000000000000000000000000000000000000000000000000000000000000000000000000000000000000000000000000000000000000000000000000000000000000000000000000000000000000000000000000000000000000000000000000000000
310
00000000000000000000000000000000000000000000000000000000000000000000000000000000000000000000000000000000000000000000000000000000000000000000000000000000000000000000000000000000000000000000000000000000000000000000000000000000000000000000000000000000000000
310
00000000000000000000000000000000000000000000000000000000000000000000000000000000000000000000000000000000000000000000000000000000000000000000000000000000000000000000000000000000000000000000000000000000000000000000000000000000000000000000000000000000000000
310
00000000000000000000000000000000000000000000000000000000000000000000000000000000000000000000000000000000000000000000000000000000000000000000000000000000000000000000000000000000000000000000000000000000000000000000000000000000000000000000000000000000000000
310
00000000000000000000000000000000000000000000000000000000000000000000000000000000000000000000000000000000000000000000000000000000000000000000000000000000000000000000000000000000000000000000000000000000000000000000000000000000000000000000000000000000000000
310
00000000000000000000000000000000000000000000000000000000000000000000000000000000000000000000000000000000000000000000000000000000000000000000000000000000000000000000000000000000000000000000000000000000000000000000000000000000000000000000000000000000000000
310
00000000000000000000000000000000000000000000000000000000000000000000000000000000000000000000000000000000000000000000000000000000000000000000000000000000000000000000000000000000000000000000000000000000000000000000000000000000000000000000000000000000000000
310
00000000000000000000000000000000000000000000000000000000000000000000000000000000000000000000000000000000000000000000000000000000000000000000000000000000000000000000000000000000000000000000000000000000000000000000000000000000000000000000000000000000000000
310
00000000000000000000000000000000000000000000000000000000000000000000000000000000000000000000000000000000000000000000000000000000000000000000000000000000000000000000000000000000000000000000000000000000000000000000000000000000000000000000000000000000000000
310
00000000000000000000000000000000000000000000000000000000000000000000000000000000000000000000000000000000000000000000000000000000000000000000000000000000000000000000000000000000000000000000000000000000000000000000000000000000000000000000000000000000000000
310
00000000000000000000000000000000000000000000000000000000000000000000000000000000000000000000000000000000000000000000000000000000000000000000000000000000000000000000000000000000000000000000000000000000000000000000000000000000000000000000000000000000000000
310
00000000000000000000000000000000000000000000000000000000000000000000000000000000000000000000000000000000000000000000000000000000000000000000000000000000000000000000000000000000000000000000000000000000000000000000000000000000000000000000000000000000000000
310
00000000000000000000000000000000000000000000000000000000000000000000000000000000000000000000000000000000000000000000000000000000000000000000000000000000000000000000000000000000000000000000000000000000000000000000000000000000000000000000000000000000000000
310
00000000000000000000000000000000000000000000000000000000000000000000000000000000000000000000000000000000000000000000000000000000000000000000000000000000000000000000000000000000000000000000000000000000000000000000000000000000000000000000000000000000000000
310
00000000000000000000000000000000000000000000000000000000000000000000000000000000000000000000000000000000000000000000000000000000000000000000000000000000000000000000000000000000000000000000000000000000000000000000000000000000000000000000000000000000000000
310
00000000000000000000000000000000000000000000000000000000000000000000000000000000000000000000000000000000000000000000000000000000000000000000000000000000000000000000000000000000000000000000000000000000000000000000000000000000000000000000000000000000000000
310
00000000000000000000000000000000000000000000000000000000000000000000000000000000000000000000000000000000000000000000000000000000000000000000000000000000000000000000000000000000000000000000000000000000000000000000000000000000000000000000000000000000000000
310
00000000000000000000000000000000000000000000000000000000000000000000000000000000000000000000000000000000000000000000000000000000000000000000000000000000000000000000000000000000000000000000000000000000000000000000000000000000000000000000000000000000000000
310
00000000000000000000000000000000000000000000000000000000000000000000000000000000000000000000000000000000000000000000000000000000000000000000000000000000000000000000000000000000000000000000000000000000000000000000000000000000000000000000000000000000000000
310
00000000000000000000000000000000000000000000000000000000000000000000000000000000000000000000000000000000000000000000000000000000000000000000000000000000000000000000000000000000000000000000000000000000000000000000000000000000000000000000000000000000000000
310
00000000000000000000000000000000000000000000000000000000000000000000000000000000000000000000000000000000000000000000000000000000000000000000000000000000000000000000000000000000000000000000000000000000000000000000000000000000000000000000000000000000000000
310
00000000000000000000000000000000000000000000000000000000000000000000000000000000000000000000000000000000000000000000000000000000000000000000000000000000000000000000000000000000000000000000000000000000000000000000000000000000000000000000000000000000000000
310
00000000000000000000000000000000000000000000000000000000000000000000000000000000000000000000000000000000000000000000000000000000000000000000000000000000000000000000000000000000000000000000000000000000000000000000000000000000000000000000000000000000000000
310
00000000000000000000000000000000000000000000000000000000000000000000000000000000000000000000000000000000000000000000000000000000000000000000000000000000000000000000000000000000000000000000000000000000000000000000000000000000000000000000000000000000000000
310
00000000000000000000000000000000000000000000000000000000000000000000000000000000000000000000000000000000000000000000000000000000000000000000000000000000000000000000000000000000000000000000000000000000000000000000000000000000000000000000000000000000000000
310
00000000000000000000000000000000000000000000000000000000000000000000000000000000000000000000000000000000000000000000000000000000000000000000000000000000000000000000000000000000000000000000000000000000000000000000000000000000000000000000000000000000000000
310
00000000000000000000000000000000000000000000000000000000000000000000000000000000000000000000000000000000000000000000000000000000000000000000000000000000000000000000000000000000000000000000000000000000000000000000000000000000000000000000000000000000000000
310
00000000000000000000000000000000000000000000000000000000000000000000000000000000000000000000000000000000000000000000000000000000000000000000000000000000000000000000000000000000000000000000000000000000000000000000000000000000000000000000000000000000000000
310
00000000000000000000000000000000000000000000000000000000000000000000000000000000000000000000000000000000000000000000000000000000000000000000000000000000000000000000000000000000000000000000000000000000000000000000000000000000000000000000000000000000000000
310
00000000000000000000000000000000000000000000000000000000000000000000000000000000000000000000000000000000000000000000000000000000000000000000000000000000000000000000000000000000000000000000000000000000000000000000000000000000000000000000000000000000000000
310
00000000000000000000000000000000000000000000000000000000000000000000000000000000000000000000000000000000000000000000000000000000000000000000000000000000000000000000000000000000000000000000000000000000000000000000000000000000000000000000000000000000000000
310
00000000000000000000000000000000000000000000000000000000000000000000000000000000000000000000000000000000000000000000000000000000000000000000000000000000000000000000000000000000000000000000000000000000000000000000000000000000000000000000000000000000000000
310
0000000000000000000000000000000000000000000000000000000000000000000000000000000000000000
  0
XRECORD
  5
E21
102
{ACAD_REACTORS
330
171
102
}
330
171
100
AcDbXrecord
280
     1
102
MATERIAL
148
0.0
149
0.0
149
0.0
 93
        0
 94
      127
282
     0
 72
     0
 77
     0
171
     0
175
     0
179
     0
273
     0
  0
XRECORD
  5
173
102
{ACAD_REACTORS
330
171
102
}
330
171
100
AcDbXrecord
280
     1
270
     1
271
     1
  0
XRECORD
  5
172
102
{ACAD_REACTORS
330
171
102
}
330
171
100
AcDbXrecord
280
     1
270
     1
271
     1
  0
XRECORD
  5
176
102
{ACAD_REACTORS
330
171
102
}
330
171
100
AcDbXrecord
280
     1
270
     1
271
     1
  0
XRECORD
  5
175
102
{ACAD_REACTORS
330
171
102
}
330
171
100
AcDbXrecord
280
     1
270
     1
271
     1
  0
XRECORD
  5
177
102
{ACAD_REACTORS
330
171
102
}
330
171
100
AcDbXrecord
280
     1
270
     1
271
     1
  0
XRECORD
  5
174
102
{ACAD_REACTORS
330
171
102
}
330
171
100
AcDbXrecord
280
     1
270
     1
271
     1
  0
XRECORD
  5
E20
102
{ACAD_REACTORS
330
169
102
}
330
169
100
AcDbXrecord
280
     1
102
MATERIAL
148
0.0
149
0.0
149
0.0
 93
        0
 94
      127
282
     0
 72
     0
 77
     0
171
     0
175
     0
179
     0
273
     0
  0
XRECORD
  5
16B
102
{ACAD_REACTORS
330
169
102
}
330
169
100
AcDbXrecord
280
     1
270
     1
271
     1
  0
XRECORD
  5
16A
102
{ACAD_REACTORS
330
169
102
}
330
169
100
AcDbXrecord
280
     1
270
     1
271
     1
  0
XRECORD
  5
16E
102
{ACAD_REACTORS
330
169
102
}
330
169
100
AcDbXrecord
280
     1
270
     1
271
     1
  0
XRECORD
  5
16D
102
{ACAD_REACTORS
330
169
102
}
330
169
100
AcDbXrecord
280
     1
270
     1
271
     1
  0
XRECORD
  5
16F
102
{ACAD_REACTORS
330
169
102
}
330
169
100
AcDbXrecord
280
     1
270
     1
271
     1
  0
XRECORD
  5
16C
102
{ACAD_REACTORS
330
169
102
}
330
169
100
AcDbXrecord
280
     1
270
     1
271
     1
  0
XRECORD
  5
E22
102
{ACAD_REACTORS
330
179
102
}
330
179
100
AcDbXrecord
280
     1
102
MATERIAL
148
0.0
149
0.0
149
0.0
 93
        0
 94
      127
282
     0
 72
     0
 77
     0
171
     0
175
     0
179
     0
273
     0
  0
XRECORD
  5
17B
102
{ACAD_REACTORS
330
179
102
}
330
179
100
AcDbXrecord
280
     1
270
     1
271
     1
  0
XRECORD
  5
17A
102
{ACAD_REACTORS
330
179
102
}
330
179
100
AcDbXrecord
280
     1
270
     1
271
     1
  0
XRECORD
  5
17E
102
{ACAD_REACTORS
330
179
102
}
330
179
100
AcDbXrecord
280
     1
270
     1
271
     1
  0
XRECORD
  5
17D
102
{ACAD_REACTORS
330
179
102
}
330
179
100
AcDbXrecord
280
     1
270
     1
271
     1
  0
XRECORD
  5
17F
102
{ACAD_REACTORS
330
179
102
}
330
179
100
AcDbXrecord
280
     1
270
     1
271
     1
  0
XRECORD
  5
17C
102
{ACAD_REACTORS
330
179
102
}
330
179
100
AcDbXrecord
280
     1
270
     1
271
     1
  0
CELLSTYLEMAP
  5
F2F
102
{ACAD_REACTORS
330
E18
102
}
330
E18
100
AcDbCellStyleMap
 90
        3
300
CELLSTYLE
  1
TABLEFORMAT_BEGIN
 90
        5
170
     1
 91
        0
 92
    32768
 62
   257
 93
        1
300
CONTENTFORMAT
  1
CONTENTFORMAT_BEGIN
 90
        0
 91
        0
 92
      512
 93
        0
300

 40
0.0
140
1.0
 94
        5
 62
     0
340
F
144
6.0
309
CONTENTFORMAT_END
171
     1
301
MARGIN
  1
CELLMARGIN_BEGIN
 40
1.5
 40
1.5
 40
1.5
 40
1.5
 40
0.18
 40
0.18
309
CELLMARGIN_END
 94
        6
 95
        1
302
GRIDFORMAT
  1
GRIDFORMAT_BEGIN
 90
        0
 91
        1
 62
     0
 92
       -2
340
0
 93
        0
 40
1.125
309
GRIDFORMAT_END
 95
        2
302
GRIDFORMAT
  1
GRIDFORMAT_BEGIN
 90
        0
 91
        1
 62
     0
 92
       -2
340
0
 93
        0
 40
1.125
309
GRIDFORMAT_END
 95
        4
302
GRIDFORMAT
  1
GRIDFORMAT_BEGIN
 90
        0
 91
        1
 62
     0
 92
       -2
340
0
 93
        0
 40
1.125
309
GRIDFORMAT_END
 95
        8
302
GRIDFORMAT
  1
GRIDFORMAT_BEGIN
 90
        0
 91
        1
 62
     0
 92
       -2
340
0
 93
        0
 40
1.125
309
GRIDFORMAT_END
 95
       16
302
GRIDFORMAT
  1
GRIDFORMAT_BEGIN
 90
        0
 91
        1
 62
     0
 92
       -2
340
0
 93
        0
 40
1.125
309
GRIDFORMAT_END
 95
       32
302
GRIDFORMAT
  1
GRIDFORMAT_BEGIN
 90
        0
 91
        1
 62
     0
 92
       -2
340
0
 93
        0
 40
1.125
309
GRIDFORMAT_END
309
TABLEFORMAT_END
  1
CELLSTYLE_BEGIN
 90
        1
 91
        1
300
_TITLE
309
CELLSTYLE_END
300
CELLSTYLE
  1
TABLEFORMAT_BEGIN
 90
        5
170
     1
 91
        0
 92
        0
 62
   257
 93
        1
300
CONTENTFORMAT
  1
CONTENTFORMAT_BEGIN
 90
        0
 91
        0
 92
      512
 93
        0
300

 40
0.0
140
1.0
 94
        5
 62
     0
340
F
144
4.5
309
CONTENTFORMAT_END
171
     1
301
MARGIN
  1
CELLMARGIN_BEGIN
 40
1.5
 40
1.5
 40
1.5
 40
1.5
 40
0.18
 40
0.18
309
CELLMARGIN_END
 94
        6
 95
        1
302
GRIDFORMAT
  1
GRIDFORMAT_BEGIN
 90
        0
 91
        1
 62
     0
 92
       -2
340
0
 93
        0
 40
1.125
309
GRIDFORMAT_END
 95
        2
302
GRIDFORMAT
  1
GRIDFORMAT_BEGIN
 90
        0
 91
        1
 62
     0
 92
       -2
340
0
 93
        0
 40
1.125
309
GRIDFORMAT_END
 95
        4
302
GRIDFORMAT
  1
GRIDFORMAT_BEGIN
 90
        0
 91
        1
 62
     0
 92
       -2
340
0
 93
        0
 40
1.125
309
GRIDFORMAT_END
 95
        8
302
GRIDFORMAT
  1
GRIDFORMAT_BEGIN
 90
        0
 91
        1
 62
     0
 92
       -2
340
0
 93
        0
 40
1.125
309
GRIDFORMAT_END
 95
       16
302
GRIDFORMAT
  1
GRIDFORMAT_BEGIN
 90
        0
 91
        1
 62
     0
 92
       -2
340
0
 93
        0
 40
1.125
309
GRIDFORMAT_END
 95
       32
302
GRIDFORMAT
  1
GRIDFORMAT_BEGIN
 90
        0
 91
        1
 62
     0
 92
       -2
340
0
 93
        0
 40
1.125
309
GRIDFORMAT_END
309
TABLEFORMAT_END
  1
CELLSTYLE_BEGIN
 90
        2
 91
        1
300
_HEADER
309
CELLSTYLE_END
300
CELLSTYLE
  1
TABLEFORMAT_BEGIN
 90
        5
170
     1
 91
        0
 92
        0
 62
   257
 93
        1
300
CONTENTFORMAT
  1
CONTENTFORMAT_BEGIN
 90
        0
 91
        0
 92
      512
 93
        0
300

 40
0.0
140
1.0
 94
        2
 62
     0
340
F
144
4.5
309
CONTENTFORMAT_END
171
     1
301
MARGIN
  1
CELLMARGIN_BEGIN
 40
1.5
 40
1.5
 40
1.5
 40
1.5
 40
0.18
 40
0.18
309
CELLMARGIN_END
 94
        6
 95
        1
302
GRIDFORMAT
  1
GRIDFORMAT_BEGIN
 90
        0
 91
        1
 62
     0
 92
       -2
340
0
 93
        0
 40
1.125
309
GRIDFORMAT_END
 95
        2
302
GRIDFORMAT
  1
GRIDFORMAT_BEGIN
 90
        0
 91
        1
 62
     0
 92
       -2
340
0
 93
        0
 40
1.125
309
GRIDFORMAT_END
 95
        4
302
GRIDFORMAT
  1
GRIDFORMAT_BEGIN
 90
        0
 91
        1
 62
     0
 92
       -2
340
0
 93
        0
 40
1.125
309
GRIDFORMAT_END
 95
        8
302
GRIDFORMAT
  1
GRIDFORMAT_BEGIN
 90
        0
 91
        1
 62
     0
 92
       -2
340
0
 93
        0
 40
1.125
309
GRIDFORMAT_END
 95
       16
302
GRIDFORMAT
  1
GRIDFORMAT_BEGIN
 90
        0
 91
        1
 62
     0
 92
       -2
340
0
 93
        0
 40
1.125
309
GRIDFORMAT_END
 95
       32
302
GRIDFORMAT
  1
GRIDFORMAT_BEGIN
 90
        0
 91
        1
 62
     0
 92
       -2
340
0
 93
        0
 40
1.125
309
GRIDFORMAT_END
309
TABLEFORMAT_END
  1
CELLSTYLE_BEGIN
 90
        3
 91
        2
300
_DATA
309
CELLSTYLE_END
  0
XRECORD
  5
F66
102
{ACAD_REACTORS
330
E18
102
}
330
E18
100
AcDbXrecord
280
     1
102
ACAD_ROUNDTRIP_PRE2007_TABLESTYLE
 90
      512
 91
        0
  1

 92
      512
 93
        0
  2

 94
      512
 95
        0
  3

  0
XRECORD
  5
F41
102
{ACAD_REACTORS
330
F40
102
}
330
F40
100
AcDbXrecord
280
     1
102
RTVSPropertyOp0
 70
     1
102
RTVSPropertyOp1
 70
     1
102
RTVSPropertyOp2
 70
     1
102
RTVSPropertyOp3
 70
     1
102
RTVSPropertyOp4
 70
     1
102
RTVSPropertyOp5
 70
     1
102
RTVSPropertyOp6
 70
     1
102
RTVSPropertyOp7
 70
     1
102
RTVSPropertyOp8
 70
     1
102
RTVSPropertyOp9
 70
     1
102
RTVSPropertyOp10
 70
     1
102
RTVSPropertyOp11
 70
     1
102
RTVSPropertyOp12
 70
     1
102
RTVSPropertyOp13
 70
     1
102
RTVSPropertyOp14
 70
     1
102
RTVSPropertyOp15
 70
     1
102
RTVSPropertyOp16
 70
     1
102
RTVSPropertyOp17
 70
     1
102
RTVSPropertyOp18
 70
     1
102
RTVSPropertyOp19
 70
     1
102
RTVSPropertyOp20
 70
     1
102
RTVSPropertyOp21
 70
     1
102
RTVSPropertyOp22
 70
     1
102
RTVSPropertyOp23
 70
     1
102
RTVSPropertyOp24
 70
     1
102
RTVSPropertyOp25
 70
     1
102
RTVSPropertyOp26
 70
     1
102
RTVSPropertyOp27
 70
     1
102
RTVSPropertyOp28
 70
     1
102
RTVSPropertyOp29
 70
     1
102
RTVSPropertyOp30
 70
     1
102
RTVSPropertyOp31
 70
     1
102
RTVSPropertyOp32
 70
     1
  0
XRECORD
  5
F3F
102
{ACAD_REACTORS
330
F3E
102
}
330
F3E
100
AcDbXrecord
280
     1
102
RTVSPropertyOp0
 70
     1
102
RTVSPropertyOp1
 70
     1
102
RTVSPropertyOp2
 70
     1
102
RTVSPropertyOp3
 70
     1
102
RTVSPropertyOp4
 70
     1
102
RTVSPropertyOp5
 70
     1
102
RTVSPropertyOp6
 70
     1
102
RTVSPropertyOp7
 70
     1
102
RTVSPropertyOp8
 70
     1
102
RTVSPropertyOp9
 70
     1
102
RTVSPropertyOp10
 70
     1
102
RTVSPropertyOp11
 70
     1
102
RTVSPropertyOp12
 70
     1
102
RTVSPropertyOp13
 70
     1
102
RTVSPropertyOp14
 70
     1
102
RTVSPropertyOp15
 70
     1
102
RTVSPropertyOp16
 70
     1
102
RTVSPropertyOp17
 70
     1
102
RTVSPropertyOp18
 70
     1
102
RTVSPropertyOp19
 70
     1
102
RTVSPropertyOp20
 70
     1
102
RTVSPropertyOp21
 70
     1
102
RTVSPropertyOp22
 70
     1
102
RTVSPropertyOp23
 70
     1
102
RTVSPropertyOp24
 70
     1
102
RTVSPropertyOp25
 70
     1
102
RTVSPropertyOp26
 70
     1
102
RTVSPropertyOp27
 70
     1
102
RTVSPropertyOp28
 70
     1
102
RTVSPropertyOp29
 70
     1
102
RTVSPropertyOp30
 70
     1
102
RTVSPropertyOp31
 70
     1
102
RTVSPropertyOp32
 70
     1
  0
XRECORD
  5
F4D
102
{ACAD_REACTORS
330
F4C
102
}
330
F4C
100
AcDbXrecord
280
     1
102
RTVSPropertyOp0
 70
     1
102
RTVSPropertyOp1
 70
     1
102
RTVSPropertyOp2
 70
     1
102
RTVSPropertyOp3
 70
     1
102
RTVSPropertyOp4
 70
     1
102
RTVSPropertyOp5
 70
     1
102
RTVSPropertyOp6
 70
     1
102
RTVSPropertyOp7
 70
     1
102
RTVSPropertyOp8
 70
     1
102
RTVSPropertyOp9
 70
     1
102
RTVSPropertyOp10
 70
     1
102
RTVSPropertyOp11
 70
     1
102
RTVSPropertyOp12
 70
     1
102
RTVSPropertyOp13
 70
     1
102
RTVSPropertyOp14
 70
     1
102
RTVSPropertyOp15
 70
     1
102
RTVSPropertyOp16
 70
     1
102
RTVSPropertyOp17
 70
     1
102
RTVSPropertyOp18
 70
     1
102
RTVSPropertyOp19
 70
     1
102
RTVSPropertyOp20
 70
     1
102
RTVSPropertyOp21
 70
     1
102
RTVSPropertyOp22
 70
     1
102
RTVSPropertyOp23
 70
     1
102
RTVSPropertyOp24
 70
     1
102
RTVSPropertyOp25
 70
     1
102
RTVSPropertyOp26
 70
     1
102
RTVSPropertyOp27
 70
     1
102
RTVSPropertyOp28
 70
     1
102
RTVSPropertyOp29
 70
     1
102
RTVSPropertyOp30
 70
     1
102
RTVSPropertyOp31
 70
     1
102
RTVSPropertyOp32
 70
     1
  0
XRECORD
  5
F55
102
{ACAD_REACTORS
330
F54
102
}
330
F54
100
AcDbXrecord
280
     1
102
RTVSPropertyOp0
 70
     1
102
RTVSPropertyOp1
 70
     1
102
RTVSPropertyOp2
 70
     1
102
RTVSPropertyOp3
 70
     1
102
RTVSPropertyOp4
 70
     1
102
RTVSPropertyOp5
 70
     1
102
RTVSPropertyOp6
 70
     1
102
RTVSPropertyOp7
 70
     1
102
RTVSPropertyOp8
 70
     1
102
RTVSPropertyOp9
 70
     1
102
RTVSPropertyOp10
 70
     1
102
RTVSPropertyOp11
 70
     1
102
RTVSPropertyOp12
 70
     1
102
RTVSPropertyOp13
 70
     1
102
RTVSPropertyOp14
 70
     1
102
RTVSPropertyOp15
 70
     1
102
RTVSPropertyOp16
 70
     1
102
RTVSPropertyOp17
 70
     1
102
RTVSPropertyOp18
 70
     1
102
RTVSPropertyOp19
 70
     1
102
RTVSPropertyOp20
 70
     1
102
RTVSPropertyOp21
 70
     1
102
RTVSPropertyOp22
 70
     1
102
RTVSPropertyOp23
 70
     1
102
RTVSPropertyOp24
 70
     1
102
RTVSPropertyOp25
 70
     1
102
RTVSPropertyOp26
 70
     1
102
RTVSPropertyOp27
 70
     1
102
RTVSPropertyOp28
 70
     1
102
RTVSPropertyOp29
 70
     1
102
RTVSPropertyOp30
 70
     1
102
RTVSPropertyOp31
 70
     1
102
RTVSPropertyOp32
 70
     1
  0
XRECORD
  5
F47
102
{ACAD_REACTORS
330
F46
102
}
330
F46
100
AcDbXrecord
280
     1
102
RTVSPropertyOp0
 70
     1
102
RTVSPropertyOp1
 70
     1
102
RTVSPropertyOp2
 70
     1
102
RTVSPropertyOp3
 70
     1
102
RTVSPropertyOp4
 70
     1
102
RTVSPropertyOp5
 70
     1
102
RTVSPropertyOp6
 70
     1
102
RTVSPropertyOp7
 70
     1
102
RTVSPropertyOp8
 70
     1
102
RTVSPropertyOp9
 70
     1
102
RTVSPropertyOp10
 70
     1
102
RTVSPropertyOp11
 70
     1
102
RTVSPropertyOp12
 70
     1
102
RTVSPropertyOp13
 70
     1
102
RTVSPropertyOp14
 70
     1
102
RTVSPropertyOp15
 70
     1
102
RTVSPropertyOp16
 70
     1
102
RTVSPropertyOp17
 70
     1
102
RTVSPropertyOp18
 70
     1
102
RTVSPropertyOp19
 70
     1
102
RTVSPropertyOp20
 70
     1
102
RTVSPropertyOp21
 70
     1
102
RTVSPropertyOp22
 70
     1
102
RTVSPropertyOp23
 70
     1
102
RTVSPropertyOp24
 70
     1
102
RTVSPropertyOp25
 70
     1
102
RTVSPropertyOp26
 70
     1
102
RTVSPropertyOp27
 70
     1
102
RTVSPropertyOp28
 70
     1
102
RTVSPropertyOp29
 70
     1
102
RTVSPropertyOp30
 70
     1
102
RTVSPropertyOp31
 70
     1
102
RTVSPropertyOp32
 70
     1
  0
XRECORD
  5
F4B
102
{ACAD_REACTORS
330
F4A
102
}
330
F4A
100
AcDbXrecord
280
     1
102
RTVSPropertyOp0
 70
     1
102
RTVSPropertyOp1
 70
     1
102
RTVSPropertyOp2
 70
     1
102
RTVSPropertyOp3
 70
     1
102
RTVSPropertyOp4
 70
     1
102
RTVSPropertyOp5
 70
     1
102
RTVSPropertyOp6
 70
     1
102
RTVSPropertyOp7
 70
     1
102
RTVSPropertyOp8
 70
     1
102
RTVSPropertyOp9
 70
     1
102
RTVSPropertyOp10
 70
     1
102
RTVSPropertyOp11
 70
     1
102
RTVSPropertyOp12
 70
     1
102
RTVSPropertyOp13
 70
     1
102
RTVSPropertyOp14
 70
     1
102
RTVSPropertyOp15
 70
     1
102
RTVSPropertyOp16
 70
     1
102
RTVSPropertyOp17
 70
     1
102
RTVSPropertyOp18
 70
     1
102
RTVSPropertyOp19
 70
     1
102
RTVSPropertyOp20
 70
     1
102
RTVSPropertyOp21
 70
     1
102
RTVSPropertyOp22
 70
     1
102
RTVSPropertyOp23
 70
     1
102
RTVSPropertyOp24
 70
     1
102
RTVSPropertyOp25
 70
     1
102
RTVSPropertyOp26
 70
     1
102
RTVSPropertyOp27
 70
     1
102
RTVSPropertyOp28
 70
     1
102
RTVSPropertyOp29
 70
     1
102
RTVSPropertyOp30
 70
     1
102
RTVSPropertyOp31
 70
     1
102
RTVSPropertyOp32
 70
     1
  0
XRECORD
  5
F65
102
{ACAD_REACTORS
330
F64
102
}
330
F64
100
AcDbXrecord
280
     1
102
RTVSPropertyOp0
 70
     0
102
RTVSPropertyOp1
 70
     0
102
RTVSPropertyOp2
 70
     0
102
RTVSPropertyOp3
 70
     0
102
RTVSPropertyOp4
 70
     0
102
RTVSPropertyOp5
 70
     0
102
RTVSPropertyOp6
 70
     0
102
RTVSPropertyOp7
 70
     0
102
RTVSPropertyOp8
 70
     0
102
RTVSPropertyOp9
 70
     0
102
RTVSPropertyOp10
 70
     0
102
RTVSPropertyOp11
 70
     0
102
RTVSPropertyOp12
 70
     0
102
RTVSPropertyOp13
 70
     0
102
RTVSPropertyOp14
 70
     2
102
RTVSPropertyOp15
 70
     0
102
RTVSPropertyOp16
 70
     0
102
RTVSPropertyOp17
 70
     0
102
RTVSPropertyOp18
 70
     0
102
RTVSPropertyOp19
 70
     0
102
RTVSPropertyOp20
 70
     0
102
RTVSPropertyOp21
 70
     0
102
RTVSPropertyOp22
 70
     0
102
RTVSPropertyOp23
 70
     0
102
RTVSPropertyOp24
 70
     0
102
RTVSPropertyOp25
 70
     0
102
RTVSPropertyOp26
 70
     0
102
RTVSPropertyOp27
 70
     0
102
RTVSPropertyOp28
 70
     1
102
RTVSPropertyOp29
 70
     1
102
RTVSPropertyOp30
 70
     1
102
RTVSPropertyOp31
 70
     1
102
RTVSPropertyOp32
 70
     1
  0
XRECORD
  5
F53
102
{ACAD_REACTORS
330
F52
102
}
330
F52
100
AcDbXrecord
280
     1
102
RTVSPropertyOp0
 70
     1
102
RTVSPropertyOp1
 70
     1
102
RTVSPropertyOp2
 70
     1
102
RTVSPropertyOp3
 70
     1
102
RTVSPropertyOp4
 70
     1
102
RTVSPropertyOp5
 70
     1
102
RTVSPropertyOp6
 70
     1
102
RTVSPropertyOp7
 70
     1
102
RTVSPropertyOp8
 70
     1
102
RTVSPropertyOp9
 70
     1
102
RTVSPropertyOp10
 70
     1
102
RTVSPropertyOp11
 70
     1
102
RTVSPropertyOp12
 70
     1
102
RTVSPropertyOp13
 70
     1
102
RTVSPropertyOp14
 70
     1
102
RTVSPropertyOp15
 70
     1
102
RTVSPropertyOp16
 70
     1
102
RTVSPropertyOp17
 70
     1
102
RTVSPropertyOp18
 70
     1
102
RTVSPropertyOp19
 70
     1
102
RTVSPropertyOp20
 70
     1
102
RTVSPropertyOp21
 70
     1
102
RTVSPropertyOp22
 70
     1
102
RTVSPropertyOp23
 70
     1
102
RTVSPropertyOp24
 70
     1
102
RTVSPropertyOp25
 70
     1
102
RTVSPropertyOp26
 70
     1
102
RTVSPropertyOp27
 70
     1
102
RTVSPropertyOp28
 70
     1
102
RTVSPropertyOp29
 70
     1
102
RTVSPropertyOp30
 70
     1
102
RTVSPropertyOp31
 70
     1
102
RTVSPropertyOp32
 70
     1
  0
XRECORD
  5
F37
102
{ACAD_REACTORS
330
F36
102
}
330
F36
100
AcDbXrecord
280
     1
102
RTVSPropertyOp0
 70
     1
102
RTVSPropertyOp1
 70
     1
102
RTVSPropertyOp2
 70
     1
102
RTVSPropertyOp3
 70
     1
102
RTVSPropertyOp4
 70
     1
102
RTVSPropertyOp5
 70
     1
102
RTVSPropertyOp6
 70
     1
102
RTVSPropertyOp7
 70
     1
102
RTVSPropertyOp8
 70
     1
102
RTVSPropertyOp9
 70
     1
102
RTVSPropertyOp10
 70
     1
102
RTVSPropertyOp11
 70
     1
102
RTVSPropertyOp12
 70
     1
102
RTVSPropertyOp13
 70
     1
102
RTVSPropertyOp14
 70
     1
102
RTVSPropertyOp15
 70
     1
102
RTVSPropertyOp16
 70
     1
102
RTVSPropertyOp17
 70
     1
102
RTVSPropertyOp18
 70
     1
102
RTVSPropertyOp19
 70
     1
102
RTVSPropertyOp20
 70
     1
102
RTVSPropertyOp21
 70
     1
102
RTVSPropertyOp22
 70
     1
102
RTVSPropertyOp23
 70
     1
102
RTVSPropertyOp24
 70
     1
102
RTVSPropertyOp25
 70
     1
102
RTVSPropertyOp26
 70
     1
102
RTVSPropertyOp27
 70
     1
102
RTVSPropertyOp28
 70
     1
102
RTVSPropertyOp29
 70
     1
102
RTVSPropertyOp30
 70
     1
102
RTVSPropertyOp31
 70
     1
102
RTVSPropertyOp32
 70
     1
  0
XRECORD
  5
F39
102
{ACAD_REACTORS
330
F38
102
}
330
F38
100
AcDbXrecord
280
     1
102
RTVSPropertyOp0
 70
     1
102
RTVSPropertyOp1
 70
     1
102
RTVSPropertyOp2
 70
     1
102
RTVSPropertyOp3
 70
     1
102
RTVSPropertyOp4
 70
     1
102
RTVSPropertyOp5
 70
     1
102
RTVSPropertyOp6
 70
     1
102
RTVSPropertyOp7
 70
     1
102
RTVSPropertyOp8
 70
     1
102
RTVSPropertyOp9
 70
     1
102
RTVSPropertyOp10
 70
     1
102
RTVSPropertyOp11
 70
     1
102
RTVSPropertyOp12
 70
     1
102
RTVSPropertyOp13
 70
     1
102
RTVSPropertyOp14
 70
     1
102
RTVSPropertyOp15
 70
     1
102
RTVSPropertyOp16
 70
     1
102
RTVSPropertyOp17
 70
     1
102
RTVSPropertyOp18
 70
     1
102
RTVSPropertyOp19
 70
     1
102
RTVSPropertyOp20
 70
     1
102
RTVSPropertyOp21
 70
     1
102
RTVSPropertyOp22
 70
     1
102
RTVSPropertyOp23
 70
     1
102
RTVSPropertyOp24
 70
     1
102
RTVSPropertyOp25
 70
     1
102
RTVSPropertyOp26
 70
     1
102
RTVSPropertyOp27
 70
     1
102
RTVSPropertyOp28
 70
     1
102
RTVSPropertyOp29
 70
     1
102
RTVSPropertyOp30
 70
     1
102
RTVSPropertyOp31
 70
     1
102
RTVSPropertyOp32
 70
     1
  0
XRECORD
  5
F3B
102
{ACAD_REACTORS
330
F3A
102
}
330
F3A
100
AcDbXrecord
280
     1
102
RTVSPropertyOp0
 70
     1
102
RTVSPropertyOp1
 70
     1
102
RTVSPropertyOp2
 70
     1
102
RTVSPropertyOp3
 70
     1
102
RTVSPropertyOp4
 70
     1
102
RTVSPropertyOp5
 70
     1
102
RTVSPropertyOp6
 70
     1
102
RTVSPropertyOp7
 70
     1
102
RTVSPropertyOp8
 70
     1
102
RTVSPropertyOp9
 70
     1
102
RTVSPropertyOp10
 70
     1
102
RTVSPropertyOp11
 70
     1
102
RTVSPropertyOp12
 70
     1
102
RTVSPropertyOp13
 70
     1
102
RTVSPropertyOp14
 70
     1
102
RTVSPropertyOp15
 70
     1
102
RTVSPropertyOp16
 70
     1
102
RTVSPropertyOp17
 70
     1
102
RTVSPropertyOp18
 70
     1
102
RTVSPropertyOp19
 70
     1
102
RTVSPropertyOp20
 70
     1
102
RTVSPropertyOp21
 70
     1
102
RTVSPropertyOp22
 70
     1
102
RTVSPropertyOp23
 70
     1
102
RTVSPropertyOp24
 70
     1
102
RTVSPropertyOp25
 70
     1
102
RTVSPropertyOp26
 70
     1
102
RTVSPropertyOp27
 70
     1
102
RTVSPropertyOp28
 70
     1
102
RTVSPropertyOp29
 70
     1
102
RTVSPropertyOp30
 70
     1
102
RTVSPropertyOp31
 70
     1
102
RTVSPropertyOp32
 70
     1
  0
XRECORD
  5
F3D
102
{ACAD_REACTORS
330
F3C
102
}
330
F3C
100
AcDbXrecord
280
     1
102
RTVSPropertyOp0
 70
     1
102
RTVSPropertyOp1
 70
     1
102
RTVSPropertyOp2
 70
     1
102
RTVSPropertyOp3
 70
     1
102
RTVSPropertyOp4
 70
     1
102
RTVSPropertyOp5
 70
     1
102
RTVSPropertyOp6
 70
     1
102
RTVSPropertyOp7
 70
     1
102
RTVSPropertyOp8
 70
     1
102
RTVSPropertyOp9
 70
     1
102
RTVSPropertyOp10
 70
     1
102
RTVSPropertyOp11
 70
     1
102
RTVSPropertyOp12
 70
     1
102
RTVSPropertyOp13
 70
     1
102
RTVSPropertyOp14
 70
     1
102
RTVSPropertyOp15
 70
     1
102
RTVSPropertyOp16
 70
     1
102
RTVSPropertyOp17
 70
     1
102
RTVSPropertyOp18
 70
     1
102
RTVSPropertyOp19
 70
     1
102
RTVSPropertyOp20
 70
     1
102
RTVSPropertyOp21
 70
     1
102
RTVSPropertyOp22
 70
     1
102
RTVSPropertyOp23
 70
     1
102
RTVSPropertyOp24
 70
     1
102
RTVSPropertyOp25
 70
     1
102
RTVSPropertyOp26
 70
     1
102
RTVSPropertyOp27
 70
     1
102
RTVSPropertyOp28
 70
     1
102
RTVSPropertyOp29
 70
     1
102
RTVSPropertyOp30
 70
     1
102
RTVSPropertyOp31
 70
     1
102
RTVSPropertyOp32
 70
     1
  0
XRECORD
  5
F45
102
{ACAD_REACTORS
330
F44
102
}
330
F44
100
AcDbXrecord
280
     1
102
RTVSPropertyOp0
 70
     1
102
RTVSPropertyOp1
 70
     1
102
RTVSPropertyOp2
 70
     1
102
RTVSPropertyOp3
 70
     1
102
RTVSPropertyOp4
 70
     1
102
RTVSPropertyOp5
 70
     1
102
RTVSPropertyOp6
 70
     1
102
RTVSPropertyOp7
 70
     1
102
RTVSPropertyOp8
 70
     1
102
RTVSPropertyOp9
 70
     1
102
RTVSPropertyOp10
 70
     1
102
RTVSPropertyOp11
 70
     1
102
RTVSPropertyOp12
 70
     1
102
RTVSPropertyOp13
 70
     1
102
RTVSPropertyOp14
 70
     1
102
RTVSPropertyOp15
 70
     1
102
RTVSPropertyOp16
 70
     1
102
RTVSPropertyOp17
 70
     1
102
RTVSPropertyOp18
 70
     1
102
RTVSPropertyOp19
 70
     1
102
RTVSPropertyOp20
 70
     1
102
RTVSPropertyOp21
 70
     1
102
RTVSPropertyOp22
 70
     1
102
RTVSPropertyOp23
 70
     1
102
RTVSPropertyOp24
 70
     1
102
RTVSPropertyOp25
 70
     1
102
RTVSPropertyOp26
 70
     1
102
RTVSPropertyOp27
 70
     1
102
RTVSPropertyOp28
 70
     1
102
RTVSPropertyOp29
 70
     1
102
RTVSPropertyOp30
 70
     1
102
RTVSPropertyOp31
 70
     1
102
RTVSPropertyOp32
 70
     1
  0
XRECORD
  5
F61
102
{ACAD_REACTORS
330
F60
102
}
330
F60
100
AcDbXrecord
280
     1
102
RTVSPropertyOp0
 70
     0
102
RTVSPropertyOp1
 70
     0
102
RTVSPropertyOp2
 70
     0
102
RTVSPropertyOp3
 70
     0
102
RTVSPropertyOp4
 70
     0
102
RTVSPropertyOp5
 70
     0
102
RTVSPropertyOp6
 70
     0
102
RTVSPropertyOp7
 70
     0
102
RTVSPropertyOp8
 70
     0
102
RTVSPropertyOp9
 70
     0
102
RTVSPropertyOp10
 70
     0
102
RTVSPropertyOp11
 70
     0
102
RTVSPropertyOp12
 70
     0
102
RTVSPropertyOp13
 70
     0
102
RTVSPropertyOp14
 70
     2
102
RTVSPropertyOp15
 70
     0
102
RTVSPropertyOp16
 70
     0
102
RTVSPropertyOp17
 70
     0
102
RTVSPropertyOp18
 70
     0
102
RTVSPropertyOp19
 70
     0
102
RTVSPropertyOp20
 70
     0
102
RTVSPropertyOp21
 70
     0
102
RTVSPropertyOp22
 70
     0
102
RTVSPropertyOp23
 70
     0
102
RTVSPropertyOp24
 70
     0
102
RTVSPropertyOp25
 70
     0
102
RTVSPropertyOp26
 70
     0
102
RTVSPropertyOp27
 70
     0
102
RTVSPropertyOp28
 70
     1
102
RTVSPropertyOp29
 70
     1
102
RTVSPropertyOp30
 70
     1
102
RTVSPropertyOp31
 70
     1
102
RTVSPropertyOp32
 70
     1
  0
XRECORD
  5
F51
102
{ACAD_REACTORS
330
F50
102
}
330
F50
100
AcDbXrecord
280
     1
102
RTVSPropertyOp0
 70
     1
102
RTVSPropertyOp1
 70
     1
102
RTVSPropertyOp2
 70
     1
102
RTVSPropertyOp3
 70
     1
102
RTVSPropertyOp4
 70
     1
102
RTVSPropertyOp5
 70
     1
102
RTVSPropertyOp6
 70
     1
102
RTVSPropertyOp7
 70
     1
102
RTVSPropertyOp8
 70
     1
102
RTVSPropertyOp9
 70
     1
102
RTVSPropertyOp10
 70
     1
102
RTVSPropertyOp11
 70
     1
102
RTVSPropertyOp12
 70
     1
102
RTVSPropertyOp13
 70
     1
102
RTVSPropertyOp14
 70
     1
102
RTVSPropertyOp15
 70
     1
102
RTVSPropertyOp16
 70
     1
102
RTVSPropertyOp17
 70
     1
102
RTVSPropertyOp18
 70
     1
102
RTVSPropertyOp19
 70
     1
102
RTVSPropertyOp20
 70
     1
102
RTVSPropertyOp21
 70
     1
102
RTVSPropertyOp22
 70
     1
102
RTVSPropertyOp23
 70
     1
102
RTVSPropertyOp24
 70
     1
102
RTVSPropertyOp25
 70
     1
102
RTVSPropertyOp26
 70
     1
102
RTVSPropertyOp27
 70
     1
102
RTVSPropertyOp28
 70
     1
102
RTVSPropertyOp29
 70
     1
102
RTVSPropertyOp30
 70
     1
102
RTVSPropertyOp31
 70
     1
102
RTVSPropertyOp32
 70
     1
  0
XRECORD
  5
F63
102
{ACAD_REACTORS
330
F62
102
}
330
F62
100
AcDbXrecord
280
     1
102
RTVSPropertyOp0
 70
     0
102
RTVSPropertyOp1
 70
     0
102
RTVSPropertyOp2
 70
     0
102
RTVSPropertyOp3
 70
     0
102
RTVSPropertyOp4
 70
     0
102
RTVSPropertyOp5
 70
     0
102
RTVSPropertyOp6
 70
     0
102
RTVSPropertyOp7
 70
     0
102
RTVSPropertyOp8
 70
     0
102
RTVSPropertyOp9
 70
     0
102
RTVSPropertyOp10
 70
     0
102
RTVSPropertyOp11
 70
     0
102
RTVSPropertyOp12
 70
     0
102
RTVSPropertyOp13
 70
     0
102
RTVSPropertyOp14
 70
     2
102
RTVSPropertyOp15
 70
     0
102
RTVSPropertyOp16
 70
     0
102
RTVSPropertyOp17
 70
     0
102
RTVSPropertyOp18
 70
     0
102
RTVSPropertyOp19
 70
     0
102
RTVSPropertyOp20
 70
     0
102
RTVSPropertyOp21
 70
     0
102
RTVSPropertyOp22
 70
     0
102
RTVSPropertyOp23
 70
     0
102
RTVSPropertyOp24
 70
     0
102
RTVSPropertyOp25
 70
     0
102
RTVSPropertyOp26
 70
     0
102
RTVSPropertyOp27
 70
     0
102
RTVSPropertyOp28
 70
     1
102
RTVSPropertyOp29
 70
     1
102
RTVSPropertyOp30
 70
     1
102
RTVSPropertyOp31
 70
     1
102
RTVSPropertyOp32
 70
     1
  0
XRECORD
  5
F49
102
{ACAD_REACTORS
330
F48
102
}
330
F48
100
AcDbXrecord
280
     1
102
RTVSPropertyOp0
 70
     1
102
RTVSPropertyOp1
 70
     1
102
RTVSPropertyOp2
 70
     1
102
RTVSPropertyOp3
 70
     1
102
RTVSPropertyOp4
 70
     1
102
RTVSPropertyOp5
 70
     1
102
RTVSPropertyOp6
 70
     1
102
RTVSPropertyOp7
 70
     1
102
RTVSPropertyOp8
 70
     1
102
RTVSPropertyOp9
 70
     1
102
RTVSPropertyOp10
 70
     1
102
RTVSPropertyOp11
 70
     1
102
RTVSPropertyOp12
 70
     1
102
RTVSPropertyOp13
 70
     1
102
RTVSPropertyOp14
 70
     1
102
RTVSPropertyOp15
 70
     1
102
RTVSPropertyOp16
 70
     1
102
RTVSPropertyOp17
 70
     1
102
RTVSPropertyOp18
 70
     1
102
RTVSPropertyOp19
 70
     1
102
RTVSPropertyOp20
 70
     1
102
RTVSPropertyOp21
 70
     1
102
RTVSPropertyOp22
 70
     1
102
RTVSPropertyOp23
 70
     1
102
RTVSPropertyOp24
 70
     1
102
RTVSPropertyOp25
 70
     1
102
RTVSPropertyOp26
 70
     1
102
RTVSPropertyOp27
 70
     1
102
RTVSPropertyOp28
 70
     1
102
RTVSPropertyOp29
 70
     1
102
RTVSPropertyOp30
 70
     1
102
RTVSPropertyOp31
 70
     1
102
RTVSPropertyOp32
 70
     1
  0
XRECORD
  5
F5F
102
{ACAD_REACTORS
330
F5E
102
}
330
F5E
100
AcDbXrecord
280
     1
102
RTVSPropertyOp0
 70
     1
102
RTVSPropertyOp1
 70
     1
102
RTVSPropertyOp2
 70
     1
102
RTVSPropertyOp3
 70
     1
102
RTVSPropertyOp4
 70
     1
102
RTVSPropertyOp5
 70
     1
102
RTVSPropertyOp6
 70
     1
102
RTVSPropertyOp7
 70
     1
102
RTVSPropertyOp8
 70
     1
102
RTVSPropertyOp9
 70
     1
102
RTVSPropertyOp10
 70
     1
102
RTVSPropertyOp11
 70
     1
102
RTVSPropertyOp12
 70
     1
102
RTVSPropertyOp13
 70
     1
102
RTVSPropertyOp14
 70
     1
102
RTVSPropertyOp15
 70
     1
102
RTVSPropertyOp16
 70
     1
102
RTVSPropertyOp17
 70
     1
102
RTVSPropertyOp18
 70
     1
102
RTVSPropertyOp19
 70
     1
102
RTVSPropertyOp20
 70
     1
102
RTVSPropertyOp21
 70
     1
102
RTVSPropertyOp22
 70
     1
102
RTVSPropertyOp23
 70
     1
102
RTVSPropertyOp24
 70
     1
102
RTVSPropertyOp25
 70
     1
102
RTVSPropertyOp26
 70
     1
102
RTVSPropertyOp27
 70
     1
102
RTVSPropertyOp28
 70
     1
102
RTVSPropertyOp29
 70
     1
102
RTVSPropertyOp30
 70
     1
102
RTVSPropertyOp31
 70
     1
102
RTVSPropertyOp32
 70
     1
  0
XRECORD
  5
F5D
102
{ACAD_REACTORS
330
F5C
102
}
330
F5C
100
AcDbXrecord
280
     1
102
RTVSPropertyOp0
 70
     1
102
RTVSPropertyOp1
 70
     1
102
RTVSPropertyOp2
 70
     1
102
RTVSPropertyOp3
 70
     1
102
RTVSPropertyOp4
 70
     1
102
RTVSPropertyOp5
 70
     1
102
RTVSPropertyOp6
 70
     1
102
RTVSPropertyOp7
 70
     1
102
RTVSPropertyOp8
 70
     1
102
RTVSPropertyOp9
 70
     1
102
RTVSPropertyOp10
 70
     1
102
RTVSPropertyOp11
 70
     1
102
RTVSPropertyOp12
 70
     1
102
RTVSPropertyOp13
 70
     1
102
RTVSPropertyOp14
 70
     1
102
RTVSPropertyOp15
 70
     1
102
RTVSPropertyOp16
 70
     1
102
RTVSPropertyOp17
 70
     1
102
RTVSPropertyOp18
 70
     1
102
RTVSPropertyOp19
 70
     1
102
RTVSPropertyOp20
 70
     1
102
RTVSPropertyOp21
 70
     1
102
RTVSPropertyOp22
 70
     1
102
RTVSPropertyOp23
 70
     1
102
RTVSPropertyOp24
 70
     1
102
RTVSPropertyOp25
 70
     1
102
RTVSPropertyOp26
 70
     1
102
RTVSPropertyOp27
 70
     1
102
RTVSPropertyOp28
 70
     1
102
RTVSPropertyOp29
 70
     1
102
RTVSPropertyOp30
 70
     1
102
RTVSPropertyOp31
 70
     1
102
RTVSPropertyOp32
 70
     1
  0
XRECORD
  5
F57
102
{ACAD_REACTORS
330
F56
102
}
330
F56
100
AcDbXrecord
280
     1
102
RTVSPropertyOp0
 70
     1
102
RTVSPropertyOp1
 70
     1
102
RTVSPropertyOp2
 70
     1
102
RTVSPropertyOp3
 70
     1
102
RTVSPropertyOp4
 70
     1
102
RTVSPropertyOp5
 70
     1
102
RTVSPropertyOp6
 70
     1
102
RTVSPropertyOp7
 70
     1
102
RTVSPropertyOp8
 70
     1
102
RTVSPropertyOp9
 70
     1
102
RTVSPropertyOp10
 70
     1
102
RTVSPropertyOp11
 70
     1
102
RTVSPropertyOp12
 70
     1
102
RTVSPropertyOp13
 70
     1
102
RTVSPropertyOp14
 70
     1
102
RTVSPropertyOp15
 70
     1
102
RTVSPropertyOp16
 70
     1
102
RTVSPropertyOp17
 70
     1
102
RTVSPropertyOp18
 70
     1
102
RTVSPropertyOp19
 70
     1
102
RTVSPropertyOp20
 70
     1
102
RTVSPropertyOp21
 70
     1
102
RTVSPropertyOp22
 70
     1
102
RTVSPropertyOp23
 70
     1
102
RTVSPropertyOp24
 70
     1
102
RTVSPropertyOp25
 70
     1
102
RTVSPropertyOp26
 70
     1
102
RTVSPropertyOp27
 70
     1
102
RTVSPropertyOp28
 70
     1
102
RTVSPropertyOp29
 70
     1
102
RTVSPropertyOp30
 70
     1
102
RTVSPropertyOp31
 70
     1
102
RTVSPropertyOp32
 70
     1
  0
XRECORD
  5
F59
102
{ACAD_REACTORS
330
F58
102
}
330
F58
100
AcDbXrecord
280
     1
102
RTVSPropertyOp0
 70
     1
102
RTVSPropertyOp1
 70
     1
102
RTVSPropertyOp2
 70
     1
102
RTVSPropertyOp3
 70
     1
102
RTVSPropertyOp4
 70
     1
102
RTVSPropertyOp5
 70
     1
102
RTVSPropertyOp6
 70
     1
102
RTVSPropertyOp7
 70
     1
102
RTVSPropertyOp8
 70
     1
102
RTVSPropertyOp9
 70
     1
102
RTVSPropertyOp10
 70
     1
102
RTVSPropertyOp11
 70
     1
102
RTVSPropertyOp12
 70
     1
102
RTVSPropertyOp13
 70
     1
102
RTVSPropertyOp14
 70
     1
102
RTVSPropertyOp15
 70
     1
102
RTVSPropertyOp16
 70
     1
102
RTVSPropertyOp17
 70
     1
102
RTVSPropertyOp18
 70
     1
102
RTVSPropertyOp19
 70
     1
102
RTVSPropertyOp20
 70
     1
102
RTVSPropertyOp21
 70
     1
102
RTVSPropertyOp22
 70
     1
102
RTVSPropertyOp23
 70
     1
102
RTVSPropertyOp24
 70
     1
102
RTVSPropertyOp25
 70
     1
102
RTVSPropertyOp26
 70
     1
102
RTVSPropertyOp27
 70
     1
102
RTVSPropertyOp28
 70
     1
102
RTVSPropertyOp29
 70
     1
102
RTVSPropertyOp30
 70
     1
102
RTVSPropertyOp31
 70
     1
102
RTVSPropertyOp32
 70
     1
  0
XRECORD
  5
F4F
102
{ACAD_REACTORS
330
F4E
102
}
330
F4E
100
AcDbXrecord
280
     1
102
RTVSPropertyOp0
 70
     1
102
RTVSPropertyOp1
 70
     1
102
RTVSPropertyOp2
 70
     1
102
RTVSPropertyOp3
 70
     1
102
RTVSPropertyOp4
 70
     1
102
RTVSPropertyOp5
 70
     1
102
RTVSPropertyOp6
 70
     1
102
RTVSPropertyOp7
 70
     1
102
RTVSPropertyOp8
 70
     1
102
RTVSPropertyOp9
 70
     1
102
RTVSPropertyOp10
 70
     1
102
RTVSPropertyOp11
 70
     1
102
RTVSPropertyOp12
 70
     1
102
RTVSPropertyOp13
 70
     1
102
RTVSPropertyOp14
 70
     1
102
RTVSPropertyOp15
 70
     1
102
RTVSPropertyOp16
 70
     1
102
RTVSPropertyOp17
 70
     1
102
RTVSPropertyOp18
 70
     1
102
RTVSPropertyOp19
 70
     1
102
RTVSPropertyOp20
 70
     1
102
RTVSPropertyOp21
 70
     1
102
RTVSPropertyOp22
 70
     1
102
RTVSPropertyOp23
 70
     1
102
RTVSPropertyOp24
 70
     1
102
RTVSPropertyOp25
 70
     1
102
RTVSPropertyOp26
 70
     1
102
RTVSPropertyOp27
 70
     1
102
RTVSPropertyOp28
 70
     1
102
RTVSPropertyOp29
 70
     1
102
RTVSPropertyOp30
 70
     1
102
RTVSPropertyOp31
 70
     1
102
RTVSPropertyOp32
 70
     1
  0
XRECORD
  5
F43
102
{ACAD_REACTORS
330
F42
102
}
330
F42
100
AcDbXrecord
280
     1
102
RTVSPropertyOp0
 70
     1
102
RTVSPropertyOp1
 70
     1
102
RTVSPropertyOp2
 70
     1
102
RTVSPropertyOp3
 70
     1
102
RTVSPropertyOp4
 70
     1
102
RTVSPropertyOp5
 70
     1
102
RTVSPropertyOp6
 70
     1
102
RTVSPropertyOp7
 70
     1
102
RTVSPropertyOp8
 70
     1
102
RTVSPropertyOp9
 70
     1
102
RTVSPropertyOp10
 70
     1
102
RTVSPropertyOp11
 70
     1
102
RTVSPropertyOp12
 70
     1
102
RTVSPropertyOp13
 70
     1
102
RTVSPropertyOp14
 70
     1
102
RTVSPropertyOp15
 70
     1
102
RTVSPropertyOp16
 70
     1
102
RTVSPropertyOp17
 70
     1
102
RTVSPropertyOp18
 70
     1
102
RTVSPropertyOp19
 70
     1
102
RTVSPropertyOp20
 70
     1
102
RTVSPropertyOp21
 70
     1
102
RTVSPropertyOp22
 70
     1
102
RTVSPropertyOp23
 70
     1
102
RTVSPropertyOp24
 70
     1
102
RTVSPropertyOp25
 70
     1
102
RTVSPropertyOp26
 70
     1
102
RTVSPropertyOp27
 70
     1
102
RTVSPropertyOp28
 70
     1
102
RTVSPropertyOp29
 70
     1
102
RTVSPropertyOp30
 70
     1
102
RTVSPropertyOp31
 70
     1
102
RTVSPropertyOp32
 70
     1
  0
XRECORD
  5
F5B
102
{ACAD_REACTORS
330
F5A
102
}
330
F5A
100
AcDbXrecord
280
     1
102
RTVSPropertyOp0
 70
     1
102
RTVSPropertyOp1
 70
     1
102
RTVSPropertyOp2
 70
     1
102
RTVSPropertyOp3
 70
     1
102
RTVSPropertyOp4
 70
     1
102
RTVSPropertyOp5
 70
     1
102
RTVSPropertyOp6
 70
     1
102
RTVSPropertyOp7
 70
     1
102
RTVSPropertyOp8
 70
     1
102
RTVSPropertyOp9
 70
     1
102
RTVSPropertyOp10
 70
     1
102
RTVSPropertyOp11
 70
     1
102
RTVSPropertyOp12
 70
     1
102
RTVSPropertyOp13
 70
     1
102
RTVSPropertyOp14
 70
     1
102
RTVSPropertyOp15
 70
     1
102
RTVSPropertyOp16
 70
     1
102
RTVSPropertyOp17
 70
     1
102
RTVSPropertyOp18
 70
     1
102
RTVSPropertyOp19
 70
     1
102
RTVSPropertyOp20
 70
     1
102
RTVSPropertyOp21
 70
     1
102
RTVSPropertyOp22
 70
     1
102
RTVSPropertyOp23
 70
     1
102
RTVSPropertyOp24
 70
     1
102
RTVSPropertyOp25
 70
     1
102
RTVSPropertyOp26
 70
     1
102
RTVSPropertyOp27
 70
     1
102
RTVSPropertyOp28
 70
     1
102
RTVSPropertyOp29
 70
     1
102
RTVSPropertyOp30
 70
     1
102
RTVSPropertyOp31
 70
     1
102
RTVSPropertyOp32
 70
     1
  0
ACDBASSOCGEOMDEPENDENCY
  5
BC0
330
BBE
100
AcDbAssocDependency
 90
        2
 90
        0
290
     1
290
     1
290
     1
290
     1
 90
   -10000
330
BB5
290
     0
330
0
330
BC3
360
0
 90
        2
100
AcDbAssocGeomDependency
 90
        0
290
     1
  1
AcDbAssocEdgePersSubentId
 90
        0
 90
       11
 90
        8
290
     0
  0
ACDBASSOCGEOMDEPENDENCY
  5
BC2
330
BBE
100
AcDbAssocDependency
 90
        2
 90
        0
290
     1
290
     1
290
     1
290
     1
 90
   -10000
330
BC1
290
     0
330
0
330
0
360
0
 90
        3
100
AcDbAssocGeomDependency
 90
        0
290
     1
  1
AcDbAssocSingleEdgePersSubentId
290
     0
  0
ACDBASSOCGEOMDEPENDENCY
  5
BC3
330
BBE
100
AcDbAssocDependency
 90
        2
 90
        0
290
     1
290
     1
290
     1
290
     1
 90
   -10000
330
BB5
290
     0
330
BC0
330
0
360
0
 90
        4
100
AcDbAssocGeomDependency
 90
        0
290
     1
  1
AcDbAssocEdgePersSubentId
 90
        0
 90
        8
 90
        9
290
     0
  0
ACDBASSOCGEOMDEPENDENCY
  5
BC5
330
BBE
100
AcDbAssocDependency
 90
        2
 90
        0
290
     1
290
     1
290
     1
290
     1
 90
   -10000
330
BC4
290
     0
330
0
330
0
360
0
 90
        5
100
AcDbAssocGeomDependency
 90
        0
290
     1
  1
AcDbAssocSingleEdgePersSubentId
290
     0
  0
ACDBASSOCGEOMDEPENDENCY
  5
BC7
330
BBE
100
AcDbAssocDependency
 90
        2
 90
        0
290
     1
290
     1
290
     1
290
     1
 90
   -10000
330
BC6
290
     0
330
0
330
0
360
0
 90
        6
100
AcDbAssocGeomDependency
 90
        0
290
     1
  1
AcDbAssocSingleEdgePersSubentId
290
     0
  0
ACDBASSOCGEOMDEPENDENCY
  5
BBF
330
BBE
100
AcDbAssocDependency
 90
        2
 90
        0
290
     1
290
     1
290
     1
290
     1
 90
   -10000
330
BBB
290
     0
330
0
330
0
360
0
 90
        1
100
AcDbAssocGeomDependency
 90
        0
290
     1
  1
AcDbAssocSingleEdgePersSubentId
290
     0
  0
ACDBASSOCGEOMDEPENDENCY
  5
BCD
330
BBE
100
AcDbAssocDependency
 90
        2
 90
        0
290
     1
290
     1
290
     1
290
     1
 90
   -10000
330
BCC
290
     0
330
0
330
0
360
0
 90
        9
100
AcDbAssocGeomDependency
 90
        0
290
     1
  1
AcDbAssocSingleEdgePersSubentId
290
     0
  0
ACDBASSOCGEOMDEPENDENCY
  5
BCF
330
BBE
100
AcDbAssocDependency
 90
        2
 90
        0
290
     1
290
     1
290
     1
290
     1
 90
   -10000
330
BCE
290
     0
330
0
330
0
360
0
 90
       10
100
AcDbAssocGeomDependency
 90
        0
290
     1
  1
AcDbAssocSingleEdgePersSubentId
290
     0
  0
ACDBASSOCGEOMDEPENDENCY
  5
BDE
330
BBE
100
AcDbAssocDependency
 90
        2
 90
        0
290
     1
290
     1
290
     1
290
     1
 90
   -10000
330
BD2
290
     0
330
0
330
0
360
0
 90
       12
100
AcDbAssocGeomDependency
 90
        0
290
     1
  1
AcDbAssocSingleEdgePersSubentId
290
     0
  0
ACDBASSOCGEOMDEPENDENCY
  5
BDF
330
BBE
100
AcDbAssocDependency
 90
        2
 90
        0
290
     1
290
     1
290
     1
290
     1
 90
   -10000
330
BD3
290
     0
330
0
330
0
360
0
 90
       13
100
AcDbAssocGeomDependency
 90
        0
290
     1
  1
AcDbAssocSingleEdgePersSubentId
290
     0
  0
ACDBASSOCGEOMDEPENDENCY
  5
DC0
330
BBE
100
AcDbAssocDependency
 90
        2
 90
        0
290
     1
290
     1
290
     1
290
     1
 90
   -10000
330
DBF
290
     0
330
0
330
0
360
0
 90
       15
100
AcDbAssocGeomDependency
 90
        0
290
     1
  1
AcDbAssocSingleEdgePersSubentId
290
     0
  0
ACDBASSOCGEOMDEPENDENCY
  5
F20
330
BBE
100
AcDbAssocDependency
 90
        2
 90
        0
290
     1
290
     1
290
     1
290
     1
 90
   -10000
330
F18
290
     0
330
0
330
0
360
0
 90
       24
100
AcDbAssocGeomDependency
 90
        0
290
     1
  1
AcDbAssocSingleEdgePersSubentId
290
     0
  0
ACDBASSOCGEOMDEPENDENCY
  5
F21
330
BBE
100
AcDbAssocDependency
 90
        2
 90
        0
290
     1
290
     1
290
     1
290
     1
 90
   -10000
330
F17
290
     0
330
0
330
0
360
0
 90
       25
100
AcDbAssocGeomDependency
 90
        0
290
     1
  1
AcDbAssocSingleEdgePersSubentId
290
     0
  0
ACDBASSOCGEOMDEPENDENCY
  5
F22
330
BBE
100
AcDbAssocDependency
 90
        2
 90
        0
290
     1
290
     1
290
     1
290
     1
 90
   -10000
330
F1B
290
     0
330
0
330
0
360
0
 90
       26
100
AcDbAssocGeomDependency
 90
        0
290
     1
  1
AcDbAssocSingleEdgePersSubentId
290
     0
  0
ACDBASSOCGEOMDEPENDENCY
  5
F23
330
BBE
100
AcDbAssocDependency
 90
        2
 90
        0
290
     1
290
     1
290
     1
290
     1
 90
   -10000
330
F1A
290
     0
330
0
330
0
360
0
 90
       27
100
AcDbAssocGeomDependency
 90
        0
290
     1
  1
AcDbAssocSingleEdgePersSubentId
290
     0
  0
ACDBASSOCGEOMDEPENDENCY
  5
F24
330
BBE
100
AcDbAssocDependency
 90
        2
 90
        0
290
     1
290
     1
290
     1
290
     1
 90
   -10000
330
F19
290
     0
330
0
330
0
360
0
 90
       28
100
AcDbAssocGeomDependency
 90
        0
290
     1
  1
AcDbAssocSingleEdgePersSubentId
290
     0
  0
ACDBASSOCGEOMDEPENDENCY
  5
ED4
330
BBE
100
AcDbAssocDependency
 90
        2
 90
        0
290
     1
290
     1
290
     1
290
     1
 90
   -10000
330
ED2
290
     0
330
0
330
0
360
0
 90
       17
100
AcDbAssocGeomDependency
 90
        0
290
     1
  1
AcDbAssocSingleEdgePersSubentId
290
     0
  0
ACDBASSOCGEOMDEPENDENCY
  5
ED6
330
BBE
100
AcDbAssocDependency
 90
        2
 90
        0
290
     1
290
     1
290
     1
290
     1
 90
   -10000
330
ED5
290
     0
330
0
330
0
360
0
 90
       18
100
AcDbAssocGeomDependency
 90
        0
290
     1
  1
AcDbAssocSingleEdgePersSubentId
290
     0
  0
ACDBASSOCGEOMDEPENDENCY
  5
EF8
330
BBE
100
AcDbAssocDependency
 90
        2
 90
        0
290
     1
290
     1
290
     1
290
     1
 90
   -10000
330
EF0
290
     0
330
0
330
0
360
0
 90
       19
100
AcDbAssocGeomDependency
 90
        0
290
     1
  1
AcDbAssocSingleEdgePersSubentId
290
     0
  0
ACDBASSOCGEOMDEPENDENCY
  5
EF9
330
BBE
100
AcDbAssocDependency
 90
        2
 90
        0
290
     1
290
     1
290
     1
290
     1
 90
   -10000
330
EEF
290
     0
330
0
330
0
360
0
 90
       20
100
AcDbAssocGeomDependency
 90
        0
290
     1
  1
AcDbAssocSingleEdgePersSubentId
290
     0
  0
ACDBASSOCGEOMDEPENDENCY
  5
EFA
330
BBE
100
AcDbAssocDependency
 90
        2
 90
        0
290
     1
290
     1
290
     1
290
     1
 90
   -10000
330
EF3
290
     0
330
0
330
0
360
0
 90
       21
100
AcDbAssocGeomDependency
 90
        0
290
     1
  1
AcDbAssocSingleEdgePersSubentId
290
     0
  0
ACDBASSOCGEOMDEPENDENCY
  5
EFB
330
BBE
100
AcDbAssocDependency
 90
        2
 90
        0
290
     1
290
     1
290
     1
290
     1
 90
   -10000
330
EF2
290
     0
330
0
330
0
360
0
 90
       22
100
AcDbAssocGeomDependency
 90
        0
290
     1
  1
AcDbAssocSingleEdgePersSubentId
290
     0
  0
ACDBASSOCGEOMDEPENDENCY
  5
EFC
330
BBE
100
AcDbAssocDependency
 90
        2
 90
        0
290
     1
290
     1
290
     1
290
     1
 90
   -10000
330
EF1
290
     0
330
0
330
0
360
0
 90
       23
100
AcDbAssocGeomDependency
 90
        0
290
     1
  1
AcDbAssocSingleEdgePersSubentId
290
     0
  0
ACDBASSOCGEOMDEPENDENCY
  5
A16
330
A15
100
AcDbAssocDependency
 90
        2
 90
        0
290
     1
290
     1
290
     1
290
     1
 90
   -10000
330
A0E
290
     0
330
0
330
0
360
0
 90
       19
100
AcDbAssocGeomDependency
 90
        0
290
     1
  1
AcDbAssocSingleEdgePersSubentId
290
     0
  0
ACDBASSOCGEOMDEPENDENCY
  5
A17
330
A15
100
AcDbAssocDependency
 90
        2
 90
        0
290
     1
290
     1
290
     1
290
     1
 90
   -10000
330
A0D
290
     0
330
0
330
0
360
0
 90
       20
100
AcDbAssocGeomDependency
 90
        0
290
     1
  1
AcDbAssocSingleEdgePersSubentId
290
     0
  0
ACDBASSOCGEOMDEPENDENCY
  5
A7A
330
A79
100
AcDbAssocDependency
 90
        2
 90
        0
290
     1
290
     1
290
     1
290
     1
 90
   -10000
330
A6E
290
     0
330
0
330
0
360
0
 90
       38
100
AcDbAssocGeomDependency
 90
        0
290
     1
  1
AcDbAssocSingleEdgePersSubentId
290
     0
  0
ACDBASSOCGEOMDEPENDENCY
  5
A7B
330
A79
100
AcDbAssocDependency
 90
        2
 90
        0
290
     1
290
     1
290
     1
290
     1
 90
   -10000
330
A6D
290
     0
330
0
330
0
360
0
 90
       39
100
AcDbAssocGeomDependency
 90
        0
290
     1
  1
AcDbAssocSingleEdgePersSubentId
290
     0
  0
ACDBASSOCGEOMDEPENDENCY
  5
A7C
330
A79
100
AcDbAssocDependency
 90
        2
 90
        0
290
     1
290
     1
290
     1
290
     1
 90
   -10000
330
A71
290
     0
330
0
330
0
360
0
 90
       40
100
AcDbAssocGeomDependency
 90
        0
290
     1
  1
AcDbAssocSingleEdgePersSubentId
290
     0
  0
ACDBASSOCGEOMDEPENDENCY
  5
A7D
330
A79
100
AcDbAssocDependency
 90
        2
 90
        0
290
     1
290
     1
290
     1
290
     1
 90
   -10000
330
A70
290
     0
330
0
330
0
360
0
 90
       41
100
AcDbAssocGeomDependency
 90
        0
290
     1
  1
AcDbAssocSingleEdgePersSubentId
290
     0
  0
ENDSEC
  0
EOF
