  0
SECTION
  2
HEADER
  9
$ACADVER
  1
AC1015
  9
$ACADMAINTVER
 70
    20
  9
$DWGCODEPAGE
  3
ANSI_1250
  9
$INSBASE
 10
0.0
 20
0.0
 30
0.0
  9
$EXTMIN
 10
-1660.49950050258
 20
170.9240368689802
 30
0.0
  9
$EXTMAX
 10
-392.1223672769469
 20
2461.321367524578
 30
0.0
  9
$LIMMIN
 10
0.0
 20
0.0
  9
$LIMMAX
 10
2970.0
 20
2100.0
  9
$ORTHOMODE
 70
     0
  9
$REGENMODE
 70
     1
  9
$FILLMODE
 70
     1
  9
$QTEXTMODE
 70
     0
  9
$MIRRTEXT
 70
     0
  9
$LTSCALE
 40
10.0
  9
$ATTMODE
 70
     1
  9
$TEXTSIZE
 40
0.2
  9
$TRACEWID
 40
0.05
  9
$TEXTSTYLE
  7
Standard
  9
$CLAYER
  8
0
  9
$CELTYPE
  6
ByLayer
  9
$CECOLOR
 62
   256
  9
$CELTSCALE
 40
1.0
  9
$DISPSILH
 70
     0
  9
$DIMSCALE
 40
1.0
  9
$DIMASZ
 40
1.799999999999999
  9
$DIMEXO
 40
0.0625
  9
$DIMDLI
 40
0.38
  9
$DIMRND
 40
0.0
  9
$DIMDLE
 40
0.0
  9
$DIMEXE
 40
0.18
  9
$DIMTP
 40
0.0
  9
$DIMTM
 40
0.0
  9
$DIMTXT
 40
0.25
  9
$DIMCEN
 40
0.09
  9
$DIMTSZ
 40
0.0
  9
$DIMTOL
 70
     0
  9
$DIMLIM
 70
     0
  9
$DIMTIH
 70
     1
  9
$DIMTOH
 70
     1
  9
$DIMSE1
 70
     0
  9
$DIMSE2
 70
     0
  9
$DIMTAD
 70
     0
  9
$DIMZIN
 70
     0
  9
$DIMBLK
  1

  9
$DIMASO
 70
     1
  9
$DIMSHO
 70
     1
  9
$DIMPOST
  1

  9
$DIMAPOST
  1

  9
$DIMALT
 70
     0
  9
$DIMALTD
 70
     2
  9
$DIMALTF
 40
25.4
  9
$DIMLFAC
 40
1.0
  9
$DIMTOFL
 70
     0
  9
$DIMTVP
 40
0.0
  9
$DIMTIX
 70
     0
  9
$DIMSOXD
 70
     0
  9
$DIMSAH
 70
     0
  9
$DIMBLK1
  1

  9
$DIMBLK2
  1

  9
$DIMSTYLE
  2
Standard
  9
$DIMCLRD
 70
     0
  9
$DIMCLRE
 70
     0
  9
$DIMCLRT
 70
     0
  9
$DIMTFAC
 40
1.0
  9
$DIMGAP
 40
0.09
  9
$DIMJUST
 70
     0
  9
$DIMSD1
 70
     0
  9
$DIMSD2
 70
     0
  9
$DIMTOLJ
 70
     1
  9
$DIMTZIN
 70
     0
  9
$DIMALTZ
 70
     0
  9
$DIMALTTZ
 70
     0
  9
$DIMUPT
 70
     0
  9
$DIMDEC
 70
     4
  9
$DIMTDEC
 70
     4
  9
$DIMALTU
 70
     2
  9
$DIMALTTD
 70
     2
  9
$DIMTXSTY
  7
Standard
  9
$DIMAUNIT
 70
     0
  9
$DIMADEC
 70
     0
  9
$DIMALTRND
 40
0.0
  9
$DIMAZIN
 70
     0
  9
$DIMDSEP
 70
    46
  9
$DIMATFIT
 70
     3
  9
$DIMFRAC
 70
     0
  9
$DIMLDRBLK
  1

  9
$DIMLUNIT
 70
     2
  9
$DIMLWD
 70
    -2
  9
$DIMLWE
 70
    -2
  9
$DIMTMOVE
 70
     0
  9
$LUNITS
 70
     2
  9
$LUPREC
 70
     4
  9
$SKETCHINC
 40
0.1
  9
$FILLETRAD
 40
0.0
  9
$AUNITS
 70
     0
  9
$AUPREC
 70
     0
  9
$MENU
  1
.
  9
$ELEVATION
 40
0.0
  9
$PELEVATION
 40
0.0
  9
$THICKNESS
 40
0.0
  9
$LIMCHECK
 70
     0
  9
$CHAMFERA
 40
0.0
  9
$CHAMFERB
 40
0.0
  9
$CHAMFERC
 40
0.0
  9
$CHAMFERD
 40
0.0
  9
$SKPOLY
 70
     0
  9
$TDCREATE
 40
2456762.412502720
  9
$TDUCREATE
 40
2456762.329169387
  9
$TDUPDATE
 40
2459858.504111782
  9
$TDUUPDATE
 40
2459858.420778449
  9
$TDINDWG
 40
0.0057226620
  9
$TDUSRTIMER
 40
0.0057226620
  9
$USRTIMER
 70
     1
  9
$ANGBASE
 50
0.0
  9
$ANGDIR
 70
     0
  9
$PDMODE
 70
     0
  9
$PDSIZE
 40
0.0
  9
$PLINEWID
 40
0.0
  9
$SPLFRAME
 70
     0
  9
$SPLINETYPE
 70
     6
  9
$SPLINESEGS
 70
     8
  9
$HANDSEED
  5
A9F
  9
$SURFTAB1
 70
     6
  9
$SURFTAB2
 70
     6
  9
$SURFTYPE
 70
     6
  9
$SURFU
 70
     6
  9
$SURFV
 70
     6
  9
$UCSBASE
  2

  9
$UCSNAME
  2

  9
$UCSORG
 10
0.0
 20
0.0
 30
0.0
  9
$UCSXDIR
 10
1.0
 20
0.0
 30
0.0
  9
$UCSYDIR
 10
0.0
 20
1.0
 30
0.0
  9
$UCSORTHOREF
  2

  9
$UCSORTHOVIEW
 70
     0
  9
$UCSORGTOP
 10
0.0
 20
0.0
 30
0.0
  9
$UCSORGBOTTOM
 10
0.0
 20
0.0
 30
0.0
  9
$UCSORGLEFT
 10
0.0
 20
0.0
 30
0.0
  9
$UCSORGRIGHT
 10
0.0
 20
0.0
 30
0.0
  9
$UCSORGFRONT
 10
0.0
 20
0.0
 30
0.0
  9
$UCSORGBACK
 10
0.0
 20
0.0
 30
0.0
  9
$PUCSBASE
  2

  9
$PUCSNAME
  2

  9
$PUCSORG
 10
0.0
 20
0.0
 30
0.0
  9
$PUCSXDIR
 10
1.0
 20
0.0
 30
0.0
  9
$PUCSYDIR
 10
0.0
 20
1.0
 30
0.0
  9
$PUCSORTHOREF
  2

  9
$PUCSORTHOVIEW
 70
     0
  9
$PUCSORGTOP
 10
0.0
 20
0.0
 30
0.0
  9
$PUCSORGBOTTOM
 10
0.0
 20
0.0
 30
0.0
  9
$PUCSORGLEFT
 10
0.0
 20
0.0
 30
0.0
  9
$PUCSORGRIGHT
 10
0.0
 20
0.0
 30
0.0
  9
$PUCSORGFRONT
 10
0.0
 20
0.0
 30
0.0
  9
$PUCSORGBACK
 10
0.0
 20
0.0
 30
0.0
  9
$USERI1
 70
     0
  9
$USERI2
 70
     0
  9
$USERI3
 70
     0
  9
$USERI4
 70
     0
  9
$USERI5
 70
     0
  9
$USERR1
 40
0.0
  9
$USERR2
 40
0.0
  9
$USERR3
 40
0.0
  9
$USERR4
 40
0.0
  9
$USERR5
 40
0.0
  9
$WORLDVIEW
 70
     1
  9
$SHADEDGE
 70
     3
  9
$SHADEDIF
 70
    70
  9
$TILEMODE
 70
     1
  9
$MAXACTVP
 70
    64
  9
$PINSBASE
 10
0.0
 20
0.0
 30
0.0
  9
$PLIMCHECK
 70
     0
  9
$PEXTMIN
 10
0.0
 20
0.0
 30
0.0
  9
$PEXTMAX
 10
2970.0
 20
2100.0
 30
0.0
  9
$PLIMMIN
 10
0.0
 20
0.0
  9
$PLIMMAX
 10
2970.0
 20
2100.0
  9
$UNITMODE
 70
     0
  9
$VISRETAIN
 70
     1
  9
$PLINEGEN
 70
     0
  9
$PSLTSCALE
 70
     1
  9
$TREEDEPTH
 70
  3020
  9
$CMLSTYLE
  2
Standard
  9
$CMLJUST
 70
     0
  9
$CMLSCALE
 40
1.0
  9
$PROXYGRAPHICS
 70
     1
  9
$MEASUREMENT
 70
     1
  9
$CELWEIGHT
370
    -1
  9
$ENDCAPS
280
     0
  9
$JOINSTYLE
280
     0
  9
$LWDISPLAY
290
     0
  9
$INSUNITS
 70
     4
  9
$HYPERLINKBASE
  1

  9
$STYLESHEET
  1

  9
$XEDIT
290
     1
  9
$CEPSNTYPE
380
     0
  9
$PSTYLEMODE
290
     1
  9
$FINGERPRINTGUID
  2
{D4963828-BC36-4C22-8028-6492DCBAB5BF}
  9
$VERSIONGUID
  2
{E686371E-2B0F-4575-8E90-4A1A8EB7DF74}
  9
$EXTNAMES
290
     1
  9
$PSVPSCALE
 40
0.0
  9
$OLESTARTUP
290
     0
  0
ENDSEC
  0
SECTION
  2
CLASSES
  0
CLASS
  1
ACDBDICTIONARYWDFLT
  2
AcDbDictionaryWithDefault
  3
ObjectDBX Classes
 90
        0
280
     0
281
     0
  0
CLASS
  1
MATERIAL
  2
AcDbMaterial
  3
ObjectDBX Classes
 90
     1153
280
     0
281
     0
  0
CLASS
  1
VISUALSTYLE
  2
AcDbVisualStyle
  3
ObjectDBX Classes
 90
     4095
280
     0
281
     0
  0
CLASS
  1
SCALE
  2
AcDbScale
  3
ObjectDBX Classes
 90
     1153
280
     0
281
     0
  0
CLASS
  1
TABLESTYLE
  2
AcDbTableStyle
  3
ObjectDBX Classes
 90
     4095
280
     0
281
     0
  0
CLASS
  1
MLEADERSTYLE
  2
AcDbMLeaderStyle
  3
ACDB_MLEADERSTYLE_CLASS
 90
     4095
280
     0
281
     0
  0
CLASS
  1
DICTIONARYVAR
  2
AcDbDictionaryVar
  3
ObjectDBX Classes
 90
        0
280
     0
281
     0
  0
CLASS
  1
ACME_DOCUMENT
  2
AcMeDbDoc
  3
AcMeServices
 90
     1024
280
     0
281
     0
  0
CLASS
  1
AMGSETTINGSOBJ
  2
AmgSettingsObj
  3
"AcadM|Product Description: AutoCAD Mechanical|Company: Autodesk, Inc."
 90
     1024
280
     0
281
     0
  0
CLASS
  1
ACMESCOPE
  2
AcMeScope
  3
AcMeServices
 90
     1024
280
     0
281
     0
  0
CLASS
  1
ACMECOMMANDHISTORY
  2
AcMeCommandHistory
  3
AcMeServices
 90
     1024
280
     0
281
     0
  0
CLASS
  1
ACIMSYSVARMAN
  2
AcImSysVarManager
  3
AcMeServices
 90
     1024
280
     0
281
     0
  0
CLASS
  1
ACIMINTSYSVAR
  2
AcImIntSysVar
  3
AcMeServices
 90
     1024
280
     0
281
     0
  0
CLASS
  1
ACMESTATEMGR
  2
AcMeStateMgr
  3
AcMeServices
 90
     1024
280
     0
281
     0
  0
CLASS
  1
ACDBENTITYCACHE
  2
AcMeEntityCache
  3
AcMeServices
 90
     1024
280
     0
281
     0
  0
CLASS
  1
ACGREFMASTER
  2
AcGrefMaster
  3
AcAttribServices
 90
     1024
280
     0
281
     0
  0
CLASS
  1
AM_DRAWING_MGR
  2
AcDmDwgMgr
  3
AcMechDwgViewMgmt
 90
     1024
280
     0
281
     0
  0
CLASS
  1
AM_DWG_DOCUMENT
  2
AcDmDwgDocument
  3
AcMechDwgViewMgmt
 90
     1024
280
     0
281
     0
  0
CLASS
  1
AM_DWG_SHEET
  2
AcDmSheet
  3
AcMechDwgViewMgmt
 90
     1024
280
     0
281
     0
  0
CLASS
  1
AM_VIEWDIMPARMAP
  2
AcDmViewDimParMap
  3
AcMechDwgViewMgmt
 90
     1024
280
     0
281
     0
  0
CLASS
  1
AMDTINTERNALREACTOR
  2
AmdtInternalReactor
  3
AcMeServices
 90
     1024
280
     0
281
     0
  0
CLASS
  1
ACIMREALSYSVAR
  2
AcImRealSysVar
  3
AcMeServices
 90
     1024
280
     0
281
     0
  0
CLASS
  1
AM_DWGMGR_NAME
  2
AcDmDwgMgrName
  3
AcMechDwgViewMgmt
 90
     1024
280
     0
281
     0
  0
CLASS
  1
ACME_DATABASE
  2
AcMeDbDatabase
  3
AcMeServices
 90
     1024
280
     0
281
     0
  0
CLASS
  1
ACRFINSADJUSTERMGR
  2
AcRfInsAdjusterMgr
  3
AcMeServices
 90
     1024
280
     0
281
     0
  0
CLASS
  1
ACGREFACADMASTER
  2
AcGrefacadMaster
  3
AcGrefServices
 90
     1024
280
     0
281
     0
  0
CLASS
  1
AMDTMENUSTATEMGR
  2
AmdtMenuStateMgr
  3
McadcomServices
 90
     1024
280
     0
281
     0
  0
CLASS
  1
AMDTMCOMMENUSTATE
  2
AmdtMcomMenuState
  3
McadcomServices
 90
     1024
280
     0
281
     0
  0
CLASS
  1
AMIMASTER
  2
AmiMaster
  3
AmiServices
 90
     1024
280
     0
281
     0
  0
CLASS
  1
MAPIAMMOUDLE
  2
MApiAmModule
  3
MApiAmServices
 90
     1024
280
     0
281
     0
  0
CLASS
  1
ACIMSTRSYSVAR
  2
AcImStrSysVar
  3
AcMeServices
 90
     1024
280
     0
281
     0
  0
CLASS
  1
AMDTDMMENUSTATE
  2
AmdtDmMenuState
  3
AcMechDwgViewMgmt
 90
     1024
280
     0
281
     0
  0
CLASS
  1
AMDTAMMENUSTATE
  2
AmdtAmMenuState
  3
DesignerAssemblies
 90
     1024
280
     0
281
     0
  0
CLASS
  1
ACAMPROJECT
  2
AcAmProject
  3
DesignerAssemblies
 90
     1024
280
     0
281
     0
  0
CLASS
  1
ACAMGRCOMPDEF
  2
AcAmGrCompDef
  3
DesignerAssemblies
 90
     1024
280
     0
281
     0
  0
CLASS
  1
ACAMCOMPDEF
  2
AcAmCompDef
  3
DesignerAssemblies
 90
     1024
280
     0
281
     0
  0
CLASS
  1
ACAMCOMPDEFMGR
  2
AcAmCompDefMgr
  3
DesignerAssemblies
 90
     1024
280
     0
281
     0
  0
CLASS
  1
AMCONTEXTMGR
  2
AcAmContextMgr
  3
DesignerAssemblies
 90
     1024
280
     0
281
     0
  0
CLASS
  1
ACAMCONTEXTMODELER
  2
AcAmContextModeler
  3
DesignerAssemblies
 90
     1024
280
     0
281
     0
  0
CLASS
  1
ACMDATADICTIONARY
  2
AcmDataDictionary
  3
"AcmSymBB|Product Description: AutoCAD Mechanical|Company: Autodesk, Inc."
 90
     1024
280
     0
281
     0
  0
CLASS
  1
ACAMGRCOMPDEFSET
  2
AcAmGrCompDefSet
  3
DesignerAssemblies
 90
     1024
280
     0
281
     0
  0
CLASS
  1
AMDTBROWSERDBTAB
  2
AmdtBrowserDbTab
  3
McadcomServices
 90
     1024
280
     0
281
     0
  0
CLASS
  1
CBROWSERAPPOBJECT
  2
CBrowserAppObject
  3
McadcomServices
 90
     1024
280
     0
281
     0
  0
CLASS
  1
DM_PLACEHOLDER
  2
AcDmSelsetPlaceholder
  3
AcMechDwgViewMgmt
 90
     1024
280
     0
281
     0
  0
CLASS
  1
EXACXREFPANELOBJECT
  2
ExAcXREFPanelObject
  3
EXAC_ESW
 90
    33793
280
     0
281
     0
  0
CLASS
  1
NPOCOLLECTION
  2
AcDbImpNonPersistentObjectsCollection
  3
ObjectDBX Classes
 90
    33921
280
     0
281
     0
  0
CLASS
  1
ACMSTANDARDISO
  2
AcmStandardISO
  3
"Amdt_StdImp|Product Description: AutoCAD Mechanical|Company: Autodesk, Inc."
 90
     1024
280
     0
281
     0
  0
CLASS
  1
AMDTEDGESTANDARDISO13715
  2
AmdtEdgeStdISO13715
  3
"Amdt_StdImp|Product Description: AutoCAD Mechanical|Company: Autodesk, Inc."
 90
     1024
280
     0
281
     0
  0
CLASS
  1
ACMSURFSTANDARDISO2002
  2
AcmSurfTextStdISO2002
  3
"Amdt_StdImp|Product Description: AutoCAD Mechanical|Company: Autodesk, Inc."
 90
     1024
280
     0
281
     0
  0
CLASS
  1
ACMFCFSTANDARDISO
  2
AcmFCFStdISO
  3
"Amdt_StdImp|Product Description: AutoCAD Mechanical|Company: Autodesk, Inc."
 90
     1024
280
     0
281
     0
  0
CLASS
  1
ACMWELDSTANDARDISO
  2
AcmWeldingStdISO
  3
"Amdt_StdImp|Product Description: AutoCAD Mechanical|Company: Autodesk, Inc."
 90
     1024
280
     0
281
     0
  0
CLASS
  1
ACMIDSTANDARDISO
  2
AcmIdStdISO
  3
"Amdt_StdImp|Product Description: AutoCAD Mechanical|Company: Autodesk, Inc."
 90
     1024
280
     0
281
     0
  0
CLASS
  1
ACMDATUMSTANDARDISO
  2
AcmDatumStdISO
  3
"Amdt_StdImp|Product Description: AutoCAD Mechanical|Company: Autodesk, Inc."
 90
     1024
280
     0
281
     0
  0
CLASS
  1
ACMBOMSTANDARDISO
  2
AcmBOMStdISO
  3
"Amdt_StdImp|Product Description: AutoCAD Mechanical|Company: Autodesk, Inc."
 90
     1024
280
     0
281
     0
  0
CLASS
  1
ACMDETAILSTANDARDISO
  2
AmdtDetailSymStdISO
  3
"Amdt_StdImp|Product Description: AutoCAD Mechanical|Company: Autodesk, Inc."
 90
     1024
280
     0
281
     0
  0
CLASS
  1
ACMSECTIONSTANDARDISO2001
  2
AmdtSectionSymStdISO2001
  3
"Amdt_StdImp|Product Description: AutoCAD Mechanical|Company: Autodesk, Inc."
 90
     1024
280
     0
281
     0
  0
CLASS
  1
ACMCENTERLINESTANDARDISO
  2
AmdtCenterLineStdISO
  3
"Amdt_StdImp|Product Description: AutoCAD Mechanical|Company: Autodesk, Inc."
 90
     1024
280
     0
281
     0
  0
CLASS
  1
ACMTHREADLINESTANDARDISO
  2
AmdtThreadLineStdISO
  3
"Amdt_StdImp|Product Description: AutoCAD Mechanical|Company: Autodesk, Inc."
 90
     1024
280
     0
281
     0
  0
CLASS
  1
ACMNOTESTANDARDISO
  2
AmdtNoteStdISO
  3
"Amdt_StdImp|Product Description: AutoCAD Mechanical|Company: Autodesk, Inc."
 90
     1024
280
     0
281
     0
  0
CLASS
  1
ACMTAPERSTANDARDISO
  2
AcmTaperStdISO
  3
"Amdt_StdImp|Product Description: AutoCAD Mechanical|Company: Autodesk, Inc."
 90
     1024
280
     0
281
     0
  0
CLASS
  1
ACMANOOTATIONVIEWSTANDARDISO
  2
AmdtAnViewStdISO
  3
"Amdt_StdImp|Product Description: AutoCAD Mechanical|Company: Autodesk, Inc."
 90
     1024
280
     0
281
     0
  0
CLASS
  1
ACAMGLAYSTD
  2
AcAmgLayStd
  3
"AmgLay|Product Description: AutoCAD Mechanical|Company: Autodesk, Inc."
 90
     1024
280
     0
281
     0
  0
CLASS
  1
ACAMGDIMSTD
  2
AcAmgDimStd
  3
"AmgDim|Product Description: AutoCAD Mechanical|Company: Autodesk, Inc."
 90
     1024
280
     0
281
     0
  0
CLASS
  1
AMGOBJPROPCFG
  2
AmgObjPropCfg
  3
"AmgLay|Product Description: AutoCAD Mechanical|Company: Autodesk, Inc."
 90
     1025
280
     0
281
     0
  0
CLASS
  1
ACAMGHOLECHARTSTDISO
  2
AcAmgHoleChartStdISO
  3
AmgDim|Product Description: AutoCAD Mechanical|Company: Autodesk, Inc.
 90
     1024
280
     0
281
     0
  0
CLASS
  1
ACAMGTITLESTD
  2
AcAmgTitleStd
  3
"AmgTitle|Product Description: AutoCAD Mechanical|Company: Autodesk, Inc."
 90
     4095
280
     0
281
     0
  0
CLASS
  1
AMDTNOTETEMPLATEDB
  2
AmdtNoteTemplateDB
  3
AcmSymBB|Product Description: AutoCAD Mechanical|Company: Autodesk, Inc.
 90
     1024
280
     0
281
     0
  0
CLASS
  1
ACAMGFILTERDAT
  2
AcAmgFilterDat
  3
"AcadM|Product Description: AutoCAD Mechanical|Company: Autodesk, Inc."
 90
     1024
280
     0
281
     0
  0
CLASS
  1
ACDBASSOCNETWORK
  2
AcDbAssocNetwork
  3
ObjectDBX Classes
 90
     1025
280
     0
281
     0
  0
CLASS
  1
ACDBASSOC2DCONSTRAINTGROUP
  2
AcDbAssoc2dConstraintGroup
  3
ObjectDBX Classes
 90
     1025
280
     0
281
     0
  0
CLASS
  1
ACDBASSOCGEOMDEPENDENCY
  2
AcDbAssocGeomDependency
  3
ObjectDBX Classes
 90
     1025
280
     0
281
     0
  0
CLASS
  1
SORTENTSTABLE
  2
AcDbSortentsTable
  3
ObjectDBX Classes
 90
        0
280
     0
281
     0
  0
CLASS
  1
CAMSSTRUCTBTNSTATE
  2
StructBtnState
  3
DesignerAssemblies
 90
     1024
280
     0
281
     0
  0
CLASS
  1
CELLSTYLEMAP
  2
AcDbCellStyleMap
  3
ObjectDBX Classes
 90
     1152
280
     0
281
     0
  0
CLASS
  1
ACDBPLACEHOLDER
  2
AcDbPlaceHolder
  3
ObjectDBX Classes
 90
        0
280
     0
281
     0
  0
CLASS
  1
LAYOUT
  2
AcDbLayout
  3
ObjectDBX Classes
 90
        0
280
     0
281
     0
  0
ENDSEC
  0
SECTION
  2
TABLES
  0
TABLE
  2
VPORT
  5
8
330
0
100
AcDbSymbolTable
 70
     1
  0
VPORT
  5
57
330
8
100
AcDbSymbolTableRecord
100
AcDbViewportTableRecord
  2
*Active
 70
     0
 10
0.0
 20
0.0
 11
1.0
 21
1.0
 12
-918.8343719334651
 22
1352.208405863664
 13
0.0
 23
0.0
 14
1.0
 24
1.0
 15
0.0
 25
0.0
 16
0.0
 26
0.0
 36
1.0
 17
0.0
 27
0.0
 37
0.0
 40
2956.648041093164
 41
2.40253164556962
 42
50.0
 43
0.0
 44
0.0
 50
0.0
 51
0.0
 71
     0
 72
   100
 73
     1
 74
     1
 75
     0
 76
     0
 77
     0
 78
     0
281
     0
 65
     1
110
0.0
120
0.0
130
0.0
111
1.0
121
0.0
131
0.0
112
0.0
122
1.0
132
0.0
 79
     0
146
0.0
  0
ENDTAB
  0
TABLE
  2
LTYPE
  5
5
330
0
100
AcDbSymbolTable
 70
    69
  0
LTYPE
  5
5B
330
5
100
AcDbSymbolTableRecord
100
AcDbLinetypeTableRecord
  2
ByBlock
 70
     0
  3

 72
    65
 73
     0
 40
0.0
  0
LTYPE
  5
5C
330
5
100
AcDbSymbolTableRecord
100
AcDbLinetypeTableRecord
  2
ByLayer
 70
     0
  3

 72
    65
 73
     0
 40
0.0
  0
LTYPE
  5
5D
330
5
100
AcDbSymbolTableRecord
100
AcDbLinetypeTableRecord
  2
Continuous
 70
     0
  3
Solid line
 72
    65
 73
     0
 40
0.0
  0
LTYPE
  5
86
330
5
100
AcDbSymbolTableRecord
100
AcDbLinetypeTableRecord
  2
CENTER
 70
     0
  3
Center ____ _ ____ _ ____ _ ____ _ ____ _ ____
 72
    65
 73
     4
 40
50.8
 49
31.75
 74
     0
 49
-6.349999999999999
 74
     0
 49
6.349999999999999
 74
     0
 49
-6.349999999999999
 74
     0
  0
LTYPE
  5
93
330
5
100
AcDbSymbolTableRecord
100
AcDbLinetypeTableRecord
  2
HIDDEN
 70
     0
  3
Hidden __ __ __ __ __ __ __ __ __ __ __ __ __ _
 72
    65
 73
     2
 40
9.524999999999998
 49
6.349999999999999
 74
     0
 49
-3.174999999999999
 74
     0
  0
LTYPE
  5
97
330
5
100
AcDbSymbolTableRecord
100
AcDbLinetypeTableRecord
  2
PHANTOM2
 70
     0
  3
Phantom (.5x) ___ _ _ ___ _ _ ___ _ _ ___ _ _
 72
    65
 73
     6
 40
31.75
 49
15.875
 74
     0
 49
-3.174999999999999
 74
     0
 49
3.174999999999999
 74
     0
 49
-3.174999999999999
 74
     0
 49
3.174999999999999
 74
     0
 49
-3.174999999999999
 74
     0
  0
LTYPE
  5
8A0
330
5
100
AcDbSymbolTableRecord
100
AcDbLinetypeTableRecord
  2
AM_ISO02W050
 70
     0
  3
__ __ __ __ __ __ __ __ __ __ __ __ __ __ __
 72
    65
 73
     2
 40
7.5
 49
6.0
 74
     0
 49
-1.5
 74
     0
  0
LTYPE
  5
8A1
330
5
100
AcDbSymbolTableRecord
100
AcDbLinetypeTableRecord
  2
AM_ISO08W050
 70
     0
  3
____ . ____ . ____ . ____ . ____ . ____ . ____
 72
    65
 73
     4
 40
18.0
 49
12.0
 74
     0
 49
-1.5
 74
     0
 49
3.0
 74
     0
 49
-1.5
 74
     0
  0
LTYPE
  5
8A2
330
5
100
AcDbSymbolTableRecord
100
AcDbLinetypeTableRecord
  2
AM_ISO09W050
 70
     0
  3
_____ . . _____ . . _____ . . ____ .. ____
 72
    65
 73
     6
 40
22.5
 49
12.0
 74
     0
 49
-1.5
 74
     0
 49
3.0
 74
     0
 49
-1.5
 74
     0
 49
3.0
 74
     0
 49
-1.5
 74
     0
  0
LTYPE
  5
8A3
330
5
100
AcDbSymbolTableRecord
100
AcDbLinetypeTableRecord
  2
Amconstr
 70
     0
  3
_______________________
 72
    65
 73
     2
 40
9999.0
 49
9999.0
 74
     0
 49
0.0
 74
     0
  0
LTYPE
  5
8A4
330
5
100
AcDbSymbolTableRecord
100
AcDbLinetypeTableRecord
  2
AM_ISO08W050x2
 70
     0
  3
__ . __ . __ . __ . __ . __
 72
    65
 73
     4
 40
9.0
 49
6.0
 74
     0
 49
-0.75
 74
     0
 49
1.5
 74
     0
 49
-0.75
 74
     0
  0
LTYPE
  5
8A5
330
5
100
AcDbSymbolTableRecord
100
AcDbLinetypeTableRecord
  2
AM_ISO02W050x2
 70
     0
  3
 _ _ _ _ _ _ _ _ _ _ _ _
 72
    65
 73
     2
 40
3.75
 49
3.0
 74
     0
 49
-0.75
 74
     0
  0
LTYPE
  5
8A8
330
5
100
AcDbSymbolTableRecord
100
AcDbLinetypeTableRecord
  2
Amzigzag
 70
     0
  3
/\/-/\/-/\/-/\/-/\/-/\/
 72
    65
 73
     2
 40
11.0001
 49
0.0001
 74
     4
 75
   136
340
8A7
 46
0.04
 50
0.0
 44
0.0
 45
0.0
 49
-11.0
 74
     0
  0
LTYPE
  5
8B7
330
5
100
AcDbSymbolTableRecord
100
AcDbLinetypeTableRecord
  2
ACISOWELD
 70
     0
  3
_ _ _ _ _
 72
    65
 73
     2
 40
2.0
 49
2.0
 74
     0
 49
-1.0
 74
     0
  0
LTYPE
  5
8B8
330
5
100
AcDbSymbolTableRecord
100
AcDbLinetypeTableRecord
  2
ACISOTGB
 70
     0
  3
__ . . __ . .
 72
    65
 73
     6
 40
9.0
 49
4.0
 74
     0
 49
-1.0
 74
     0
 49
1.0
 74
     0
 49
-1.0
 74
     0
 49
1.0
 74
     0
 49
-1.0
 74
     0
  0
LTYPE
  5
8B9
330
5
100
AcDbSymbolTableRecord
100
AcDbLinetypeTableRecord
  2
ACISOTGL
 70
     0
  3
_ _ _ _ _
 72
    65
 73
     2
 40
3.0
 49
2.0
 74
     0
 49
-1.0
 74
     0
  0
ENDTAB
  0
TABLE
  2
LAYER
  5
2
102
{ACAD_XDICTIONARY
360
8E0
102
}
330
0
100
AcDbSymbolTable
 70
     7
  0
LAYER
  5
54
330
2
100
AcDbSymbolTableRecord
100
AcDbLayerTableRecord
  2
0
 70
     0
 62
     7
  6
Continuous
370
    -3
390
F
  0
LAYER
  5
C6
330
2
100
AcDbSymbolTableRecord
100
AcDbLayerTableRecord
  2
Widoczne (ISO)
 70
     0
 62
     7
  6
Continuous
370
    25
390
F
  0
LAYER
  5
C8
330
2
100
AcDbSymbolTableRecord
100
AcDbLayerTableRecord
  2
Wymiar (ISO)
 70
     0
 62
   151
  6
Continuous
370
    18
390
F
  0
LAYER
  5
25F
330
2
100
AcDbSymbolTableRecord
100
AcDbLayerTableRecord
  2
Defpoints
 70
     0
 62
     7
  6
Continuous
290
     0
370
    -3
390
F
  0
ENDTAB
  0
TABLE
  2
STYLE
  5
3
330
0
100
AcDbSymbolTable
 70
    12
  0
STYLE
  5
55
330
3
100
AcDbSymbolTableRecord
100
AcDbTextStyleTableRecord
  2
Standard
 70
     0
 40
0.0
 41
1.0
 50
0.0
 71
     0
 42
0.2
  3
tahoma.ttf
  4

1001
ACAD
1000
Tahoma
1071
      256
  0
STYLE
  5
CB
330
3
100
AcDbSymbolTableRecord
100
AcDbTextStyleTableRecord
  2
Tekst etykiety (ISO)
 70
     0
 40
0.0
 41
1.0
 50
0.0
 71
     0
 42
0.2
  3
tahoma.ttf
  4

1001
ACAD
1000
Tahoma
1071
      256
  0
STYLE
  5
8A7
330
3
100
AcDbSymbolTableRecord
100
AcDbTextStyleTableRecord
  2

 70
     1
 40
0.0
 41
1.0
 50
0.0
 71
     0
 42
0.2
  3
genltshp.shx
  4

  0
STYLE
  5
8B6
330
3
100
AcDbSymbolTableRecord
100
AcDbTextStyleTableRecord
  2
ACISOGDT
 70
     0
 40
0.0
 41
1.0
 50
0.0
 71
     0
 42
0.2
  3
amgdt.shx
  4

  0
ENDTAB
  0
TABLE
  2
VIEW
  5
6
330
0
100
AcDbSymbolTable
 70
     0
  0
ENDTAB
  0
TABLE
  2
UCS
  5
7
330
0
100
AcDbSymbolTable
 70
     0
  0
ENDTAB
  0
TABLE
  2
APPID
  5
9
330
0
100
AcDbSymbolTable
 70
    19
  0
APPID
  5
56
330
9
100
AcDbSymbolTableRecord
100
AcDbRegAppTableRecord
  2
ACAD
 70
     0
  0
APPID
  5
5E
330
9
100
AcDbSymbolTableRecord
100
AcDbRegAppTableRecord
  2
AcadAnnotative
 70
     0
  0
APPID
  5
13F
330
9
100
AcDbSymbolTableRecord
100
AcDbRegAppTableRecord
  2
AcadAnnoPO
 70
     0
  0
APPID
  5
836
330
9
100
AcDbSymbolTableRecord
100
AcDbRegAppTableRecord
  2
MCAD_NO_VIS
 70
     0
  0
APPID
  5
837
330
9
100
AcDbSymbolTableRecord
100
AcDbRegAppTableRecord
  2
ACAD_TEMP_GRAPHIC
 70
     0
  0
APPID
  5
862
330
9
100
AcDbSymbolTableRecord
100
AcDbRegAppTableRecord
  2
AD_DRAW
 70
     0
  0
APPID
  5
865
330
9
100
AcDbSymbolTableRecord
100
AcDbRegAppTableRecord
  2
ACATTRIBSERVICES
 70
     0
  0
APPID
  5
87E
330
9
100
AcDbSymbolTableRecord
100
AcDbRegAppTableRecord
  2
DESIGNERASSEMBLIES
 70
     0
  0
APPID
  5
883
330
9
100
AcDbSymbolTableRecord
100
AcDbRegAppTableRecord
  2
ACADM_DIM_EDIT
 70
     0
  0
APPID
  5
884
330
9
100
AcDbSymbolTableRecord
100
AcDbRegAppTableRecord
  2
AMDT_DM_ADJ
 70
     0
  0
APPID
  5
89D
330
9
100
AcDbSymbolTableRecord
100
AcDbRegAppTableRecord
  2
ACAD_DSTYLE_DIMJAG
 70
     0
  0
APPID
  5
89E
330
9
100
AcDbSymbolTableRecord
100
AcDbRegAppTableRecord
  2
ACAD_DSTYLE_DIMBREAK
 70
     0
  0
APPID
  5
8C7
330
9
100
AcDbSymbolTableRecord
100
AcDbRegAppTableRecord
  2
ACAD_EXEMPT_FROM_CAD_STANDARDS
 70
     0
  0
APPID
  5
935
330
9
100
AcDbSymbolTableRecord
100
AcDbRegAppTableRecord
  2
AcAecLayerStandard
 70
     0
  0
APPID
  5
A95
330
9
100
AcDbSymbolTableRecord
100
AcDbRegAppTableRecord
  2
ACAD_MLEADERVER
 70
     0
  0
APPID
  5
A9B
330
9
100
AcDbSymbolTableRecord
100
AcDbRegAppTableRecord
  2
ACAD_DSTYLE_DIMARC_LENGTH_SYMBOL
 70
     0
  0
APPID
  5
A9C
330
9
100
AcDbSymbolTableRecord
100
AcDbRegAppTableRecord
  2
ACAD_DSTYLE_DIM_LINETYPE
 70
     0
  0
APPID
  5
A9D
330
9
100
AcDbSymbolTableRecord
100
AcDbRegAppTableRecord
  2
ACAD_DSTYLE_DIM_EXT1_LINETYPE
 70
     0
  0
APPID
  5
A9E
330
9
100
AcDbSymbolTableRecord
100
AcDbRegAppTableRecord
  2
ACAD_DSTYLE_DIM_EXT2_LINETYPE
 70
     0
  0
ENDTAB
  0
TABLE
  2
DIMSTYLE
  5
A
330
0
100
AcDbSymbolTable
 70
    23
100
AcDbDimStyleTable
 71
     2
340
58
340
D6
  0
DIMSTYLE
105
58
330
A
100
AcDbSymbolTableRecord
100
AcDbDimStyleTableRecord
  2
Standard
 70
     0
340
55
  0
DIMSTYLE
105
D6
102
{ACAD_REACTORS
330
25E
330
347
330
429
330
5F3
330
6D5
330
962
102
}
330
A
100
AcDbSymbolTableRecord
100
AcDbDimStyleTableRecord
  2
Domyślne (ISO)
 70
     0
 40
10.0
 41
2.5
 42
0.0
 43
5.999999999999999
 44
3.174999999999999
 45
0.00000001
 46
10.0
 73
     0
 77
     1
140
3.5
143
0.03937
146
0.7142857313156128
147
0.762
171
     3
172
     1
176
   256
177
   256
178
   256
271
     0
272
     0
274
     3
278
    44
340
CB
371
    -1
372
    -1
  0
DIMSTYLE
105
89C
102
{ACAD_REACTORS
330
88B
102
}
330
A
100
AcDbSymbolTableRecord
100
AcDbDimStyleTableRecord
  2
AM_ISO
 70
     0
  4
"
 41
3.5
 42
1.0
 43
10.0
 44
1.0
 47
0.1
 48
0.1
 73
     0
 74
     0
 77
     1
 78
     8
 79
     2
140
3.5
141
0.0
143
0.0393701
146
0.71
147
1.5
172
     1
176
   256
177
   256
178
     2
271
     2
272
     3
274
     4
283
     0
284
     8
340
55
371
    -1
372
    -1
1001
ACAD_DSTYLE_DIMJAG
1070
   388
1040
1.5
1001
ACAD_DSTYLE_DIMBREAK
1070
   391
1040
3.75
1001
ACAD_DSTYLE_DIMARC_LENGTH_SYMBOL
1070
   379
1070
     1
1001
ACAD_DSTYLE_DIM_LINETYPE
1070
   380
1005
5B
1001
ACAD_DSTYLE_DIM_EXT1_LINETYPE
1070
   381
1005
5B
1001
ACAD_DSTYLE_DIM_EXT2_LINETYPE
1070
   382
1005
5B
  0
DIMSTYLE
105
8A9
330
A
100
AcDbSymbolTableRecord
100
AcDbDimStyleTableRecord
  2
AM_ISO$3
 70
     0
  4
"
 41
3.5
 42
1.0
 43
10.0
 44
1.0
 47
0.1
 48
0.1
 73
     0
 77
     1
 78
     8
 79
     2
140
3.5
141
0.0
143
0.0393701
146
0.71
147
1.5
176
   256
177
   256
178
     2
271
     2
272
     3
274
     4
283
     0
284
     8
288
     1
289
     0
340
55
371
    -1
372
    -1
1001
ACAD_DSTYLE_DIMBREAK
1070
   391
1040
3.75
1001
ACAD_DSTYLE_DIMJAG
1070
   388
1040
1.5
1001
ACAD_DSTYLE_DIMARC_LENGTH_SYMBOL
1070
   379
1070
     1
1001
ACAD_DSTYLE_DIM_LINETYPE
1070
   380
1005
5B
1001
ACAD_DSTYLE_DIM_EXT1_LINETYPE
1070
   381
1005
5B
1001
ACAD_DSTYLE_DIM_EXT2_LINETYPE
1070
   382
1005
5B
  0
DIMSTYLE
105
8AA
330
A
100
AcDbSymbolTableRecord
100
AcDbDimStyleTableRecord
  2
AM_ISO$4
 70
     0
  4
"
 41
3.5
 42
1.0
 43
10.0
 44
1.0
 47
0.1
 48
0.1
 73
     0
 77
     1
 78
     8
 79
     2
140
3.5
141
0.0
143
0.0393701
146
0.71
147
1.5
176
   256
177
   256
178
     2
271
     2
272
     3
274
     4
283
     0
284
     8
288
     1
289
     0
340
55
371
    -1
372
    -1
1001
ACAD_DSTYLE_DIMBREAK
1070
   391
1040
3.75
1001
ACAD_DSTYLE_DIMJAG
1070
   388
1040
1.5
1001
ACAD_DSTYLE_DIMARC_LENGTH_SYMBOL
1070
   379
1070
     1
1001
ACAD_DSTYLE_DIM_LINETYPE
1070
   380
1005
5B
1001
ACAD_DSTYLE_DIM_EXT1_LINETYPE
1070
   381
1005
5B
1001
ACAD_DSTYLE_DIM_EXT2_LINETYPE
1070
   382
1005
5B
  0
DIMSTYLE
105
8AB
330
A
100
AcDbSymbolTableRecord
100
AcDbDimStyleTableRecord
  2
AM_ISO$6
 70
     0
  4
"
 41
3.5
 42
1.0
 43
10.0
 44
1.0
 47
0.1
 48
0.1
 73
     0
 74
     0
 78
     8
 79
     2
140
3.5
141
0.0
143
0.0393701
146
0.71
147
1.5
172
     1
176
   256
177
   256
178
     2
271
     2
272
     3
274
     4
283
     0
284
     8
340
55
371
    -1
372
    -1
1001
ACAD_DSTYLE_DIMBREAK
1070
   391
1040
3.75
1001
ACAD_DSTYLE_DIMJAG
1070
   388
1040
1.5
1001
ACAD_DSTYLE_DIMARC_LENGTH_SYMBOL
1070
   379
1070
     1
1001
ACAD_DSTYLE_DIM_LINETYPE
1070
   380
1005
5B
1001
ACAD_DSTYLE_DIM_EXT1_LINETYPE
1070
   381
1005
5B
1001
ACAD_DSTYLE_DIM_EXT2_LINETYPE
1070
   382
1005
5B
  0
DIMSTYLE
105
8AC
330
A
100
AcDbSymbolTableRecord
100
AcDbDimStyleTableRecord
  2
AM_ISO$7
 70
     0
  4
"
 41
3.5
 42
1.0
 43
10.0
 44
1.0
 47
0.1
 48
0.1
 73
     0
 74
     0
 77
     1
 78
     8
 79
     2
140
3.5
141
0.0
143
0.0393701
146
0.71
147
1.5
172
     1
176
   256
177
   256
178
     2
271
     2
272
     3
274
     4
283
     0
284
     8
340
55
371
    -1
372
    -1
1001
ACAD_DSTYLE_DIMBREAK
1070
   391
1040
3.75
1001
ACAD_DSTYLE_DIMJAG
1070
   388
1040
1.5
1001
ACAD_DSTYLE_DIMARC_LENGTH_SYMBOL
1070
   379
1070
     1
1001
ACAD_DSTYLE_DIM_LINETYPE
1070
   380
1005
5B
1001
ACAD_DSTYLE_DIM_EXT1_LINETYPE
1070
   381
1005
5B
1001
ACAD_DSTYLE_DIM_EXT2_LINETYPE
1070
   382
1005
5B
  0
DIMSTYLE
105
8AD
330
A
100
AcDbSymbolTableRecord
100
AcDbDimStyleTableRecord
  2
AM_ISO$SF
 70
     0
  4
"
 41
3.5
 42
1.0
 43
10.0
 44
1.0
 47
0.1
 48
0.1
 73
     0
 74
     0
 75
     1
 76
     1
 77
     1
 78
     8
 79
     2
140
3.5
141
0.0
143
0.0393701
146
0.71
147
1.5
172
     1
176
   256
177
   256
178
     2
271
     2
272
     3
274
     4
283
     0
284
     8
340
55
371
    -1
372
    -1
1001
ACAD_DSTYLE_DIMBREAK
1070
   391
1040
3.75
1001
ACAD_DSTYLE_DIMJAG
1070
   388
1040
1.5
1001
ACAD_DSTYLE_DIMARC_LENGTH_SYMBOL
1070
   379
1070
     1
1001
ACAD_DSTYLE_DIM_LINETYPE
1070
   380
1005
5B
1001
ACAD_DSTYLE_DIM_EXT1_LINETYPE
1070
   381
1005
5B
1001
ACAD_DSTYLE_DIM_EXT2_LINETYPE
1070
   382
1005
5B
  0
DIMSTYLE
105
8B2
330
A
100
AcDbSymbolTableRecord
100
AcDbDimStyleTableRecord
  2
AM_ISO$SH
 70
     0
  4
"
 41
3.5
 42
1.0
 43
10.0
 44
1.0
 47
0.1
 48
0.1
 73
     0
 74
     0
 75
     1
 76
     1
 77
     1
 78
     8
 79
     2
140
3.5
141
0.0
143
0.0393701
144
2.0
146
0.71
147
1.5
172
     1
173
     1
176
   256
177
   256
178
     2
271
     2
272
     3
274
     4
283
     0
284
     8
340
55
343
8AE
371
    -1
372
    -1
1001
ACAD_DSTYLE_DIMBREAK
1070
   391
1040
3.75
1001
ACAD_DSTYLE_DIMJAG
1070
   388
1040
1.5
1001
ACAD_DSTYLE_DIMARC_LENGTH_SYMBOL
1070
   379
1070
     1
1001
ACAD_DSTYLE_DIM_LINETYPE
1070
   380
1005
5B
1001
ACAD_DSTYLE_DIM_EXT1_LINETYPE
1070
   381
1005
5B
1001
ACAD_DSTYLE_DIM_EXT2_LINETYPE
1070
   382
1005
5B
  0
ENDTAB
  0
TABLE
  2
BLOCK_RECORD
  5
1
330
0
100
AcDbSymbolTable
 70
    18
  0
BLOCK_RECORD
  5
6C
102
{ACAD_XDICTIONARY
360
8CE
102
}
330
1
100
AcDbSymbolTableRecord
100
AcDbBlockTableRecord
  2
*Model_Space
340
6F
  0
BLOCK_RECORD
  5
68
330
1
100
AcDbSymbolTableRecord
100
AcDbBlockTableRecord
  2
*Paper_Space
340
6B
  0
BLOCK_RECORD
  5
70
330
1
100
AcDbSymbolTableRecord
100
AcDbBlockTableRecord
  2
*Paper_Space0
340
73
  0
BLOCK_RECORD
  5
260
330
1
100
AcDbSymbolTableRecord
100
AcDbBlockTableRecord
  2
*D6
340
0
  0
BLOCK_RECORD
  5
348
330
1
100
AcDbSymbolTableRecord
100
AcDbBlockTableRecord
  2
*D7
340
0
  0
BLOCK_RECORD
  5
42A
330
1
100
AcDbSymbolTableRecord
100
AcDbBlockTableRecord
  2
*D8
340
0
  0
BLOCK_RECORD
  5
5F4
330
1
100
AcDbSymbolTableRecord
100
AcDbBlockTableRecord
  2
*D10
340
0
  0
BLOCK_RECORD
  5
6D6
330
1
100
AcDbSymbolTableRecord
100
AcDbBlockTableRecord
  2
*D11
340
0
  0
BLOCK_RECORD
  5
8AE
330
1
100
AcDbSymbolTableRecord
100
AcDbBlockTableRecord
  2
GENAXEH
340
0
  0
BLOCK_RECORD
  5
8D7
102
{ACAD_XDICTIONARY
360
8D8
102
}
330
1
100
AcDbSymbolTableRecord
100
AcDbBlockTableRecord
  2
*U14
340
0
102
{BLKREFS
331
8EA
102
}
  0
BLOCK_RECORD
  5
963
330
1
100
AcDbSymbolTableRecord
100
AcDbBlockTableRecord
  2
*D16
340
0
  0
BLOCK_RECORD
  5
9E4
330
1
100
AcDbSymbolTableRecord
100
AcDbBlockTableRecord
  2
212-213_Kosz-na-smieci-EKO
340
0
310
2800000020000000200000000100080000000000000400000000000000000000000000000000000000000000000080000080000000808000800000008000800080800000C0C0C000C0DCC000F0CAA6000020400000206000002080000020A0000020C0000020E00000400000004020000040400000406000004080000040A0
310
000040C0000040E00000600000006020000060400000606000006080000060A0000060C0000060E00000800000008020000080400000806000008080000080A0000080C0000080E00000A0000000A0200000A0400000A0600000A0800000A0A00000A0C00000A0E00000C0000000C0200000C0400000C0600000C0800000C0
310
A00000C0C00000C0E00000E0000000E0200000E0400000E0600000E0800000E0A00000E0C00000E0E00040000000400020004000400040006000400080004000A0004000C0004000E00040200000402020004020400040206000402080004020A0004020C0004020E000404000004040200040404000404060004040800040
310
40A0004040C0004040E00040600000406020004060400040606000406080004060A0004060C0004060E00040800000408020004080400040806000408080004080A0004080C0004080E00040A0000040A0200040A0400040A0600040A0800040A0A00040A0C00040A0E00040C0000040C0200040C0400040C0600040C08000
310
40C0A00040C0C00040C0E00040E0000040E0200040E0400040E0600040E0800040E0A00040E0C00040E0E00080000000800020008000400080006000800080008000A0008000C0008000E00080200000802020008020400080206000802080008020A0008020C0008020E00080400000804020008040400080406000804080
310
008040A0008040C0008040E00080600000806020008060400080606000806080008060A0008060C0008060E00080800000808020008080400080806000808080008080A0008080C0008080E00080A0000080A0200080A0400080A0600080A0800080A0A00080A0C00080A0E00080C0000080C0200080C0400080C0600080C0
310
800080C0A00080C0C00080C0E00080E0000080E0200080E0400080E0600080E0800080E0A00080E0C00080E0E000C0000000C0002000C0004000C0006000C0008000C000A000C000C000C000E000C0200000C0202000C0204000C0206000C0208000C020A000C020C000C020E000C0400000C0402000C0404000C0406000C0
310
408000C040A000C040C000C040E000C0600000C0602000C0604000C0606000C0608000C060A000C060C000C060E000C0800000C0802000C0804000C0806000C0808000C080A000C080C000C080E000C0A00000C0A02000C0A04000C0A06000C0A08000C0A0A000C0A0C000C0A0E000C0C00000C0C02000C0C04000C0C06000
310
C0C08000C0C0A000F0FBFF00A4A0A000808080000000FF0000FF000000FFFF00FF000000FF00FF00FFFF0000FFFFFF0049494949494949494949494949494949494949494949494949494949494949494949494949494949494949494949494949494949494949494949494949494949494949494949494949494949494949
310
494949494949494949494949494949494949494949494949494949494949494949494949494949494949494949494949494949494949494949494949FFFFFFFF494949494949494949494949494949494949494949494949FFFFFFFFFF494949FFFFFFFF4949494949494949494949494949494949494949FFFF49FFFFFFFF
310
FFFFFF4949FF494949494949494949494949494949494949FF49FFFF4949FFFF494949FF4949FF494949494949494949494949494949FFFFFFFF49FFFFFF4949FFFFFF49FFFF49FFFF49494949494949494949494949FFFF4949FF4949494949494949FFFF49FF4949FF4949494949494949494949FF49FF49FF4949494949
310
FF4949494949FF49FF49FF4949494949494949494949FFFF4949FF494949FFFF49FFFF49494949FF49FF49FF4949FFFF4949494949FF49FF49FF4949FFFF4949494949FFFF4949FF49FF49FF4949FFFF4949494949FFFF49FF4949FF494949494949494949FF49FF4949FFFF4949FFFFFF494949FFFFFF49FF4949FF494949
310
494949494949FFFFFFFFFFFFFFFFFFFFFFFFFF4949FFFFFF49FF4949FF4949FF494949FFFF49FF49494949494949494949FFFF4949FFFFFF49FF4949FF4949FF494949FFFF49FF49494949494949494949FFFF4949FFFFFF49FF4949FF494949494949494949FFFFFFFFFFFFFFFFFFFFFFFFFF494949FFFF49FF4949FF4949
310
49494949494949FF49FF4949FFFF4949FFFF4949494949FF49FF49FF4949FF49494949494949FF4949FF49FF49FF49494949494949494949FFFF4949FF4949FFFF494949FFFF494949FF49FF49FF49494949494949494949FF49FF49FF49494949FFFFFF49494949FF49FF49FF494949494949494949494949FFFF4949FF49
310
4949494949494949FF49FF4949FF494949494949494949494949FF49FF4949FFFF49494949FFFFFF49FF4949FF4949494949494949494949494949FFFFFFFF4949FFFFFFFF4949FFFF49FFFF4949494949494949494949494949494949FFFFFFFFFFFFFFFFFFFF4949FF49494949494949494949494949494949494949FFFF
310
FFFF4949494949FFFFFF494949494949494949494949494949494949494949494949FFFFFFFFFF49494949494949494949494949494949494949494949494949494949494949494949494949494949494949494949494949494949494949494949494949494949494949494949494949494949494949494949494949494949
310
4949494949494949494949494949494949494949494949494949494949494949494949494949494949494949494949494949494949494949
102
{BLKREFS
331
A53
102
}
1001
ACAD
1000
DesignCenter Data
1002
{
1070
     1
1070
     4
1002
}
  0
ENDTAB
  0
ENDSEC
  0
SECTION
  2
BLOCKS
  0
BLOCK
  5
6D
330
6C
100
AcDbEntity
  8
0
100
AcDbBlockBegin
  2
*Model_Space
 70
     0
 10
0.0
 20
0.0
 30
0.0
  3
*Model_Space
  1

  0
ENDBLK
  5
6E
330
6C
100
AcDbEntity
  8
0
100
AcDbBlockEnd
  0
BLOCK
  5
69
330
68
100
AcDbEntity
 67
     1
  8
0
100
AcDbBlockBegin
  2
*Paper_Space
 70
     0
 10
0.0
 20
0.0
 30
0.0
  3
*Paper_Space
  1

  0
ENDBLK
  5
6A
330
68
100
AcDbEntity
 67
     1
  8
0
100
AcDbBlockEnd
  0
BLOCK
  5
71
330
70
100
AcDbEntity
 67
     1
  8
0
100
AcDbBlockBegin
  2
*Paper_Space0
 70
     0
 10
0.0
 20
0.0
 30
0.0
  3
*Paper_Space0
  1

  0
ENDBLK
  5
72
330
70
100
AcDbEntity
 67
     1
  8
0
100
AcDbBlockEnd
  0
BLOCK
  5
261
330
260
100
AcDbEntity
  8
0
100
AcDbBlockBegin
  2
*D6
 70
     1
 10
0.0
 20
0.0
 30
0.0
  3
*D6
  1

  0
LINE
  5
33E
330
260
100
AcDbEntity
  8
Wymiar (ISO)
100
AcDbLine
 10
-959.2454113773445
 20
1498.837577695219
 30
0.0
 11
-645.4386429230787
 21
1498.837577695219
 31
0.0
  0
LINE
  5
33F
330
260
100
AcDbEntity
  8
Wymiar (ISO)
100
AcDbLine
 10
-949.2454113773447
 20
1398.837577695219
 30
0.0
 11
-645.4386429230787
 21
1398.837577695219
 31
0.0
  0
LINE
  5
340
330
260
100
AcDbEntity
  8
Wymiar (ISO)
100
AcDbLine
 10
-677.1886429230788
 20
1473.837577695219
 30
0.0
 11
-677.1886429230788
 21
1423.837577695219
 31
0.0
  0
SOLID
  5
341
330
260
100
AcDbEntity
  8
Wymiar (ISO)
100
AcDbTrace
 10
-681.3553095897454
 20
1473.837577695219
 30
0.0
 11
-673.0219762564121
 21
1473.837577695219
 31
0.0
 12
-677.1886429230788
 22
1498.837577695219
 32
0.0
 13
-677.1886429230788
 23
1498.837577695219
 33
0.0
  0
SOLID
  5
342
330
260
100
AcDbEntity
  8
Wymiar (ISO)
100
AcDbTrace
 10
-681.3553095897454
 20
1423.837577695219
 30
0.0
 11
-673.0219762564121
 21
1423.837577695219
 31
0.0
 12
-677.1886429230788
 22
1398.837577695219
 32
0.0
 13
-677.1886429230788
 23
1398.837577695219
 33
0.0
  0
MTEXT
  5
343
330
260
100
AcDbEntity
  8
Wymiar (ISO)
100
AcDbMText
 10
-721.2424909079601
 20
1448.837577695219
 30
0.0
 40
35.0
 41
0.0
 71
     2
 72
     1
  1
\A1;100
  7
Tekst etykiety (ISO)
 11
0.0000000000000001
 21
1.0
 31
0.0
 73
     1
 44
1.0
1001
ACAD
1000
MTEXTBEGIN
1070
    73
1070
     1
1070
    44
1040
1.0
1070
    74
1070
     0
1000
MTEXTEND
  0
POINT
  5
344
330
260
100
AcDbEntity
  8
Defpoints
 62
     0
100
AcDbPoint
 10
-959.2454113773445
 20
1498.837577695219
 30
0.0
  0
POINT
  5
345
330
260
100
AcDbEntity
  8
Defpoints
 62
     0
100
AcDbPoint
 10
-949.2454113773447
 20
1398.837577695219
 30
0.0
  0
POINT
  5
346
330
260
100
AcDbEntity
  8
Defpoints
 62
     0
100
AcDbPoint
 10
-677.1886429230788
 20
1398.837577695219
 30
0.0
  0
ENDBLK
  5
262
330
260
100
AcDbEntity
  8
0
100
AcDbBlockEnd
  0
BLOCK
  5
349
330
348
100
AcDbEntity
  8
0
100
AcDbBlockBegin
  2
*D7
 70
     1
 10
0.0
 20
0.0
 30
0.0
  3
*D7
  1

  0
LINE
  5
420
330
348
100
AcDbEntity
  8
Wymiar (ISO)
100
AcDbLine
 10
-1319.245411377344
 20
1398.837577695219
 30
0.0
 11
-1319.245411377344
 21
1168.882463111046
 31
0.0
  0
LINE
  5
421
330
348
100
AcDbEntity
  8
Wymiar (ISO)
100
AcDbLine
 10
-949.2454113773446
 20
1398.837577695219
 30
0.0
 11
-949.2454113773446
 21
1168.882463111046
 31
0.0
  0
LINE
  5
422
330
348
100
AcDbEntity
  8
Wymiar (ISO)
100
AcDbLine
 10
-1294.245411377344
 20
1200.632463111046
 30
0.0
 11
-974.2454113773446
 21
1200.632463111046
 31
0.0
  0
SOLID
  5
423
330
348
100
AcDbEntity
  8
Wymiar (ISO)
100
AcDbTrace
 10
-1294.245411377344
 20
1204.799129777713
 30
0.0
 11
-1294.245411377344
 21
1196.465796444379
 31
0.0
 12
-1319.245411377344
 22
1200.632463111046
 32
0.0
 13
-1319.245411377344
 23
1200.632463111046
 33
0.0
  0
SOLID
  5
424
330
348
100
AcDbEntity
  8
Wymiar (ISO)
100
AcDbTrace
 10
-974.2454113773446
 20
1204.799129777713
 30
0.0
 11
-974.2454113773446
 21
1196.465796444379
 31
0.0
 12
-949.2454113773446
 22
1200.632463111046
 32
0.0
 13
-949.2454113773446
 23
1200.632463111046
 33
0.0
  0
MTEXT
  5
425
330
348
100
AcDbEntity
  8
Wymiar (ISO)
100
AcDbMText
 10
-1134.245411377345
 20
1244.709816804304
 30
0.0
 40
35.0
 41
0.0
 71
     2
 72
     1
  1
\A1;370
  7
Tekst etykiety (ISO)
 73
     1
 44
1.0
1001
ACAD
1000
MTEXTBEGIN
1070
    73
1070
     1
1070
    44
1040
1.0
1070
    74
1070
     0
1000
MTEXTEND
  0
POINT
  5
426
330
348
100
AcDbEntity
  8
Defpoints
 62
     0
100
AcDbPoint
 10
-1319.245411377344
 20
1398.837577695219
 30
0.0
  0
POINT
  5
427
330
348
100
AcDbEntity
  8
Defpoints
 62
     0
100
AcDbPoint
 10
-949.2454113773446
 20
1398.837577695219
 30
0.0
  0
POINT
  5
428
330
348
100
AcDbEntity
  8
Defpoints
 62
     0
100
AcDbPoint
 10
-949.2454113773446
 20
1200.632463111046
 30
0.0
  0
ENDBLK
  5
34A
330
348
100
AcDbEntity
  8
0
100
AcDbBlockEnd
  0
BLOCK
  5
42B
330
42A
100
AcDbEntity
  8
0
100
AcDbBlockBegin
  2
*D8
 70
     1
 10
0.0
 20
0.0
 30
0.0
  3
*D8
  1

  0
LINE
  5
506
330
42A
100
AcDbEntity
  8
Wymiar (ISO)
100
AcDbLine
 10
-959.2454113773445
 20
1498.837577695219
 30
0.0
 11
-645.4386429230787
 21
1498.837577695219
 31
0.0
  0
LINE
  5
507
330
42A
100
AcDbEntity
  8
Wymiar (ISO)
100
AcDbLine
 10
-677.1886429230788
 20
1673.937577695219
 30
0.0
 11
-677.1886429230788
 21
1523.837577695219
 31
0.0
  0
SOLID
  5
508
330
42A
100
AcDbEntity
  8
Wymiar (ISO)
100
AcDbTrace
 10
-681.3553095897454
 20
1673.937577695219
 30
0.0
 11
-673.0219762564121
 21
1673.937577695219
 31
0.0
 12
-677.1886429230788
 22
1698.937577695219
 32
0.0
 13
-677.1886429230788
 23
1698.937577695219
 33
0.0
  0
SOLID
  5
509
330
42A
100
AcDbEntity
  8
Wymiar (ISO)
100
AcDbTrace
 10
-681.3553095897454
 20
1523.837577695219
 30
0.0
 11
-673.0219762564121
 21
1523.837577695219
 31
0.0
 12
-677.1886429230788
 22
1498.837577695219
 32
0.0
 13
-677.1886429230788
 23
1498.837577695219
 33
0.0
  0
MTEXT
  5
50A
330
42A
100
AcDbEntity
  8
Wymiar (ISO)
100
AcDbMText
 10
-721.2659966163374
 20
1598.887577695219
 30
0.0
 40
35.0
 41
0.0
 71
     2
 72
     1
  1
\A1;200
  7
Tekst etykiety (ISO)
 11
0.0000000000000001
 21
1.0
 31
0.0
 73
     1
 44
1.0
1001
ACAD
1000
MTEXTBEGIN
1070
    73
1070
     1
1070
    44
1040
1.0
1070
    74
1070
     0
1000
MTEXTEND
  0
POINT
  5
50B
330
42A
100
AcDbEntity
  8
Defpoints
 62
     0
100
AcDbPoint
 10
-677.1886429230789
 20
1698.937577695219
 30
0.0
  0
POINT
  5
50C
330
42A
100
AcDbEntity
  8
Defpoints
 62
     0
100
AcDbPoint
 10
-959.2454113773445
 20
1498.837577695219
 30
0.0
  0
POINT
  5
50D
330
42A
100
AcDbEntity
  8
Defpoints
 62
     0
100
AcDbPoint
 10
-677.1886429230788
 20
1498.837577695219
 30
0.0
  0
ENDBLK
  5
42C
330
42A
100
AcDbEntity
  8
0
100
AcDbBlockEnd
  0
BLOCK
  5
5F5
330
5F4
100
AcDbEntity
  8
0
100
AcDbBlockBegin
  2
*D10
 70
     1
 10
0.0
 20
0.0
 30
0.0
  3
*D10
  1

  0
LINE
  5
6CC
330
5F4
100
AcDbEntity
  8
Wymiar (ISO)
100
AcDbLine
 10
-1015.810128954722
 20
700.4417494177165
 30
0.0
 11
-1015.810128954722
 21
416.4964361761687
 31
0.0
  0
LINE
  5
6CD
330
5F4
100
AcDbEntity
  8
Wymiar (ISO)
100
AcDbLine
 10
-1458.608081752441
 20
717.4379441158123
 30
0.0
 11
-1458.608081752441
 21
416.4964361761687
 31
0.0
  0
LINE
  5
6CE
330
5F4
100
AcDbEntity
  8
Wymiar (ISO)
100
AcDbLine
 10
-1040.810128954722
 20
448.2464361761687
 30
0.0
 11
-1433.60808175244
 21
448.2464361761687
 31
0.0
  0
SOLID
  5
6CF
330
5F4
100
AcDbEntity
  8
Wymiar (ISO)
100
AcDbTrace
 10
-1040.810128954722
 20
452.4131028428354
 30
0.0
 11
-1040.810128954722
 21
444.079769509502
 31
0.0
 12
-1015.810128954722
 22
448.2464361761687
 32
0.0
 13
-1015.810128954722
 23
448.2464361761687
 33
0.0
  0
SOLID
  5
6D0
330
5F4
100
AcDbEntity
  8
Wymiar (ISO)
100
AcDbTrace
 10
-1433.60808175244
 20
452.4131028428354
 30
0.0
 11
-1433.60808175244
 21
444.079769509502
 31
0.0
 12
-1458.608081752441
 22
448.2464361761687
 32
0.0
 13
-1458.608081752441
 23
448.2464361761687
 33
0.0
  0
MTEXT
  5
6D1
330
5F4
100
AcDbEntity
  8
Wymiar (ISO)
100
AcDbMText
 10
-1243.418607826948
 20
492.3237898694272
 30
0.0
 40
35.0
 41
0.0
 71
     2
 72
     1
  1
\A1;443
  7
Tekst etykiety (ISO)
 73
     1
 44
1.0
1001
ACAD
1000
MTEXTBEGIN
1070
    73
1070
     1
1070
    44
1040
1.0
1070
    74
1070
     0
1000
MTEXTEND
  0
POINT
  5
6D2
330
5F4
100
AcDbEntity
  8
Defpoints
 62
     0
100
AcDbPoint
 10
-1015.810128954722
 20
700.4417494177165
 30
0.0
  0
POINT
  5
6D3
330
5F4
100
AcDbEntity
  8
Defpoints
 62
     0
100
AcDbPoint
 10
-1458.608081752441
 20
717.4379441158123
 30
0.0
  0
POINT
  5
6D4
330
5F4
100
AcDbEntity
  8
Defpoints
 62
     0
100
AcDbPoint
 10
-1458.608081752441
 20
448.2464361761687
 30
0.0
  0
ENDBLK
  5
5F6
330
5F4
100
AcDbEntity
  8
0
100
AcDbBlockEnd
  0
BLOCK
  5
6D7
330
6D6
100
AcDbEntity
  8
0
100
AcDbBlockBegin
  2
*D11
 70
     1
 10
0.0
 20
0.0
 30
0.0
  3
*D11
  1

  0
LINE
  5
7B4
330
6D6
100
AcDbEntity
  8
Wymiar (ISO)
100
AcDbLine
 10
-1278.608081752441
 20
897.437944115812
 30
0.0
 11
-1543.834782116671
 21
897.4379441158122
 31
0.0
  0
LINE
  5
7B5
330
6D6
100
AcDbEntity
  8
Wymiar (ISO)
100
AcDbLine
 10
-1278.608081752441
 20
537.437944115813
 30
0.0
 11
-1543.834782116671
 21
537.4379441158131
 31
0.0
  0
LINE
  5
7B6
330
6D6
100
AcDbEntity
  8
Wymiar (ISO)
100
AcDbLine
 10
-1512.084782116671
 20
872.4379441158122
 30
0.0
 11
-1512.084782116671
 21
562.4379441158131
 31
0.0
  0
SOLID
  5
7B7
330
6D6
100
AcDbEntity
  8
Wymiar (ISO)
100
AcDbTrace
 10
-1516.251448783338
 20
872.4379441158122
 30
0.0
 11
-1507.918115450005
 21
872.4379441158122
 31
0.0
 12
-1512.084782116671
 22
897.4379441158122
 32
0.0
 13
-1512.084782116671
 23
897.4379441158122
 33
0.0
  0
SOLID
  5
7B8
330
6D6
100
AcDbEntity
  8
Wymiar (ISO)
100
AcDbTrace
 10
-1516.251448783338
 20
562.4379441158131
 30
0.0
 11
-1507.918115450005
 21
562.4379441158131
 31
0.0
 12
-1512.084782116671
 22
537.4379441158131
 32
0.0
 13
-1512.084782116671
 23
537.4379441158131
 33
0.0
  0
MTEXT
  5
7B9
330
6D6
100
AcDbEntity
  8
Wymiar (ISO)
100
AcDbMText
 10
-1556.16213580993
 20
717.4379441158126
 30
0.0
 40
35.0
 41
0.0
 71
     2
 72
     1
  1
\A1;360
  7
Tekst etykiety (ISO)
 11
0.0000000000000001
 21
1.0
 31
0.0
 73
     1
 44
1.0
1001
ACAD
1000
MTEXTBEGIN
1070
    73
1070
     1
1070
    44
1040
1.0
1070
    74
1070
     0
1000
MTEXTEND
  0
POINT
  5
7BA
330
6D6
100
AcDbEntity
  8
Defpoints
 62
     0
100
AcDbPoint
 10
-1278.608081752441
 20
897.437944115812
 30
0.0
  0
POINT
  5
7BB
330
6D6
100
AcDbEntity
  8
Defpoints
 62
     0
100
AcDbPoint
 10
-1278.608081752441
 20
537.437944115813
 30
0.0
  0
POINT
  5
7BC
330
6D6
100
AcDbEntity
  8
Defpoints
 62
     0
100
AcDbPoint
 10
-1512.084782116671
 20
537.4379441158131
 30
0.0
  0
ENDBLK
  5
6D8
330
6D6
100
AcDbEntity
  8
0
100
AcDbBlockEnd
  0
BLOCK
  5
8B0
330
8AE
100
AcDbEntity
  8
0
100
AcDbBlockBegin
  2
GENAXEH
 70
     0
 10
0.0
 20
0.0
 30
0.0
  3
GENAXEH
  1

  0
LINE
  5
8AF
330
8AE
100
AcDbEntity
  8
0
100
AcDbLine
 10
-1.0
 20
0.0
 30
0.0
 11
1.0
 21
0.0
 31
0.0
  0
ENDBLK
  5
8B1
330
8AE
100
AcDbEntity
  8
0
100
AcDbBlockEnd
  0
BLOCK
  5
8DA
330
8D7
100
AcDbEntity
  8
0
100
AcDbBlockBegin
  2
*U14
 70
     1
 10
0.0
 20
0.0
 30
0.0
  3
*U14
  1

  0
TEXT
  5
8DB
330
8D7
100
AcDbEntity
  8
0
100
AcDbText
 10
-1236.591510492589
 20
1223.480144401045
 30
0.0
 40
27.58
  1
nr. kat: 212, 213
100
AcDbText
  0
TEXT
  5
8DC
330
8D7
100
AcDbEntity
  8
0
100
AcDbText
 10
-1234.516990680635
 20
1174.049770548347
 30
0.0
 40
27.58
  1
Kosz na smieci EKO bez daszku
100
AcDbText
  0
TEXT
  5
8DD
330
8D7
100
AcDbEntity
  8
0
100
AcDbText
 10
-1236.869347967405
 20
1127.508906433729
 30
0.0
 40
27.58
  1
Data utworzenia: 14-04-2014
100
AcDbText
  0
TEXT
  5
8DE
330
8D7
100
AcDbEntity
  8
0
100
AcDbText
 10
-1236.869347967405
 20
1034.334565712887
 30
0.0
 40
27.58
  1
Muller Jelcz-Laskowice Sp. z o.o.
100
AcDbText
  0
ENDBLK
  5
8DF
330
8D7
100
AcDbEntity
  8
0
100
AcDbBlockEnd
  0
BLOCK
  5
964
330
963
100
AcDbEntity
  8
0
100
AcDbBlockBegin
  2
*D16
 70
     1
 10
0.0
 20
0.0
 30
0.0
  3
*D16
  1

  0
LINE
  5
98A
330
963
100
AcDbEntity
  8
Wymiar (ISO)
100
AcDbLine
 10
-1355.937165383264
 20
2460.248613315581
 30
0.0
 11
-1609.00653555794
 21
2460.248613315581
 31
0.0
  0
LINE
  5
98B
330
963
100
AcDbEntity
  8
Wymiar (ISO)
100
AcDbLine
 10
-1415.11161540023
 20
1698.937577695219
 30
0.0
 11
-1609.00653555794
 21
1698.93757769522
 31
0.0
  0
LINE
  5
98C
330
963
100
AcDbEntity
  8
Wymiar (ISO)
100
AcDbLine
 10
-1577.25653555794
 20
2435.248613315581
 30
0.0
 11
-1577.25653555794
 21
1723.93757769522
 31
0.0
  0
SOLID
  5
98D
330
963
100
AcDbEntity
  8
Wymiar (ISO)
100
AcDbTrace
 10
-1581.423202224607
 20
2435.248613315581
 30
0.0
 11
-1573.089868891274
 21
2435.248613315581
 31
0.0
 12
-1577.25653555794
 22
2460.248613315581
 32
0.0
 13
-1577.25653555794
 23
2460.248613315581
 33
0.0
  0
SOLID
  5
98E
330
963
100
AcDbEntity
  8
Wymiar (ISO)
100
AcDbTrace
 10
-1581.423202224607
 20
1723.93757769522
 30
0.0
 11
-1573.089868891274
 21
1723.93757769522
 31
0.0
 12
-1577.25653555794
 22
1698.93757769522
 32
0.0
 13
-1577.25653555794
 23
1698.93757769522
 33
0.0
  0
MTEXT
  5
98F
330
963
100
AcDbEntity
  8
Wymiar (ISO)
100
AcDbMText
 10
-1621.263372361164
 20
2101.170227823176
 30
0.0
 40
35.0
 41
0.0
 71
     2
 72
     1
  1
\A1;761
  7
Tekst etykiety (ISO)
 11
0.0000000000000001
 21
1.0
 31
0.0
 73
     1
 44
1.0
1001
ACAD
1000
MTEXTBEGIN
1070
    73
1070
     1
1070
    44
1040
1.0
1070
    74
1070
     0
1000
MTEXTEND
  0
POINT
  5
990
330
963
100
AcDbEntity
  8
Defpoints
 62
     0
100
AcDbPoint
 10
-1355.937165383264
 20
2460.248613315581
 30
0.0
  0
POINT
  5
991
330
963
100
AcDbEntity
  8
Defpoints
 62
     0
100
AcDbPoint
 10
-1415.11161540023
 20
1698.937577695219
 30
0.0
  0
POINT
  5
992
330
963
100
AcDbEntity
  8
Defpoints
 62
     0
100
AcDbPoint
 10
-1577.25653555794
 20
1698.93757769522
 30
0.0
  0
ENDBLK
  5
965
330
963
100
AcDbEntity
  8
0
100
AcDbBlockEnd
  0
BLOCK
  5
9E5
330
9E4
100
AcDbEntity
  8
0
100
AcDbBlockBegin
  2
212-213_Kosz-na-smieci-EKO
 70
     0
 10
0.0
 20
0.0
 30
0.0
  3
212-213_Kosz-na-smieci-EKO
  1

  0
ARC
  5
9E7
330
9E4
100
AcDbEntity
  8
Widoczne (ISO)
100
AcDbCircle
 10
-262.7979527977189
 20
0.0000000000038654
 30
0.0
 40
179.9999999999995
100
AcDbArc
 50
6.379370208441173
 51
353.6206297915588
  0
ARC
  5
9E8
330
9E4
100
AcDbEntity
  8
Widoczne (ISO)
100
AcDbCircle
 10
-262.7979527977189
 20
0.0000000000051159
 30
0.0
 40
177.4999999999999
100
AcDbArc
 50
6.469601610343891
 51
353.5303983896561
  0
ARC
  5
9E9
330
9E4
100
AcDbEntity
  8
Widoczne (ISO)
100
AcDbCircle
 10
-262.7979527977189
 20
0.0000000000093223
 30
0.0
 40
157.4999999999997
100
AcDbArc
 50
7.295351084914836
 51
352.7046489150852
  0
ARC
  5
9EA
330
9E4
100
AcDbEntity
  8
Widoczne (ISO)
100
AcDbCircle
 10
-262.7979527977189
 20
0.0000000000092086
 30
0.0
 40
156.4984579790376
100
AcDbArc
 50
7.342295511555786
 51
352.6577044884442
  0
ARC
  5
9EB
330
9E4
100
AcDbEntity
  8
Widoczne (ISO)
100
AcDbCircle
 10
-262.7979527977189
 20
-0.000000000146656
 30
0.0
 40
127.3873468679266
100
AcDbArc
 50
9.032893116029164
 51
350.9671068839709
  0
LINE
  5
9EC
330
9E4
100
AcDbEntity
  8
Widoczne (ISO)
100
AcDbLine
 10
-179.4716791061472
 20
-19.99999999998442
 30
0.0
 11
-9.668183457528016
 21
-19.99999999998511
 31
0.0
  0
ELLIPSE
  5
9ED
330
9E4
100
AcDbEntity
  8
Widoczne (ISO)
100
AcDbEllipse
 10
-9.668183457528016
 20
17.00000000001489
 30
0.0
 11
-0.000000000000001
 21
3.000000000000001
 31
0.0
210
0.0
220
0.0
230
1.0
 40
0.0152681809520581
 41
4.712388980385281
 42
6.283185305910045
  0
LINE
  5
9EE
330
9E4
100
AcDbEntity
  8
Widoczne (ISO)
100
AcDbLine
 10
-9.622378914671912
 20
-16.9999999999842
 30
0.0
 11
-9.622378914671912
 21
17.0000000000158
 31
0.0
  0
ELLIPSE
  5
9EF
330
9E4
100
AcDbEntity
  8
Widoczne (ISO)
100
AcDbEllipse
 10
-9.668183457528016
 20
-16.9999999999851
 30
0.0
 11
0.000000000000001
 21
-3.0
 31
0.0
210
0.0
220
0.0
230
1.0
 40
0.0152681809520581
 41
0.0
 42
1.57079632552566
  0
LINE
  5
9F0
330
9E4
100
AcDbEntity
  8
Widoczne (ISO)
100
AcDbLine
 10
-9.668183457528016
 20
20.00000000001489
 30
0.0
 11
-179.4716791061472
 21
20.00000000001557
 31
0.0
  0
LINE
  5
9F1
330
9E4
100
AcDbEntity
  8
Widoczne (ISO)
100
AcDbLine
 10
-41.66445336253434
 20
20.00000000001501
 30
0.0
 11
-9.668183457528016
 21
20.00000000001478
 31
0.0
  0
LINE
  5
9F2
330
9E4
100
AcDbEntity
  8
Widoczne (ISO)
100
AcDbLine
 10
-43.20840468618905
 20
24.99999999998499
 30
0.0
 11
-43.20653963869233
 21
24.99999999998511
 31
0.0
  0
LINE
  5
9F3
330
9E4
100
AcDbEntity
  8
Widoczne (ISO)
100
AcDbLine
 10
-9.668183457528016
 20
25.00000000001478
 30
0.0
 11
-9.668183457528016
 21
20.00000000001478
 31
0.0
  0
LINE
  5
9F4
330
9E4
100
AcDbEntity
  8
Widoczne (ISO)
100
AcDbLine
 10
-9.668183457528016
 20
25.00000000001478
 30
0.0
 11
-41.66445336253434
 21
25.00000000001501
 31
0.0
  0
LINE
  5
9F5
330
9E4
100
AcDbEntity
  8
Widoczne (ISO)
100
AcDbLine
 10
-41.66445336253434
 20
20.00000000001501
 30
0.0
 11
-41.66445336253434
 21
25.00000000001501
 31
0.0
  0
LINE
  5
9F6
330
9E4
100
AcDbEntity
  8
Widoczne (ISO)
100
AcDbLine
 10
-41.66445336253434
 20
25.00000000001501
 30
0.0
 11
-43.20653963869233
 21
24.99999999998499
 31
0.0
  0
LINE
  5
9F7
330
9E4
100
AcDbEntity
  8
Widoczne (ISO)
100
AcDbLine
 10
-43.20840468618905
 20
19.99999999998499
 30
0.0
 11
-43.20840468618905
 21
24.99999999998499
 31
0.0
  0
LINE
  5
9F8
330
9E4
100
AcDbEntity
  8
Widoczne (ISO)
100
AcDbLine
 10
-9.668183457528016
 20
-19.99999999998522
 30
0.0
 11
-41.66445336253434
 21
-19.99999999998499
 31
0.0
  0
LINE
  5
9F9
330
9E4
100
AcDbEntity
  8
Widoczne (ISO)
100
AcDbLine
 10
-43.20653963869233
 20
-25.00000000001501
 30
0.0
 11
-43.20840468618905
 21
-25.00000000001501
 31
0.0
  0
LINE
  5
9FA
330
9E4
100
AcDbEntity
  8
Widoczne (ISO)
100
AcDbLine
 10
-43.20653963869233
 20
-25.00000000001501
 30
0.0
 11
-41.66445336253434
 21
-24.99999999998499
 31
0.0
  0
LINE
  5
9FB
330
9E4
100
AcDbEntity
  8
Widoczne (ISO)
100
AcDbLine
 10
-41.66445336253434
 20
-24.99999999998499
 30
0.0
 11
-41.66445336253434
 21
-19.99999999998499
 31
0.0
  0
LINE
  5
9FC
330
9E4
100
AcDbEntity
  8
Widoczne (ISO)
100
AcDbLine
 10
-41.66445336253434
 20
-24.99999999998499
 30
0.0
 11
-9.668183457528016
 21
-24.99999999998522
 31
0.0
  0
LINE
  5
9FD
330
9E4
100
AcDbEntity
  8
Widoczne (ISO)
100
AcDbLine
 10
-9.668183457528016
 20
-19.99999999998522
 30
0.0
 11
-9.668183457528016
 21
-24.99999999998522
 31
0.0
  0
LINE
  5
9FE
330
9E4
100
AcDbEntity
  8
Widoczne (ISO)
100
AcDbLine
 10
-43.20840468618905
 20
-20.00000000001501
 30
0.0
 11
-43.20840468618905
 21
-25.00000000001501
 31
0.0
  0
LINE
  5
9FF
330
9E4
100
AcDbEntity
  8
Widoczne (ISO)
100
AcDbLine
 10
-19.20840468618905
 20
-65.00000000001501
 30
0.0
 11
-35.20840468618906
 21
-65.00000000001501
 31
0.0
  0
LINE
  5
A00
330
9E4
100
AcDbEntity
  8
Widoczne (ISO)
100
AcDbLine
 10
-19.20840468618905
 20
-33.40010000001462
 30
0.0
 11
-19.20840468618905
 21
-65.00000000001501
 31
0.0
  0
LINE
  5
A01
330
9E4
100
AcDbEntity
  8
Widoczne (ISO)
100
AcDbLine
 10
-35.20840468618906
 20
-27.00000000001455
 30
0.0
 11
-35.20840468618906
 21
-27.60010000001455
 31
0.0
  0
LINE
  5
A02
330
9E4
100
AcDbEntity
  8
Widoczne (ISO)
100
AcDbLine
 10
-35.20840468618906
 20
-33.40010000001462
 30
0.0
 11
-35.20840468618906
 21
-65.00000000001501
 31
0.0
  0
LINE
  5
A03
330
9E4
100
AcDbEntity
  8
Widoczne (ISO)
100
AcDbLine
 10
-19.20840468618905
 20
-66.60000000001502
 30
0.0
 11
-35.20840468618906
 21
-66.60000000001502
 31
0.0
  0
LINE
  5
A04
330
9E4
100
AcDbEntity
  8
Widoczne (ISO)
100
AcDbLine
 10
-19.20840468618905
 20
-65.00000000001501
 30
0.0
 11
-35.20840468618906
 21
-65.00000000001501
 31
0.0
  0
LINE
  5
A05
330
9E4
100
AcDbEntity
  8
Widoczne (ISO)
100
AcDbLine
 10
-19.20840468618905
 20
-65.00000000001501
 30
0.0
 11
-19.20840468618905
 21
-66.60000000001502
 31
0.0
  0
LINE
  5
A06
330
9E4
100
AcDbEntity
  8
Widoczne (ISO)
100
AcDbLine
 10
-35.20840468618906
 20
-65.00000000001501
 30
0.0
 11
-35.20840468618906
 21
-66.60000000001502
 31
0.0
  0
LINE
  5
A07
330
9E4
100
AcDbEntity
  8
Widoczne (ISO)
100
AcDbLine
 10
-9.622378914671912
 20
-16.99999999998431
 30
0.0
 11
-9.622378914671912
 21
17.00000000001569
 31
0.0
  0
LINE
  5
A08
330
9E4
100
AcDbEntity
  8
Widoczne (ISO)
100
AcDbLine
 10
-8.668300022996731
 20
20.00000000001478
 30
0.0
 11
-9.668183457528243
 21
20.00000000001478
 31
0.0
  0
ELLIPSE
  5
A09
330
9E4
100
AcDbEntity
  8
Widoczne (ISO)
100
AcDbEllipse
 10
-9.668183457528243
 20
17.00000000001478
 30
0.0
 11
-0.0000000000000011
 21
2.999999999999993
 31
0.0
210
0.0
220
0.0
230
1.0
 40
0.0152681809520581
 41
4.712388979102751
 42
6.283185304613685
  0
ELLIPSE
  5
A0A
330
9E4
100
AcDbEntity
  8
Widoczne (ISO)
100
AcDbEllipse
 10
-9.668183457528243
 20
-16.99999999998522
 30
0.0
 11
0.0000000000000009
 21
-3.0
 31
0.0
210
0.0
220
0.0
230
1.0
 40
0.0152681809520581
 41
0.0
 42
1.570796326795488
  0
LINE
  5
A0B
330
9E4
100
AcDbEntity
  8
Widoczne (ISO)
100
AcDbLine
 10
-9.668183457528243
 20
-19.99999999998522
 30
0.0
 11
-8.668300022996504
 21
-19.99999999998522
 31
0.0
  0
SPLINE
  5
A0C
330
9E4
100
AcDbEntity
  8
Widoczne (ISO)
100
AcDbSpline
210
0.0
220
0.0
230
1.0
 70
     8
 71
     3
 72
    18
 73
    14
 74
     0
 42
0.0000000001
 43
0.0000000001
 40
-1.555527552567617
 40
-1.555527552567617
 40
-1.555527552567617
 40
-1.555527552567617
 40
-1.244422042054094
 40
-1.244422042054094
 40
-0.9333165315405706
 40
-0.9333165315405706
 40
-0.6222110210270471
 40
-0.6222110210270471
 40
-0.3111055105135235
 40
-0.3111055105135235
 40
-0.0011604160208197
 40
-0.0011604160208197
 40
-0.0000000000000001
 40
-0.0000000000000001
 40
-0.0000000000000001
 40
-0.0000000000000001
 10
-4.683568203948766
 20
16.01526818096658
 30
0.0
 10
-4.683568203948766
 20
16.43009970865205
 30
0.0
 10
-4.74866057519489
 20
16.84620767818592
 30
0.0
 10
-5.005218476700179
 20
17.64008394881114
 30
0.0
 10
-5.196699210784458
 20
18.01765926979885
 30
0.0
 10
-5.688235861365569
 20
18.69537970694398
 30
0.0
 10
-5.988188497019564
 20
18.99533234259786
 30
0.0
 10
-6.665908934164576
 20
19.48686899317897
 30
0.0
 10
-7.043484255152179
 20
19.67834972726336
 30
0.0
 10
-7.835879956144594
 20
19.9344291513886
 30
0.0
 10
-8.250364945017167
 20
19.99951764979062
 30
0.0
 10
-8.66520538275256
 20
19.99999910214751
 30
0.0
 10
-8.666752711443564
 20
20.00000000001478
 30
0.0
 10
-8.668300022996731
 20
20.00000000001478
 30
0.0
  0
SPLINE
  5
A0D
330
9E4
100
AcDbEntity
  8
Widoczne (ISO)
100
AcDbSpline
210
0.0
220
0.0
230
1.0
 70
     8
 71
     3
 72
    18
 73
    14
 74
     0
 42
0.0000000001
 43
0.0000000001
 40
-1.555527552567621
 40
-1.555527552567621
 40
-1.555527552567621
 40
-1.555527552567621
 40
-1.244422042054097
 40
-1.244422042054097
 40
-0.9333165315405729
 40
-0.9333165315405729
 40
-0.6222110210270487
 40
-0.6222110210270487
 40
-0.3111055105135243
 40
-0.3111055105135243
 40
-0.0011604160208205
 40
-0.0011604160208205
 40
0.0
 40
0.0
 40
0.0
 40
0.0
 10
-4.683568203948766
 20
-16.01526818093759
 30
0.0
 10
-4.683568203948766
 20
-16.43009970862294
 30
0.0
 10
-4.74866057519489
 20
-16.84620767815681
 30
0.0
 10
-5.005218476700179
 20
-17.64008394878181
 30
0.0
 10
-5.196699210784458
 20
-18.01765926976952
 30
0.0
 10
-5.688235861365569
 20
-18.69537970691453
 30
0.0
 10
-5.988188497019336
 20
-18.99533234256842
 30
0.0
 10
-6.665908934164576
 20
-19.48686899314953
 30
0.0
 10
-7.043484255152179
 20
-19.67834972723369
 30
0.0
 10
-7.835879956144367
 20
-19.93442915135893
 30
0.0
 10
-8.250364945017167
 20
-19.99951764976094
 30
0.0
 10
-8.66520538275256
 20
-19.99999910211784
 30
0.0
 10
-8.666752711443564
 20
-19.99999999998522
 30
0.0
 10
-8.668300022996731
 20
-19.99999999998522
 30
0.0
  0
LINE
  5
A0E
330
9E4
100
AcDbEntity
  8
Widoczne (ISO)
100
AcDbLine
 10
-4.683568203948766
 20
-16.01526818093759
 30
0.0
 11
-4.683568203948766
 21
16.01526818096658
 31
0.0
  0
LINE
  5
A0F
330
9E4
100
AcDbEntity
  8
Widoczne (ISO)
100
AcDbLine
 10
-3.003805301908187
 20
19.99999999999988
 30
0.0
 11
-8.668300022996731
 21
20.00000000000011
 31
0.0
  0
LINE
  5
A10
330
9E4
100
AcDbEntity
  8
Widoczne (ISO)
100
AcDbLine
 10
-8.668300022996731
 20
-19.99999999999988
 30
0.0
 11
-3.003805301908187
 21
-20.00000000000011
 31
0.0
  0
SPLINE
  5
A11
330
9E4
100
AcDbEntity
  8
Widoczne (ISO)
100
AcDbSpline
210
0.0
220
0.0
230
1.0
 70
     8
 71
     3
 72
    18
 73
    14
 74
     0
 42
0.0000000001
 43
0.0000000001
 40
-0.0872664625997174
 40
-0.0872664625997174
 40
-0.0872664625997174
 40
-0.0872664625997174
 40
-0.0698131700797739
 40
-0.0698131700797739
 40
-0.0523598775598305
 40
-0.0523598775598305
 40
-0.0378299098936233
 40
-0.0378299098936233
 40
-0.0236105991861633
 40
-0.0236105991861633
 40
-0.0067063226265352
 40
-0.0067063226265352
 40
-0.0000000000000001
 40
-0.0000000000000001
 40
-0.0000000000000001
 40
-0.0000000000000001
 10
0.0
 20
-16.99619469809181
 30
0.0
 10
0.0
 20
-17.19695582321605
 30
0.0
 10
-0.0183496339759586
 20
-17.43988781822804
 30
0.0
 10
-0.1613609560316718
 20
-18.01149755972346
 30
0.0
 10
-0.2911757445920102
 20
-18.34288755487921
 30
0.0
 10
-0.6823746251526473
 20
-18.92953691747152
 30
0.0
 10
-0.9179693621190381
 20
-19.1826767919523
 30
0.0
 10
-1.432277802698081
 20
-19.57630308755483
 30
0.0
 10
-1.705550287383175
 20
-19.71850478606382
 30
0.0
 10
-2.258585269070294
 20
-19.92375054202534
 30
0.0
 10
-2.528490522751098
 20
-19.97081291021004
 30
0.0
 10
-2.843604415228924
 20
-19.99707313167312
 30
0.0
 10
-2.9266640476485
 20
-20.00000000000011
 30
0.0
 10
-3.003805301908187
 20
-20.00000000000011
 30
0.0
  0
SPLINE
  5
A12
330
9E4
100
AcDbEntity
  8
Widoczne (ISO)
100
AcDbSpline
210
0.0
220
0.0
230
1.0
 70
     8
 71
     3
 72
    18
 73
    14
 74
     0
 42
0.0000000001
 43
0.0000000001
 40
-0.0872664625997162
 40
-0.0872664625997162
 40
-0.0872664625997162
 40
-0.0872664625997162
 40
-0.069813170079773
 40
-0.069813170079773
 40
-0.0523598775598297
 40
-0.0523598775598297
 40
-0.0378299098936224
 40
-0.0378299098936224
 40
-0.0236105991861624
 40
-0.0236105991861624
 40
-0.0067063226265341
 40
-0.0067063226265341
 40
0.0000000000000001
 40
0.0000000000000001
 40
0.0000000000000001
 40
0.0000000000000001
 10
0.0
 20
16.9961946980917
 30
0.0
 10
0.0
 20
17.19695582321605
 30
0.0
 10
-0.0183496339759586
 20
17.43988781822804
 30
0.0
 10
-0.1613609560316718
 20
18.01149755972346
 30
0.0
 10
-0.2911757445921239
 20
18.34288755487921
 30
0.0
 10
-0.6823746251528747
 20
18.92953691747152
 30
0.0
 10
-0.9179693621190381
 20
19.1826767919523
 30
0.0
 10
-1.432277802698308
 20
19.57630308755483
 30
0.0
 10
-1.705550287383175
 20
19.7185047860637
 30
0.0
 10
-2.258585269070294
 20
19.92375054202534
 30
0.0
 10
-2.528490522751326
 20
19.97081291020993
 30
0.0
 10
-2.843604415228924
 20
19.99707313167312
 30
0.0
 10
-2.9266640476485
 20
19.99999999999988
 30
0.0
 10
-3.003805301908187
 20
19.99999999999988
 30
0.0
  0
LINE
  5
A13
330
9E4
100
AcDbEntity
  8
Widoczne (ISO)
100
AcDbLine
 10
0.0
 20
16.9961946980917
 30
0.0
 11
0.0
 21
-16.99619469809181
 31
0.0
  0
SPLINE
  5
A14
330
9E4
100
AcDbEntity
  8
Widoczne (ISO)
100
AcDbSpline
210
0.0
220
0.0
230
1.0
 70
     8
 71
     3
 72
    26
 73
    22
 74
     0
 42
0.0000000001
 43
0.0000000001
 40
0.0000000000000001
 40
0.0000000000000001
 40
0.0000000000000001
 40
0.0000000000000001
 40
0.3199982130883471
 40
0.3199982130883471
 40
0.6399967799664741
 40
0.6399967799664741
 40
0.9599962679622054
 40
0.9599962679622054
 40
1.27999687947511
 40
1.27999687947511
 40
1.599998372230487
 40
1.599998372230487
 40
1.920000155505742
 40
1.920000155505742
 40
2.240001523768518
 40
2.240001523768518
 40
2.560001935500148
 40
2.560001935500148
 40
2.880001227460136
 40
2.880001227460136
 40
3.141592653590144
 40
3.141592653590144
 40
3.141592653590144
 40
3.141592653590144
 10
-259.562701185631
 20
-82.4999999999826
 30
0.0
 10
-268.3616760123865
 20
-82.4999999999826
 30
0.0
 10
-277.1591203736888
 20
-81.08011513773794
 30
0.0
 10
-293.8637225785513
 20
-75.54377473013278
 30
0.0
 10
-301.7679740627469
 20
-71.42827940709105
 30
0.0
 10
-315.8832419001454
 20
-60.91768941529085
 30
0.0
 10
-322.0917987136853
 20
-54.52441650311937
 30
0.0
 10
-332.184628853833
 20
-40.10668087196996
 30
0.0
 10
-336.067139159342
 20
-32.08471993933745
 30
0.0
 10
-341.1127970942431
 20
-15.22363700497976
 30
0.0
 10
-342.2750600385756
 20
-6.387444810020383
 30
0.0
 10
-341.7612358017233
 20
11.20509190592156
 30
0.0
 10
-340.0852353409804
 20
19.95837722654323
 30
0.0
 10
-334.0640822374938
 20
36.49618774071951
 30
0.0
 10
-329.7199798250548
 20
44.27783826882898
 30
0.0
 10
-318.8028319975575
 20
58.08182633115393
 30
0.0
 10
-312.2316914900545
 20
64.10176825414817
 30
0.0
 10
-297.526985875544
 20
73.77042090370003
 30
0.0
 10
-289.3959835102224
 20
77.41745801657486
 30
0.0
 10
-273.9480742140437
 20
81.55375195271108
 30
0.0
 10
-266.7556675187533
 20
82.50000000001989
 30
0.0
 10
-259.5627011856021
 20
82.50000000001728
 30
0.0
  0
SPLINE
  5
A15
330
9E4
100
AcDbEntity
  8
Widoczne (ISO)
100
AcDbSpline
210
0.0
220
0.0
230
1.0
 70
     8
 71
     3
 72
    26
 73
    22
 74
     0
 42
0.0000000001
 43
0.0000000001
 40
3.141592653585806
 40
3.141592653585806
 40
3.141592653585806
 40
3.141592653585806
 40
3.461590866674153
 40
3.461590866674153
 40
3.78158943355228
 40
3.78158943355228
 40
4.101588921548011
 40
4.101588921548011
 40
4.421589533060916
 40
4.421589533060916
 40
4.741591025816293
 40
4.741591025816293
 40
5.061592809091548
 40
5.061592809091548
 40
5.381594177354324
 40
5.381594177354324
 40
5.701594589085954
 40
5.701594589085954
 40
6.021593881045942
 40
6.021593881045942
 40
6.283185307179586
 40
6.283185307179586
 40
6.283185307179586
 40
6.283185307179586
 10
-259.5016284621516
 20
82.50000000001852
 30
0.0
 10
-250.7026536353961
 20
82.50000000005355
 30
0.0
 10
-241.9052092740884
 20
81.0801151378439
 30
0.0
 10
-225.2006070692035
 20
75.54377473030536
 30
0.0
 10
-217.2963555849916
 20
71.42827940729512
 30
0.0
 10
-203.1810877475513
 20
60.9176894155512
 30
0.0
 10
-196.9725309339859
 20
54.5244165034046
 30
0.0
 10
-186.8797007937806
 20
40.10668087229544
 30
0.0
 10
-182.9971904882396
 20
32.08471993967828
 30
0.0
 10
-177.9515325532714
 20
15.22363700534083
 30
0.0
 10
-176.7892696089037
 20
6.387444810386
 30
0.0
 10
-177.3030938456858
 20
-11.20509190555799
 30
0.0
 10
-178.9790943063939
 20
-19.95837722618626
 30
0.0
 10
-185.0002474098145
 20
-36.49618774038652
 30
0.0
 10
-189.3443498222224
 20
-44.27783826851339
 30
0.0
 10
-200.2614976496646
 20
-58.08182633088188
 30
0.0
 10
-206.8326381571438
 20
-64.10176825390227
 30
0.0
 10
-221.5373437716156
 20
-73.77042090351278
 30
0.0
 10
-229.6683461369227
 20
-77.41745801642003
 30
0.0
 10
-245.1162554331816
 20
-81.55375195264378
 30
0.0
 10
-252.3086621285714
 20
-82.49999999998147
 30
0.0
 10
-259.5016284618229
 20
-82.49999999998147
 30
0.0
  0
LINE
  5
A16
330
9E4
100
AcDbEntity
  8
Widoczne (ISO)
100
AcDbLine
 10
-259.5627011856274
 20
82.50000000001728
 30
0.0
 11
-259.501628461819
 21
82.50000000001852
 31
0.0
  0
LINE
  5
A17
330
9E4
100
AcDbEntity
  8
Widoczne (ISO)
100
AcDbLine
 10
-259.5627011856346
 20
-82.4999999999826
 30
0.0
 11
-259.5016284618263
 21
-82.49999999998147
 31
0.0
  0
ELLIPSE
  5
A18
330
9E4
100
AcDbEntity
  8
Widoczne (ISO)
100
AcDbEllipse
 10
-294.4670123085197
 20
0.0000000000193268
 30
0.0
 11
-0.0000000000002612
 21
-4.000000000000003
 31
0.0
210
0.0
220
0.0
230
1.0
 40
0.9998834345314481
 41
3.141592653589863
 42
6.283185307179656
  0
LINE
  5
A19
330
9E4
100
AcDbEntity
  8
Widoczne (ISO)
100
AcDbLine
 10
-294.4654854904248
 20
-3.999999999980673
 30
0.0
 11
-294.4670123085199
 21
-3.999999999980673
 31
0.0
  0
LINE
  5
A1A
330
9E4
100
AcDbEntity
  8
Widoczne (ISO)
100
AcDbLine
 10
-294.4654854904244
 20
4.000000000019326
 30
0.0
 11
-294.4670123085194
 21
4.000000000019326
 31
0.0
  0
SPLINE
  5
A1B
330
9E4
100
AcDbEntity
  8
Widoczne (ISO)
100
AcDbSpline
210
0.0
220
0.0
230
1.0
 70
     8
 71
     3
 72
    26
 73
    22
 74
     0
 42
0.0000000001
 43
0.0000000001
 40
1.932082417040864
 40
1.932082417040864
 40
1.932082417040864
 40
1.932082417040864
 40
2.25206751814493
 40
2.25206751814493
 40
2.5720555685158
 40
2.5720555685158
 40
2.892051298235223
 40
2.892051298235223
 40
3.212056396228446
 40
3.212056396228446
 40
3.532068843617365
 40
3.532068843617365
 40
3.852083714312961
 40
3.852083714312961
 40
4.172095123821159
 40
4.172095123821159
 40
4.492098556308768
 40
4.492098556308768
 40
4.81209265180558
 40
4.81209265180558
 40
5.073675070630657
 40
5.073675070630657
 40
5.073675070630657
 40
5.073675070630657
 10
-294.4654854904244
 20
4.000000000019326
 30
0.0
 10
-294.0388660404041
 20
4.000000000019326
 30
0.0
 10
-293.6123208832456
 20
3.931159342657338
 30
0.0
 10
-292.8023948753509
 20
3.6627405483855
 30
0.0
 10
-292.4191553883464
 20
3.463208054411552
 30
0.0
 10
-291.7347670941191
 20
2.953620137832217
 30
0.0
 10
-291.4337392110343
 20
2.64365086862972
 30
0.0
 10
-290.944370323242
 20
1.944621965229885
 30
0.0
 10
-290.7561175385848
 20
1.555681628551724
 30
0.0
 10
-290.5114592698623
 20
0.738174869670047
 30
0.0
 10
-290.4550992219455
 20
0.3097495790655103
 30
0.0
 10
-290.4800020782883
 20
-0.5432343274253526
 30
0.0
 10
-290.5612617212779
 20
-0.9676447665081013
 30
0.0
 10
-290.8532034497777
 20
-1.769494471681014
 30
0.0
 10
-291.063833538227
 20
-2.14679488929039
 30
0.0
 10
-291.5931699973693
 20
-2.816089318471313
 30
0.0
 10
-291.9117817906528
 20
-3.107968972634353
 30
0.0
 10
-292.6247597130597
 20
-3.576752419009608
 30
0.0
 10
-293.0189996621167
 20
-3.753577848860686
 30
0.0
 10
-293.768004259938
 20
-3.954122234140413
 30
0.0
 10
-294.1167312913416
 20
-3.999999999980673
 30
0.0
 10
-294.4654854904248
 20
-3.999999999980673
 30
0.0
  0
ELLIPSE
  5
A1C
330
9E4
100
AcDbEntity
  8
Widoczne (ISO)
100
AcDbEllipse
 10
-219.4757547186606
 20
0.0000000000189857
 30
0.0
 11
-0.0000000000002104
 21
-4.000000000000003
 31
0.0
210
0.0
220
0.0
230
1.0
 40
0.9998834345314479
 41
3.141592653589805
 42
6.283185307179599
  0
LINE
  5
A1D
330
9E4
100
AcDbEntity
  8
Widoczne (ISO)
100
AcDbLine
 10
-219.4742279005658
 20
-3.999999999981014
 30
0.0
 11
-219.4757547186608
 21
-3.999999999981014
 31
0.0
  0
LINE
  5
A1E
330
9E4
100
AcDbEntity
  8
Widoczne (ISO)
100
AcDbLine
 10
-219.4742279005651
 20
4.000000000018985
 30
0.0
 11
-219.4757547186604
 21
4.000000000018985
 31
0.0
  0
SPLINE
  5
A1F
330
9E4
100
AcDbEntity
  8
Widoczne (ISO)
100
AcDbSpline
210
0.0
220
0.0
230
1.0
 70
     8
 71
     3
 72
    26
 73
    22
 74
     0
 42
0.0000000001
 43
0.0000000001
 40
1.932082417040864
 40
1.932082417040864
 40
1.932082417040864
 40
1.932082417040864
 40
2.25206751814493
 40
2.25206751814493
 40
2.5720555685158
 40
2.5720555685158
 40
2.892051298235223
 40
2.892051298235223
 40
3.212056396228446
 40
3.212056396228446
 40
3.532068843617365
 40
3.532068843617365
 40
3.852083714312961
 40
3.852083714312961
 40
4.172095123821159
 40
4.172095123821159
 40
4.492098556308768
 40
4.492098556308768
 40
4.81209265180558
 40
4.81209265180558
 40
5.073675070630657
 40
5.073675070630657
 40
5.073675070630657
 40
5.073675070630657
 10
-219.4742279005651
 20
4.000000000018985
 30
0.0
 10
-219.047608450545
 20
4.000000000018985
 30
0.0
 10
-218.6210632933866
 20
3.931159342656997
 30
0.0
 10
-217.8111372854918
 20
3.662740548385158
 30
0.0
 10
-217.4278977984871
 20
3.463208054411211
 30
0.0
 10
-216.74350950426
 20
2.953620137831876
 30
0.0
 10
-216.4424816211753
 20
2.643650868629379
 30
0.0
 10
-215.9531127333829
 20
1.944621965229544
 30
0.0
 10
-215.7648599487258
 20
1.555681628551383
 30
0.0
 10
-215.520201680003
 20
0.738174869669706
 30
0.0
 10
-215.4638416320864
 20
0.3097495790650555
 30
0.0
 10
-215.4887444884292
 20
-0.5432343274256937
 30
0.0
 10
-215.5700041314188
 20
-0.9676447665084424
 30
0.0
 10
-215.8619458599184
 20
-1.769494471681355
 30
0.0
 10
-216.0725759483679
 20
-2.146794889290731
 30
0.0
 10
-216.6019124075102
 20
-2.816089318471654
 30
0.0
 10
-216.9205242007935
 20
-3.107968972634694
 30
0.0
 10
-217.6335021232006
 20
-3.576752419009949
 30
0.0
 10
-218.0277420722574
 20
-3.753577848861141
 30
0.0
 10
-218.776746670079
 20
-3.954122234140754
 30
0.0
 10
-219.1254737014825
 20
-3.999999999981014
 30
0.0
 10
-219.4742279005658
 20
-3.999999999981014
 30
0.0
  0
LINE
  5
A20
330
9E4
100
AcDbEntity
  8
Widoczne (ISO)
100
AcDbLine
 10
-36.75035925762256
 20
26.99999999999432
 30
0.0
 11
-16.75035925762256
 21
26.99999999999432
 31
0.0
  0
LINE
  5
A21
330
9E4
100
AcDbEntity
  8
Widoczne (ISO)
100
AcDbLine
 10
-36.75035925762256
 20
24.99999999999432
 30
0.0
 11
-36.75035925762256
 21
26.99999999999443
 31
0.0
  0
LINE
  5
A22
330
9E4
100
AcDbEntity
  8
Widoczne (ISO)
100
AcDbLine
 10
-16.75035925762256
 20
24.99999999999432
 30
0.0
 11
-16.75035925762256
 21
26.99999999999443
 31
0.0
  0
LINE
  5
A23
330
9E4
100
AcDbEntity
  8
Widoczne (ISO)
100
AcDbLine
 10
-16.75035925762256
 20
-27.00000000000557
 30
0.0
 11
-36.75035925762256
 21
-27.00000000000557
 31
0.0
  0
LINE
  5
A24
330
9E4
100
AcDbEntity
  8
Widoczne (ISO)
100
AcDbLine
 10
-16.75035925762256
 20
-25.00000000000568
 30
0.0
 11
-16.75035925762256
 21
-27.00000000000569
 31
0.0
  0
LINE
  5
A25
330
9E4
100
AcDbEntity
  8
Widoczne (ISO)
100
AcDbLine
 10
-36.75035925762256
 20
-25.00000000000568
 30
0.0
 11
-36.75035925762256
 21
-27.00000000000569
 31
0.0
  0
SPLINE
  5
A26
330
9E4
100
AcDbEntity
  8
Widoczne (ISO)
100
AcDbSpline
210
0.0
220
0.0
230
1.0
 70
    12
 71
     2
 72
     6
 73
     3
 74
     0
 42
0.0000000001
 43
0.0000000001
 40
0.4978532609589537
 40
0.4978532609589537
 40
0.4978532609589537
 40
0.9957065219179071
 40
0.9957065219179071
 40
0.9957065219179071
 10
-34.11157518979019
 20
-33.40010000000439
 30
0.0
 41
1.0
 10
-32.97279112195804
 20
-33.40010000000371
 30
0.0
 41
1.037954849302035
 10
-31.65783654573431
 20
-32.64091062144826
 30
0.0
 41
1.0
  0
LINE
  5
A27
330
9E4
100
AcDbEntity
  8
Widoczne (ISO)
100
AcDbLine
 10
-34.11157518979042
 20
-33.40010000000439
 30
0.0
 11
-26.75035925762256
 21
-33.40010000000314
 31
0.0
  0
SPLINE
  5
A28
330
9E4
100
AcDbEntity
  8
Widoczne (ISO)
100
AcDbSpline
210
0.0
220
0.0
230
1.0
 70
    12
 71
     2
 72
     6
 73
     3
 74
     0
 42
0.0000000001
 43
0.0000000001
 40
0.0
 40
0.0
 40
0.0
 40
0.4978532609589536
 40
0.4978532609589536
 40
0.4978532609589536
 10
-31.65783654573431
 20
-32.64091062144826
 30
0.0
 41
1.0
 10
-29.02792739328709
 20
-33.40010000000314
 30
0.0
 41
1.037954849302054
 10
-26.75035925762256
 20
-33.40010000000314
 30
0.0
 41
1.0
  0
SPLINE
  5
A29
330
9E4
100
AcDbEntity
  8
Widoczne (ISO)
100
AcDbSpline
210
0.0
220
0.0
230
1.0
 70
    12
 71
     2
 72
     6
 73
     3
 74
     0
 42
0.0000000001
 43
0.0000000001
 40
0.0
 40
0.0
 40
0.0
 40
0.4978532609589533
 40
0.4978532609589533
 40
0.4978532609589533
 10
-21.84288196951081
 20
-32.64091062144826
 30
0.0
 41
1.0
 10
-20.52792739328709
 20
-33.40010000000371
 30
0.0
 41
1.037954849302054
 10
-19.38914332545494
 20
-33.40010000000439
 30
0.0
 41
1.0
  0
SPLINE
  5
A2A
330
9E4
100
AcDbEntity
  8
Widoczne (ISO)
100
AcDbSpline
210
0.0
220
0.0
230
1.0
 70
    12
 71
     2
 72
     6
 73
     3
 74
     0
 42
0.0000000001
 43
0.0000000001
 40
0.4978532609589536
 40
0.4978532609589536
 40
0.4978532609589536
 40
0.9957065219179071
 40
0.9957065219179071
 40
0.9957065219179071
 10
-26.75035925762256
 20
-33.40010000000314
 30
0.0
 41
1.0
 10
-24.47279112195804
 20
-33.40010000000314
 30
0.0
 41
1.037954849302056
 10
-21.84288196951081
 20
-32.64091062144826
 30
0.0
 41
1.0
  0
LINE
  5
A2B
330
9E4
100
AcDbEntity
  8
Widoczne (ISO)
100
AcDbLine
 10
-26.75035925762256
 20
-33.40010000000314
 30
0.0
 11
-19.38914332545471
 21
-33.40010000000439
 31
0.0
  0
LINE
  5
A2C
330
9E4
100
AcDbEntity
  8
Widoczne (ISO)
100
AcDbLine
 10
-35.25035925762256
 20
-33.40010000000564
 30
0.0
 11
-34.11157518979042
 21
-33.40010000000439
 31
0.0
  0
SPLINE
  5
A2D
330
9E4
100
AcDbEntity
  8
Widoczne (ISO)
100
AcDbSpline
210
0.0
220
0.0
230
1.0
 70
    12
 71
     2
 72
     6
 73
     3
 74
     0
 42
0.0000000001
 43
0.0000000001
 40
0.0
 40
0.0
 40
0.0
 40
0.4978532609589537
 40
0.4978532609589537
 40
0.4978532609589537
 10
-36.56531383384629
 20
-32.64091062145076
 30
0.0
 41
1.0
 10
-35.25035925762256
 20
-33.40010000000495
 30
0.0
 41
1.037954849302049
 10
-34.11157518979019
 20
-33.40010000000439
 30
0.0
 41
1.0
  0
SPLINE
  5
A2E
330
9E4
100
AcDbEntity
  8
Widoczne (ISO)
100
AcDbSpline
210
0.0
220
0.0
230
1.0
 70
    12
 71
     2
 72
     6
 73
     3
 74
     0
 42
0.0000000001
 43
0.0000000001
 40
0.4978532609589533
 40
0.4978532609589533
 40
0.4978532609589533
 40
0.9957065219179067
 40
0.9957065219179067
 40
0.9957065219179067
 10
-19.38914332545494
 20
-33.40010000000439
 30
0.0
 41
1.0
 10
-18.25035925762256
 20
-33.40010000000495
 30
0.0
 41
1.037954849302048
 10
-16.93540468139883
 20
-32.64091062145076
 30
0.0
 41
1.0
  0
LINE
  5
A2F
330
9E4
100
AcDbEntity
  8
Widoczne (ISO)
100
AcDbLine
 10
-19.38914332545471
 20
-33.40010000000439
 30
0.0
 11
-18.25035925762256
 21
-33.40010000000564
 31
0.0
  0
LINE
  5
A30
330
9E4
100
AcDbEntity
  8
Widoczne (ISO)
100
AcDbLine
 10
-35.25035925762256
 20
-33.40010000000564
 30
0.0
 11
-36.56531383384629
 21
-32.64091062145076
 31
0.0
  0
LINE
  5
A31
330
9E4
100
AcDbEntity
  8
Widoczne (ISO)
100
AcDbLine
 10
-18.25035925762256
 20
-33.40010000000564
 30
0.0
 11
-16.93540468139883
 21
-32.64091062145076
 31
0.0
  0
LINE
  5
A32
330
9E4
100
AcDbEntity
  8
Widoczne (ISO)
100
AcDbLine
 10
-36.56531383384629
 20
-27.60010000000568
 30
0.0
 11
-36.56531383384629
 21
-32.64091062145076
 31
0.0
  0
LINE
  5
A33
330
9E4
100
AcDbEntity
  8
Widoczne (ISO)
100
AcDbLine
 10
-31.65783654573431
 20
-27.60010000000307
 30
0.0
 11
-31.65783654573431
 21
-32.64091062144826
 31
0.0
  0
LINE
  5
A34
330
9E4
100
AcDbEntity
  8
Widoczne (ISO)
100
AcDbLine
 10
-36.56531383384629
 20
-27.60010000000568
 30
0.0
 11
-31.65783654573431
 21
-27.60010000000307
 31
0.0
  0
LINE
  5
A35
330
9E4
100
AcDbEntity
  8
Widoczne (ISO)
100
AcDbLine
 10
-31.65783654573431
 20
-27.60010000000307
 30
0.0
 11
-21.84288196951081
 21
-27.60010000000307
 31
0.0
  0
LINE
  5
A36
330
9E4
100
AcDbEntity
  8
Widoczne (ISO)
100
AcDbLine
 10
-21.84288196951081
 20
-27.60010000000307
 30
0.0
 11
-16.93540468139883
 21
-27.60010000000568
 31
0.0
  0
LINE
  5
A37
330
9E4
100
AcDbEntity
  8
Widoczne (ISO)
100
AcDbLine
 10
-21.84288196951081
 20
-27.60010000000307
 30
0.0
 11
-21.84288196951081
 21
-32.64091062144826
 31
0.0
  0
LINE
  5
A38
330
9E4
100
AcDbEntity
  8
Widoczne (ISO)
100
AcDbLine
 10
-16.93540468139883
 20
-27.60010000000568
 30
0.0
 11
-16.93540468139883
 21
-32.64091062145076
 31
0.0
  0
LINE
  5
A39
330
9E4
100
AcDbEntity
  8
Widoczne (ISO)
100
AcDbLine
 10
-34.55035925762252
 20
-27.60010000000568
 30
0.0
 11
-34.55035925762252
 21
-27.00000000000557
 31
0.0
  0
LINE
  5
A3A
330
9E4
100
AcDbEntity
  8
Widoczne (ISO)
100
AcDbLine
 10
-18.95035925762261
 20
-27.60010000000568
 30
0.0
 11
-18.95035925762261
 21
-27.00000000000557
 31
0.0
  0
SPLINE
  5
A3B
330
9E4
100
AcDbEntity
  8
Widoczne (ISO)
100
AcDbSpline
210
0.0
220
0.0
230
1.0
 70
    12
 71
     2
 72
     6
 73
     3
 74
     0
 42
0.0000000001
 43
0.0000000001
 40
0.0
 40
0.0
 40
0.0
 40
0.4685677750201958
 40
0.4685677750201958
 40
0.4685677750201958
 10
-17.5127549505886
 20
34.28546882017804
 30
0.0
 41
1.0
 10
-18.75035925762256
 20
34.999999999995
 30
0.0
 41
1.037954849302033
 10
-19.82215602734697
 20
34.99999999999557
 30
0.0
 41
1.0
  0
LINE
  5
A3C
330
9E4
100
AcDbEntity
  8
Widoczne (ISO)
100
AcDbLine
 10
-18.75035925762256
 20
34.99999999999443
 30
0.0
 11
-19.82215602734697
 21
34.99999999999557
 31
0.0
  0
SPLINE
  5
A3D
330
9E4
100
AcDbEntity
  8
Widoczne (ISO)
100
AcDbSpline
210
0.0
220
0.0
230
1.0
 70
    12
 71
     2
 72
     6
 73
     3
 74
     0
 42
0.0000000001
 43
0.0000000001
 40
0.0
 40
0.0
 40
0.0
 40
0.4685677750201963
 40
0.4685677750201963
 40
0.4685677750201963
 10
-22.13155710410536
 20
34.28546882018043
 30
0.0
 41
1.0
 10
-24.60676571817373
 20
34.99999999999682
 30
0.0
 41
1.037954849302013
 10
-26.75035925762256
 20
34.99999999999682
 30
0.0
 41
1.0
  0
SPLINE
  5
A3E
330
9E4
100
AcDbEntity
  8
Widoczne (ISO)
100
AcDbSpline
210
0.0
220
0.0
230
1.0
 70
    12
 71
     2
 72
     6
 73
     3
 74
     0
 42
0.0000000001
 43
0.0000000001
 40
0.4685677750201958
 40
0.4685677750201958
 40
0.4685677750201958
 40
0.9371355500403913
 40
0.9371355500403913
 40
0.9371355500403913
 10
-19.82215602734697
 20
34.99999999999557
 30
0.0
 41
1.0
 10
-20.89395279707139
 20
34.99999999999614
 30
0.0
 41
1.037954849302056
 10
-22.13155710410558
 20
34.28546882018043
 30
0.0
 41
1.0
  0
LINE
  5
A3F
330
9E4
100
AcDbEntity
  8
Widoczne (ISO)
100
AcDbLine
 10
-19.82215602734697
 20
34.99999999999557
 30
0.0
 11
-26.75035925762256
 21
34.99999999999682
 31
0.0
  0
SPLINE
  5
A40
330
9E4
100
AcDbEntity
  8
Widoczne (ISO)
100
AcDbSpline
210
0.0
220
0.0
230
1.0
 70
    12
 71
     2
 72
     6
 73
     3
 74
     0
 42
0.0000000001
 43
0.0000000001
 40
0.4685677750201953
 40
0.4685677750201953
 40
0.4685677750201953
 40
0.93713555004039
 40
0.93713555004039
 40
0.93713555004039
 10
-33.67856248789815
 20
34.99999999999557
 30
0.0
 41
1.0
 10
-34.75035925762256
 20
34.999999999995
 30
0.0
 41
1.037954849302059
 10
-35.98796356465653
 20
34.28546882017804
 30
0.0
 41
1.0
  0
LINE
  5
A41
330
9E4
100
AcDbEntity
  8
Widoczne (ISO)
100
AcDbLine
 10
-33.67856248789815
 20
34.99999999999557
 30
0.0
 11
-34.75035925762256
 21
34.99999999999443
 31
0.0
  0
SPLINE
  5
A42
330
9E4
100
AcDbEntity
  8
Widoczne (ISO)
100
AcDbSpline
210
0.0
220
0.0
230
1.0
 70
    12
 71
     2
 72
     6
 73
     3
 74
     0
 42
0.0000000001
 43
0.0000000001
 40
0.4685677750201963
 40
0.4685677750201963
 40
0.4685677750201963
 40
0.9371355500403925
 40
0.9371355500403925
 40
0.9371355500403925
 10
-26.75035925762256
 20
34.99999999999682
 30
0.0
 41
1.0
 10
-28.89395279707139
 20
34.99999999999682
 30
0.0
 41
1.037954849302005
 10
-31.36916141113955
 20
34.28546882018043
 30
0.0
 41
1.0
  0
LINE
  5
A43
330
9E4
100
AcDbEntity
  8
Widoczne (ISO)
100
AcDbLine
 10
-26.75035925762256
 20
34.99999999999682
 30
0.0
 11
-33.67856248789815
 21
34.99999999999557
 31
0.0
  0
SPLINE
  5
A44
330
9E4
100
AcDbEntity
  8
Widoczne (ISO)
100
AcDbSpline
210
0.0
220
0.0
230
1.0
 70
    12
 71
     2
 72
     6
 73
     3
 74
     0
 42
0.0000000001
 43
0.0000000001
 40
0.0
 40
0.0
 40
0.0
 40
0.4685677750201953
 40
0.4685677750201953
 40
0.4685677750201953
 10
-31.36916141113955
 20
34.28546882018043
 30
0.0
 41
1.0
 10
-32.60676571817374
 20
34.99999999999614
 30
0.0
 41
1.037954849302061
 10
-33.67856248789815
 20
34.99999999999557
 30
0.0
 41
1.0
  0
SPLINE
  5
A45
330
9E4
100
AcDbEntity
  8
Widoczne (ISO)
100
AcDbSpline
210
0.0
220
0.0
230
1.0
 70
    12
 71
     2
 72
     6
 73
     3
 74
     0
 42
0.0000000001
 43
0.0000000001
 40
0.0
 40
0.0
 40
0.0
 40
0.9347489104623367
 40
0.9347489104623367
 40
0.9347489104623367
 10
-22.13155710410558
 20
28.11867636824582
 30
0.0
 41
1.0
 10
-19.82215602734697
 20
26.78534303491131
 30
0.0
 41
1.154700538379253
 10
-17.5127549505886
 20
28.11867636824354
 30
0.0
 41
1.0
  0
SPLINE
  5
A46
330
9E4
100
AcDbEntity
  8
Widoczne (ISO)
100
AcDbSpline
210
0.0
220
0.0
230
1.0
 70
    12
 71
     2
 72
     6
 73
     3
 74
     0
 42
0.0000000001
 43
0.0000000001
 40
0.0
 40
0.0
 40
0.0
 40
0.9347489104623377
 40
0.9347489104623377
 40
0.9347489104623377
 10
-31.36916141113955
 20
28.11867636824582
 30
0.0
 41
1.0
 10
-26.75035925762256
 20
26.78534303491256
 30
0.0
 41
1.154700538379253
 10
-22.13155710410536
 20
28.11867636824582
 30
0.0
 41
1.0
  0
SPLINE
  5
A47
330
9E4
100
AcDbEntity
  8
Widoczne (ISO)
100
AcDbSpline
210
0.0
220
0.0
230
1.0
 70
    12
 71
     2
 72
     6
 73
     3
 74
     0
 42
0.0000000001
 43
0.0000000001
 40
0.0
 40
0.0
 40
0.0
 40
0.9347489104623369
 40
0.9347489104623369
 40
0.9347489104623369
 10
-35.98796356465653
 20
28.11867636824354
 30
0.0
 41
1.0
 10
-33.67856248789815
 20
26.78534303491142
 30
0.0
 41
1.154700538379251
 10
-31.36916141113955
 20
28.11867636824582
 30
0.0
 41
1.0
  0
LINE
  5
A48
330
9E4
100
AcDbEntity
  8
Widoczne (ISO)
100
AcDbLine
 10
-18.75035925762256
 20
34.99999999999443
 30
0.0
 11
-17.5127549505886
 21
34.28546882017804
 31
0.0
  0
LINE
  5
A49
330
9E4
100
AcDbEntity
  8
Widoczne (ISO)
100
AcDbLine
 10
-34.75035925762256
 20
34.99999999999443
 30
0.0
 11
-35.98796356465653
 21
34.28546882017804
 31
0.0
  0
LINE
  5
A4A
330
9E4
100
AcDbEntity
  8
Widoczne (ISO)
100
AcDbLine
 10
-34.05035925762252
 20
26.99999999999443
 30
0.0
 11
-35.98796356465653
 21
28.11867636824354
 31
0.0
  0
LINE
  5
A4B
330
9E4
100
AcDbEntity
  8
Widoczne (ISO)
100
AcDbLine
 10
-19.45035925762261
 20
26.99999999999443
 30
0.0
 11
-17.5127549505886
 21
28.11867636824354
 31
0.0
  0
LINE
  5
A4C
330
9E4
100
AcDbEntity
  8
Widoczne (ISO)
100
AcDbLine
 10
-35.98796356465653
 20
28.11867636824354
 30
0.0
 11
-35.98796356465653
 21
34.28546882017804
 31
0.0
  0
LINE
  5
A4D
330
9E4
100
AcDbEntity
  8
Widoczne (ISO)
100
AcDbLine
 10
-31.36916141113955
 20
28.11867636824582
 30
0.0
 11
-31.36916141113955
 21
34.28546882018043
 31
0.0
  0
LINE
  5
A4E
330
9E4
100
AcDbEntity
  8
Widoczne (ISO)
100
AcDbLine
 10
-22.13155710410558
 20
28.11867636824582
 30
0.0
 11
-22.13155710410558
 21
34.28546882018043
 31
0.0
  0
LINE
  5
A4F
330
9E4
100
AcDbEntity
  8
Widoczne (ISO)
100
AcDbLine
 10
-17.5127549505886
 20
28.11867636824354
 30
0.0
 11
-17.5127549505886
 21
34.28546882017804
 31
0.0
  0
LINE
  5
A50
330
9E4
100
AcDbEntity
  8
Widoczne (ISO)
100
AcDbLine
 10
-34.25035925762256
 20
34.99999999999443
 30
0.0
 11
-34.25035925762256
 21
37.49999999999443
 31
0.0
  0
LINE
  5
A51
330
9E4
100
AcDbEntity
  8
Widoczne (ISO)
100
AcDbLine
 10
-19.25035925762256
 20
34.99999999999443
 30
0.0
 11
-19.25035925762256
 21
37.49999999999432
 31
0.0
  0
ARC
  5
A52
330
9E4
100
AcDbEntity
  8
Widoczne (ISO)
100
AcDbCircle
 10
-26.75035925762256
 20
37.49999999999443
 30
0.0
 40
7.500000000000009
100
AcDbArc
 50
0.0
 51
180.0
  0
ENDBLK
  5
9E6
330
9E4
100
AcDbEntity
  8
0
100
AcDbBlockEnd
  0
ENDSEC
  0
SECTION
  2
ENTITIES
  0
LINE
  5
155
330
6C
100
AcDbEntity
  8
Widoczne (ISO)
100
AcDbLine
 10
-1183.245411377344
 20
1518.837577695219
 30
0.0
 11
-1175.245411377344
 21
1518.837577695219
 31
0.0
  0
LINE
  5
156
330
6C
100
AcDbEntity
  8
Widoczne (ISO)
100
AcDbLine
 10
-1174.245411377344
 20
1517.837577695219
 30
0.0
 11
-1184.245411377345
 21
1517.837577695219
 31
0.0
  0
LINE
  5
157
330
6C
100
AcDbEntity
  8
Widoczne (ISO)
100
AcDbLine
 10
-1093.245411377345
 20
1518.837577695219
 30
0.0
 11
-1085.245411377344
 21
1518.837577695219
 31
0.0
  0
LINE
  5
158
330
6C
100
AcDbEntity
  8
Widoczne (ISO)
100
AcDbLine
 10
-1084.245411377344
 20
1517.837577695219
 30
0.0
 11
-1094.245411377344
 21
1517.837577695219
 31
0.0
  0
LINE
  5
159
330
6C
100
AcDbEntity
  8
Widoczne (ISO)
100
AcDbLine
 10
-1175.245411377344
 20
1518.837577695219
 30
0.0
 11
-1174.245411377344
 21
1517.837577695219
 31
0.0
  0
LINE
  5
15A
330
6C
100
AcDbEntity
  8
Widoczne (ISO)
100
AcDbLine
 10
-1183.245411377344
 20
1518.837577695219
 30
0.0
 11
-1184.245411377345
 21
1517.837577695219
 31
0.0
  0
LINE
  5
15B
330
6C
100
AcDbEntity
  8
Widoczne (ISO)
100
AcDbLine
 10
-1085.245411377344
 20
1518.837577695219
 30
0.0
 11
-1084.245411377344
 21
1517.837577695219
 31
0.0
  0
LINE
  5
15C
330
6C
100
AcDbEntity
  8
Widoczne (ISO)
100
AcDbLine
 10
-1093.245411377345
 20
1518.837577695219
 30
0.0
 11
-1094.245411377344
 21
1517.837577695219
 31
0.0
  0
LINE
  5
15D
330
6C
100
AcDbEntity
  8
Widoczne (ISO)
100
AcDbLine
 10
-1319.245411377344
 20
1398.837577695219
 30
0.0
 11
-949.2454113773446
 21
1398.837577695219
 31
0.0
  0
LINE
  5
15E
330
6C
100
AcDbEntity
  8
Widoczne (ISO)
100
AcDbLine
 10
-1309.245411377345
 20
1498.837577695219
 30
0.0
 11
-959.2454113773444
 21
1498.837577695219
 31
0.0
  0
LINE
  5
15F
330
6C
100
AcDbEntity
  8
Widoczne (ISO)
100
AcDbLine
 10
-1309.245411377345
 20
1498.837577695219
 30
0.0
 11
-1319.245411377344
 21
1398.837577695219
 31
0.0
  0
LINE
  5
160
330
6C
100
AcDbEntity
  8
Widoczne (ISO)
100
AcDbLine
 10
-959.2454113773444
 20
1498.837577695219
 30
0.0
 11
-949.2454113773446
 21
1398.837577695219
 31
0.0
  0
LINE
  5
161
330
6C
100
AcDbEntity
  8
Widoczne (ISO)
100
AcDbLine
 10
-1184.245411377345
 20
1516.837577695219
 30
0.0
 11
-1184.245411377345
 21
1517.837577695219
 31
0.0
  0
LINE
  5
162
330
6C
100
AcDbEntity
  8
Widoczne (ISO)
100
AcDbLine
 10
-1174.245411377344
 20
1516.837577695219
 30
0.0
 11
-1174.245411377344
 21
1517.837577695219
 31
0.0
  0
LINE
  5
163
330
6C
100
AcDbEntity
  8
Widoczne (ISO)
100
AcDbLine
 10
-1094.245411377344
 20
1516.837577695219
 30
0.0
 11
-1094.245411377344
 21
1517.837577695219
 31
0.0
  0
LINE
  5
164
330
6C
100
AcDbEntity
  8
Widoczne (ISO)
100
AcDbLine
 10
-1084.245411377344
 20
1516.837577695219
 30
0.0
 11
-1084.245411377344
 21
1517.837577695219
 31
0.0
  0
LINE
  5
165
330
6C
100
AcDbEntity
  8
Widoczne (ISO)
100
AcDbLine
 10
-1074.245411377344
 20
1498.837577695219
 30
0.0
 11
-1074.245411377344
 21
1506.837577695219
 31
0.0
  0
LINE
  5
166
330
6C
100
AcDbEntity
  8
Widoczne (ISO)
100
AcDbLine
 10
-1084.245411377344
 20
1506.837577695219
 30
0.0
 11
-1074.245411377344
 21
1506.837577695219
 31
0.0
  0
LINE
  5
167
330
6C
100
AcDbEntity
  8
Widoczne (ISO)
100
AcDbLine
 10
-1194.245411377344
 20
1506.837577695219
 30
0.0
 11
-1184.245411377344
 21
1506.837577695219
 31
0.0
  0
LINE
  5
168
330
6C
100
AcDbEntity
  8
Widoczne (ISO)
100
AcDbLine
 10
-1194.245411377344
 20
1506.837577695219
 30
0.0
 11
-1194.245411377344
 21
1498.837577695219
 31
0.0
  0
LINE
  5
169
330
6C
100
AcDbEntity
  8
Widoczne (ISO)
100
AcDbLine
 10
-1084.245411377344
 20
1506.837577695219
 30
0.0
 11
-1184.245411377344
 21
1506.837577695219
 31
0.0
  0
LINE
  5
16A
330
6C
100
AcDbEntity
  8
Widoczne (ISO)
100
AcDbLine
 10
-1092.692799259196
 20
1518.83757769522
 30
0.0
 11
-1076.94483982453
 21
1698.83757769522
 31
0.0
  0
LINE
  5
16B
330
6C
100
AcDbEntity
  8
Widoczne (ISO)
100
AcDbLine
 10
-1076.936090958177
 20
1698.93757769522
 30
0.0
 11
-1015.912505904742
 21
2396.440346557977
 31
0.0
  0
LINE
  5
16C
330
6C
100
AcDbEntity
  8
Widoczne (ISO)
100
AcDbLine
 10
-1095.608081752082
 20
2403.41280597779
 30
0.0
 11
-1141.277690951855
 21
1881.406784177715
 31
0.0
  0
LINE
  5
16D
330
6C
100
AcDbEntity
  8
Widoczne (ISO)
100
AcDbLine
 10
-1141.800625408341
 20
1875.429615989165
 30
0.0
 11
-1157.241677961644
 21
1698.93757769522
 31
0.0
  0
LINE
  5
16E
330
6C
100
AcDbEntity
  8
Widoczne (ISO)
100
AcDbLine
 10
-1157.250426827997
 20
1698.837577695219
 30
0.0
 11
-1173.173363589715
 21
1516.83757769522
 31
0.0
  0
LINE
  5
16F
330
6C
100
AcDbEntity
  8
Widoczne (ISO)
100
AcDbLine
 10
-1020.893479395201
 20
2396.876125271715
 30
0.0
 11
-1026.273815309393
 21
2397.346843670169
 31
0.0
  0
LINE
  5
170
330
6C
100
AcDbEntity
  8
Widoczne (ISO)
100
AcDbLine
 10
-1058.234847547074
 20
2400.143071665552
 30
0.0
 11
-1090.627108261623
 21
2402.977027264051
 31
0.0
  0
LINE
  5
171
330
6C
100
AcDbEntity
  8
Widoczne (ISO)
100
AcDbLine
 10
-1161.936312383538
 20
1886.225638869691
 30
0.0
 11
-1161.744960056343
 21
1888.41280597779
 31
0.0
  0
LINE
  5
172
330
6C
100
AcDbEntity
  8
Widoczne (ISO)
100
AcDbLine
 10
-1141.277690951855
 20
1881.406784177715
 30
0.0
 11
-1159.209195517506
 21
1882.975587547173
 31
0.0
  0
LINE
  5
173
330
6C
100
AcDbEntity
  8
Widoczne (ISO)
100
AcDbLine
 10
-1159.732129973992
 20
1876.998419358622
 30
0.0
 11
-1141.800625408341
 21
1875.429615989165
 31
0.0
  0
LINE
  5
174
330
6C
100
AcDbEntity
  8
Widoczne (ISO)
100
AcDbLine
 10
-1141.800625408341
 20
1875.429615989165
 30
0.0
 11
-1141.277690951855
 21
1881.406784177715
 31
0.0
  0
LINE
  5
175
330
6C
100
AcDbEntity
  8
Widoczne (ISO)
100
AcDbLine
 10
-1167.767879081603
 20
1888.41280597779
 30
0.0
 11
-1167.913480572089
 21
1886.748573326177
 31
0.0
  0
ARC
  5
176
330
6C
100
AcDbEntity
  8
Widoczne (ISO)
100
AcDbCircle
 10
-1158.947728289263
 20
1885.964171641448
 30
0.0
 40
8.999999999999982
100
AcDbArc
 50
174.9999999999993
 51
264.9999999999995
  0
ARC
  5
177
330
6C
100
AcDbEntity
  8
Widoczne (ISO)
100
AcDbCircle
 10
-1158.947728289263
 20
1885.964171641448
 30
0.0
 40
2.999999999999994
100
AcDbArc
 50
174.9999999999993
 51
264.9999999999997
  0
LINE
  5
178
330
6C
100
AcDbEntity
  8
Widoczne (ISO)
100
AcDbLine
 10
-1458.608081752079
 20
2413.41280597779
 30
0.0
 11
-1098.608081752082
 21
2413.41280597779
 31
0.0
  0
LINE
  5
179
330
6C
100
AcDbEntity
  8
Widoczne (ISO)
100
AcDbLine
 10
-1458.608081752079
 20
2373.41280597779
 30
0.0
 11
-1098.608081752082
 21
2373.41280597779
 31
0.0
  0
LINE
  5
17A
330
6C
100
AcDbEntity
  8
Widoczne (ISO)
100
AcDbLine
 10
-1098.608081752082
 20
2413.41280597779
 30
0.0
 11
-1098.608081752082
 21
2373.41280597779
 31
0.0
  0
LINE
  5
17B
330
6C
100
AcDbEntity
  8
Widoczne (ISO)
100
AcDbLine
 10
-1458.60808175208
 20
2413.41280597779
 30
0.0
 11
-1458.60808175208
 21
2373.41280597779
 31
0.0
  0
LINE
  5
17C
330
6C
100
AcDbEntity
  8
Widoczne (ISO)
100
AcDbLine
 10
-1099.245411377344
 20
1508.837577695219
 30
0.0
 11
-1079.245411377344
 21
1508.837577695219
 31
0.0
  0
LINE
  5
17D
330
6C
100
AcDbEntity
  8
Widoczne (ISO)
100
AcDbLine
 10
-1099.245411377344
 20
1506.837577695219
 30
0.0
 11
-1099.245411377344
 21
1508.837577695219
 31
0.0
  0
LINE
  5
17E
330
6C
100
AcDbEntity
  8
Widoczne (ISO)
100
AcDbLine
 10
-1079.245411377344
 20
1506.837577695219
 30
0.0
 11
-1079.245411377344
 21
1508.837577695219
 31
0.0
  0
LINE
  5
17F
330
6C
100
AcDbEntity
  8
Widoczne (ISO)
100
AcDbLine
 10
-1189.245411377344
 20
1508.837577695219
 30
0.0
 11
-1169.245411377344
 21
1508.837577695219
 31
0.0
  0
LINE
  5
180
330
6C
100
AcDbEntity
  8
Widoczne (ISO)
100
AcDbLine
 10
-1189.245411377344
 20
1506.837577695219
 30
0.0
 11
-1189.245411377344
 21
1508.837577695219
 31
0.0
  0
LINE
  5
181
330
6C
100
AcDbEntity
  8
Widoczne (ISO)
100
AcDbLine
 10
-1169.245411377344
 20
1506.837577695219
 30
0.0
 11
-1169.245411377344
 21
1508.837577695219
 31
0.0
  0
CIRCLE
  5
182
330
6C
100
AcDbEntity
  8
Widoczne (ISO)
100
AcDbCircle
 10
-1042.560488211984
 20
2378.69534616483
 30
0.0
 40
10.0
  0
LINE
  5
183
330
6C
100
AcDbEntity
  8
Widoczne (ISO)
100
AcDbLine
 10
-1081.595411377344
 20
1516.837577695219
 30
0.0
 11
-1096.895411377344
 21
1516.837577695219
 31
0.0
  0
SPLINE
  5
184
330
6C
100
AcDbEntity
  8
Widoczne (ISO)
100
AcDbSpline
210
0.0
220
0.0
230
1.0
 70
    28
 71
     2
 72
     6
 73
     3
 74
     0
 42
0.0000000001
 43
0.0000000001
 40
0.0
 40
0.0
 40
0.0
 40
0.4965853586831167
 40
0.4965853586831167
 40
0.4965853586831167
 10
-1097.745411377344
 20
1515.587640587853
 30
0.0
 41
1.0
 10
-1097.745411377344
 20
1516.346829966408
 30
0.0
 41
1.077350269189625
 10
-1097.745411377344
 20
1516.346829966408
 30
0.0
 41
1.077350269189625
  0
SPLINE
  5
185
330
6C
100
AcDbEntity
  8
Widoczne (ISO)
100
AcDbSpline
210
0.0
220
0.0
230
1.0
 70
    12
 71
     2
 72
     6
 73
     3
 74
     0
 42
0.0000000001
 43
0.0000000001
 40
0.0
 40
0.0
 40
0.0
 40
0.9931707173662312
 40
0.9931707173662312
 40
0.9931707173662312
 10
-1089.245411377344
 20
1515.587640587853
 30
0.0
 41
1.0
 10
-1093.495411377344
 20
1517.00430725452
 30
0.0
 41
1.154700538379246
 10
-1097.745411377344
 20
1515.587640587853
 30
0.0
 41
1.0
  0
SPLINE
  5
186
330
6C
100
AcDbEntity
  8
Widoczne (ISO)
100
AcDbSpline
210
0.0
220
0.0
230
1.0
 70
    12
 71
     2
 72
     6
 73
     3
 74
     0
 42
0.0000000001
 43
0.0000000001
 40
0.0
 40
0.0
 40
0.0
 40
0.9931707173662275
 40
0.9931707173662275
 40
0.9931707173662275
 10
-1080.745411377344
 20
1515.587640587853
 30
0.0
 41
1.0
 10
-1084.995411377344
 20
1517.00430725452
 30
0.0
 41
1.154700538379248
 10
-1089.245411377344
 20
1515.587640587853
 30
0.0
 41
1.0
  0
SPLINE
  5
187
330
6C
100
AcDbEntity
  8
Widoczne (ISO)
100
AcDbSpline
210
0.0
220
0.0
230
1.0
 70
    28
 71
     2
 72
     6
 73
     3
 74
     0
 42
0.0000000001
 43
0.0000000001
 40
0.4965853586831104
 40
0.4965853586831104
 40
0.4965853586831104
 40
0.993170717366226
 40
0.993170717366226
 40
0.993170717366226
 10
-1080.745411377344
 20
1516.346829966408
 30
0.0
 41
1.077350269189623
 10
-1080.745411377344
 20
1516.346829966408
 30
0.0
 41
1.077350269189623
 10
-1080.745411377344
 20
1515.587640587853
 30
0.0
 41
1.0
  0
SPLINE
  5
188
330
6C
100
AcDbEntity
  8
Widoczne (ISO)
100
AcDbSpline
210
0.0
220
0.0
230
1.0
 70
    12
 71
     2
 72
     6
 73
     3
 74
     0
 42
0.0000000001
 43
0.0000000001
 40
0.0
 40
0.0
 40
0.0
 40
0.9931707173662299
 40
0.9931707173662299
 40
0.9931707173662299
 10
-1097.745411377344
 20
1510.087514802585
 30
0.0
 41
1.0
 10
-1093.495411377344
 20
1508.670848135919
 30
0.0
 41
1.15470053837925
 10
-1089.245411377344
 20
1510.087514802585
 30
0.0
 41
1.0
  0
SPLINE
  5
189
330
6C
100
AcDbEntity
  8
Widoczne (ISO)
100
AcDbSpline
210
0.0
220
0.0
230
1.0
 70
    28
 71
     2
 72
     6
 73
     3
 74
     0
 42
0.0000000001
 43
0.0000000001
 40
0.4965853586831165
 40
0.4965853586831165
 40
0.4965853586831165
 40
0.9931707173662321
 40
0.9931707173662321
 40
0.9931707173662321
 10
-1097.745411377344
 20
1509.328325424031
 30
0.0
 41
1.077350269189624
 10
-1097.745411377344
 20
1509.328325424031
 30
0.0
 41
1.077350269189623
 10
-1097.745411377344
 20
1510.087514802585
 30
0.0
 41
1.0
  0
SPLINE
  5
18A
330
6C
100
AcDbEntity
  8
Widoczne (ISO)
100
AcDbSpline
210
0.0
220
0.0
230
1.0
 70
    28
 71
     2
 72
     6
 73
     3
 74
     0
 42
0.0000000001
 43
0.0000000001
 40
0.0
 40
0.0
 40
0.0
 40
0.4965853586831149
 40
0.4965853586831149
 40
0.4965853586831149
 10
-1080.745411377344
 20
1510.087514802585
 30
0.0
 41
1.0
 10
-1080.745411377344
 20
1509.328325424031
 30
0.0
 41
1.077350269189624
 10
-1080.745411377344
 20
1509.328325424031
 30
0.0
 41
1.077350269189624
  0
SPLINE
  5
18B
330
6C
100
AcDbEntity
  8
Widoczne (ISO)
100
AcDbSpline
210
0.0
220
0.0
230
1.0
 70
    12
 71
     2
 72
     6
 73
     3
 74
     0
 42
0.0000000001
 43
0.0000000001
 40
0.0
 40
0.0
 40
0.0
 40
0.9931707173662276
 40
0.9931707173662276
 40
0.9931707173662276
 10
-1089.245411377344
 20
1510.087514802585
 30
0.0
 41
1.0
 10
-1084.995411377344
 20
1508.670848135919
 30
0.0
 41
1.154700538379249
 10
-1080.745411377344
 20
1510.087514802585
 30
0.0
 41
1.0
  0
LINE
  5
18C
330
6C
100
AcDbEntity
  8
Widoczne (ISO)
100
AcDbLine
 10
-1081.595411377344
 20
1516.837577695219
 30
0.0
 11
-1080.745411377344
 21
1516.346829966408
 31
0.0
  0
LINE
  5
18D
330
6C
100
AcDbEntity
  8
Widoczne (ISO)
100
AcDbLine
 10
-1096.895411377344
 20
1516.837577695219
 30
0.0
 11
-1097.745411377344
 21
1516.346829966408
 31
0.0
  0
LINE
  5
18E
330
6C
100
AcDbEntity
  8
Widoczne (ISO)
100
AcDbLine
 10
-1096.895411377344
 20
1508.837577695219
 30
0.0
 11
-1097.745411377344
 21
1509.328325424031
 31
0.0
  0
LINE
  5
18F
330
6C
100
AcDbEntity
  8
Widoczne (ISO)
100
AcDbLine
 10
-1081.595411377344
 20
1508.837577695219
 30
0.0
 11
-1080.745411377344
 21
1509.328325424031
 31
0.0
  0
LINE
  5
190
330
6C
100
AcDbEntity
  8
Widoczne (ISO)
100
AcDbLine
 10
-1089.245411377344
 20
1515.587640587853
 30
0.0
 11
-1089.245411377344
 21
1510.087514802585
 31
0.0
  0
LINE
  5
191
330
6C
100
AcDbEntity
  8
Widoczne (ISO)
100
AcDbLine
 10
-1080.745411377344
 20
1515.587640587853
 30
0.0
 11
-1080.745411377344
 21
1510.087514802585
 31
0.0
  0
LINE
  5
192
330
6C
100
AcDbEntity
  8
Widoczne (ISO)
100
AcDbLine
 10
-1097.745411377344
 20
1515.587640587853
 30
0.0
 11
-1097.745411377344
 21
1510.087514802585
 31
0.0
  0
LINE
  5
193
330
6C
100
AcDbEntity
  8
Widoczne (ISO)
100
AcDbLine
 10
-1171.595411377344
 20
1516.837577695219
 30
0.0
 11
-1186.895411377344
 21
1516.837577695219
 31
0.0
  0
SPLINE
  5
194
330
6C
100
AcDbEntity
  8
Widoczne (ISO)
100
AcDbSpline
210
0.0
220
0.0
230
1.0
 70
    28
 71
     2
 72
     6
 73
     3
 74
     0
 42
0.0000000001
 43
0.0000000001
 40
0.0
 40
0.0
 40
0.0
 40
0.4965853586831167
 40
0.4965853586831167
 40
0.4965853586831167
 10
-1187.745411377345
 20
1515.587640587853
 30
0.0
 41
1.0
 10
-1187.745411377345
 20
1516.346829966408
 30
0.0
 41
1.077350269189625
 10
-1187.745411377345
 20
1516.346829966408
 30
0.0
 41
1.077350269189625
  0
SPLINE
  5
195
330
6C
100
AcDbEntity
  8
Widoczne (ISO)
100
AcDbSpline
210
0.0
220
0.0
230
1.0
 70
    12
 71
     2
 72
     6
 73
     3
 74
     0
 42
0.0000000001
 43
0.0000000001
 40
0.0
 40
0.0
 40
0.0
 40
0.9931707173662312
 40
0.9931707173662312
 40
0.9931707173662312
 10
-1179.245411377344
 20
1515.587640587853
 30
0.0
 41
1.0
 10
-1183.495411377344
 20
1517.00430725452
 30
0.0
 41
1.154700538379246
 10
-1187.745411377345
 20
1515.587640587853
 30
0.0
 41
1.0
  0
SPLINE
  5
196
330
6C
100
AcDbEntity
  8
Widoczne (ISO)
100
AcDbSpline
210
0.0
220
0.0
230
1.0
 70
    12
 71
     2
 72
     6
 73
     3
 74
     0
 42
0.0000000001
 43
0.0000000001
 40
0.0
 40
0.0
 40
0.0
 40
0.9931707173662275
 40
0.9931707173662275
 40
0.9931707173662275
 10
-1170.745411377345
 20
1515.587640587853
 30
0.0
 41
1.0
 10
-1174.995411377344
 20
1517.00430725452
 30
0.0
 41
1.154700538379248
 10
-1179.245411377344
 20
1515.587640587853
 30
0.0
 41
1.0
  0
SPLINE
  5
197
330
6C
100
AcDbEntity
  8
Widoczne (ISO)
100
AcDbSpline
210
0.0
220
0.0
230
1.0
 70
    28
 71
     2
 72
     6
 73
     3
 74
     0
 42
0.0000000001
 43
0.0000000001
 40
0.4965853586831104
 40
0.4965853586831104
 40
0.4965853586831104
 40
0.993170717366226
 40
0.993170717366226
 40
0.993170717366226
 10
-1170.745411377344
 20
1516.346829966408
 30
0.0
 41
1.077350269189623
 10
-1170.745411377344
 20
1516.346829966408
 30
0.0
 41
1.077350269189623
 10
-1170.745411377344
 20
1515.587640587853
 30
0.0
 41
1.0
  0
SPLINE
  5
198
330
6C
100
AcDbEntity
  8
Widoczne (ISO)
100
AcDbSpline
210
0.0
220
0.0
230
1.0
 70
    12
 71
     2
 72
     6
 73
     3
 74
     0
 42
0.0000000001
 43
0.0000000001
 40
0.0
 40
0.0
 40
0.0
 40
0.9931707173662299
 40
0.9931707173662299
 40
0.9931707173662299
 10
-1187.745411377345
 20
1510.087514802586
 30
0.0
 41
1.0
 10
-1183.495411377344
 20
1508.670848135919
 30
0.0
 41
1.15470053837925
 10
-1179.245411377344
 20
1510.087514802586
 30
0.0
 41
1.0
  0
SPLINE
  5
199
330
6C
100
AcDbEntity
  8
Widoczne (ISO)
100
AcDbSpline
210
0.0
220
0.0
230
1.0
 70
    28
 71
     2
 72
     6
 73
     3
 74
     0
 42
0.0000000001
 43
0.0000000001
 40
0.4965853586831165
 40
0.4965853586831165
 40
0.4965853586831165
 40
0.9931707173662321
 40
0.9931707173662321
 40
0.9931707173662321
 10
-1187.745411377345
 20
1509.328325424031
 30
0.0
 41
1.077350269189624
 10
-1187.745411377345
 20
1509.328325424031
 30
0.0
 41
1.077350269189623
 10
-1187.745411377345
 20
1510.087514802586
 30
0.0
 41
1.0
  0
SPLINE
  5
19A
330
6C
100
AcDbEntity
  8
Widoczne (ISO)
100
AcDbSpline
210
0.0
220
0.0
230
1.0
 70
    28
 71
     2
 72
     6
 73
     3
 74
     0
 42
0.0000000001
 43
0.0000000001
 40
0.0
 40
0.0
 40
0.0
 40
0.4965853586831149
 40
0.4965853586831149
 40
0.4965853586831149
 10
-1170.745411377344
 20
1510.087514802586
 30
0.0
 41
1.0
 10
-1170.745411377344
 20
1509.328325424031
 30
0.0
 41
1.077350269189624
 10
-1170.745411377344
 20
1509.328325424031
 30
0.0
 41
1.077350269189624
  0
SPLINE
  5
19B
330
6C
100
AcDbEntity
  8
Widoczne (ISO)
100
AcDbSpline
210
0.0
220
0.0
230
1.0
 70
    12
 71
     2
 72
     6
 73
     3
 74
     0
 42
0.0000000001
 43
0.0000000001
 40
0.0
 40
0.0
 40
0.0
 40
0.9931707173662276
 40
0.9931707173662276
 40
0.9931707173662276
 10
-1179.245411377344
 20
1510.087514802586
 30
0.0
 41
1.0
 10
-1174.995411377344
 20
1508.670848135919
 30
0.0
 41
1.154700538379249
 10
-1170.745411377345
 20
1510.087514802586
 30
0.0
 41
1.0
  0
LINE
  5
19C
330
6C
100
AcDbEntity
  8
Widoczne (ISO)
100
AcDbLine
 10
-1171.595411377344
 20
1516.837577695219
 30
0.0
 11
-1170.745411377344
 21
1516.346829966408
 31
0.0
  0
LINE
  5
19D
330
6C
100
AcDbEntity
  8
Widoczne (ISO)
100
AcDbLine
 10
-1186.895411377344
 20
1516.837577695219
 30
0.0
 11
-1187.745411377345
 21
1516.346829966408
 31
0.0
  0
LINE
  5
19E
330
6C
100
AcDbEntity
  8
Widoczne (ISO)
100
AcDbLine
 10
-1186.895411377344
 20
1508.837577695219
 30
0.0
 11
-1187.745411377345
 21
1509.328325424031
 31
0.0
  0
LINE
  5
19F
330
6C
100
AcDbEntity
  8
Widoczne (ISO)
100
AcDbLine
 10
-1171.595411377344
 20
1508.837577695219
 30
0.0
 11
-1170.745411377344
 21
1509.328325424031
 31
0.0
  0
LINE
  5
1A0
330
6C
100
AcDbEntity
  8
Widoczne (ISO)
100
AcDbLine
 10
-1179.245411377344
 20
1515.587640587853
 30
0.0
 11
-1179.245411377344
 21
1510.087514802586
 31
0.0
  0
LINE
  5
1A1
330
6C
100
AcDbEntity
  8
Widoczne (ISO)
100
AcDbLine
 10
-1170.745411377345
 20
1515.587640587853
 30
0.0
 11
-1170.745411377345
 21
1510.087514802586
 31
0.0
  0
LINE
  5
1A2
330
6C
100
AcDbEntity
  8
Widoczne (ISO)
100
AcDbLine
 10
-1187.745411377345
 20
1515.587640587853
 30
0.0
 11
-1187.745411377345
 21
1510.087514802586
 31
0.0
  0
LINE
  5
1A3
330
6C
100
AcDbEntity
  8
Widoczne (ISO)
100
AcDbLine
 10
-1151.108081752081
 20
1888.41280597779
 30
0.0
 11
-1406.108081752081
 21
1888.41280597779
 31
0.0
  0
LINE
  5
1A4
330
6C
100
AcDbEntity
  8
Widoczne (ISO)
100
AcDbLine
 10
-1101.108081752081
 20
2414.41280597779
 30
0.0
 11
-1456.10808175208
 21
2414.41280597779
 31
0.0
  0
LINE
  5
1A5
330
6C
100
AcDbEntity
  8
Widoczne (ISO)
100
AcDbLine
 10
-1121.108081752081
 20
2428.412805977791
 30
0.0
 11
-1436.10808175208
 21
2428.412805977791
 31
0.0
  0
LINE
  5
1A6
330
6C
100
AcDbEntity
  8
Widoczne (ISO)
100
AcDbLine
 10
-1406.108081752081
 20
1888.41280597779
 30
0.0
 11
-1433.052526196525
 21
2373.41280597779
 31
0.0
  0
LINE
  5
1A7
330
6C
100
AcDbEntity
  8
Widoczne (ISO)
100
AcDbLine
 10
-1151.108081752081
 20
1888.41280597779
 30
0.0
 11
-1124.163637307636
 21
2373.412805977789
 31
0.0
  0
LINE
  5
1A8
330
6C
100
AcDbEntity
  8
Widoczne (ISO)
100
AcDbLine
 10
-1456.108081752081
 20
2413.41280597779
 30
0.0
 11
-1456.108081752081
 21
2414.412805977791
 31
0.0
  0
LINE
  5
1A9
330
6C
100
AcDbEntity
  8
Widoczne (ISO)
100
AcDbLine
 10
-1101.108081752081
 20
2413.41280597779
 30
0.0
 11
-1101.108081752081
 21
2414.41280597779
 31
0.0
  0
LINE
  5
1AA
330
6C
100
AcDbEntity
  8
Widoczne (ISO)
100
AcDbLine
 10
-1435.330303974303
 20
2414.412805977791
 30
0.0
 11
-1436.10808175208
 21
2428.412805977791
 31
0.0
  0
LINE
  5
1AB
330
6C
100
AcDbEntity
  8
Widoczne (ISO)
100
AcDbLine
 10
-1121.885859529858
 20
2414.41280597779
 30
0.0
 11
-1121.108081752081
 21
2428.41280597779
 31
0.0
  0
LINE
  5
1AC
330
6C
100
AcDbEntity
  8
Widoczne (ISO)
100
AcDbLine
 10
-1340.420686528549
 20
2432.257741875927
 30
0.0
 11
-1340.422452407828
 21
2435.257741356205
 31
0.0
  0
LINE
  5
1AD
330
6C
100
AcDbEntity
  8
Widoczne (ISO)
100
AcDbLine
 10
-1340.420686528549
 20
2432.257741875927
 30
0.0
 11
-1057.420735555625
 21
2432.424323154638
 31
0.0
  0
LINE
  5
1AE
330
6C
100
AcDbEntity
  8
Widoczne (ISO)
100
AcDbLine
 10
-1340.4306931778
 20
2449.257738930838
 30
0.0
 11
-1340.422452407828
 21
2435.257741356205
 31
0.0
  0
LINE
  5
1AF
330
6C
100
AcDbEntity
  8
Widoczne (ISO)
100
AcDbLine
 10
-1025.432507869033
 20
2452.442429424927
 30
0.0
 11
-1025.47831241189
 21
2449.442779121333
 31
0.0
  0
LINE
  5
1B0
330
6C
100
AcDbEntity
  8
Widoczne (ISO)
100
AcDbLine
 10
-1025.432513627853
 20
2452.443155735476
 30
0.0
 11
-1196.747987382075
 21
2452.342314902879
 31
0.0
  0
LINE
  5
1B1
330
6C
100
AcDbEntity
  8
Widoczne (ISO)
100
AcDbLine
 10
-1340.4306931778
 20
2449.257738930838
 30
0.0
 11
-1340.43245905708
 21
2452.257738411115
 31
0.0
  0
ARC
  5
1B2
330
6C
100
AcDbEntity
  8
Widoczne (ISO)
100
AcDbCircle
 10
-1043.018533640551
 20
2348.698843128891
 30
0.0
 40
16.0
100
AcDbArc
 50
179.1251636784397
 51
359.1251636784396
  0
LINE
  5
1B3
330
6C
100
AcDbEntity
  8
Widoczne (ISO)
100
AcDbLine
 10
-1059.016668593054
 20
2348.943134024124
 30
0.0
 11
-1057.474582316896
 21
2449.931360911801
 31
0.0
  0
LINE
  5
1B4
330
6C
100
AcDbEntity
  8
Widoczne (ISO)
100
AcDbLine
 10
-1057.474582316896
 20
2449.931360911801
 30
0.0
 11
-1025.47831241189
 21
2449.442779121334
 31
0.0
  0
LINE
  5
1B5
330
6C
100
AcDbEntity
  8
Widoczne (ISO)
100
AcDbLine
 10
-1025.47831241189
 20
2449.442779121334
 30
0.0
 11
-1027.020398688048
 21
2348.454552233658
 31
0.0
  0
CIRCLE
  5
1B6
330
6C
100
AcDbEntity
  8
Widoczne (ISO)
100
AcDbCircle
 10
-1043.018533640551
 20
2348.698843128891
 30
0.0
 40
4.199999999999998
  0
CIRCLE
  5
1B7
330
6C
100
AcDbEntity
  8
Widoczne (ISO)
100
AcDbCircle
 10
-1043.018533640551
 20
2348.698843128891
 30
0.0
 40
7.999999999999997
  0
ARC
  5
1B8
330
6C
100
AcDbEntity
  8
Widoczne (ISO)
100
AcDbCircle
 10
-1341.423040861015
 20
2436.257152556538
 30
0.0
 40
4.000000000000017
100
AcDbArc
 50
180.0337258118974
 51
270.0337258118974
  0
ARC
  5
1B9
330
6C
100
AcDbEntity
  8
Widoczne (ISO)
100
AcDbCircle
 10
-1341.430104378133
 20
2448.257150477652
 30
0.0
 40
4.000000000000017
100
AcDbArc
 50
90.03372581189742
 51
180.0337258118974
  0
LINE
  5
1BA
330
6C
100
AcDbEntity
  8
Widoczne (ISO)
100
AcDbLine
 10
-1345.430103685171
 20
2448.254795971946
 30
0.0
 11
-1345.423040168052
 21
2436.254798050832
 31
0.0
  0
LINE
  5
1BB
330
6C
100
AcDbEntity
  8
Widoczne (ISO)
100
AcDbLine
 10
-1341.420686355308
 20
2432.257153249501
 30
0.0
 11
-1340.420686528549
 21
2432.257741875927
 31
0.0
  0
LINE
  5
1BC
330
6C
100
AcDbEntity
  8
Widoczne (ISO)
100
AcDbLine
 10
-1340.43245905708
 20
2452.257738411116
 30
0.0
 11
-1340.4306931778
 21
2449.257738930838
 31
0.0
  0
LINE
  5
1BD
330
6C
100
AcDbEntity
  8
Widoczne (ISO)
100
AcDbLine
 10
-1340.422452407828
 20
2435.257741356206
 30
0.0
 11
-1340.420686528549
 21
2432.257741875927
 31
0.0
  0
LINE
  5
1BE
330
6C
100
AcDbEntity
  8
Widoczne (ISO)
100
AcDbLine
 10
-1340.4306931778
 20
2449.257738930838
 30
0.0
 11
-1340.422452407828
 21
2435.257741356206
 31
0.0
  0
ARC
  5
1BF
330
6C
100
AcDbEntity
  8
Widoczne (ISO)
100
AcDbCircle
 10
-1024.49369715831
 20
2448.427627505851
 30
0.0
 40
4.000000000000016
100
AcDbArc
 50
359.125163678438
 51
89.12516367843787
  0
ARC
  5
1C0
330
6C
100
AcDbEntity
  8
Widoczne (ISO)
100
AcDbCircle
 10
-1024.676915329735
 20
2436.429026291473
 30
0.0
 40
4.000000000000016
100
AcDbArc
 50
269.1251636784379
 51
359.125163678438
  0
LINE
  5
1C1
330
6C
100
AcDbEntity
  8
Widoczne (ISO)
100
AcDbLine
 10
-1020.677381591609
 20
2436.367953567665
 30
0.0
 11
-1020.494163420184
 21
2448.366554782043
 31
0.0
  0
LINE
  5
1C2
330
6C
100
AcDbEntity
  8
Widoczne (ISO)
100
AcDbLine
 10
-1024.432624434502
 20
2452.427161243976
 30
0.0
 11
-1025.432507869034
 21
2452.442429424929
 31
0.0
  0
LINE
  5
1C3
330
6C
100
AcDbEntity
  8
Widoczne (ISO)
100
AcDbLine
 10
-1025.47831241189
 20
2449.442779121334
 30
0.0
 11
-1025.432507869034
 21
2452.442429424929
 31
0.0
  0
LINE
  5
1C4
330
6C
100
AcDbEntity
  8
Widoczne (ISO)
100
AcDbLine
 10
-1025.737871488075
 20
2432.4447607343
 30
0.0
 11
-1024.737988053543
 21
2432.429492553348
 31
0.0
  0
ARC
  5
1C5
330
6C
100
AcDbEntity
  8
Widoczne (ISO)
100
AcDbCircle
 10
-1091.536147216967
 20
2404.060377704891
 30
0.0
 40
3.999999999999995
100
AcDbArc
 50
84.99999999999934
 51
174.9999999999993
  0
ARC
  5
1C6
330
6C
100
AcDbEntity
  8
Widoczne (ISO)
100
AcDbCircle
 10
-1019.810128954361
 20
2397.785164227059
 30
0.0
 40
3.999999999999997
100
AcDbArc
 50
354.9999999999993
 51
84.99999999999939
  0
LINE
  5
1C7
330
6C
100
AcDbEntity
  8
Widoczne (ISO)
100
AcDbLine
 10
-1019.461505983371
 20
2401.769943019427
 30
0.0
 11
-1026.197276113454
 21
2402.359246545926
 31
0.0
  0
LINE
  5
1C8
330
6C
100
AcDbEntity
  8
Widoczne (ISO)
100
AcDbLine
 10
-1058.158308351135
 20
2405.155474541309
 30
0.0
 11
-1091.187524245976
 21
2408.045156497258
 31
0.0
  0
LINE
  5
1C9
330
6C
100
AcDbEntity
  8
Widoczne (ISO)
100
AcDbLine
 10
-1095.520926009334
 20
2404.409000675882
 30
0.0
 11
-1095.608081752082
 21
2403.41280597779
 31
0.0
  0
LINE
  5
1CA
330
6C
100
AcDbEntity
  8
Widoczne (ISO)
100
AcDbLine
 10
-1015.912505904742
 20
2396.440346557977
 30
0.0
 11
-1018.901089999017
 21
2396.70181378622
 31
0.0
  0
LINE
  5
1CB
330
6C
100
AcDbEntity
  8
Widoczne (ISO)
100
AcDbLine
 10
-1092.619497657806
 20
2403.151338749547
 30
0.0
 11
-1095.608081752082
 21
2403.41280597779
 31
0.0
  0
LINE
  5
1CC
330
6C
100
AcDbEntity
  8
Widoczne (ISO)
100
AcDbLine
 10
-1015.912505904742
 20
2396.440346557977
 30
0.0
 11
-1015.825350161994
 21
2397.436541256069
 31
0.0
  0
LINE
  5
1CD
330
6C
100
AcDbEntity
  8
Widoczne (ISO)
100
AcDbLine
 10
-1018.901089999017
 20
2396.70181378622
 30
0.0
 11
-1026.273815309393
 21
2397.346843670169
 31
0.0
  0
LINE
  5
1CE
330
6C
100
AcDbEntity
  8
Widoczne (ISO)
100
AcDbLine
 10
-1058.234847547074
 20
2400.143071665552
 30
0.0
 11
-1092.619497657806
 21
2403.151338749547
 31
0.0
  0
LINE
  5
1CF
330
6C
100
AcDbEntity
  8
Widoczne (ISO)
100
AcDbLine
 10
-1196.747987382075
 20
2452.342314902881
 30
0.0
 11
-1355.932456371851
 21
2452.248614701506
 31
0.0
  0
LINE
  5
1D0
330
6C
100
AcDbEntity
  8
Widoczne (ISO)
100
AcDbLine
 10
-1355.937165383264
 20
2460.248613315581
 30
0.0
 11
-1194.937193274992
 21
2460.343382170255
 31
0.0
  0
ARC
  5
1D1
330
6C
100
AcDbEntity
  8
Widoczne (ISO)
100
AcDbCircle
 10
-1355.933633624704
 20
2454.248614355024
 30
0.0
 40
2.0
100
AcDbArc
 50
180.0337258118978
 51
270.033725811897
  0
ARC
  5
1D2
330
6C
100
AcDbEntity
  8
Widoczne (ISO)
100
AcDbCircle
 10
-1194.933661516433
 20
2454.343383209698
 30
0.0
 40
2.0
100
AcDbArc
 50
270.033725811897
 51
0.0337258118978384
  0
ARC
  5
1D3
330
6C
100
AcDbEntity
  8
Widoczne (ISO)
100
AcDbCircle
 10
-1355.935988130411
 20
2458.248613662063
 30
0.0
 40
2.0
100
AcDbArc
 50
90.03372581189742
 51
180.0337258118978
  0
ARC
  5
1D4
330
6C
100
AcDbEntity
  8
Widoczne (ISO)
100
AcDbCircle
 10
-1194.936016022139
 20
2458.343382516736
 30
0.0
 40
2.0
100
AcDbArc
 50
0.0337258118978384
 51
90.03372581189742
  0
LINE
  5
1D5
330
6C
100
AcDbEntity
  8
Widoczne (ISO)
100
AcDbLine
 10
-1357.933633278223
 20
2454.247437102171
 30
0.0
 11
-1357.935987783929
 21
2458.247436409209
 31
0.0
  0
LINE
  5
1D6
330
6C
100
AcDbEntity
  8
Widoczne (ISO)
100
AcDbLine
 10
-1192.933661862914
 20
2454.344560462551
 30
0.0
 11
-1192.93601636862
 21
2458.344559769589
 31
0.0
  0
LINE
  5
1D7
330
6C
100
AcDbEntity
  8
Widoczne (ISO)
100
AcDbLine
 10
-1238.537774348131
 20
2461.317717884817
 30
0.0
 11
-1232.337775422222
 21
2461.321367368661
 31
0.0
  0
ARC
  5
1D8
330
6C
100
AcDbEntity
  8
Widoczne (ISO)
100
AcDbCircle
 10
-1238.537244584347
 20
2460.417718040734
 30
0.0
 40
0.8999999999999966
100
AcDbArc
 50
90.03372581188806
 51
180.0337258118995
  0
ARC
  5
1D9
330
6C
100
AcDbEntity
  8
Widoczne (ISO)
100
AcDbCircle
 10
-1232.337245658438
 20
2460.421367524578
 30
0.0
 40
0.8999999999999968
100
AcDbArc
 50
0.0337258118994669
 51
90.03372581189946
  0
LINE
  5
1DA
330
6C
100
AcDbEntity
  8
Widoczne (ISO)
100
AcDbLine
 10
-1231.437245814355
 20
2460.421897288362
 30
0.0
 11
-1231.437186951712
 21
2460.321897305686
 31
0.0
  0
LINE
  5
1DB
330
6C
100
AcDbEntity
  8
Widoczne (ISO)
100
AcDbLine
 10
-1239.43724442843
 20
2460.41718827695
 30
0.0
 11
-1239.437185565788
 21
2460.317188294274
 31
0.0
  0
LINE
  5
1DC
102
{ACAD_REACTORS
330
8D4
102
}
330
6C
100
AcDbEntity
  8
Widoczne (ISO)
100
AcDbLine
 10
-574.1435769862155
 20
1698.93757769522
 30
0.0
 11
-1660.49950050258
 21
1698.937577695219
 31
0.0
  0
SPLINE
  5
1E0
330
6C
100
AcDbEntity
  8
Widoczne (ISO)
100
AcDbSpline
210
0.0
220
0.0
230
1.0
 70
    28
 71
     2
 72
     6
 73
     3
 74
     0
 42
0.0000000001
 43
0.0000000001
 40
0.4978532609589537
 40
0.4978532609589537
 40
0.4978532609589537
 40
0.9957065219179071
 40
0.9957065219179071
 40
0.9957065219179071
 10
-1049.921704144152
 20
2382.94534616483
 30
0.0
 41
1.0
 10
-1048.78292007632
 20
2384.917778029165
 30
0.0
 41
1.037954849302035
 10
-1047.467965500096
 20
2387.19534616483
 30
0.0
 41
1.0
  0
ARC
  5
1E1
330
6C
100
AcDbEntity
  8
Widoczne (ISO)
100
AcDbCircle
 10
-1042.560488211984
 20
2378.69534616483
 30
0.0
 40
8.500000000000028
100
AcDbArc
 50
90.0
 51
150.0000000000001
  0
SPLINE
  5
1E2
330
6C
100
AcDbEntity
  8
Widoczne (ISO)
100
AcDbSpline
210
0.0
220
0.0
230
1.0
 70
    28
 71
     2
 72
     6
 73
     3
 74
     0
 42
0.0000000001
 43
0.0000000001
 40
0.0
 40
0.0
 40
0.0
 40
0.4978532609589536
 40
0.4978532609589536
 40
0.4978532609589536
 10
-1047.467965500096
 20
2387.19534616483
 30
0.0
 41
1.0
 10
-1044.838056347649
 20
2387.19534616483
 30
0.0
 41
1.037954849302054
 10
-1042.560488211984
 20
2387.19534616483
 30
0.0
 41
1.0
  0
SPLINE
  5
1E3
330
6C
100
AcDbEntity
  8
Widoczne (ISO)
100
AcDbSpline
210
0.0
220
0.0
230
1.0
 70
    28
 71
     2
 72
     6
 73
     3
 74
     0
 42
0.0000000001
 43
0.0000000001
 40
0.0
 40
0.0
 40
0.0
 40
0.4978532609589533
 40
0.4978532609589533
 40
0.4978532609589533
 10
-1037.653010923872
 20
2387.19534616483
 30
0.0
 41
1.0
 10
-1036.338056347649
 20
2384.917778029165
 30
0.0
 41
1.037954849302054
 10
-1035.199272279817
 20
2382.94534616483
 30
0.0
 41
1.0
  0
SPLINE
  5
1E4
330
6C
100
AcDbEntity
  8
Widoczne (ISO)
100
AcDbSpline
210
0.0
220
0.0
230
1.0
 70
    28
 71
     2
 72
     6
 73
     3
 74
     0
 42
0.0000000001
 43
0.0000000001
 40
0.4978532609589536
 40
0.4978532609589536
 40
0.4978532609589536
 40
0.9957065219179071
 40
0.9957065219179071
 40
0.9957065219179071
 10
-1042.560488211984
 20
2387.19534616483
 30
0.0
 41
1.0
 10
-1040.28292007632
 20
2387.19534616483
 30
0.0
 41
1.037954849302056
 10
-1037.653010923872
 20
2387.19534616483
 30
0.0
 41
1.0
  0
ARC
  5
1E5
330
6C
100
AcDbEntity
  8
Widoczne (ISO)
100
AcDbCircle
 10
-1042.560488211984
 20
2378.69534616483
 30
0.0
 40
8.500000000000031
100
AcDbArc
 50
29.99999999999989
 51
90.0
  0
SPLINE
  5
1E6
330
6C
100
AcDbEntity
  8
Widoczne (ISO)
100
AcDbSpline
210
0.0
220
0.0
230
1.0
 70
    28
 71
     2
 72
     6
 73
     3
 74
     0
 42
0.0000000001
 43
0.0000000001
 40
0.4978532609589542
 40
0.4978532609589542
 40
0.4978532609589542
 40
0.9957065219179085
 40
0.9957065219179085
 40
0.9957065219179085
 10
-1049.921704144152
 20
2374.445346164829
 30
0.0
 41
1.0
 10
-1051.060488211984
 20
2376.417778029165
 30
0.0
 41
1.037954849302014
 10
-1052.375442788208
 20
2378.69534616483
 30
0.0
 41
1.0
  0
ARC
  5
1E7
330
6C
100
AcDbEntity
  8
Widoczne (ISO)
100
AcDbCircle
 10
-1042.560488211984
 20
2378.69534616483
 30
0.0
 40
8.500000000000024
100
AcDbArc
 50
150.0000000000001
 51
210.0000000000005
  0
SPLINE
  5
1E8
330
6C
100
AcDbEntity
  8
Widoczne (ISO)
100
AcDbSpline
210
0.0
220
0.0
230
1.0
 70
    28
 71
     2
 72
     6
 73
     3
 74
     0
 42
0.0000000001
 43
0.0000000001
 40
0.0
 40
0.0
 40
0.0
 40
0.4978532609589537
 40
0.4978532609589537
 40
0.4978532609589537
 10
-1052.375442788208
 20
2378.69534616483
 30
0.0
 41
1.0
 10
-1051.060488211984
 20
2380.972914300494
 30
0.0
 41
1.037954849302049
 10
-1049.921704144152
 20
2382.94534616483
 30
0.0
 41
1.0
  0
SPLINE
  5
1E9
330
6C
100
AcDbEntity
  8
Widoczne (ISO)
100
AcDbSpline
210
0.0
220
0.0
230
1.0
 70
    28
 71
     2
 72
     6
 73
     3
 74
     0
 42
0.0000000001
 43
0.0000000001
 40
0.0
 40
0.0
 40
0.0
 40
0.4978532609589534
 40
0.4978532609589534
 40
0.4978532609589534
 10
-1032.74553363576
 20
2378.69534616483
 30
0.0
 41
1.0
 10
-1034.060488211984
 20
2376.417778029165
 30
0.0
 41
1.037954849302042
 10
-1035.199272279817
 20
2374.445346164829
 30
0.0
 41
1.0
  0
SPLINE
  5
1EA
330
6C
100
AcDbEntity
  8
Widoczne (ISO)
100
AcDbSpline
210
0.0
220
0.0
230
1.0
 70
    28
 71
     2
 72
     6
 73
     3
 74
     0
 42
0.0000000001
 43
0.0000000001
 40
0.4978532609589533
 40
0.4978532609589533
 40
0.4978532609589533
 40
0.9957065219179067
 40
0.9957065219179067
 40
0.9957065219179067
 10
-1035.199272279817
 20
2382.94534616483
 30
0.0
 41
1.0
 10
-1034.060488211984
 20
2380.972914300494
 30
0.0
 41
1.037954849302048
 10
-1032.74553363576
 20
2378.69534616483
 30
0.0
 41
1.0
  0
ARC
  5
1EB
330
6C
100
AcDbEntity
  8
Widoczne (ISO)
100
AcDbCircle
 10
-1042.560488211984
 20
2378.69534616483
 30
0.0
 40
8.500000000000024
100
AcDbArc
 50
330.0000000000001
 51
30.00000000000046
  0
SPLINE
  5
1EC
330
6C
100
AcDbEntity
  8
Widoczne (ISO)
100
AcDbSpline
210
0.0
220
0.0
230
1.0
 70
    28
 71
     2
 72
     6
 73
     3
 74
     0
 42
0.0000000001
 43
0.0000000001
 40
0.4978532609589534
 40
0.4978532609589534
 40
0.4978532609589534
 40
0.9957065219179066
 40
0.9957065219179066
 40
0.9957065219179066
 10
-1042.560488211984
 20
2370.195346164829
 30
0.0
 41
1.0
 10
-1044.838056347649
 20
2370.195346164829
 30
0.0
 41
1.037954849302054
 10
-1047.467965500096
 20
2370.195346164829
 30
0.0
 41
1.0
  0
ARC
  5
1ED
330
6C
100
AcDbEntity
  8
Widoczne (ISO)
100
AcDbCircle
 10
-1042.560488211984
 20
2378.69534616483
 30
0.0
 40
8.500000000000026
100
AcDbArc
 50
209.9999999999999
 51
270.0
  0
SPLINE
  5
1EE
330
6C
100
AcDbEntity
  8
Widoczne (ISO)
100
AcDbSpline
210
0.0
220
0.0
230
1.0
 70
    28
 71
     2
 72
     6
 73
     3
 74
     0
 42
0.0000000001
 43
0.0000000001
 40
0.0
 40
0.0
 40
0.0
 40
0.4978532609589542
 40
0.4978532609589542
 40
0.4978532609589542
 10
-1047.467965500096
 20
2370.195346164829
 30
0.0
 41
1.0
 10
-1048.78292007632
 20
2372.472914300494
 30
0.0
 41
1.037954849302022
 10
-1049.921704144152
 20
2374.445346164829
 30
0.0
 41
1.0
  0
SPLINE
  5
1EF
330
6C
100
AcDbEntity
  8
Widoczne (ISO)
100
AcDbSpline
210
0.0
220
0.0
230
1.0
 70
    28
 71
     2
 72
     6
 73
     3
 74
     0
 42
0.0000000001
 43
0.0000000001
 40
0.0
 40
0.0
 40
0.0
 40
0.4978532609589534
 40
0.4978532609589534
 40
0.4978532609589534
 10
-1037.653010923872
 20
2370.195346164829
 30
0.0
 41
1.0
 10
-1040.28292007632
 20
2370.195346164829
 30
0.0
 41
1.037954849302043
 10
-1042.560488211984
 20
2370.195346164829
 30
0.0
 41
1.0
  0
SPLINE
  5
1F0
330
6C
100
AcDbEntity
  8
Widoczne (ISO)
100
AcDbSpline
210
0.0
220
0.0
230
1.0
 70
    28
 71
     2
 72
     6
 73
     3
 74
     0
 42
0.0000000001
 43
0.0000000001
 40
0.4978532609589534
 40
0.4978532609589534
 40
0.4978532609589534
 40
0.9957065219179067
 40
0.9957065219179067
 40
0.9957065219179067
 10
-1035.199272279817
 20
2374.445346164829
 30
0.0
 41
1.0
 10
-1036.338056347649
 20
2372.472914300494
 30
0.0
 41
1.037954849302043
 10
-1037.653010923872
 20
2370.195346164829
 30
0.0
 41
1.0
  0
ARC
  5
1F1
330
6C
100
AcDbEntity
  8
Widoczne (ISO)
100
AcDbCircle
 10
-1042.560488211984
 20
2378.69534616483
 30
0.0
 40
8.500000000000023
100
AcDbArc
 50
270.0
 51
330.0000000000001
  0
DIMENSION
  5
25E
330
6C
100
AcDbEntity
  8
Wymiar (ISO)
100
AcDbDimension
  2
*D6
 10
-677.1886429230788
 20
1398.837577695219
 30
0.0
 11
-677.1886429230789
 21
1448.837577695219
 31
0.0
 70
   160
  1
<>
 71
     2
 42
100.0
  3
Domyślne (ISO)
100
AcDbAlignedDimension
 13
-959.2454113773445
 23
1498.837577695219
 33
0.0
 14
-949.2454113773447
 24
1398.837577695219
 34
0.0
 50
270.0
100
AcDbRotatedDimension
1001
ACAD
1000
DSTYLE
1002
{
1070
   172
1070
     0
1070
   289
1070
     1
1070
    74
1070
     0
1070
   271
1070
     0
1070
   272
1070
     0
1070
    48
1040
0.0
1070
    47
1040
0.0
1002
}
  0
DIMENSION
  5
347
330
6C
100
AcDbEntity
  8
Wymiar (ISO)
100
AcDbDimension
  2
*D7
 10
-949.2454113773446
 20
1200.632463111046
 30
0.0
 11
-1134.245411377345
 21
1200.632463111046
 31
0.0
 70
   160
  1
<>
 71
     2
 42
369.9999999999999
  3
Domyślne (ISO)
100
AcDbAlignedDimension
 13
-1319.245411377344
 23
1398.837577695219
 33
0.0
 14
-949.2454113773446
 24
1398.837577695219
 34
0.0
 50
180.0
100
AcDbRotatedDimension
1001
ACAD
1000
DSTYLE
1002
{
1070
   172
1070
     0
1070
   289
1070
     1
1070
    74
1070
     0
1070
   271
1070
     0
1070
   272
1070
     0
1070
    48
1040
0.0
1070
    47
1040
0.0
1002
}
  0
DIMENSION
  5
429
330
6C
100
AcDbEntity
  8
Wymiar (ISO)
100
AcDbDimension
  2
*D8
 10
-677.1886429230788
 20
1498.837577695219
 30
0.0
 11
-677.1886429230789
 21
1598.887577695219
 31
0.0
 70
   160
  1
<>
 71
     2
 42
200.1000000000001
  3
Domyślne (ISO)
100
AcDbAlignedDimension
 13
-677.1886429230789
 23
1698.937577695219
 33
0.0
 14
-959.2454113773445
 24
1498.837577695219
 34
0.0
 50
90.0
100
AcDbRotatedDimension
1001
ACAD
1000
DSTYLE
1002
{
1070
   172
1070
     0
1070
   289
1070
     1
1070
    74
1070
     0
1070
   271
1070
     0
1070
    75
1070
     1
1070
   272
1070
     0
1070
    48
1040
0.0
1070
    47
1040
0.0
1002
}
  0
DIMENSION
  5
5F3
330
6C
100
AcDbEntity
  8
Wymiar (ISO)
100
AcDbDimension
  2
*D10
 10
-1458.608081752441
 20
448.2464361761687
 30
0.0
 11
-1243.418607826948
 21
448.2464361761687
 31
0.0
 70
   160
  1
<>
 71
     2
 42
442.7979527977185
  3
Domyślne (ISO)
100
AcDbAlignedDimension
 13
-1015.810128954722
 23
700.4417494177165
 33
0.0
 14
-1458.608081752441
 24
717.4379441158123
 34
0.0
 50
180.0
100
AcDbRotatedDimension
1001
ACAD
1000
DSTYLE
1002
{
1070
   172
1070
     0
1070
   289
1070
     1
1070
    74
1070
     0
1070
   271
1070
     0
1070
   272
1070
     0
1070
    48
1040
0.0
1070
    47
1040
0.0
1002
}
  0
DIMENSION
  5
6D5
330
6C
100
AcDbEntity
  8
Wymiar (ISO)
100
AcDbDimension
  2
*D11
 10
-1512.084782116671
 20
537.4379441158131
 30
0.0
 11
-1512.084782116672
 21
717.4379441158126
 31
0.0
 70
   160
  1
<>
 71
     2
 42
359.9999999999991
  3
Domyślne (ISO)
100
AcDbAlignedDimension
 13
-1278.608081752441
 23
897.437944115812
 33
0.0
 14
-1278.608081752441
 24
537.437944115813
 34
0.0
 50
90.0
100
AcDbRotatedDimension
1001
ACAD
1000
DSTYLE
1002
{
1070
   172
1070
     0
1070
   289
1070
     1
1070
    74
1070
     0
1070
   271
1070
     0
1070
   272
1070
     0
1070
    48
1040
0.0
1070
    47
1040
0.0
1002
}
  0
INSERT
  5
8EA
330
6C
100
AcDbEntity
  8
0
100
AcDbBlockReference
  2
*U14
 10
299.2964501330371
 20
-855.5755120541153
 30
0.0
  0
DIMENSION
  5
962
330
6C
100
AcDbEntity
  8
Wymiar (ISO)
100
AcDbDimension
  2
*D16
 10
-1577.25653555794
 20
1698.93757769522
 30
0.0
 11
-1577.256535557941
 21
2101.170227823176
 31
0.0
 70
   160
  1
<>
 71
     2
 42
761.3110356203614
  3
Domyślne (ISO)
100
AcDbAlignedDimension
 13
-1355.937165383264
 23
2460.248613315581
 33
0.0
 14
-1415.11161540023
 24
1698.937577695219
 34
0.0
 50
90.0
100
AcDbRotatedDimension
1001
ACAD
1000
DSTYLE
1002
{
1070
   172
1070
     0
1070
   289
1070
     1
1070
    74
1070
     0
1070
   271
1070
     0
1070
   272
1070
     0
1070
    48
1040
0.0
1070
    47
1040
0.0
1002
}
  0
INSERT
  5
A53
330
6C
100
AcDbEntity
  8
0
100
AcDbBlockReference
  2
212-213_Kosz-na-smieci-EKO
 10
-1015.810128954722
 20
717.4379441158085
 30
0.0
  0
ENDSEC
  0
SECTION
  2
OBJECTS
  0
DICTIONARY
  5
C
330
0
100
AcDbDictionary
281
     1
  3
ACAD_ASSOCNETWORK
350
8D1
  3
ACAD_COLOR
350
63
  3
ACAD_GROUP
350
D
  3
ACAD_LAYOUT
350
62
  3
ACAD_MATERIAL
350
10
  3
ACAD_MLEADERSTYLE
350
66
  3
ACAD_MLINESTYLE
350
5F
  3
ACAD_PLOTSETTINGS
350
61
  3
ACAD_PLOTSTYLENAME
350
E
  3
ACAD_SCALELIST
350
42
  3
ACAD_TABLESTYLE
350
64
  3
ACAD_VISUALSTYLE
350
29
  3
ACDB_RECOMPOSE_DATA
350
A5F
  3
AcDbVariableDictionary
350
7F8
  3
AcmDictionary
350
87F
  3
AMG
350
831
  3
AMGSNAPSETTINGS
350
8C0
  3
DWGPROPS
350
A60
  0
DICTIONARY
  5
8E0
330
2
100
AcDbDictionary
280
     1
281
     1
  3
ACAD_LAYERSTATES
360
8E1
  0
DICTIONARY
  5
8CE
330
6C
100
AcDbDictionary
280
     1
281
     1
  3
ACAD_ASSOCNETWORK
360
8CF
  3
ACAD_SORTENTS
360
937
  0
DICTIONARY
  5
8D8
330
8D7
100
AcDbDictionary
280
     1
281
     1
  3
ACAD_SORTENTS
360
8F9
  0
DICTIONARY
  5
8D1
102
{ACAD_REACTORS
330
C
102
}
330
C
100
AcDbDictionary
281
     1
  3
ACAD_ASSOCNETWORK
350
8D2
  0
DICTIONARY
  5
63
102
{ACAD_REACTORS
330
C
102
}
330
C
100
AcDbDictionary
281
     1
  0
DICTIONARY
  5
D
102
{ACAD_REACTORS
330
C
102
}
330
C
100
AcDbDictionary
281
     1
  0
DICTIONARY
  5
62
102
{ACAD_REACTORS
330
C
102
}
330
C
100
AcDbDictionary
281
     1
  3
Layout1
350
6B
  3
Layout2
350
73
  3
Model
350
6F
  0
DICTIONARY
  5
10
102
{ACAD_REACTORS
330
C
102
}
330
C
100
AcDbDictionary
281
     1
  3
ByBlock
350
19
  3
ByLayer
350
11
  3
Global
350
21
  0
DICTIONARY
  5
66
102
{ACAD_REACTORS
330
C
102
}
330
C
100
AcDbDictionary
281
     1
  3
Standard
350
67
  0
DICTIONARY
  5
5F
102
{ACAD_REACTORS
330
C
102
}
330
C
100
AcDbDictionary
281
     1
  3
Standard
350
60
  0
DICTIONARY
  5
61
102
{ACAD_REACTORS
330
C
102
}
330
C
100
AcDbDictionary
281
     1
  0
ACDBDICTIONARYWDFLT
  5
E
102
{ACAD_REACTORS
330
C
102
}
330
C
100
AcDbDictionary
281
     1
  3
Normal
350
F
100
AcDbDictionaryWithDefault
340
F
  0
DICTIONARY
  5
42
102
{ACAD_REACTORS
330
C
102
}
330
C
100
AcDbDictionary
281
     1
  3
A0
350
43
  3
A1
350
44
  3
A2
350
45
  3
A3
350
46
  3
A4
350
47
  3
A5
350
48
  3
A6
350
49
  3
A7
350
4A
  3
A8
350
4B
  3
A9
350
4C
  3
B0
350
4D
  3
B1
350
4E
  3
B2
350
4F
  3
B3
350
50
  3
B4
350
51
  3
B5
350
52
  3
B6
350
53
  0
DICTIONARY
  5
64
102
{ACAD_REACTORS
330
C
102
}
330
C
100
AcDbDictionary
281
     1
  3
Standard
350
65
  0
DICTIONARY
  5
29
102
{ACAD_REACTORS
330
C
102
}
330
C
100
AcDbDictionary
281
     1
  3
2dWireframe
350
2F
  3
Basic
350
2E
  3
Brighten
350
35
  3
ColorChange
350
39
  3
Conceptual
350
32
  3
Dim
350
34
  3
EdgeColorOff
350
41
  3
Facepattern
350
38
  3
Flat
350
2A
  3
FlatWithEdges
350
2B
  3
Gouraud
350
2C
  3
GouraudWithEdges
350
2D
  3
Hidden
350
31
  3
JitterOff
350
3F
  3
Linepattern
350
37
  3
OverhangOff
350
40
  3
Realistic
350
33
  3
Shaded
350
3E
  3
Shaded with edges
350
3D
  3
Shades of Gray
350
3A
  3
Sketchy
350
3B
  3
Thicken
350
36
  3
Wireframe
350
30
  3
X-Ray
350
3C
  0
XRECORD
  5
A5F
102
{ACAD_REACTORS
330
C
102
}
330
C
100
AcDbXrecord
280
     1
 90
        1
330
65
  0
DICTIONARY
  5
7F8
102
{ACAD_REACTORS
330
C
102
}
330
C
100
AcDbDictionary
281
     1
  3
CANNOSCALE
350
7FB
  3
CMLEADERSTYLE
350
7FA
  3
CTABLESTYLE
350
7F9
  3
DIMASSOC
350
A5B
  3
HIDETEXT
350
A5A
  3
INDEXCTL
350
A59
  3
LAYEREVAL
350
A56
  3
LAYERNOTIFY
350
A57
  3
LIGHTINGUNITS
350
A55
  3
MSLTSCALE
350
A54
  3
SORTENTS
350
A58
  3
XCLIPFRAME
350
A5C
  0
DICTIONARY
  5
87F
102
{ACAD_REACTORS
330
C
102
}
330
C
100
AcDbDictionary
281
     1
  3
AcmStdDictionary
350
88A
  0
DICTIONARY
  5
831
102
{ACAD_REACTORS
330
C
102
}
330
C
100
AcDbDictionary
281
     1
  0
DICTIONARY
  5
8C0
102
{ACAD_REACTORS
330
C
102
}
330
C
100
AcDbDictionary
281
     1
  0
XRECORD
  5
A60
102
{ACAD_REACTORS
330
C
102
}
330
C
100
AcDbXrecord
280
     1
  1
DWGPROPS COOKIE
  2

  3

  4
Maruszak Marcin
  6

  7

  8
GRAFIK
  9

300
Menadżer=
301
Firma=
302
Kategoria=
303
Numer części=
304
Opis=
305
Projekt=
306
Projektant=Maruszak Marcin
307
Inżynier=
308
Zatwierdził=
309
Centrum kosztów=
 40
0.0057225347222222
 41
2456762.41250272
 42
2459858.504111782
  1

 90
       16
300
Dostawca=
300
Stan użytkownika=
300
Stan projektu=PracaWToku
300
Sprawdził=
300
Zatwierdził konstrukcję=Muller
300
Zatwierdził do produkcji=
  0
DICTIONARY
  5
8E1
102
{ACAD_REACTORS
330
8E0
102
}
330
8E0
100
AcDbDictionary
281
     1
  0
DICTIONARY
  5
8CF
102
{ACAD_REACTORS
330
8CE
102
}
330
8CE
100
AcDbDictionary
281
     1
  3
ACAD_ASSOCNETWORK
350
8D0
  0
SORTENTSTABLE
  5
937
102
{ACAD_REACTORS
330
8CE
102
}
330
8CE
100
AcDbSortentsTable
330
6C
331
1A9
  5
1AA
331
1A5
  5
1A6
331
1E4
  5
1E5
331
25E
  5
347
331
1A1
  5
1A2
331
1E0
  5
1E1
331
16E
  5
16F
331
16A
  5
16B
331
19D
  5
19E
331
1DC
  5
1E0
331
1D8
  5
1D9
331
199
  5
19A
331
195
  5
196
331
1D4
  5
1D5
331
191
  5
192
331
1D0
  5
1D1
331
166
  5
167
331
162
  5
163
331
15E
  5
15F
331
15A
  5
15B
331
6D5
  5
8EA
331
18D
  5
18E
331
1CC
  5
1CD
331
1C8
  5
1C9
331
189
  5
18A
331
1C4
  5
1C5
331
185
  5
186
331
181
  5
182
331
1C0
  5
1C1
331
156
  5
157
331
17D
  5
17E
331
1BC
  5
1BD
331
179
  5
17A
331
1B8
  5
1B9
331
1B4
  5
1B5
331
1EF
  5
1F0
331
175
  5
176
331
171
  5
172
331
1B0
  5
1B1
331
1EB
  5
1EC
331
1AC
  5
1AD
331
1E7
  5
1E8
331
1A8
  5
1A9
331
1A4
  5
1A5
331
1E3
  5
1E4
331
1A0
  5
1A1
331
16D
  5
16E
331
169
  5
16A
331
429
  5
50E
331
19C
  5
19D
331
1DB
  5
1DC
331
1D7
  5
1D8
331
198
  5
199
331
194
  5
195
331
1D3
  5
1D4
331
190
  5
191
331
165
  5
166
331
161
  5
162
331
15D
  5
15E
331
159
  5
15A
331
1CF
  5
1D0
331
18C
  5
18D
331
1CB
  5
1CC
331
1C7
  5
1C8
331
188
  5
189
331
184
  5
185
331
1C3
  5
1C4
331
180
  5
181
331
155
  5
156
331
1BF
  5
1C0
331
17C
  5
17D
331
1BB
  5
1BC
331
1B7
  5
1B8
331
178
  5
179
331
1B3
  5
1B4
331
1EE
  5
1EF
331
174
  5
175
331
170
  5
171
331
1EA
  5
1EB
331
1AF
  5
1B0
331
1AB
  5
1AC
331
1E6
  5
1E7
331
1A7
  5
1A8
331
1A3
  5
1A4
331
1E2
  5
1E3
331
16C
  5
16D
331
168
  5
169
331
19F
  5
1A0
331
19B
  5
19C
331
1DA
  5
1DB
331
1D6
  5
1D7
331
197
  5
198
331
193
  5
194
331
1D2
  5
1D3
331
8EA
  5
936
331
164
  5
165
331
160
  5
161
331
15C
  5
15D
331
158
  5
159
331
18F
  5
190
331
1CE
  5
1CF
331
18B
  5
18C
331
1CA
  5
1CB
331
1C6
  5
1C7
331
187
  5
188
331
183
  5
184
331
1C2
  5
1C3
331
5F3
  5
6D5
331
17F
  5
180
331
1BE
  5
1BF
331
17B
  5
17C
331
1BA
  5
1BB
331
1B6
  5
1B7
331
1F1
  5
1F2
331
177
  5
178
331
173
  5
174
331
1B2
  5
1B3
331
1ED
  5
1EE
331
1E9
  5
1EA
331
1AE
  5
1AF
331
1AA
  5
1AB
331
1A6
  5
1A7
331
1E5
  5
1E6
331
1A2
  5
1A3
331
1E1
  5
1E2
331
16F
  5
170
331
16B
  5
16C
331
19E
  5
19F
331
1D9
  5
1DA
331
19A
  5
19B
331
1D5
  5
1D6
331
196
  5
197
331
192
  5
193
331
1D1
  5
1D2
331
167
  5
168
331
163
  5
164
331
15F
  5
160
331
15B
  5
15C
331
347
  5
429
331
18E
  5
18F
331
1CD
  5
1CE
331
18A
  5
18B
331
1C9
  5
1CA
331
1C5
  5
1C6
331
186
  5
187
331
182
  5
183
331
1C1
  5
1C2
331
157
  5
158
331
17E
  5
17F
331
1BD
  5
1BE
331
17A
  5
17B
331
1B9
  5
1BA
331
1B5
  5
1B6
331
1F0
  5
1F1
331
176
  5
177
331
172
  5
173
331
1B1
  5
1B2
331
1EC
  5
1ED
331
1E8
  5
1E9
331
1AD
  5
1AE
  0
SORTENTSTABLE
  5
8F9
102
{ACAD_REACTORS
330
8D8
102
}
330
8D8
100
AcDbSortentsTable
330
8D7
  0
ACDBASSOCNETWORK
  5
8D2
102
{ACAD_REACTORS
330
8D1
102
}
330
8D1
100
AcDbAssocAction
 90
        1
 90
        0
330
0
360
0
 90
        0
 90
        0
 90
        0
100
AcDbAssocNetwork
 90
        0
 90
        1
 90
        1
330
8D0
 90
        0
  0
LAYOUT
  5
6B
102
{ACAD_XDICTIONARY
360
A96
102
}
102
{ACAD_REACTORS
330
62
102
}
330
62
100
AcDbPlotSettings
  1

  2

  4

  6

 40
0.0
 41
0.0
 42
0.0
 43
0.0
 44
0.0
 45
0.0
 46
0.0
 47
0.0
 48
0.0
 49
0.0
140
0.0
141
0.0
142
1.0
143
1.0
 70
   688
 72
     0
 73
     0
 74
     5
  7

 75
    16
147
1.0
148
0.0
149
0.0
100
AcDbLayout
  1
Layout1
 70
     1
 71
     1
 10
0.0
 20
0.0
 11
2970.0
 21
2100.0
 12
0.0
 22
0.0
 32
0.0
 14
0.0
 24
0.0
 34
0.0
 15
2970.0
 25
2100.0
 35
0.0
146
0.0
 13
0.0
 23
0.0
 33
0.0
 16
1.0
 26
0.0
 36
0.0
 17
0.0
 27
1.0
 37
0.0
 76
     0
330
68
  0
LAYOUT
  5
73
102
{ACAD_XDICTIONARY
360
A99
102
}
102
{ACAD_REACTORS
330
62
102
}
330
62
100
AcDbPlotSettings
  1

  2

  4

  6

 40
0.0
 41
0.0
 42
0.0
 43
0.0
 44
0.0
 45
0.0
 46
0.0
 47
0.0
 48
0.0
 49
0.0
140
0.0
141
0.0
142
1.0
143
1.0
 70
   688
 72
     0
 73
     0
 74
     5
  7

 75
    16
147
1.0
148
0.0
149
0.0
100
AcDbLayout
  1
Layout2
 70
     1
 71
     2
 10
0.0
 20
0.0
 11
12.0
 21
9.0
 12
0.0
 22
0.0
 32
0.0
 14
0.0
 24
0.0
 34
0.0
 15
0.0
 25
0.0
 35
0.0
146
0.0
 13
0.0
 23
0.0
 33
0.0
 16
1.0
 26
0.0
 36
0.0
 17
0.0
 27
1.0
 37
0.0
 76
     0
330
70
  0
LAYOUT
  5
6F
102
{ACAD_XDICTIONARY
360
902
102
}
102
{ACAD_REACTORS
330
62
102
}
330
62
100
AcDbPlotSettings
  1

  2

  4

  6

 40
0.0
 41
0.0
 42
0.0
 43
0.0
 44
0.0
 45
0.0
 46
0.0
 47
0.0
 48
0.0
 49
0.0
140
0.0
141
0.0
142
1.0
143
1.0
 70
  1712
 72
     0
 73
     0
 74
     0
  7

 75
     0
147
1.0
148
0.0
149
0.0
100
AcDbLayout
  1
Model
 70
     1
 71
     0
 10
0.0
 20
0.0
 11
12.0
 21
9.0
 12
0.0
 22
0.0
 32
0.0
 14
0.0
 24
0.0
 34
0.0
 15
0.0
 25
0.0
 35
0.0
146
0.0
 13
0.0
 23
0.0
 33
0.0
 16
1.0
 26
0.0
 36
0.0
 17
0.0
 27
1.0
 37
0.0
 76
     0
330
6C
331
57
  0
MATERIAL
  5
19
102
{ACAD_XDICTIONARY
360
1A
102
}
102
{ACAD_REACTORS
330
10
102
}
330
10
100
AcDbMaterial
  1
ByBlock
 72
     0
 43
0.0208333333333333
 43
0.0
 43
0.0
 43
0.0
 43
0.0
 43
0.0208333333333333
 43
0.0
 43
0.0
 43
0.0
 43
0.0
 43
1.0
 43
0.0
 43
0.0
 43
0.0
 43
0.0
 43
1.0
 77
     0
 47
0.0208333333333333
 47
0.0
 47
0.0
 47
0.0
 47
0.0
 47
0.0208333333333333
 47
0.0
 47
0.0
 47
0.0
 47
0.0
 47
1.0
 47
0.0
 47
0.0
 47
0.0
 47
0.0
 47
1.0
171
     0
 49
0.0208333333333333
 49
0.0
 49
0.0
 49
0.0
 49
0.0
 49
0.0208333333333333
 49
0.0
 49
0.0
 49
0.0
 49
0.0
 49
1.0
 49
0.0
 49
0.0
 49
0.0
 49
0.0
 49
1.0
175
     0
142
0.0208333333333333
142
0.0
142
0.0
142
0.0
142
0.0
142
0.0208333333333333
142
0.0
142
0.0
142
0.0
142
0.0
142
1.0
142
0.0
142
0.0
142
0.0
142
0.0
142
1.0
179
     0
144
0.0208333333333333
144
0.0
144
0.0
144
0.0
144
0.0
144
0.0208333333333333
144
0.0
144
0.0
144
0.0
144
0.0
144
1.0
144
0.0
144
0.0
144
0.0
144
0.0
144
1.0
147
0.0208333333333333
147
0.0
147
0.0
147
0.0
147
0.0
147
0.0208333333333333
147
0.0
147
0.0
147
0.0
147
0.0
147
1.0
147
0.0
147
0.0
147
0.0
147
0.0
147
1.0
  0
MATERIAL
  5
11
102
{ACAD_XDICTIONARY
360
12
102
}
102
{ACAD_REACTORS
330
10
102
}
330
10
100
AcDbMaterial
  1
ByLayer
 72
     0
 43
0.0208333333333333
 43
0.0
 43
0.0
 43
0.0
 43
0.0
 43
0.0208333333333333
 43
0.0
 43
0.0
 43
0.0
 43
0.0
 43
1.0
 43
0.0
 43
0.0
 43
0.0
 43
0.0
 43
1.0
 77
     0
 47
0.0208333333333333
 47
0.0
 47
0.0
 47
0.0
 47
0.0
 47
0.0208333333333333
 47
0.0
 47
0.0
 47
0.0
 47
0.0
 47
1.0
 47
0.0
 47
0.0
 47
0.0
 47
0.0
 47
1.0
171
     0
 49
0.0208333333333333
 49
0.0
 49
0.0
 49
0.0
 49
0.0
 49
0.0208333333333333
 49
0.0
 49
0.0
 49
0.0
 49
0.0
 49
1.0
 49
0.0
 49
0.0
 49
0.0
 49
0.0
 49
1.0
175
     0
142
0.0208333333333333
142
0.0
142
0.0
142
0.0
142
0.0
142
0.0208333333333333
142
0.0
142
0.0
142
0.0
142
0.0
142
1.0
142
0.0
142
0.0
142
0.0
142
0.0
142
1.0
179
     0
144
0.0208333333333333
144
0.0
144
0.0
144
0.0
144
0.0
144
0.0208333333333333
144
0.0
144
0.0
144
0.0
144
0.0
144
1.0
144
0.0
144
0.0
144
0.0
144
0.0
144
1.0
147
0.0208333333333333
147
0.0
147
0.0
147
0.0
147
0.0
147
0.0208333333333333
147
0.0
147
0.0
147
0.0
147
0.0
147
1.0
147
0.0
147
0.0
147
0.0
147
0.0
147
1.0
  0
MATERIAL
  5
21
102
{ACAD_XDICTIONARY
360
22
102
}
102
{ACAD_REACTORS
330
10
102
}
330
10
100
AcDbMaterial
  1
Global
 72
     0
 43
0.0208333333333333
 43
0.0
 43
0.0
 43
0.0
 43
0.0
 43
0.0208333333333333
 43
0.0
 43
0.0
 43
0.0
 43
0.0
 43
1.0
 43
0.0
 43
0.0
 43
0.0
 43
0.0
 43
1.0
 77
     0
 47
0.0208333333333333
 47
0.0
 47
0.0
 47
0.0
 47
0.0
 47
0.0208333333333333
 47
0.0
 47
0.0
 47
0.0
 47
0.0
 47
1.0
 47
0.0
 47
0.0
 47
0.0
 47
0.0
 47
1.0
171
     0
 49
0.0208333333333333
 49
0.0
 49
0.0
 49
0.0
 49
0.0
 49
0.0208333333333333
 49
0.0
 49
0.0
 49
0.0
 49
0.0
 49
1.0
 49
0.0
 49
0.0
 49
0.0
 49
0.0
 49
1.0
175
     0
142
0.0208333333333333
142
0.0
142
0.0
142
0.0
142
0.0
142
0.0208333333333333
142
0.0
142
0.0
142
0.0
142
0.0
142
1.0
142
0.0
142
0.0
142
0.0
142
0.0
142
1.0
179
     0
144
0.0208333333333333
144
0.0
144
0.0
144
0.0
144
0.0
144
0.0208333333333333
144
0.0
144
0.0
144
0.0
144
0.0
144
1.0
144
0.0
144
0.0
144
0.0
144
0.0
144
1.0
147
0.0208333333333333
147
0.0
147
0.0
147
0.0
147
0.0
147
0.0208333333333333
147
0.0
147
0.0
147
0.0
147
0.0
147
1.0
147
0.0
147
0.0
147
0.0
147
0.0
147
1.0
  0
MLEADERSTYLE
  5
67
102
{ACAD_REACTORS
330
66
102
}
330
66
100
AcDbMLeaderStyle
170
     2
171
     1
172
     0
 90
        2
 40
0.0
 41
0.0
173
     1
 91
-1056964608
340
5B
 92
       -2
290
     1
 42
0.09
291
     1
 43
0.36
  3
Standard
 44
0.18
300

342
55
174
     1
178
     6
175
     1
176
     0
 93
-1056964608
 45
0.18
292
     0
297
     0
 46
0.18
 94
-1056964608
 47
1.0
 49
1.0
140
1.0
293
     1
141
0.0
294
     1
177
     0
142
1.0
295
     0
296
     0
143
0.125
1001
ACAD_MLEADERVER
1070
     2
  0
MLINESTYLE
  5
60
102
{ACAD_REACTORS
330
5F
102
}
330
5F
100
AcDbMlineStyle
  2
STANDARD
 70
     0
  3

 62
   256
 51
90.0
 52
90.0
 71
     2
 49
0.5
 62
   256
  6
BYLAYER
 49
-0.5
 62
   256
  6
BYLAYER
  0
ACDBPLACEHOLDER
  5
F
102
{ACAD_REACTORS
330
E
102
}
330
E
  0
SCALE
  5
43
102
{ACAD_REACTORS
330
42
102
}
330
42
100
AcDbScale
 70
     0
300
1:1
140
1.0
141
1.0
290
     1
  0
SCALE
  5
44
102
{ACAD_REACTORS
330
42
102
}
330
42
100
AcDbScale
 70
     0
300
1/128" = 1'-0"
140
0.0078125
141
12.0
290
     0
  0
SCALE
  5
45
102
{ACAD_REACTORS
330
42
102
}
330
42
100
AcDbScale
 70
     0
300
1/64" = 1'-0"
140
0.015625
141
12.0
290
     0
  0
SCALE
  5
46
102
{ACAD_REACTORS
330
42
102
}
330
42
100
AcDbScale
 70
     0
300
1/32" = 1'-0"
140
0.03125
141
12.0
290
     0
  0
SCALE
  5
47
102
{ACAD_REACTORS
330
42
102
}
330
42
100
AcDbScale
 70
     0
300
1/16" = 1'-0"
140
0.0625
141
12.0
290
     0
  0
SCALE
  5
48
102
{ACAD_REACTORS
330
42
102
}
330
42
100
AcDbScale
 70
     0
300
3/32" = 1'-0"
140
0.09375
141
12.0
290
     0
  0
SCALE
  5
49
102
{ACAD_REACTORS
330
42
102
}
330
42
100
AcDbScale
 70
     0
300
1/8" = 1'-0"
140
0.125
141
12.0
290
     0
  0
SCALE
  5
4A
102
{ACAD_REACTORS
330
42
102
}
330
42
100
AcDbScale
 70
     0
300
3/16" = 1'-0"
140
0.1875
141
12.0
290
     0
  0
SCALE
  5
4B
102
{ACAD_REACTORS
330
42
102
}
330
42
100
AcDbScale
 70
     0
300
1/4" = 1'-0"
140
0.25
141
12.0
290
     0
  0
SCALE
  5
4C
102
{ACAD_REACTORS
330
42
102
}
330
42
100
AcDbScale
 70
     0
300
3/8" = 1'-0"
140
0.375
141
12.0
290
     0
  0
SCALE
  5
4D
102
{ACAD_REACTORS
330
42
102
}
330
42
100
AcDbScale
 70
     0
300
1/2" = 1'-0"
140
0.5
141
12.0
290
     0
  0
SCALE
  5
4E
102
{ACAD_REACTORS
330
42
102
}
330
42
100
AcDbScale
 70
     0
300
3/4" = 1'-0"
140
0.75
141
12.0
290
     0
  0
SCALE
  5
4F
102
{ACAD_REACTORS
330
42
102
}
330
42
100
AcDbScale
 70
     0
300
1" = 1'-0"
140
1.0
141
12.0
290
     0
  0
SCALE
  5
50
102
{ACAD_REACTORS
330
42
102
}
330
42
100
AcDbScale
 70
     0
300
1-1/2" = 1'-0"
140
1.5
141
12.0
290
     0
  0
SCALE
  5
51
102
{ACAD_REACTORS
330
42
102
}
330
42
100
AcDbScale
 70
     0
300
3" = 1'-0"
140
3.0
141
12.0
290
     0
  0
SCALE
  5
52
102
{ACAD_REACTORS
330
42
102
}
330
42
100
AcDbScale
 70
     0
300
6" = 1'-0"
140
6.0
141
12.0
290
     0
  0
SCALE
  5
53
102
{ACAD_REACTORS
330
42
102
}
330
42
100
AcDbScale
 70
     0
300
1'-0" = 1'-0"
140
12.0
141
12.0
290
     0
  0
TABLESTYLE
  5
65
102
{ACAD_XDICTIONARY
360
A5D
102
}
102
{ACAD_REACTORS
330
64
102
}
330
64
100
AcDbTableStyle
  3
Standard
 70
     0
 71
     0
 40
0.06
 41
0.06
280
     0
281
     0
  7
Standard
140
0.18
170
     2
 62
     0
 63
     7
283
     0
274
    -2
284
     1
 64
     0
275
    -2
285
     1
 65
     0
276
    -2
286
     1
 66
     0
277
    -2
287
     1
 67
     0
278
    -2
288
     1
 68
     0
279
    -2
289
     1
 69
     0
  7
Standard
140
0.25
170
     5
 62
     0
 63
     7
283
     0
274
    -2
284
     1
 64
     0
275
    -2
285
     1
 65
     0
276
    -2
286
     1
 66
     0
277
    -2
287
     1
 67
     0
278
    -2
288
     1
 68
     0
279
    -2
289
     1
 69
     0
  7
Standard
140
0.18
170
     5
 62
     0
 63
     7
283
     0
274
    -2
284
     1
 64
     0
275
    -2
285
     1
 65
     0
276
    -2
286
     1
 66
     0
277
    -2
287
     1
 67
     0
278
    -2
288
     1
 68
     0
279
    -2
289
     1
 69
     0
  0
VISUALSTYLE
  5
2F
102
{ACAD_XDICTIONARY
360
A6E
102
}
102
{ACAD_REACTORS
330
29
102
}
330
29
100
AcDbVisualStyle
  2
2dWireframe
 70
     4
 71
     0
 72
     2
 73
     0
 90
        0
 40
-0.6
 41
-30.0
 62
     5
 63
     7
 74
     1
 91
        4
 64
     7
 65
   257
 75
     1
175
     1
 42
1.0
 92
        0
 66
   257
 43
1.0
 76
     1
 77
     6
 78
     2
 67
     7
 79
     5
170
     0
171
     0
290
     0
174
     0
 93
        1
 44
0.0
173
     0
291
     0
 45
0.0
1001
ACAD
1000
AcDbSavedByObjectVersion
1070
     0
  0
VISUALSTYLE
  5
2E
102
{ACAD_XDICTIONARY
360
A6C
102
}
102
{ACAD_REACTORS
330
29
102
}
330
29
100
AcDbVisualStyle
  2
Basic
 70
     7
 71
     1
 72
     0
 73
     1
 90
        0
 40
-0.6
 41
-30.0
 62
     5
 63
     7
 74
     0
 91
        4
 64
     7
 65
   257
 75
     1
175
     1
 42
1.0
 92
        8
 66
     7
 43
1.0
 76
     1
 77
     6
 78
     2
 67
     7
 79
     5
170
     0
171
     0
290
     0
174
     0
 93
        1
 44
0.0
173
     0
291
     1
 45
0.0
1001
ACAD
1000
AcDbSavedByObjectVersion
1070
     0
  0
VISUALSTYLE
  5
35
102
{ACAD_XDICTIONARY
360
A7A
102
}
102
{ACAD_REACTORS
330
29
102
}
330
29
100
AcDbVisualStyle
  2
Brighten
 70
    12
 71
     2
 72
     2
 73
     0
 90
        0
 40
-0.6
 41
-30.0
 62
     5
 63
     7
 74
     1
 91
        4
 64
     7
 65
   257
 75
     1
175
     1
 42
1.0
 92
        8
 66
     7
 43
1.0
 76
     1
 77
     6
 78
     2
 67
     7
 79
     5
170
     0
171
     0
290
     0
174
     0
 93
        1
 44
50.0
173
     0
291
     1
 45
0.0
1001
ACAD
1000
AcDbSavedByObjectVersion
1070
     0
  0
VISUALSTYLE
  5
39
102
{ACAD_XDICTIONARY
360
A82
102
}
102
{ACAD_REACTORS
330
29
102
}
330
29
100
AcDbVisualStyle
  2
ColorChange
 70
    16
 71
     2
 72
     2
 73
     3
 90
        0
 40
-0.6
 41
-30.0
 62
     5
 63
     8
 74
     1
 91
        4
 64
     7
 65
   257
 75
     1
175
     1
 42
1.0
 92
        8
 66
     8
 43
1.0
 76
     1
 77
     6
 78
     2
 67
     7
 79
     5
170
     0
171
     0
290
     0
174
     0
 93
        1
 44
0.0
173
     0
291
     1
 45
0.0
1001
ACAD
1000
AcDbSavedByObjectVersion
1070
     0
  0
VISUALSTYLE
  5
32
102
{ACAD_XDICTIONARY
360
A74
102
}
102
{ACAD_REACTORS
330
29
102
}
330
29
100
AcDbVisualStyle
  2
Conceptual
 70
     9
 71
     3
 72
     2
 73
     0
 90
        0
 40
-0.6
 41
-30.0
 62
     5
 63
     7
 74
     2
 91
        2
 64
     7
 65
   257
 75
     1
175
     1
 42
179.0
 92
        8
 66
     7
 43
1.0
 76
     1
 77
     6
 78
     2
 67
     7
 79
     3
170
     0
171
     0
290
     0
174
     0
 93
        1
 44
0.0
173
     0
291
     0
 45
0.0
1001
ACAD
1000
AcDbSavedByObjectVersion
1070
     0
  0
VISUALSTYLE
  5
34
102
{ACAD_XDICTIONARY
360
A78
102
}
102
{ACAD_REACTORS
330
29
102
}
330
29
100
AcDbVisualStyle
  2
Dim
 70
    11
 71
     2
 72
     2
 73
     0
 90
        0
 40
-0.6
 41
-30.0
 62
     5
 63
     7
 74
     1
 91
        4
 64
     7
 65
   257
 75
     1
175
     1
 42
1.0
 92
        8
 66
     7
 43
1.0
 76
     1
 77
     6
 78
     2
 67
     7
 79
     5
170
     0
171
     0
290
     0
174
     0
 93
        1
 44
-50.0
173
     0
291
     1
 45
0.0
1001
ACAD
1000
AcDbSavedByObjectVersion
1070
     0
  0
VISUALSTYLE
  5
41
102
{ACAD_XDICTIONARY
360
A92
102
}
102
{ACAD_REACTORS
330
29
102
}
330
29
100
AcDbVisualStyle
  2
EdgeColorOff
 70
    22
 71
     2
 72
     2
 73
     0
 90
        0
 40
-0.6
 41
-30.0
 62
     5
 63
     7
 74
     1
 91
        4
 64
     7
 65
   257
 75
     1
175
     1
 42
1.0
 92
        8
 66
     7
 43
1.0
 76
     1
 77
     6
 78
     2
 67
     7
 79
     5
170
     0
171
     0
290
     0
174
     0
 93
        1
 44
0.0
173
     0
291
     1
 45
0.0
1001
ACAD
1000
AcDbSavedByObjectVersion
1070
     0
  0
VISUALSTYLE
  5
38
102
{ACAD_XDICTIONARY
360
A80
102
}
102
{ACAD_REACTORS
330
29
102
}
330
29
100
AcDbVisualStyle
  2
Facepattern
 70
    15
 71
     2
 72
     2
 73
     0
 90
        0
 40
-0.6
 41
-30.0
 62
     5
 63
     7
 74
     1
 91
        4
 64
     7
 65
   257
 75
     1
175
     1
 42
1.0
 92
        8
 66
     7
 43
1.0
 76
     1
 77
     6
 78
     2
 67
     7
 79
     5
170
     0
171
     0
290
     0
174
     0
 93
        1
 44
0.0
173
     0
291
     1
 45
0.0
1001
ACAD
1000
AcDbSavedByObjectVersion
1070
     0
  0
VISUALSTYLE
  5
2A
102
{ACAD_XDICTIONARY
360
A64
102
}
102
{ACAD_REACTORS
330
29
102
}
330
29
100
AcDbVisualStyle
  2
Flat
 70
     0
 71
     2
 72
     1
 73
     1
 90
        2
 40
-0.6
 41
30.0
 62
     5
 63
     7
 74
     0
 91
        0
 64
     7
 65
   257
 75
     1
175
     1
 42
1.0
 92
        8
 66
     7
 43
1.0
 76
     1
 77
     6
 78
     2
 67
     7
 79
     5
170
     0
171
     0
290
     0
174
     0
 93
       13
 44
0.0
173
     0
291
     1
 45
0.0
1001
ACAD
1000
AcDbSavedByObjectVersion
1070
     0
  0
VISUALSTYLE
  5
2B
102
{ACAD_XDICTIONARY
360
A66
102
}
102
{ACAD_REACTORS
330
29
102
}
330
29
100
AcDbVisualStyle
  2
FlatWithEdges
 70
     1
 71
     2
 72
     1
 73
     1
 90
        2
 40
-0.6
 41
30.0
 62
     5
 63
     7
 74
     1
 91
        0
 64
     7
 65
   257
 75
     1
175
     1
 42
1.0
 92
        0
 66
   257
 43
1.0
 76
     1
 77
     6
 78
     2
 67
     7
 79
     5
170
     0
171
     0
290
     0
174
     0
 93
       13
 44
0.0
173
     0
291
     1
 45
0.0
1001
ACAD
1000
AcDbSavedByObjectVersion
1070
     0
  0
VISUALSTYLE
  5
2C
102
{ACAD_XDICTIONARY
360
A68
102
}
102
{ACAD_REACTORS
330
29
102
}
330
29
100
AcDbVisualStyle
  2
Gouraud
 70
     2
 71
     2
 72
     2
 73
     1
 90
        2
 40
-0.6
 41
30.0
 62
     5
 63
     7
 74
     0
 91
        0
 64
     7
 65
   257
 75
     1
175
     1
 42
1.0
 92
        0
 66
     7
 43
1.0
 76
     1
 77
     6
 78
     2
 67
     7
 79
     5
170
     0
171
     0
290
     0
174
     0
 93
       13
 44
0.0
173
     0
291
     1
 45
0.0
1001
ACAD
1000
AcDbSavedByObjectVersion
1070
     0
  0
VISUALSTYLE
  5
2D
102
{ACAD_XDICTIONARY
360
A6A
102
}
102
{ACAD_REACTORS
330
29
102
}
330
29
100
AcDbVisualStyle
  2
GouraudWithEdges
 70
     3
 71
     2
 72
     2
 73
     1
 90
        2
 40
-0.6
 41
30.0
 62
     5
 63
     7
 74
     1
 91
        0
 64
     7
 65
   257
 75
     1
175
     1
 42
1.0
 92
        0
 66
   257
 43
1.0
 76
     1
 77
     6
 78
     2
 67
     7
 79
     5
170
     0
171
     0
290
     0
174
     0
 93
       13
 44
0.0
173
     0
291
     1
 45
0.0
1001
ACAD
1000
AcDbSavedByObjectVersion
1070
     0
  0
VISUALSTYLE
  5
31
102
{ACAD_XDICTIONARY
360
A72
102
}
102
{ACAD_REACTORS
330
29
102
}
330
29
100
AcDbVisualStyle
  2
Hidden
 70
     6
 71
     1
 72
     2
 73
     2
 90
        0
 40
-0.6
 41
-30.0
 62
     5
 63
     7
 74
     2
 91
        2
 64
     7
 65
   257
 75
     2
175
     1
 42
40.0
 92
        0
 66
   257
 43
1.0
 76
     1
 77
     6
 78
     2
 67
     7
 79
     3
170
     0
171
     0
290
     0
174
     0
 93
        1
 44
0.0
173
     0
291
     0
 45
0.0
1001
ACAD
1000
AcDbSavedByObjectVersion
1070
     0
  0
VISUALSTYLE
  5
3F
102
{ACAD_XDICTIONARY
360
A8E
102
}
102
{ACAD_REACTORS
330
29
102
}
330
29
100
AcDbVisualStyle
  2
JitterOff
 70
    20
 71
     2
 72
     2
 73
     0
 90
        0
 40
-0.6
 41
-30.0
 62
     5
 63
     7
 74
     1
 91
        4
 64
     7
 65
   257
 75
     1
175
     1
 42
1.0
 92
       10
 66
     7
 43
1.0
 76
     1
 77
     6
 78
     2
 67
     7
 79
     5
170
     0
171
     0
290
     0
174
     0
 93
        1
 44
0.0
173
     0
291
     1
 45
0.0
1001
ACAD
1000
AcDbSavedByObjectVersion
1070
     0
  0
VISUALSTYLE
  5
37
102
{ACAD_XDICTIONARY
360
A7E
102
}
102
{ACAD_REACTORS
330
29
102
}
330
29
100
AcDbVisualStyle
  2
Linepattern
 70
    14
 71
     2
 72
     2
 73
     0
 90
        0
 40
-0.6
 41
-30.0
 62
     5
 63
     7
 74
     1
 91
        4
 64
     7
 65
   257
 75
     7
175
     7
 42
1.0
 92
        8
 66
     7
 43
1.0
 76
     1
 77
     6
 78
     2
 67
     7
 79
     5
170
     0
171
     0
290
     0
174
     0
 93
        1
 44
0.0
173
     0
291
     1
 45
0.0
1001
ACAD
1000
AcDbSavedByObjectVersion
1070
     0
  0
VISUALSTYLE
  5
40
102
{ACAD_XDICTIONARY
360
A90
102
}
102
{ACAD_REACTORS
330
29
102
}
330
29
100
AcDbVisualStyle
  2
OverhangOff
 70
    21
 71
     2
 72
     2
 73
     0
 90
        0
 40
-0.6
 41
-30.0
 62
     5
 63
     7
 74
     1
 91
        4
 64
     7
 65
   257
 75
     1
175
     1
 42
1.0
 92
        9
 66
     7
 43
1.0
 76
     1
 77
     6
 78
     2
 67
     7
 79
     5
170
     0
171
     0
290
     0
174
     0
 93
        1
 44
0.0
173
     0
291
     1
 45
0.0
1001
ACAD
1000
AcDbSavedByObjectVersion
1070
     0
  0
VISUALSTYLE
  5
33
102
{ACAD_XDICTIONARY
360
A76
102
}
102
{ACAD_REACTORS
330
29
102
}
330
29
100
AcDbVisualStyle
  2
Realistic
 70
     8
 71
     2
 72
     3
 73
     0
 90
        2
 40
-0.6
 41
30.0
 62
     5
 63
     7
 74
     0
 91
        0
 64
     7
 65
   257
 75
     1
175
     1
 42
1.0
 92
        8
 66
   257
 43
1.0
 76
     1
 77
     6
 78
     2
 67
     7
 79
     3
170
     0
171
     0
290
     0
174
     0
 93
       13
 44
0.0
173
     0
291
     0
 45
0.0
1001
ACAD
1000
AcDbSavedByObjectVersion
1070
     0
  0
VISUALSTYLE
  5
3E
102
{ACAD_XDICTIONARY
360
A8C
102
}
102
{ACAD_REACTORS
330
29
102
}
330
29
100
AcDbVisualStyle
  2
Shaded
 70
    27
 71
     2
 72
     2
 73
     1
 90
        2
 40
-0.6
 41
30.0
 62
     5
 63
     7
 74
     0
 91
        4
 64
     7
 65
   257
 75
     1
175
     1
 42
1.0
 92
        8
 66
   257
 43
1.0
 76
     1
 77
     6
 78
     2
 67
     8
 79
     3
170
     0
171
     0
290
     0
174
     0
 93
        5
 44
0.0
173
     0
291
     0
 45
0.0
1001
ACAD
1000
AcDbSavedByObjectVersion
1070
     0
  0
VISUALSTYLE
  5
3D
102
{ACAD_XDICTIONARY
360
A8A
102
}
102
{ACAD_REACTORS
330
29
102
}
330
29
100
AcDbVisualStyle
  2
Shaded with edges
 70
    26
 71
     2
 72
     2
 73
     1
 90
        2
 40
-0.6
 41
30.0
 62
     5
 63
     7
 74
     1
 91
       10
 64
     7
 65
   257
 75
     2
175
     1
 42
1.0
 92
        8
 66
   257
 43
1.0
 76
     1
 77
     6
 78
     2
 67
     7
 79
     3
170
     0
171
     0
290
     0
174
     0
 93
        5
 44
0.0
173
     0
291
     0
 45
0.0
1001
ACAD
1000
AcDbSavedByObjectVersion
1070
     0
  0
VISUALSTYLE
  5
3A
102
{ACAD_XDICTIONARY
360
A84
102
}
102
{ACAD_REACTORS
330
29
102
}
330
29
100
AcDbVisualStyle
  2
Shades of Gray
 70
    23
 71
     2
 72
     2
 73
     3
 90
        0
 40
-0.6
 41
-30.0
 62
     5
 63
     7
 74
     2
 91
        2
 64
     7
 65
     7
 75
     1
175
     1
 42
40.0
 92
        8
 66
     7
 43
1.0
 76
     1
 77
     6
 78
     2
 67
     7
 79
     3
170
     0
171
     0
290
     0
174
     0
 93
        1
 44
0.0
173
     0
291
     0
 45
0.0
1001
ACAD
1000
AcDbSavedByObjectVersion
1070
     0
  0
VISUALSTYLE
  5
3B
102
{ACAD_XDICTIONARY
360
A86
102
}
102
{ACAD_REACTORS
330
29
102
}
330
29
100
AcDbVisualStyle
  2
Sketchy
 70
    24
 71
     1
 72
     2
 73
     2
 90
        0
 40
-0.6
 41
-30.0
 62
     5
 63
     7
 74
     2
 91
        2
 64
     7
 65
     7
 75
     1
175
     1
 42
40.0
 92
       11
 66
     7
 43
1.0
 76
     1
 77
     6
 78
     2
 67
     7
 79
     6
170
     0
171
     0
290
     0
174
     0
 93
        1
 44
0.0
173
     0
291
     0
 45
0.0
1001
ACAD
1000
AcDbSavedByObjectVersion
1070
     0
  0
VISUALSTYLE
  5
36
102
{ACAD_XDICTIONARY
360
A7C
102
}
102
{ACAD_REACTORS
330
29
102
}
330
29
100
AcDbVisualStyle
  2
Thicken
 70
    13
 71
     2
 72
     2
 73
     0
 90
        0
 40
-0.6
 41
-30.0
 62
     5
 63
     7
 74
     1
 91
        4
 64
     7
 65
   257
 75
     1
175
     1
 42
1.0
 92
       12
 66
     7
 43
1.0
 76
     1
 77
     6
 78
     2
 67
     7
 79
     5
170
     0
171
     0
290
     0
174
     0
 93
        1
 44
0.0
173
     0
291
     1
 45
0.0
1001
ACAD
1000
AcDbSavedByObjectVersion
1070
     0
  0
VISUALSTYLE
  5
30
102
{ACAD_XDICTIONARY
360
A70
102
}
102
{ACAD_REACTORS
330
29
102
}
330
29
100
AcDbVisualStyle
  2
Wireframe
 70
     5
 71
     0
 72
     2
 73
     0
 90
        0
 40
-0.6
 41
-30.0
 62
     5
 63
     7
 74
     1
 91
        4
 64
     7
 65
   257
 75
     1
175
     1
 42
1.0
 92
        0
 66
   257
 43
1.0
 76
     1
 77
     6
 78
     2
 67
     7
 79
     3
170
     0
171
     0
290
     0
174
     0
 93
        1
 44
0.0
173
     0
291
     0
 45
0.0
1001
ACAD
1000
AcDbSavedByObjectVersion
1070
     0
  0
VISUALSTYLE
  5
3C
102
{ACAD_XDICTIONARY
360
A88
102
}
102
{ACAD_REACTORS
330
29
102
}
330
29
100
AcDbVisualStyle
  2
X-Ray
 70
    25
 71
     2
 72
     2
 73
     1
 90
        1
 40
0.5
 41
-30.0
 62
     5
 63
     7
 74
     1
 91
        0
 64
     7
 65
   257
 75
     1
175
     1
 42
1.0
 92
        8
 66
     7
 43
1.0
 76
     1
 77
     6
 78
     2
 67
     7
 79
     3
170
     0
171
     0
290
     0
174
     0
 93
       13
 44
0.0
173
     0
291
     0
 45
0.0
1001
ACAD
1000
AcDbSavedByObjectVersion
1070
     0
  0
DICTIONARYVAR
  5
7FB
102
{ACAD_REACTORS
330
7F8
102
}
330
7F8
100
DictionaryVariables
280
     0
  1
1:1
  0
DICTIONARYVAR
  5
7FA
102
{ACAD_REACTORS
330
7F8
102
}
330
7F8
100
DictionaryVariables
280
     0
  1
STANDARD
  0
DICTIONARYVAR
  5
7F9
102
{ACAD_REACTORS
330
7F8
102
}
330
7F8
100
DictionaryVariables
280
     0
  1
STANDARD
  0
DICTIONARYVAR
  5
A5B
102
{ACAD_REACTORS
330
7F8
102
}
330
7F8
100
DictionaryVariables
280
     0
  1
1
  0
DICTIONARYVAR
  5
A5A
102
{ACAD_REACTORS
330
7F8
102
}
330
7F8
100
DictionaryVariables
280
     0
  1
1
  0
DICTIONARYVAR
  5
A59
102
{ACAD_REACTORS
330
7F8
102
}
330
7F8
100
DictionaryVariables
280
     0
  1
0
  0
DICTIONARYVAR
  5
A56
102
{ACAD_REACTORS
330
7F8
102
}
330
7F8
100
DictionaryVariables
280
     0
  1
0
  0
DICTIONARYVAR
  5
A57
102
{ACAD_REACTORS
330
7F8
102
}
330
7F8
100
DictionaryVariables
280
     0
  1
0
  0
DICTIONARYVAR
  5
A55
102
{ACAD_REACTORS
330
7F8
102
}
330
7F8
100
DictionaryVariables
280
     0
  1
2
  0
DICTIONARYVAR
  5
A54
102
{ACAD_REACTORS
330
7F8
102
}
330
7F8
100
DictionaryVariables
280
     0
  1
1
  0
DICTIONARYVAR
  5
A58
102
{ACAD_REACTORS
330
7F8
102
}
330
7F8
100
DictionaryVariables
280
     0
  1
127
  0
DICTIONARYVAR
  5
A5C
102
{ACAD_REACTORS
330
7F8
102
}
330
7F8
100
DictionaryVariables
280
     0
  1
2
  0
DICTIONARY
  5
88A
102
{ACAD_REACTORS
330
87F
102
}
330
87F
100
AcDbDictionary
281
     1
  0
ACDBASSOCNETWORK
  5
8D0
102
{ACAD_REACTORS
330
8CF
102
}
330
8CF
100
AcDbAssocAction
 90
        1
 90
        0
330
8D2
360
0
 90
        1
 90
        0
 90
        0
100
AcDbAssocNetwork
 90
        0
 90
        1
 90
        1
360
8D3
 90
        0
  0
DICTIONARY
  5
A96
330
6B
100
AcDbDictionary
280
     1
281
     1
  3
ACAD_XREC_ROUNDTRIP
360
A97
  0
DICTIONARY
  5
A99
330
73
100
AcDbDictionary
280
     1
281
     1
  3
ACAD_XREC_ROUNDTRIP
360
A9A
  0
DICTIONARY
  5
902
330
6F
100
AcDbDictionary
280
     1
281
     1
  3
ACAD_XREC_ROUNDTRIP
360
A98
  3
ADSK_XREC_LAYOUTTHUMBNAIL
360
903
  0
DICTIONARY
  5
1A
330
19
100
AcDbDictionary
280
     1
281
     1
  3
ACAD_XREC_ROUNDTRIP
360
A62
  3
BUMPTILE
360
1C
  3
DIFFUSETILE
360
1B
  3
OPACITYTILE
360
1F
  3
REFLECTIONTILE
360
1E
  3
REFRACTIONTILE
360
20
  3
SPECULARTILE
360
1D
  0
DICTIONARY
  5
12
330
11
100
AcDbDictionary
280
     1
281
     1
  3
ACAD_XREC_ROUNDTRIP
360
A61
  3
BUMPTILE
360
14
  3
DIFFUSETILE
360
13
  3
OPACITYTILE
360
17
  3
REFLECTIONTILE
360
16
  3
REFRACTIONTILE
360
18
  3
SPECULARTILE
360
15
  0
DICTIONARY
  5
22
330
21
100
AcDbDictionary
280
     1
281
     1
  3
ACAD_XREC_ROUNDTRIP
360
A63
  3
BUMPTILE
360
24
  3
DIFFUSETILE
360
23
  3
OPACITYTILE
360
27
  3
REFLECTIONTILE
360
26
  3
REFRACTIONTILE
360
28
  3
SPECULARTILE
360
25
  0
DICTIONARY
  5
A5D
330
65
100
AcDbDictionary
280
     1
281
     1
  3
ACAD_ROUNDTRIP_2008_TABLESTYLE_CELLSTYLEMAP
360
A5E
  3
ACAD_XREC_ROUNDTRIP
360
A94
  0
DICTIONARY
  5
A6E
330
2F
100
AcDbDictionary
280
     1
281
     1
  3
ACAD_XREC_ROUNDTRIP
360
A6F
  0
DICTIONARY
  5
A6C
330
2E
100
AcDbDictionary
280
     1
281
     1
  3
ACAD_XREC_ROUNDTRIP
360
A6D
  0
DICTIONARY
  5
A7A
330
35
100
AcDbDictionary
280
     1
281
     1
  3
ACAD_XREC_ROUNDTRIP
360
A7B
  0
DICTIONARY
  5
A82
330
39
100
AcDbDictionary
280
     1
281
     1
  3
ACAD_XREC_ROUNDTRIP
360
A83
  0
DICTIONARY
  5
A74
330
32
100
AcDbDictionary
280
     1
281
     1
  3
ACAD_XREC_ROUNDTRIP
360
A75
  0
DICTIONARY
  5
A78
330
34
100
AcDbDictionary
280
     1
281
     1
  3
ACAD_XREC_ROUNDTRIP
360
A79
  0
DICTIONARY
  5
A92
330
41
100
AcDbDictionary
280
     1
281
     1
  3
ACAD_XREC_ROUNDTRIP
360
A93
  0
DICTIONARY
  5
A80
330
38
100
AcDbDictionary
280
     1
281
     1
  3
ACAD_XREC_ROUNDTRIP
360
A81
  0
DICTIONARY
  5
A64
330
2A
100
AcDbDictionary
280
     1
281
     1
  3
ACAD_XREC_ROUNDTRIP
360
A65
  0
DICTIONARY
  5
A66
330
2B
100
AcDbDictionary
280
     1
281
     1
  3
ACAD_XREC_ROUNDTRIP
360
A67
  0
DICTIONARY
  5
A68
330
2C
100
AcDbDictionary
280
     1
281
     1
  3
ACAD_XREC_ROUNDTRIP
360
A69
  0
DICTIONARY
  5
A6A
330
2D
100
AcDbDictionary
280
     1
281
     1
  3
ACAD_XREC_ROUNDTRIP
360
A6B
  0
DICTIONARY
  5
A72
330
31
100
AcDbDictionary
280
     1
281
     1
  3
ACAD_XREC_ROUNDTRIP
360
A73
  0
DICTIONARY
  5
A8E
330
3F
100
AcDbDictionary
280
     1
281
     1
  3
ACAD_XREC_ROUNDTRIP
360
A8F
  0
DICTIONARY
  5
A7E
330
37
100
AcDbDictionary
280
     1
281
     1
  3
ACAD_XREC_ROUNDTRIP
360
A7F
  0
DICTIONARY
  5
A90
330
40
100
AcDbDictionary
280
     1
281
     1
  3
ACAD_XREC_ROUNDTRIP
360
A91
  0
DICTIONARY
  5
A76
330
33
100
AcDbDictionary
280
     1
281
     1
  3
ACAD_XREC_ROUNDTRIP
360
A77
  0
DICTIONARY
  5
A8C
330
3E
100
AcDbDictionary
280
     1
281
     1
  3
ACAD_XREC_ROUNDTRIP
360
A8D
  0
DICTIONARY
  5
A8A
330
3D
100
AcDbDictionary
280
     1
281
     1
  3
ACAD_XREC_ROUNDTRIP
360
A8B
  0
DICTIONARY
  5
A84
330
3A
100
AcDbDictionary
280
     1
281
     1
  3
ACAD_XREC_ROUNDTRIP
360
A85
  0
DICTIONARY
  5
A86
330
3B
100
AcDbDictionary
280
     1
281
     1
  3
ACAD_XREC_ROUNDTRIP
360
A87
  0
DICTIONARY
  5
A7C
330
36
100
AcDbDictionary
280
     1
281
     1
  3
ACAD_XREC_ROUNDTRIP
360
A7D
  0
DICTIONARY
  5
A70
330
30
100
AcDbDictionary
280
     1
281
     1
  3
ACAD_XREC_ROUNDTRIP
360
A71
  0
DICTIONARY
  5
A88
330
3C
100
AcDbDictionary
280
     1
281
     1
  3
ACAD_XREC_ROUNDTRIP
360
A89
  0
ACDBASSOC2DCONSTRAINTGROUP
  5
8D3
330
8D0
100
AcDbAssocAction
 90
        1
 90
        0
330
8D0
360
0
 90
        1
 90
        7
 90
        0
 90
        2
 70
     0
 10
0.0
 20
0.0
 30
0.0
 10
1.0
 20
0.0
 30
0.0
 10
0.0
 20
1.0
 30
0.0
360
0
 90
        1
360
8D4
 90
       42
 90
        7
  1
AcHorizontalConstraint
330
8D3
 90
        8
 70
     0
 90
        1
 90
        1
 90
        0
290
     0
290
     1
 90
        6
  1
AcConstrainedBoundedLine
330
8D3
 90
        1
 70
     1
 90
        3
 90
        3
 90
        5
 90
        8
330
8D4
 90
        0
 10
-574.1435769862155
 20
1698.93757769522
 30
0.0
 10
-1.0
 20
0.0
 30
0.0
290
     0
 10
-574.1435769862155
 20
1698.93757769522
 30
0.0
 11
-1660.49950050258
 21
1698.937577695219
 31
0.0
  1
AcConstrainedImplicitPoint
330
8D3
 90
        2
 70
     1
 90
        1
 90
        3
330
0
 90
        0
280
     0
 90
       -1
 90
        1
  1
AcPointCurveConstraint
330
8D3
 90
        3
 70
     0
 90
        2
 90
        2
 90
        1
 90
        0
290
     1
290
     1
  1
AcConstrainedImplicitPoint
330
8D3
 90
        4
 70
     1
 90
        1
 90
        5
330
0
 90
        0
280
     1
 90
       -1
 90
        1
  1
AcPointCurveConstraint
330
8D3
 90
        5
 70
     0
 90
        2
 90
        4
 90
        1
 90
        0
290
     1
290
     1
  1
AcConstrainedDatumLine
330
8D3
 90
        6
 70
     0
 90
        0
330
0
 90
        0
 10
0.0
 20
0.0
 30
0.0
 10
1.0
 20
0.0
 30
0.0
  0
XRECORD
  5
A97
102
{ACAD_REACTORS
330
A96
102
}
330
A96
100
AcDbXrecord
280
     1
102
SHADEPLOT
 70
     0
102
SHADEPLOTRESLEVEL
 70
     2
102
SHADEPLOTCUSTOMDPI
 70
   300
  0
XRECORD
  5
A9A
102
{ACAD_REACTORS
330
A99
102
}
330
A99
100
AcDbXrecord
280
     1
102
SHADEPLOT
 70
     0
102
SHADEPLOTRESLEVEL
 70
     2
102
SHADEPLOTCUSTOMDPI
 70
   300
  0
XRECORD
  5
A98
102
{ACAD_REACTORS
330
902
102
}
330
902
100
AcDbXrecord
280
     1
102
SHADEPLOT
 70
     0
102
SHADEPLOTRESLEVEL
 70
     2
102
SHADEPLOTCUSTOMDPI
 70
   300
  0
XRECORD
  5
903
102
{ACAD_REACTORS
330
902
102
}
330
902
100
AcDbXrecord
280
     1
310
280000000001000075000000010008000000000000750000000000000000000000010000000000003028210000000000FFFFFF000000000000000000000000000000000000000000000000000000000000000000330000006600000099000000CC000000FF00000000330000333300006633000099330000CC330000FF3300
310
0000660000336600006666000099660000CC660000FF66000000990000339900006699000099990000CC990000FF99000000CC000033CC000066CC000099CC0000CCCC0000FFCC000000FF000033FF000066FF000099FF0000CCFF0000FFFF000000003300330033006600330099003300CC003300FF003300003333003333
310
33006633330099333300CC333300FF33330000663300336633006666330099663300CC663300FF66330000993300339933006699330099993300CC993300FF99330000CC330033CC330066CC330099CC3300CCCC3300FFCC330000FF330033FF330066FF330099FF3300CCFF3300FFFF330000006600330066006600660099
310
006600CC006600FF00660000336600333366006633660099336600CC336600FF33660000666600336666006666660099666600CC666600FF66660000996600339966006699660099996600CC996600FF99660000CC660033CC660066CC660099CC6600CCCC6600FFCC660000FF660033FF660066FF660099FF6600CCFF6600
310
FFFF660000009900330099006600990099009900CC009900FF00990000339900333399006633990099339900CC339900FF33990000669900336699006666990099669900CC669900FF66990000999900339999006699990099999900CC999900FF99990000CC990033CC990066CC990099CC9900CCCC9900FFCC990000FF99
310
0033FF990066FF990099FF9900CCFF9900FFFF99000000CC003300CC006600CC009900CC00CC00CC00FF00CC000033CC003333CC006633CC009933CC00CC33CC00FF33CC000066CC003366CC006666CC009966CC00CC66CC00FF66CC000099CC003399CC006699CC009999CC00CC99CC00FF99CC0000CCCC0033CCCC0066CC
310
CC0099CCCC00CCCCCC00FFCCCC0000FFCC0033FFCC0066FFCC0099FFCC00CCFFCC00FFFFCC000000FF003300FF006600FF009900FF00CC00FF00FF00FF000033FF003333FF006633FF009933FF00CC33FF00FF33FF000066FF003366FF006666FF009966FF00CC66FF00FF66FF000099FF003399FF006699FF009999FF00CC
310
99FF00FF99FF0000CCFF0033CCFF0066CCFF0099CCFF00CCCCFF00FFCCFF0000FFFF0033FFFF0066FFFF0099FFFF00CCFFFF00FFFFFF00000000000D0D0D001A1A1A00282828003535350043434300505050005D5D5D006B6B6B00787878008686860093939300A1A1A100AEAEAE00BBBBBB00C9C9C900D6D6D600E4E4E400
310
F1F1F100FFFFFF000000000000000000000000000000000000000000000000000000000000000000000000000000000000000000000000000000000000000000000000000000000000000000000000000000000000000000000000000000000000000000000000000000000000000000000000000000000000000000000000
310
00000000000000000000000000000000000000000000000000000000000000000000000000000000000000000000000000000000000000000000000000000000000000000000000000000000000000000000000000000000000000000000000000000000000000000000000000000000000000000000000000000000000000
310
00000000000000000000000000000000000000000000000000000000000000000000000000000000000000000000000000000000000000000000000000000000000000000000000000000000000000000000000000000000000000000000000000000000000000000000000000000000000000000000000000000000000000
310
00000000000000000000000000000000000000000000000000000000000000000000000000000000000000000000000000000000000000000000000000000000000000000000000000000000000000000000000000000000000000000000000000000000000000000000000000000000000000000000000000000000000000
310
00000000000000000000000000000000000000000000000000000000000000000000000000000000000000000000000000000000000000000000000000000000000000000000000000000000000000000000000000000000000000000000000000000000000000000000000000000000000000000000000000000000000000
310
0000000000000000000000000000000000000000000000000000000000F5F5F5F5F5F5F5F5F5F5F5F5F5F5F5F5F5F5F5F5F5F500000000000000000000000000000000000000000000000000000000000000000000000000000000000000000000000000000000000000000000000000000000000000000000000000000000
310
00000000000000000000000000000000000000000000000000000000000000000000000000000000000000000000000000000000000000000000000000000000000000000000000000000000000000000000000000000000000000000000000000000000000000000000000000000000000000000000000000000000000000
310
00000000000000000000000000000000000000000000000000000000000000F5F5F5F5F5F5F5F5F5F5F5F5F5F5F5F5F5F5F5F5F5F50000000000000000000000000000000000000000000000000000000000000000000000000000000000000000000000000000000000000000000000000000000000000000000000000000
310
00000000000000000000000000000000000000000000000000000000000000000000000000000000000000000000000000000000000000000000000000000000000000000000000000000000000000000000000000000000000000000000000000000000000000000000000000000000000000000000000000000000000000
310
000000000000000000000000000000000000000000000000000000000000000000F5F5F5F5F5F5F5F5F5F5F5F5F5F5F5F5F5F5F5F5F5F5F5F500000000000000000000000000000000000000000000000000000000000000000000000000000000000000000000000000000000000000000000000000000000000000000000
310
00000000000000000000000000000000000000000000000000000000000000000000000000000000000000000000000000000000000000000000000000000000000000000000000000000000000000000000000000000000000000000000000000000000000000000000000000000000000000000000000000000000000000
310
0000000000000000000000000000000000000000000000000000000000000000000000F5F5F5F5F5F5F5F5F5F5F5F5F5F5F5F5F5F5F5F5F5F5F5F50000000000000000000000000000000000000000000000000000000000000000000000000000000000000000000000000000000000000000000000000000000000000000
310
00000000000000000000000000000000000000000000000000000000000000000000000000000000000000000000000000000000000000000000000000000000000000000000000000000000000000000000000000000000000000000000000000000000000000000000000000000000000000000000000000000000000000
310
00000000000000000000000000000000000000000000000000000000000000000000000000000000000000000000000000000000000000000000000000000000000000000000000000000000000000000000000000000000000000000000000000000000000000000000000000000000000000000000000000000000000000
310
00000000000000000000000000000000000000000000000000000000000000000000000000000000000000000000000000000000000000000000000000000000000000000000000000000000000000000000000000000000000000000000000000000000000000000000000000000000000000000000000000000000000000
310
000000000000000000000000000000000000000000000000000000000000000000000000000000F5F5F5F5F5F5F5F5F5F5F5F5F5000000000000000000000000000000000000000000000000000000000000000000000000000000000000000000000000000000000000000000000000000000000000000000000000000000
310
00000000000000000000000000000000000000000000000000000000000000000000000000000000000000000000000000000000000000000000000000000000000000000000000000000000000000000000000000000000000000000000000000000000000000000000000000000000000000000000000000000000000000
310
0000000000000000000000000000000000000000000000000000000000000000000000000000000000F5F5F5F5F5F5F5F5F5F5F5F5F500000000000000000000000000000000000000000000000000000000000000000000000000000000000000000000000000000000000000000000000000000000000000000000000000
310
00000000000000000000000000000000000000000000000000000000000000000000000000000000000000000000000000000000000000000000000000000000000000000000000000000000000000000000000000000000000000000000000000000000000000000000000000000000000000000000000000000000000000
310
00000000000000000000000000000000000000009300000000000000000000000000000000000000930000000000000000000000000000000000000000000000000000000000000000000000000000000000000000000000000000000000000000000000000000000000000000000000000000000000000000000000000000
310
00000000000000000000000000000000000000000000000000000000000000000000000000000000000000000000000000000000000000000000000000000000000000000000000000000000000000000000000000000000000000000000000000000000000000000000000000000000000000000000000000000000000000
310
00000000000000000000000000000000000000000000939393939393939393939393939393939393939393000000000000000000000000000000000000000000000000000000000000000000000000000000000000000000000000000000000000000000000000000000000000000000000000000000000000000000000000
310
00000000000000000000000000000000000000000000000000000000000000000000000000000000000000000000000000000000000000000000000000000000000000000000000000000000000000000000000000000000000000000000000000000000000000000000000000000000000000000000000000000000000000
310
00000000000000000000000000000000000000000000000093930000000000009393939300000000000000939300000000000000000000000000000000000000000000000000000000000000000000000000000000000000000000000000000000000000000000000000000000000000000000000000000000000000000000
310
00000000000000000000000000000000000000000000000000000000000000000000000000000000000000000000000000000000000000000000000000000000000000000000000000000000000000000000000000000000000000000000000000000000000000000000000000000000000000000000000000000000000000
310
00000000000000000000000000000000000000000000000000009300000000000000939393930000000000000000930000000000000000000000000000000000000000000000000000000000000000000000000000000000000000000000000000000000000000000000000000000000000000000000000000000000000000
310
00000000000000000000000000000000000000000000000000000000000000000000000000000000000000000000000000000000000000000000000000000000000000000000000000000000000000000000000000000000000000000000000000000000000000000000000000000000000000000000000000000000000000
310
00000000000000000000000000000000000000000000000000000000930000000000000000000000000000000000000093000000000000000000000000000000000000000000000000000000000000000000000000000000000000000000000000000000000000000000000000000000000000000000000000000000000000
310
00000000000000000000000000000000000000000000000000000000000000000000000000000000000000000000000000000000000000000000000000000000000000000000000000000000000000000000000000000000000000000000000000000000000000000000000000000000000000000000000000000000000000
310
000000000000000000000000000000000000000000000000000000939393939393939393939393F5000000000000000000009300000000000000000000000000000000000000000000000000000000000000000000000000000000000000000000000000000000000000000000000000000000000000000000000000000000
310
00000000000000000000000000000000000000000000000000000000000000000000000000000000000000000000000000000000000000000000000000000000000000000000000000000000000000000000000000000000000000000000000000000000000000000000000000000000000000000000000000000000000000
310
00000000000000000000000000000000000000000000000000000000000093009300000000F5F5F5F5F5F5F5F500000000000000930000000000000000000000000000000000000000000000000000000000000000000000000000000000000000000000000000000000000000000000000000000000000000000000000000
310
00000000000000000000000000000000000000000000000000000000000000000000000000000000000000000000000000000000000000000000000000000000000000000000000000000000000000000000000000000000000000000000000000000000000000000000000000000000000000000000000000000000000000
310
00000000000000000000000000000000000000000000000000000000000000009300930000F5F5F5F5F50000F5F5F5F500000000000093000000000000000000000000000000000000000000000000000000000000000000000000000000000000000000000000000000000000000000000000000000000000000000000000
310
00000000000000000000000000000000000000000000000000000000000000000000000000000000000000000000000000000000000000000000000000000000000000000000000000000000000000000000000000000000000000000000000000000000000000000000000000000000000000000000000000000000000000
310
0000000000000000000000000000000000000000000000000000000000000000000093009300F5F5F500F5F5F5F5F50000F5F500000000009300000000000000000000000000000000000000000000000000000000000000000000000000000000000000000000000000000000000000000000000000000000000000000000
310
00000000000000000000000000000000000000000000000000000000000000000000000000000000000000000000000000000000000000000000000000000000000000000000000000000000000000000000000000000000000000000000000000000000000000000000000000000000000000000000000000000000000000
310
000000000000000000000000000000000000000000000000000000000000000000000000930093F5F5F500F50000000000F5F500F5F500000000930000000000000000000000000000000000000000000000000000000000000000000000000000000000000000000000000000000000000000000000000000000000000000
310
00000000000000000000000000000000000000000000000000000000000000000000000000000000000000000000000000000000000000000000000000000000000000000000000000000000000000000000000000000000000000000000000000000000000000000000000000000000000000000000000000000000000000
310
0000000000000000000000000000000000000000000000000000000000000000000000000000930093F5F500F500F5F5F5F5F50000F500F5F500F5F593000000000000000000000000000000000000000000000000000000000000000000000000000000000000000000000000000000000000000000000000000000000000
310
00000000000000000000000000000000000000000000000000000000000000000000000000000000000000000000000000000000000000000000000000000000000000000000000000000000000000000000000000000000000000000000000000000000000000000000000000000000000000000000000000000000000000
310
00000000000000000000000000000000000000000000000000000000000000000000000000009393930093F5F5F500F5F500000000F500F500F5F500F5F59300000000000000000000000000000000000000000000000000000000000000000000000000000000000000000000000000000000000000000000000000000000
310
00000000000000000000000000000000000000000000000000000000000000000000000000000000000000000000000000000000000000000000000000000000000000000000000000000000000000000000000000000000000000000000000000000000000000000000000000000000000000000000000000000000000000
310
000000000000000000000000000000000000000000000000000000000000000000000000000000009393930093F500F500F5000000000000F5F5F5F5F5F5F5F5930000000000000000000000000000000000000000000000000000000000000000000000000000000000000000000000000000000000000000000000000000
310
00000000000000000000000000000000000000000000000000000000000000000000000000000000000000000000000000000000000000000000000000000000000000000000000000000000000000000000000000000000000000000000000000000000000000000000000000000000000000000000000000000000000000
310
0000000000000000000000000000000000000000000000000000000000000000000000000000000000009393930093F500F500F500F50000F500F5000000000000F5F5000000000000000000000000000000000000000000000000000000000000000000000000000000000000000000000000000000000000000000000000
310
00000000000000000000000000000000000000000000000000000000000000000000000000000000000000000000000000000000000000000000000000000000000000000000000000000000000000000000000000000000000000000000000000000000000000000000000000000000000000000000000000000000000000
310
000000000000000000000000000000000000000000000000000000000000000000000000000000000000000093939300F5F500F500F5000000000000F5F5F5F5F5F5F5F5F500000000000000000000000000000000000000000000000000000000000000000000000000000000000000000000000000000000000000000000
310
00000000000000000000000000000000000000000000000000000000000000000000000000000000000000000000000000000000000000000000000000000000000000000000000000000000000000000000000000000000000000000000000000000000000000000000000000000000000000000000000000000000000000
310
000000000000000000000000000000000000000000000000000000000000000000000000000000000000000000000000930000F5F5F500F50000000000F5F5F500F5F500F5F5000000000000000000000000000000000000000000000000000000000000000000000000000000000000000000000000000000000000000000
310
00000000000000000000000000000000000000000000000000000000000000000000000000000000000000000000000000000000000000000000000000000000000000000000000000000000000000000000000000000000000000000000000000000000000000000000000000000000000000000000000000000000000000
310
0000000000000000000000000000000000000000000000000000000000000000000000000000000000000000000000000000930000F5F500F500F5F50000F5F500F500F5F500000000000000000000000000000000000000000000000000000000000000000000000000000000000000000000000000000000000000000000
310
00000000000000000000000000000000000000000000000000000000000000000000000000000000000000000000000000000000000000000000000000000000000000000000000000000000000000000000000000000000000000000000000000000000000000000000000000000000000000000000000000000000000000
310
00000000000000000000000000000000000000000000000000000000000000000000000000000000000000000000000000000000930000F5F500F5000000F5F5000000F5F5F5000000000000000000000000000000000000000000000000000000000000000000000000000000000000000000000000000000000000000000
310
00000000000000000000000000000000000000000000000000000000000000000000000000000000000000000000000000000000000000000000000000000000000000000000000000000000000000000000000000000000000000000000000000000000000000000000000000000000000000000000000000000000000000
310
00000000000000000000000000000000000000000000000000000000000000000000000000000000000000000000000000000000000093000000F5F500F5F5000000F5F5F5F5F50000000000000000000000000000000000000000000000000000000000000000000000000000000000000000000000000000000000000000
310
00000000000000000000000000000000000000000000000000000000000000000000000000000000000000000000000000000000000000000000000000000000000000000000000000000000000000000000000000000000000000000000000000000000000000000000000000000000000000000000000000000000000000
310
00000000000000000000000000000000000000000000000000000000000000000000000000000000000000000000000000000000000000009300000000F5F5F500F5F5F50000F5F500000000000000000000000000000000000000000000000000000000000000000000000000000000000000000000000000000000000000
310
00000000000000000000000000000000000000000000000000000000000000000000000000000000000000000000000000000000000000000000000000000000000000000000000000000000000000000000000000000000000000000000000000000000000000000000000000000000000000000000000000000000000000
310
00000000000000000000000000000000000000000000000000000000000000000000000000000000000000000000000000000000000000000000930000000000F5F5F5F5F5F5F5F5F5000000000000000000000000000000000000000000000000000000000000000000000000000000000000000000000000000000000000
310
00000000000000000000000000000000000000000000000000000000000000000000000000000000000000000000000000000000000000000000000000000000000000000000000000000000000000000000000000000000000000000000000000000000000000000000000000000000000000000000000000000000000000
310
0000000000000000000000000000000000000000000000000000000000000000000000000000000000000000000000000000000000000000000000939393939393939393939393F5F5F50000000000000000000000000000000000000000000000000000000000000000000000000000000000000000000000000000000000
310
00000000000000000000000000000000000000000000000000000000000000000000000000000000000000000000000000000000000000000000000000000000000000000000000000000000000000000000000000000000000000000000000000000000000000000000000000000000000000000000000000000000000000
310
00000000000000000000000000000000000000000000000000000000000000000000000000000000000000000000000000000000000000000000000000000000000000000000000000000000000000000000000000000000000000000000000000000000000000000000000000000000000000000000000000000000000000
310
00000000000000000000000000000000000000000000000000000000000000000000000000000000000000000000000000000000000000000000000000000000000000000000000000000000000000000000000000000000000000000000000000000000000000000000000000000000000000000000000000000000000000
310
00000000000000000000000000000000000000000000000000000000000000000000000000000000000000000000000000000000000000000000000000000000000000000000000000000000000000000000000000000000000000000000000000000000000000000000000000000000000000000000000000000000000000
310
00000000000000000000000000000000000000000000000000000000000000000000000000000000000000000000000000000000000000000000000000000000000000000000000000000000000000000000000000000000000000000000000000000000000000000000000000000000000000000000000000000000000000
310
00000000000000000000000000000000000000000000000000000000000000000000000000000000000000000000000000000000000000000000000000000000000000000000000000000000000000000000000000000000000000000000000000000000000000000000000000000000000000000000000000000000000000
310
00000000000000000000000000000000000000000000000000000000000000000000000000000000000000000000000000000000000000000000000000000000000000000000000000000000000000000000000000000000000000000000000000000000000000000000000000000000000000000000000000000000000000
310
00000000000000000000000000000000000000000000000000000000000000000000000000000000000000000000000000000000000000000000000000000000000000000000000000000000000000000000000000000000000000000000000000000000000000000000000000000000000000000000000000000000000000
310
00000000000000000000000000000000000000000000000000000000000000000000000000000000000000000000000000000000000000000000000000000000000000000000000000000000000000000000000000000000000000000000000000000000000000000000000000000000000000000000000000000000000000
310
00000000000000000000000000000000000000000000000000000000000000000000000000000000000000000000000000000000000000000000000000000000000000000000000000000000000000000000000000000000000000000000000000000000000000000000000000000000000000000000000000000000000000
310
00000000000000000000000000000000000000000000000000000000000000000000000000000000000000000000000000000000000000000000000000000000000000000000000000000000000000000000000000000000000000000000000000000000000000000000000000000000000000000000000000000000000000
310
00000000000000000000000000000000000000000000000000000000000000000000000000000000000000000000000000000000000000000000000000000000000000000000000000000000000000000000000000000000000000000000000000000000000000000000000000000000000000000000000000000000000000
310
00000000000000000000000000000000000000000000000000000000000000000000000000000000000000000000000000000000000000000000000000000000000000000000000000000000000000000000000000000000000000000000000000000000000000000000000000000000000000000000000000000000000000
310
00000000000000000000000000000000000000000000000000000000000000000000000000000000000000000000000000000000000000000000000000000000000000000000000000000000000000000000000000000000000000000000000000000000000000000000000000000000000000000000000000000000000000
310
00000000000000000000000000000000000000000000000000000000000000000000000000000000000000000000000000000000000000000000000000000000000000000000000000000000000000000000000000000000000000000000000000000000000000000000000000000000000000000000000000000000000000
310
00000000000000000000000000000000000000000000000000000000000000000000000000000000000000000000000000000000000000000000000000000000000000000000000000000000000000000000000000000000000000000000000000000000000000000000000000000000000000000000000000000000000000
310
00000000000000000000000000000000000000000000000000000000000000000000000000000000000000000000000000000000000000000000000000000000000000000000000000000000000000000000000000000000000000000000000000000000000000000000000000000000000000000000000000000000000000
310
00000000000000000000000000000000000000000000000000000000000000000000000000000000000000000000000000000000000000000000000000000000000000000000000000000000000000000000000000000000000000000000000000000000000000000000000000000000000000000000000000000000000000
310
00000000000000000000000000000000000000000000000000000000000000000000000000000000000000000000000000000000000000000000000000000000000000000000000000000000000000000000000000000000000000000000000000000000000000000000000000000000000000000000000000000000000000
310
00000000000000000000000000000000000000000000000000000000000000000000000000000000000000000000000000000000000000000000000000000000000000000000000000000000000000000000000000000000000000000000000000000000000000000000000000000000000000000000000000000000000000
310
00000000000000000000000000000000000000000000000000000000000000000000000000000000000000000000000000000000000000000000000000000000000000000000000000000000000000000000000000000000000000000000000000000000000000000000000000000000000000000000000000000000000000
310
00000000000000000000000000000000000000000000000000000000000000000000000000000000000000000000000000000000000000000000000000000000000000000000000000000000000000000000000000000000000000000000000000000000000000000000000000000000000000000000000000000000000000
310
00000000000000000000000000000000000000000000000000000000000000000000000000000000000000000000000000000000000000000000000000000000000000000000000000000000000000000000000000000000000000000000000000000000000000000000000000000000000000000000000000000000000000
310
00000000000000000000000000000000000000000000000000000000000000000000000000000000000000000000000000000000000000000000000000000000000000000000000000000000000000000000000000000000000000000093000000000000000000000000000000930000000000000000000000000000000000
310
00000000000000000000000000000000000000000000000000000000000000000000000000000000000000000000000000000000000000000000000000000000000000000000000000000000000000000000000000000000000000000000000000000000000000000000000000000000000000000000000000000000000000
310
00000000000000000000000000000000000000000000000000000000000000000000000000000000000000000000000000000000000000000000000000000000000000000000000000000000000000000000000000000000000000000000009393939393939393939393939393939393000000000000000000000000000000
310
00000000000000000000000000000000000000000000000000000000000000000000000000000000000000000000000000000000000000000000000000000000000000000000000000000000000000000000000000000000000000000000000000000000000000000000000000000000000000000000000000000000000000
310
00000000000000000000000000000000000000000000000000000000000000000000000000000000000000000000000000000000000000000000000000000000000000000000000000000000000000000000000000000000000000000000000000930000000000939393000000000000009300000000000000000000000000
310
00000000000000000000000000000000000000000000000000000000000000000000000000000000000000000000000000000000000000000000000000000000000000000000000000000000000000000000000000000000000000000000000000000000000000000000000000000000000000000000000000000000000000
310
00000000000000000000000000000000000000000000000000000000000000000000000000000000000000000000000000000000000000000000000000000000000000000000000000000000000000000000000000000000000000000000000000000093000000000093939300000000000000930000000000000000000000
310
00000000000000000000000000000000000000000000000000000000000000000000000000000000000000000000000000000000000000000000000000000000000000000000000000000000000000000000000000000000000000000000000000000000000000000000000000000000000000000000000000000000000000
310
00000000000000000000000000000000000000000000000000000000000000000000000000000000000000000000000000000000000000000000000000000000000000000000000000000000000000000000000000000000000000000000000000000000009300000000000000000000000000000093000000000000000000
310
00000000000000000000000000000000000000000000000000000000000000000000000000000000000000000000000000000000000000000000000000000000000000000000000000000000000000000000000000000000000000000000000000000000000000000000000000000000000000000000000000000000000000
310
00000000000000000000000000000000000000000000000000000000000000000000000000000000000000000000000000000000000000000000000000000000000000000000000000000000000000000000000000000000000000000000000000000000000000930000000000000000000000000000009300000000000000
310
00000000000000000000000000000000000000000000000000000000000000000000000000000000000000000000000000000000000000000000000000000000000000000000000000000000000000000000000000000000000000000000000000000000000000000000000000000000000000000000000000000000000000
310
00000000000000000000000000000000000000000000000000000000000000000000000000000000000000000000000000000000000000000000000000000000000000000000000000000000000000000000000000000000000000000000000000000000000000000093000000000000000000000000000000930000000000
310
00000000000000000000000000000000000000000000000000000000000000000000000000000000000000000000000000000000000000000000000000000000000000000000000000000000000000000000000000000000000000000000000000000000000000000000000000000000000000000000000000000000000000
310
00000000000000000000000000000000000000000000000000000000000000000000000000000000000000000000000000000000000000000000000000000000000000000000000000000000000000000000000000000000000000000000000000000000000000000000009300000000000000000000000000000093000000
310
00000000000000000000000000000000000000000000000000000000000000000000000000000000000000000000000000000000000000000000000000000000000000000000000000000000000000000000000000000000000000000000000000000000000000000000000000000000000000000000000000000000000000
310
00000000000000000000000000000000000000000000000000000000000000000000000000000000000000000000000000000000000000000000000000000000000000000000000000000000000000000000000000000000000000000000000000000000000000000000000000930000000000000000000000000000009300
310
00000000000000000000000000000000000000000000000000000000000000000000000000000000000000000000000000000000000000000000000000000000000000000000000000000000000000000000000000000000000000000000000000000000000000000000000000000000000000000000000000000000000000
310
00000000000000000000000000000000000000000000000000000000000000000000000000000000000000000000000000000000000000000000000000000000000000000000000000000000000000000000000000000000000000000000000000000000000000000000000000000093000000000000000000000000000000
310
93000000000000000000000000000000000000000000000000000000000000000000000000000000000000000000000000000000000000000000000000000000000000000000000000000000000000000000000000000000000000000000000000000000000000000000000000000000000000000000000000000000000000
310
000000000000000000000000000000000000000000000000000000000000000000000000000000000000000000000000000000000000000000000000000000000000000000000000000000000000000000000000000000000000000000000000000000000000000000000000000000000093F5F5F5F5F5F5F5F5F5F5F5F5F5
310
F5F59393939393939393939393939393000000000000000000000000000000000000000000000000000000000000000000000000000000000000000000000000000000000000000000000000000000000000000000000000000000000000000000000000000000000000000000000000000000000000000000000000000000
310
00000000000000000000000000000000000000000000000000000000000000000000000000000000000000000000000000000000000000000000000000000000000000000000000000000000000000000000000000000000000000000000000000000000000000000000000000000000000000F50000000000000000000000
310
00000000F50000000000000000939393930000000000000000000000000000000000000000000000000000000000000000000000000000000000000000000000000000000000000000000000000000000000000000000000000000000000000000000000000000000000000000000000000000000000000000000000000000
310
000000000000000000000000000000000000000000000000000000000000000000000000000000000000000000000000000000000000000000000000000000000000000000000000000000000000000000000000000000000000000000000000000000000000000000000000000000000000000000F5000000000000000000
310
000000000000F5000000000000000093939393000000000000000000000000000000000000000000000000000000000000000000000000000000000000000000000000000000000000000000000000000000000000000000000000000000000000000000000000000000000000000000000000000000000000000000000000
310
0000000000000000000000000000000000000000000000000000000000000000000000000000000000000000000000000000000000000000000000000000000000000000000000000000000000000000000000000000000000000000000000000000000000000000000000000000000000000000000000F500000000000000
310
00000000000000F50000000000000000009393939300000000000000000000000000000000000000000000000000000000000000000000000000000000000000000000000000000000000000000000000000000000000000000000000000000000000000000000000000000000000000000000000000000000000000000000
310
00000000000000000000000000000000000000000000000000000000000000000000000000000000000000000000000000000000000000000000000000000000000000000000000000000000000000000000000000000000000000000000000000000000000000000000000000000000000000000000000000F5F5F5F5F5F5
310
F5F5F5F5F5F5F5F5F593939393939393939393939393939300000000000000000000000000000000000000000000000000000000000000000000000000000000000000000000000000000000000000000000000000000000000000000000000000000000000000000000000000000000000000000000000000000000000000
310
00000000000000000000000000000000000000000000000000000000000000000000000000000000000000000000000000000000000000000000000000000000000000000000000000000000000000000000000000000000000000000000000000000000000000000000000000000000000000000000000000000000000000
310
00F5F5F5F5F5F5000000000000000000000000000000000093000000000000000000000000000000000000000000000000000000000000000000000000000000000000000000000000000000000000000000000000000000000000000000000000000000000000000000000000000000000000000000000000000000000000
310
00000000000000000000000000000000000000000000000000000000000000000000000000000000000000000000000000000000000000000000000000000000000000000000000000000000000000000000000000000000000000000000000000000000000000000000000000000000000000000000000000000000000000
310
00000000F5000000F500000000000000000000000000000000009300000000000000000000000000000000000000000000000000000000000000000000000000000000000000000000000000000000000000000000000000000000000000000000000000000000000000000000000000000000000000000000000000000000
310
00000000000000000000000000000000000000000000000000000000000000000000000000000000000000000000000000000000000000000000000000000000000000000000000000000000000000000000000000000000000000000000000000000000000000000000000000000000000000000000000000000000000000
310
000000000000F5000000F50000000000000000000000000000939393930000000000000000000000000000000000000000000000000000000000000000000000000000000000000000000000000000000000000000000000000000000000000000000000000000000000000000000000000000000000000000000000000000
310
00000000000000000000000000000000000000000000000000000000000000000000000000000000000000000000000000000000000000000000000000000000000000000000000000000000000000000000000000000000000000000000000000000000000000000000000000000000000000000000000000000000000000
310
0000000000000000F5000000F5000000000000000000000000000093939393000000000000000000000000000000000000000000000000000000000000000000000000000000000000000000000000000000000000000000000000000000000000000000000000000000000000000000000000000000000000000000000000
310
00000000000000000000000000000000000000000000000000000000000000000000000000000000000000000000000000000000000000000000000000000000000000000000000000000000000000000000000000000000000000000000000000000000000000000000000000000000000000000000000000000000000000
310
0000000000000000000000F50000F500000000000000000000000000009393939300000000000000000000000000000000000000000000000000000000000000000000000000000000000000000000000000000000000000000000000000000000000000000000000000000000000000000000000000000000000000000000
310
00000000000000000000000000000000000000000000000000000000000000000000000000000000000000000000000000000000000000000000000000000000000000000000000000000000000000000000000000000000000000000000000000000000000000000000000000000000000000000000000000000000000000
310
00000000000000000000000000F50000F50000000000000000000000000000000000930000000000000000000000000000000000000000000000000000000000000000000000000000000000000000000000000000000000000000000000000000000000000000000000000000000000000000000000000000000000000000
310
00000000000000000000000000000000000000000000000000000000000000000000000000000000000000000000000000000000000000000000000000000000000000000000000000000000000000000000000000000000000000000000000000000000000000000000000000000000000000000000000000000000000000
310
000000000000000000000000000000F50000F5000000000000000000000000000000000093000000000000000000000000000000000000000000000000000000000000000000000000000000000000000000000000000000000000000000000000000000000000000000000000000000000000000000000000000000000000
310
00000000000000000000000000000000000000000000000000000000000000000000000000000000000000000000000000000000000000000000000000000000000000000000000000000000000000000000000000000000000000000000000000000000000000000000000000000000000000000000000000000000000000
310
0000000000000000000000000000000000F50000F500000000000000000000000000000000009300000000000000000000000000000000000000000000000000000000000000000000000000000000000000000000000000000000000000000000000000000000000000000000000000000000000000000000000000000000
310
00000000000000000000000000000000000000000000000000000000000000000000000000000000000000000000000000000000000000000000000000000000000000000000000000000000000000000000000000000000000000000000000000000000000000000000000000000000000000000000000000000000F5F593
310
9393939393939393F5F5F5F5F5F5F5F5F5F5F5F5F5F5F5F5F5F5F5F5F5F5F5F5F5F5F5F5F5F5F5F593F5F5F5F500000000000000000000000000000000000000000000000000000000000000000000000000000000000000000000000000000000000000000000000000000000000000000000000000000000000000000000
310
00000000000000000000000000000000000000000000000000000000000000000000000000000000000000000000000000000000000000000000000000000000000000000000000000000000000000000000000000000000000000000000000000000000000000000000000000000000000000000000000000000000000000
310
000093000000000000000000000000000000000000F50000F5000000000000000000000000000000000000000000000000000000000000000000000000000000000000000000000000000000000000000000000000000000000000000000000000000000000000000000000000000000000000000000000000000000000000
310
00000000000000000000000000000000000000000000000000000000000000000000000000000000000000000000000000000000000000000000000000000000000000000000000000000000000000000000000000000000000000000000000000000000000000000000000000000000000000000000000000000000000000
310
0000000093000000000000000000000000000000000000F50000F500000000000000000000000000000000000000000000000000000000000000000000000000000000000000000000000000000000000000000000000000000000000000000000000000000000000000000000000000000000000000000000000000000000
310
00000000000000000000000000000000000000000000000000000000000000000000000000000000000000000000000000000000000000000000000000000000000000000000000000000000000000000000000000000000000000000000000000000000000000000000000000000000000000000000000000000000000000
310
00000000000093000000000000000000000000000000000000F50000F50000000000000000000000000000000000000000000000000000000000000000000000000000000000000000000000000000000000000000000000000000000000000000000000000000000000000000000000000000000000000000000000000000
310
00000000000000000000000000000000000000000000000000000000000000000000000000000000000000000000000000000000000000000000000000000000000000000000000000000000000000000000000000000000000000000000000000000000000000000000000000000000000000000000000000000000000000
310
000000000000000093000000000000000000000000000000000000F50000F5000000000000000000000000000000000000000000000000000000000000000000000000000000000000000000000000000000000000000000000000000000000000000000000000000000000000000000000000000000000000000000000000
310
00000000000000000000000000000000000000000000000000000000000000000000000000000000000000000000000000000000000000000000000000000000000000000000000000000000000000000000000000000000000000000000000000000000000000000000000000000000000000000000000000000000000000
310
0000000000000000000093000000000000000000000000000000000000F50000F500000000000000000000000000000000000000000000000000000000000000000000000000000000000000000000000000000000000000000000000000000000000000000000000000000000000000000000000000000000000000000000
310
00000000000000000000000000000000000000000000000000000000000000000000000000000000000000000000000000000000000000000000000000000000000000000000000000000000000000000000000000000000000000000000000000000000000000000000000000000000000000000000000000000000000000
310
00000000000000000000000093000000000000000000000000000000000000F5000000F500000000000000000000000000000000000000000000000000000000000000000000000000000000000000000000000000000000000000000000000000000000000000000000000000000000000000000000000000000000000000
310
00000000000000000000000000000000000000000000000000000000000000000000000000000000000000000000000000000000000000000000000000000000000000000000000000000000000000000000000000000000000000000000000000000000000000000000000000000000000000000000000000000000000000
310
000000000000000000000000000093000000000000000000000000000000000000F5000000F50000000000000000000000000000000000000000000000000000000000000000000000000000000000000000000000000000000000000000000000000000000000000000000000000000000000000000000000000000000000
310
00000000000000000000000000000000000000000000000000000000000000000000000000000000000000000000000000000000000000000000000000000000000000000000000000000000000000000000000000000000000000000000000000000000000000000000000000000000000000000000000000000000000000
310
000000000000000000000000000000009300000000000000F5F5F5F5F5F5F5F5F5F5F5F5000000F5000000000000000000000000000000000000000000000000000000000000000000000000000000000000000000000000000000000000000000000000000000000000000000000000000000000000000000000000000000
310
00000000000000000000000000000000000000000000000000000000000000000000000000000000000000000000000000000000000000000000000000000000000000000000000000000000000000000000000000000000000000000000000000000000000000000000000000000000000000000000000000000000000000
310
0000000000000000000000000000000000009300000000000000F500000000000000000000F5000000F500000000000000000000000000000000000000000000000000000000000000000000000000000000000000000000000000000000000000000000000000000000000000000000000000000000000000000000000000
310
00000000000000000000000000000000000000000000000000000000000000000000000000000000000000000000000000000000000000000000000000000000000000000000000000000000000000000000000000000000000000000000000000000000000000000000000000000000000000000000000000000000000000
310
00000000000000000000000000000000000000009300000000000000F500000000000000000000F5000000F50000000000000000000000000000000000000000000000000000000000000000000000000000000000000000000000000000000000000000000000000000000000000000000000000000000000000000000000
310
00000000000000000000000000000000000000000000000000000000000000000000000000000000000000000000000000000000000000000000000000000000000000000000000000000000000000000000000000000000000000000000000000000000000000000000000000000000000000000000000000000000000000
310
000000000000000000000000000000000000000000009300000000000000F500000000000000000000F5000000F5000000000000000000000000000000000000000000000000000000000000000000000000000000000000000000000000000000000000000000000000000000000000000000000000000000000000000000
310
00000000000000000000000000000000000000000000000000000000000000000000000000000000000000000000000000000000000000000000000000000000000000000000000000000000000000000000000000000000000000000000000000000000000000000000000000000000000000000000000000000000000000
310
0000000000000000000000000000000000000000000000009300000000000000F500000000000000000000F5000000F500000000000000000000000000000000000000000000000000000000000000000000000000000000000000000000000000000000000000000000000000000000000000000000000000000000000000
310
00000000000000000000000000000000000000000000000000000000000000000000000000000000000000000000000000000000000000000000000000000000000000000000000000000000000000000000000000000000000000000000000000000000000000000000000000000000000000000000000000000000000000
310
00000000000000000000000000000000000000000000000000009300000000000000F500000000000000000000F5000000F50000000000000000000000000000000000000000000000000000000000000000000000000000000000000000000000000000000000000000000000000000000000000000000000000000000000
310
00000000000000000000000000000000000000000000000000000000000000000000000000000000000000000000000000000000000000000000000000000000000000000000000000000000000000000000000000000000000000000000000000000000000000000000000000000000000000000000000000000000000000
310
000000000000000000000000000000000000000000000000000000009300000000000000F500000000000000000000F5F50000F5000000000000000000000000000000000000000000000000000000000000000000000000000000000000000000000000000000000000000000000000000000000000000000000000000000
310
00000000000000000000000000000000000000000000000000000000000000000000000000000000000000000000000000000000000000000000000000000000000000000000000000000000000000000000000000000000000000000000000000000000000000000000000000000000000000000000000000000000000000
310
0000000000000000000000000000000000000000000000000000000000009300000000000000F500000000000000000000F5F50000F500000000000000000000000000000000000000000000000000000000000000000000000000000000000000000000000000000000000000000000000000000000000000000000000000
310
00000000000000000000000000000000000000000000000000000000000000000000000000000000000000000000000000000000000000000000000000000000000000000000000000000000000000000000000000000000000000000000000000000000000000000000000000000000000000000000000000000000000000
310
00000000000000000000000000000000000000000000000000000000000093939300000000000000F500000000000000000000F5F5000000F500000000000000000000000000000000000000000000000000000000000000000000000000000000000000000000000000000000000000000000000000000000000000000000
310
00000000000000000000000000000000000000000000000000000000000000000000000000000000000000000000000000000000000000000000000000000000000000000000000000000000000000000000000000000000000000000000000000000000000000000000000000000000000000000000000000000000000000
310
000000000000000000000000000000000000000000000000000000000000000093939300000000000000F500000000000000000000F5F5000000F50000000000000000000000000000000000000000000000000000000000000000000000000000000000000000000000000000000000000000000000000000000000000000
310
00000000000000000000000000000000000000000000000000000000000000000000000000000000000000000000000000000000000000000000000000000000000000000000000000000000000000000000000000000000000000000000000000000000000000000000000000000000000000000000000000000000000000
310
0000000000000000000000000000000000000000000000000000000000000000000093939300000000000000F500000000000000000000F5F5000000F5000000000000000000000000000000000000000000000000000000000000000000000000000000000000000000000000000000000000000000000000000000000000
310
00000000000000000000000000000000000000000000000000000000000000000000000000000000000000000000000000000000000000000000000000000000000000000000000000000000000000000000000000000000000000000000000000000000000000000000000000000000000000000000000000000000000000
310
000000000000000000000000000000000000000000000000000000000000000000000000000093000000000000F5000000000000000000000000F5000000F500000000000000000000000000000000000000000000000000000000000000000000000000000000000000000000000000000000000000000000000000000000
310
00000000000000000000000000000000000000000000000000000000000000000000000000000000000000000000000000000000000000000000000000000000000000000000000000000000000000000000000000000000000000000000000000000000000000000000000000000000000000000000000000000000000000
310
0000000000000000000000000000000000000000000000000000000000000000000000000000000093000000000000F5000000000000000000000000F5000000F50000000000000000000000000000000000000000000000000000000000000000000000000000000000000000000000000000000000000000000000000000
310
00000000000000000000000000000000000000000000000000000000000000000000000000000000000000000000000000000000000000000000000000000000000000000000000000000000000000000000000000000000000000000000000000000000000000000000000000000000000000000000000000000000000000
310
00000000000000000000000000000000000000000000000000000000000000000000000000000000000093000000000000F5000000000000000000000000F5000000F5000000000000000000000000000000000000000000000000000000000000000000000000000000000000000000000000000000000000000000000000
310
00000000000000000000000000000000000000000000000000000000000000000000000000000000000000000000000000000000000000000000000000000000000000000000000000000000000000000000000000000000000000000000000000000000000000000000000000000000000000000000000000000000000000
310
000000000000000000000000000000000000000000000000000000000000000000000000000000000000000093000000000000F5000000000000000000000000F5000000F500000000000000000000000000000000000000000000000000000000000000000000000000000000000000000000000000000000000000000000
310
00000000000000000000000000000000000000000000000000000000000000000000000000000000000000000000000000000000000000000000000000000000000000000000000000000000000000000000000000000000000000000000000000000000000000000000000000000000000000000000000000000000000000
310
0000000000000000000000000000000000000000000000000000000000000000000000000000000000000000000093000000000000F5000000000000000000000000F5000000F50000000000000000000000000000000000000000000000000000000000000000000000000000000000000000000000000000000000000000
310
00000000000000000000000000000000000000000000000000000000000000000000000000000000000000000000000000000000000000000000000000000000000000000000000000000000000000000000000000000000000000000000000000000000000000000000000000000000000000000000000000000000000000
310
00000000000000000000000000000000000000000000000000000000000000000000000000000000000000000000000093000000000000F5000000000000000000000000F5000000F5000000000000000000000000000000000000000000000000000000000000000000000000000000000000000000000000000000000000
310
00000000000000000000000000000000000000000000000000000000000000000000000000000000000000000000000000000000000000000000000000000000000000000000000000000000000000000000000000000000000000000000000000000000000000000000000000000000000000000000000000000000000000
310
000000000000000000000000000000000000000000000000000000000000000000000000000000000000000000000000000093000000000000F5000000000000000000000000F5000000F500000000000000000000000000000000000000000000000000000000000000000000000000000000000000000000000000000000
310
00000000000000000000000000000000000000000000000000000000000000000000000000000000000000000000000000000000000000000000000000000000000000000000000000000000000000000000000000000000000000000000000000000000000000000000000000000000000000000000000000000000000000
310
0000000000000000000000000000000000000000000000000000000000000000000000000000000000000000000000000000000093000000000000F5000000000000000000000000F5F5000000F500000000000000000000000000000000000000000000000000000000000000000000000000000000000000000000000000
310
00000000000000000000000000000000000000000000000000000000000000000000000000000000000000000000000000000000000000000000000000000000000000000000000000000000000000000000000000000000000000000000000000000000000000000000000000000000000000000000000000000000000000
310
00000000000000000000000000000000000000000000000000000000000000000000000000000000000000000000000000000000000093000000000000F5000000000000000000000000F5F5000000F50000000000000000000000000000000000000000000000000000000000000000000000000000000000000000000000
310
00000000000000000000000000000000000000000000000000000000000000000000000000000000000000000000000000000000000000000000000000000000000000000000000000000000000000000000000000000000000000000000000000000000000000000000000000000000000000000000000000000000000000
310
000000000000000000000000000000000000000000000000000000000000000000000000000000000000000000000000000000000000000093000000000000F5000000000000000000000000F5F500F5F5F5000000000000000000000000000000000000000000000000000000000000000000000000000000000000000000
310
00000000000000000000000000000000000000000000000000000000000000000000000000000000000000000000000000000000000000000000000000000000000000000000000000000000000000000000000000000000000000000000000000000000000000000000000000000000000000000000000000000000000000
310
000000000000000000000000000000000000000000000000000000000000000000000000000000000000000000000000000000000000000000009300000000F5F5F5F5F5F5F5F5F5F5F5F5F5F5F5F5F500F5F5F500000000000000000000000000000000000000000000000000000000000000000000000000000000000000
310
00000000000000000000000000000000000000000000000000000000000000000000000000000000000000000000000000000000000000000000000000000000000000000000000000000000000000000000000000000000000000000000000000000000000000000000000000000000000000000000000000000000000000
310
0000000000000000000000000000000000000000000000000000000000000000000000000000000000000000000000000000000000000000000000009300000000F5000000000000000000000000000000F500F5F5F50000000000000000000000000000000000000000000000000000000000000000000000000000000000
310
00000000000000000000000000000000000000000000000000000000000000000000000000000000000000000000000000000000000000000000000000000000000000000000000000000000000000000000000000000000000000000000000000000000000000000000000000000000000000000000000000000000000000
310
00000000000000000000000000000000000000000000000000000000000000000000000000000000000000000000000000000000000000000000000000009300000000F5F5F5F5F5F5F5F5F5F5F5F5F5F5F5F5F5F5F5F5F5000000000000000000000000000000000000000000000000000000000000000000000000000000
310
00000000000000000000000000000000000000000000000000000000000000000000000000000000000000000000000000000000000000000000000000000000000000000000000000000000000000000000000000000000000000000000000000000000000000000000000000000000000000000000000000000000000000
310
00000000000000000000000000000000000000000000000000000000000000000000000000000000000000000000000000000000000000000000000000000000930000000000F5F5F5F5F5F5F5F5F5F5F5F5F5F5F5F5F5F5F5F500000000000000000000000000000000000000000000000000000000000000000000000000
310
00000000000000000000000000000000000000000000000000000000000000000000000000000000000000000000000000000000000000000000000000000000000000000000000000000000000000000000000000000000000000000000000000000000000000000000000000000000000000000000000000000000000000
310
0000000000000000000000000000000000000000000000000000000000000000000000000000000000000000000000000000000000000000000000000000000000939393939393939393939393F5F5F5F5F5F5F5F5F5F5F5F5F5F5F50000000000000000000000000000000000000000000000000000000000000000000000
310
00000000000000000000000000000000000000000000000000000000000000000000000000000000000000000000000000000000000000000000000000000000000000000000000000000000000000000000000000000000000000000000000000000000000000000000000000000000000000000000000000000000000000
310
00000000000000000000000000000000000000000000000000000000000000000000000000000000000000000000000000000000000000000000000000000000000000000000000000000000000000000000000000000000000000000000000000000000000000000000000000000000000000000000000000000000000000
310
00000000000000000000000000000000000000000000000000000000000000000000000000000000000000000000000000000000000000000000000000000000000000000000000000000000000000000000000000000000000000000000000000000000000000000000000000000000000000000000000000000000000000
310
00000000000000000000000000000000000000000000000000000000000000000000000000000000000000000000000000000000000000000000000000000000000000000000000000000000000000000000000000000000000000000000000000000000000000000000000000000000000000000000000000000000000000
310
00000000000000000000000000000000000000000000000000000000000000000000000000000000000000000000000000000000000000000000000000000000000000000000000000000000000000000000000000000000000000000000000000000000000000000000000000000000000000000000000000000000000000
310
00000000000000000000000000000000000000000000000000000000000000000000000000000000000000000000000000000000000000000000000000000000000000000000000000000000000000000000000000000000000000000000000000000000000000000000000000000000000000000000000000000000000000
310
00000000000000000000000000000000000000000000000000000000000000000000000000000000000000000000000000000000000000000000000000000000000000000000000000000000000000000000000000000000000000000000000000000000000000000000000000000000000000000000000000000000000000
310
00000000000000000000000000000000000000000000000000000000000000000000000000000000000000000000000000000000000000000000000000000000000000000000000000000000000000000000000000000000000000000000000000000000000000000000000000000000000000000000000000000000000000
310
00000000000000000000000000000000000000000000000000000000000000000000000000000000000000000000000000000000000000000000000000000000000000000000000000000000000000000000000000000000000000000000000000000000000000000000000000000000000000000000000000000000000000
310
00000000000000000000000000000000000000000000000000000000000000000000000000000000000000000000000000000000000000000000000000000000000000000000000000000000000000000000000000000000000000000000000000000000000000000000000000000000000000000000000000000000000000
310
00000000000000000000000000000000000000000000000000000000000000000000000000000000000000000000000000000000000000000000000000000000000000000000000000000000000000000000000000000000000000000000000000000000000000000000000000000000000000000000000000000000000000
310
00000000000000000000000000000000000000000000000000000000000000000000000000000000000000000000000000000000000000000000000000000000000000000000000000000000000000000000000000000000000000000000000000000000000000000000000000000000000000000000000000000000000000
310
00000000000000000000000000000000000000000000000000000000000000000000000000000000000000000000000000000000000000000000000000000000000000000000000000000000000000000000000000000000000000000000000000000000000000000000000000000000000000000000000000000000000000
310
00000000000000000000000000000000000000000000000000000000000000000000000000000000000000000000000000000000000000000000000000000000000000000000000000000000000000000000000000000000000000000000000000000000000000000000000000000000000000000000000000000000000000
310
00000000000000000000000000000000000000000000000000000000000000000000000000000000000000000000000000000000000000000000000000000000000000000000000000000000000000000000000000000000000000000000000000000000000000000000000000000000000000000000000000000000000000
310
00000000000000000000000000000000000000000000000000000000000000000000000000000000000000000000000000000000000000000000000000000000000000000000000000000000000000000000000000000000000000000000000000000000000000000000000000000000000000000000000000000000000000
310
00000000000000000000000000000000000000000000000000000000000000000000000000000000000000000000000000000000000000000000000000000000000000000000000000000000000000000000000000000000000000000000000000000000000000000000000000000000000000000000000000000000000000
310
00000000000000000000000000000000000000000000000000000000000000000000000000000000000000000000000000000000000000000000000000000000000000000000000000000000000000000000000000000000000000000000000000000000000000000000000000000000000000000000000000000000000000
310
00000000000000000000000000000000000000000000000000000000000000000000000000000000000000000000000000000000000000000000000000000000000000000000000000000000000000000000000000000000000000000000000000000000000000000000000000000000000000000000000000000000000000
310
00000000000000000000000000000000000000000000000000000000000000000000000000000000000000000000000000000000000000000000000000000000000000000000000000000000000000000000000000000000000000000000000000000000000000000000000000000000000000000000000000000000000000
310
00000000000000000000000000000000000000000000000000000000000000000000000000000000000000000000000000000000000000000000000000000000000000000000000000000000000000000000000000000000000000000000000000000000000000000000000000000000000000000000000000000000000000
310
00000000000000000000000000000000000000000000000000000000000000000000000000000000000000000000000000000000000000000000000000000000000000000000000000000000000000000000000000000000000000000000000000000000000000000000000000000000000000000000000000000000000000
310
00000000000000000000000000000000000000000000000000000000000000000000000000000000000000000000000000000000000000000000000000000000000000000000000000000000000000000000000000000000000000000000000000000000000000000000000000000000000000000000000000000000000000
310
00000000000000000000000000000000000000000000000000000000000000000000000000000000000000000000000000000000000000000000000000000000000000000000000000000000000000000000000000000000000000000000000000000000000000000000000000000000000000000000000000000000000000
310
00000000000000000000000000000000000000000000000000000000000000000000000000000000000000000000000000000000000000000000000000000000000000000000000000000000000000000000000000000000000000000000000000000000000000000000000000000000000000000000000000000000000000
310
00000000000000000000000000000000000000000000000000000000000000000000000000000000000000000000000000000000000000000000000000000000000000000000000000000000000000000000000000000000000000000000000000000000000000000000000000000000000000000000000000000000000000
310
00000000000000000000000000000000000000000000000000000000000000000000000000000000000000000000000000000000000000000000000000000000000000000000000000000000000000000000000000000000000000000000000000000000000000000000000000000000000000000000000000000000000000
310
00000000000000000000000000000000000000000000000000000000000000000000000000000000000000000000000000000000000000000000000000000000000000000000000000000000000000000000000000000000000000000000000000000000000000000000000000000000000000000000000000000000000000
310
00000000000000000000000000000000000000000000000000000000000000000000000000000000000000000000000000000000000000000000000000000000000000000000000000000000000000000000000000000000000000000000000000000000000000000000000000000000000000000000000000000000000000
310
00000000000000000000000000000000000000000000000000000000000000000000000000000000000000000000000000000000000000000000000000000000000000000000000000000000000000000000000000000000000000000000000000000000000000000000000000000000000000000000000000000000000000
310
00000000000000000000000000000000000000000000000000000000000000000000000000000000000000000000000000000000000000000000000000000000000000000000000000000000000000000000000000000000000000000000000000000000000000000000000000000000000000000000000000000000000000
310
00000000000000000000000000000000000000000000000000000000000000000000000000000000000000000000000000000000000000000000000000000000000000000000000000000000000000000000000000000000000000000000000000000000000000000000000000000000000000000000000000000000000000
310
00000000000000000000000000000000000000000000000000000000000000000000000000000000000000000000000000000000000000000000000000000000000000000000000000000000000000000000000000000000000000000000000000000000000000000000000000000000000000000000000000000000000000
310
00000000000000000000000000000000000000000000000000000000000000000000000000000000000000000000000000000000000000000000000000000000000000000000000000000000000000000000000000000000000000000000000000000000000000000000000000000000000000000000000000000000000000
310
00000000000000000000000000000000000000000000000000000000000000000000000000000000000000000000000000000000000000000000000000000000000000000000000000000000000000000000000000000000000000000000000000000000000000000000000000000000000000000000000000000000000000
310
00000000000000000000000000000000000000000000000000000000000000000000000000000000000000000000000000000000000000000000000000000000000000000000000000000000000000000000000000000000000000000000000000000000000000000000000000000000000000000000000000000000000000
310
00000000000000000000000000000000000000000000000000000000000000000000000000000000000000000000000000000000000000000000000000000000000000000000000000000000000000000000000000000000000000000000000000000000000000000000000000000000000000000000000000000000000000
310
00000000000000000000000000000000000000000000000000000000
  0
XRECORD
  5
A62
102
{ACAD_REACTORS
330
1A
102
}
330
1A
100
AcDbXrecord
280
     1
102
MATERIAL
148
0.0
149
0.0
149
0.0
 93
        0
 94
      127
282
     0
 72
     0
 77
     0
171
     0
175
     0
179
     0
273
     0
  0
XRECORD
  5
1C
102
{ACAD_REACTORS
330
1A
102
}
330
1A
100
AcDbXrecord
280
     1
270
     1
271
     1
  0
XRECORD
  5
1B
102
{ACAD_REACTORS
330
1A
102
}
330
1A
100
AcDbXrecord
280
     1
270
     1
271
     1
  0
XRECORD
  5
1F
102
{ACAD_REACTORS
330
1A
102
}
330
1A
100
AcDbXrecord
280
     1
270
     1
271
     1
  0
XRECORD
  5
1E
102
{ACAD_REACTORS
330
1A
102
}
330
1A
100
AcDbXrecord
280
     1
270
     1
271
     1
  0
XRECORD
  5
20
102
{ACAD_REACTORS
330
1A
102
}
330
1A
100
AcDbXrecord
280
     1
270
     1
271
     1
  0
XRECORD
  5
1D
102
{ACAD_REACTORS
330
1A
102
}
330
1A
100
AcDbXrecord
280
     1
270
     1
271
     1
  0
XRECORD
  5
A61
102
{ACAD_REACTORS
330
12
102
}
330
12
100
AcDbXrecord
280
     1
102
MATERIAL
148
0.0
149
0.0
149
0.0
 93
        0
 94
      127
282
     0
 72
     0
 77
     0
171
     0
175
     0
179
     0
273
     0
  0
XRECORD
  5
14
102
{ACAD_REACTORS
330
12
102
}
330
12
100
AcDbXrecord
280
     1
270
     1
271
     1
  0
XRECORD
  5
13
102
{ACAD_REACTORS
330
12
102
}
330
12
100
AcDbXrecord
280
     1
270
     1
271
     1
  0
XRECORD
  5
17
102
{ACAD_REACTORS
330
12
102
}
330
12
100
AcDbXrecord
280
     1
270
     1
271
     1
  0
XRECORD
  5
16
102
{ACAD_REACTORS
330
12
102
}
330
12
100
AcDbXrecord
280
     1
270
     1
271
     1
  0
XRECORD
  5
18
102
{ACAD_REACTORS
330
12
102
}
330
12
100
AcDbXrecord
280
     1
270
     1
271
     1
  0
XRECORD
  5
15
102
{ACAD_REACTORS
330
12
102
}
330
12
100
AcDbXrecord
280
     1
270
     1
271
     1
  0
XRECORD
  5
A63
102
{ACAD_REACTORS
330
22
102
}
330
22
100
AcDbXrecord
280
     1
102
MATERIAL
148
0.0
149
0.0
149
0.0
 93
        0
 94
      127
282
     0
 72
     0
 77
     0
171
     0
175
     0
179
     0
273
     0
  0
XRECORD
  5
24
102
{ACAD_REACTORS
330
22
102
}
330
22
100
AcDbXrecord
280
     1
270
     1
271
     1
  0
XRECORD
  5
23
102
{ACAD_REACTORS
330
22
102
}
330
22
100
AcDbXrecord
280
     1
270
     1
271
     1
  0
XRECORD
  5
27
102
{ACAD_REACTORS
330
22
102
}
330
22
100
AcDbXrecord
280
     1
270
     1
271
     1
  0
XRECORD
  5
26
102
{ACAD_REACTORS
330
22
102
}
330
22
100
AcDbXrecord
280
     1
270
     1
271
     1
  0
XRECORD
  5
28
102
{ACAD_REACTORS
330
22
102
}
330
22
100
AcDbXrecord
280
     1
270
     1
271
     1
  0
XRECORD
  5
25
102
{ACAD_REACTORS
330
22
102
}
330
22
100
AcDbXrecord
280
     1
270
     1
271
     1
  0
CELLSTYLEMAP
  5
A5E
102
{ACAD_REACTORS
330
A5D
102
}
330
A5D
100
AcDbCellStyleMap
 90
        3
300
CELLSTYLE
  1
TABLEFORMAT_BEGIN
 90
        5
170
     1
 91
        0
 92
    32768
 62
   257
 93
        1
300
CONTENTFORMAT
  1
CONTENTFORMAT_BEGIN
 90
        0
 91
        0
 92
      512
 93
        0
300

 40
0.0
140
1.0
 94
        5
 62
     0
340
55
144
0.25
309
CONTENTFORMAT_END
171
     0
 94
        0
309
TABLEFORMAT_END
  1
CELLSTYLE_BEGIN
 90
        1
 91
        1
300
_TITLE
309
CELLSTYLE_END
300
CELLSTYLE
  1
TABLEFORMAT_BEGIN
 90
        5
170
     1
 91
        0
 92
        0
 62
   257
 93
        1
300
CONTENTFORMAT
  1
CONTENTFORMAT_BEGIN
 90
        0
 91
        0
 92
      512
 93
        0
300

 40
0.0
140
1.0
 94
        5
 62
     0
340
55
144
0.18
309
CONTENTFORMAT_END
171
     0
 94
        0
309
TABLEFORMAT_END
  1
CELLSTYLE_BEGIN
 90
        2
 91
        1
300
_HEADER
309
CELLSTYLE_END
300
CELLSTYLE
  1
TABLEFORMAT_BEGIN
 90
        5
170
     1
 91
        0
 92
        0
 62
   257
 93
        1
300
CONTENTFORMAT
  1
CONTENTFORMAT_BEGIN
 90
        0
 91
        0
 92
      512
 93
        0
300

 40
0.0
140
1.0
 94
        2
 62
     0
340
55
144
0.18
309
CONTENTFORMAT_END
171
     0
 94
        0
309
TABLEFORMAT_END
  1
CELLSTYLE_BEGIN
 90
        3
 91
        2
300
_DATA
309
CELLSTYLE_END
  0
XRECORD
  5
A94
102
{ACAD_REACTORS
330
A5D
102
}
330
A5D
100
AcDbXrecord
280
     1
102
ACAD_ROUNDTRIP_PRE2007_TABLESTYLE
 90
      512
 91
        0
  1

 92
      512
 93
        0
  2

 94
      512
 95
        0
  3

  0
XRECORD
  5
A6F
102
{ACAD_REACTORS
330
A6E
102
}
330
A6E
100
AcDbXrecord
280
     1
102
RTVSPropertyOp0
 70
     1
102
RTVSPropertyOp1
 70
     1
102
RTVSPropertyOp2
 70
     1
102
RTVSPropertyOp3
 70
     1
102
RTVSPropertyOp4
 70
     1
102
RTVSPropertyOp5
 70
     1
102
RTVSPropertyOp6
 70
     1
102
RTVSPropertyOp7
 70
     1
102
RTVSPropertyOp8
 70
     1
102
RTVSPropertyOp9
 70
     1
102
RTVSPropertyOp10
 70
     1
102
RTVSPropertyOp11
 70
     1
102
RTVSPropertyOp12
 70
     1
102
RTVSPropertyOp13
 70
     1
102
RTVSPropertyOp14
 70
     1
102
RTVSPropertyOp15
 70
     1
102
RTVSPropertyOp16
 70
     1
102
RTVSPropertyOp17
 70
     1
102
RTVSPropertyOp18
 70
     1
102
RTVSPropertyOp19
 70
     1
102
RTVSPropertyOp20
 70
     1
102
RTVSPropertyOp21
 70
     1
102
RTVSPropertyOp22
 70
     1
102
RTVSPropertyOp23
 70
     1
102
RTVSPropertyOp24
 70
     1
102
RTVSPropertyOp25
 70
     1
102
RTVSPropertyOp26
 70
     1
102
RTVSPropertyOp27
 70
     1
102
RTVSPropertyOp28
 70
     1
102
RTVSPropertyOp29
 70
     1
102
RTVSPropertyOp30
 70
     1
102
RTVSPropertyOp31
 70
     1
102
RTVSPropertyOp32
 70
     1
  0
XRECORD
  5
A6D
102
{ACAD_REACTORS
330
A6C
102
}
330
A6C
100
AcDbXrecord
280
     1
102
RTVSPropertyOp0
 70
     1
102
RTVSPropertyOp1
 70
     1
102
RTVSPropertyOp2
 70
     1
102
RTVSPropertyOp3
 70
     1
102
RTVSPropertyOp4
 70
     1
102
RTVSPropertyOp5
 70
     1
102
RTVSPropertyOp6
 70
     1
102
RTVSPropertyOp7
 70
     1
102
RTVSPropertyOp8
 70
     1
102
RTVSPropertyOp9
 70
     1
102
RTVSPropertyOp10
 70
     1
102
RTVSPropertyOp11
 70
     1
102
RTVSPropertyOp12
 70
     1
102
RTVSPropertyOp13
 70
     1
102
RTVSPropertyOp14
 70
     1
102
RTVSPropertyOp15
 70
     1
102
RTVSPropertyOp16
 70
     1
102
RTVSPropertyOp17
 70
     1
102
RTVSPropertyOp18
 70
     1
102
RTVSPropertyOp19
 70
     1
102
RTVSPropertyOp20
 70
     1
102
RTVSPropertyOp21
 70
     1
102
RTVSPropertyOp22
 70
     1
102
RTVSPropertyOp23
 70
     1
102
RTVSPropertyOp24
 70
     1
102
RTVSPropertyOp25
 70
     1
102
RTVSPropertyOp26
 70
     1
102
RTVSPropertyOp27
 70
     1
102
RTVSPropertyOp28
 70
     1
102
RTVSPropertyOp29
 70
     1
102
RTVSPropertyOp30
 70
     1
102
RTVSPropertyOp31
 70
     1
102
RTVSPropertyOp32
 70
     1
  0
XRECORD
  5
A7B
102
{ACAD_REACTORS
330
A7A
102
}
330
A7A
100
AcDbXrecord
280
     1
102
RTVSPropertyOp0
 70
     1
102
RTVSPropertyOp1
 70
     1
102
RTVSPropertyOp2
 70
     1
102
RTVSPropertyOp3
 70
     1
102
RTVSPropertyOp4
 70
     1
102
RTVSPropertyOp5
 70
     1
102
RTVSPropertyOp6
 70
     1
102
RTVSPropertyOp7
 70
     1
102
RTVSPropertyOp8
 70
     1
102
RTVSPropertyOp9
 70
     1
102
RTVSPropertyOp10
 70
     1
102
RTVSPropertyOp11
 70
     1
102
RTVSPropertyOp12
 70
     1
102
RTVSPropertyOp13
 70
     1
102
RTVSPropertyOp14
 70
     1
102
RTVSPropertyOp15
 70
     1
102
RTVSPropertyOp16
 70
     1
102
RTVSPropertyOp17
 70
     1
102
RTVSPropertyOp18
 70
     1
102
RTVSPropertyOp19
 70
     1
102
RTVSPropertyOp20
 70
     1
102
RTVSPropertyOp21
 70
     1
102
RTVSPropertyOp22
 70
     1
102
RTVSPropertyOp23
 70
     1
102
RTVSPropertyOp24
 70
     1
102
RTVSPropertyOp25
 70
     1
102
RTVSPropertyOp26
 70
     1
102
RTVSPropertyOp27
 70
     1
102
RTVSPropertyOp28
 70
     1
102
RTVSPropertyOp29
 70
     1
102
RTVSPropertyOp30
 70
     1
102
RTVSPropertyOp31
 70
     1
102
RTVSPropertyOp32
 70
     1
  0
XRECORD
  5
A83
102
{ACAD_REACTORS
330
A82
102
}
330
A82
100
AcDbXrecord
280
     1
102
RTVSPropertyOp0
 70
     1
102
RTVSPropertyOp1
 70
     1
102
RTVSPropertyOp2
 70
     1
102
RTVSPropertyOp3
 70
     1
102
RTVSPropertyOp4
 70
     1
102
RTVSPropertyOp5
 70
     1
102
RTVSPropertyOp6
 70
     1
102
RTVSPropertyOp7
 70
     1
102
RTVSPropertyOp8
 70
     1
102
RTVSPropertyOp9
 70
     1
102
RTVSPropertyOp10
 70
     1
102
RTVSPropertyOp11
 70
     1
102
RTVSPropertyOp12
 70
     1
102
RTVSPropertyOp13
 70
     1
102
RTVSPropertyOp14
 70
     1
102
RTVSPropertyOp15
 70
     1
102
RTVSPropertyOp16
 70
     1
102
RTVSPropertyOp17
 70
     1
102
RTVSPropertyOp18
 70
     1
102
RTVSPropertyOp19
 70
     1
102
RTVSPropertyOp20
 70
     1
102
RTVSPropertyOp21
 70
     1
102
RTVSPropertyOp22
 70
     1
102
RTVSPropertyOp23
 70
     1
102
RTVSPropertyOp24
 70
     1
102
RTVSPropertyOp25
 70
     1
102
RTVSPropertyOp26
 70
     1
102
RTVSPropertyOp27
 70
     1
102
RTVSPropertyOp28
 70
     1
102
RTVSPropertyOp29
 70
     1
102
RTVSPropertyOp30
 70
     1
102
RTVSPropertyOp31
 70
     1
102
RTVSPropertyOp32
 70
     1
  0
XRECORD
  5
A75
102
{ACAD_REACTORS
330
A74
102
}
330
A74
100
AcDbXrecord
280
     1
102
RTVSPropertyOp0
 70
     1
102
RTVSPropertyOp1
 70
     1
102
RTVSPropertyOp2
 70
     1
102
RTVSPropertyOp3
 70
     1
102
RTVSPropertyOp4
 70
     1
102
RTVSPropertyOp5
 70
     1
102
RTVSPropertyOp6
 70
     1
102
RTVSPropertyOp7
 70
     1
102
RTVSPropertyOp8
 70
     1
102
RTVSPropertyOp9
 70
     1
102
RTVSPropertyOp10
 70
     1
102
RTVSPropertyOp11
 70
     1
102
RTVSPropertyOp12
 70
     1
102
RTVSPropertyOp13
 70
     1
102
RTVSPropertyOp14
 70
     1
102
RTVSPropertyOp15
 70
     1
102
RTVSPropertyOp16
 70
     1
102
RTVSPropertyOp17
 70
     1
102
RTVSPropertyOp18
 70
     1
102
RTVSPropertyOp19
 70
     1
102
RTVSPropertyOp20
 70
     1
102
RTVSPropertyOp21
 70
     1
102
RTVSPropertyOp22
 70
     1
102
RTVSPropertyOp23
 70
     1
102
RTVSPropertyOp24
 70
     1
102
RTVSPropertyOp25
 70
     1
102
RTVSPropertyOp26
 70
     1
102
RTVSPropertyOp27
 70
     1
102
RTVSPropertyOp28
 70
     1
102
RTVSPropertyOp29
 70
     1
102
RTVSPropertyOp30
 70
     1
102
RTVSPropertyOp31
 70
     1
102
RTVSPropertyOp32
 70
     1
  0
XRECORD
  5
A79
102
{ACAD_REACTORS
330
A78
102
}
330
A78
100
AcDbXrecord
280
     1
102
RTVSPropertyOp0
 70
     1
102
RTVSPropertyOp1
 70
     1
102
RTVSPropertyOp2
 70
     1
102
RTVSPropertyOp3
 70
     1
102
RTVSPropertyOp4
 70
     1
102
RTVSPropertyOp5
 70
     1
102
RTVSPropertyOp6
 70
     1
102
RTVSPropertyOp7
 70
     1
102
RTVSPropertyOp8
 70
     1
102
RTVSPropertyOp9
 70
     1
102
RTVSPropertyOp10
 70
     1
102
RTVSPropertyOp11
 70
     1
102
RTVSPropertyOp12
 70
     1
102
RTVSPropertyOp13
 70
     1
102
RTVSPropertyOp14
 70
     1
102
RTVSPropertyOp15
 70
     1
102
RTVSPropertyOp16
 70
     1
102
RTVSPropertyOp17
 70
     1
102
RTVSPropertyOp18
 70
     1
102
RTVSPropertyOp19
 70
     1
102
RTVSPropertyOp20
 70
     1
102
RTVSPropertyOp21
 70
     1
102
RTVSPropertyOp22
 70
     1
102
RTVSPropertyOp23
 70
     1
102
RTVSPropertyOp24
 70
     1
102
RTVSPropertyOp25
 70
     1
102
RTVSPropertyOp26
 70
     1
102
RTVSPropertyOp27
 70
     1
102
RTVSPropertyOp28
 70
     1
102
RTVSPropertyOp29
 70
     1
102
RTVSPropertyOp30
 70
     1
102
RTVSPropertyOp31
 70
     1
102
RTVSPropertyOp32
 70
     1
  0
XRECORD
  5
A93
102
{ACAD_REACTORS
330
A92
102
}
330
A92
100
AcDbXrecord
280
     1
102
RTVSPropertyOp0
 70
     0
102
RTVSPropertyOp1
 70
     0
102
RTVSPropertyOp2
 70
     0
102
RTVSPropertyOp3
 70
     0
102
RTVSPropertyOp4
 70
     0
102
RTVSPropertyOp5
 70
     0
102
RTVSPropertyOp6
 70
     0
102
RTVSPropertyOp7
 70
     0
102
RTVSPropertyOp8
 70
     0
102
RTVSPropertyOp9
 70
     0
102
RTVSPropertyOp10
 70
     0
102
RTVSPropertyOp11
 70
     0
102
RTVSPropertyOp12
 70
     0
102
RTVSPropertyOp13
 70
     0
102
RTVSPropertyOp14
 70
     2
102
RTVSPropertyOp15
 70
     0
102
RTVSPropertyOp16
 70
     0
102
RTVSPropertyOp17
 70
     0
102
RTVSPropertyOp18
 70
     0
102
RTVSPropertyOp19
 70
     0
102
RTVSPropertyOp20
 70
     0
102
RTVSPropertyOp21
 70
     0
102
RTVSPropertyOp22
 70
     0
102
RTVSPropertyOp23
 70
     0
102
RTVSPropertyOp24
 70
     0
102
RTVSPropertyOp25
 70
     0
102
RTVSPropertyOp26
 70
     0
102
RTVSPropertyOp27
 70
     0
102
RTVSPropertyOp28
 70
     1
102
RTVSPropertyOp29
 70
     1
102
RTVSPropertyOp30
 70
     1
102
RTVSPropertyOp31
 70
     1
102
RTVSPropertyOp32
 70
     1
  0
XRECORD
  5
A81
102
{ACAD_REACTORS
330
A80
102
}
330
A80
100
AcDbXrecord
280
     1
102
RTVSPropertyOp0
 70
     1
102
RTVSPropertyOp1
 70
     1
102
RTVSPropertyOp2
 70
     1
102
RTVSPropertyOp3
 70
     1
102
RTVSPropertyOp4
 70
     1
102
RTVSPropertyOp5
 70
     1
102
RTVSPropertyOp6
 70
     1
102
RTVSPropertyOp7
 70
     1
102
RTVSPropertyOp8
 70
     1
102
RTVSPropertyOp9
 70
     1
102
RTVSPropertyOp10
 70
     1
102
RTVSPropertyOp11
 70
     1
102
RTVSPropertyOp12
 70
     1
102
RTVSPropertyOp13
 70
     1
102
RTVSPropertyOp14
 70
     1
102
RTVSPropertyOp15
 70
     1
102
RTVSPropertyOp16
 70
     1
102
RTVSPropertyOp17
 70
     1
102
RTVSPropertyOp18
 70
     1
102
RTVSPropertyOp19
 70
     1
102
RTVSPropertyOp20
 70
     1
102
RTVSPropertyOp21
 70
     1
102
RTVSPropertyOp22
 70
     1
102
RTVSPropertyOp23
 70
     1
102
RTVSPropertyOp24
 70
     1
102
RTVSPropertyOp25
 70
     1
102
RTVSPropertyOp26
 70
     1
102
RTVSPropertyOp27
 70
     1
102
RTVSPropertyOp28
 70
     1
102
RTVSPropertyOp29
 70
     1
102
RTVSPropertyOp30
 70
     1
102
RTVSPropertyOp31
 70
     1
102
RTVSPropertyOp32
 70
     1
  0
XRECORD
  5
A65
102
{ACAD_REACTORS
330
A64
102
}
330
A64
100
AcDbXrecord
280
     1
102
RTVSPropertyOp0
 70
     1
102
RTVSPropertyOp1
 70
     1
102
RTVSPropertyOp2
 70
     1
102
RTVSPropertyOp3
 70
     1
102
RTVSPropertyOp4
 70
     1
102
RTVSPropertyOp5
 70
     1
102
RTVSPropertyOp6
 70
     1
102
RTVSPropertyOp7
 70
     1
102
RTVSPropertyOp8
 70
     1
102
RTVSPropertyOp9
 70
     1
102
RTVSPropertyOp10
 70
     1
102
RTVSPropertyOp11
 70
     1
102
RTVSPropertyOp12
 70
     1
102
RTVSPropertyOp13
 70
     1
102
RTVSPropertyOp14
 70
     1
102
RTVSPropertyOp15
 70
     1
102
RTVSPropertyOp16
 70
     1
102
RTVSPropertyOp17
 70
     1
102
RTVSPropertyOp18
 70
     1
102
RTVSPropertyOp19
 70
     1
102
RTVSPropertyOp20
 70
     1
102
RTVSPropertyOp21
 70
     1
102
RTVSPropertyOp22
 70
     1
102
RTVSPropertyOp23
 70
     1
102
RTVSPropertyOp24
 70
     1
102
RTVSPropertyOp25
 70
     1
102
RTVSPropertyOp26
 70
     1
102
RTVSPropertyOp27
 70
     1
102
RTVSPropertyOp28
 70
     1
102
RTVSPropertyOp29
 70
     1
102
RTVSPropertyOp30
 70
     1
102
RTVSPropertyOp31
 70
     1
102
RTVSPropertyOp32
 70
     1
  0
XRECORD
  5
A67
102
{ACAD_REACTORS
330
A66
102
}
330
A66
100
AcDbXrecord
280
     1
102
RTVSPropertyOp0
 70
     1
102
RTVSPropertyOp1
 70
     1
102
RTVSPropertyOp2
 70
     1
102
RTVSPropertyOp3
 70
     1
102
RTVSPropertyOp4
 70
     1
102
RTVSPropertyOp5
 70
     1
102
RTVSPropertyOp6
 70
     1
102
RTVSPropertyOp7
 70
     1
102
RTVSPropertyOp8
 70
     1
102
RTVSPropertyOp9
 70
     1
102
RTVSPropertyOp10
 70
     1
102
RTVSPropertyOp11
 70
     1
102
RTVSPropertyOp12
 70
     1
102
RTVSPropertyOp13
 70
     1
102
RTVSPropertyOp14
 70
     1
102
RTVSPropertyOp15
 70
     1
102
RTVSPropertyOp16
 70
     1
102
RTVSPropertyOp17
 70
     1
102
RTVSPropertyOp18
 70
     1
102
RTVSPropertyOp19
 70
     1
102
RTVSPropertyOp20
 70
     1
102
RTVSPropertyOp21
 70
     1
102
RTVSPropertyOp22
 70
     1
102
RTVSPropertyOp23
 70
     1
102
RTVSPropertyOp24
 70
     1
102
RTVSPropertyOp25
 70
     1
102
RTVSPropertyOp26
 70
     1
102
RTVSPropertyOp27
 70
     1
102
RTVSPropertyOp28
 70
     1
102
RTVSPropertyOp29
 70
     1
102
RTVSPropertyOp30
 70
     1
102
RTVSPropertyOp31
 70
     1
102
RTVSPropertyOp32
 70
     1
  0
XRECORD
  5
A69
102
{ACAD_REACTORS
330
A68
102
}
330
A68
100
AcDbXrecord
280
     1
102
RTVSPropertyOp0
 70
     1
102
RTVSPropertyOp1
 70
     1
102
RTVSPropertyOp2
 70
     1
102
RTVSPropertyOp3
 70
     1
102
RTVSPropertyOp4
 70
     1
102
RTVSPropertyOp5
 70
     1
102
RTVSPropertyOp6
 70
     1
102
RTVSPropertyOp7
 70
     1
102
RTVSPropertyOp8
 70
     1
102
RTVSPropertyOp9
 70
     1
102
RTVSPropertyOp10
 70
     1
102
RTVSPropertyOp11
 70
     1
102
RTVSPropertyOp12
 70
     1
102
RTVSPropertyOp13
 70
     1
102
RTVSPropertyOp14
 70
     1
102
RTVSPropertyOp15
 70
     1
102
RTVSPropertyOp16
 70
     1
102
RTVSPropertyOp17
 70
     1
102
RTVSPropertyOp18
 70
     1
102
RTVSPropertyOp19
 70
     1
102
RTVSPropertyOp20
 70
     1
102
RTVSPropertyOp21
 70
     1
102
RTVSPropertyOp22
 70
     1
102
RTVSPropertyOp23
 70
     1
102
RTVSPropertyOp24
 70
     1
102
RTVSPropertyOp25
 70
     1
102
RTVSPropertyOp26
 70
     1
102
RTVSPropertyOp27
 70
     1
102
RTVSPropertyOp28
 70
     1
102
RTVSPropertyOp29
 70
     1
102
RTVSPropertyOp30
 70
     1
102
RTVSPropertyOp31
 70
     1
102
RTVSPropertyOp32
 70
     1
  0
XRECORD
  5
A6B
102
{ACAD_REACTORS
330
A6A
102
}
330
A6A
100
AcDbXrecord
280
     1
102
RTVSPropertyOp0
 70
     1
102
RTVSPropertyOp1
 70
     1
102
RTVSPropertyOp2
 70
     1
102
RTVSPropertyOp3
 70
     1
102
RTVSPropertyOp4
 70
     1
102
RTVSPropertyOp5
 70
     1
102
RTVSPropertyOp6
 70
     1
102
RTVSPropertyOp7
 70
     1
102
RTVSPropertyOp8
 70
     1
102
RTVSPropertyOp9
 70
     1
102
RTVSPropertyOp10
 70
     1
102
RTVSPropertyOp11
 70
     1
102
RTVSPropertyOp12
 70
     1
102
RTVSPropertyOp13
 70
     1
102
RTVSPropertyOp14
 70
     1
102
RTVSPropertyOp15
 70
     1
102
RTVSPropertyOp16
 70
     1
102
RTVSPropertyOp17
 70
     1
102
RTVSPropertyOp18
 70
     1
102
RTVSPropertyOp19
 70
     1
102
RTVSPropertyOp20
 70
     1
102
RTVSPropertyOp21
 70
     1
102
RTVSPropertyOp22
 70
     1
102
RTVSPropertyOp23
 70
     1
102
RTVSPropertyOp24
 70
     1
102
RTVSPropertyOp25
 70
     1
102
RTVSPropertyOp26
 70
     1
102
RTVSPropertyOp27
 70
     1
102
RTVSPropertyOp28
 70
     1
102
RTVSPropertyOp29
 70
     1
102
RTVSPropertyOp30
 70
     1
102
RTVSPropertyOp31
 70
     1
102
RTVSPropertyOp32
 70
     1
  0
XRECORD
  5
A73
102
{ACAD_REACTORS
330
A72
102
}
330
A72
100
AcDbXrecord
280
     1
102
RTVSPropertyOp0
 70
     1
102
RTVSPropertyOp1
 70
     1
102
RTVSPropertyOp2
 70
     1
102
RTVSPropertyOp3
 70
     1
102
RTVSPropertyOp4
 70
     1
102
RTVSPropertyOp5
 70
     1
102
RTVSPropertyOp6
 70
     1
102
RTVSPropertyOp7
 70
     1
102
RTVSPropertyOp8
 70
     1
102
RTVSPropertyOp9
 70
     1
102
RTVSPropertyOp10
 70
     1
102
RTVSPropertyOp11
 70
     1
102
RTVSPropertyOp12
 70
     1
102
RTVSPropertyOp13
 70
     1
102
RTVSPropertyOp14
 70
     1
102
RTVSPropertyOp15
 70
     1
102
RTVSPropertyOp16
 70
     1
102
RTVSPropertyOp17
 70
     1
102
RTVSPropertyOp18
 70
     1
102
RTVSPropertyOp19
 70
     1
102
RTVSPropertyOp20
 70
     1
102
RTVSPropertyOp21
 70
     1
102
RTVSPropertyOp22
 70
     1
102
RTVSPropertyOp23
 70
     1
102
RTVSPropertyOp24
 70
     1
102
RTVSPropertyOp25
 70
     1
102
RTVSPropertyOp26
 70
     1
102
RTVSPropertyOp27
 70
     1
102
RTVSPropertyOp28
 70
     1
102
RTVSPropertyOp29
 70
     1
102
RTVSPropertyOp30
 70
     1
102
RTVSPropertyOp31
 70
     1
102
RTVSPropertyOp32
 70
     1
  0
XRECORD
  5
A8F
102
{ACAD_REACTORS
330
A8E
102
}
330
A8E
100
AcDbXrecord
280
     1
102
RTVSPropertyOp0
 70
     0
102
RTVSPropertyOp1
 70
     0
102
RTVSPropertyOp2
 70
     0
102
RTVSPropertyOp3
 70
     0
102
RTVSPropertyOp4
 70
     0
102
RTVSPropertyOp5
 70
     0
102
RTVSPropertyOp6
 70
     0
102
RTVSPropertyOp7
 70
     0
102
RTVSPropertyOp8
 70
     0
102
RTVSPropertyOp9
 70
     0
102
RTVSPropertyOp10
 70
     0
102
RTVSPropertyOp11
 70
     0
102
RTVSPropertyOp12
 70
     0
102
RTVSPropertyOp13
 70
     0
102
RTVSPropertyOp14
 70
     2
102
RTVSPropertyOp15
 70
     0
102
RTVSPropertyOp16
 70
     0
102
RTVSPropertyOp17
 70
     0
102
RTVSPropertyOp18
 70
     0
102
RTVSPropertyOp19
 70
     0
102
RTVSPropertyOp20
 70
     0
102
RTVSPropertyOp21
 70
     0
102
RTVSPropertyOp22
 70
     0
102
RTVSPropertyOp23
 70
     0
102
RTVSPropertyOp24
 70
     0
102
RTVSPropertyOp25
 70
     0
102
RTVSPropertyOp26
 70
     0
102
RTVSPropertyOp27
 70
     0
102
RTVSPropertyOp28
 70
     1
102
RTVSPropertyOp29
 70
     1
102
RTVSPropertyOp30
 70
     1
102
RTVSPropertyOp31
 70
     1
102
RTVSPropertyOp32
 70
     1
  0
XRECORD
  5
A7F
102
{ACAD_REACTORS
330
A7E
102
}
330
A7E
100
AcDbXrecord
280
     1
102
RTVSPropertyOp0
 70
     1
102
RTVSPropertyOp1
 70
     1
102
RTVSPropertyOp2
 70
     1
102
RTVSPropertyOp3
 70
     1
102
RTVSPropertyOp4
 70
     1
102
RTVSPropertyOp5
 70
     1
102
RTVSPropertyOp6
 70
     1
102
RTVSPropertyOp7
 70
     1
102
RTVSPropertyOp8
 70
     1
102
RTVSPropertyOp9
 70
     1
102
RTVSPropertyOp10
 70
     1
102
RTVSPropertyOp11
 70
     1
102
RTVSPropertyOp12
 70
     1
102
RTVSPropertyOp13
 70
     1
102
RTVSPropertyOp14
 70
     1
102
RTVSPropertyOp15
 70
     1
102
RTVSPropertyOp16
 70
     1
102
RTVSPropertyOp17
 70
     1
102
RTVSPropertyOp18
 70
     1
102
RTVSPropertyOp19
 70
     1
102
RTVSPropertyOp20
 70
     1
102
RTVSPropertyOp21
 70
     1
102
RTVSPropertyOp22
 70
     1
102
RTVSPropertyOp23
 70
     1
102
RTVSPropertyOp24
 70
     1
102
RTVSPropertyOp25
 70
     1
102
RTVSPropertyOp26
 70
     1
102
RTVSPropertyOp27
 70
     1
102
RTVSPropertyOp28
 70
     1
102
RTVSPropertyOp29
 70
     1
102
RTVSPropertyOp30
 70
     1
102
RTVSPropertyOp31
 70
     1
102
RTVSPropertyOp32
 70
     1
  0
XRECORD
  5
A91
102
{ACAD_REACTORS
330
A90
102
}
330
A90
100
AcDbXrecord
280
     1
102
RTVSPropertyOp0
 70
     0
102
RTVSPropertyOp1
 70
     0
102
RTVSPropertyOp2
 70
     0
102
RTVSPropertyOp3
 70
     0
102
RTVSPropertyOp4
 70
     0
102
RTVSPropertyOp5
 70
     0
102
RTVSPropertyOp6
 70
     0
102
RTVSPropertyOp7
 70
     0
102
RTVSPropertyOp8
 70
     0
102
RTVSPropertyOp9
 70
     0
102
RTVSPropertyOp10
 70
     0
102
RTVSPropertyOp11
 70
     0
102
RTVSPropertyOp12
 70
     0
102
RTVSPropertyOp13
 70
     0
102
RTVSPropertyOp14
 70
     2
102
RTVSPropertyOp15
 70
     0
102
RTVSPropertyOp16
 70
     0
102
RTVSPropertyOp17
 70
     0
102
RTVSPropertyOp18
 70
     0
102
RTVSPropertyOp19
 70
     0
102
RTVSPropertyOp20
 70
     0
102
RTVSPropertyOp21
 70
     0
102
RTVSPropertyOp22
 70
     0
102
RTVSPropertyOp23
 70
     0
102
RTVSPropertyOp24
 70
     0
102
RTVSPropertyOp25
 70
     0
102
RTVSPropertyOp26
 70
     0
102
RTVSPropertyOp27
 70
     0
102
RTVSPropertyOp28
 70
     1
102
RTVSPropertyOp29
 70
     1
102
RTVSPropertyOp30
 70
     1
102
RTVSPropertyOp31
 70
     1
102
RTVSPropertyOp32
 70
     1
  0
XRECORD
  5
A77
102
{ACAD_REACTORS
330
A76
102
}
330
A76
100
AcDbXrecord
280
     1
102
RTVSPropertyOp0
 70
     1
102
RTVSPropertyOp1
 70
     1
102
RTVSPropertyOp2
 70
     1
102
RTVSPropertyOp3
 70
     1
102
RTVSPropertyOp4
 70
     1
102
RTVSPropertyOp5
 70
     1
102
RTVSPropertyOp6
 70
     1
102
RTVSPropertyOp7
 70
     1
102
RTVSPropertyOp8
 70
     1
102
RTVSPropertyOp9
 70
     1
102
RTVSPropertyOp10
 70
     1
102
RTVSPropertyOp11
 70
     1
102
RTVSPropertyOp12
 70
     1
102
RTVSPropertyOp13
 70
     1
102
RTVSPropertyOp14
 70
     1
102
RTVSPropertyOp15
 70
     1
102
RTVSPropertyOp16
 70
     1
102
RTVSPropertyOp17
 70
     1
102
RTVSPropertyOp18
 70
     1
102
RTVSPropertyOp19
 70
     1
102
RTVSPropertyOp20
 70
     1
102
RTVSPropertyOp21
 70
     1
102
RTVSPropertyOp22
 70
     1
102
RTVSPropertyOp23
 70
     1
102
RTVSPropertyOp24
 70
     1
102
RTVSPropertyOp25
 70
     1
102
RTVSPropertyOp26
 70
     1
102
RTVSPropertyOp27
 70
     1
102
RTVSPropertyOp28
 70
     1
102
RTVSPropertyOp29
 70
     1
102
RTVSPropertyOp30
 70
     1
102
RTVSPropertyOp31
 70
     1
102
RTVSPropertyOp32
 70
     1
  0
XRECORD
  5
A8D
102
{ACAD_REACTORS
330
A8C
102
}
330
A8C
100
AcDbXrecord
280
     1
102
RTVSPropertyOp0
 70
     1
102
RTVSPropertyOp1
 70
     1
102
RTVSPropertyOp2
 70
     1
102
RTVSPropertyOp3
 70
     1
102
RTVSPropertyOp4
 70
     1
102
RTVSPropertyOp5
 70
     1
102
RTVSPropertyOp6
 70
     1
102
RTVSPropertyOp7
 70
     1
102
RTVSPropertyOp8
 70
     1
102
RTVSPropertyOp9
 70
     1
102
RTVSPropertyOp10
 70
     1
102
RTVSPropertyOp11
 70
     1
102
RTVSPropertyOp12
 70
     1
102
RTVSPropertyOp13
 70
     1
102
RTVSPropertyOp14
 70
     1
102
RTVSPropertyOp15
 70
     1
102
RTVSPropertyOp16
 70
     1
102
RTVSPropertyOp17
 70
     1
102
RTVSPropertyOp18
 70
     1
102
RTVSPropertyOp19
 70
     1
102
RTVSPropertyOp20
 70
     1
102
RTVSPropertyOp21
 70
     1
102
RTVSPropertyOp22
 70
     1
102
RTVSPropertyOp23
 70
     1
102
RTVSPropertyOp24
 70
     1
102
RTVSPropertyOp25
 70
     1
102
RTVSPropertyOp26
 70
     1
102
RTVSPropertyOp27
 70
     1
102
RTVSPropertyOp28
 70
     1
102
RTVSPropertyOp29
 70
     1
102
RTVSPropertyOp30
 70
     1
102
RTVSPropertyOp31
 70
     1
102
RTVSPropertyOp32
 70
     1
  0
XRECORD
  5
A8B
102
{ACAD_REACTORS
330
A8A
102
}
330
A8A
100
AcDbXrecord
280
     1
102
RTVSPropertyOp0
 70
     1
102
RTVSPropertyOp1
 70
     1
102
RTVSPropertyOp2
 70
     1
102
RTVSPropertyOp3
 70
     1
102
RTVSPropertyOp4
 70
     1
102
RTVSPropertyOp5
 70
     1
102
RTVSPropertyOp6
 70
     1
102
RTVSPropertyOp7
 70
     1
102
RTVSPropertyOp8
 70
     1
102
RTVSPropertyOp9
 70
     1
102
RTVSPropertyOp10
 70
     1
102
RTVSPropertyOp11
 70
     1
102
RTVSPropertyOp12
 70
     1
102
RTVSPropertyOp13
 70
     1
102
RTVSPropertyOp14
 70
     1
102
RTVSPropertyOp15
 70
     1
102
RTVSPropertyOp16
 70
     1
102
RTVSPropertyOp17
 70
     1
102
RTVSPropertyOp18
 70
     1
102
RTVSPropertyOp19
 70
     1
102
RTVSPropertyOp20
 70
     1
102
RTVSPropertyOp21
 70
     1
102
RTVSPropertyOp22
 70
     1
102
RTVSPropertyOp23
 70
     1
102
RTVSPropertyOp24
 70
     1
102
RTVSPropertyOp25
 70
     1
102
RTVSPropertyOp26
 70
     1
102
RTVSPropertyOp27
 70
     1
102
RTVSPropertyOp28
 70
     1
102
RTVSPropertyOp29
 70
     1
102
RTVSPropertyOp30
 70
     1
102
RTVSPropertyOp31
 70
     1
102
RTVSPropertyOp32
 70
     1
  0
XRECORD
  5
A85
102
{ACAD_REACTORS
330
A84
102
}
330
A84
100
AcDbXrecord
280
     1
102
RTVSPropertyOp0
 70
     1
102
RTVSPropertyOp1
 70
     1
102
RTVSPropertyOp2
 70
     1
102
RTVSPropertyOp3
 70
     1
102
RTVSPropertyOp4
 70
     1
102
RTVSPropertyOp5
 70
     1
102
RTVSPropertyOp6
 70
     1
102
RTVSPropertyOp7
 70
     1
102
RTVSPropertyOp8
 70
     1
102
RTVSPropertyOp9
 70
     1
102
RTVSPropertyOp10
 70
     1
102
RTVSPropertyOp11
 70
     1
102
RTVSPropertyOp12
 70
     1
102
RTVSPropertyOp13
 70
     1
102
RTVSPropertyOp14
 70
     1
102
RTVSPropertyOp15
 70
     1
102
RTVSPropertyOp16
 70
     1
102
RTVSPropertyOp17
 70
     1
102
RTVSPropertyOp18
 70
     1
102
RTVSPropertyOp19
 70
     1
102
RTVSPropertyOp20
 70
     1
102
RTVSPropertyOp21
 70
     1
102
RTVSPropertyOp22
 70
     1
102
RTVSPropertyOp23
 70
     1
102
RTVSPropertyOp24
 70
     1
102
RTVSPropertyOp25
 70
     1
102
RTVSPropertyOp26
 70
     1
102
RTVSPropertyOp27
 70
     1
102
RTVSPropertyOp28
 70
     1
102
RTVSPropertyOp29
 70
     1
102
RTVSPropertyOp30
 70
     1
102
RTVSPropertyOp31
 70
     1
102
RTVSPropertyOp32
 70
     1
  0
XRECORD
  5
A87
102
{ACAD_REACTORS
330
A86
102
}
330
A86
100
AcDbXrecord
280
     1
102
RTVSPropertyOp0
 70
     1
102
RTVSPropertyOp1
 70
     1
102
RTVSPropertyOp2
 70
     1
102
RTVSPropertyOp3
 70
     1
102
RTVSPropertyOp4
 70
     1
102
RTVSPropertyOp5
 70
     1
102
RTVSPropertyOp6
 70
     1
102
RTVSPropertyOp7
 70
     1
102
RTVSPropertyOp8
 70
     1
102
RTVSPropertyOp9
 70
     1
102
RTVSPropertyOp10
 70
     1
102
RTVSPropertyOp11
 70
     1
102
RTVSPropertyOp12
 70
     1
102
RTVSPropertyOp13
 70
     1
102
RTVSPropertyOp14
 70
     1
102
RTVSPropertyOp15
 70
     1
102
RTVSPropertyOp16
 70
     1
102
RTVSPropertyOp17
 70
     1
102
RTVSPropertyOp18
 70
     1
102
RTVSPropertyOp19
 70
     1
102
RTVSPropertyOp20
 70
     1
102
RTVSPropertyOp21
 70
     1
102
RTVSPropertyOp22
 70
     1
102
RTVSPropertyOp23
 70
     1
102
RTVSPropertyOp24
 70
     1
102
RTVSPropertyOp25
 70
     1
102
RTVSPropertyOp26
 70
     1
102
RTVSPropertyOp27
 70
     1
102
RTVSPropertyOp28
 70
     1
102
RTVSPropertyOp29
 70
     1
102
RTVSPropertyOp30
 70
     1
102
RTVSPropertyOp31
 70
     1
102
RTVSPropertyOp32
 70
     1
  0
XRECORD
  5
A7D
102
{ACAD_REACTORS
330
A7C
102
}
330
A7C
100
AcDbXrecord
280
     1
102
RTVSPropertyOp0
 70
     1
102
RTVSPropertyOp1
 70
     1
102
RTVSPropertyOp2
 70
     1
102
RTVSPropertyOp3
 70
     1
102
RTVSPropertyOp4
 70
     1
102
RTVSPropertyOp5
 70
     1
102
RTVSPropertyOp6
 70
     1
102
RTVSPropertyOp7
 70
     1
102
RTVSPropertyOp8
 70
     1
102
RTVSPropertyOp9
 70
     1
102
RTVSPropertyOp10
 70
     1
102
RTVSPropertyOp11
 70
     1
102
RTVSPropertyOp12
 70
     1
102
RTVSPropertyOp13
 70
     1
102
RTVSPropertyOp14
 70
     1
102
RTVSPropertyOp15
 70
     1
102
RTVSPropertyOp16
 70
     1
102
RTVSPropertyOp17
 70
     1
102
RTVSPropertyOp18
 70
     1
102
RTVSPropertyOp19
 70
     1
102
RTVSPropertyOp20
 70
     1
102
RTVSPropertyOp21
 70
     1
102
RTVSPropertyOp22
 70
     1
102
RTVSPropertyOp23
 70
     1
102
RTVSPropertyOp24
 70
     1
102
RTVSPropertyOp25
 70
     1
102
RTVSPropertyOp26
 70
     1
102
RTVSPropertyOp27
 70
     1
102
RTVSPropertyOp28
 70
     1
102
RTVSPropertyOp29
 70
     1
102
RTVSPropertyOp30
 70
     1
102
RTVSPropertyOp31
 70
     1
102
RTVSPropertyOp32
 70
     1
  0
XRECORD
  5
A71
102
{ACAD_REACTORS
330
A70
102
}
330
A70
100
AcDbXrecord
280
     1
102
RTVSPropertyOp0
 70
     1
102
RTVSPropertyOp1
 70
     1
102
RTVSPropertyOp2
 70
     1
102
RTVSPropertyOp3
 70
     1
102
RTVSPropertyOp4
 70
     1
102
RTVSPropertyOp5
 70
     1
102
RTVSPropertyOp6
 70
     1
102
RTVSPropertyOp7
 70
     1
102
RTVSPropertyOp8
 70
     1
102
RTVSPropertyOp9
 70
     1
102
RTVSPropertyOp10
 70
     1
102
RTVSPropertyOp11
 70
     1
102
RTVSPropertyOp12
 70
     1
102
RTVSPropertyOp13
 70
     1
102
RTVSPropertyOp14
 70
     1
102
RTVSPropertyOp15
 70
     1
102
RTVSPropertyOp16
 70
     1
102
RTVSPropertyOp17
 70
     1
102
RTVSPropertyOp18
 70
     1
102
RTVSPropertyOp19
 70
     1
102
RTVSPropertyOp20
 70
     1
102
RTVSPropertyOp21
 70
     1
102
RTVSPropertyOp22
 70
     1
102
RTVSPropertyOp23
 70
     1
102
RTVSPropertyOp24
 70
     1
102
RTVSPropertyOp25
 70
     1
102
RTVSPropertyOp26
 70
     1
102
RTVSPropertyOp27
 70
     1
102
RTVSPropertyOp28
 70
     1
102
RTVSPropertyOp29
 70
     1
102
RTVSPropertyOp30
 70
     1
102
RTVSPropertyOp31
 70
     1
102
RTVSPropertyOp32
 70
     1
  0
XRECORD
  5
A89
102
{ACAD_REACTORS
330
A88
102
}
330
A88
100
AcDbXrecord
280
     1
102
RTVSPropertyOp0
 70
     1
102
RTVSPropertyOp1
 70
     1
102
RTVSPropertyOp2
 70
     1
102
RTVSPropertyOp3
 70
     1
102
RTVSPropertyOp4
 70
     1
102
RTVSPropertyOp5
 70
     1
102
RTVSPropertyOp6
 70
     1
102
RTVSPropertyOp7
 70
     1
102
RTVSPropertyOp8
 70
     1
102
RTVSPropertyOp9
 70
     1
102
RTVSPropertyOp10
 70
     1
102
RTVSPropertyOp11
 70
     1
102
RTVSPropertyOp12
 70
     1
102
RTVSPropertyOp13
 70
     1
102
RTVSPropertyOp14
 70
     1
102
RTVSPropertyOp15
 70
     1
102
RTVSPropertyOp16
 70
     1
102
RTVSPropertyOp17
 70
     1
102
RTVSPropertyOp18
 70
     1
102
RTVSPropertyOp19
 70
     1
102
RTVSPropertyOp20
 70
     1
102
RTVSPropertyOp21
 70
     1
102
RTVSPropertyOp22
 70
     1
102
RTVSPropertyOp23
 70
     1
102
RTVSPropertyOp24
 70
     1
102
RTVSPropertyOp25
 70
     1
102
RTVSPropertyOp26
 70
     1
102
RTVSPropertyOp27
 70
     1
102
RTVSPropertyOp28
 70
     1
102
RTVSPropertyOp29
 70
     1
102
RTVSPropertyOp30
 70
     1
102
RTVSPropertyOp31
 70
     1
102
RTVSPropertyOp32
 70
     1
  0
ACDBASSOCGEOMDEPENDENCY
  5
8D4
330
8D3
100
AcDbAssocDependency
 90
        2
 90
        0
290
     1
290
     1
290
     1
290
     1
 90
   -10000
330
1DC
290
     0
330
0
330
0
360
0
 90
        1
100
AcDbAssocGeomDependency
 90
        0
290
     1
  1
AcDbAssocSingleEdgePersSubentId
290
     0
  0
ENDSEC
  0
EOF
