  0
SECTION
  2
HEADER
  9
$ACADVER
  1
AC1015
  9
$ACADMAINTVER
 70
    20
  9
$DWGCODEPAGE
  3
ANSI_1250
  9
$INSBASE
 10
0.0
 20
0.0
 30
0.0
  9
$EXTMIN
 10
779.2972633204307
 20
566.7147773118408
 30
0.0
  9
$EXTMAX
 10
7460.707336949609
 20
5124.846694323063
 30
0.0
  9
$LIMMIN
 10
0.0
 20
0.0
  9
$LIMMAX
 10
8400.0
 20
5940.0
  9
$ORTHOMODE
 70
     0
  9
$REGENMODE
 70
     1
  9
$FILLMODE
 70
     1
  9
$QTEXTMODE
 70
     0
  9
$MIRRTEXT
 70
     0
  9
$LTSCALE
 40
20.0
  9
$ATTMODE
 70
     1
  9
$TEXTSIZE
 40
0.2
  9
$TRACEWID
 40
0.05
  9
$TEXTSTYLE
  7
Standard
  9
$CLAYER
  8
0
  9
$CELTYPE
  6
ByLayer
  9
$CECOLOR
 62
   256
  9
$CELTSCALE
 40
1.0
  9
$DISPSILH
 70
     0
  9
$DIMSCALE
 40
1.0
  9
$DIMASZ
 40
1.799999999999999
  9
$DIMEXO
 40
0.0625
  9
$DIMDLI
 40
0.38
  9
$DIMRND
 40
0.0
  9
$DIMDLE
 40
0.0
  9
$DIMEXE
 40
0.18
  9
$DIMTP
 40
0.0
  9
$DIMTM
 40
0.0
  9
$DIMTXT
 40
0.25
  9
$DIMCEN
 40
0.09
  9
$DIMTSZ
 40
0.0
  9
$DIMTOL
 70
     0
  9
$DIMLIM
 70
     0
  9
$DIMTIH
 70
     1
  9
$DIMTOH
 70
     1
  9
$DIMSE1
 70
     0
  9
$DIMSE2
 70
     0
  9
$DIMTAD
 70
     0
  9
$DIMZIN
 70
     0
  9
$DIMBLK
  1

  9
$DIMASO
 70
     1
  9
$DIMSHO
 70
     1
  9
$DIMPOST
  1

  9
$DIMAPOST
  1

  9
$DIMALT
 70
     0
  9
$DIMALTD
 70
     2
  9
$DIMALTF
 40
25.4
  9
$DIMLFAC
 40
1.0
  9
$DIMTOFL
 70
     0
  9
$DIMTVP
 40
0.0
  9
$DIMTIX
 70
     0
  9
$DIMSOXD
 70
     0
  9
$DIMSAH
 70
     0
  9
$DIMBLK1
  1

  9
$DIMBLK2
  1

  9
$DIMSTYLE
  2
Standard
  9
$DIMCLRD
 70
     0
  9
$DIMCLRE
 70
     0
  9
$DIMCLRT
 70
     0
  9
$DIMTFAC
 40
1.0
  9
$DIMGAP
 40
0.09
  9
$DIMJUST
 70
     0
  9
$DIMSD1
 70
     0
  9
$DIMSD2
 70
     0
  9
$DIMTOLJ
 70
     1
  9
$DIMTZIN
 70
     0
  9
$DIMALTZ
 70
     0
  9
$DIMALTTZ
 70
     0
  9
$DIMUPT
 70
     0
  9
$DIMDEC
 70
     4
  9
$DIMTDEC
 70
     4
  9
$DIMALTU
 70
     2
  9
$DIMALTTD
 70
     2
  9
$DIMTXSTY
  7
Standard
  9
$DIMAUNIT
 70
     0
  9
$DIMADEC
 70
     0
  9
$DIMALTRND
 40
0.0
  9
$DIMAZIN
 70
     0
  9
$DIMDSEP
 70
    46
  9
$DIMATFIT
 70
     3
  9
$DIMFRAC
 70
     0
  9
$DIMLDRBLK
  1

  9
$DIMLUNIT
 70
     2
  9
$DIMLWD
 70
    -2
  9
$DIMLWE
 70
    -2
  9
$DIMTMOVE
 70
     0
  9
$LUNITS
 70
     2
  9
$LUPREC
 70
     2
  9
$SKETCHINC
 40
0.1
  9
$FILLETRAD
 40
0.0
  9
$AUNITS
 70
     0
  9
$AUPREC
 70
     0
  9
$MENU
  1
.
  9
$ELEVATION
 40
0.0
  9
$PELEVATION
 40
0.0
  9
$THICKNESS
 40
0.0
  9
$LIMCHECK
 70
     0
  9
$CHAMFERA
 40
0.0
  9
$CHAMFERB
 40
0.0
  9
$CHAMFERC
 40
0.0
  9
$CHAMFERD
 40
0.0
  9
$SKPOLY
 70
     0
  9
$TDCREATE
 40
2455342.425536482
  9
$TDUCREATE
 40
2455342.342203148
  9
$TDUPDATE
 40
2459858.493715614
  9
$TDUUPDATE
 40
2459858.410382280
  9
$TDINDWG
 40
0.0046046065
  9
$TDUSRTIMER
 40
0.0046045370
  9
$USRTIMER
 70
     1
  9
$ANGBASE
 50
0.0
  9
$ANGDIR
 70
     0
  9
$PDMODE
 70
     0
  9
$PDSIZE
 40
0.0
  9
$PLINEWID
 40
0.0
  9
$SPLFRAME
 70
     0
  9
$SPLINETYPE
 70
     6
  9
$SPLINESEGS
 70
     8
  9
$HANDSEED
  5
E42
  9
$SURFTAB1
 70
     6
  9
$SURFTAB2
 70
     6
  9
$SURFTYPE
 70
     6
  9
$SURFU
 70
     6
  9
$SURFV
 70
     6
  9
$UCSBASE
  2

  9
$UCSNAME
  2

  9
$UCSORG
 10
0.0
 20
0.0
 30
0.0
  9
$UCSXDIR
 10
1.0
 20
0.0
 30
0.0
  9
$UCSYDIR
 10
0.0
 20
1.0
 30
0.0
  9
$UCSORTHOREF
  2

  9
$UCSORTHOVIEW
 70
     0
  9
$UCSORGTOP
 10
0.0
 20
0.0
 30
0.0
  9
$UCSORGBOTTOM
 10
0.0
 20
0.0
 30
0.0
  9
$UCSORGLEFT
 10
0.0
 20
0.0
 30
0.0
  9
$UCSORGRIGHT
 10
0.0
 20
0.0
 30
0.0
  9
$UCSORGFRONT
 10
0.0
 20
0.0
 30
0.0
  9
$UCSORGBACK
 10
0.0
 20
0.0
 30
0.0
  9
$PUCSBASE
  2

  9
$PUCSNAME
  2

  9
$PUCSORG
 10
0.0
 20
0.0
 30
0.0
  9
$PUCSXDIR
 10
1.0
 20
0.0
 30
0.0
  9
$PUCSYDIR
 10
0.0
 20
1.0
 30
0.0
  9
$PUCSORTHOREF
  2

  9
$PUCSORTHOVIEW
 70
     0
  9
$PUCSORGTOP
 10
0.0
 20
0.0
 30
0.0
  9
$PUCSORGBOTTOM
 10
0.0
 20
0.0
 30
0.0
  9
$PUCSORGLEFT
 10
0.0
 20
0.0
 30
0.0
  9
$PUCSORGRIGHT
 10
0.0
 20
0.0
 30
0.0
  9
$PUCSORGFRONT
 10
0.0
 20
0.0
 30
0.0
  9
$PUCSORGBACK
 10
0.0
 20
0.0
 30
0.0
  9
$USERI1
 70
     0
  9
$USERI2
 70
     0
  9
$USERI3
 70
     0
  9
$USERI4
 70
     0
  9
$USERI5
 70
     0
  9
$USERR1
 40
0.0
  9
$USERR2
 40
0.0
  9
$USERR3
 40
0.0
  9
$USERR4
 40
0.0
  9
$USERR5
 40
0.0
  9
$WORLDVIEW
 70
     1
  9
$SHADEDGE
 70
     3
  9
$SHADEDIF
 70
    70
  9
$TILEMODE
 70
     1
  9
$MAXACTVP
 70
    64
  9
$PINSBASE
 10
0.0
 20
0.0
 30
0.0
  9
$PLIMCHECK
 70
     0
  9
$PEXTMIN
 10
0.0
 20
0.0
 30
0.0
  9
$PEXTMAX
 10
8400.0
 20
5940.0
 30
0.0
  9
$PLIMMIN
 10
0.0
 20
0.0
  9
$PLIMMAX
 10
8400.0
 20
5940.0
  9
$UNITMODE
 70
     0
  9
$VISRETAIN
 70
     1
  9
$PLINEGEN
 70
     0
  9
$PSLTSCALE
 70
     1
  9
$TREEDEPTH
 70
  3020
  9
$CMLSTYLE
  2
Standard
  9
$CMLJUST
 70
     0
  9
$CMLSCALE
 40
1.0
  9
$PROXYGRAPHICS
 70
     1
  9
$MEASUREMENT
 70
     1
  9
$CELWEIGHT
370
    -1
  9
$ENDCAPS
280
     0
  9
$JOINSTYLE
280
     0
  9
$LWDISPLAY
290
     0
  9
$INSUNITS
 70
     4
  9
$HYPERLINKBASE
  1

  9
$STYLESHEET
  1

  9
$XEDIT
290
     1
  9
$CEPSNTYPE
380
     0
  9
$PSTYLEMODE
290
     1
  9
$FINGERPRINTGUID
  2
{FCF3FD5A-5D1D-4443-9FA1-EBE49654BD91}
  9
$VERSIONGUID
  2
{C9B5C7CB-BFBE-4068-9878-623335B0C2CB}
  9
$EXTNAMES
290
     1
  9
$PSVPSCALE
 40
0.0
  9
$OLESTARTUP
290
     0
  0
ENDSEC
  0
SECTION
  2
CLASSES
  0
CLASS
  1
ACDBDICTIONARYWDFLT
  2
AcDbDictionaryWithDefault
  3
ObjectDBX Classes
 90
        0
280
     0
281
     0
  0
CLASS
  1
MATERIAL
  2
AcDbMaterial
  3
ObjectDBX Classes
 90
     1153
280
     0
281
     0
  0
CLASS
  1
VISUALSTYLE
  2
AcDbVisualStyle
  3
ObjectDBX Classes
 90
     4095
280
     0
281
     0
  0
CLASS
  1
SCALE
  2
AcDbScale
  3
ObjectDBX Classes
 90
     1153
280
     0
281
     0
  0
CLASS
  1
TABLESTYLE
  2
AcDbTableStyle
  3
ObjectDBX Classes
 90
     4095
280
     0
281
     0
  0
CLASS
  1
MLEADERSTYLE
  2
AcDbMLeaderStyle
  3
ACDB_MLEADERSTYLE_CLASS
 90
     4095
280
     0
281
     0
  0
CLASS
  1
DICTIONARYVAR
  2
AcDbDictionaryVar
  3
ObjectDBX Classes
 90
        0
280
     0
281
     0
  0
CLASS
  1
ACME_DOCUMENT
  2
AcMeDbDoc
  3
AcMeServices
 90
     1024
280
     0
281
     0
  0
CLASS
  1
AMGSETTINGSOBJ
  2
AmgSettingsObj
  3
"AcadM|Product Description: AutoCAD Mechanical|Company: Autodesk, Inc."
 90
     1024
280
     0
281
     0
  0
CLASS
  1
ACMESCOPE
  2
AcMeScope
  3
AcMeServices
 90
     1024
280
     0
281
     0
  0
CLASS
  1
ACMECOMMANDHISTORY
  2
AcMeCommandHistory
  3
AcMeServices
 90
     1024
280
     0
281
     0
  0
CLASS
  1
ACIMSYSVARMAN
  2
AcImSysVarManager
  3
AcMeServices
 90
     1024
280
     0
281
     0
  0
CLASS
  1
ACIMINTSYSVAR
  2
AcImIntSysVar
  3
AcMeServices
 90
     1024
280
     0
281
     0
  0
CLASS
  1
ACMEDRAWINGMAN
  2
AcMeDrawingMan
  3
AcMeServices
 90
    33792
280
     0
281
     0
  0
CLASS
  1
ACMEVIEW
  2
AcMeView
  3
AcMeServices
 90
    33792
280
     0
281
     0
  0
CLASS
  1
ACDBENTITYCACHE
  2
AcMeEntityCache
  3
AcMeServices
 90
     1024
280
     0
281
     0
  0
CLASS
  1
ACMESTATEMGR
  2
AcMeStateMgr
  3
AcMeServices
 90
     1024
280
     0
281
     0
  0
CLASS
  1
ACGREFMASTER
  2
AcGrefMaster
  3
AcAttribServices
 90
     1024
280
     0
281
     0
  0
CLASS
  1
AM_DRAWING_MGR
  2
AcDmDwgMgr
  3
AcMechDwgViewMgmt
 90
     1024
280
     0
281
     0
  0
CLASS
  1
AM_DWG_DOCUMENT
  2
AcDmDwgDocument
  3
AcMechDwgViewMgmt
 90
     1024
280
     0
281
     0
  0
CLASS
  1
AM_DWG_SHEET
  2
AcDmSheet
  3
AcMechDwgViewMgmt
 90
     1024
280
     0
281
     0
  0
CLASS
  1
AM_VIEWDIMPARMAP
  2
AcDmViewDimParMap
  3
AcMechDwgViewMgmt
 90
     1024
280
     0
281
     0
  0
CLASS
  1
AMDTINTERNALREACTOR
  2
AmdtInternalReactor
  3
AcMeServices
 90
     1024
280
     0
281
     0
  0
CLASS
  1
ACIMREALSYSVAR
  2
AcImRealSysVar
  3
AcMeServices
 90
     1024
280
     0
281
     0
  0
CLASS
  1
AM_DWGMGR_NAME
  2
AcDmDwgMgrName
  3
AcMechDwgViewMgmt
 90
     1024
280
     0
281
     0
  0
CLASS
  1
ACME_DATABASE
  2
AcMeDbDatabase
  3
AcMeServices
 90
     1024
280
     0
281
     0
  0
CLASS
  1
ACRFINSADJUSTERMGR
  2
AcRfInsAdjusterMgr
  3
AcMeServices
 90
     1024
280
     0
281
     0
  0
CLASS
  1
ACGREFACADMASTER
  2
AcGrefacadMaster
  3
AcGrefServices
 90
     1024
280
     0
281
     0
  0
CLASS
  1
AMDTMENUSTATEMGR
  2
AmdtMenuStateMgr
  3
McadcomServices
 90
     1024
280
     0
281
     0
  0
CLASS
  1
AMDTMCOMMENUSTATE
  2
AmdtMcomMenuState
  3
McadcomServices
 90
     1024
280
     0
281
     0
  0
CLASS
  1
AMIMASTER
  2
AmiMaster
  3
AmiServices
 90
     1024
280
     0
281
     0
  0
CLASS
  1
MAPIAMMOUDLE
  2
MApiAmModule
  3
MApiAmServices
 90
     1024
280
     0
281
     0
  0
CLASS
  1
ACIMSTRSYSVAR
  2
AcImStrSysVar
  3
AcMeServices
 90
     1024
280
     0
281
     0
  0
CLASS
  1
AMDTADMENUSTATE
  2
AmdtAdMenuState
  3
DesignerServices
 90
    33792
280
     0
281
     0
  0
CLASS
  1
ADAPPL
  2
AcAdAppl
  3
DesignerAssemblies
 90
    33792
280
     0
281
     0
  0
CLASS
  1
DEPMGR
  2
AcAdDepMgr
  3
DesignerAssemblies
 90
    33792
280
     0
281
     0
  0
CLASS
  1
PARAMMGR
  2
AcAdParamMgr
  3
DesignerAssemblies
 90
    33792
280
     0
281
     0
  0
CLASS
  1
PARAMSCOPE
  2
AcAdParamScope
  3
DesignerAssemblies
 90
    33792
280
     0
281
     0
  0
CLASS
  1
NAMEDAPPL
  2
AcAdNamedAppl
  3
DesignerAssemblies
 90
    33792
280
     0
281
     0
  0
CLASS
  1
AMDTDMMENUSTATE
  2
AmdtDmMenuState
  3
AcMechDwgViewMgmt
 90
     1024
280
     0
281
     0
  0
CLASS
  1
AMDTAMMENUSTATE
  2
AmdtAmMenuState
  3
DesignerAssemblies
 90
     1024
280
     0
281
     0
  0
CLASS
  1
ACAMPROJECT
  2
AcAmProject
  3
DesignerAssemblies
 90
     1024
280
     0
281
     0
  0
CLASS
  1
ACAMGRCOMPDEF
  2
AcAmGrCompDef
  3
DesignerAssemblies
 90
     1024
280
     0
281
     0
  0
CLASS
  1
ACAMCOMPDEF
  2
AcAmCompDef
  3
DesignerAssemblies
 90
     1024
280
     0
281
     0
  0
CLASS
  1
ACAMCOMPDEFMGR
  2
AcAmCompDefMgr
  3
DesignerAssemblies
 90
     1024
280
     0
281
     0
  0
CLASS
  1
AMCONTEXTMGR
  2
AcAmContextMgr
  3
DesignerAssemblies
 90
     1024
280
     0
281
     0
  0
CLASS
  1
ACAMCONTEXTMODELER
  2
AcAmContextModeler
  3
DesignerAssemblies
 90
     1024
280
     0
281
     0
  0
CLASS
  1
ACMDATADICTIONARY
  2
AcmDataDictionary
  3
"AcmSymBB|Product Description: AutoCAD Mechanical|Company: Autodesk, Inc."
 90
     1024
280
     0
281
     0
  0
CLASS
  1
CATALOGSTATE
  2
AcAmCatalogState
  3
DesignerAssemblies
 90
    33792
280
     0
281
     0
  0
CLASS
  1
ACAMGRCOMPDEFSET
  2
AcAmGrCompDefSet
  3
DesignerAssemblies
 90
     1024
280
     0
281
     0
  0
CLASS
  1
AMDTBROWSERDBTAB
  2
AmdtBrowserDbTab
  3
McadcomServices
 90
     1024
280
     0
281
     0
  0
CLASS
  1
CBROWSERAPPOBJECT
  2
CBrowserAppObject
  3
McadcomServices
 90
     1024
280
     0
281
     0
  0
CLASS
  1
DM_PLACEHOLDER
  2
AcDmSelsetPlaceholder
  3
AcMechDwgViewMgmt
 90
     1024
280
     0
281
     0
  0
CLASS
  1
EXACXREFPANELOBJECT
  2
ExAcXREFPanelObject
  3
EXAC_ESW
 90
    33793
280
     0
281
     0
  0
CLASS
  1
NPOCOLLECTION
  2
AcDbImpNonPersistentObjectsCollection
  3
ObjectDBX Classes
 90
    33921
280
     0
281
     0
  0
CLASS
  1
ACMSTANDARDISO
  2
AcmStandardISO
  3
"Amdt_StdImp|Product Description: AutoCAD Mechanical|Company: Autodesk, Inc."
 90
     1024
280
     0
281
     0
  0
CLASS
  1
AMDTEDGESTANDARDISO13715
  2
AmdtEdgeStdISO13715
  3
"Amdt_StdImp|Product Description: AutoCAD Mechanical|Company: Autodesk, Inc."
 90
     1024
280
     0
281
     0
  0
CLASS
  1
ACMSURFSTANDARDISO2002
  2
AcmSurfTextStdISO2002
  3
"Amdt_StdImp|Product Description: AutoCAD Mechanical|Company: Autodesk, Inc."
 90
     1024
280
     0
281
     0
  0
CLASS
  1
ACMFCFSTANDARDISO
  2
AcmFCFStdISO
  3
"Amdt_StdImp|Product Description: AutoCAD Mechanical|Company: Autodesk, Inc."
 90
     1024
280
     0
281
     0
  0
CLASS
  1
ACMWELDSTANDARDISO
  2
AcmWeldingStdISO
  3
"Amdt_StdImp|Product Description: AutoCAD Mechanical|Company: Autodesk, Inc."
 90
     1024
280
     0
281
     0
  0
CLASS
  1
ACMIDSTANDARDISO
  2
AcmIdStdISO
  3
"Amdt_StdImp|Product Description: AutoCAD Mechanical|Company: Autodesk, Inc."
 90
     1024
280
     0
281
     0
  0
CLASS
  1
ACMDATUMSTANDARDISO
  2
AcmDatumStdISO
  3
"Amdt_StdImp|Product Description: AutoCAD Mechanical|Company: Autodesk, Inc."
 90
     1024
280
     0
281
     0
  0
CLASS
  1
ACMBOMSTANDARDISO
  2
AcmBOMStdISO
  3
"Amdt_StdImp|Product Description: AutoCAD Mechanical|Company: Autodesk, Inc."
 90
     1024
280
     0
281
     0
  0
CLASS
  1
ACMDETAILSTANDARDISO
  2
AmdtDetailSymStdISO
  3
"Amdt_StdImp|Product Description: AutoCAD Mechanical|Company: Autodesk, Inc."
 90
     1024
280
     0
281
     0
  0
CLASS
  1
ACMSECTIONSTANDARDISO2001
  2
AmdtSectionSymStdISO2001
  3
"Amdt_StdImp|Product Description: AutoCAD Mechanical|Company: Autodesk, Inc."
 90
     1024
280
     0
281
     0
  0
CLASS
  1
ACMCENTERLINESTANDARDISO
  2
AmdtCenterLineStdISO
  3
"Amdt_StdImp|Product Description: AutoCAD Mechanical|Company: Autodesk, Inc."
 90
     1024
280
     0
281
     0
  0
CLASS
  1
ACMTHREADLINESTANDARDISO
  2
AmdtThreadLineStdISO
  3
"Amdt_StdImp|Product Description: AutoCAD Mechanical|Company: Autodesk, Inc."
 90
     1024
280
     0
281
     0
  0
CLASS
  1
ACMNOTESTANDARDISO
  2
AmdtNoteStdISO
  3
"Amdt_StdImp|Product Description: AutoCAD Mechanical|Company: Autodesk, Inc."
 90
     1024
280
     0
281
     0
  0
CLASS
  1
ACMTAPERSTANDARDISO
  2
AcmTaperStdISO
  3
"Amdt_StdImp|Product Description: AutoCAD Mechanical|Company: Autodesk, Inc."
 90
     1024
280
     0
281
     0
  0
CLASS
  1
ACMANOOTATIONVIEWSTANDARDISO
  2
AmdtAnViewStdISO
  3
"Amdt_StdImp|Product Description: AutoCAD Mechanical|Company: Autodesk, Inc."
 90
     1024
280
     0
281
     0
  0
CLASS
  1
ACAMGLAYSTD
  2
AcAmgLayStd
  3
"AmgLay|Product Description: AutoCAD Mechanical|Company: Autodesk, Inc."
 90
     1024
280
     0
281
     0
  0
CLASS
  1
ACAMGDIMSTD
  2
AcAmgDimStd
  3
"AmgDim|Product Description: AutoCAD Mechanical|Company: Autodesk, Inc."
 90
     1024
280
     0
281
     0
  0
CLASS
  1
AMGOBJPROPCFG
  2
AmgObjPropCfg
  3
"AmgLay|Product Description: AutoCAD Mechanical|Company: Autodesk, Inc."
 90
     1025
280
     0
281
     0
  0
CLASS
  1
ACAMGHOLECHARTSTDISO
  2
AcAmgHoleChartStdISO
  3
AmgDim|Product Description: AutoCAD Mechanical|Company: Autodesk, Inc.
 90
     1024
280
     0
281
     0
  0
CLASS
  1
ACAMGTITLESTD
  2
AcAmgTitleStd
  3
"AmgTitle|Product Description: AutoCAD Mechanical|Company: Autodesk, Inc."
 90
     4095
280
     0
281
     0
  0
CLASS
  1
AMDTNOTETEMPLATEDB
  2
AmdtNoteTemplateDB
  3
AcmSymBB|Product Description: AutoCAD Mechanical|Company: Autodesk, Inc.
 90
     1024
280
     0
281
     0
  0
CLASS
  1
ACAMGFILTERDAT
  2
AcAmgFilterDat
  3
"AcadM|Product Description: AutoCAD Mechanical|Company: Autodesk, Inc."
 90
    33792
280
     0
281
     0
  0
CLASS
  1
CAMSSTRUCTBTNSTATE
  2
StructBtnState
  3
DesignerAssemblies
 90
    33792
280
     0
281
     0
  0
CLASS
  1
CELLSTYLEMAP
  2
AcDbCellStyleMap
  3
ObjectDBX Classes
 90
     1152
280
     0
281
     0
  0
CLASS
  1
ACDBPLACEHOLDER
  2
AcDbPlaceHolder
  3
ObjectDBX Classes
 90
        0
280
     0
281
     0
  0
CLASS
  1
LAYOUT
  2
AcDbLayout
  3
ObjectDBX Classes
 90
        0
280
     0
281
     0
  0
ENDSEC
  0
SECTION
  2
TABLES
  0
TABLE
  2
VPORT
  5
8
102
{ACAD_XDICTIONARY
360
A09
102
}
330
0
100
AcDbSymbolTable
 70
     1
  0
VPORT
  5
62
330
8
100
AcDbSymbolTableRecord
100
AcDbViewportTableRecord
  2
*Active
 70
     0
 10
0.0
 20
0.0
 11
1.0
 21
1.0
 12
4421.573098329839
 22
2971.852555225535
 13
0.0
 23
0.0
 14
1.0
 24
1.0
 15
0.0
 25
0.0
 16
0.0
 26
0.0
 36
1.0
 17
0.0
 27
0.0
 37
0.0
 40
4784.348565315941
 41
2.40253164556962
 42
50.0
 43
0.0
 44
0.0
 50
0.0
 51
0.0
 71
     0
 72
   100
 73
     1
 74
     1
 75
     0
 76
     0
 77
     0
 78
     0
281
     0
 65
     0
110
0.0
120
0.0
130
0.0
111
1.0
121
0.0
131
0.0
112
0.0
122
1.0
132
0.0
 79
     0
146
0.0
  0
ENDTAB
  0
TABLE
  2
LTYPE
  5
5
330
0
100
AcDbSymbolTable
 70
    69
  0
LTYPE
  5
66
330
5
100
AcDbSymbolTableRecord
100
AcDbLinetypeTableRecord
  2
ByBlock
 70
     0
  3

 72
    65
 73
     0
 40
0.0
  0
LTYPE
  5
67
330
5
100
AcDbSymbolTableRecord
100
AcDbLinetypeTableRecord
  2
ByLayer
 70
     0
  3

 72
    65
 73
     0
 40
0.0
  0
LTYPE
  5
68
330
5
100
AcDbSymbolTableRecord
100
AcDbLinetypeTableRecord
  2
Continuous
 70
     0
  3
Solid line
 72
    65
 73
     0
 40
0.0
  0
LTYPE
  5
7F
330
5
100
AcDbSymbolTableRecord
100
AcDbLinetypeTableRecord
  2
Section_View_Lines
 70
     0
  3
Section View Lines
 72
    65
 73
     4
 40
0.8406
 49
0.6614
 74
     0
 49
-0.0827
 74
     0
 49
0.0138
 74
     0
 49
-0.0827
 74
     0
  0
LTYPE
  5
80
330
5
100
AcDbSymbolTableRecord
100
AcDbLinetypeTableRecord
  2
CHAIN
 70
     0
  3
Chain ____ _ ____ _ ____ _ ____ _ ____ _ ____
 72
    65
 73
     4
 40
0.3543
 49
0.2362
 74
     0
 49
-0.0295
 74
     0
 49
0.0591
 74
     0
 49
-0.0295
 74
     0
  0
LTYPE
  5
81
330
5
100
AcDbSymbolTableRecord
100
AcDbLinetypeTableRecord
  2
DASH_DOT
 70
     0
  3
Dash dot _._._._._._._._._._._._._._._.
 72
    65
 73
     4
 40
0.182
 49
0.1181
 74
     0
 49
-0.0295
 74
     0
 49
0.0049
 74
     0
 49
-0.0295
 74
     0
  0
LTYPE
  5
82
330
5
100
AcDbSymbolTableRecord
100
AcDbLinetypeTableRecord
  2
DASH_DOUBLE_DOT
 70
     0
  3
Dash Double Dot __ __ . __ __ . __ __ . __ _
 72
    65
 73
     6
 40
0.2164
 49
0.1181
 74
     0
 49
-0.0295
 74
     0
 49
0.0049
 74
     0
 49
-0.0295
 74
     0
 49
0.0049
 74
     0
 49
-0.0295
 74
     0
  0
LTYPE
  5
83
330
5
100
AcDbSymbolTableRecord
100
AcDbLinetypeTableRecord
  2
DASH_TRIPLE_DOT
 70
     0
  3
Dash Triple-Dot _ . . . _ . . . _ . . . _
 72
    65
 73
     8
 40
0.2508
 49
0.1181
 74
     0
 49
-0.0295
 74
     0
 49
0.0049
 74
     0
 49
-0.0295
 74
     0
 49
0.0049
 74
     0
 49
-0.0295
 74
     0
 49
0.0049
 74
     0
 49
-0.0295
 74
     0
  0
LTYPE
  5
84
330
5
100
AcDbSymbolTableRecord
100
AcDbLinetypeTableRecord
  2
DASHED
 70
     0
  3
Dashed __ __ __ __ __ __ __ __ __ __ __ __ __ _
 72
    65
 73
     2
 40
0.2068
 49
0.1655
 74
     0
 49
-0.0413
 74
     0
  0
LTYPE
  5
85
330
5
100
AcDbSymbolTableRecord
100
AcDbLinetypeTableRecord
  2
DASHED_SPACE
 70
     0
  3
Dashed Space __ __ __ __ __ __ __ __ __ __ __ _
 72
    65
 73
     2
 40
0.2067
 49
0.1654
 74
     0
 49
-0.0413
 74
     0
  0
LTYPE
  5
86
330
5
100
AcDbSymbolTableRecord
100
AcDbLinetypeTableRecord
  2
DOTTED
 70
     0
  3
Dotted . . . . . . . . . . . . . . . . . . . . 
 72
    65
 73
     2
 40
0.0481
 49
0.0068
 74
     0
 49
-0.0413
 74
     0
  0
LTYPE
  5
87
330
5
100
AcDbSymbolTableRecord
100
AcDbLinetypeTableRecord
  2
DOUBLE_DASH_CHAIN
 70
     0
  3
Double Dash Chain ___ _ _ ___ _ _ ___ _ _ ___ _
 72
    65
 73
     6
 40
1.240299999999998
 49
0.6614
 74
     0
 49
-0.0827
 74
     0
 49
0.1654
 74
     0
 49
-0.0827
 74
     0
 49
0.1654
 74
     0
 49
-0.0827
 74
     0
  0
LTYPE
  5
88
330
5
100
AcDbSymbolTableRecord
100
AcDbLinetypeTableRecord
  2
DOUBLE_DASH_DOT
 70
     0
  3
Double Dash Dot __ __ . __ __ . __ __ . __ _
 72
    65
 73
     6
 40
0.3296
 49
0.1181
 74
     0
 49
-0.0295
 74
     0
 49
0.1181
 74
     0
 49
-0.0295
 74
     0
 49
0.0049
 74
     0
 49
-0.0295
 74
     0
  0
LTYPE
  5
89
330
5
100
AcDbSymbolTableRecord
100
AcDbLinetypeTableRecord
  2
DOUBLE_DASH_DOUBLE_DOT
 70
     0
  3
Double Dash Double Dot _ _ . . _ _ . . _ _
 72
    65
 73
     8
 40
0.364
 49
0.1181
 74
     0
 49
-0.0295
 74
     0
 49
0.1181
 74
     0
 49
-0.0295
 74
     0
 49
0.0049
 74
     0
 49
-0.0295
 74
     0
 49
0.0049
 74
     0
 49
-0.0295
 74
     0
  0
LTYPE
  5
8A
330
5
100
AcDbSymbolTableRecord
100
AcDbLinetypeTableRecord
  2
DOUBLE_DASH_TRIPLE_DOT
 70
     0
  3
Double Dash Triple Dot __ __ . . . __ __ . . .
 72
    65
 73
    10
 40
0.3984
 49
0.1181
 74
     0
 49
-0.0295
 74
     0
 49
0.1181
 74
     0
 49
-0.0295
 74
     0
 49
0.0049
 74
     0
 49
-0.0295
 74
     0
 49
0.0049
 74
     0
 49
-0.0295
 74
     0
 49
0.0049
 74
     0
 49
-0.0295
 74
     0
  0
LTYPE
  5
8B
330
5
100
AcDbSymbolTableRecord
100
AcDbLinetypeTableRecord
  2
LONG_DASH_DOTTED
 70
     0
  3
Long Dash Dotted ____ . ____ . ____ . ____ . _
 72
    65
 73
     4
 40
0.3001
 49
0.2362
 74
     0
 49
-0.0295
 74
     0
 49
0.0049
 74
     0
 49
-0.0295
 74
     0
  0
LTYPE
  5
8C
330
5
100
AcDbSymbolTableRecord
100
AcDbLinetypeTableRecord
  2
LONG_DASH_DOUBLE_DOT
 70
     0
  3
Long Dash Double Dot ____ . . ____ . . ____ . .
 72
    65
 73
     6
 40
0.3345
 49
0.2362
 74
     0
 49
-0.0295
 74
     0
 49
0.0049
 74
     0
 49
-0.0295
 74
     0
 49
0.0049
 74
     0
 49
-0.0295
 74
     0
  0
LTYPE
  5
8D
330
5
100
AcDbSymbolTableRecord
100
AcDbLinetypeTableRecord
  2
LONG_DASH_TRIPLE_DOT
 70
     0
  3
Long Dash Triple Dot ____ ... ____ ... ____
 72
    65
 73
     8
 40
0.3689
 49
0.2362
 74
     0
 49
-0.0295
 74
     0
 49
0.0049
 74
     0
 49
-0.0295
 74
     0
 49
0.0049
 74
     0
 49
-0.0295
 74
     0
 49
0.0049
 74
     0
 49
-0.0295
 74
     0
  0
LTYPE
  5
8E
330
5
100
AcDbSymbolTableRecord
100
AcDbLinetypeTableRecord
  2
BORDER
 70
     0
  3
Border __ __ . __ __ . __ __ . __ __ . __ __ .
 72
    65
 73
     6
 40
44.45
 49
12.7
 74
     0
 49
-6.349999999999998
 74
     0
 49
12.7
 74
     0
 49
-6.349999999999998
 74
     0
 49
0.0
 74
     0
 49
-6.349999999999998
 74
     0
  0
LTYPE
  5
8F
330
5
100
AcDbSymbolTableRecord
100
AcDbLinetypeTableRecord
  2
BORDER2
 70
     0
  3
Border (.5x) __.__.__.__.__.__.__.__.__.__.__.
 72
    65
 73
     6
 40
22.225
 49
6.349999999999998
 74
     0
 49
-3.174999999999998
 74
     0
 49
6.349999999999998
 74
     0
 49
-3.174999999999998
 74
     0
 49
0.0
 74
     0
 49
-3.174999999999998
 74
     0
  0
LTYPE
  5
90
330
5
100
AcDbSymbolTableRecord
100
AcDbLinetypeTableRecord
  2
BORDERX2
 70
     0
  3
Border (2x) ____  ____  .  ____  ____  .  ___
 72
    65
 73
     6
 40
88.9
 49
25.4
 74
     0
 49
-12.7
 74
     0
 49
25.4
 74
     0
 49
-12.7
 74
     0
 49
0.0
 74
     0
 49
-12.7
 74
     0
  0
LTYPE
  5
91
330
5
100
AcDbSymbolTableRecord
100
AcDbLinetypeTableRecord
  2
CENTER
 70
     0
  3
Center ____ _ ____ _ ____ _ ____ _ ____ _ ____
 72
    65
 73
     4
 40
50.8
 49
31.75
 74
     0
 49
-6.349999999999998
 74
     0
 49
6.349999999999998
 74
     0
 49
-6.349999999999998
 74
     0
  0
LTYPE
  5
92
330
5
100
AcDbSymbolTableRecord
100
AcDbLinetypeTableRecord
  2
CENTER2
 70
     0
  3
Center (.5x) ___ _ ___ _ ___ _ ___ _ ___ _ ___
 72
    65
 73
     4
 40
28.575
 49
19.05
 74
     0
 49
-3.174999999999998
 74
     0
 49
3.174999999999998
 74
     0
 49
-3.174999999999998
 74
     0
  0
LTYPE
  5
93
330
5
100
AcDbSymbolTableRecord
100
AcDbLinetypeTableRecord
  2
CENTERX2
 70
     0
  3
Center (2x) ________  __  ________  __  _____
 72
    65
 73
     4
 40
101.6
 49
63.5
 74
     0
 49
-12.7
 74
     0
 49
12.7
 74
     0
 49
-12.7
 74
     0
  0
LTYPE
  5
94
330
5
100
AcDbSymbolTableRecord
100
AcDbLinetypeTableRecord
  2
DASHDOT2
 70
     0
  3
Dash dot (.5x) _._._._._._._._._._._._._._._.
 72
    65
 73
     4
 40
12.7
 49
6.349999999999998
 74
     0
 49
-3.174999999999998
 74
     0
 49
0.0
 74
     0
 49
-3.174999999999998
 74
     0
  0
LTYPE
  5
95
330
5
100
AcDbSymbolTableRecord
100
AcDbLinetypeTableRecord
  2
DASHDOTX2
 70
     0
  3
Dash dot (2x) ____  .  ____  .  ____  .  ___
 72
    65
 73
     4
 40
50.8
 49
25.4
 74
     0
 49
-12.7
 74
     0
 49
0.0
 74
     0
 49
-12.7
 74
     0
  0
LTYPE
  5
96
330
5
100
AcDbSymbolTableRecord
100
AcDbLinetypeTableRecord
  2
DASHED2
 70
     0
  3
Dashed (.5x) _ _ _ _ _ _ _ _ _ _ _ _ _ _ _ _ _
 72
    65
 73
     2
 40
9.524999999999996
 49
6.349999999999998
 74
     0
 49
-3.174999999999998
 74
     0
  0
LTYPE
  5
97
330
5
100
AcDbSymbolTableRecord
100
AcDbLinetypeTableRecord
  2
DASHEDX2
 70
     0
  3
Dashed (2x) ____  ____  ____  ____  ____  ___
 72
    65
 73
     2
 40
38.1
 49
25.4
 74
     0
 49
-12.7
 74
     0
  0
LTYPE
  5
98
330
5
100
AcDbSymbolTableRecord
100
AcDbLinetypeTableRecord
  2
DIVIDE
 70
     0
  3
Divide ____ . . ____ . . ____ . . ____ . . ____
 72
    65
 73
     6
 40
31.75
 49
12.7
 74
     0
 49
-6.349999999999998
 74
     0
 49
0.0
 74
     0
 49
-6.349999999999998
 74
     0
 49
0.0
 74
     0
 49
-6.349999999999998
 74
     0
  0
LTYPE
  5
99
330
5
100
AcDbSymbolTableRecord
100
AcDbLinetypeTableRecord
  2
DIVIDE2
 70
     0
  3
Divide (.5x) __..__..__..__..__..__..__..__.._
 72
    65
 73
     6
 40
15.875
 49
6.349999999999998
 74
     0
 49
-3.174999999999998
 74
     0
 49
0.0
 74
     0
 49
-3.174999999999998
 74
     0
 49
0.0
 74
     0
 49
-3.174999999999998
 74
     0
  0
LTYPE
  5
9A
330
5
100
AcDbSymbolTableRecord
100
AcDbLinetypeTableRecord
  2
DIVIDEX2
 70
     0
  3
Divide (2x) ________  .  .  ________  .  .  _
 72
    65
 73
     6
 40
63.49999999999999
 49
25.4
 74
     0
 49
-12.7
 74
     0
 49
0.0
 74
     0
 49
-12.7
 74
     0
 49
0.0
 74
     0
 49
-12.7
 74
     0
  0
LTYPE
  5
9B
330
5
100
AcDbSymbolTableRecord
100
AcDbLinetypeTableRecord
  2
DOT
 70
     0
  3
Dot . . . . . . . . . . . . . . . . . . . . . .
 72
    65
 73
     2
 40
6.349999999999998
 49
0.0
 74
     0
 49
-6.349999999999998
 74
     0
  0
LTYPE
  5
9C
330
5
100
AcDbSymbolTableRecord
100
AcDbLinetypeTableRecord
  2
DOT2
 70
     0
  3
Dot (.5x) .....................................
 72
    65
 73
     2
 40
3.174999999999998
 49
0.0
 74
     0
 49
-3.174999999999998
 74
     0
  0
LTYPE
  5
9D
330
5
100
AcDbSymbolTableRecord
100
AcDbLinetypeTableRecord
  2
DOTX2
 70
     0
  3
Dot (2x) .  .  .  .  .  .  .  .  .  .  .  .  . 
 72
    65
 73
     2
 40
12.7
 49
0.0
 74
     0
 49
-12.7
 74
     0
  0
LTYPE
  5
9E
330
5
100
AcDbSymbolTableRecord
100
AcDbLinetypeTableRecord
  2
HIDDEN
 70
     0
  3
Hidden __ __ __ __ __ __ __ __ __ __ __ __ __ _
 72
    65
 73
     2
 40
9.524999999999996
 49
6.349999999999998
 74
     0
 49
-3.174999999999998
 74
     0
  0
LTYPE
  5
9F
330
5
100
AcDbSymbolTableRecord
100
AcDbLinetypeTableRecord
  2
HIDDEN2
 70
     0
  3
Hidden (.5x) _ _ _ _ _ _ _ _ _ _ _ _ _ _ _ _ _
 72
    65
 73
     2
 40
4.762499999999998
 49
3.174999999999998
 74
     0
 49
-1.587499999999999
 74
     0
  0
LTYPE
  5
A0
330
5
100
AcDbSymbolTableRecord
100
AcDbLinetypeTableRecord
  2
HIDDENX2
 70
     0
  3
Hidden (2x) ____ ____ ____ ____ ____ ____ ____
 72
    65
 73
     2
 40
19.05
 49
12.7
 74
     0
 49
-6.349999999999998
 74
     0
  0
LTYPE
  5
A1
330
5
100
AcDbSymbolTableRecord
100
AcDbLinetypeTableRecord
  2
PHANTOM
 70
     0
  3
Phantom ______  __  __  ______  __  __  ______
 72
    65
 73
     6
 40
63.5
 49
31.75
 74
     0
 49
-6.349999999999998
 74
     0
 49
6.349999999999998
 74
     0
 49
-6.349999999999998
 74
     0
 49
6.349999999999998
 74
     0
 49
-6.349999999999998
 74
     0
  0
LTYPE
  5
A2
330
5
100
AcDbSymbolTableRecord
100
AcDbLinetypeTableRecord
  2
PHANTOM2
 70
     0
  3
Phantom (.5x) ___ _ _ ___ _ _ ___ _ _ ___ _ _
 72
    65
 73
     6
 40
31.75
 49
15.875
 74
     0
 49
-3.174999999999998
 74
     0
 49
3.174999999999998
 74
     0
 49
-3.174999999999998
 74
     0
 49
3.174999999999998
 74
     0
 49
-3.174999999999998
 74
     0
  0
LTYPE
  5
A3
330
5
100
AcDbSymbolTableRecord
100
AcDbLinetypeTableRecord
  2
PHANTOMX2
 70
     0
  3
Phantom (2x) ____________    ____    ____   _
 72
    65
 73
     6
 40
127.0
 49
63.5
 74
     0
 49
-12.7
 74
     0
 49
12.7
 74
     0
 49
-12.7
 74
     0
 49
12.7
 74
     0
 49
-12.7
 74
     0
  0
LTYPE
  5
A4
330
5
100
AcDbSymbolTableRecord
100
AcDbLinetypeTableRecord
  2
ACAD_ISO02W100
 70
     0
  3
ISO dash __ __ __ __ __ __ __ __ __ __ __ __ __
 72
    65
 73
     2
 40
15.0
 49
12.0
 74
     0
 49
-3.0
 74
     0
  0
LTYPE
  5
A5
330
5
100
AcDbSymbolTableRecord
100
AcDbLinetypeTableRecord
  2
ACAD_ISO03W100
 70
     0
  3
ISO dash space __    __    __    __    __    __
 72
    65
 73
     2
 40
30.0
 49
12.0
 74
     0
 49
-18.0
 74
     0
  0
LTYPE
  5
A6
330
5
100
AcDbSymbolTableRecord
100
AcDbLinetypeTableRecord
  2
ACAD_ISO04W100
 70
     0
  3
ISO long-dash dot ____ . ____ . ____ . ____ . _
 72
    65
 73
     4
 40
30.0
 49
24.0
 74
     0
 49
-3.0
 74
     0
 49
0.0
 74
     0
 49
-3.0
 74
     0
  0
LTYPE
  5
A7
330
5
100
AcDbSymbolTableRecord
100
AcDbLinetypeTableRecord
  2
ACAD_ISO05W100
 70
     0
  3
ISO long-dash double-dot ____ .. ____ .. ____ .
 72
    65
 73
     6
 40
33.0
 49
24.0
 74
     0
 49
-3.0
 74
     0
 49
0.0
 74
     0
 49
-3.0
 74
     0
 49
0.0
 74
     0
 49
-3.0
 74
     0
  0
LTYPE
  5
A8
330
5
100
AcDbSymbolTableRecord
100
AcDbLinetypeTableRecord
  2
ACAD_ISO06W100
 70
     0
  3
ISO long-dash triple-dot ____ ... ____ ... ____
 72
    65
 73
     8
 40
36.0
 49
24.0
 74
     0
 49
-3.0
 74
     0
 49
0.0
 74
     0
 49
-3.0
 74
     0
 49
0.0
 74
     0
 49
-3.0
 74
     0
 49
0.0
 74
     0
 49
-3.0
 74
     0
  0
LTYPE
  5
A9
330
5
100
AcDbSymbolTableRecord
100
AcDbLinetypeTableRecord
  2
ACAD_ISO07W100
 70
     0
  3
ISO dot . . . . . . . . . . . . . . . . . . . .
 72
    65
 73
     2
 40
3.0
 49
0.0
 74
     0
 49
-3.0
 74
     0
  0
LTYPE
  5
AA
330
5
100
AcDbSymbolTableRecord
100
AcDbLinetypeTableRecord
  2
ACAD_ISO08W100
 70
     0
  3
ISO long-dash short-dash ____ __ ____ __ ____ _
 72
    65
 73
     4
 40
36.0
 49
24.0
 74
     0
 49
-3.0
 74
     0
 49
6.0
 74
     0
 49
-3.0
 74
     0
  0
LTYPE
  5
AB
330
5
100
AcDbSymbolTableRecord
100
AcDbLinetypeTableRecord
  2
ACAD_ISO09W100
 70
     0
  3
ISO long-dash double-short-dash ____ __ __ ____
 72
    65
 73
     6
 40
45.0
 49
24.0
 74
     0
 49
-3.0
 74
     0
 49
6.0
 74
     0
 49
-3.0
 74
     0
 49
6.0
 74
     0
 49
-3.0
 74
     0
  0
LTYPE
  5
AC
330
5
100
AcDbSymbolTableRecord
100
AcDbLinetypeTableRecord
  2
ACAD_ISO10W100
 70
     0
  3
ISO dash dot __ . __ . __ . __ . __ . __ . __ .
 72
    65
 73
     4
 40
18.0
 49
12.0
 74
     0
 49
-3.0
 74
     0
 49
0.0
 74
     0
 49
-3.0
 74
     0
  0
LTYPE
  5
AD
330
5
100
AcDbSymbolTableRecord
100
AcDbLinetypeTableRecord
  2
ACAD_ISO11W100
 70
     0
  3
ISO double-dash dot __ __ . __ __ . __ __ . __ 
 72
    65
 73
     6
 40
33.0
 49
12.0
 74
     0
 49
-3.0
 74
     0
 49
12.0
 74
     0
 49
-3.0
 74
     0
 49
0.0
 74
     0
 49
-3.0
 74
     0
  0
LTYPE
  5
AE
330
5
100
AcDbSymbolTableRecord
100
AcDbLinetypeTableRecord
  2
ACAD_ISO12W100
 70
     0
  3
ISO dash double-dot __ . . __ . . __ . . __ . .
 72
    65
 73
     6
 40
21.0
 49
12.0
 74
     0
 49
-3.0
 74
     0
 49
0.0
 74
     0
 49
-3.0
 74
     0
 49
0.0
 74
     0
 49
-3.0
 74
     0
  0
LTYPE
  5
AF
330
5
100
AcDbSymbolTableRecord
100
AcDbLinetypeTableRecord
  2
ACAD_ISO13W100
 70
     0
  3
ISO double-dash double-dot __ __ . . __ __ . . 
 72
    65
 73
     8
 40
36.0
 49
12.0
 74
     0
 49
-3.0
 74
     0
 49
12.0
 74
     0
 49
-3.0
 74
     0
 49
0.0
 74
     0
 49
-3.0
 74
     0
 49
0.0
 74
     0
 49
-3.0
 74
     0
  0
LTYPE
  5
B0
330
5
100
AcDbSymbolTableRecord
100
AcDbLinetypeTableRecord
  2
ACAD_ISO14W100
 70
     0
  3
ISO dash triple-dot __ . . . __ . . . __ . . . 
 72
    65
 73
     8
 40
24.0
 49
12.0
 74
     0
 49
-3.0
 74
     0
 49
0.0
 74
     0
 49
-3.0
 74
     0
 49
0.0
 74
     0
 49
-3.0
 74
     0
 49
0.0
 74
     0
 49
-3.0
 74
     0
  0
LTYPE
  5
B1
330
5
100
AcDbSymbolTableRecord
100
AcDbLinetypeTableRecord
  2
ACAD_ISO15W100
 70
     0
  3
ISO double-dash triple-dot __ __ . . . __ __ . 
 72
    65
 73
    10
 40
39.0
 49
12.0
 74
     0
 49
-3.0
 74
     0
 49
12.0
 74
     0
 49
-3.0
 74
     0
 49
0.0
 74
     0
 49
-3.0
 74
     0
 49
0.0
 74
     0
 49
-3.0
 74
     0
 49
0.0
 74
     0
 49
-3.0
 74
     0
  0
LTYPE
  5
B4
330
5
100
AcDbSymbolTableRecord
100
AcDbLinetypeTableRecord
  2
FENCELINE1
 70
     0
  3
Fenceline circle ----0-----0----0-----0----0---
 72
    65
 73
     4
 40
36.83
 49
6.349999999999998
 74
     0
 49
-2.54
 74
     4
 75
   133
340
B3
 46
2.54
 50
0.0
 44
-2.54
 45
0.0
 49
-2.54
 74
     0
 49
25.4
 74
     0
  0
LTYPE
  5
B5
330
5
100
AcDbSymbolTableRecord
100
AcDbLinetypeTableRecord
  2
FENCELINE2
 70
     0
  3
Fenceline square ----[]-----[]----[]-----[]----
 72
    65
 73
     4
 40
36.83
 49
6.349999999999998
 74
     0
 49
-2.54
 74
     4
 75
   132
340
B3
 46
2.54
 50
0.0
 44
-2.54
 45
0.0
 49
-2.54
 74
     0
 49
25.4
 74
     0
  0
LTYPE
  5
B6
330
5
100
AcDbSymbolTableRecord
100
AcDbLinetypeTableRecord
  2
TRACKS
 70
     0
  3
Tracks -|-|-|-|-|-|-|-|-|-|-|-|-|-|-|-|-|-|-|-|
 72
    65
 73
     2
 40
7.62
 49
3.81
 74
     4
 75
   130
340
B3
 46
6.349999999999998
 50
0.0
 44
0.0
 45
0.0
 49
3.81
 74
     0
  0
LTYPE
  5
B7
330
5
100
AcDbSymbolTableRecord
100
AcDbLinetypeTableRecord
  2
BATTING
 70
     0
  3
Batting SSSSSSSSSSSSSSSSSSSSSSSSSSSSSSSSSSSSSSS
 72
    65
 73
     4
 40
10.16254
 49
0.00254
 74
     0
 49
-2.54
 74
     4
 75
   134
340
B3
 46
2.54
 50
0.0
 44
-2.54
 45
0.0
 49
-5.08
 74
     4
 75
   134
340
B3
 46
2.54
 50
180.0
 44
2.54
 45
0.0
 49
-2.54
 74
     0
  0
LTYPE
  5
B8
330
5
100
AcDbSymbolTableRecord
100
AcDbLinetypeTableRecord
  2
HOT_WATER_SUPPLY
 70
     0
  3
Hot water supply ---- HW ---- HW ---- HW ----
 72
    65
 73
     3
 40
22.86
 49
12.7
 74
     0
 49
-5.08
 74
     2
 75
     0
340
60
 46
2.54
 50
0.0
 44
-2.54
 45
-1.27
  9
HW
 49
-5.08
 74
     0
  0
LTYPE
  5
B9
330
5
100
AcDbSymbolTableRecord
100
AcDbLinetypeTableRecord
  2
GAS_LINE
 70
     0
  3
Gas line ----GAS----GAS----GAS----GAS----GAS---
 72
    65
 73
     3
 40
24.13
 49
12.7
 74
     0
 49
-5.08
 74
     2
 75
     0
340
60
 46
2.54
 50
0.0
 44
-2.54
 45
-1.27
  9
GAS
 49
-6.349999999999998
 74
     0
  0
LTYPE
  5
BA
330
5
100
AcDbSymbolTableRecord
100
AcDbLinetypeTableRecord
  2
ZIGZAG
 70
     0
  3
Zig zag /\/\/\/\/\/\/\/\/\/\/\/\/\/\/\/\/\/\/\/
 72
    65
 73
     4
 40
20.32254
 49
0.00254
 74
     0
 49
-5.08
 74
     4
 75
   131
340
B3
 46
5.08
 50
0.0
 44
-5.08
 45
0.0
 49
-10.16
 74
     4
 75
   131
340
B3
 46
5.08
 50
180.0
 44
5.08
 45
0.0
 49
-5.08
 74
     0
  0
LTYPE
  5
8AA
330
5
100
AcDbSymbolTableRecord
100
AcDbLinetypeTableRecord
  2
AM_ISO02W050
 70
     0
  3
__ __ __ __ __ __ __ __ __ __ __ __ __ __ __
 72
    65
 73
     2
 40
7.5
 49
6.0
 74
     0
 49
-1.5
 74
     0
  0
LTYPE
  5
8AB
330
5
100
AcDbSymbolTableRecord
100
AcDbLinetypeTableRecord
  2
AM_ISO08W050
 70
     0
  3
____ . ____ . ____ . ____ . ____ . ____ . ____
 72
    65
 73
     4
 40
18.0
 49
12.0
 74
     0
 49
-1.5
 74
     0
 49
3.0
 74
     0
 49
-1.5
 74
     0
  0
LTYPE
  5
8AC
330
5
100
AcDbSymbolTableRecord
100
AcDbLinetypeTableRecord
  2
AM_ISO09W050
 70
     0
  3
_____ . . _____ . . _____ . . ____ .. ____
 72
    65
 73
     6
 40
22.5
 49
12.0
 74
     0
 49
-1.5
 74
     0
 49
3.0
 74
     0
 49
-1.5
 74
     0
 49
3.0
 74
     0
 49
-1.5
 74
     0
  0
LTYPE
  5
8AD
330
5
100
AcDbSymbolTableRecord
100
AcDbLinetypeTableRecord
  2
Amconstr
 70
     0
  3
_______________________
 72
    65
 73
     2
 40
9999.0
 49
9999.0
 74
     0
 49
0.0
 74
     0
  0
LTYPE
  5
8AE
330
5
100
AcDbSymbolTableRecord
100
AcDbLinetypeTableRecord
  2
AM_ISO08W050x2
 70
     0
  3
__ . __ . __ . __ . __ . __
 72
    65
 73
     4
 40
9.0
 49
6.0
 74
     0
 49
-0.75
 74
     0
 49
1.5
 74
     0
 49
-0.75
 74
     0
  0
LTYPE
  5
8AF
330
5
100
AcDbSymbolTableRecord
100
AcDbLinetypeTableRecord
  2
AM_ISO02W050x2
 70
     0
  3
 _ _ _ _ _ _ _ _ _ _ _ _
 72
    65
 73
     2
 40
3.75
 49
3.0
 74
     0
 49
-0.75
 74
     0
  0
LTYPE
  5
8B2
330
5
100
AcDbSymbolTableRecord
100
AcDbLinetypeTableRecord
  2
Amzigzag
 70
     0
  3
/\/-/\/-/\/-/\/-/\/-/\/
 72
    65
 73
     2
 40
11.0001
 49
0.0001
 74
     4
 75
   136
340
8B1
 46
0.04
 50
0.0
 44
0.0
 45
0.0
 49
-11.0
 74
     0
  0
LTYPE
  5
8C1
330
5
100
AcDbSymbolTableRecord
100
AcDbLinetypeTableRecord
  2
ACISOWELD
 70
     0
  3
_ _ _ _ _
 72
    65
 73
     2
 40
2.0
 49
2.0
 74
     0
 49
-1.0
 74
     0
  0
LTYPE
  5
8C2
330
5
100
AcDbSymbolTableRecord
100
AcDbLinetypeTableRecord
  2
ACISOTGB
 70
     0
  3
__ . . __ . .
 72
    65
 73
     6
 40
9.0
 49
4.0
 74
     0
 49
-1.0
 74
     0
 49
1.0
 74
     0
 49
-1.0
 74
     0
 49
1.0
 74
     0
 49
-1.0
 74
     0
  0
LTYPE
  5
8C3
330
5
100
AcDbSymbolTableRecord
100
AcDbLinetypeTableRecord
  2
ACISOTGL
 70
     0
  3
_ _ _ _ _
 72
    65
 73
     2
 40
3.0
 49
2.0
 74
     0
 49
-1.0
 74
     0
  0
ENDTAB
  0
TABLE
  2
LAYER
  5
2
102
{ACAD_XDICTIONARY
360
8D5
102
}
330
0
100
AcDbSymbolTable
 70
     7
  0
LAYER
  5
5F
330
2
100
AcDbSymbolTableRecord
100
AcDbLayerTableRecord
  2
0
 70
     0
 62
     7
  6
Continuous
370
    -3
390
F
  0
LAYER
  5
C4
330
2
100
AcDbSymbolTableRecord
100
AcDbLayerTableRecord
  2
Obramowanie (ISO)
 70
     0
 62
     7
  6
Continuous
370
    35
390
F
  0
LAYER
  5
CE
330
2
100
AcDbSymbolTableRecord
100
AcDbLayerTableRecord
  2
Tytuł (ISO)
 70
     0
 62
     7
  6
Continuous
370
    30
390
F
  0
LAYER
  5
D1
330
2
100
AcDbSymbolTableRecord
100
AcDbLayerTableRecord
  2
Widoczne (ISO)
 70
     0
 62
     7
  6
Continuous
370
    25
390
F
  0
LAYER
  5
D2
330
2
100
AcDbSymbolTableRecord
100
AcDbLayerTableRecord
  2
Widoczne wąskie (ISO)
 70
     0
 62
     7
  6
Continuous
370
    15
390
F
  0
LAYER
  5
D3
330
2
100
AcDbSymbolTableRecord
100
AcDbLayerTableRecord
  2
Wymiar (ISO)
 70
     0
 62
   151
  6
Continuous
370
    18
390
F
  0
LAYER
  5
372
330
2
100
AcDbSymbolTableRecord
100
AcDbLayerTableRecord
  2
Defpoints
 70
     0
 62
     7
  6
Continuous
290
     0
370
    -3
390
F
  0
ENDTAB
  0
TABLE
  2
STYLE
  5
3
330
0
100
AcDbSymbolTable
 70
    12
  0
STYLE
  5
60
330
3
100
AcDbSymbolTableRecord
100
AcDbTextStyleTableRecord
  2
Standard
 70
     0
 40
0.0
 41
1.0
 50
0.0
 71
     0
 42
0.2
  3
tahoma.ttf
  4

1001
ACAD
1000
Tahoma
1071
      256
  0
STYLE
  5
65
330
3
100
AcDbSymbolTableRecord
100
AcDbTextStyleTableRecord
  2
Annotative
 70
     0
 40
0.0
 41
1.0
 50
0.0
 71
     0
 42
0.2
  3
txt
  4

1001
AcadAnnotative
1000
AnnotativeData
1002
{
1070
     1
1070
     1
1002
}
  0
STYLE
  5
B3
330
3
100
AcDbSymbolTableRecord
100
AcDbTextStyleTableRecord
  2

 70
     1
 40
0.0
 41
1.0
 50
0.0
 71
     0
 42
0.2
  3
ltypeshp.shx
  4

  0
STYLE
  5
D6
330
3
100
AcDbSymbolTableRecord
100
AcDbTextStyleTableRecord
  2
Tekst etykiety (ISO)
 70
     0
 40
0.0
 41
1.0
 50
0.0
 71
     0
 42
0.2
  3
tahoma.ttf
  4

1001
ACAD
1000
Tahoma
1071
      256
  0
STYLE
  5
D7
330
3
100
AcDbSymbolTableRecord
100
AcDbTextStyleTableRecord
  2
Tekst mały
 70
     0
 40
0.0
 41
1.0
 50
0.0
 71
     0
 42
0.2
  3
tahoma.ttf
  4

1001
ACAD
1000
Tahoma
1071
      256
  0
STYLE
  5
D8
330
3
100
AcDbSymbolTableRecord
100
AcDbTextStyleTableRecord
  2
Tekst notatki (ISO)
 70
     0
 40
0.0
 41
1.0
 50
0.0
 71
     0
 42
0.2
  3
tahoma.ttf
  4

1001
ACAD
1000
Tahoma
1071
      256
  0
STYLE
  5
15F
330
3
100
AcDbSymbolTableRecord
100
AcDbTextStyleTableRecord
  2
Styl tekstu41
 70
     0
 40
0.0
 41
1.0
 50
0.0
 71
     0
 42
0.2
  3
tahoma.ttf
  4

1001
ACAD
1000
Tahoma
1071
      256
  0
STYLE
  5
166
330
3
100
AcDbSymbolTableRecord
100
AcDbTextStyleTableRecord
  2
Styl tekstu45
 70
     0
 40
0.0
 41
1.0
 50
0.0
 71
     0
 42
0.2
  3
tahoma.ttf
  4

1001
ACAD
1000
Tahoma
1071
      256
  0
STYLE
  5
16E
330
3
100
AcDbSymbolTableRecord
100
AcDbTextStyleTableRecord
  2
Styl tekstu44
 70
     0
 40
0.0
 41
1.0
 50
0.0
 71
     0
 42
0.2
  3
tahoma.ttf
  4

1001
ACAD
1000
Tahoma
1071
      256
  0
STYLE
  5
8B1
330
3
100
AcDbSymbolTableRecord
100
AcDbTextStyleTableRecord
  2

 70
     1
 40
0.0
 41
1.0
 50
0.0
 71
     0
 42
0.2
  3
genltshp.shx
  4

  0
STYLE
  5
8BF
330
3
100
AcDbSymbolTableRecord
100
AcDbTextStyleTableRecord
  2
ACISOTS
 70
     0
 40
1.0
 41
1.0
 50
0.0
 71
     0
 42
0.2
  3
isocp.shx
  4

  0
STYLE
  5
8C0
330
3
100
AcDbSymbolTableRecord
100
AcDbTextStyleTableRecord
  2
ACISOGDT
 70
     0
 40
0.0
 41
1.0
 50
0.0
 71
     0
 42
0.2
  3
amgdt.shx
  4

  0
ENDTAB
  0
TABLE
  2
VIEW
  5
6
330
0
100
AcDbSymbolTable
 70
     0
  0
ENDTAB
  0
TABLE
  2
UCS
  5
7
330
0
100
AcDbSymbolTable
 70
     0
  0
ENDTAB
  0
TABLE
  2
APPID
  5
9
330
0
100
AcDbSymbolTable
 70
    18
  0
APPID
  5
61
330
9
100
AcDbSymbolTableRecord
100
AcDbRegAppTableRecord
  2
ACAD
 70
     0
  0
APPID
  5
69
330
9
100
AcDbSymbolTableRecord
100
AcDbRegAppTableRecord
  2
AcadAnnotative
 70
     0
  0
APPID
  5
16B
330
9
100
AcDbSymbolTableRecord
100
AcDbRegAppTableRecord
  2
AcadAnnoPO
 70
     0
  0
APPID
  5
836
330
9
100
AcDbSymbolTableRecord
100
AcDbRegAppTableRecord
  2
MCAD_NO_VIS
 70
     0
  0
APPID
  5
837
330
9
100
AcDbSymbolTableRecord
100
AcDbRegAppTableRecord
  2
ACAD_TEMP_GRAPHIC
 70
     0
  0
APPID
  5
864
330
9
100
AcDbSymbolTableRecord
100
AcDbRegAppTableRecord
  2
AD_DRAW
 70
     0
  0
APPID
  5
867
330
9
100
AcDbSymbolTableRecord
100
AcDbRegAppTableRecord
  2
ACATTRIBSERVICES
 70
     0
  0
APPID
  5
887
330
9
100
AcDbSymbolTableRecord
100
AcDbRegAppTableRecord
  2
DESIGNERASSEMBLIES
 70
     0
  0
APPID
  5
88D
330
9
100
AcDbSymbolTableRecord
100
AcDbRegAppTableRecord
  2
ACADM_DIM_EDIT
 70
     0
  0
APPID
  5
88E
330
9
100
AcDbSymbolTableRecord
100
AcDbRegAppTableRecord
  2
AMDT_DM_ADJ
 70
     0
  0
APPID
  5
8A7
330
9
100
AcDbSymbolTableRecord
100
AcDbRegAppTableRecord
  2
ACAD_DSTYLE_DIMJAG
 70
     0
  0
APPID
  5
8A8
330
9
100
AcDbSymbolTableRecord
100
AcDbRegAppTableRecord
  2
ACAD_DSTYLE_DIMBREAK
 70
     0
  0
APPID
  5
967
330
9
100
AcDbSymbolTableRecord
100
AcDbRegAppTableRecord
  2
ACAD_MLEADERVER
 70
     0
  0
APPID
  5
96D
330
9
100
AcDbSymbolTableRecord
100
AcDbRegAppTableRecord
  2
ACAD_DSTYLE_DIMARC_LENGTH_SYMBOL
 70
     0
  0
APPID
  5
96E
330
9
100
AcDbSymbolTableRecord
100
AcDbRegAppTableRecord
  2
ACAD_DSTYLE_DIM_LINETYPE
 70
     0
  0
APPID
  5
96F
330
9
100
AcDbSymbolTableRecord
100
AcDbRegAppTableRecord
  2
ACAD_DSTYLE_DIM_EXT1_LINETYPE
 70
     0
  0
APPID
  5
970
330
9
100
AcDbSymbolTableRecord
100
AcDbRegAppTableRecord
  2
ACAD_DSTYLE_DIM_EXT2_LINETYPE
 70
     0
  0
APPID
  5
B23
330
9
100
AcDbSymbolTableRecord
100
AcDbRegAppTableRecord
  2
ACAD_EXEMPT_FROM_CAD_STANDARDS
 70
     0
  0
ENDTAB
  0
TABLE
  2
DIMSTYLE
  5
A
330
0
100
AcDbSymbolTable
 70
    23
100
AcDbDimStyleTable
 71
     2
340
E1
340
63
  0
DIMSTYLE
105
63
330
A
100
AcDbSymbolTableRecord
100
AcDbDimStyleTableRecord
  2
Standard
 70
     0
340
60
  0
DIMSTYLE
105
64
330
A
100
AcDbSymbolTableRecord
100
AcDbDimStyleTableRecord
  2
Annotative
 70
     0
340
60
1001
AcadAnnotative
1000
AnnotativeData
1002
{
1070
     1
1070
     1
1002
}
  0
DIMSTYLE
105
D9
330
A
100
AcDbSymbolTableRecord
100
AcDbDimStyleTableRecord
  2
Domyślne - Metoda 1b (ISO)
 70
     0
 40
20.0
 41
2.5
 42
0.0
 43
5.999999999999999
 44
3.174999999999998
 45
0.00000001
 46
10.0
 73
     0
 77
     1
 78
     8
 79
     2
140
2.5
143
0.03937
146
1.399999999999999
147
0.762
171
     3
172
     1
176
   256
177
   256
178
   256
179
     2
271
     2
272
     2
274
     3
278
    44
284
     8
286
     8
340
D8
371
    -1
372
    -1
  0
DIMSTYLE
105
DA
330
A
100
AcDbSymbolTableRecord
100
AcDbDimStyleTableRecord
  2
Domyślne - Metoda 1b (ISO)$7
 70
     0
 40
20.0
 41
2.5
 42
0.0
 43
5.999999999999999
 44
3.174999999999998
 45
0.00000001
 46
10.0
 73
     0
 77
     1
 78
     8
 79
     2
140
2.5
143
0.03937
146
1.399999999999999
147
0.762
171
     3
172
     1
176
   256
177
   256
178
   256
179
     2
271
     2
272
     2
274
     3
278
    44
284
     8
286
     8
340
D8
371
    -1
372
    -1
  0
DIMSTYLE
105
DB
330
A
100
AcDbSymbolTableRecord
100
AcDbDimStyleTableRecord
  2
Domyślne - Metoda 2a (ISO)
 70
     0
 40
20.0
 41
2.5
 42
0.0
 43
5.999999999999999
 44
3.174999999999998
 45
0.00000001
 46
10.0
 77
     1
 78
     8
 79
     2
140
2.5
143
0.03937
146
1.399999999999999
147
0.762
171
     3
172
     1
176
   256
177
   256
178
   256
179
     2
271
     2
272
     2
274
     3
278
    44
284
     8
286
     8
340
D8
371
    -1
372
    -1
  0
DIMSTYLE
105
DC
330
A
100
AcDbSymbolTableRecord
100
AcDbDimStyleTableRecord
  2
Domyślne - Metoda 2a (ISO)$7
 70
     0
 40
20.0
 41
2.5
 42
0.0
 43
5.999999999999999
 44
3.174999999999998
 45
0.00000001
 46
10.0
 77
     1
 78
     8
 79
     2
140
2.5
143
0.03937
146
1.399999999999999
147
0.762
171
     3
172
     1
176
   256
177
   256
178
   256
179
     2
271
     2
272
     2
274
     3
278
    44
284
     8
286
     8
340
D8
371
    -1
372
    -1
  0
DIMSTYLE
105
DD
330
A
100
AcDbSymbolTableRecord
100
AcDbDimStyleTableRecord
  2
Domyślne - Metoda 2b (ISO)
 70
     0
 40
20.0
 41
2.5
 42
0.0
 43
5.999999999999999
 44
3.174999999999998
 45
0.00000001
 46
10.0
 77
     1
 78
     8
 79
     2
140
2.5
143
0.03937
146
1.399999999999999
147
0.762
171
     3
172
     1
176
   256
177
   256
178
   256
179
     2
271
     2
272
     2
274
     3
278
    44
284
     8
286
     8
340
D8
371
    -1
372
    -1
  0
DIMSTYLE
105
DE
330
A
100
AcDbSymbolTableRecord
100
AcDbDimStyleTableRecord
  2
Domyślne - Metoda 2b (ISO)$7
 70
     0
 40
20.0
 41
2.5
 42
0.0
 43
5.999999999999999
 44
3.174999999999998
 45
0.00000001
 46
10.0
 77
     1
 78
     8
 79
     2
140
2.5
143
0.03937
146
1.399999999999999
147
0.762
171
     3
172
     1
176
   256
177
   256
178
   256
179
     2
271
     2
272
     2
274
     3
278
    44
284
     8
286
     8
340
D8
371
    -1
372
    -1
  0
DIMSTYLE
105
DF
330
A
100
AcDbSymbolTableRecord
100
AcDbDimStyleTableRecord
  2
Domyślne - mm [cale] (ISO)
 70
     0
  4
 cal
 40
20.0
 41
2.5
 42
0.0
 43
5.999999999999999
 44
3.174999999999998
 45
0.00000001
 46
10.0
 73
     0
 74
     0
 77
     1
 78
     8
 79
     2
140
2.5
143
0.03937
146
1.399999999999999
147
0.762
170
     1
171
     3
172
     1
176
   256
177
   256
178
   256
179
     3
271
     3
272
     2
274
     3
275
     1
278
    44
284
     8
285
     8
286
     8
340
D8
371
    -1
372
    -1
  0
DIMSTYLE
105
E0
330
A
100
AcDbSymbolTableRecord
100
AcDbDimStyleTableRecord
  2
Domyślne - mm [cale] (ISO)$7
 70
     0
  4
 cal
 40
20.0
 41
2.5
 42
0.0
 43
5.999999999999999
 44
3.174999999999998
 45
0.00000001
 46
10.0
 73
     0
 74
     0
 77
     1
 78
     8
 79
     2
140
2.5
143
0.03937
146
1.399999999999999
147
0.762
170
     1
171
     3
172
     1
176
   256
177
   256
178
   256
179
     3
271
     3
272
     2
274
     3
275
     1
278
    44
284
     8
285
     8
286
     8
340
D8
371
    -1
372
    -1
  0
DIMSTYLE
105
E1
102
{ACAD_REACTORS
330
371
330
45A
330
53C
330
624
330
70C
102
}
330
A
100
AcDbSymbolTableRecord
100
AcDbDimStyleTableRecord
  2
Domyślne (ISO)
 70
     0
 40
20.0
 41
2.5
 42
0.0
 43
5.999999999999999
 44
3.174999999999998
 45
0.00000001
 46
10.0
 73
     0
 77
     1
140
3.5
143
0.03937
146
0.7142857142857145
147
0.762
171
     3
172
     1
176
   256
177
   256
178
   256
271
     0
272
     0
274
     3
278
    44
340
D6
371
    -1
372
    -1
  0
DIMSTYLE
105
E2
330
A
100
AcDbSymbolTableRecord
100
AcDbDimStyleTableRecord
  2
Domyślne (ISO)$7
 70
     0
 40
20.0
 41
2.5
 42
0.0
 43
5.999999999999999
 44
3.174999999999998
 45
0.00000001
 46
10.0
 73
     0
 77
     1
140
3.5
143
0.03937
146
0.7142857142857145
147
0.762
171
     3
172
     1
176
   256
177
   256
178
   256
271
     0
272
     0
274
     3
278
    44
340
D6
371
    -1
372
    -1
  0
DIMSTYLE
105
F1
330
A
100
AcDbSymbolTableRecord
100
AcDbDimStyleTableRecord
  2
Obiekt mieszany (ISO)
 70
     0
 40
20.0
 41
2.5
 42
0.0
 43
5.999999999999999
 44
3.174999999999998
 45
0.00000001
 46
10.0
 73
     0
 74
     0
 77
     1
140
3.5
143
0.03937
146
1.001485756465366
147
0.762
171
     3
172
     1
176
   256
177
   256
178
   256
179
     2
271
     2
272
     2
274
     3
278
    44
340
D6
341
E3
371
    -1
372
    -1
  0
DIMSTYLE
105
F2
330
A
100
AcDbSymbolTableRecord
100
AcDbDimStyleTableRecord
  2
Obiekt mieszany (ISO)$7
 70
     0
 40
20.0
 41
5.0
 42
0.0
 43
5.999999999999999
 44
3.174999999999998
 45
0.00000001
 46
10.0
 73
     0
 74
     0
 77
     1
140
3.5
143
0.03937
146
1.001485756465366
147
0.762
171
     3
172
     1
176
   256
177
   256
178
   256
179
     2
271
     2
272
     2
274
     3
278
    44
340
D6
341
E3
371
    25
372
    -1
  0
DIMSTYLE
105
F3
330
A
100
AcDbSymbolTableRecord
100
AcDbDimStyleTableRecord
  2
Dodatkowy (ISO)
 70
     0
 40
20.0
 41
2.5
340
60
342
F4
  0
DIMSTYLE
105
105
330
A
100
AcDbSymbolTableRecord
100
AcDbDimStyleTableRecord
  2
Odniesienie (ISO)
 70
     0
 40
20.0
 41
2.5
340
60
342
F4
  0
DIMSTYLE
105
8A6
102
{ACAD_REACTORS
330
BD9
102
}
330
A
100
AcDbSymbolTableRecord
100
AcDbDimStyleTableRecord
  2
AM_ISO
 70
     0
  4
"
 41
3.5
 42
1.0
 43
10.0
 44
1.0
 47
0.1
 48
0.1
 73
     0
 74
     0
 77
     1
 78
     8
 79
     2
140
3.5
141
0.0
143
0.0393701
146
0.71
147
1.5
172
     1
176
   256
177
   256
178
   140
271
     2
272
     3
274
     4
283
     0
284
     8
340
60
371
    -1
372
    -1
1001
ACAD_DSTYLE_DIMJAG
1070
   388
1040
1.5
1001
ACAD_DSTYLE_DIMBREAK
1070
   391
1040
3.75
1001
ACAD_DSTYLE_DIMARC_LENGTH_SYMBOL
1070
   379
1070
     1
1001
ACAD_DSTYLE_DIM_LINETYPE
1070
   380
1005
66
1001
ACAD_DSTYLE_DIM_EXT1_LINETYPE
1070
   381
1005
66
1001
ACAD_DSTYLE_DIM_EXT2_LINETYPE
1070
   382
1005
66
  0
DIMSTYLE
105
8B3
330
A
100
AcDbSymbolTableRecord
100
AcDbDimStyleTableRecord
  2
AM_ISO$3
 70
     0
  4
"
 41
3.5
 42
1.0
 43
10.0
 44
1.0
 47
0.1
 48
0.1
 73
     0
 77
     1
 78
     8
 79
     2
140
3.5
141
0.0
143
0.0393701
146
0.71
147
1.5
176
   256
177
   256
178
   140
271
     2
272
     3
274
     4
283
     0
284
     8
288
     1
289
     0
340
60
371
    -1
372
    -1
1001
ACAD_DSTYLE_DIMBREAK
1070
   391
1040
3.75
1001
ACAD_DSTYLE_DIMJAG
1070
   388
1040
1.5
1001
ACAD_DSTYLE_DIMARC_LENGTH_SYMBOL
1070
   379
1070
     1
1001
ACAD_DSTYLE_DIM_LINETYPE
1070
   380
1005
66
1001
ACAD_DSTYLE_DIM_EXT1_LINETYPE
1070
   381
1005
66
1001
ACAD_DSTYLE_DIM_EXT2_LINETYPE
1070
   382
1005
66
  0
DIMSTYLE
105
8B4
330
A
100
AcDbSymbolTableRecord
100
AcDbDimStyleTableRecord
  2
AM_ISO$4
 70
     0
  4
"
 41
3.5
 42
1.0
 43
10.0
 44
1.0
 47
0.1
 48
0.1
 73
     0
 77
     1
 78
     8
 79
     2
140
3.5
141
0.0
143
0.0393701
146
0.71
147
1.5
176
   256
177
   256
178
   140
271
     2
272
     3
274
     4
283
     0
284
     8
288
     1
289
     0
340
60
371
    -1
372
    -1
1001
ACAD_DSTYLE_DIMBREAK
1070
   391
1040
3.75
1001
ACAD_DSTYLE_DIMJAG
1070
   388
1040
1.5
1001
ACAD_DSTYLE_DIMARC_LENGTH_SYMBOL
1070
   379
1070
     1
1001
ACAD_DSTYLE_DIM_LINETYPE
1070
   380
1005
66
1001
ACAD_DSTYLE_DIM_EXT1_LINETYPE
1070
   381
1005
66
1001
ACAD_DSTYLE_DIM_EXT2_LINETYPE
1070
   382
1005
66
  0
DIMSTYLE
105
8B5
330
A
100
AcDbSymbolTableRecord
100
AcDbDimStyleTableRecord
  2
AM_ISO$6
 70
     0
  4
"
 41
3.5
 42
1.0
 43
10.0
 44
1.0
 47
0.1
 48
0.1
 73
     0
 74
     0
 78
     8
 79
     2
140
3.5
141
0.0
143
0.0393701
146
0.71
147
1.5
172
     1
176
   256
177
   256
178
   140
271
     2
272
     3
274
     4
283
     0
284
     8
340
60
371
    -1
372
    -1
1001
ACAD_DSTYLE_DIMBREAK
1070
   391
1040
3.75
1001
ACAD_DSTYLE_DIMJAG
1070
   388
1040
1.5
1001
ACAD_DSTYLE_DIMARC_LENGTH_SYMBOL
1070
   379
1070
     1
1001
ACAD_DSTYLE_DIM_LINETYPE
1070
   380
1005
66
1001
ACAD_DSTYLE_DIM_EXT1_LINETYPE
1070
   381
1005
66
1001
ACAD_DSTYLE_DIM_EXT2_LINETYPE
1070
   382
1005
66
  0
DIMSTYLE
105
8B6
330
A
100
AcDbSymbolTableRecord
100
AcDbDimStyleTableRecord
  2
AM_ISO$7
 70
     0
  4
"
 41
3.5
 42
1.0
 43
10.0
 44
1.0
 47
0.1
 48
0.1
 73
     0
 74
     0
 77
     1
 78
     8
 79
     2
140
3.5
141
0.0
143
0.0393701
146
0.71
147
1.5
172
     1
176
   256
177
   256
178
   140
271
     2
272
     3
274
     4
283
     0
284
     8
340
60
371
    -1
372
    -1
1001
ACAD_DSTYLE_DIMBREAK
1070
   391
1040
3.75
1001
ACAD_DSTYLE_DIMJAG
1070
   388
1040
1.5
1001
ACAD_DSTYLE_DIMARC_LENGTH_SYMBOL
1070
   379
1070
     1
1001
ACAD_DSTYLE_DIM_LINETYPE
1070
   380
1005
66
1001
ACAD_DSTYLE_DIM_EXT1_LINETYPE
1070
   381
1005
66
1001
ACAD_DSTYLE_DIM_EXT2_LINETYPE
1070
   382
1005
66
  0
DIMSTYLE
105
8B7
330
A
100
AcDbSymbolTableRecord
100
AcDbDimStyleTableRecord
  2
AM_ISO$SF
 70
     0
  4
"
 41
3.5
 42
1.0
 43
10.0
 44
1.0
 47
0.1
 48
0.1
 73
     0
 74
     0
 75
     1
 76
     1
 77
     1
 78
     8
 79
     2
140
3.5
141
0.0
143
0.0393701
146
0.71
147
1.5
172
     1
176
   256
177
   256
178
   140
271
     2
272
     3
274
     4
283
     0
284
     8
340
60
371
    -1
372
    -1
1001
ACAD_DSTYLE_DIMBREAK
1070
   391
1040
3.75
1001
ACAD_DSTYLE_DIMJAG
1070
   388
1040
1.5
1001
ACAD_DSTYLE_DIMARC_LENGTH_SYMBOL
1070
   379
1070
     1
1001
ACAD_DSTYLE_DIM_LINETYPE
1070
   380
1005
66
1001
ACAD_DSTYLE_DIM_EXT1_LINETYPE
1070
   381
1005
66
1001
ACAD_DSTYLE_DIM_EXT2_LINETYPE
1070
   382
1005
66
  0
DIMSTYLE
105
8BC
330
A
100
AcDbSymbolTableRecord
100
AcDbDimStyleTableRecord
  2
AM_ISO$SH
 70
     0
  4
"
 41
3.5
 42
1.0
 43
10.0
 44
1.0
 47
0.1
 48
0.1
 73
     0
 74
     0
 75
     1
 76
     1
 77
     1
 78
     8
 79
     2
140
3.5
141
0.0
143
0.0393701
144
2.0
146
0.71
147
1.5
172
     1
173
     1
176
   256
177
   256
178
   140
271
     2
272
     3
274
     4
283
     0
284
     8
340
60
343
8B8
371
    -1
372
    -1
1001
ACAD_DSTYLE_DIMBREAK
1070
   391
1040
3.75
1001
ACAD_DSTYLE_DIMJAG
1070
   388
1040
1.5
1001
ACAD_DSTYLE_DIMARC_LENGTH_SYMBOL
1070
   379
1070
     1
1001
ACAD_DSTYLE_DIM_LINETYPE
1070
   380
1005
66
1001
ACAD_DSTYLE_DIM_EXT1_LINETYPE
1070
   381
1005
66
1001
ACAD_DSTYLE_DIM_EXT2_LINETYPE
1070
   382
1005
66
  0
ENDTAB
  0
TABLE
  2
BLOCK_RECORD
  5
1
330
0
100
AcDbSymbolTable
 70
    14
  0
BLOCK_RECORD
  5
77
330
1
100
AcDbSymbolTableRecord
100
AcDbBlockTableRecord
  2
*Model_Space
340
7A
  0
BLOCK_RECORD
  5
73
330
1
100
AcDbSymbolTableRecord
100
AcDbBlockTableRecord
  2
*Paper_Space
340
76
  0
BLOCK_RECORD
  5
7B
330
1
100
AcDbSymbolTableRecord
100
AcDbBlockTableRecord
  2
*Paper_Space0
340
7E
  0
BLOCK_RECORD
  5
E3
330
1
100
AcDbSymbolTableRecord
100
AcDbBlockTableRecord
  2
Filled-1
340
0
  0
BLOCK_RECORD
  5
F4
330
1
100
AcDbSymbolTableRecord
100
AcDbBlockTableRecord
  2
_Closed
340
0
  0
BLOCK_RECORD
  5
FB
330
1
100
AcDbSymbolTableRecord
100
AcDbBlockTableRecord
  2
DatumFilled45
340
0
  0
BLOCK_RECORD
  5
106
330
1
100
AcDbSymbolTableRecord
100
AcDbBlockTableRecord
  2
Ramki Ramka domyślna
340
0
  0
BLOCK_RECORD
  5
14E
330
1
100
AcDbSymbolTableRecord
100
AcDbBlockTableRecord
  2
Tabelki rysunkowe ISO
340
0
  0
BLOCK_RECORD
  5
373
330
1
100
AcDbSymbolTableRecord
100
AcDbBlockTableRecord
  2
*D6
340
0
  0
BLOCK_RECORD
  5
45B
330
1
100
AcDbSymbolTableRecord
100
AcDbBlockTableRecord
  2
*D7
340
0
  0
BLOCK_RECORD
  5
53D
330
1
100
AcDbSymbolTableRecord
100
AcDbBlockTableRecord
  2
*D8
340
0
  0
BLOCK_RECORD
  5
625
330
1
100
AcDbSymbolTableRecord
100
AcDbBlockTableRecord
  2
*D9
340
0
  0
BLOCK_RECORD
  5
70D
330
1
100
AcDbSymbolTableRecord
100
AcDbBlockTableRecord
  2
*D10
340
0
  0
BLOCK_RECORD
  5
8B8
330
1
100
AcDbSymbolTableRecord
100
AcDbBlockTableRecord
  2
GENAXEH
340
0
  0
BLOCK_RECORD
  5
BF3
330
1
100
AcDbSymbolTableRecord
100
AcDbBlockTableRecord
  2
2148_Zjezdzalnia-wolnostojaca
340
0
310
2800000020000000200000000100080000000000000400000000000000000000000000000000000000000000000080000080000000808000800000008000800080800000C0C0C000C0DCC000F0CAA6000020400000206000002080000020A0000020C0000020E00000400000004020000040400000406000004080000040A0
310
000040C0000040E00000600000006020000060400000606000006080000060A0000060C0000060E00000800000008020000080400000806000008080000080A0000080C0000080E00000A0000000A0200000A0400000A0600000A0800000A0A00000A0C00000A0E00000C0000000C0200000C0400000C0600000C0800000C0
310
A00000C0C00000C0E00000E0000000E0200000E0400000E0600000E0800000E0A00000E0C00000E0E00040000000400020004000400040006000400080004000A0004000C0004000E00040200000402020004020400040206000402080004020A0004020C0004020E000404000004040200040404000404060004040800040
310
40A0004040C0004040E00040600000406020004060400040606000406080004060A0004060C0004060E00040800000408020004080400040806000408080004080A0004080C0004080E00040A0000040A0200040A0400040A0600040A0800040A0A00040A0C00040A0E00040C0000040C0200040C0400040C0600040C08000
310
40C0A00040C0C00040C0E00040E0000040E0200040E0400040E0600040E0800040E0A00040E0C00040E0E00080000000800020008000400080006000800080008000A0008000C0008000E00080200000802020008020400080206000802080008020A0008020C0008020E00080400000804020008040400080406000804080
310
008040A0008040C0008040E00080600000806020008060400080606000806080008060A0008060C0008060E00080800000808020008080400080806000808080008080A0008080C0008080E00080A0000080A0200080A0400080A0600080A0800080A0A00080A0C00080A0E00080C0000080C0200080C0400080C0600080C0
310
800080C0A00080C0C00080C0E00080E0000080E0200080E0400080E0600080E0800080E0A00080E0C00080E0E000C0000000C0002000C0004000C0006000C0008000C000A000C000C000C000E000C0200000C0202000C0204000C0206000C0208000C020A000C020C000C020E000C0400000C0402000C0404000C0406000C0
310
408000C040A000C040C000C040E000C0600000C0602000C0604000C0606000C0608000C060A000C060C000C060E000C0800000C0802000C0804000C0806000C0808000C080A000C080C000C080E000C0A00000C0A02000C0A04000C0A06000C0A08000C0A0A000C0A0C000C0A0E000C0C00000C0C02000C0C04000C0C06000
310
C0C08000C0C0A000F0FBFF00A4A0A000808080000000FF0000FF000000FFFF00FF000000FF00FF00FFFF0000FFFFFF0049494949494949494949494949494949494949494949494949494949494949494949494949494949494949494949494949494949494949494949494949494949494949494949494949494949494949
310
49494949494949494949494949494949494949494949494949494949494949494949494949494949494949494949494949494949494949494949494949494949494949494949494949494949494949494949494949494949494949494949494949494949494949494949494949494949494949494949494949494949494949
310
49494949494949494949494949494949494949494949494949494949494949494949494949494949494949494949494949494949494949494949494949494949FFFFFFFFFFFFFFFFFFFFFFFF49494949494949494949494949494949494949FF494949494949494949494949FFFFFF49494949494949FFFFFFFFFFFFFFFFFF
310
494949494949494949494949494949FF4949494949FFFF494949494949494949494949494949494949494949494949FF4949494949FF4949494949494949494949494949494949494949494949494949FF49494949FF4949494949494949494949494949494949494949494949494949FF494949FF4949494949494949FFFF
310
FFFFFFFFFFFFFFFFFFFFFFFF494949494949FF4949FF494949494949494949FF49FFFFFF4949FFFFFFFFFFFF494949494949FF4949FF494949494949494949FF49FFFFFF4949FFFFFFFFFFFF494949494949FF4949FF494949494949494949FFFFFFFFFFFFFFFFFFFFFFFFFF494949494949FF4949FFFF4949494949494949
310
494949494949494949494949494949494949FF49494949FF4949494949494949494949494949494949494949494949494949FF4949494949FF494949494949494949494949494949494949494949494949FF49494949494949FFFFFFFFFFFFFFFFFF494949494949494949494949494949FF49494949494949494949494949
310
494949FF49494949494949494949494949FF494949494949494949494949494949494949FFFFFFFFFFFFFFFFFFFFFFFFFF494949494949494949494949494949494949494949494949494949494949494949494949494949494949494949494949494949494949494949494949494949494949494949494949494949494949
310
49494949494949494949494949494949494949494949494949494949494949494949494949494949494949494949494949494949494949494949494949494949494949494949494949494949494949494949494949494949494949494949494949494949494949494949494949494949494949494949494949494949494949
310
4949494949494949494949494949494949494949494949494949494949494949494949494949494949494949494949494949494949494949
102
{BLKREFS
331
DE7
102
}
1001
ACAD
1000
DesignCenter Data
1002
{
1070
     1
1070
     4
1002
}
  0
ENDTAB
  0
ENDSEC
  0
SECTION
  2
BLOCKS
  0
BLOCK
  5
78
330
77
100
AcDbEntity
  8
0
100
AcDbBlockBegin
  2
*Model_Space
 70
     0
 10
0.0
 20
0.0
 30
0.0
  3
*Model_Space
  1

  0
ENDBLK
  5
79
330
77
100
AcDbEntity
  8
0
100
AcDbBlockEnd
  0
BLOCK
  5
74
330
73
100
AcDbEntity
 67
     1
  8
0
100
AcDbBlockBegin
  2
*Paper_Space
 70
     0
 10
0.0
 20
0.0
 30
0.0
  3
*Paper_Space
  1

  0
ENDBLK
  5
75
330
73
100
AcDbEntity
 67
     1
  8
0
100
AcDbBlockEnd
  0
BLOCK
  5
7C
330
7B
100
AcDbEntity
 67
     1
  8
0
100
AcDbBlockBegin
  2
*Paper_Space0
 70
     0
 10
0.0
 20
0.0
 30
0.0
  3
*Paper_Space0
  1

  0
ENDBLK
  5
7D
330
7B
100
AcDbEntity
 67
     1
  8
0
100
AcDbBlockEnd
  0
BLOCK
  5
E4
330
E3
100
AcDbEntity
  8
0
100
AcDbBlockBegin
  2
Filled-1
 70
     0
 10
0.0
 20
0.0
 30
0.0
  3
Filled-1
  1

  0
LINE
  5
E6
330
E3
100
AcDbEntity
  8
0
 62
     0
100
AcDbLine
 10
-1.0
 20
0.0
 30
0.0
 11
0.0
 21
0.0
 31
0.0
  0
POLYLINE
  5
E7
330
E3
100
AcDbEntity
  8
0
 62
     0
100
AcDb2dPolyline
 66
     1
 10
0.0
 20
0.0
 30
0.0
 70
   128
  0
VERTEX
  5
E8
330
E7
100
AcDbEntity
  8
0
 62
     0
100
AcDbVertex
100
AcDb2dVertex
 10
-1.0
 20
-0.1
 30
0.0
  0
VERTEX
  5
E9
330
E7
100
AcDbEntity
  8
0
 62
     0
100
AcDbVertex
100
AcDb2dVertex
 10
0.0
 20
0.0
 30
0.0
  0
VERTEX
  5
EB
330
E7
100
AcDbEntity
  8
0
 62
     0
100
AcDbVertex
100
AcDb2dVertex
 10
-1.0
 20
0.1
 30
0.0
  0
VERTEX
  5
EC
330
E7
100
AcDbEntity
  8
0
 62
     0
100
AcDbVertex
100
AcDb2dVertex
 10
-1.0
 20
-0.1
 30
0.0
  0
SEQEND
  5
EA
330
E7
100
AcDbEntity
  8
0
 62
     0
  0
SOLID
  5
ED
330
E3
100
AcDbEntity
  8
0
 62
     0
100
AcDbTrace
 10
-1.0
 20
-0.1
 30
0.0
 11
0.0
 21
0.0
 31
0.0
 12
-1.0
 22
0.1
 32
0.0
 13
-1.0
 23
-0.1
 33
0.0
  0
LINE
  5
EE
330
E3
100
AcDbEntity
  8
0
 62
     0
100
AcDbLine
 10
-1.0
 20
-0.1
 30
0.0
 11
0.0
 21
0.0
 31
0.0
  0
LINE
  5
EF
330
E3
100
AcDbEntity
  8
0
 62
     0
100
AcDbLine
 10
0.0
 20
0.0
 30
0.0
 11
-1.0
 21
0.1
 31
0.0
  0
LINE
  5
F0
330
E3
100
AcDbEntity
  8
0
 62
     0
100
AcDbLine
 10
-1.0
 20
0.1
 30
0.0
 11
-1.0
 21
-0.1
 31
0.0
  0
ENDBLK
  5
E5
330
E3
100
AcDbEntity
  8
0
100
AcDbBlockEnd
  0
BLOCK
  5
F9
330
F4
100
AcDbEntity
  8
0
100
AcDbBlockBegin
  2
_Closed
 70
     0
 10
0.0
 20
0.0
 30
0.0
  3
_Closed
  1

  0
LINE
  5
F5
330
F4
100
AcDbEntity
  8
0
  6
ByBlock
 62
     0
370
    -2
100
AcDbLine
 10
-1.0
 20
0.1666666666666666
 30
0.0
 11
0.0
 21
0.0
 31
0.0
  0
LINE
  5
F6
330
F4
100
AcDbEntity
  8
0
  6
ByBlock
 62
     0
370
    -2
100
AcDbLine
 10
0.0
 20
0.0
 30
0.0
 11
-1.0
 21
-0.1666666666666666
 31
0.0
  0
LINE
  5
F7
330
F4
100
AcDbEntity
  8
0
  6
ByBlock
 62
     0
370
    -2
100
AcDbLine
 10
-1.0
 20
0.1666666666666666
 30
0.0
 11
-1.0
 21
-0.1666666666666666
 31
0.0
  0
LINE
  5
F8
330
F4
100
AcDbEntity
  8
0
  6
ByBlock
 62
     0
370
    -2
100
AcDbLine
 10
0.0
 20
0.0
 30
0.0
 11
-1.0
 21
0.0
 31
0.0
  0
ENDBLK
  5
FA
330
F4
100
AcDbEntity
  8
0
100
AcDbBlockEnd
  0
BLOCK
  5
FC
330
FB
100
AcDbEntity
  8
0
100
AcDbBlockBegin
  2
DatumFilled45
 70
     0
 10
0.0
 20
0.0
 30
0.0
  3
DatumFilled45
  1

  0
POLYLINE
  5
FE
330
FB
100
AcDbEntity
  8
0
 62
     0
100
AcDb2dPolyline
 66
     1
 10
0.0
 20
0.0
 30
0.0
 70
   128
  0
VERTEX
  5
FF
330
FE
100
AcDbEntity
  8
0
 62
     0
100
AcDbVertex
100
AcDb2dVertex
 10
0.0
 20
1.0
 30
0.0
  0
VERTEX
  5
100
330
FE
100
AcDbEntity
  8
0
 62
     0
100
AcDbVertex
100
AcDb2dVertex
 10
0.0
 20
-1.0
 30
0.0
  0
VERTEX
  5
102
330
FE
100
AcDbEntity
  8
0
 62
     0
100
AcDbVertex
100
AcDb2dVertex
 10
-1.0
 20
0.0
 30
0.0
  0
VERTEX
  5
103
330
FE
100
AcDbEntity
  8
0
 62
     0
100
AcDbVertex
100
AcDb2dVertex
 10
0.0
 20
1.0
 30
0.0
  0
SEQEND
  5
101
330
FE
100
AcDbEntity
  8
0
 62
     0
  0
SOLID
  5
104
330
FB
100
AcDbEntity
  8
0
 62
     0
100
AcDbTrace
 10
0.0
 20
1.0
 30
0.0
 11
0.0
 21
-1.0
 31
0.0
 12
-1.0
 22
0.0
 32
0.0
 13
0.0
 23
1.0
 33
0.0
  0
ENDBLK
  5
FD
330
FB
100
AcDbEntity
  8
0
100
AcDbBlockEnd
  0
BLOCK
  5
107
330
106
100
AcDbEntity
  8
0
100
AcDbBlockBegin
  2
Ramki Ramka domyślna
 70
     0
 10
0.0
 20
0.0
 30
0.0
  3
Ramki Ramka domyślna
  1

  0
POLYLINE
  5
109
330
106
100
AcDbEntity
  8
Obramowanie (ISO)
100
AcDb2dPolyline
 66
     1
 10
0.0
 20
0.0
 30
0.0
 70
   128
  0
VERTEX
  5
10A
330
109
100
AcDbEntity
  8
Obramowanie (ISO)
100
AcDbVertex
100
AcDb2dVertex
 10
10.0
 20
10.0
 30
0.0
  0
VERTEX
  5
10B
330
109
100
AcDbEntity
  8
Obramowanie (ISO)
100
AcDbVertex
100
AcDb2dVertex
 10
10.0
 20
287.0000076293946
 30
0.0
  0
VERTEX
  5
10D
330
109
100
AcDbEntity
  8
Obramowanie (ISO)
100
AcDbVertex
100
AcDb2dVertex
 10
410.0
 20
287.0000076293946
 30
0.0
  0
VERTEX
  5
10E
330
109
100
AcDbEntity
  8
Obramowanie (ISO)
100
AcDbVertex
100
AcDb2dVertex
 10
410.0
 20
10.0
 30
0.0
  0
VERTEX
  5
10F
330
109
100
AcDbEntity
  8
Obramowanie (ISO)
100
AcDbVertex
100
AcDb2dVertex
 10
10.0
 20
10.0
 30
0.0
  0
SEQEND
  5
10C
330
109
100
AcDbEntity
  8
Obramowanie (ISO)
  0
POLYLINE
  5
110
330
106
100
AcDbEntity
  8
Obramowanie (ISO)
100
AcDb2dPolyline
 66
     1
 10
0.0
 20
0.0
 30
0.0
 70
   128
  0
VERTEX
  5
111
330
110
100
AcDbEntity
  8
Obramowanie (ISO)
100
AcDbVertex
100
AcDb2dVertex
 10
210.0
 20
0.0
 30
0.0
  0
VERTEX
  5
112
330
110
100
AcDbEntity
  8
Obramowanie (ISO)
100
AcDbVertex
100
AcDb2dVertex
 10
210.0
 20
10.0
 30
0.0
  0
VERTEX
  5
114
330
110
100
AcDbEntity
  8
Obramowanie (ISO)
100
AcDbVertex
100
AcDb2dVertex
 10
207.1132469177246
 20
5.0
 30
0.0
  0
VERTEX
  5
115
330
110
100
AcDbEntity
  8
Obramowanie (ISO)
100
AcDbVertex
100
AcDb2dVertex
 10
212.8867530822754
 20
5.0
 30
0.0
  0
VERTEX
  5
116
330
110
100
AcDbEntity
  8
Obramowanie (ISO)
100
AcDbVertex
100
AcDb2dVertex
 10
210.0
 20
10.0
 30
0.0
  0
SEQEND
  5
113
330
110
100
AcDbEntity
  8
Obramowanie (ISO)
  0
POLYLINE
  5
117
330
106
100
AcDbEntity
  8
Obramowanie (ISO)
100
AcDb2dPolyline
 66
     1
 10
0.0
 20
0.0
 30
0.0
 70
   128
  0
VERTEX
  5
118
330
117
100
AcDbEntity
  8
Obramowanie (ISO)
100
AcDbVertex
100
AcDb2dVertex
 10
210.0
 20
297.0000076293946
 30
0.0
  0
VERTEX
  5
119
330
117
100
AcDbEntity
  8
Obramowanie (ISO)
100
AcDbVertex
100
AcDb2dVertex
 10
210.0
 20
287.0000076293946
 30
0.0
  0
VERTEX
  5
11B
330
117
100
AcDbEntity
  8
Obramowanie (ISO)
100
AcDbVertex
100
AcDb2dVertex
 10
207.1132469177246
 20
292.0000076293945
 30
0.0
  0
VERTEX
  5
11C
330
117
100
AcDbEntity
  8
Obramowanie (ISO)
100
AcDbVertex
100
AcDb2dVertex
 10
212.8867530822754
 20
292.0000076293945
 30
0.0
  0
VERTEX
  5
11D
330
117
100
AcDbEntity
  8
Obramowanie (ISO)
100
AcDbVertex
100
AcDb2dVertex
 10
210.0
 20
287.0000076293946
 30
0.0
  0
SEQEND
  5
11A
330
117
100
AcDbEntity
  8
Obramowanie (ISO)
  0
POLYLINE
  5
11E
330
106
100
AcDbEntity
  8
Obramowanie (ISO)
100
AcDb2dPolyline
 66
     1
 10
0.0
 20
0.0
 30
0.0
 70
   128
  0
VERTEX
  5
11F
330
11E
100
AcDbEntity
  8
Obramowanie (ISO)
100
AcDbVertex
100
AcDb2dVertex
 10
0.0
 20
148.5000038146973
 30
0.0
  0
VERTEX
  5
120
330
11E
100
AcDbEntity
  8
Obramowanie (ISO)
100
AcDbVertex
100
AcDb2dVertex
 10
10.0
 20
148.5000038146973
 30
0.0
  0
VERTEX
  5
122
330
11E
100
AcDbEntity
  8
Obramowanie (ISO)
100
AcDbVertex
100
AcDb2dVertex
 10
5.0
 20
151.3867473602295
 30
0.0
  0
VERTEX
  5
123
330
11E
100
AcDbEntity
  8
Obramowanie (ISO)
100
AcDbVertex
100
AcDb2dVertex
 10
5.0
 20
145.6132507324219
 30
0.0
  0
VERTEX
  5
124
330
11E
100
AcDbEntity
  8
Obramowanie (ISO)
100
AcDbVertex
100
AcDb2dVertex
 10
10.0
 20
148.5000038146973
 30
0.0
  0
SEQEND
  5
121
330
11E
100
AcDbEntity
  8
Obramowanie (ISO)
  0
POLYLINE
  5
125
330
106
100
AcDbEntity
  8
Obramowanie (ISO)
100
AcDb2dPolyline
 66
     1
 10
0.0
 20
0.0
 30
0.0
 70
   128
  0
VERTEX
  5
126
330
125
100
AcDbEntity
  8
Obramowanie (ISO)
100
AcDbVertex
100
AcDb2dVertex
 10
420.0
 20
148.5000038146973
 30
0.0
  0
VERTEX
  5
127
330
125
100
AcDbEntity
  8
Obramowanie (ISO)
100
AcDbVertex
100
AcDb2dVertex
 10
410.0
 20
148.5000038146973
 30
0.0
  0
VERTEX
  5
129
330
125
100
AcDbEntity
  8
Obramowanie (ISO)
100
AcDbVertex
100
AcDb2dVertex
 10
415.0
 20
151.3867473602295
 30
0.0
  0
VERTEX
  5
12A
330
125
100
AcDbEntity
  8
Obramowanie (ISO)
100
AcDbVertex
100
AcDb2dVertex
 10
415.0
 20
145.6132507324219
 30
0.0
  0
VERTEX
  5
12B
330
125
100
AcDbEntity
  8
Obramowanie (ISO)
100
AcDbVertex
100
AcDb2dVertex
 10
410.0
 20
148.5000038146973
 30
0.0
  0
SEQEND
  5
128
330
125
100
AcDbEntity
  8
Obramowanie (ISO)
  0
LINE
  5
12C
330
106
100
AcDbEntity
  8
Obramowanie (ISO)
100
AcDbLine
 10
70.0
 20
10.0
 30
0.0
 11
70.0
 21
7.099999785423277
 31
0.0
  0
LINE
  5
12D
330
106
100
AcDbEntity
  8
Obramowanie (ISO)
100
AcDbLine
 10
70.0
 20
287.0000076293946
 30
0.0
 11
70.0
 21
289.8999977111817
 31
0.0
  0
LINE
  5
12E
330
106
100
AcDbEntity
  8
Obramowanie (ISO)
100
AcDbLine
 10
140.0
 20
10.0
 30
0.0
 11
140.0
 21
7.099999785423277
 31
0.0
  0
LINE
  5
12F
330
106
100
AcDbEntity
  8
Obramowanie (ISO)
100
AcDbLine
 10
140.0
 20
287.0000076293946
 30
0.0
 11
140.0
 21
289.8999977111817
 31
0.0
  0
LINE
  5
130
330
106
100
AcDbEntity
  8
Obramowanie (ISO)
100
AcDbLine
 10
280.0
 20
10.0
 30
0.0
 11
280.0
 21
7.099999785423277
 31
0.0
  0
LINE
  5
131
330
106
100
AcDbEntity
  8
Obramowanie (ISO)
100
AcDbLine
 10
280.0
 20
287.0000076293946
 30
0.0
 11
280.0
 21
289.8999977111817
 31
0.0
  0
LINE
  5
132
330
106
100
AcDbEntity
  8
Obramowanie (ISO)
100
AcDbLine
 10
350.0
 20
10.0
 30
0.0
 11
350.0
 21
7.099999785423277
 31
0.0
  0
LINE
  5
133
330
106
100
AcDbEntity
  8
Obramowanie (ISO)
100
AcDbLine
 10
350.0
 20
287.0000076293946
 30
0.0
 11
350.0
 21
289.8999977111817
 31
0.0
  0
MTEXT
  5
134
330
106
100
AcDbEntity
  8
Obramowanie (ISO)
100
AcDbMText
 10
384.4359944669735
 20
287.4
 30
0.0
 40
2.5
 41
0.0
 71
     7
 72
     1
  1
1
  7
Tekst notatki (ISO)
 73
     1
 44
1.0
1001
ACAD
1000
MTEXTBEGIN
1070
    73
1070
     1
1070
    44
1040
1.0
1070
    74
1070
     0
1000
MTEXTEND
  0
MTEXT
  5
136
330
106
100
AcDbEntity
  8
Obramowanie (ISO)
100
AcDbMText
 10
384.4359944669735
 20
7.099999999999998
 30
0.0
 40
2.5
 41
0.0
 71
     7
 72
     1
  1
1
  7
Tekst notatki (ISO)
 73
     1
 44
1.0
1001
ACAD
1000
MTEXTBEGIN
1070
    73
1070
     1
1070
    44
1040
1.0
1070
    74
1070
     0
1000
MTEXTEND
  0
MTEXT
  5
137
330
106
100
AcDbEntity
  8
Obramowanie (ISO)
100
AcDbMText
 10
314.2419939703322
 20
287.4
 30
0.0
 40
2.5
 41
0.0
 71
     7
 72
     1
  1
2
  7
Tekst notatki (ISO)
 73
     1
 44
1.0
1001
ACAD
1000
MTEXTBEGIN
1070
    73
1070
     1
1070
    44
1040
1.0
1070
    74
1070
     0
1000
MTEXTEND
  0
MTEXT
  5
138
330
106
100
AcDbEntity
  8
Obramowanie (ISO)
100
AcDbMText
 10
314.2419939703322
 20
7.099999999999998
 30
0.0
 40
2.5
 41
0.0
 71
     7
 72
     1
  1
2
  7
Tekst notatki (ISO)
 73
     1
 44
1.0
1001
ACAD
1000
MTEXTBEGIN
1070
    73
1070
     1
1070
    44
1040
1.0
1070
    74
1070
     0
1000
MTEXTEND
  0
MTEXT
  5
139
330
106
100
AcDbEntity
  8
Obramowanie (ISO)
100
AcDbMText
 10
244.2219939191321
 20
287.3473257688805
 30
0.0
 40
2.5
 41
0.0
 71
     7
 72
     1
  1
3
  7
Tekst notatki (ISO)
 73
     1
 44
1.0
1001
ACAD
1000
MTEXTBEGIN
1070
    73
1070
     1
1070
    44
1040
1.0
1070
    74
1070
     0
1000
MTEXTEND
  0
MTEXT
  5
13A
330
106
100
AcDbEntity
  8
Obramowanie (ISO)
100
AcDbMText
 10
244.2219939191321
 20
7.047325768880544
 30
0.0
 40
2.5
 41
0.0
 71
     7
 72
     1
  1
3
  7
Tekst notatki (ISO)
 73
     1
 44
1.0
1001
ACAD
1000
MTEXTBEGIN
1070
    73
1070
     1
1070
    44
1040
1.0
1070
    74
1070
     0
1000
MTEXTEND
  0
MTEXT
  5
13B
330
106
100
AcDbEntity
  8
Obramowanie (ISO)
100
AcDbMText
 10
174.1279936784914
 20
287.4
 30
0.0
 40
2.5
 41
0.0
 71
     7
 72
     1
  1
4
  7
Tekst notatki (ISO)
 73
     1
 44
1.0
1001
ACAD
1000
MTEXTBEGIN
1070
    73
1070
     1
1070
    44
1040
1.0
1070
    74
1070
     0
1000
MTEXTEND
  0
MTEXT
  5
13C
330
106
100
AcDbEntity
  8
Obramowanie (ISO)
100
AcDbMText
 10
174.1279936784914
 20
7.099999999999998
 30
0.0
 40
2.5
 41
0.0
 71
     7
 72
     1
  1
4
  7
Tekst notatki (ISO)
 73
     1
 44
1.0
1001
ACAD
1000
MTEXTBEGIN
1070
    73
1070
     1
1070
    44
1040
1.0
1070
    74
1070
     0
1000
MTEXTEND
  0
MTEXT
  5
13D
330
106
100
AcDbEntity
  8
Obramowanie (ISO)
100
AcDbMText
 10
104.2679940368923
 20
287.3473257688805
 30
0.0
 40
2.5
 41
0.0
 71
     7
 72
     1
  1
5
  7
Tekst notatki (ISO)
 73
     1
 44
1.0
1001
ACAD
1000
MTEXTBEGIN
1070
    73
1070
     1
1070
    44
1040
1.0
1070
    74
1070
     0
1000
MTEXTEND
  0
MTEXT
  5
13E
330
106
100
AcDbEntity
  8
Obramowanie (ISO)
100
AcDbMText
 10
104.2679940368923
 20
7.047325768880544
 30
0.0
 40
2.5
 41
0.0
 71
     7
 72
     1
  1
5
  7
Tekst notatki (ISO)
 73
     1
 44
1.0
1001
ACAD
1000
MTEXTBEGIN
1070
    73
1070
     1
1070
    44
1040
1.0
1070
    74
1070
     0
1000
MTEXTEND
  0
MTEXT
  5
13F
330
106
100
AcDbEntity
  8
Obramowanie (ISO)
100
AcDbMText
 10
34.20199386793194
 20
287.3473257688805
 30
0.0
 40
2.5
 41
0.0
 71
     7
 72
     1
  1
6
  7
Tekst notatki (ISO)
 73
     1
 44
1.0
1001
ACAD
1000
MTEXTBEGIN
1070
    73
1070
     1
1070
    44
1040
1.0
1070
    74
1070
     0
1000
MTEXTEND
  0
MTEXT
  5
140
330
106
100
AcDbEntity
  8
Obramowanie (ISO)
100
AcDbMText
 10
34.20199386793194
 20
7.047325768880544
 30
0.0
 40
2.5
 41
0.0
 71
     7
 72
     1
  1
6
  7
Tekst notatki (ISO)
 73
     1
 44
1.0
1001
ACAD
1000
MTEXTBEGIN
1070
    73
1070
     1
1070
    44
1040
1.0
1070
    74
1070
     0
1000
MTEXTEND
  0
LINE
  5
141
330
106
100
AcDbEntity
  8
Obramowanie (ISO)
100
AcDbLine
 10
10.0
 20
74.25000190734862
 30
0.0
 11
7.099999785423277
 21
74.25000190734862
 31
0.0
  0
LINE
  5
142
330
106
100
AcDbEntity
  8
Obramowanie (ISO)
100
AcDbLine
 10
410.0
 20
74.25000190734862
 30
0.0
 11
412.9000091552733
 21
74.25000190734862
 31
0.0
  0
LINE
  5
143
330
106
100
AcDbEntity
  8
Obramowanie (ISO)
100
AcDbLine
 10
10.0
 20
222.7499961853027
 30
0.0
 11
7.099999785423277
 21
222.7499961853027
 31
0.0
  0
LINE
  5
144
330
106
100
AcDbEntity
  8
Obramowanie (ISO)
100
AcDbLine
 10
410.0
 20
222.7499961853027
 30
0.0
 11
412.9000091552733
 21
222.7499961853027
 31
0.0
  0
MTEXT
  5
145
330
106
100
AcDbEntity
  8
Obramowanie (ISO)
100
AcDbMText
 10
7.286593166399207
 20
35.875
 30
0.0
 40
2.5
 41
0.0
 71
     7
 72
     1
  1
A
  7
Tekst notatki (ISO)
 73
     1
 44
1.0
1001
ACAD
1000
MTEXTBEGIN
1070
    73
1070
     1
1070
    44
1040
1.0
1070
    74
1070
     0
1000
MTEXTEND
  0
MTEXT
  5
146
330
106
100
AcDbEntity
  8
Obramowanie (ISO)
100
AcDbMText
 10
410.5865931663991
 20
35.875
 30
0.0
 40
2.5
 41
0.0
 71
     7
 72
     1
  1
A
  7
Tekst notatki (ISO)
 73
     1
 44
1.0
1001
ACAD
1000
MTEXTBEGIN
1070
    73
1070
     1
1070
    44
1040
1.0
1070
    74
1070
     0
1000
MTEXTEND
  0
MTEXT
  5
147
330
106
100
AcDbEntity
  8
Obramowanie (ISO)
100
AcDbMText
 10
7.587034677710874
 20
110.125
 30
0.0
 40
2.5
 41
0.0
 71
     7
 72
     1
  1
B
  7
Tekst notatki (ISO)
 73
     1
 44
1.0
1001
ACAD
1000
MTEXTBEGIN
1070
    73
1070
     1
1070
    44
1040
1.0
1070
    74
1070
     0
1000
MTEXTEND
  0
MTEXT
  5
148
330
106
100
AcDbEntity
  8
Obramowanie (ISO)
100
AcDbMText
 10
410.8870346777107
 20
110.125
 30
0.0
 40
2.5
 41
0.0
 71
     7
 72
     1
  1
B
  7
Tekst notatki (ISO)
 73
     1
 44
1.0
1001
ACAD
1000
MTEXTBEGIN
1070
    73
1070
     1
1070
    44
1040
1.0
1070
    74
1070
     0
1000
MTEXTEND
  0
MTEXT
  5
149
330
106
100
AcDbEntity
  8
Obramowanie (ISO)
100
AcDbMText
 10
7.427787979511982
 20
184.3304294999689
 30
0.0
 40
2.5
 41
0.0
 71
     7
 72
     1
  1
C
  7
Tekst notatki (ISO)
 73
     1
 44
1.0
1001
ACAD
1000
MTEXTBEGIN
1070
    73
1070
     1
1070
    44
1040
1.0
1070
    74
1070
     0
1000
MTEXTEND
  0
MTEXT
  5
14A
330
106
100
AcDbEntity
  8
Obramowanie (ISO)
100
AcDbMText
 10
410.7277879795118
 20
184.3304294999689
 30
0.0
 40
2.5
 41
0.0
 71
     7
 72
     1
  1
C
  7
Tekst notatki (ISO)
 73
     1
 44
1.0
1001
ACAD
1000
MTEXTBEGIN
1070
    73
1070
     1
1070
    44
1040
1.0
1070
    74
1070
     0
1000
MTEXTEND
  0
MTEXT
  5
14B
330
106
100
AcDbEntity
  8
Obramowanie (ISO)
100
AcDbMText
 10
7.434076865759236
 20
258.625
 30
0.0
 40
2.5
 41
0.0
 71
     7
 72
     1
  1
D
  7
Tekst notatki (ISO)
 73
     1
 44
1.0
1001
ACAD
1000
MTEXTBEGIN
1070
    73
1070
     1
1070
    44
1040
1.0
1070
    74
1070
     0
1000
MTEXTEND
  0
MTEXT
  5
14C
330
106
100
AcDbEntity
  8
Obramowanie (ISO)
100
AcDbMText
 10
410.7340768657592
 20
258.625
 30
0.0
 40
2.5
 41
0.0
 71
     7
 72
     1
  1
D
  7
Tekst notatki (ISO)
 73
     1
 44
1.0
1001
ACAD
1000
MTEXTBEGIN
1070
    73
1070
     1
1070
    44
1040
1.0
1070
    74
1070
     0
1000
MTEXTEND
  0
ENDBLK
  5
108
330
106
100
AcDbEntity
  8
0
100
AcDbBlockEnd
  0
BLOCK
  5
14F
330
14E
100
AcDbEntity
  8
0
100
AcDbBlockBegin
  2
Tabelki rysunkowe ISO
 70
     2
 10
0.0
 20
0.0
 30
0.0
  3
Tabelki rysunkowe ISO
  1

  0
LINE
  5
151
330
14E
100
AcDbEntity
  8
Tytuł (ISO)
100
AcDbLine
 10
100.0713910852681
 20
99.99999999999918
 30
0.0
 11
270.0713910852682
 21
99.99999999999916
 31
0.0
  0
LINE
  5
152
330
14E
100
AcDbEntity
  8
Tytuł (ISO)
100
AcDbLine
 10
270.0713910852682
 20
99.99999999999916
 30
0.0
 11
270.0713910852682
 21
129.9999999999993
 31
0.0
  0
LINE
  5
153
330
14E
100
AcDbEntity
  8
Tytuł (ISO)
100
AcDbLine
 10
270.0713910852682
 20
129.9999999999993
 30
0.0
 11
100.0713910852681
 21
129.9999999999991
 31
0.0
  0
LINE
  5
154
330
14E
100
AcDbEntity
  8
Tytuł (ISO)
100
AcDbLine
 10
100.0713910852681
 20
129.9999999999991
 30
0.0
 11
100.0713910852681
 21
99.99999999999918
 31
0.0
  0
LINE
  5
155
330
14E
100
AcDbEntity
  8
Tytuł (ISO)
100
AcDbLine
 10
100.0713910852681
 20
120.0
 30
0.0
 11
270.0713910852682
 21
120.0
 31
0.0
  0
LINE
  5
156
330
14E
100
AcDbEntity
  8
Tytuł (ISO)
100
AcDbLine
 10
132.0713910852681
 20
119.9999999999991
 30
0.0
 11
132.0713910852681
 21
129.9999999999991
 31
0.0
  0
LINE
  5
157
330
14E
100
AcDbEntity
  8
Tytuł (ISO)
100
AcDbLine
 10
157.0713910852681
 20
119.9999999999991
 30
0.0
 11
157.0713910852681
 21
129.9999999999991
 31
0.0
  0
LINE
  5
158
330
14E
100
AcDbEntity
  8
Tytuł (ISO)
100
AcDbLine
 10
175.0713910852681
 20
120.0
 30
0.0
 11
175.0713910852681
 21
100.0
 31
0.0
  0
LINE
  5
159
330
14E
100
AcDbEntity
  8
Tytuł (ISO)
100
AcDbLine
 10
197.0713910852682
 20
119.9999999999992
 30
0.0
 11
197.0713910852682
 21
129.9999999999992
 31
0.0
  0
LINE
  5
15A
330
14E
100
AcDbEntity
  8
Tytuł (ISO)
100
AcDbLine
 10
220.0713910852682
 20
119.9999999999992
 30
0.0
 11
220.0713910852682
 21
129.9999999999992
 31
0.0
  0
LINE
  5
15B
330
14E
100
AcDbEntity
  8
Tytuł (ISO)
100
AcDbLine
 10
270.0713910852682
 20
109.9999999999992
 30
0.0
 11
175.0713910852681
 21
110.0
 31
0.0
  0
LINE
  5
15C
330
14E
100
AcDbEntity
  8
Tytuł (ISO)
100
AcDbLine
 10
235.0713910852681
 20
100.0
 30
0.0
 11
235.0713910852681
 21
110.0
 31
0.0
  0
LINE
  5
15D
330
14E
100
AcDbEntity
  8
Tytuł (ISO)
100
AcDbLine
 10
250.0713910852681
 20
100.0
 30
0.0
 11
250.0713910852681
 21
110.0
 31
0.0
  0
LINE
  5
15E
330
14E
100
AcDbEntity
  8
Tytuł (ISO)
100
AcDbLine
 10
250.0713910852682
 20
119.9999999999993
 30
0.0
 11
250.0713910852682
 21
129.9999999999992
 31
0.0
  0
TEXT
  5
160
330
14E
100
AcDbEntity
  8
Tytuł (ISO)
100
AcDbText
 10
101.0713910852681
 20
126.9999999701967
 30
0.0
 40
2.000000029802321
  1
Zaprojektowany przez
  7
Styl tekstu41
 11
101.0713910852681
 21
128.999999999999
 31
0.0
100
AcDbText
 73
     3
  0
TEXT
  5
162
330
14E
100
AcDbEntity
  8
Tytuł (ISO)
100
AcDbText
 10
133.0713910852681
 20
126.9999999701967
 30
0.0
 40
2.000000029802321
  1
Sprawdzony przez
  7
Styl tekstu41
 11
133.0713910852681
 21
128.9999999999991
 31
0.0
100
AcDbText
 73
     3
  0
TEXT
  5
163
330
14E
100
AcDbEntity
  8
Tytuł (ISO)
100
AcDbText
 10
158.0713910852681
 20
126.9999999701967
 30
0.0
 40
2.000000029802321
  1
Zatwierdzony przez
  7
Styl tekstu41
 11
158.0713910852681
 21
128.9999999999991
 31
0.0
100
AcDbText
 73
     3
  0
TEXT
  5
164
330
14E
100
AcDbEntity
  8
Tytuł (ISO)
100
AcDbText
 10
221.0713910852682
 20
126.9999999701977
 30
0.0
 40
2.000000029802321
  1
Data
  7
Styl tekstu41
 11
221.0713910852682
 21
129.0
 31
0.0
100
AcDbText
 73
     3
  0
TEXT
  5
165
330
14E
100
AcDbEntity
  8
Tytuł (ISO)
100
AcDbText
 10
255.9251519986328
 20
102.2499999999996
 30
0.0
 40
2.5
  1
1 / 1 
  7
Tekst notatki (ISO)
 72
     1
 11
260.0713910852681
 21
103.4999999999996
 31
0.0
100
AcDbText
 73
     2
  0
TEXT
  5
167
330
14E
100
AcDbEntity
  8
Tytuł (ISO)
100
AcDbText
 10
238.2745307806753
 20
107.3514493703834
 30
0.0
 40
1.648550629615782
  1
Wydanie
  7
Styl tekstu45
 72
     1
 11
242.5713910852682
 21
108.9999999999992
 31
0.0
100
AcDbText
 73
     3
  0
TEXT
  5
168
330
14E
100
AcDbEntity
  8
Tytuł (ISO)
100
AcDbText
 10
256.7820398961556
 20
107.3514493703834
 30
0.0
 40
1.648550629615782
  1
Arkusz
  7
Styl tekstu45
 72
     1
 11
260.0713910852681
 21
108.9999999999992
 31
0.0
100
AcDbText
 73
     3
  0
TEXT
  5
169
330
14E
100
AcDbEntity
  8
Tytuł (ISO)
100
AcDbText
 10
191.3947773448402
 20
127.3514493703834
 30
0.0
 40
1.648550629615782
  1
Data
  7
Styl tekstu45
 72
     2
 11
196.0713910852681
 21
128.9999999999992
 31
0.0
100
AcDbText
 73
     3
  0
ATTDEF
  5
16A
102
{ACAD_XDICTIONARY
360
7EE
102
}
330
14E
100
AcDbEntity
  8
Tytuł (ISO)
100
AcDbText
 10
222.5713910852681
 20
113.75
 30
0.0
 40
2.5
  1

  7
Tekst notatki (ISO)
 72
     1
 11
222.5713910852681
 21
115.0
 31
0.0
100
AcDbAttributeDefinition
  3
TYTUŁ
  2
TYTUŁ
 70
     0
 74
     2
  0
ATTDEF
  5
16C
102
{ACAD_XDICTIONARY
360
7F1
102
}
330
14E
100
AcDbEntity
  8
Tytuł (ISO)
100
AcDbText
 10
175.9891211054158
 20
104.0488582941571
 30
0.0
 40
2.5
  1
złożenie+beton+plaszczyzna gora
  7
Tekst notatki (ISO)
100
AcDbAttributeDefinition
  3
NUMER CZĘŚCI
  2
NUMER_CZĘŚCI_001
 70
     0
  0
ATTDEF
  5
16D
102
{ACAD_XDICTIONARY
360
7F4
102
}
330
14E
100
AcDbEntity
  8
Tytuł (ISO)
100
AcDbText
 10
137.4145052978323
 20
108.7081637900171
 30
0.0
 40
2.5
  1

  7
Tekst notatki (ISO)
 72
     1
 11
137.4145052978323
 21
109.9581637900171
 31
0.0
100
AcDbAttributeDefinition
  3
FIRMA
  2
FIRMA
 70
     0
 74
     2
  0
ATTDEF
  5
16F
102
{ACAD_XDICTIONARY
360
7F7
102
}
330
14E
100
AcDbEntity
  8
Tytuł (ISO)
100
AcDbText
 10
100.8193349558362
 20
121.0517466225977
 30
0.0
 40
2.485507130622863
  1
Paweł
  7
Styl tekstu44
100
AcDbAttributeDefinition
  3
AUTOR
  2
AUTOR_001
 70
     0
  0
ATTDEF
  5
170
102
{ACAD_XDICTIONARY
360
7FA
102
}
330
14E
100
AcDbEntity
  8
Tytuł (ISO)
100
AcDbText
 10
133.0713910852681
 20
121.7060910115864
 30
0.0
 40
2.485507130622863
  1

  7
Styl tekstu44
 11
133.0713910852681
 21
120.9999999999991
 31
0.0
100
AcDbAttributeDefinition
  3
SPRAWDZIŁ
  2
SPRAWDZIŁ
 70
     0
 74
     1
  0
ATTDEF
  5
171
102
{ACAD_XDICTIONARY
360
7FD
102
}
330
14E
100
AcDbEntity
  8
Tytuł (ISO)
100
AcDbText
 10
158.0713910852681
 20
121.7060910115873
 30
0.0
 40
2.485507130622863
  1

  7
Styl tekstu44
 11
158.0713910852681
 21
121.0
 31
0.0
100
AcDbAttributeDefinition
  3
ZATWIERDZENIE KONSTRUKCJI
  2
ZATWIERDZENIE_KONSTRUKCJI
 70
     0
 74
     1
  0
ATTDEF
  5
172
102
{ACAD_XDICTIONARY
360
800
102
}
330
14E
100
AcDbEntity
  8
Tytuł (ISO)
100
AcDbText
 10
196.0713910852681
 20
121.7060910115864
 30
0.0
 40
2.485507130622863
  1

  7
Styl tekstu44
 72
     2
 11
196.0713910852681
 21
120.9999999999991
 31
0.0
100
AcDbAttributeDefinition
  3
DATA ZATWIERDZENIA
  2
DATA_ZATWIERDZENIA
 70
     0
 74
     1
  0
ATTDEF
  5
173
102
{ACAD_XDICTIONARY
360
803
102
}
330
14E
100
AcDbEntity
  8
Tytuł (ISO)
100
AcDbText
 10
220.889443283228
 20
121.0517466225986
 30
0.0
 40
2.485507130622863
  1
2010-04-06
  7
Styl tekstu44
100
AcDbAttributeDefinition
  3
DATA UTWORZENIA
  2
DATA_UTWORZENIA_001
 70
     0
  0
ATTDEF
  5
174
102
{ACAD_XDICTIONARY
360
806
102
}
330
14E
100
AcDbEntity
  8
Tytuł (ISO)
100
AcDbText
 10
242.5713910852682
 20
102.2499999999998
 30
0.0
 40
2.5
  1

  7
Tekst notatki (ISO)
 72
     1
 11
242.5713910852682
 21
103.4999999999998
 31
0.0
100
AcDbAttributeDefinition
  3
NUMER WERSJI
  2
NUMER_WERSJI
 70
     0
 74
     2
  0
ENDBLK
  5
150
330
14E
100
AcDbEntity
  8
0
100
AcDbBlockEnd
  0
BLOCK
  5
374
330
373
100
AcDbEntity
  8
0
100
AcDbBlockBegin
  2
*D6
 70
     1
 10
0.0
 20
0.0
 30
0.0
  3
*D6
  1

  0
LINE
  5
451
330
373
100
AcDbEntity
  8
Wymiar (ISO)
100
AcDbLine
 10
4990.575179385206
 20
5124.846547727577
 30
0.0
 11
7460.707336949609
 21
5124.846547727575
 31
0.0
  0
LINE
  5
452
330
373
100
AcDbEntity
  8
Wymiar (ISO)
100
AcDbLine
 10
5510.317464758548
 20
1594.846547727579
 30
0.0
 11
7460.707336949609
 21
1594.846547727578
 31
0.0
  0
LINE
  5
453
330
373
100
AcDbEntity
  8
Wymiar (ISO)
100
AcDbLine
 10
7397.20733694961
 20
5074.846547727576
 30
0.0
 11
7397.20733694961
 21
1644.846547727578
 31
0.0
  0
SOLID
  5
454
330
373
100
AcDbEntity
  8
Wymiar (ISO)
100
AcDbTrace
 10
7388.874003616276
 20
5074.846547727576
 30
0.0
 11
7405.540670282943
 21
5074.846547727576
 31
0.0
 12
7397.20733694961
 22
5124.846547727575
 32
0.0
 13
7397.20733694961
 23
5124.846547727575
 33
0.0
  0
SOLID
  5
455
330
373
100
AcDbEntity
  8
Wymiar (ISO)
100
AcDbTrace
 10
7388.874003616276
 20
1644.846547727578
 30
0.0
 11
7405.540670282943
 21
1644.846547727578
 31
0.0
 12
7397.20733694961
 22
1594.846547727578
 32
0.0
 13
7397.20733694961
 23
1594.846547727578
 33
0.0
  0
MTEXT
  5
456
330
373
100
AcDbEntity
  8
Wymiar (ISO)
100
AcDbMText
 10
7309.052629091986
 20
3359.846547727578
 30
0.0
 40
70.0
 41
0.0
 71
     2
 72
     1
  1
\A1;3530
  7
Tekst etykiety (ISO)
 11
0.0000000000000001
 21
1.0
 31
0.0
 73
     1
 44
1.0
1001
ACAD
1000
MTEXTBEGIN
1070
    73
1070
     1
1070
    44
1040
1.0
1070
    74
1070
     0
1000
MTEXTEND
  0
POINT
  5
457
330
373
100
AcDbEntity
  8
Defpoints
 62
     0
100
AcDbPoint
 10
4990.575179385206
 20
5124.846547727577
 30
0.0
  0
POINT
  5
458
330
373
100
AcDbEntity
  8
Defpoints
 62
     0
100
AcDbPoint
 10
5510.317464758548
 20
1594.846547727579
 30
0.0
  0
POINT
  5
459
330
373
100
AcDbEntity
  8
Defpoints
 62
     0
100
AcDbPoint
 10
7397.20733694961
 20
1594.846547727578
 30
0.0
  0
ENDBLK
  5
375
330
373
100
AcDbEntity
  8
0
100
AcDbBlockEnd
  0
BLOCK
  5
45C
330
45B
100
AcDbEntity
  8
0
100
AcDbBlockBegin
  2
*D7
 70
     1
 10
0.0
 20
0.0
 30
0.0
  3
*D7
  1

  0
LINE
  5
533
330
45B
100
AcDbEntity
  8
Wymiar (ISO)
100
AcDbLine
 10
7010.27014070321
 20
3094.846546981062
 30
0.0
 11
7010.27014070321
 21
1151.346546981059
 31
0.0
  0
LINE
  5
534
330
45B
100
AcDbEntity
  8
Wymiar (ISO)
100
AcDbLine
 10
790.4060931054591
 20
3094.846538941784
 30
0.0
 11
790.406093105459
 21
1151.346546981059
 31
0.0
  0
LINE
  5
535
330
45B
100
AcDbEntity
  8
Wymiar (ISO)
100
AcDbLine
 10
6960.27014070321
 20
1214.846546981059
 30
0.0
 11
840.4060931054591
 21
1214.846546981059
 31
0.0
  0
SOLID
  5
536
330
45B
100
AcDbEntity
  8
Wymiar (ISO)
100
AcDbTrace
 10
6960.27014070321
 20
1223.179880314392
 30
0.0
 11
6960.27014070321
 21
1206.513213647726
 31
0.0
 12
7010.27014070321
 22
1214.846546981059
 32
0.0
 13
7010.27014070321
 23
1214.846546981059
 33
0.0
  0
SOLID
  5
537
330
45B
100
AcDbEntity
  8
Wymiar (ISO)
100
AcDbTrace
 10
840.4060931054591
 20
1223.179880314392
 30
0.0
 11
840.4060931054591
 21
1206.513213647726
 31
0.0
 12
790.406093105459
 22
1214.846546981059
 32
0.0
 13
790.406093105459
 23
1214.846546981059
 33
0.0
  0
MTEXT
  5
538
330
45B
100
AcDbEntity
  8
Wymiar (ISO)
100
AcDbMText
 10
3900.338116904349
 20
1303.001254838682
 30
0.0
 40
70.0
 41
0.0
 71
     2
 72
     1
  1
\A1;6220
  7
Tekst etykiety (ISO)
 73
     1
 44
1.0
1001
ACAD
1000
MTEXTBEGIN
1070
    73
1070
     1
1070
    44
1040
1.0
1070
    74
1070
     0
1000
MTEXTEND
  0
POINT
  5
539
330
45B
100
AcDbEntity
  8
Defpoints
 62
     0
100
AcDbPoint
 10
7010.27014070321
 20
3094.846546981062
 30
0.0
  0
POINT
  5
53A
330
45B
100
AcDbEntity
  8
Defpoints
 62
     0
100
AcDbPoint
 10
790.4060931054591
 20
3094.846538941784
 30
0.0
  0
POINT
  5
53B
330
45B
100
AcDbEntity
  8
Defpoints
 62
     0
100
AcDbPoint
 10
790.406093105459
 20
1214.846546981059
 30
0.0
  0
ENDBLK
  5
45D
330
45B
100
AcDbEntity
  8
0
100
AcDbBlockEnd
  0
BLOCK
  5
53E
330
53D
100
AcDbEntity
  8
0
100
AcDbBlockBegin
  2
*D8
 70
     1
 10
0.0
 20
0.0
 30
0.0
  3
*D8
  1

  0
LINE
  5
61B
330
53D
100
AcDbEntity
  8
Wymiar (ISO)
100
AcDbLine
 10
2892.303433914051
 20
3624.846547727577
 30
0.0
 11
2548.932250812818
 21
3624.846547727577
 31
0.0
  0
LINE
  5
61C
330
53D
100
AcDbEntity
  8
Wymiar (ISO)
100
AcDbLine
 10
2886.193527603892
 20
3094.846547727577
 30
0.0
 11
2548.932250812818
 21
3094.846547727577
 31
0.0
  0
LINE
  5
61D
330
53D
100
AcDbEntity
  8
Wymiar (ISO)
100
AcDbLine
 10
2612.432250812818
 20
3574.846547727577
 30
0.0
 11
2612.432250812818
 21
3144.846547727577
 31
0.0
  0
SOLID
  5
61E
330
53D
100
AcDbEntity
  8
Wymiar (ISO)
100
AcDbTrace
 10
2604.098917479485
 20
3574.846547727577
 30
0.0
 11
2620.765584146152
 21
3574.846547727577
 31
0.0
 12
2612.432250812818
 22
3624.846547727577
 32
0.0
 13
2612.432250812818
 23
3624.846547727577
 33
0.0
  0
SOLID
  5
61F
330
53D
100
AcDbEntity
  8
Wymiar (ISO)
100
AcDbTrace
 10
2604.098917479485
 20
3144.846547727577
 30
0.0
 11
2620.765584146152
 21
3144.846547727577
 31
0.0
 12
2612.432250812818
 22
3094.846547727577
 32
0.0
 13
2612.432250812818
 23
3094.846547727577
 33
0.0
  0
MTEXT
  5
620
330
53D
100
AcDbEntity
  8
Wymiar (ISO)
100
AcDbMText
 10
2524.277542955195
 20
3359.846547727577
 30
0.0
 40
70.0
 41
0.0
 71
     2
 72
     1
  1
\A1;530
  7
Tekst etykiety (ISO)
 11
0.0000000000000001
 21
1.0
 31
0.0
 73
     1
 44
1.0
1001
ACAD
1000
MTEXTBEGIN
1070
    73
1070
     1
1070
    44
1040
1.0
1070
    74
1070
     0
1000
MTEXTEND
  0
POINT
  5
621
330
53D
100
AcDbEntity
  8
Defpoints
 62
     0
100
AcDbPoint
 10
2892.303433914051
 20
3624.846547727577
 30
0.0
  0
POINT
  5
622
330
53D
100
AcDbEntity
  8
Defpoints
 62
     0
100
AcDbPoint
 10
2886.193527603892
 20
3094.846547727577
 30
0.0
  0
POINT
  5
623
330
53D
100
AcDbEntity
  8
Defpoints
 62
     0
100
AcDbPoint
 10
2612.432250812818
 20
3094.846547727577
 30
0.0
  0
ENDBLK
  5
53F
330
53D
100
AcDbEntity
  8
0
100
AcDbBlockEnd
  0
BLOCK
  5
626
330
625
100
AcDbEntity
  8
0
100
AcDbBlockBegin
  2
*D9
 70
     1
 10
0.0
 20
0.0
 30
0.0
  3
*D9
  1

  0
LINE
  5
703
330
625
100
AcDbEntity
  8
Wymiar (ISO)
100
AcDbLine
 10
5338.344716109292
 20
3643.846547727576
 30
0.0
 11
5782.95695575099
 21
3643.846547727576
 31
0.0
  0
LINE
  5
704
330
625
100
AcDbEntity
  8
Wymiar (ISO)
100
AcDbLine
 10
5335.620334517287
 20
3075.846547727575
 30
0.0
 11
5782.95695575099
 21
3075.846547727575
 31
0.0
  0
LINE
  5
705
330
625
100
AcDbEntity
  8
Wymiar (ISO)
100
AcDbLine
 10
5719.456955750992
 20
3593.846547727576
 30
0.0
 11
5719.456955750992
 21
3125.846547727575
 31
0.0
  0
SOLID
  5
706
330
625
100
AcDbEntity
  8
Wymiar (ISO)
100
AcDbTrace
 10
5711.123622417657
 20
3593.846547727576
 30
0.0
 11
5727.790289084324
 21
3593.846547727576
 31
0.0
 12
5719.456955750992
 22
3643.846547727576
 32
0.0
 13
5719.456955750992
 23
3643.846547727576
 33
0.0
  0
SOLID
  5
707
330
625
100
AcDbEntity
  8
Wymiar (ISO)
100
AcDbTrace
 10
5711.123622417657
 20
3125.846547727575
 30
0.0
 11
5727.790289084324
 21
3125.846547727575
 31
0.0
 12
5719.456955750992
 22
3075.846547727575
 32
0.0
 13
5719.456955750992
 23
3075.846547727575
 33
0.0
  0
MTEXT
  5
708
330
625
100
AcDbEntity
  8
Wymiar (ISO)
100
AcDbMText
 10
5631.020179391017
 20
3359.846547727575
 30
0.0
 40
70.0
 41
0.0
 71
     2
 72
     1
  1
\A1;568
  7
Tekst etykiety (ISO)
 11
0.0000000000000001
 21
1.0
 31
0.0
 73
     1
 44
1.0
1001
ACAD
1000
MTEXTBEGIN
1070
    73
1070
     1
1070
    44
1040
1.0
1070
    74
1070
     0
1000
MTEXTEND
  0
POINT
  5
709
330
625
100
AcDbEntity
  8
Defpoints
 62
     0
100
AcDbPoint
 10
5338.344716109292
 20
3643.846547727576
 30
0.0
  0
POINT
  5
70A
330
625
100
AcDbEntity
  8
Defpoints
 62
     0
100
AcDbPoint
 10
5335.620334517287
 20
3075.846547727575
 30
0.0
  0
POINT
  5
70B
330
625
100
AcDbEntity
  8
Defpoints
 62
     0
100
AcDbPoint
 10
5719.456955750992
 20
3075.846547727575
 30
0.0
  0
ENDBLK
  5
627
330
625
100
AcDbEntity
  8
0
100
AcDbBlockEnd
  0
BLOCK
  5
70E
330
70D
100
AcDbEntity
  8
0
100
AcDbBlockBegin
  2
*D10
 70
     1
 10
0.0
 20
0.0
 30
0.0
  3
*D10
  1

  0
LINE
  5
7E5
330
70D
100
AcDbEntity
  8
Wymiar (ISO)
100
AcDbLine
 10
5506.870381143111
 20
3094.846547727577
 30
0.0
 11
5506.870381143111
 21
2710.346547727575
 31
0.0
  0
LINE
  5
7E6
330
70D
100
AcDbEntity
  8
Wymiar (ISO)
100
AcDbLine
 10
2790.090043978376
 20
3094.846547727577
 30
0.0
 11
2790.090043978376
 21
2710.346547727575
 31
0.0
  0
LINE
  5
7E7
330
70D
100
AcDbEntity
  8
Wymiar (ISO)
100
AcDbLine
 10
5456.870381143111
 20
2773.846547727575
 30
0.0
 11
2840.090043978376
 21
2773.846547727575
 31
0.0
  0
SOLID
  5
7E8
330
70D
100
AcDbEntity
  8
Wymiar (ISO)
100
AcDbTrace
 10
5456.870381143111
 20
2782.179881060909
 30
0.0
 11
5456.870381143111
 21
2765.513214394241
 31
0.0
 12
5506.870381143111
 22
2773.846547727575
 32
0.0
 13
5506.870381143111
 23
2773.846547727575
 33
0.0
  0
SOLID
  5
7E9
330
70D
100
AcDbEntity
  8
Wymiar (ISO)
100
AcDbTrace
 10
2840.090043978376
 20
2782.179881060909
 30
0.0
 11
2840.090043978376
 21
2765.513214394241
 31
0.0
 12
2790.090043978376
 22
2773.846547727575
 32
0.0
 13
2790.090043978376
 23
2773.846547727575
 33
0.0
  0
MTEXT
  5
7EA
330
70D
100
AcDbEntity
  8
Wymiar (ISO)
100
AcDbMText
 10
4148.638492354981
 20
2860.543901656387
 30
0.0
 40
70.0
 41
0.0
 71
     2
 72
     1
  1
\A1;2717
  7
Tekst etykiety (ISO)
 73
     1
 44
1.0
1001
ACAD
1000
MTEXTBEGIN
1070
    73
1070
     1
1070
    44
1040
1.0
1070
    74
1070
     0
1000
MTEXTEND
  0
POINT
  5
7EB
330
70D
100
AcDbEntity
  8
Defpoints
 62
     0
100
AcDbPoint
 10
5506.870381143111
 20
3094.846547727577
 30
0.0
  0
POINT
  5
7EC
330
70D
100
AcDbEntity
  8
Defpoints
 62
     0
100
AcDbPoint
 10
2790.090043978376
 20
3094.846547727577
 30
0.0
  0
POINT
  5
7ED
330
70D
100
AcDbEntity
  8
Defpoints
 62
     0
100
AcDbPoint
 10
2790.090043978376
 20
2773.846547727575
 30
0.0
  0
ENDBLK
  5
70F
330
70D
100
AcDbEntity
  8
0
100
AcDbBlockEnd
  0
BLOCK
  5
8BA
330
8B8
100
AcDbEntity
  8
0
100
AcDbBlockBegin
  2
GENAXEH
 70
     0
 10
0.0
 20
0.0
 30
0.0
  3
GENAXEH
  1

  0
LINE
  5
8B9
330
8B8
100
AcDbEntity
  8
0
100
AcDbLine
 10
-1.0
 20
0.0
 30
0.0
 11
1.0
 21
0.0
 31
0.0
  0
ENDBLK
  5
8BB
330
8B8
100
AcDbEntity
  8
0
100
AcDbBlockEnd
  0
BLOCK
  5
BF4
330
BF3
100
AcDbEntity
  8
0
100
AcDbBlockBegin
  2
2148_Zjezdzalnia-wolnostojaca
 70
     0
 10
0.0
 20
0.0
 30
0.0
  3
2148_Zjezdzalnia-wolnostojaca
  1

  0
LINE
  5
BF6
330
BF3
100
AcDbEntity
  8
Widoczne wąskie (ISO)
100
AcDbLine
 10
542.7907903574751
 20
245.9999999999995
 30
0.0
 11
542.7907903574751
 21
-246.0000000000004
 31
0.0
  0
LINE
  5
BF7
330
BF3
100
AcDbEntity
  8
Widoczne (ISO)
100
AcDbLine
 10
544.7907903574759
 20
-246.0000000000004
 30
0.0
 11
544.7907903574759
 21
245.9999999999995
 31
0.0
  0
LINE
  5
BF8
330
BF3
100
AcDbEntity
  8
Widoczne wąskie (ISO)
100
AcDbLine
 10
612.7906935016526
 20
245.9999999999995
 30
0.0
 11
612.7906935016526
 21
-246.0000000000004
 31
0.0
  0
LINE
  5
BF9
330
BF3
100
AcDbEntity
  8
Widoczne (ISO)
100
AcDbLine
 10
614.7906935016553
 20
-246.0000000000004
 30
0.0
 11
614.7906935016553
 21
245.9999999999995
 31
0.0
  0
LINE
  5
BFA
330
BF3
100
AcDbEntity
  8
Widoczne wąskie (ISO)
100
AcDbLine
 10
682.7905966458319
 20
245.9999999999995
 30
0.0
 11
682.7905966458319
 21
-246.0000000000004
 31
0.0
  0
LINE
  5
BFB
330
BF3
100
AcDbEntity
  8
Widoczne (ISO)
100
AcDbLine
 10
684.7905966458329
 20
-246.0000000000004
 30
0.0
 11
684.7905966458329
 21
245.9999999999995
 31
0.0
  0
LINE
  5
BFC
330
BF3
100
AcDbEntity
  8
Widoczne wąskie (ISO)
100
AcDbLine
 10
752.7904997900114
 20
245.9999999999995
 30
0.0
 11
752.7904997900114
 21
-246.0000000000004
 31
0.0
  0
LINE
  5
BFD
330
BF3
100
AcDbEntity
  8
Widoczne (ISO)
100
AcDbLine
 10
754.7904997900123
 20
-246.0000000000004
 30
0.0
 11
754.7904997900123
 21
245.9999999999995
 31
0.0
  0
LINE
  5
BFE
330
BF3
100
AcDbEntity
  8
Widoczne wąskie (ISO)
100
AcDbLine
 10
822.790402934188
 20
245.9999999999995
 30
0.0
 11
822.790402934188
 21
-246.0000000000004
 31
0.0
  0
LINE
  5
BFF
330
BF3
100
AcDbEntity
  8
Widoczne (ISO)
100
AcDbLine
 10
824.7904029341889
 20
-246.0000000000004
 30
0.0
 11
824.7904029341889
 21
245.9999999999995
 31
0.0
  0
LINE
  5
C00
330
BF3
100
AcDbEntity
  8
Widoczne wąskie (ISO)
100
AcDbLine
 10
892.7903060783664
 20
245.9999999999995
 30
0.0
 11
892.7903060783664
 21
-246.0000000000004
 31
0.0
  0
LINE
  5
C01
330
BF3
100
AcDbEntity
  8
Widoczne (ISO)
100
AcDbLine
 10
894.7903060783673
 20
-246.0000000000004
 30
0.0
 11
894.7903060783673
 21
245.9999999999995
 31
0.0
  0
LINE
  5
C02
330
BF3
100
AcDbEntity
  8
Widoczne wąskie (ISO)
100
AcDbLine
 10
509.5408138598104
 20
-246.0000000000004
 30
0.0
 11
509.5408138598104
 21
-265.0000000000005
 31
0.0
  0
LINE
  5
C03
330
BF3
100
AcDbEntity
  8
Widoczne (ISO)
100
AcDbLine
 10
509.5408138598104
 20
-246.0000000000004
 30
0.0
 11
454.6187847162218
 21
-246.0000000000004
 31
0.0
  0
LINE
  5
C04
330
BF3
100
AcDbEntity
  8
Widoczne wąskie (ISO)
100
AcDbLine
 10
556.1410542997127
 20
-246.0000000000004
 30
0.0
 11
556.1410542997127
 21
-265.0000000000005
 31
0.0
  0
LINE
  5
C05
330
BF3
100
AcDbEntity
  8
Widoczne (ISO)
100
AcDbLine
 10
509.5408138598104
 20
-246.0000000000004
 30
0.0
 11
556.1410542997127
 21
-246.0000000000004
 31
0.0
  0
LINE
  5
C06
330
BF3
100
AcDbEntity
  8
Widoczne (ISO)
100
AcDbLine
 10
784.0650514645676
 20
-265.0000000000005
 30
0.0
 11
943.9540077291622
 21
-265.0000000000005
 31
0.0
  0
LINE
  5
C07
330
BF3
100
AcDbEntity
  8
Widoczne (ISO)
100
AcDbLine
 10
943.9540077291622
 20
-246.0000000000004
 30
0.0
 11
556.1410542997127
 21
-246.0000000000004
 31
0.0
  0
LINE
  5
C08
330
BF3
100
AcDbEntity
  8
Widoczne wąskie (ISO)
100
AcDbLine
 10
474.7916514571052
 20
-0.0000000000004547
 30
0.0
 11
472.7573033914523
 21
4.567431219818445
 31
0.0
  0
CIRCLE
  5
C09
330
BF3
100
AcDbEntity
  8
Widoczne (ISO)
100
AcDbCircle
 10
474.7916514571052
 20
-0.0000000000004547
 30
0.0
 40
5.000000000000011
  0
LINE
  5
C0A
330
BF3
100
AcDbEntity
  8
Widoczne wąskie (ISO)
100
AcDbLine
 10
544.7915546012845
 20
-0.0000000000004547
 30
0.0
 11
544.7907903574759
 21
0.0017158474920507
 31
0.0
  0
ARC
  5
C0B
330
BF3
100
AcDbEntity
  8
Widoczne (ISO)
100
AcDbCircle
 10
544.7915546012845
 20
-0.0000000000004547
 30
0.0
 40
5.000000000000011
100
AcDbArc
 50
269.9912424110053
 51
90.00875758894265
  0
LINE
  5
C0C
330
BF3
100
AcDbEntity
  8
Widoczne wąskie (ISO)
100
AcDbLine
 10
614.7914577454621
 20
-0.0000000000004547
 30
0.0
 11
614.7906935016553
 21
0.0017158474920507
 31
0.0
  0
ARC
  5
C0D
330
BF3
100
AcDbEntity
  8
Widoczne (ISO)
100
AcDbCircle
 10
614.7914577454621
 20
-0.0000000000004547
 30
0.0
 40
5.000000000000011
100
AcDbArc
 50
269.9912424110053
 51
90.00875758899475
  0
LINE
  5
C0E
330
BF3
100
AcDbEntity
  8
Widoczne wąskie (ISO)
100
AcDbLine
 10
684.7913608896397
 20
-0.0000000000004547
 30
0.0
 11
684.7905966458311
 21
0.0017158474911412
 31
0.0
  0
ARC
  5
C0F
330
BF3
100
AcDbEntity
  8
Widoczne (ISO)
100
AcDbCircle
 10
684.7913608896397
 20
-0.0000000000004547
 30
0.0
 40
5.000000000000011
100
AcDbArc
 50
269.9912424110053
 51
90.00875758894265
  0
LINE
  5
C10
330
BF3
100
AcDbEntity
  8
Widoczne wąskie (ISO)
100
AcDbLine
 10
754.7912640338181
 20
-0.0000000000004547
 30
0.0
 11
754.7904997900095
 21
0.0017158474911412
 31
0.0
  0
ARC
  5
C11
330
BF3
100
AcDbEntity
  8
Widoczne (ISO)
100
AcDbCircle
 10
754.7912640338181
 20
-0.0000000000004547
 30
0.0
 40
5.000000000000011
100
AcDbArc
 50
269.9912424110053
 51
90.00875758894265
  0
LINE
  5
C12
330
BF3
100
AcDbEntity
  8
Widoczne wąskie (ISO)
100
AcDbLine
 10
824.7911671779966
 20
-0.0000000000004547
 30
0.0
 11
824.790402934188
 21
0.0017158474911412
 31
0.0
  0
ARC
  5
C13
330
BF3
100
AcDbEntity
  8
Widoczne (ISO)
100
AcDbCircle
 10
824.7911671779966
 20
-0.0000000000004547
 30
0.0
 40
5.000000000000011
100
AcDbArc
 50
269.9912424110053
 51
90.00875758894265
  0
LINE
  5
C14
330
BF3
100
AcDbEntity
  8
Widoczne (ISO)
100
AcDbLine
 10
943.9540077291521
 20
264.9999999999995
 30
0.0
 11
784.0650514645631
 21
264.9999999999995
 31
0.0
  0
LINE
  5
C15
330
BF3
100
AcDbEntity
  8
Widoczne wąskie (ISO)
100
AcDbLine
 10
556.1410542997054
 20
245.9999999999995
 30
0.0
 11
556.1410542997054
 21
264.9999999999995
 31
0.0
  0
LINE
  5
C16
330
BF3
100
AcDbEntity
  8
Widoczne (ISO)
100
AcDbLine
 10
943.9540077291521
 20
245.9999999999995
 30
0.0
 11
556.1410542997054
 21
245.9999999999995
 31
0.0
  0
LINE
  5
C17
330
BF3
100
AcDbEntity
  8
Widoczne wąskie (ISO)
100
AcDbLine
 10
509.5408138598031
 20
245.9999999999995
 30
0.0
 11
509.5408138598031
 21
264.9999999999995
 31
0.0
  0
LINE
  5
C18
330
BF3
100
AcDbEntity
  8
Widoczne (ISO)
100
AcDbLine
 10
509.5408138598031
 20
245.9999999999995
 30
0.0
 11
556.1410542997054
 21
245.9999999999995
 31
0.0
  0
LINE
  5
C19
330
BF3
100
AcDbEntity
  8
Widoczne (ISO)
100
AcDbLine
 10
509.5408138598031
 20
245.9999999999995
 30
0.0
 11
454.6187847162155
 21
245.9999999999995
 31
0.0
  0
LINE
  5
C1A
330
BF3
100
AcDbEntity
  8
Widoczne (ISO)
100
AcDbLine
 10
630.4509858261053
 20
264.9999999999995
 30
0.0
 11
596.2206285515503
 21
264.9999999999995
 31
0.0
  0
LINE
  5
C1B
330
BF3
100
AcDbEntity
  8
Widoczne wąskie (ISO)
100
AcDbLine
 10
630.4509858261053
 20
283.9999999999995
 30
0.0
 11
630.4509858261053
 21
264.9999999999995
 31
0.0
  0
LINE
  5
C1C
330
BF3
100
AcDbEntity
  8
Widoczne (ISO)
100
AcDbLine
 10
630.4509858261053
 20
283.9999999999995
 30
0.0
 11
596.2206285515503
 21
283.9999999999995
 31
0.0
  0
LINE
  5
C1D
330
BF3
100
AcDbEntity
  8
Widoczne wąskie (ISO)
100
AcDbLine
 10
596.2206285515503
 20
283.9999999999995
 30
0.0
 11
596.2206285515503
 21
264.9999999999995
 31
0.0
  0
LINE
  5
C1E
330
BF3
100
AcDbEntity
  8
Widoczne (ISO)
100
AcDbLine
 10
630.4509858261053
 20
264.9999999999995
 30
0.0
 11
781.3406698725612
 21
264.9999999999982
 31
0.0
  0
LINE
  5
C1F
330
BF3
100
AcDbEntity
  8
Widoczne wąskie (ISO)
100
AcDbLine
 10
781.3406698725612
 20
283.9999999999982
 30
0.0
 11
781.3406698725612
 21
264.9999999999982
 31
0.0
  0
LINE
  5
C20
330
BF3
100
AcDbEntity
  8
Widoczne (ISO)
100
AcDbLine
 10
630.4509858261053
 20
283.9999999999995
 30
0.0
 11
781.3406698725612
 21
283.9999999999982
 31
0.0
  0
LINE
  5
C21
330
BF3
100
AcDbEntity
  8
Widoczne (ISO)
100
AcDbLine
 10
784.0650514645658
 20
264.9999999999982
 30
0.0
 11
781.3406698725612
 21
264.9999999999982
 31
0.0
  0
LINE
  5
C22
330
BF3
100
AcDbEntity
  8
Widoczne (ISO)
100
AcDbLine
 10
784.0650514645658
 20
283.9999999999995
 30
0.0
 11
781.3406698725612
 21
283.9999999999995
 31
0.0
  0
LINE
  5
C23
330
BF3
100
AcDbEntity
  8
Widoczne wąskie (ISO)
100
AcDbLine
 10
355.6273514358272
 20
283.9999999999995
 30
0.0
 11
355.6273514358272
 21
272.2568366269843
 31
0.0
  0
LINE
  5
C24
330
BF3
100
AcDbEntity
  8
Widoczne (ISO)
100
AcDbLine
 10
355.6273514358281
 20
283.9999999999995
 30
0.0
 11
355.4156300515169
 21
283.9999999999995
 31
0.0
  0
LINE
  5
C25
330
BF3
100
AcDbEntity
  8
Widoczne (ISO)
100
AcDbLine
 10
358.8249173320555
 20
283.9999999999995
 30
0.0
 11
358.8249173320555
 21
265.0
 31
0.0
  0
LINE
  5
C26
330
BF3
100
AcDbEntity
  8
Widoczne (ISO)
100
AcDbLine
 10
355.6273514358281
 20
283.9999999999995
 30
0.0
 11
358.8249173320564
 21
283.9999999999995
 31
0.0
  0
LINE
  5
C27
330
BF3
100
AcDbEntity
  8
Widoczne wąskie (ISO)
100
AcDbLine
 10
424.5946761624764
 20
283.9999999999995
 30
0.0
 11
424.5946761624781
 21
264.9999999999995
 31
0.0
  0
LINE
  5
C28
330
BF3
100
AcDbEntity
  8
Widoczne (ISO)
100
AcDbLine
 10
424.5946761624781
 20
283.9999999999995
 30
0.0
 11
358.8249173320555
 21
283.9999999999995
 31
0.0
  0
LINE
  5
C29
330
BF3
100
AcDbEntity
  8
Widoczne (ISO)
100
AcDbLine
 10
451.2058436317775
 20
264.9999999999995
 30
0.0
 11
596.2206285515503
 21
264.9999999999995
 31
0.0
  0
LINE
  5
C2A
330
BF3
100
AcDbEntity
  8
Widoczne (ISO)
100
AcDbLine
 10
424.5946761624764
 20
283.9999999999995
 30
0.0
 11
596.2206285515503
 21
283.9999999999995
 31
0.0
  0
LINE
  5
C2B
330
BF3
100
AcDbEntity
  8
Widoczne (ISO)
100
AcDbLine
 10
784.0650514645658
 20
283.9999999999982
 30
0.0
 11
784.0650514645658
 21
264.9999999999982
 31
0.0
  0
LINE
  5
C2C
330
BF3
100
AcDbEntity
  8
Widoczne (ISO)
100
AcDbLine
 10
355.4156300515151
 20
283.9999999999995
 30
0.0
 11
355.4156300515151
 21
272.7895819481814
 31
0.0
  0
LINE
  5
C2D
330
BF3
100
AcDbEntity
  8
Widoczne (ISO)
100
AcDbLine
 10
630.4509858261053
 20
-284.0000000000005
 30
0.0
 11
596.2206285515512
 21
-284.0000000000005
 31
0.0
  0
LINE
  5
C2E
330
BF3
100
AcDbEntity
  8
Widoczne wąskie (ISO)
100
AcDbLine
 10
630.4509858261053
 20
-265.0000000000005
 30
0.0
 11
630.4509858261053
 21
-284.0000000000005
 31
0.0
  0
LINE
  5
C2F
330
BF3
100
AcDbEntity
  8
Widoczne (ISO)
100
AcDbLine
 10
630.4509858261053
 20
-265.0000000000005
 30
0.0
 11
596.2206285515512
 21
-265.0000000000005
 31
0.0
  0
LINE
  5
C30
330
BF3
100
AcDbEntity
  8
Widoczne wąskie (ISO)
100
AcDbLine
 10
596.2206285515512
 20
-265.0000000000005
 30
0.0
 11
596.2206285515512
 21
-284.0000000000005
 31
0.0
  0
LINE
  5
C31
330
BF3
100
AcDbEntity
  8
Widoczne (ISO)
100
AcDbLine
 10
630.4509858261053
 20
-284.0000000000005
 30
0.0
 11
781.3406698725612
 21
-284.0000000000018
 31
0.0
  0
LINE
  5
C32
330
BF3
100
AcDbEntity
  8
Widoczne wąskie (ISO)
100
AcDbLine
 10
781.3406698725612
 20
-265.0000000000018
 30
0.0
 11
781.3406698725612
 21
-284.0000000000018
 31
0.0
  0
LINE
  5
C33
330
BF3
100
AcDbEntity
  8
Widoczne (ISO)
100
AcDbLine
 10
630.4509858261053
 20
-265.0000000000005
 30
0.0
 11
781.3406698725612
 21
-265.0000000000018
 31
0.0
  0
LINE
  5
C34
330
BF3
100
AcDbEntity
  8
Widoczne (ISO)
100
AcDbLine
 10
784.0650514645658
 20
-284.0000000000005
 30
0.0
 11
781.3406698725612
 21
-284.0000000000005
 31
0.0
  0
LINE
  5
C35
330
BF3
100
AcDbEntity
  8
Widoczne (ISO)
100
AcDbLine
 10
784.0650514645658
 20
-265.0000000000018
 30
0.0
 11
781.3406698725612
 21
-265.0000000000018
 31
0.0
  0
LINE
  5
C36
330
BF3
100
AcDbEntity
  8
Widoczne (ISO)
100
AcDbLine
 10
355.6273514358299
 20
-284.0000000000005
 30
0.0
 11
355.4156300515169
 21
-284.0000000000005
 31
0.0
  0
LINE
  5
C37
330
BF3
100
AcDbEntity
  8
Widoczne wąskie (ISO)
100
AcDbLine
 10
355.6273514358281
 20
-272.2568366269789
 30
0.0
 11
355.6273514358281
 21
-284.0000000000005
 31
0.0
  0
LINE
  5
C38
330
BF3
100
AcDbEntity
  8
Widoczne (ISO)
100
AcDbLine
 10
355.6273514358281
 20
-284.0000000000005
 30
0.0
 11
358.8249173320564
 21
-284.0000000000005
 31
0.0
  0
LINE
  5
C39
330
BF3
100
AcDbEntity
  8
Widoczne (ISO)
100
AcDbLine
 10
358.8249173320564
 20
-265.0000000000005
 30
0.0
 11
358.8249173320564
 21
-284.0000000000005
 31
0.0
  0
LINE
  5
C3A
330
BF3
100
AcDbEntity
  8
Widoczne (ISO)
100
AcDbLine
 10
424.5946761624781
 20
-284.0000000000005
 30
0.0
 11
358.8249173320564
 21
-284.0000000000005
 31
0.0
  0
LINE
  5
C3B
330
BF3
100
AcDbEntity
  8
Widoczne wąskie (ISO)
100
AcDbLine
 10
424.5946761624781
 20
-265.0000000000005
 30
0.0
 11
424.5946761624781
 21
-284.0000000000005
 31
0.0
  0
LINE
  5
C3C
330
BF3
100
AcDbEntity
  8
Widoczne (ISO)
100
AcDbLine
 10
424.5946761624781
 20
-284.0000000000005
 30
0.0
 11
596.2206285515512
 21
-284.0000000000005
 31
0.0
  0
LINE
  5
C3D
330
BF3
100
AcDbEntity
  8
Widoczne (ISO)
100
AcDbLine
 10
451.2058435648587
 20
-265.0000000000005
 30
0.0
 11
596.2206285515512
 21
-265.0000000000005
 31
0.0
  0
LINE
  5
C3E
330
BF3
100
AcDbEntity
  8
Widoczne (ISO)
100
AcDbLine
 10
784.0650514645676
 20
-265.0000000000018
 30
0.0
 11
784.0650514645676
 21
-284.0000000000018
 31
0.0
  0
LINE
  5
C3F
330
BF3
100
AcDbEntity
  8
Widoczne (ISO)
100
AcDbLine
 10
355.4156300515169
 20
-272.7895819481769
 30
0.0
 11
355.4156300515169
 21
-284.0000000000005
 31
0.0
  0
LINE
  5
C40
330
BF3
100
AcDbEntity
  8
Widoczne (ISO)
100
AcDbLine
 10
492.7447903574748
 20
299.4999999999996
 30
0.0
 11
466.7447903574748
 21
299.4999999999996
 31
0.0
  0
ARC
  5
C41
330
BF3
100
AcDbEntity
  8
Widoczne (ISO)
100
AcDbCircle
 10
481.7365761836827
 20
283.3988709171949
 30
0.0
 40
22.00000000000001
100
AcDbArc
 50
132.9566490409251
 51
178.4342524272048
  0
ARC
  5
C42
330
BF3
100
AcDbEntity
  8
Widoczne (ISO)
100
AcDbCircle
 10
477.7530045312659
 20
283.3988709171949
 30
0.0
 40
22.00000000000001
100
AcDbArc
 50
1.565747572795177
 51
47.04335095907485
  0
LINE
  5
C43
330
BF3
100
AcDbEntity
  8
Widoczne (ISO)
100
AcDbLine
 10
562.7446935016532
 20
299.4999999999982
 30
0.0
 11
536.7446935016532
 21
299.4999999999982
 31
0.0
  0
ARC
  5
C44
330
BF3
100
AcDbEntity
  8
Widoczne (ISO)
100
AcDbCircle
 10
551.7364793278611
 20
283.3988709171949
 30
0.0
 40
22.00000000000001
100
AcDbArc
 50
132.9566490409251
 51
178.4342524272048
  0
ARC
  5
C45
330
BF3
100
AcDbEntity
  8
Widoczne (ISO)
100
AcDbCircle
 10
547.7529076754453
 20
283.3988709171949
 30
0.0
 40
22.00000000000001
100
AcDbArc
 50
1.565747572795177
 51
47.04335095907485
  0
LINE
  5
C46
330
BF3
100
AcDbEntity
  8
Widoczne (ISO)
100
AcDbLine
 10
632.7445966458317
 20
299.4999999999996
 30
0.0
 11
606.7445966458317
 21
299.4999999999996
 31
0.0
  0
ARC
  5
C47
330
BF3
100
AcDbEntity
  8
Widoczne (ISO)
100
AcDbCircle
 10
621.7363824720396
 20
283.3988709171949
 30
0.0
 40
22.00000000000001
100
AcDbArc
 50
132.9566490409251
 51
178.4342524272048
  0
ARC
  5
C48
330
BF3
100
AcDbEntity
  8
Widoczne (ISO)
100
AcDbCircle
 10
617.7528108196229
 20
283.3988709171949
 30
0.0
 40
22.00000000000001
100
AcDbArc
 50
1.565747572795177
 51
47.04335095907485
  0
LINE
  5
C49
330
BF3
100
AcDbEntity
  8
Widoczne (ISO)
100
AcDbLine
 10
842.744306078408
 20
280.5000000000013
 30
0.0
 11
816.7443060784071
 21
280.5000000000013
 31
0.0
  0
ARC
  5
C4A
330
BF3
100
AcDbEntity
  8
Widoczne (ISO)
100
AcDbCircle
 10
831.736091904615
 20
264.3988709171972
 30
0.0
 40
22.00000000000001
100
AcDbArc
 50
132.9566490409251
 51
178.4342524272048
  0
ARC
  5
C4B
330
BF3
100
AcDbEntity
  8
Widoczne (ISO)
100
AcDbCircle
 10
827.7525202521992
 20
264.3988709171972
 30
0.0
 40
22.00000000000001
100
AcDbArc
 50
1.565747572795177
 51
47.04335095907485
  0
LINE
  5
C4C
330
BF3
100
AcDbEntity
  8
Widoczne (ISO)
100
AcDbLine
 10
466.7447903574748
 20
-299.5000000000004
 30
0.0
 11
492.7447903574766
 21
-299.5000000000004
 31
0.0
  0
ARC
  5
C4D
330
BF3
100
AcDbEntity
  8
Widoczne (ISO)
100
AcDbCircle
 10
477.7530045312669
 20
-283.3988709171963
 30
0.0
 40
22.00000000000001
100
AcDbArc
 50
312.9566490409252
 51
358.4342524272049
  0
ARC
  5
C4E
330
BF3
100
AcDbEntity
  8
Widoczne (ISO)
100
AcDbCircle
 10
481.7365761836845
 20
-283.3988709171963
 30
0.0
 40
22.00000000000001
100
AcDbArc
 50
181.5657475727951
 51
227.0433509590748
  0
LINE
  5
C4F
330
BF3
100
AcDbEntity
  8
Widoczne (ISO)
100
AcDbLine
 10
536.7446935016532
 20
-299.4999999999937
 30
0.0
 11
562.7446935016532
 21
-299.4999999999937
 31
0.0
  0
ARC
  5
C50
330
BF3
100
AcDbEntity
  8
Widoczne (ISO)
100
AcDbCircle
 10
547.7529076754462
 20
-283.3988709171899
 30
0.0
 40
22.00000000000001
100
AcDbArc
 50
312.9566490409252
 51
358.4342524272049
  0
ARC
  5
C51
330
BF3
100
AcDbEntity
  8
Widoczne (ISO)
100
AcDbCircle
 10
551.7364793278611
 20
-283.3988709171899
 30
0.0
 40
22.00000000000001
100
AcDbArc
 50
181.5657475727951
 51
227.0433509590748
  0
LINE
  5
C52
330
BF3
100
AcDbEntity
  8
Widoczne (ISO)
100
AcDbLine
 10
606.7445966458317
 20
-299.499999999995
 30
0.0
 11
632.7445966458335
 21
-299.499999999995
 31
0.0
  0
ARC
  5
C53
330
BF3
100
AcDbEntity
  8
Widoczne (ISO)
100
AcDbCircle
 10
617.7528108196238
 20
-283.3988709171908
 30
0.0
 40
22.00000000000001
100
AcDbArc
 50
312.9566490409252
 51
358.4342524272049
  0
ARC
  5
C54
330
BF3
100
AcDbEntity
  8
Widoczne (ISO)
100
AcDbCircle
 10
621.7363824720414
 20
-283.3988709171908
 30
0.0
 40
22.00000000000001
100
AcDbArc
 50
181.5657475727951
 51
227.0433509590748
  0
LINE
  5
C55
330
BF3
100
AcDbEntity
  8
Widoczne (ISO)
100
AcDbLine
 10
816.7443060784071
 20
-280.4999999999954
 30
0.0
 11
842.7443060784062
 21
-280.4999999999954
 31
0.0
  0
ARC
  5
C56
330
BF3
100
AcDbEntity
  8
Widoczne (ISO)
100
AcDbCircle
 10
827.7525202521992
 20
-264.3988709171927
 30
0.0
 40
22.00000000000002
100
AcDbArc
 50
312.9566490409252
 51
358.4342524272049
  0
ARC
  5
C57
330
BF3
100
AcDbEntity
  8
Widoczne (ISO)
100
AcDbCircle
 10
831.7360919046141
 20
-264.3988709171927
 30
0.0
 40
22.00000000000001
100
AcDbArc
 50
181.5657475727951
 51
227.0433509590748
  0
LINE
  5
C58
330
BF3
100
AcDbEntity
  8
Widoczne (ISO)
100
AcDbLine
 10
350.070356886943
 20
280.5
 30
0.0
 11
324.0703568869431
 21
280.5
 31
0.0
  0
ARC
  5
C59
330
BF3
100
AcDbEntity
  8
Widoczne (ISO)
100
AcDbCircle
 10
339.062142713151
 20
264.3988709171963
 30
0.0
 40
22.00000000000001
100
AcDbArc
 50
132.9566490409251
 51
178.4342524272048
  0
ARC
  5
C5A
330
BF3
100
AcDbEntity
  8
Widoczne (ISO)
100
AcDbCircle
 10
335.0785710607352
 20
264.3988709171963
 30
0.0
 40
22.0
100
AcDbArc
 50
1.565747572795177
 51
47.04335095907485
  0
LINE
  5
C5B
330
BF3
100
AcDbEntity
  8
Widoczne (ISO)
100
AcDbLine
 10
220.595356890698
 20
280.4999999999996
 30
0.0
 11
194.5953568906979
 21
280.4999999999996
 31
0.0
  0
ARC
  5
C5C
330
BF3
100
AcDbEntity
  8
Widoczne (ISO)
100
AcDbCircle
 10
209.5871427169059
 20
264.3988709171949
 30
0.0
 40
22.00000000000001
100
AcDbArc
 50
132.9566490409251
 51
178.4342524272048
  0
ARC
  5
C5D
330
BF3
100
AcDbEntity
  8
Widoczne (ISO)
100
AcDbCircle
 10
205.6035710644901
 20
264.3988709171949
 30
0.0
 40
22.0
100
AcDbArc
 50
1.565747572795177
 51
47.04335095907485
  0
LINE
  5
C5E
330
BF3
100
AcDbEntity
  8
Widoczne (ISO)
100
AcDbLine
 10
81.12035689069854
 20
290.4999999999995
 30
0.0
 11
55.12035689069853
 21
290.4999999999995
 31
0.0
  0
ARC
  5
C5F
330
BF3
100
AcDbEntity
  8
Widoczne (ISO)
100
AcDbCircle
 10
70.1121427169046
 20
274.3988709171963
 30
0.0
 40
22.00000000000001
100
AcDbArc
 50
132.9566490409251
 51
178.4342524272048
  0
ARC
  5
C60
330
BF3
100
AcDbEntity
  8
Widoczne (ISO)
100
AcDbCircle
 10
66.12857106448882
 20
274.3988709171963
 30
0.0
 40
21.99999999999999
100
AcDbArc
 50
1.565747572795177
 51
47.04335095907485
  0
LINE
  5
C61
330
BF3
100
AcDbEntity
  8
Widoczne (ISO)
100
AcDbLine
 10
-91.15896017042633
 20
290.4999999999995
 30
0.0
 11
-117.1589601704272
 21
290.4999999999995
 31
0.0
  0
ARC
  5
C62
330
BF3
100
AcDbEntity
  8
Widoczne (ISO)
100
AcDbCircle
 10
-102.1671743442166
 20
274.3988709171963
 30
0.0
 40
22.00000000000017
100
AcDbArc
 50
132.9566490409251
 51
178.4342524272048
  0
ARC
  5
C63
330
BF3
100
AcDbEntity
  8
Widoczne (ISO)
100
AcDbCircle
 10
-106.1507459966351
 20
274.3988709171963
 30
0.0
 40
22.00000000000009
100
AcDbArc
 50
1.565747572795177
 51
47.04335095907485
  0
LINE
  5
C64
330
BF3
100
AcDbEntity
  8
Widoczne (ISO)
100
AcDbLine
 10
-271.3113568843764
 20
280.5
 30
0.0
 11
-297.3113568843764
 21
280.5
 31
0.0
  0
ARC
  5
C65
330
BF3
100
AcDbEntity
  8
Widoczne (ISO)
100
AcDbCircle
 10
-282.3195710581676
 20
264.3988709171963
 30
0.0
 40
22.00000000000017
100
AcDbArc
 50
132.9566490409251
 51
178.4342524272048
  0
ARC
  5
C66
330
BF3
100
AcDbEntity
  8
Widoczne (ISO)
100
AcDbCircle
 10
-286.3031427105843
 20
264.3988709171963
 30
0.0
 40
22.00000000000009
100
AcDbArc
 50
1.565747572795177
 51
47.04335095907485
  0
LINE
  5
C67
330
BF3
100
AcDbEntity
  8
Widoczne (ISO)
100
AcDbLine
 10
-441.5340303923012
 20
280.5
 30
0.0
 11
-467.5340303923021
 21
280.5
 31
0.0
  0
ARC
  5
C68
330
BF3
100
AcDbEntity
  8
Widoczne (ISO)
100
AcDbCircle
 10
-452.5422445660933
 20
264.3988709171963
 30
0.0
 40
22.00000000000013
100
AcDbArc
 50
132.9566490409251
 51
178.4342524272048
  0
ARC
  5
C69
330
BF3
100
AcDbEntity
  8
Widoczne (ISO)
100
AcDbCircle
 10
-456.52581621851
 20
264.3988709171963
 30
0.0
 40
22.00000000000008
100
AcDbArc
 50
1.565747572795177
 51
47.04335095907485
  0
LINE
  5
C6A
330
BF3
100
AcDbEntity
  8
Widoczne (ISO)
100
AcDbLine
 10
-611.757514491389
 20
280.4999999999996
 30
0.0
 11
-637.7575144913889
 21
280.4999999999996
 31
0.0
  0
ARC
  5
C6B
330
BF3
100
AcDbEntity
  8
Widoczne (ISO)
100
AcDbCircle
 10
-622.7657286651806
 20
264.3988709171949
 30
0.0
 40
22.00000000000012
100
AcDbArc
 50
132.9566490409251
 51
178.4342524272048
  0
ARC
  5
C6C
330
BF3
100
AcDbEntity
  8
Widoczne (ISO)
100
AcDbCircle
 10
-626.7493003175968
 20
264.3988709171949
 30
0.0
 40
22.00000000000007
100
AcDbArc
 50
1.565747572795177
 51
47.04335095907485
  0
LINE
  5
C6D
330
BF3
100
AcDbEntity
  8
Widoczne (ISO)
100
AcDbLine
 10
-781.980998158579
 20
290.4999999999995
 30
0.0
 11
-807.9809981585791
 21
290.4999999999995
 31
0.0
  0
ARC
  5
C6E
330
BF3
100
AcDbEntity
  8
Widoczne (ISO)
100
AcDbCircle
 10
-792.9892123323711
 20
274.3988709171963
 30
0.0
 40
22.00000000000013
100
AcDbArc
 50
132.9566490409251
 51
178.4342524272048
  0
ARC
  5
C6F
330
BF3
100
AcDbEntity
  8
Widoczne (ISO)
100
AcDbCircle
 10
-796.9727839847869
 20
274.3988709171963
 30
0.0
 40
22.00000000000008
100
AcDbArc
 50
1.565747572795177
 51
47.04335095907485
  0
LINE
  5
C70
330
BF3
100
AcDbEntity
  8
Widoczne (ISO)
100
AcDbLine
 10
-915.4411700097526
 20
290.4999999999995
 30
0.0
 11
-941.4411700097526
 21
290.4999999999995
 31
0.0
  0
ARC
  5
C71
330
BF3
100
AcDbEntity
  8
Widoczne (ISO)
100
AcDbCircle
 10
-926.4493841835447
 20
274.3988709171963
 30
0.0
 40
22.00000000000017
100
AcDbArc
 50
132.9566490409251
 51
178.4342524272048
  0
ARC
  5
C72
330
BF3
100
AcDbEntity
  8
Widoczne (ISO)
100
AcDbCircle
 10
-930.4329558359604
 20
274.3988709171963
 30
0.0
 40
22.00000000000009
100
AcDbArc
 50
1.565747572795177
 51
47.04335095907485
  0
LINE
  5
C73
330
BF3
100
AcDbEntity
  8
Widoczne (ISO)
100
AcDbLine
 10
-1130.806443446206
 20
280.4999999999996
 30
0.0
 11
-1156.806443446208
 21
280.4999999999996
 31
0.0
  0
ARC
  5
C74
330
BF3
100
AcDbEntity
  8
Widoczne (ISO)
100
AcDbCircle
 10
-1141.814657619999
 20
264.3988709171949
 30
0.0
 40
22.00000000000013
100
AcDbArc
 50
132.9566490409251
 51
178.4342524272048
  0
ARC
  5
C75
330
BF3
100
AcDbEntity
  8
Widoczne (ISO)
100
AcDbCircle
 10
-1145.798229272415
 20
264.3988709171949
 30
0.0
 40
22.00000000000008
100
AcDbArc
 50
1.565747572795177
 51
47.04335095907485
  0
LINE
  5
C76
330
BF3
100
AcDbEntity
  8
Widoczne (ISO)
100
AcDbLine
 10
-1357.059783541064
 20
280.4999999999996
 30
0.0
 11
-1383.059783541065
 21
280.4999999999996
 31
0.0
  0
ARC
  5
C77
330
BF3
100
AcDbEntity
  8
Widoczne (ISO)
100
AcDbCircle
 10
-1368.067997714857
 20
264.3988709171949
 30
0.0
 40
22.00000000000013
100
AcDbArc
 50
132.9566490409251
 51
178.4342524272048
  0
ARC
  5
C78
330
BF3
100
AcDbEntity
  8
Widoczne (ISO)
100
AcDbCircle
 10
-1372.051569367273
 20
264.3988709171949
 30
0.0
 40
22.00000000000008
100
AcDbArc
 50
1.565747572795177
 51
47.04335095907485
  0
LINE
  5
C79
330
BF3
100
AcDbEntity
  8
Widoczne (ISO)
100
AcDbLine
 10
-1555.643952524687
 20
280.4999999999996
 30
0.0
 11
-1581.643952524687
 21
280.4999999999996
 31
0.0
  0
ARC
  5
C7A
330
BF3
100
AcDbEntity
  8
Widoczne (ISO)
100
AcDbCircle
 10
-1566.652166698479
 20
264.3988709171949
 30
0.0
 40
22.00000000000011
100
AcDbArc
 50
132.9566490409251
 51
178.4342524272048
  0
ARC
  5
C7B
330
BF3
100
AcDbEntity
  8
Widoczne (ISO)
100
AcDbCircle
 10
-1570.635738350894
 20
264.3988709171949
 30
0.0
 40
22.00000000000006
100
AcDbArc
 50
1.565747572795177
 51
47.04335095907485
  0
LINE
  5
C7C
330
BF3
100
AcDbEntity
  8
Widoczne (ISO)
100
AcDbLine
 10
-1648.331675696742
 20
280.4999999999996
 30
0.0
 11
-1674.331675696742
 21
280.4999999999996
 31
0.0
  0
ARC
  5
C7D
330
BF3
100
AcDbEntity
  8
Widoczne (ISO)
100
AcDbCircle
 10
-1659.339889870534
 20
264.3988709171949
 30
0.0
 40
22.00000000000009
100
AcDbArc
 50
132.9566490409251
 51
178.4342524272048
  0
ARC
  5
C7E
330
BF3
100
AcDbEntity
  8
Widoczne (ISO)
100
AcDbCircle
 10
-1663.323461522949
 20
264.3988709171949
 30
0.0
 40
22.00000000000005
100
AcDbArc
 50
1.565747572795177
 51
47.04335095907485
  0
LINE
  5
C7F
330
BF3
100
AcDbEntity
  8
Widoczne (ISO)
100
AcDbLine
 10
-1580.845658233918
 20
-280.5
 30
0.0
 11
-1554.845658233919
 21
-280.5
 31
0.0
  0
ARC
  5
C80
330
BF3
100
AcDbEntity
  8
Widoczne (ISO)
100
AcDbCircle
 10
-1569.837444060127
 20
-264.3988709171958
 30
0.0
 40
22.00000000000008
100
AcDbArc
 50
312.9566490409252
 51
358.4342524272049
  0
ARC
  5
C81
330
BF3
100
AcDbEntity
  8
Widoczne (ISO)
100
AcDbCircle
 10
-1565.853872407711
 20
-264.3988709171958
 30
0.0
 40
22.00000000000005
100
AcDbArc
 50
181.5657475727951
 51
227.0433509590748
  0
LINE
  5
C82
330
BF3
100
AcDbEntity
  8
Widoczne (ISO)
100
AcDbLine
 10
-1382.297898635981
 20
-280.5
 30
0.0
 11
-1356.297898635982
 21
-280.5
 31
0.0
  0
ARC
  5
C83
330
BF3
100
AcDbEntity
  8
Widoczne (ISO)
100
AcDbCircle
 10
-1371.28968446219
 20
-264.3988709171958
 30
0.0
 40
22.00000000000007
100
AcDbArc
 50
312.9566490409252
 51
358.4342524272049
  0
ARC
  5
C84
330
BF3
100
AcDbEntity
  8
Widoczne (ISO)
100
AcDbCircle
 10
-1367.306112809774
 20
-264.3988709171958
 30
0.0
 40
22.00000000000005
100
AcDbArc
 50
181.5657475727951
 51
227.0433509590748
  0
LINE
  5
C85
330
BF3
100
AcDbEntity
  8
Widoczne (ISO)
100
AcDbLine
 10
-1156.095188543012
 20
-280.5
 30
0.0
 11
-1130.095188543013
 21
-280.5
 31
0.0
  0
ARC
  5
C86
330
BF3
100
AcDbEntity
  8
Widoczne (ISO)
100
AcDbCircle
 10
-1145.086974369221
 20
-264.3988709171958
 30
0.0
 40
22.00000000000014
100
AcDbArc
 50
312.9566490409252
 51
358.4342524272049
  0
ARC
  5
C87
330
BF3
100
AcDbEntity
  8
Widoczne (ISO)
100
AcDbCircle
 10
-1141.103402716804
 20
-264.3988709171958
 30
0.0
 40
22.00000000000008
100
AcDbArc
 50
181.5657475727951
 51
227.0433509590748
  0
LINE
  5
C88
330
BF3
100
AcDbEntity
  8
Widoczne (ISO)
100
AcDbLine
 10
-941.04923734779
 20
-290.5000000000005
 30
0.0
 11
-915.04923734779
 21
-290.5000000000005
 31
0.0
  0
ARC
  5
C89
330
BF3
100
AcDbEntity
  8
Widoczne (ISO)
100
AcDbCircle
 10
-930.0410231739979
 20
-274.3988709171963
 30
0.0
 40
22.00000000000012
100
AcDbArc
 50
312.9566490409252
 51
358.4342524272049
  0
ARC
  5
C8A
330
BF3
100
AcDbEntity
  8
Widoczne (ISO)
100
AcDbCircle
 10
-926.0574515215822
 20
-274.3988709171963
 30
0.0
 40
22.00000000000005
100
AcDbArc
 50
181.5657475727951
 51
227.0433509590748
  0
LINE
  5
C8B
330
BF3
100
AcDbEntity
  8
Widoczne (ISO)
100
AcDbLine
 10
-807.9813488944669
 20
-290.5000000000005
 30
0.0
 11
-781.9813488944669
 21
-290.5000000000005
 31
0.0
  0
ARC
  5
C8C
330
BF3
100
AcDbEntity
  8
Widoczne (ISO)
100
AcDbCircle
 10
-796.9731347206748
 20
-274.3988709171963
 30
0.0
 40
22.00000000000004
100
AcDbArc
 50
312.9566490409252
 51
358.4342524272049
  0
ARC
  5
C8D
330
BF3
100
AcDbEntity
  8
Widoczne (ISO)
100
AcDbCircle
 10
-792.9895630682586
 20
-274.3988709171963
 30
0.0
 40
21.99999999999999
100
AcDbArc
 50
181.5657475727951
 51
227.0433509590748
  0
LINE
  5
C8E
330
BF3
100
AcDbEntity
  8
Widoczne (ISO)
100
AcDbLine
 10
-637.7578325967138
 20
-280.5
 30
0.0
 11
-611.7578325967133
 21
-280.5
 31
0.0
  0
ARC
  5
C8F
330
BF3
100
AcDbEntity
  8
Widoczne (ISO)
100
AcDbCircle
 10
-626.7496184229217
 20
-264.3988709171958
 30
0.0
 40
22.00000000000002
100
AcDbArc
 50
312.9566490409252
 51
358.4342524272049
  0
ARC
  5
C90
330
BF3
100
AcDbEntity
  8
Widoczne (ISO)
100
AcDbCircle
 10
-622.7660467705045
 20
-264.3988709171958
 30
0.0
 40
21.99999999999998
100
AcDbArc
 50
181.5657475727951
 51
227.0433509590748
  0
LINE
  5
C91
330
BF3
100
AcDbEntity
  8
Widoczne (ISO)
100
AcDbLine
 10
-467.5343158670616
 20
-280.4999999999986
 30
0.0
 11
-441.534315867063
 21
-280.4999999999986
 31
0.0
  0
ARC
  5
C92
330
BF3
100
AcDbEntity
  8
Widoczne (ISO)
100
AcDbCircle
 10
-456.52610169327
 20
-264.3988709171958
 30
0.0
 40
22.00000000000001
100
AcDbArc
 50
312.9566490409252
 51
358.4342524272049
  0
ARC
  5
C93
330
BF3
100
AcDbEntity
  8
Widoczne (ISO)
100
AcDbCircle
 10
-452.5425300408541
 20
-264.3988709171958
 30
0.0
 40
22.0
100
AcDbArc
 50
181.5657475727951
 51
227.0433509590748
  0
LINE
  5
C94
330
BF3
100
AcDbEntity
  8
Widoczne (ISO)
100
AcDbLine
 10
-297.3116097287311
 20
-280.4999999999986
 30
0.0
 11
-271.3116097287302
 21
-280.4999999999986
 31
0.0
  0
ARC
  5
C95
330
BF3
100
AcDbEntity
  8
Widoczne (ISO)
100
AcDbCircle
 10
-286.3033955549381
 20
-264.3988709171958
 30
0.0
 40
22.00000000000001
100
AcDbArc
 50
312.9566490409252
 51
358.4342524272049
  0
ARC
  5
C96
330
BF3
100
AcDbEntity
  8
Widoczne (ISO)
100
AcDbCircle
 10
-282.3198239025233
 20
-264.3988709171958
 30
0.0
 40
22.0
100
AcDbArc
 50
181.5657475727951
 51
227.0433509590748
  0
LINE
  5
C97
330
BF3
100
AcDbEntity
  8
Widoczne (ISO)
100
AcDbLine
 10
-117.1591784809288
 20
-290.5000000000005
 30
0.0
 11
-91.15917848092795
 21
-290.5000000000005
 31
0.0
  0
ARC
  5
C98
330
BF3
100
AcDbEntity
  8
Widoczne (ISO)
100
AcDbCircle
 10
-106.1509643071367
 20
-274.3988709171963
 30
0.0
 40
22.00000000000001
100
AcDbArc
 50
312.9566490409252
 51
358.4342524272049
  0
ARC
  5
C99
330
BF3
100
AcDbEntity
  8
Widoczne (ISO)
100
AcDbCircle
 10
-102.16739265472
 20
-274.3988709171963
 30
0.0
 40
22.00000000000001
100
AcDbArc
 50
181.5657475727951
 51
227.0433509590748
  0
LINE
  5
C9A
330
BF3
100
AcDbEntity
  8
Widoczne (ISO)
100
AcDbLine
 10
-1673.007066699325
 20
-280.5
 30
0.0
 11
-1647.007066699326
 21
-280.5
 31
0.0
  0
ARC
  5
C9B
330
BF3
100
AcDbEntity
  8
Widoczne (ISO)
100
AcDbCircle
 10
-1661.998852525532
 20
-264.3988709171958
 30
0.0
 40
22.00000000000008
100
AcDbArc
 50
312.9566490409252
 51
358.4342524272049
  0
ARC
  5
C9C
330
BF3
100
AcDbEntity
  8
Widoczne (ISO)
100
AcDbCircle
 10
-1658.015280873117
 20
-264.3988709171958
 30
0.0
 40
22.00000000000005
100
AcDbArc
 50
181.5657475727951
 51
227.0433509590748
  0
LINE
  5
C9D
330
BF3
100
AcDbEntity
  8
Widoczne (ISO)
100
AcDbLine
 10
55.12035688694869
 20
-290.5000000000005
 30
0.0
 11
81.12035688694687
 21
-290.5000000000005
 31
0.0
  0
ARC
  5
C9E
330
BF3
100
AcDbEntity
  8
Widoczne (ISO)
100
AcDbCircle
 10
66.12857106073988
 20
-274.3988709171963
 30
0.0
 40
22.0
100
AcDbArc
 50
312.9566490409252
 51
358.4342524272049
  0
ARC
  5
C9F
330
BF3
100
AcDbEntity
  8
Widoczne (ISO)
100
AcDbCircle
 10
70.11214271315657
 20
-274.3988709171963
 30
0.0
 40
21.9999999999999
100
AcDbArc
 50
181.5657475727951
 51
227.0433509590748
  0
LINE
  5
CA0
330
BF3
100
AcDbEntity
  8
Widoczne (ISO)
100
AcDbLine
 10
194.5953568869454
 20
-280.5000000000005
 30
0.0
 11
220.5953568869472
 21
-280.5000000000005
 31
0.0
  0
ARC
  5
CA1
330
BF3
100
AcDbEntity
  8
Widoczne (ISO)
100
AcDbCircle
 10
205.6035710607375
 20
-264.3988709171958
 30
0.0
 40
21.99999999999999
100
AcDbArc
 50
312.9566490409252
 51
358.4342524272049
  0
ARC
  5
CA2
330
BF3
100
AcDbEntity
  8
Widoczne (ISO)
100
AcDbCircle
 10
209.5871427131533
 20
-264.3988709171958
 30
0.0
 40
21.99999999999993
100
AcDbArc
 50
181.5657475727951
 51
227.0433509590748
  0
LINE
  5
CA3
330
BF3
100
AcDbEntity
  8
Widoczne (ISO)
100
AcDbLine
 10
324.0703568869431
 20
-280.5
 30
0.0
 11
350.070356886943
 21
-280.5
 31
0.0
  0
ARC
  5
CA4
330
BF3
100
AcDbEntity
  8
Widoczne (ISO)
100
AcDbCircle
 10
335.0785710607352
 20
-264.3988709171958
 30
0.0
 40
22.0
100
AcDbArc
 50
312.9566490409252
 51
358.4342524272049
  0
ARC
  5
CA5
330
BF3
100
AcDbEntity
  8
Widoczne (ISO)
100
AcDbCircle
 10
339.062142713151
 20
-264.3988709171958
 30
0.0
 40
21.99999999999999
100
AcDbArc
 50
181.5657475727951
 51
227.0433509590748
  0
LINE
  5
CA6
330
BF3
100
AcDbEntity
  8
Widoczne (ISO)
100
AcDbLine
 10
145.018356886756
 20
-280.4999999999986
 30
0.0
 11
171.0183568867551
 21
-280.4999999999986
 31
0.0
  0
ARC
  5
CA7
330
BF3
100
AcDbEntity
  8
Widoczne (ISO)
100
AcDbCircle
 10
156.0265710605481
 20
-264.3988709171945
 30
0.0
 40
22.00000000000001
100
AcDbArc
 50
312.9566490409252
 51
358.4342524272049
  0
ARC
  5
CA8
330
BF3
100
AcDbEntity
  8
Widoczne (ISO)
100
AcDbCircle
 10
160.010142712963
 20
-264.3988709171945
 30
0.0
 40
21.99999999999993
100
AcDbArc
 50
181.5657475727951
 51
227.0433509590748
  0
LINE
  5
CA9
330
BF3
100
AcDbEntity
  8
Widoczne (ISO)
100
AcDbLine
 10
171.0183568867551
 20
280.5
 30
0.0
 11
145.018356886756
 21
280.5
 31
0.0
  0
ARC
  5
CAA
330
BF3
100
AcDbEntity
  8
Widoczne (ISO)
100
AcDbCircle
 10
160.010142712963
 20
264.3988709171963
 30
0.0
 40
22.0
100
AcDbArc
 50
132.9566490409251
 51
178.4342524272048
  0
ARC
  5
CAB
330
BF3
100
AcDbEntity
  8
Widoczne (ISO)
100
AcDbCircle
 10
156.0265710605481
 20
264.3988709171963
 30
0.0
 40
21.99999999999997
100
AcDbArc
 50
1.565747572795177
 51
47.04335095907485
  0
LINE
  5
CAC
330
BF3
100
AcDbEntity
  8
Widoczne (ISO)
100
AcDbLine
 10
414.5091121793948
 20
299.4999999999996
 30
0.0
 11
388.509112179393
 21
299.4999999999996
 31
0.0
  0
ARC
  5
CAD
330
BF3
100
AcDbEntity
  8
Widoczne (ISO)
100
AcDbCircle
 10
403.5008980056018
 20
283.3988709171963
 30
0.0
 40
22.00000000000001
100
AcDbArc
 50
132.9566490409251
 51
178.4342524272048
  0
ARC
  5
CAE
330
BF3
100
AcDbEntity
  8
Widoczne (ISO)
100
AcDbCircle
 10
399.5173263531851
 20
283.3988709171963
 30
0.0
 40
22.00000000000002
100
AcDbArc
 50
1.565747572795177
 51
47.04335095907485
  0
LINE
  5
CAF
330
BF3
100
AcDbEntity
  8
Widoczne (ISO)
100
AcDbLine
 10
388.509112179393
 20
-299.5000000000004
 30
0.0
 11
414.5091121793948
 21
-299.5000000000004
 31
0.0
  0
ARC
  5
CB0
330
BF3
100
AcDbEntity
  8
Widoczne (ISO)
100
AcDbCircle
 10
399.5173263531851
 20
-283.3988709171963
 30
0.0
 40
22.00000000000001
100
AcDbArc
 50
312.9566490409252
 51
358.4342524272049
  0
ARC
  5
CB1
330
BF3
100
AcDbEntity
  8
Widoczne (ISO)
100
AcDbCircle
 10
403.5008980056018
 20
-283.3988709171963
 30
0.0
 40
22.00000000000002
100
AcDbArc
 50
181.5657475727951
 51
227.0433509590748
  0
LINE
  5
CB2
330
BF3
100
AcDbEntity
  8
Widoczne wąskie (ISO)
100
AcDbLine
 10
467.0844663989528
 20
299.8052839048142
 30
0.0
 11
492.4051143159977
 21
299.8052839048142
 31
0.0
  0
ARC
  5
CB3
330
BF3
100
AcDbEntity
  8
Widoczne (ISO)
100
AcDbCircle
 10
491.7447903574748
 20
299.0543030330191
 30
0.0
 40
1.0
100
AcDbArc
 50
26.4679391363853
 51
48.67541560985576
  0
ARC
  5
CB4
330
BF3
100
AcDbEntity
  8
Widoczne (ISO)
100
AcDbCircle
 10
467.7447903574748
 20
299.0543030330191
 30
0.0
 40
1.0
100
AcDbArc
 50
131.3245843901442
 51
153.532060863638
  0
ARC
  5
CB5
330
BF3
100
AcDbEntity
  8
Widoczne (ISO)
100
AcDbCircle
 10
480.9512695279209
 20
284.0346855971261
 30
0.0
 40
21.0
100
AcDbArc
 50
93.29353562610526
 51
131.3245843901442
  0
ARC
  5
CB6
330
BF3
100
AcDbEntity
  8
Widoczne (ISO)
100
AcDbCircle
 10
478.5383111870296
 20
284.0346855971261
 30
0.0
 40
21.0
100
AcDbArc
 50
48.67541560985576
 51
86.70646437389473
  0
LINE
  5
CB7
330
BF3
100
AcDbEntity
  8
Widoczne wąskie (ISO)
100
AcDbLine
 10
537.0843695431322
 20
299.8052839048142
 30
0.0
 11
562.4050174601753
 21
299.8052839048142
 31
0.0
  0
ARC
  5
CB8
330
BF3
100
AcDbEntity
  8
Widoczne (ISO)
100
AcDbCircle
 10
561.7446935016532
 20
299.0543030330191
 30
0.0
 40
1.0
100
AcDbArc
 50
26.4679391363853
 51
48.67541560985576
  0
ARC
  5
CB9
330
BF3
100
AcDbEntity
  8
Widoczne (ISO)
100
AcDbCircle
 10
537.7446935016532
 20
299.0543030330191
 30
0.0
 40
1.0
100
AcDbArc
 50
131.3245843901442
 51
153.532060863638
  0
ARC
  5
CBA
330
BF3
100
AcDbEntity
  8
Widoczne (ISO)
100
AcDbCircle
 10
550.9511726720993
 20
284.0346855971261
 30
0.0
 40
21.0
100
AcDbArc
 50
93.29353562610526
 51
131.3245843901442
  0
ARC
  5
CBB
330
BF3
100
AcDbEntity
  8
Widoczne (ISO)
100
AcDbCircle
 10
548.5382143312071
 20
284.0346855971261
 30
0.0
 40
21.0
100
AcDbArc
 50
48.67541560985576
 51
86.70646437389473
  0
LINE
  5
CBC
330
BF3
100
AcDbEntity
  8
Widoczne wąskie (ISO)
100
AcDbLine
 10
607.0842726873106
 20
299.8052839048142
 30
0.0
 11
632.4049206043528
 21
299.8052839048142
 31
0.0
  0
ARC
  5
CBD
330
BF3
100
AcDbEntity
  8
Widoczne (ISO)
100
AcDbCircle
 10
631.7445966458317
 20
299.0543030330191
 30
0.0
 40
1.0
100
AcDbArc
 50
26.4679391363853
 51
48.67541560985576
  0
ARC
  5
CBE
330
BF3
100
AcDbEntity
  8
Widoczne (ISO)
100
AcDbCircle
 10
607.7445966458317
 20
299.0543030330191
 30
0.0
 40
1.0
100
AcDbArc
 50
131.3245843901442
 51
153.532060863638
  0
ARC
  5
CBF
330
BF3
100
AcDbEntity
  8
Widoczne (ISO)
100
AcDbCircle
 10
620.9510758162768
 20
284.0346855971261
 30
0.0
 40
21.0
100
AcDbArc
 50
93.29353562610526
 51
131.3245843901442
  0
ARC
  5
CC0
330
BF3
100
AcDbEntity
  8
Widoczne (ISO)
100
AcDbCircle
 10
618.5381174753866
 20
284.0346855971261
 30
0.0
 40
21.0
100
AcDbArc
 50
48.67541560985576
 51
86.70646437389473
  0
LINE
  5
CC1
330
BF3
100
AcDbEntity
  8
Widoczne wąskie (ISO)
100
AcDbLine
 10
817.0839821198851
 20
280.8052839048164
 30
0.0
 11
842.4046300369299
 21
280.8052839048164
 31
0.0
  0
ARC
  5
CC2
330
BF3
100
AcDbEntity
  8
Widoczne (ISO)
100
AcDbCircle
 10
841.7443060784071
 20
280.0543030330214
 30
0.0
 40
1.0
100
AcDbArc
 50
26.46793913636198
 51
48.67541560985576
  0
ARC
  5
CC3
330
BF3
100
AcDbEntity
  8
Widoczne (ISO)
100
AcDbCircle
 10
817.744306078408
 20
280.0543030330214
 30
0.0
 40
1.0
100
AcDbArc
 50
131.3245843901442
 51
153.532060863638
  0
ARC
  5
CC4
330
BF3
100
AcDbEntity
  8
Widoczne (ISO)
100
AcDbCircle
 10
830.9507852488541
 20
265.0346855971284
 30
0.0
 40
21.0
100
AcDbArc
 50
93.29353562610526
 51
131.3245843901442
  0
ARC
  5
CC5
330
BF3
100
AcDbEntity
  8
Widoczne (ISO)
100
AcDbCircle
 10
828.537826907962
 20
265.0346855971284
 30
0.0
 40
21.00000000000002
100
AcDbArc
 50
48.67541560985576
 51
86.70646437389473
  0
LINE
  5
CC6
330
BF3
100
AcDbEntity
  8
Widoczne wąskie (ISO)
100
AcDbLine
 10
492.4051143159977
 20
-299.8052839048155
 30
0.0
 11
467.0844663989537
 21
-299.8052839048155
 31
0.0
  0
ARC
  5
CC7
330
BF3
100
AcDbEntity
  8
Widoczne (ISO)
100
AcDbCircle
 10
467.7447903574766
 20
-299.0543030330218
 30
0.0
 40
1.0
100
AcDbArc
 50
206.467939136362
 51
228.6754156098167
  0
ARC
  5
CC8
330
BF3
100
AcDbEntity
  8
Widoczne (ISO)
100
AcDbCircle
 10
491.7447903574766
 20
-299.0543030330218
 30
0.0
 40
1.0
100
AcDbArc
 50
311.3245843901834
 51
333.532060863638
  0
ARC
  5
CC9
330
BF3
100
AcDbEntity
  8
Widoczne (ISO)
100
AcDbCircle
 10
478.5383111870315
 20
-284.0346855971274
 30
0.0
 40
21.00000000000001
100
AcDbArc
 50
273.2935356261052
 51
311.3245843901442
  0
ARC
  5
CCA
330
BF3
100
AcDbEntity
  8
Widoczne (ISO)
100
AcDbCircle
 10
480.9512695279217
 20
-284.0346855971274
 30
0.0
 40
21.00000000000002
100
AcDbArc
 50
228.6754156098558
 51
266.7064643738947
  0
LINE
  5
CCB
330
BF3
100
AcDbEntity
  8
Widoczne wąskie (ISO)
100
AcDbLine
 10
562.4050174601761
 20
-299.8052839048169
 30
0.0
 11
537.0843695431322
 21
-299.8052839048169
 31
0.0
  0
ARC
  5
CCC
330
BF3
100
AcDbEntity
  8
Widoczne (ISO)
100
AcDbCircle
 10
537.7446935016532
 20
-299.0543030330218
 30
0.0
 40
1.0
100
AcDbArc
 50
206.4679391358726
 51
228.6754156098167
  0
ARC
  5
CCD
330
BF3
100
AcDbEntity
  8
Widoczne (ISO)
100
AcDbCircle
 10
561.7446935016532
 20
-299.0543030330218
 30
0.0
 40
1.0
100
AcDbArc
 50
311.3245843901442
 51
333.5320608641274
  0
ARC
  5
CCE
330
BF3
100
AcDbEntity
  8
Widoczne (ISO)
100
AcDbCircle
 10
548.538214331208
 20
-284.0346855971288
 30
0.0
 40
21.00000000000001
100
AcDbArc
 50
273.2935356261052
 51
311.3245843901442
  0
ARC
  5
CCF
330
BF3
100
AcDbEntity
  8
Widoczne (ISO)
100
AcDbCircle
 10
550.9511726721012
 20
-284.0346855971288
 30
0.0
 40
21.00000000000002
100
AcDbArc
 50
228.6754156098558
 51
266.7064643738947
  0
LINE
  5
CD0
330
BF3
100
AcDbEntity
  8
Widoczne wąskie (ISO)
100
AcDbLine
 10
632.4049206043537
 20
-299.8052839048178
 30
0.0
 11
607.0842726873106
 21
-299.8052839048178
 31
0.0
  0
ARC
  5
CD1
330
BF3
100
AcDbEntity
  8
Widoczne (ISO)
100
AcDbCircle
 10
607.7445966458317
 20
-299.0543030330227
 30
0.0
 40
1.0
100
AcDbArc
 50
206.4679391358726
 51
228.6754156098167
  0
ARC
  5
CD2
330
BF3
100
AcDbEntity
  8
Widoczne (ISO)
100
AcDbCircle
 10
631.7445966458317
 20
-299.0543030330227
 30
0.0
 40
1.0
100
AcDbArc
 50
311.3245843901834
 51
333.5320608641274
  0
ARC
  5
CD3
330
BF3
100
AcDbEntity
  8
Widoczne (ISO)
100
AcDbCircle
 10
618.5381174753866
 20
-284.0346855971302
 30
0.0
 40
21.00000000000001
100
AcDbArc
 50
273.2935356261052
 51
311.3245843901442
  0
ARC
  5
CD4
330
BF3
100
AcDbEntity
  8
Widoczne (ISO)
100
AcDbCircle
 10
620.9510758162768
 20
-284.0346855971302
 30
0.0
 40
21.00000000000002
100
AcDbArc
 50
228.6754156098558
 51
266.7064643738947
  0
LINE
  5
CD5
330
BF3
100
AcDbEntity
  8
Widoczne wąskie (ISO)
100
AcDbLine
 10
842.4046300369299
 20
-280.8052839048118
 30
0.0
 11
817.0839821198851
 21
-280.8052839048118
 31
0.0
  0
ARC
  5
CD6
330
BF3
100
AcDbEntity
  8
Widoczne (ISO)
100
AcDbCircle
 10
817.744306078408
 20
-280.0543030330168
 30
0.0
 40
1.0
100
AcDbArc
 50
206.467939136362
 51
228.6754156098167
  0
ARC
  5
CD7
330
BF3
100
AcDbEntity
  8
Widoczne (ISO)
100
AcDbCircle
 10
841.7443060784071
 20
-280.0543030330168
 30
0.0
 40
1.0
100
AcDbArc
 50
311.3245843901834
 51
333.532060863638
  0
ARC
  5
CD8
330
BF3
100
AcDbEntity
  8
Widoczne (ISO)
100
AcDbCircle
 10
828.5378269079611
 20
-265.0346855971238
 30
0.0
 40
21.0
100
AcDbArc
 50
273.2935356261052
 51
311.3245843901442
  0
ARC
  5
CD9
330
BF3
100
AcDbEntity
  8
Widoczne (ISO)
100
AcDbCircle
 10
830.9507852488541
 20
-265.0346855971238
 30
0.0
 40
21.0
100
AcDbArc
 50
228.6754156098558
 51
266.7064643738947
  0
LINE
  5
CDA
330
BF3
100
AcDbEntity
  8
Widoczne wąskie (ISO)
100
AcDbLine
 10
324.410032928421
 20
280.805283904815
 30
0.0
 11
349.730680845465
 21
280.805283904815
 31
0.0
  0
ARC
  5
CDB
330
BF3
100
AcDbEntity
  8
Widoczne (ISO)
100
AcDbCircle
 10
349.0703568869431
 20
280.05430303302
 30
0.0
 40
1.0
100
AcDbArc
 50
26.4679391363853
 51
48.67541560985576
  0
ARC
  5
CDC
330
BF3
100
AcDbEntity
  8
Widoczne (ISO)
100
AcDbCircle
 10
325.070356886943
 20
280.05430303302
 30
0.0
 40
1.0
100
AcDbArc
 50
131.3245843901442
 51
153.5320608636147
  0
ARC
  5
CDD
330
BF3
100
AcDbEntity
  8
Widoczne (ISO)
100
AcDbCircle
 10
338.2768360573891
 20
265.034685597127
 30
0.0
 40
21.0
100
AcDbArc
 50
93.29353562610526
 51
131.3245843901442
  0
ARC
  5
CDE
330
BF3
100
AcDbEntity
  8
Widoczne (ISO)
100
AcDbCircle
 10
335.8638777164961
 20
265.034685597127
 30
0.0
 40
21.0
100
AcDbArc
 50
48.67541560985576
 51
86.70646437389473
  0
LINE
  5
CDF
330
BF3
100
AcDbEntity
  8
Widoczne wąskie (ISO)
100
AcDbLine
 10
194.935032932176
 20
280.805283904815
 30
0.0
 11
220.25568084922
 21
280.805283904815
 31
0.0
  0
ARC
  5
CE0
330
BF3
100
AcDbEntity
  8
Widoczne (ISO)
100
AcDbCircle
 10
219.5953568906971
 20
280.05430303302
 30
0.0
 40
1.0
100
AcDbArc
 50
26.4679391363853
 51
48.67541560985576
  0
ARC
  5
CE1
330
BF3
100
AcDbEntity
  8
Widoczne (ISO)
100
AcDbCircle
 10
195.595356890698
 20
280.05430303302
 30
0.0
 40
1.0
100
AcDbArc
 50
131.3245843901442
 51
153.5320608636147
  0
ARC
  5
CE2
330
BF3
100
AcDbEntity
  8
Widoczne (ISO)
100
AcDbCircle
 10
208.8018360611441
 20
265.034685597127
 30
0.0
 40
21.0
100
AcDbArc
 50
93.29353562610526
 51
131.3245843901442
  0
ARC
  5
CE3
330
BF3
100
AcDbEntity
  8
Widoczne (ISO)
100
AcDbCircle
 10
206.388877720251
 20
265.034685597127
 30
0.0
 40
21.0
100
AcDbArc
 50
48.67541560985576
 51
86.70646437389473
  0
LINE
  5
CE4
330
BF3
100
AcDbEntity
  8
Widoczne wąskie (ISO)
100
AcDbLine
 10
55.46003293217563
 20
290.8052839048151
 30
0.0
 11
80.78068084921961
 21
290.8052839048151
 31
0.0
  0
ARC
  5
CE5
330
BF3
100
AcDbEntity
  8
Widoczne (ISO)
100
AcDbCircle
 10
80.12035689069671
 20
290.05430303302
 30
0.0
 40
0.9999999999999992
100
AcDbArc
 50
26.4679391363853
 51
48.67541560985576
  0
ARC
  5
CE6
330
BF3
100
AcDbEntity
  8
Widoczne (ISO)
100
AcDbCircle
 10
56.12035689069671
 20
290.05430303302
 30
0.0
 40
0.9999999999999996
100
AcDbArc
 50
131.3245843901442
 51
153.5320608636147
  0
ARC
  5
CE7
330
BF3
100
AcDbEntity
  8
Widoczne (ISO)
100
AcDbCircle
 10
69.32683606114278
 20
275.034685597127
 30
0.0
 40
20.99999999999999
100
AcDbArc
 50
93.29353562610526
 51
131.3245843901442
  0
ARC
  5
CE8
330
BF3
100
AcDbEntity
  8
Widoczne (ISO)
100
AcDbCircle
 10
66.91387772025064
 20
275.034685597127
 30
0.0
 40
21.0
100
AcDbArc
 50
48.67541560985576
 51
86.70646437389473
  0
LINE
  5
CE9
330
BF3
100
AcDbEntity
  8
Widoczne wąskie (ISO)
100
AcDbLine
 10
-116.8192841289492
 20
290.8052839048151
 30
0.0
 11
-91.49863621190524
 21
290.8052839048151
 31
0.0
  0
ARC
  5
CEA
330
BF3
100
AcDbEntity
  8
Widoczne (ISO)
100
AcDbCircle
 10
-92.15896017042723
 20
290.05430303302
 30
0.0
 40
1.000000000000003
100
AcDbArc
 50
26.4679391363853
 51
48.67541560985576
  0
ARC
  5
CEB
330
BF3
100
AcDbEntity
  8
Widoczne (ISO)
100
AcDbCircle
 10
-116.1589601704272
 20
290.05430303302
 30
0.0
 40
1.000000000000005
100
AcDbArc
 50
131.3245843901442
 51
153.5320608636147
  0
ARC
  5
CEC
330
BF3
100
AcDbEntity
  8
Widoczne (ISO)
100
AcDbCircle
 10
-102.9524809999811
 20
275.034685597127
 30
0.0
 40
21.00000000000008
100
AcDbArc
 50
93.29353562610526
 51
131.3245843901442
  0
ARC
  5
CED
330
BF3
100
AcDbEntity
  8
Widoczne (ISO)
100
AcDbCircle
 10
-105.3654393408724
 20
275.034685597127
 30
0.0
 40
21.00000000000015
100
AcDbArc
 50
48.67541560985576
 51
86.70646437389473
  0
LINE
  5
CEE
330
BF3
100
AcDbEntity
  8
Widoczne wąskie (ISO)
100
AcDbLine
 10
-296.9716808428993
 20
280.805283904815
 30
0.0
 11
-271.6510329258554
 21
280.805283904815
 31
0.0
  0
ARC
  5
CEF
330
BF3
100
AcDbEntity
  8
Widoczne (ISO)
100
AcDbCircle
 10
-272.3113568843764
 20
280.05430303302
 30
0.0
 40
1.000000000000002
100
AcDbArc
 50
26.4679391363853
 51
48.67541560985576
  0
ARC
  5
CF0
330
BF3
100
AcDbEntity
  8
Widoczne (ISO)
100
AcDbCircle
 10
-296.3113568843764
 20
280.05430303302
 30
0.0
 40
1.000000000000005
100
AcDbArc
 50
131.3245843902005
 51
153.532060863638
  0
ARC
  5
CF1
330
BF3
100
AcDbEntity
  8
Widoczne (ISO)
100
AcDbCircle
 10
-283.1048777139304
 20
265.034685597127
 30
0.0
 40
21.00000000000008
100
AcDbArc
 50
93.29353562610526
 51
131.3245843901442
  0
ARC
  5
CF2
330
BF3
100
AcDbEntity
  8
Widoczne (ISO)
100
AcDbCircle
 10
-285.5178360548234
 20
265.034685597127
 30
0.0
 40
21.00000000000014
100
AcDbArc
 50
48.67541560985576
 51
86.70646437389473
  0
LINE
  5
CF3
330
BF3
100
AcDbEntity
  8
Widoczne wąskie (ISO)
100
AcDbLine
 10
-467.1943543508241
 20
280.805283904815
 30
0.0
 11
-441.8737064337801
 21
280.805283904815
 31
0.0
  0
ARC
  5
CF4
330
BF3
100
AcDbEntity
  8
Widoczne (ISO)
100
AcDbCircle
 10
-442.5340303923021
 20
280.05430303302
 30
0.0
 40
1.000000000000002
100
AcDbArc
 50
26.4679391363853
 51
48.67541560985576
  0
ARC
  5
CF5
330
BF3
100
AcDbEntity
  8
Widoczne (ISO)
100
AcDbCircle
 10
-466.5340303923021
 20
280.05430303302
 30
0.0
 40
1.000000000000003
100
AcDbArc
 50
131.3245843902005
 51
153.532060863638
  0
ARC
  5
CF6
330
BF3
100
AcDbEntity
  8
Widoczne (ISO)
100
AcDbCircle
 10
-453.3275512218551
 20
265.034685597127
 30
0.0
 40
21.00000000000007
100
AcDbArc
 50
93.29353562610526
 51
131.3245843901442
  0
ARC
  5
CF7
330
BF3
100
AcDbEntity
  8
Widoczne (ISO)
100
AcDbCircle
 10
-455.7405095627482
 20
265.034685597127
 30
0.0
 40
21.00000000000012
100
AcDbArc
 50
48.67541560985576
 51
86.70646437389473
  0
LINE
  5
CF8
330
BF3
100
AcDbEntity
  8
Widoczne wąskie (ISO)
100
AcDbLine
 10
-637.4178384499109
 20
280.805283904815
 30
0.0
 11
-612.0971905328669
 21
280.805283904815
 31
0.0
  0
ARC
  5
CF9
330
BF3
100
AcDbEntity
  8
Widoczne (ISO)
100
AcDbCircle
 10
-612.7575144913881
 20
280.05430303302
 30
0.0
 40
1.000000000000002
100
AcDbArc
 50
26.4679391363853
 51
48.67541560985576
  0
ARC
  5
CFA
330
BF3
100
AcDbEntity
  8
Widoczne (ISO)
100
AcDbCircle
 10
-636.757514491389
 20
280.05430303302
 30
0.0
 40
1.000000000000003
100
AcDbArc
 50
131.3245843901442
 51
153.532060863638
  0
ARC
  5
CFB
330
BF3
100
AcDbEntity
  8
Widoczne (ISO)
100
AcDbCircle
 10
-623.5510353209429
 20
265.034685597127
 30
0.0
 40
21.00000000000007
100
AcDbArc
 50
93.29353562610526
 51
131.3245843901442
  0
ARC
  5
CFC
330
BF3
100
AcDbEntity
  8
Widoczne (ISO)
100
AcDbCircle
 10
-625.9639936618346
 20
265.034685597127
 30
0.0
 40
21.00000000000011
100
AcDbArc
 50
48.67541560985576
 51
86.70646437389473
  0
LINE
  5
CFD
330
BF3
100
AcDbEntity
  8
Widoczne wąskie (ISO)
100
AcDbLine
 10
-807.641322117101
 20
290.8052839048141
 30
0.0
 11
-782.3206742000565
 21
290.8052839048141
 31
0.0
  0
ARC
  5
CFE
330
BF3
100
AcDbEntity
  8
Widoczne (ISO)
100
AcDbCircle
 10
-782.980998158579
 20
290.05430303302
 30
0.0
 40
1.000000000000002
100
AcDbArc
 50
26.4679391363853
 51
48.67541560985576
  0
ARC
  5
CFF
330
BF3
100
AcDbEntity
  8
Widoczne (ISO)
100
AcDbCircle
 10
-806.9809981585789
 20
290.05430303302
 30
0.0
 40
1.000000000000003
100
AcDbArc
 50
131.3245843902005
 51
153.532060863638
  0
ARC
  5
D00
330
BF3
100
AcDbEntity
  8
Widoczne (ISO)
100
AcDbCircle
 10
-793.7745189881329
 20
275.034685597127
 30
0.0
 40
21.00000000000007
100
AcDbArc
 50
93.29353562610526
 51
131.3245843901442
  0
ARC
  5
D01
330
BF3
100
AcDbEntity
  8
Widoczne (ISO)
100
AcDbCircle
 10
-796.1874773290246
 20
275.034685597127
 30
0.0
 40
21.00000000000012
100
AcDbArc
 50
48.67541560985576
 51
86.70646437389473
  0
LINE
  5
D02
330
BF3
100
AcDbEntity
  8
Widoczne wąskie (ISO)
100
AcDbLine
 10
-941.101493968275
 20
290.8052839048141
 30
0.0
 11
-915.780846051231
 21
290.8052839048141
 31
0.0
  0
ARC
  5
D03
330
BF3
100
AcDbEntity
  8
Widoczne (ISO)
100
AcDbCircle
 10
-916.4411700097526
 20
290.05430303302
 30
0.0
 40
1.000000000000003
100
AcDbArc
 50
26.4679391363853
 51
48.67541560985576
  0
ARC
  5
D04
330
BF3
100
AcDbEntity
  8
Widoczne (ISO)
100
AcDbCircle
 10
-940.4411700097526
 20
290.05430303302
 30
0.0
 40
1.000000000000005
100
AcDbArc
 50
131.3245843901442
 51
153.5320608636147
  0
ARC
  5
D05
330
BF3
100
AcDbEntity
  8
Widoczne (ISO)
100
AcDbCircle
 10
-927.2346908393073
 20
275.034685597127
 30
0.0
 40
21.00000000000009
100
AcDbArc
 50
93.29353562610526
 51
131.3245843901442
  0
ARC
  5
D06
330
BF3
100
AcDbEntity
  8
Widoczne (ISO)
100
AcDbCircle
 10
-929.6476491801991
 20
275.034685597127
 30
0.0
 40
21.00000000000015
100
AcDbArc
 50
48.67541560985576
 51
86.70646437389473
  0
LINE
  5
D07
330
BF3
100
AcDbEntity
  8
Widoczne wąskie (ISO)
100
AcDbLine
 10
-1156.46676740473
 20
280.8052839048141
 30
0.0
 11
-1131.146119487686
 21
280.8052839048141
 31
0.0
  0
ARC
  5
D08
330
BF3
100
AcDbEntity
  8
Widoczne (ISO)
100
AcDbCircle
 10
-1131.806443446208
 20
280.0543030330191
 30
0.0
 40
1.000000000000002
100
AcDbArc
 50
26.4679391363853
 51
48.67541560985576
  0
ARC
  5
D09
330
BF3
100
AcDbEntity
  8
Widoczne (ISO)
100
AcDbCircle
 10
-1155.806443446208
 20
280.0543030330191
 30
0.0
 40
1.000000000000003
100
AcDbArc
 50
131.3245843901442
 51
153.532060863638
  0
ARC
  5
D0A
330
BF3
100
AcDbEntity
  8
Widoczne (ISO)
100
AcDbCircle
 10
-1142.599964275761
 20
265.0346855971261
 30
0.0
 40
21.00000000000008
100
AcDbArc
 50
93.29353562610526
 51
131.3245843901442
  0
ARC
  5
D0B
330
BF3
100
AcDbEntity
  8
Widoczne (ISO)
100
AcDbCircle
 10
-1145.012922616654
 20
265.0346855971261
 30
0.0
 40
21.00000000000013
100
AcDbArc
 50
48.67541560985576
 51
86.70646437389473
  0
LINE
  5
D0C
330
BF3
100
AcDbEntity
  8
Widoczne wąskie (ISO)
100
AcDbLine
 10
-1382.720107499587
 20
280.8052839048141
 30
0.0
 11
-1357.399459582542
 21
280.8052839048141
 31
0.0
  0
ARC
  5
D0D
330
BF3
100
AcDbEntity
  8
Widoczne (ISO)
100
AcDbCircle
 10
-1358.059783541065
 20
280.0543030330191
 30
0.0
 40
1.000000000000002
100
AcDbArc
 50
26.4679391363853
 51
48.67541560987297
  0
ARC
  5
D0E
330
BF3
100
AcDbEntity
  8
Widoczne (ISO)
100
AcDbCircle
 10
-1382.059783541065
 20
280.0543030330191
 30
0.0
 40
1.000000000000003
100
AcDbArc
 50
131.3245843901442
 51
153.532060863638
  0
ARC
  5
D0F
330
BF3
100
AcDbEntity
  8
Widoczne (ISO)
100
AcDbCircle
 10
-1368.853304370619
 20
265.0346855971261
 30
0.0
 40
21.00000000000008
100
AcDbArc
 50
93.29353562610526
 51
131.3245843901442
  0
ARC
  5
D10
330
BF3
100
AcDbEntity
  8
Widoczne (ISO)
100
AcDbCircle
 10
-1371.266262711511
 20
265.0346855971261
 30
0.0
 40
21.00000000000013
100
AcDbArc
 50
48.67541560985576
 51
86.70646437389473
  0
LINE
  5
D11
330
BF3
100
AcDbEntity
  8
Widoczne wąskie (ISO)
100
AcDbLine
 10
-1581.304276483209
 20
280.8052839048141
 30
0.0
 11
-1555.983628566165
 21
280.8052839048141
 31
0.0
  0
ARC
  5
D12
330
BF3
100
AcDbEntity
  8
Widoczne (ISO)
100
AcDbCircle
 10
-1556.643952524687
 20
280.0543030330191
 30
0.0
 40
1.000000000000001
100
AcDbArc
 50
26.4679391363853
 51
48.67541560987297
  0
ARC
  5
D13
330
BF3
100
AcDbEntity
  8
Widoczne (ISO)
100
AcDbCircle
 10
-1580.643952524687
 20
280.0543030330191
 30
0.0
 40
1.000000000000002
100
AcDbArc
 50
131.324584390127
 51
153.5320608636147
  0
ARC
  5
D14
330
BF3
100
AcDbEntity
  8
Widoczne (ISO)
100
AcDbCircle
 10
-1567.437473354241
 20
265.0346855971261
 30
0.0
 40
21.00000000000005
100
AcDbArc
 50
93.29353562610526
 51
131.3245843901442
  0
ARC
  5
D15
330
BF3
100
AcDbEntity
  8
Widoczne (ISO)
100
AcDbCircle
 10
-1569.850431695133
 20
265.0346855971261
 30
0.0
 40
21.00000000000009
100
AcDbArc
 50
48.67541560985576
 51
86.70646437389473
  0
LINE
  5
D16
330
BF3
100
AcDbEntity
  8
Widoczne wąskie (ISO)
100
AcDbLine
 10
-1673.991999655263
 20
280.8052839048141
 30
0.0
 11
-1648.67135173822
 21
280.8052839048141
 31
0.0
  0
ARC
  5
D17
330
BF3
100
AcDbEntity
  8
Widoczne (ISO)
100
AcDbCircle
 10
-1649.331675696742
 20
280.0543030330191
 30
0.0
 40
1.000000000000001
100
AcDbArc
 50
26.4679391363853
 51
48.67541560987297
  0
ARC
  5
D18
330
BF3
100
AcDbEntity
  8
Widoczne (ISO)
100
AcDbCircle
 10
-1673.331675696742
 20
280.0543030330191
 30
0.0
 40
1.000000000000001
100
AcDbArc
 50
131.3245843901442
 51
153.532060863638
  0
ARC
  5
D19
330
BF3
100
AcDbEntity
  8
Widoczne (ISO)
100
AcDbCircle
 10
-1660.125196526296
 20
265.0346855971261
 30
0.0
 40
21.00000000000006
100
AcDbArc
 50
93.29353562610526
 51
131.3245843901442
  0
ARC
  5
D1A
330
BF3
100
AcDbEntity
  8
Widoczne (ISO)
100
AcDbCircle
 10
-1662.538154867188
 20
265.0346855971261
 30
0.0
 40
21.00000000000008
100
AcDbArc
 50
48.67541560985576
 51
86.70646437389473
  0
LINE
  5
D1B
330
BF3
100
AcDbEntity
  8
Widoczne wąskie (ISO)
100
AcDbLine
 10
-1555.185334275396
 20
-280.8052839048155
 30
0.0
 11
-1580.50598219244
 21
-280.8052839048155
 31
0.0
  0
ARC
  5
D1C
330
BF3
100
AcDbEntity
  8
Widoczne (ISO)
100
AcDbCircle
 10
-1579.845658233919
 20
-280.0543030330205
 30
0.0
 40
1.000000000000001
100
AcDbArc
 50
206.467939136362
 51
228.6754156097995
  0
ARC
  5
D1D
330
BF3
100
AcDbEntity
  8
Widoczne (ISO)
100
AcDbCircle
 10
-1555.845658233919
 20
-280.0543030330205
 30
0.0
 40
1.000000000000001
100
AcDbArc
 50
311.3245843901834
 51
333.532060863638
  0
ARC
  5
D1E
330
BF3
100
AcDbEntity
  8
Widoczne (ISO)
100
AcDbCircle
 10
-1569.052137404365
 20
-265.034685597127
 30
0.0
 40
21.00000000000004
100
AcDbArc
 50
273.2935356261052
 51
311.3245843901442
  0
ARC
  5
D1F
330
BF3
100
AcDbEntity
  8
Widoczne (ISO)
100
AcDbCircle
 10
-1566.639179063473
 20
-265.034685597127
 30
0.0
 40
21.00000000000007
100
AcDbArc
 50
228.6754156098558
 51
266.7064643738947
  0
LINE
  5
D20
330
BF3
100
AcDbEntity
  8
Widoczne wąskie (ISO)
100
AcDbLine
 10
-1356.637574677459
 20
-280.8052839048155
 30
0.0
 11
-1381.958222594503
 21
-280.8052839048155
 31
0.0
  0
ARC
  5
D21
330
BF3
100
AcDbEntity
  8
Widoczne (ISO)
100
AcDbCircle
 10
-1381.297898635981
 20
-280.0543030330205
 30
0.0
 40
1.000000000000001
100
AcDbArc
 50
206.467939136362
 51
228.6754156098167
  0
ARC
  5
D22
330
BF3
100
AcDbEntity
  8
Widoczne (ISO)
100
AcDbCircle
 10
-1357.297898635981
 20
-280.0543030330205
 30
0.0
 40
1.000000000000001
100
AcDbArc
 50
311.3245843901834
 51
333.532060863638
  0
ARC
  5
D23
330
BF3
100
AcDbEntity
  8
Widoczne (ISO)
100
AcDbCircle
 10
-1370.504377806427
 20
-265.034685597127
 30
0.0
 40
21.00000000000004
100
AcDbArc
 50
273.2935356261052
 51
311.3245843901442
  0
ARC
  5
D24
330
BF3
100
AcDbEntity
  8
Widoczne (ISO)
100
AcDbCircle
 10
-1368.091419465536
 20
-265.034685597127
 30
0.0
 40
21.00000000000006
100
AcDbArc
 50
228.6754156098558
 51
266.7064643738947
  0
LINE
  5
D25
330
BF3
100
AcDbEntity
  8
Widoczne wąskie (ISO)
100
AcDbLine
 10
-1130.43486458449
 20
-280.8052839048155
 30
0.0
 11
-1155.755512501535
 21
-280.8052839048155
 31
0.0
  0
ARC
  5
D26
330
BF3
100
AcDbEntity
  8
Widoczne (ISO)
100
AcDbCircle
 10
-1155.095188543012
 20
-280.0543030330205
 30
0.0
 40
1.000000000000002
100
AcDbArc
 50
206.467939136362
 51
228.6754156098558
  0
ARC
  5
D27
330
BF3
100
AcDbEntity
  8
Widoczne (ISO)
100
AcDbCircle
 10
-1131.095188543012
 20
-280.0543030330205
 30
0.0
 40
1.000000000000003
100
AcDbArc
 50
311.3245843901834
 51
333.532060863638
  0
ARC
  5
D28
330
BF3
100
AcDbEntity
  8
Widoczne (ISO)
100
AcDbCircle
 10
-1144.301667713459
 20
-265.034685597127
 30
0.0
 40
21.00000000000007
100
AcDbArc
 50
273.2935356261052
 51
311.3245843901442
  0
ARC
  5
D29
330
BF3
100
AcDbEntity
  8
Widoczne (ISO)
100
AcDbCircle
 10
-1141.888709372567
 20
-265.034685597127
 30
0.0
 40
21.00000000000012
100
AcDbArc
 50
228.6754156098558
 51
266.7064643738947
  0
LINE
  5
D2A
330
BF3
100
AcDbEntity
  8
Widoczne wąskie (ISO)
100
AcDbLine
 10
-915.3889133892681
 20
-290.8052839048169
 30
0.0
 11
-940.709561306312
 21
-290.8052839048169
 31
0.0
  0
ARC
  5
D2B
330
BF3
100
AcDbEntity
  8
Widoczne (ISO)
100
AcDbCircle
 10
-940.04923734779
 20
-290.0543030330218
 30
0.0
 40
1.000000000000001
100
AcDbArc
 50
206.467939136362
 51
228.6754156098558
  0
ARC
  5
D2C
330
BF3
100
AcDbEntity
  8
Widoczne (ISO)
100
AcDbCircle
 10
-916.0492373477886
 20
-290.0543030330218
 30
0.0
 40
1.000000000000002
100
AcDbArc
 50
311.3245843901834
 51
333.532060863638
  0
ARC
  5
D2D
330
BF3
100
AcDbEntity
  8
Widoczne (ISO)
100
AcDbCircle
 10
-929.2557165182348
 20
-275.0346855971288
 30
0.0
 40
21.00000000000005
100
AcDbArc
 50
273.2935356261052
 51
311.3245843901442
  0
ARC
  5
D2E
330
BF3
100
AcDbEntity
  8
Widoczne (ISO)
100
AcDbCircle
 10
-926.8427581773435
 20
-275.0346855971288
 30
0.0
 40
21.00000000000011
100
AcDbArc
 50
228.6754156098558
 51
266.7064643738947
  0
LINE
  5
D2F
330
BF3
100
AcDbEntity
  8
Widoczne wąskie (ISO)
100
AcDbLine
 10
-782.3210249359449
 20
-290.8052839048155
 30
0.0
 11
-807.6416728529903
 21
-290.8052839048155
 31
0.0
  0
ARC
  5
D30
330
BF3
100
AcDbEntity
  8
Widoczne (ISO)
100
AcDbCircle
 10
-806.9813488944669
 20
-290.0543030330218
 30
0.0
 40
0.9999999999999992
100
AcDbArc
 50
206.467939136362
 51
228.6754156098167
  0
ARC
  5
D31
330
BF3
100
AcDbEntity
  8
Widoczne (ISO)
100
AcDbCircle
 10
-782.9813488944669
 20
-290.0543030330218
 30
0.0
 40
1.0
100
AcDbArc
 50
311.3245843901834
 51
333.532060863638
  0
ARC
  5
D32
330
BF3
100
AcDbEntity
  8
Widoczne (ISO)
100
AcDbCircle
 10
-796.1878280649125
 20
-275.0346855971275
 30
0.0
 40
21.0
100
AcDbArc
 50
273.2935356261052
 51
311.3245843901442
  0
ARC
  5
D33
330
BF3
100
AcDbEntity
  8
Widoczne (ISO)
100
AcDbCircle
 10
-793.7748697240208
 20
-275.0346855971275
 30
0.0
 40
21.00000000000003
100
AcDbArc
 50
228.6754156098558
 51
266.7064643738947
  0
LINE
  5
D34
330
BF3
100
AcDbEntity
  8
Widoczne wąskie (ISO)
100
AcDbLine
 10
-612.0975086381909
 20
-280.805283904815
 30
0.0
 11
-637.4181565552362
 21
-280.805283904815
 31
0.0
  0
ARC
  5
D35
330
BF3
100
AcDbEntity
  8
Widoczne (ISO)
100
AcDbCircle
 10
-636.7578325967137
 20
-280.0543030330205
 30
0.0
 40
0.9999999999999987
100
AcDbArc
 50
206.467939136362
 51
228.6754156098167
  0
ARC
  5
D36
330
BF3
100
AcDbEntity
  8
Widoczne (ISO)
100
AcDbCircle
 10
-612.7578325967138
 20
-280.0543030330205
 30
0.0
 40
1.0
100
AcDbArc
 50
311.3245843901834
 51
333.532060863638
  0
ARC
  5
D37
330
BF3
100
AcDbEntity
  8
Widoczne (ISO)
100
AcDbCircle
 10
-625.9643117671589
 20
-265.034685597127
 30
0.0
 40
20.99999999999999
100
AcDbArc
 50
273.2935356261052
 51
311.3245843901442
  0
ARC
  5
D38
330
BF3
100
AcDbEntity
  8
Widoczne (ISO)
100
AcDbCircle
 10
-623.5513534262672
 20
-265.034685597127
 30
0.0
 40
21.00000000000001
100
AcDbArc
 50
228.6754156098558
 51
266.7064643738947
  0
LINE
  5
D39
330
BF3
100
AcDbEntity
  8
Widoczne wąskie (ISO)
100
AcDbLine
 10
-441.8739919085401
 20
-280.805283904815
 30
0.0
 11
-467.1946398255845
 21
-280.805283904815
 31
0.0
  0
ARC
  5
D3A
330
BF3
100
AcDbEntity
  8
Widoczne (ISO)
100
AcDbCircle
 10
-466.534315867063
 20
-280.0543030330205
 30
0.0
 40
0.9999999999999996
100
AcDbArc
 50
206.467939136362
 51
228.6754156098167
  0
ARC
  5
D3B
330
BF3
100
AcDbEntity
  8
Widoczne (ISO)
100
AcDbCircle
 10
-442.534315867063
 20
-280.0543030330205
 30
0.0
 40
1.0
100
AcDbArc
 50
311.3245843901834
 51
333.532060863638
  0
ARC
  5
D3C
330
BF3
100
AcDbEntity
  8
Widoczne (ISO)
100
AcDbCircle
 10
-455.7407950375091
 20
-265.034685597127
 30
0.0
 40
21.0
100
AcDbArc
 50
273.2935356261052
 51
311.3245843901442
  0
ARC
  5
D3D
330
BF3
100
AcDbEntity
  8
Widoczne (ISO)
100
AcDbCircle
 10
-453.327836696615
 20
-265.034685597127
 30
0.0
 40
21.00000000000001
100
AcDbArc
 50
228.6754156098558
 51
266.7064643738947
  0
LINE
  5
D3E
330
BF3
100
AcDbEntity
  8
Widoczne wąskie (ISO)
100
AcDbLine
 10
-271.6512857702082
 20
-280.805283904815
 30
0.0
 11
-296.9719336872522
 21
-280.805283904815
 31
0.0
  0
ARC
  5
D3F
330
BF3
100
AcDbEntity
  8
Widoczne (ISO)
100
AcDbCircle
 10
-296.3116097287302
 20
-280.0543030330205
 30
0.0
 40
0.9999999999999996
100
AcDbArc
 50
206.467939136362
 51
228.6754156098167
  0
ARC
  5
D40
330
BF3
100
AcDbEntity
  8
Widoczne (ISO)
100
AcDbCircle
 10
-272.3116097287311
 20
-280.0543030330205
 30
0.0
 40
0.9999999999999996
100
AcDbArc
 50
311.3245843901834
 51
333.532060863638
  0
ARC
  5
D41
330
BF3
100
AcDbEntity
  8
Widoczne (ISO)
100
AcDbCircle
 10
-285.5180888991772
 20
-265.034685597127
 30
0.0
 40
21.0
100
AcDbArc
 50
273.2935356261052
 51
311.3245843901442
  0
ARC
  5
D42
330
BF3
100
AcDbEntity
  8
Widoczne (ISO)
100
AcDbCircle
 10
-283.1051305582851
 20
-265.034685597127
 30
0.0
 40
21.0
100
AcDbArc
 50
228.6754156098558
 51
266.7064643738947
  0
LINE
  5
D43
330
BF3
100
AcDbEntity
  8
Widoczne wąskie (ISO)
100
AcDbLine
 10
-91.49885452240505
 20
-290.8052839048155
 30
0.0
 11
-116.8195024394508
 21
-290.8052839048155
 31
0.0
  0
ARC
  5
D44
330
BF3
100
AcDbEntity
  8
Widoczne (ISO)
100
AcDbCircle
 10
-116.1591784809279
 20
-290.0543030330218
 30
0.0
 40
1.0
100
AcDbArc
 50
206.467939136362
 51
228.6754156098167
  0
ARC
  5
D45
330
BF3
100
AcDbEntity
  8
Widoczne (ISO)
100
AcDbCircle
 10
-92.15917848092976
 20
-290.0543030330218
 30
0.0
 40
0.9999999999999998
100
AcDbArc
 50
311.3245843901834
 51
333.532060863638
  0
ARC
  5
D46
330
BF3
100
AcDbEntity
  8
Widoczne (ISO)
100
AcDbCircle
 10
-105.3656576513749
 20
-275.0346855971275
 30
0.0
 40
21.0
100
AcDbArc
 50
273.2935356261052
 51
311.3245843901442
  0
ARC
  5
D47
330
BF3
100
AcDbEntity
  8
Widoczne (ISO)
100
AcDbCircle
 10
-102.9526993104828
 20
-275.0346855971275
 30
0.0
 40
21.0
100
AcDbArc
 50
228.6754156098558
 51
266.7064643738947
  0
LINE
  5
D48
330
BF3
100
AcDbEntity
  8
Widoczne wąskie (ISO)
100
AcDbLine
 10
-1647.346742740803
 20
-280.8052839048155
 30
0.0
 11
-1672.667390657846
 21
-280.8052839048155
 31
0.0
  0
ARC
  5
D49
330
BF3
100
AcDbEntity
  8
Widoczne (ISO)
100
AcDbCircle
 10
-1672.007066699326
 20
-280.0543030330205
 30
0.0
 40
1.000000000000001
100
AcDbArc
 50
206.467939136362
 51
228.6754156098167
  0
ARC
  5
D4A
330
BF3
100
AcDbEntity
  8
Widoczne (ISO)
100
AcDbCircle
 10
-1648.007066699326
 20
-280.0543030330205
 30
0.0
 40
1.000000000000001
100
AcDbArc
 50
311.3245843901834
 51
333.532060863638
  0
ARC
  5
D4B
330
BF3
100
AcDbEntity
  8
Widoczne (ISO)
100
AcDbCircle
 10
-1661.213545869772
 20
-265.0346855971275
 30
0.0
 40
21.00000000000005
100
AcDbArc
 50
273.2935356261052
 51
311.3245843901442
  0
ARC
  5
D4C
330
BF3
100
AcDbEntity
  8
Widoczne (ISO)
100
AcDbCircle
 10
-1658.80058752888
 20
-265.0346855971275
 30
0.0
 40
21.00000000000007
100
AcDbArc
 50
228.6754156098558
 51
266.7064643738947
  0
LINE
  5
D4D
330
BF3
100
AcDbEntity
  8
Widoczne wąskie (ISO)
100
AcDbLine
 10
80.78068084546975
 20
-290.8052839048155
 30
0.0
 11
55.46003292842579
 21
-290.8052839048155
 31
0.0
  0
ARC
  5
D4E
330
BF3
100
AcDbEntity
  8
Widoczne (ISO)
100
AcDbCircle
 10
56.12035688694868
 20
-290.0543030330218
 30
0.0
 40
0.9999999999999955
100
AcDbArc
 50
206.467939136362
 51
228.6754156098167
  0
ARC
  5
D4F
330
BF3
100
AcDbEntity
  8
Widoczne (ISO)
100
AcDbCircle
 10
80.12035688694869
 20
-290.0543030330218
 30
0.0
 40
0.9999999999999978
100
AcDbArc
 50
311.3245843901834
 51
333.532060863638
  0
ARC
  5
D50
330
BF3
100
AcDbEntity
  8
Widoczne (ISO)
100
AcDbCircle
 10
66.9138777165017
 20
-275.0346855971275
 30
0.0
 40
20.9999999999999
100
AcDbArc
 50
273.2935356261052
 51
311.3245843901442
  0
ARC
  5
D51
330
BF3
100
AcDbEntity
  8
Widoczne (ISO)
100
AcDbCircle
 10
69.32683605739476
 20
-275.0346855971275
 30
0.0
 40
21.0
100
AcDbArc
 50
228.6754156098558
 51
266.7064643738947
  0
LINE
  5
D52
330
BF3
100
AcDbEntity
  8
Widoczne wąskie (ISO)
100
AcDbLine
 10
220.2556808454683
 20
-280.8052839048155
 30
0.0
 11
194.9350329284225
 21
-280.8052839048155
 31
0.0
  0
ARC
  5
D53
330
BF3
100
AcDbEntity
  8
Widoczne (ISO)
100
AcDbCircle
 10
195.5953568869454
 20
-280.0543030330205
 30
0.0
 40
0.9999999999999962
100
AcDbArc
 50
206.467939136362
 51
228.6754156098167
  0
ARC
  5
D54
330
BF3
100
AcDbEntity
  8
Widoczne (ISO)
100
AcDbCircle
 10
219.5953568869454
 20
-280.0543030330205
 30
0.0
 40
0.9999999999999978
100
AcDbArc
 50
311.3245843901834
 51
333.532060863638
  0
ARC
  5
D55
330
BF3
100
AcDbEntity
  8
Widoczne (ISO)
100
AcDbCircle
 10
206.3888777165002
 20
-265.0346855971275
 30
0.0
 40
20.99999999999993
100
AcDbArc
 50
273.2935356261052
 51
311.3245843901442
  0
ARC
  5
D56
330
BF3
100
AcDbEntity
  8
Widoczne (ISO)
100
AcDbCircle
 10
208.8018360573906
 20
-265.0346855971275
 30
0.0
 40
20.99999999999999
100
AcDbArc
 50
228.6754156098558
 51
266.7064643738947
  0
LINE
  5
D57
330
BF3
100
AcDbEntity
  8
Widoczne wąskie (ISO)
100
AcDbLine
 10
349.730680845465
 20
-280.8052839048155
 30
0.0
 11
324.410032928421
 21
-280.8052839048155
 31
0.0
  0
ARC
  5
D58
330
BF3
100
AcDbEntity
  8
Widoczne (ISO)
100
AcDbCircle
 10
325.070356886943
 20
-280.0543030330205
 30
0.0
 40
0.9999999999999996
100
AcDbArc
 50
206.467939136362
 51
228.6754156098167
  0
ARC
  5
D59
330
BF3
100
AcDbEntity
  8
Widoczne (ISO)
100
AcDbCircle
 10
349.0703568869431
 20
-280.0543030330205
 30
0.0
 40
0.9999999999999996
100
AcDbArc
 50
311.3245843901834
 51
333.532060863638
  0
ARC
  5
D5A
330
BF3
100
AcDbEntity
  8
Widoczne (ISO)
100
AcDbCircle
 10
335.8638777164979
 20
-265.034685597127
 30
0.0
 40
20.99999999999999
100
AcDbArc
 50
273.2935356261052
 51
311.3245843901442
  0
ARC
  5
D5B
330
BF3
100
AcDbEntity
  8
Widoczne (ISO)
100
AcDbCircle
 10
338.2768360573891
 20
-265.034685597127
 30
0.0
 40
21.0
100
AcDbArc
 50
228.6754156098558
 51
266.7064643738947
  0
LINE
  5
D5C
330
BF3
100
AcDbEntity
  8
Widoczne wąskie (ISO)
100
AcDbLine
 10
170.678680845278
 20
-280.8052839048137
 30
0.0
 11
145.358032928234
 21
-280.8052839048137
 31
0.0
  0
ARC
  5
D5D
330
BF3
100
AcDbEntity
  8
Widoczne (ISO)
100
AcDbCircle
 10
146.018356886756
 20
-280.05430303302
 30
0.0
 40
0.9999999999999971
100
AcDbArc
 50
206.467939136362
 51
228.6754156098167
  0
ARC
  5
D5E
330
BF3
100
AcDbEntity
  8
Widoczne (ISO)
100
AcDbCircle
 10
170.018356886756
 20
-280.05430303302
 30
0.0
 40
0.9999999999999987
100
AcDbArc
 50
311.3245843901834
 51
333.532060863638
  0
ARC
  5
D5F
330
BF3
100
AcDbEntity
  8
Widoczne (ISO)
100
AcDbCircle
 10
156.811877716309
 20
-265.0346855971256
 30
0.0
 40
20.99999999999993
100
AcDbArc
 50
273.2935356261052
 51
311.3245843901442
  0
ARC
  5
D60
330
BF3
100
AcDbEntity
  8
Widoczne (ISO)
100
AcDbCircle
 10
159.224836057202
 20
-265.0346855971256
 30
0.0
 40
21.0
100
AcDbArc
 50
228.6754156098558
 51
266.7064643738947
  0
LINE
  5
D61
330
BF3
100
AcDbEntity
  8
Widoczne wąskie (ISO)
100
AcDbLine
 10
145.358032928234
 20
280.805283904815
 30
0.0
 11
170.678680845278
 21
280.805283904815
 31
0.0
  0
ARC
  5
D62
330
BF3
100
AcDbEntity
  8
Widoczne (ISO)
100
AcDbCircle
 10
170.018356886756
 20
280.05430303302
 30
0.0
 40
0.9999999999999984
100
AcDbArc
 50
26.4679391363853
 51
48.67541560985576
  0
ARC
  5
D63
330
BF3
100
AcDbEntity
  8
Widoczne (ISO)
100
AcDbCircle
 10
146.018356886756
 20
280.05430303302
 30
0.0
 40
0.9999999999999996
100
AcDbArc
 50
131.3245843901442
 51
153.5320608636147
  0
ARC
  5
D64
330
BF3
100
AcDbEntity
  8
Widoczne (ISO)
100
AcDbCircle
 10
159.2248360572011
 20
265.034685597127
 30
0.0
 40
20.99999999999997
100
AcDbArc
 50
93.29353562610526
 51
131.3245843901442
  0
ARC
  5
D65
330
BF3
100
AcDbEntity
  8
Widoczne (ISO)
100
AcDbCircle
 10
156.811877716309
 20
265.034685597127
 30
0.0
 40
21.0
100
AcDbArc
 50
48.67541560985576
 51
86.70646437389473
  0
LINE
  5
D66
330
BF3
100
AcDbEntity
  8
Widoczne wąskie (ISO)
100
AcDbLine
 10
388.8487882208719
 20
299.805283904815
 30
0.0
 11
414.1694361379168
 21
299.805283904815
 31
0.0
  0
ARC
  5
D67
330
BF3
100
AcDbEntity
  8
Widoczne (ISO)
100
AcDbCircle
 10
413.5091121793948
 20
299.05430303302
 30
0.0
 40
1.0
100
AcDbArc
 50
26.4679391363853
 51
48.67541560985576
  0
ARC
  5
D68
330
BF3
100
AcDbEntity
  8
Widoczne (ISO)
100
AcDbCircle
 10
389.5091121793949
 20
299.05430303302
 30
0.0
 40
1.0
100
AcDbArc
 50
131.3245843901442
 51
153.5320608636147
  0
ARC
  5
D69
330
BF3
100
AcDbEntity
  8
Widoczne (ISO)
100
AcDbCircle
 10
402.71559134984
 20
284.034685597127
 30
0.0
 40
21.00000000000001
100
AcDbArc
 50
93.29353562610526
 51
131.3245843901442
  0
ARC
  5
D6A
330
BF3
100
AcDbEntity
  8
Widoczne (ISO)
100
AcDbCircle
 10
400.3026330089487
 20
284.034685597127
 30
0.0
 40
21.0
100
AcDbArc
 50
48.67541560985576
 51
86.70646437389473
  0
LINE
  5
D6B
330
BF3
100
AcDbEntity
  8
Widoczne wąskie (ISO)
100
AcDbLine
 10
414.1694361379168
 20
-299.8052839048155
 30
0.0
 11
388.8487882208719
 21
-299.8052839048155
 31
0.0
  0
ARC
  5
D6C
330
BF3
100
AcDbEntity
  8
Widoczne (ISO)
100
AcDbCircle
 10
389.5091121793949
 20
-299.0543030330218
 30
0.0
 40
1.0
100
AcDbArc
 50
206.467939136362
 51
228.6754156098167
  0
ARC
  5
D6D
330
BF3
100
AcDbEntity
  8
Widoczne (ISO)
100
AcDbCircle
 10
413.5091121793948
 20
-299.0543030330218
 30
0.0
 40
1.0
100
AcDbArc
 50
311.3245843901834
 51
333.532060863638
  0
ARC
  5
D6E
330
BF3
100
AcDbEntity
  8
Widoczne (ISO)
100
AcDbCircle
 10
400.3026330089478
 20
-284.0346855971274
 30
0.0
 40
21.00000000000001
100
AcDbArc
 50
273.2935356261052
 51
311.3245843901442
  0
ARC
  5
D6F
330
BF3
100
AcDbEntity
  8
Widoczne (ISO)
100
AcDbCircle
 10
402.71559134984
 20
-284.0346855971274
 30
0.0
 40
21.00000000000001
100
AcDbArc
 50
228.6754156098558
 51
266.7064643738947
  0
LINE
  5
D70
330
BF3
100
AcDbEntity
  8
Widoczne (ISO)
100
AcDbLine
 10
454.6187847063065
 20
245.9999999999995
 30
0.0
 11
436.163197607535
 21
245.9999999999995
 31
0.0
  0
LINE
  5
D71
330
BF3
100
AcDbEntity
  8
Widoczne (ISO)
100
AcDbLine
 10
204.3828858357365
 20
245.9999999999995
 30
0.0
 11
436.163197607535
 21
245.9999999999995
 31
0.0
  0
LINE
  5
D72
330
BF3
100
AcDbEntity
  8
Widoczne (ISO)
100
AcDbLine
 10
204.3828858357383
 20
245.9999999999995
 30
0.0
 11
78.20454998810873
 21
245.9999999999995
 31
0.0
  0
LINE
  5
D73
330
BF3
100
AcDbEntity
  8
Widoczne (ISO)
100
AcDbLine
 10
-88.61676498266934
 20
245.9999999999995
 30
0.0
 11
78.20454998810873
 21
245.9999999999995
 31
0.0
  0
LINE
  5
D74
330
BF3
100
AcDbEntity
  8
Widoczne (ISO)
100
AcDbLine
 10
454.6187847063065
 20
245.9999999999995
 30
0.0
 11
454.6187847063065
 21
265.0
 31
0.0
  0
LINE
  5
D75
330
BF3
100
AcDbEntity
  8
Widoczne (ISO)
100
AcDbLine
 10
436.163197607535
 20
265.0
 30
0.0
 11
451.2058436317775
 21
265.0
 31
0.0
  0
LINE
  5
D76
330
BF3
100
AcDbEntity
  8
Widoczne (ISO)
100
AcDbLine
 10
436.163197607535
 20
245.9999999999995
 30
0.0
 11
436.163197607535
 21
265.0
 31
0.0
  0
LINE
  5
D77
330
BF3
100
AcDbEntity
  8
Widoczne (ISO)
100
AcDbLine
 10
436.163197607535
 20
265.0
 30
0.0
 11
204.3828858357365
 21
265.0
 31
0.0
  0
LINE
  5
D78
330
BF3
100
AcDbEntity
  8
Widoczne (ISO)
100
AcDbLine
 10
204.3828858357365
 20
245.9999999999995
 30
0.0
 11
204.3828858357365
 21
265.0
 31
0.0
  0
LINE
  5
D79
330
BF3
100
AcDbEntity
  8
Widoczne (ISO)
100
AcDbLine
 10
78.20454998810873
 20
265.0
 30
0.0
 11
204.3828858357383
 21
265.0
 31
0.0
  0
LINE
  5
D7A
330
BF3
100
AcDbEntity
  8
Widoczne (ISO)
100
AcDbLine
 10
78.20454998810873
 20
265.0
 30
0.0
 11
-88.61676498266934
 21
265.0
 31
0.0
  0
LINE
  5
D7B
330
BF3
100
AcDbEntity
  8
Widoczne (ISO)
100
AcDbLine
 10
-88.61676498267115
 20
245.9999999999995
 30
0.0
 11
-88.61676498267115
 21
264.9999999999995
 31
0.0
  0
LINE
  5
D7C
330
BF3
100
AcDbEntity
  8
Widoczne (ISO)
100
AcDbLine
 10
78.20454998810783
 20
245.9999999999995
 30
0.0
 11
78.20454998810783
 21
265.0
 31
0.0
  0
LINE
  5
D7D
330
BF3
100
AcDbEntity
  8
Widoczne (ISO)
100
AcDbLine
 10
-88.61694485398221
 20
-246.0
 30
0.0
 11
78.2045499881151
 21
-246.0
 31
0.0
  0
LINE
  5
D7E
330
BF3
100
AcDbEntity
  8
Widoczne (ISO)
100
AcDbLine
 10
204.382885835741
 20
-246.0
 30
0.0
 11
78.2045499881151
 21
-246.0
 31
0.0
  0
LINE
  5
D7F
330
BF3
100
AcDbEntity
  8
Widoczne (ISO)
100
AcDbLine
 10
204.382885835741
 20
-246.0
 30
0.0
 11
436.1631976075341
 21
-246.0
 31
0.0
  0
LINE
  5
D80
330
BF3
100
AcDbEntity
  8
Widoczne (ISO)
100
AcDbLine
 10
454.6187847063065
 20
-246.0
 30
0.0
 11
436.1631976075341
 21
-246.0
 31
0.0
  0
LINE
  5
D81
330
BF3
100
AcDbEntity
  8
Widoczne (ISO)
100
AcDbLine
 10
-88.61694485398221
 20
-246.0
 30
0.0
 11
-88.61694485398221
 21
-265.0
 31
0.0
  0
LINE
  5
D82
330
BF3
100
AcDbEntity
  8
Widoczne (ISO)
100
AcDbLine
 10
-86.21578946878434
 20
-265.0
 30
0.0
 11
78.2045499881151
 21
-265.0
 31
0.0
  0
LINE
  5
D83
330
BF3
100
AcDbEntity
  8
Widoczne (ISO)
100
AcDbLine
 10
204.382885835741
 20
-265.0
 30
0.0
 11
78.2045499881151
 21
-265.0
 31
0.0
  0
LINE
  5
D84
330
BF3
100
AcDbEntity
  8
Widoczne (ISO)
100
AcDbLine
 10
204.382885835741
 20
-246.0
 30
0.0
 11
204.382885835741
 21
-265.0
 31
0.0
  0
LINE
  5
D85
330
BF3
100
AcDbEntity
  8
Widoczne (ISO)
100
AcDbLine
 10
204.382885835741
 20
-265.0
 30
0.0
 11
436.1631976075341
 21
-265.0
 31
0.0
  0
LINE
  5
D86
330
BF3
100
AcDbEntity
  8
Widoczne (ISO)
100
AcDbLine
 10
436.1631976075341
 20
-246.0
 30
0.0
 11
436.1631976075341
 21
-265.0
 31
0.0
  0
LINE
  5
D87
330
BF3
100
AcDbEntity
  8
Widoczne (ISO)
100
AcDbLine
 10
451.2058435648778
 20
-265.0
 30
0.0
 11
436.163197607535
 21
-265.0
 31
0.0
  0
LINE
  5
D88
330
BF3
100
AcDbEntity
  8
Widoczne (ISO)
100
AcDbLine
 10
454.6187847063065
 20
-246.0
 30
0.0
 11
454.6187847063065
 21
-265.0
 31
0.0
  0
LINE
  5
D89
330
BF3
100
AcDbEntity
  8
Widoczne (ISO)
100
AcDbLine
 10
78.2045499881151
 20
-246.0
 30
0.0
 11
78.2045499881151
 21
-265.0
 31
0.0
  0
LINE
  5
D8A
330
BF3
100
AcDbEntity
  8
Widoczne (ISO)
100
AcDbLine
 10
-88.61676498267843
 20
246.0
 30
0.0
 11
-961.7151344698719
 21
245.9999999999995
 31
0.0
  0
LINE
  5
D8B
330
BF3
100
AcDbEntity
  8
Widoczne (ISO)
100
AcDbLine
 10
-155.2613749426964
 20
265.0
 30
0.0
 11
-893.2994398189567
 21
264.9999999999995
 31
0.0
  0
LINE
  5
D8C
330
BF3
100
AcDbEntity
  8
Widoczne (ISO)
100
AcDbLine
 10
-951.5284631921472
 20
264.9999999999995
 30
0.0
 11
-961.7151344698719
 21
264.9999999999995
 31
0.0
  0
LINE
  5
D8D
330
BF3
100
AcDbEntity
  8
Widoczne (ISO)
100
AcDbLine
 10
-961.7151344698719
 20
245.9999999999995
 30
0.0
 11
-961.7151344698719
 21
264.9999999999995
 31
0.0
  0
LINE
  5
D8E
330
BF3
100
AcDbEntity
  8
Widoczne (ISO)
100
AcDbLine
 10
-88.61694485401313
 20
-245.9999999999986
 30
0.0
 11
-961.7154786119099
 21
-246.0
 31
0.0
  0
LINE
  5
D8F
330
BF3
100
AcDbEntity
  8
Widoczne (ISO)
100
AcDbLine
 10
-961.7154786119099
 20
-246.0
 30
0.0
 11
-961.7154786119099
 21
-265.0
 31
0.0
  0
LINE
  5
D90
330
BF3
100
AcDbEntity
  8
Widoczne (ISO)
100
AcDbLine
 10
-911.6891446996946
 20
-265.0
 30
0.0
 11
-141.1327919610639
 21
-264.9999999999987
 31
0.0
  0
LINE
  5
D91
330
BF3
100
AcDbEntity
  8
Widoczne (ISO)
100
AcDbLine
 10
-961.7151331267073
 20
245.9999999999995
 30
0.0
 11
-963.0776321383974
 21
245.9999999999995
 31
0.0
  0
LINE
  5
D92
330
BF3
100
AcDbEntity
  8
Widoczne (ISO)
100
AcDbLine
 10
-963.0776321383974
 20
245.9999999999982
 30
0.0
 11
-1233.955821747987
 21
245.9999999999982
 31
0.0
  0
LINE
  5
D93
330
BF3
100
AcDbEntity
  8
Widoczne (ISO)
100
AcDbLine
 10
-1233.955821747986
 20
245.9999999999982
 30
0.0
 11
-1661.976230730675
 21
245.9999999999982
 31
0.0
  0
LINE
  5
D94
330
BF3
100
AcDbEntity
  8
Widoczne (ISO)
100
AcDbLine
 10
-1754.806616518929
 20
245.9999999999982
 30
0.0
 11
-1661.976230730675
 21
245.9999999999982
 31
0.0
  0
LINE
  5
D95
330
BF3
100
AcDbEntity
  8
Widoczne (ISO)
100
AcDbLine
 10
-961.7151331267073
 20
245.9999999999995
 30
0.0
 11
-961.7151331267073
 21
264.9999999999995
 31
0.0
  0
LINE
  5
D96
330
BF3
100
AcDbEntity
  8
Widoczne (ISO)
100
AcDbLine
 10
-961.7151331267073
 20
264.9999999999995
 30
0.0
 11
-963.0776321383974
 21
264.9999999999995
 31
0.0
  0
LINE
  5
D97
330
BF3
100
AcDbEntity
  8
Widoczne (ISO)
100
AcDbLine
 10
-963.0776321383974
 20
245.9999999999995
 30
0.0
 11
-963.0776321383974
 21
264.9999999999995
 31
0.0
  0
LINE
  5
D98
330
BF3
100
AcDbEntity
  8
Widoczne (ISO)
100
AcDbLine
 10
-963.0776321383974
 20
264.9999999999995
 30
0.0
 11
-1233.955821747987
 21
264.9999999999995
 31
0.0
  0
LINE
  5
D99
330
BF3
100
AcDbEntity
  8
Widoczne wąskie (ISO)
100
AcDbLine
 10
-1233.955821747986
 20
245.9999999999982
 30
0.0
 11
-1233.955821747986
 21
264.9999999999995
 31
0.0
  0
LINE
  5
D9A
330
BF3
100
AcDbEntity
  8
Widoczne (ISO)
100
AcDbLine
 10
-1233.955821747986
 20
264.9999999999995
 30
0.0
 11
-1661.976230730675
 21
264.9999999999995
 31
0.0
  0
LINE
  5
D9B
330
BF3
100
AcDbEntity
  8
Widoczne wąskie (ISO)
100
AcDbLine
 10
-1661.976230730675
 20
245.9999999999982
 30
0.0
 11
-1661.976230730675
 21
264.9999999999995
 31
0.0
  0
LINE
  5
D9C
330
BF3
100
AcDbEntity
  8
Widoczne (ISO)
100
AcDbLine
 10
-1754.806616518929
 20
264.9999999999995
 30
0.0
 11
-1661.976230730675
 21
264.9999999999995
 31
0.0
  0
LINE
  5
D9D
330
BF3
100
AcDbEntity
  8
Widoczne (ISO)
100
AcDbLine
 10
-1754.806616518929
 20
245.9999999999982
 30
0.0
 11
-1754.806616518929
 21
264.9999999999995
 31
0.0
  0
LINE
  5
D9E
330
BF3
100
AcDbEntity
  8
Widoczne wąskie (ISO)
100
AcDbLine
 10
-1586.866839609081
 20
245.9999999999982
 30
0.0
 11
-1586.866839609081
 21
-246.0
 31
0.0
  0
LINE
  5
D9F
330
BF3
100
AcDbEntity
  8
Widoczne wąskie (ISO)
100
AcDbLine
 10
441.9366175825289
 20
245.9999999999995
 30
0.0
 11
441.9366175825289
 21
6.334560585759845
 31
0.0
  0
LINE
  5
DA0
330
BF3
100
AcDbEntity
  8
Widoczne wąskie (ISO)
100
AcDbLine
 10
441.9366175825289
 20
-6.334560585761664
 30
0.0
 11
441.9366175825289
 21
-246.0000000000004
 31
0.0
  0
LINE
  5
DA1
330
BF3
100
AcDbEntity
  8
Widoczne wąskie (ISO)
100
AcDbLine
 10
38.76983062597901
 20
245.9999999999995
 30
0.0
 11
38.76983062597901
 21
-246.0
 31
0.0
  0
LINE
  5
DA2
330
BF3
100
AcDbEntity
  8
Widoczne (ISO)
100
AcDbLine
 10
451.1219152518942
 20
245.9999999999995
 30
0.0
 11
451.1219152518942
 21
-246.0
 31
0.0
  0
LINE
  5
DA3
330
BF3
100
AcDbEntity
  8
Widoczne wąskie (ISO)
100
AcDbLine
 10
-1194.227984630484
 20
245.9999999999982
 30
0.0
 11
-1194.227984630484
 21
-246.0
 31
0.0
  0
LINE
  5
DA4
330
BF3
100
AcDbEntity
  8
Widoczne wąskie (ISO)
100
AcDbLine
 10
-910.1637917136622
 20
245.9999999999982
 30
0.0
 11
-910.1637917136622
 21
-246.0
 31
0.0
  0
LINE
  5
DA5
330
BF3
100
AcDbEntity
  8
Widoczne (ISO)
100
AcDbLine
 10
-852.3299447143408
 20
245.9999999999982
 30
0.0
 11
-852.3299447143408
 21
-246.0
 31
0.0
  0
LINE
  5
DA6
330
BF3
100
AcDbEntity
  8
Widoczne (ISO)
100
AcDbLine
 10
0.0
 20
245.9999999999995
 30
0.0
 11
0.0
 21
-246.0
 31
0.0
  0
LINE
  5
DA7
330
BF3
100
AcDbEntity
  8
Widoczne (ISO)
100
AcDbLine
 10
-1685.231660304673
 20
245.9999999999982
 30
0.0
 11
-1685.231660304673
 21
-246.0
 31
0.0
  0
LINE
  5
DA8
330
BF3
100
AcDbEntity
  8
Widoczne (ISO)
100
AcDbLine
 10
143.018356886756
 20
-245.9999999999986
 30
0.0
 11
143.018356886756
 21
245.9999999999995
 31
0.0
  0
LINE
  5
DA9
330
BF3
100
AcDbEntity
  8
Widoczne (ISO)
100
AcDbLine
 10
173.0183568867551
 20
-245.9999999999986
 30
0.0
 11
173.0183568867551
 21
245.9999999999995
 31
0.0
  0
LINE
  5
DAA
330
BF3
100
AcDbEntity
  8
Widoczne (ISO)
100
AcDbLine
 10
-1668.086137040836
 20
-246.0
 30
0.0
 11
-1764.189620666351
 21
-246.0
 31
0.0
  0
LINE
  5
DAB
330
BF3
100
AcDbEntity
  8
Widoczne (ISO)
100
AcDbLine
 10
-1668.086137040835
 20
-246.0
 30
0.0
 11
-1237.166954928864
 21
-246.0
 31
0.0
  0
LINE
  5
DAC
330
BF3
100
AcDbEntity
  8
Widoczne (ISO)
100
AcDbLine
 10
-1237.166954928864
 20
-246.0
 30
0.0
 11
-963.1907082176798
 21
-246.0
 31
0.0
  0
LINE
  5
DAD
330
BF3
100
AcDbEntity
  8
Widoczne (ISO)
100
AcDbLine
 10
-963.1907082176798
 20
-246.0
 30
0.0
 11
-961.715478611914
 21
-246.0
 31
0.0
  0
LINE
  5
DAE
330
BF3
100
AcDbEntity
  8
Widoczne (ISO)
100
AcDbLine
 10
-963.1907082176798
 20
-265.0
 30
0.0
 11
-961.7162391188029
 21
-265.0
 31
0.0
  0
LINE
  5
DAF
330
BF3
100
AcDbEntity
  8
Widoczne (ISO)
100
AcDbLine
 10
-1237.166954928864
 20
-265.0
 30
0.0
 11
-963.1907082176798
 21
-265.0
 31
0.0
  0
LINE
  5
DB0
330
BF3
100
AcDbEntity
  8
Widoczne (ISO)
100
AcDbLine
 10
-1668.086137040835
 20
-265.0
 30
0.0
 11
-1237.166954928864
 21
-265.0
 31
0.0
  0
LINE
  5
DB1
330
BF3
100
AcDbEntity
  8
Widoczne (ISO)
100
AcDbLine
 10
-1668.086137040836
 20
-265.0
 30
0.0
 11
-1764.189620666351
 21
-265.0
 31
0.0
  0
LINE
  5
DB2
330
BF3
100
AcDbEntity
  8
Widoczne wąskie (ISO)
100
AcDbLine
 10
-1668.086137040835
 20
-246.0
 30
0.0
 11
-1668.086137040835
 21
-265.0
 31
0.0
  0
LINE
  5
DB3
330
BF3
100
AcDbEntity
  8
Widoczne wąskie (ISO)
100
AcDbLine
 10
-1237.166954928864
 20
-246.0
 30
0.0
 11
-1237.166954928864
 21
-265.0
 31
0.0
  0
LINE
  5
DB4
330
BF3
100
AcDbEntity
  8
Widoczne (ISO)
100
AcDbLine
 10
-963.1907082176798
 20
-246.0
 30
0.0
 11
-963.1907082176798
 21
-265.0
 31
0.0
  0
LINE
  5
DB5
330
BF3
100
AcDbEntity
  8
Widoczne (ISO)
100
AcDbLine
 10
-1764.189620666351
 20
-246.0
 30
0.0
 11
-1764.189620666351
 21
-265.0
 31
0.0
  0
LINE
  5
DB6
330
BF3
100
AcDbEntity
  8
Widoczne (ISO)
100
AcDbLine
 10
-745.8140343983818
 20
-275.0000000000004
 30
0.0
 11
-1021.627523635306
 21
-275.0000000000004
 31
0.0
  0
LINE
  5
DB7
330
BF3
100
AcDbEntity
  8
Widoczne (ISO)
100
AcDbLine
 10
-911.6891446996978
 20
-265.0000000000005
 30
0.0
 11
-961.7162391188035
 21
-265.0000000000005
 31
0.0
  0
LINE
  5
DB8
330
BF3
100
AcDbEntity
  8
Widoczne (ISO)
100
AcDbLine
 10
-745.8140343983818
 20
-265.0000000000005
 30
0.0
 11
-745.8140343983818
 21
-275.0000000000004
 31
0.0
  0
LINE
  5
DB9
330
BF3
100
AcDbEntity
  8
Widoczne (ISO)
100
AcDbLine
 10
-1021.627523635306
 20
-265.0000000000005
 30
0.0
 11
-1021.627523635306
 21
-275.0000000000004
 31
0.0
  0
LINE
  5
DBA
330
BF3
100
AcDbEntity
  8
Widoczne (ISO)
100
AcDbLine
 10
-1017.889423718091
 20
274.9999999999996
 30
0.0
 11
-754.487711244431
 21
274.9999999999996
 31
0.0
  0
LINE
  5
DBB
330
BF3
100
AcDbEntity
  8
Widoczne (ISO)
100
AcDbLine
 10
-951.5284631921581
 20
264.9999999999995
 30
0.0
 11
-893.2994398189661
 21
264.9999999999995
 31
0.0
  0
LINE
  5
DBC
330
BF3
100
AcDbEntity
  8
Widoczne (ISO)
100
AcDbLine
 10
-1017.889423718091
 20
264.9999999999995
 30
0.0
 11
-1017.889423718091
 21
274.9999999999996
 31
0.0
  0
LINE
  5
DBD
330
BF3
100
AcDbEntity
  8
Widoczne (ISO)
100
AcDbLine
 10
-754.487711244431
 20
264.9999999999995
 30
0.0
 11
-754.487711244431
 21
274.9999999999996
 31
0.0
  0
LINE
  5
DBE
330
BF3
100
AcDbEntity
  8
Widoczne (ISO)
100
AcDbLine
 10
-180.4993866862796
 20
275.0
 30
0.0
 11
99.21708284555188
 21
275.0
 31
0.0
  0
LINE
  5
DBF
330
BF3
100
AcDbEntity
  8
Widoczne (ISO)
100
AcDbLine
 10
-155.2613749426891
 20
265.0
 30
0.0
 11
-88.61676498267115
 21
265.0
 31
0.0
  0
LINE
  5
DC0
330
BF3
100
AcDbEntity
  8
Widoczne (ISO)
100
AcDbLine
 10
-180.4993866862796
 20
265.0
 30
0.0
 11
-180.4993866862796
 21
275.0
 31
0.0
  0
LINE
  5
DC1
330
BF3
100
AcDbEntity
  8
Widoczne (ISO)
100
AcDbLine
 10
99.21708284555188
 20
265.0
 30
0.0
 11
99.21708284555188
 21
275.0
 31
0.0
  0
LINE
  5
DC2
330
BF3
100
AcDbEntity
  8
Widoczne (ISO)
100
AcDbLine
 10
-141.1327919610621
 20
-265.0000000000005
 30
0.0
 11
-86.21578946881255
 21
-265.0000000000005
 31
0.0
  0
LINE
  5
DC3
330
BF3
100
AcDbEntity
  8
Widoczne (ISO)
100
AcDbLine
 10
-169.5599849642594
 20
-275.0000000000004
 30
0.0
 11
111.0740396354349
 21
-275.0000000000004
 31
0.0
  0
LINE
  5
DC4
330
BF3
100
AcDbEntity
  8
Widoczne (ISO)
100
AcDbLine
 10
-169.5599849642594
 20
-275.0000000000004
 30
0.0
 11
-169.5599849642594
 21
-265.0000000000005
 31
0.0
  0
LINE
  5
DC5
330
BF3
100
AcDbEntity
  8
Widoczne (ISO)
100
AcDbLine
 10
111.0740396354367
 20
-275.0000000000004
 30
0.0
 11
111.0740396354367
 21
-265.0000000000005
 31
0.0
  0
LINE
  5
DC6
330
BF3
100
AcDbEntity
  8
Widoczne (ISO)
100
AcDbLine
 10
365.8000736136655
 20
-285.0
 30
0.0
 11
381.5592393249044
 21
-285.0
 31
0.0
  0
LINE
  5
DC7
330
BF3
100
AcDbEntity
  8
Widoczne (ISO)
100
AcDbLine
 10
365.8000736136655
 20
-284.0000000000005
 30
0.0
 11
365.8000736136655
 21
-285.0
 31
0.0
  0
ARC
  5
DC8
330
BF3
100
AcDbEntity
  8
Widoczne (ISO)
100
AcDbCircle
 10
377.8000736136655
 20
-273.0999999999999
 30
0.0
 40
16.9
100
AcDbArc
 50
224.7602701039071
 51
285.5478229179729
  0
LINE
  5
DC9
330
BF3
100
AcDbEntity
  8
Widoczne (ISO)
100
AcDbLine
 10
381.5592393249044
 20
284.9999999999996
 30
0.0
 11
365.8000736136655
 21
284.9999999999996
 31
0.0
  0
LINE
  5
DCA
330
BF3
100
AcDbEntity
  8
Widoczne (ISO)
100
AcDbLine
 10
365.8000736136655
 20
283.9999999999995
 30
0.0
 11
365.8000736136655
 21
284.9999999999996
 31
0.0
  0
ARC
  5
DCB
330
BF3
100
AcDbEntity
  8
Widoczne (ISO)
100
AcDbCircle
 10
377.8000736136655
 20
273.0999999999994
 30
0.0
 40
16.90000000000005
100
AcDbArc
 50
74.45217708202709
 51
135.2397298960928
  0
LINE
  5
DCC
330
BF3
100
AcDbEntity
  8
Widoczne (ISO)
100
AcDbLine
 10
389.5091121793949
 20
244.9999999999995
 30
0.0
 11
413.5091121793948
 21
244.9999999999995
 31
0.0
  0
LINE
  5
DCD
330
BF3
100
AcDbEntity
  8
Widoczne (ISO)
100
AcDbLine
 10
413.5091121793948
 20
245.9999999999995
 30
0.0
 11
413.5091121793948
 21
244.9999999999995
 31
0.0
  0
LINE
  5
DCE
330
BF3
100
AcDbEntity
  8
Widoczne (ISO)
100
AcDbLine
 10
389.5091121793949
 20
245.9999999999995
 30
0.0
 11
389.5091121793949
 21
244.9999999999995
 31
0.0
  0
ARC
  5
DCF
330
BF3
100
AcDbEntity
  8
Widoczne (ISO)
100
AcDbCircle
 10
401.5091121793948
 20
256.8999999999996
 30
0.0
 40
16.90000000000001
100
AcDbArc
 50
224.7602701039071
 51
315.2397298960929
  0
LINE
  5
DD0
330
BF3
100
AcDbEntity
  8
Widoczne (ISO)
100
AcDbLine
 10
413.5091121793948
 20
-245.0000000000005
 30
0.0
 11
389.5091121793949
 21
-245.0000000000005
 31
0.0
  0
LINE
  5
DD1
330
BF3
100
AcDbEntity
  8
Widoczne (ISO)
100
AcDbLine
 10
389.5091121793949
 20
-246.0000000000004
 30
0.0
 11
389.5091121793949
 21
-245.0000000000005
 31
0.0
  0
LINE
  5
DD2
330
BF3
100
AcDbEntity
  8
Widoczne (ISO)
100
AcDbLine
 10
413.5091121793948
 20
-246.0000000000004
 30
0.0
 11
413.5091121793948
 21
-245.0000000000005
 31
0.0
  0
ARC
  5
DD3
330
BF3
100
AcDbEntity
  8
Widoczne (ISO)
100
AcDbCircle
 10
401.5091121793948
 20
-256.9000000000006
 30
0.0
 40
16.90000000000001
100
AcDbArc
 50
44.76027010390712
 51
135.2397298960928
  0
CIRCLE
  5
DD4
330
BF3
100
AcDbEntity
  8
Widoczne (ISO)
100
AcDbCircle
 10
431.7447903574747
 20
0.0
 30
0.0
 40
12.0
  0
LINE
  5
DD5
330
BF3
100
AcDbEntity
  8
Widoczne (ISO)
100
AcDbLine
 10
956.0378001138243
 20
-1765.000000000001
 30
0.0
 11
-350.632629408401
 21
-1764.999999999995
 31
0.0
  0
ARC
  5
DD6
330
BF3
100
AcDbEntity
  8
Widoczne (ISO)
100
AcDbCircle
 10
-350.831466315607
 20
-264.9999999999987
 30
0.0
 40
1500.0000131787
100
AcDbArc
 50
221.8103148745414
 51
270.0075950103488
  0
LINE
  5
DD7
330
BF3
100
AcDbEntity
  8
Widoczne (ISO)
100
AcDbLine
 10
-1468.865465259104
 20
-1265.000008371256
 30
0.0
 11
-1985.563469880797
 21
-1265.000008785802
 31
0.0
  0
LINE
  5
DD8
330
BF3
100
AcDbEntity
  8
Widoczne (ISO)
100
AcDbLine
 10
-1985.563469880797
 20
-1265.000008785802
 30
0.0
 11
-2763.873571539265
 21
-1265.000008785802
 31
0.0
  0
ARC
  5
DD9
330
BF3
100
AcDbEntity
  8
Widoczne (ISO)
100
AcDbCircle
 10
-2763.873571539267
 20
-265.000008785802
 30
0.0
 40
1000.000000000001
100
AcDbArc
 50
180.0
 51
270.0
  0
LINE
  5
DDA
330
BF3
100
AcDbEntity
  8
Widoczne (ISO)
100
AcDbLine
 10
-3763.873571539267
 20
-265.0000087857925
 30
0.0
 11
-3763.873571539261
 21
264.0
 31
0.0
  0
ARC
  5
DDB
330
BF3
100
AcDbEntity
  8
Widoczne (ISO)
100
AcDbCircle
 10
-2763.873571539263
 20
263.9999999999909
 30
0.0
 40
999.9999999999994
100
AcDbArc
 50
90.0
 51
180.0
  0
LINE
  5
DDC
330
BF3
100
AcDbEntity
  8
Widoczne (ISO)
100
AcDbLine
 10
-2763.873571539266
 20
1263.99999999999
 30
0.0
 11
-1985.41194883484
 21
1263.999999999995
 31
0.0
  0
LINE
  5
DDD
330
BF3
100
AcDbEntity
  8
Widoczne (ISO)
100
AcDbLine
 10
-1985.411948834841
 20
1263.999999999995
 30
0.0
 11
-1756.907291510341
 21
1265.284397101478
 31
0.0
  0
LINE
  5
DDE
330
BF3
100
AcDbEntity
  8
Widoczne (ISO)
100
AcDbLine
 10
-1756.907291510341
 20
1265.284397101478
 30
0.0
 11
-1469.086046749989
 21
1265.284397332391
 31
0.0
  0
ARC
  5
DDF
330
BF3
100
AcDbEntity
  8
Widoczne (ISO)
100
AcDbCircle
 10
-351.3062991074339
 20
265.0000000000014
 30
0.0
 40
1500.000146595485
100
AcDbArc
 50
89.97466900335284
 51
138.175113974099
  0
LINE
  5
DE0
330
BF3
100
AcDbEntity
  8
Widoczne (ISO)
100
AcDbLine
 10
-350.643135123094
 20
1765.000000000002
 30
0.0
 11
436.2955147404827
 21
1764.999999999998
 31
0.0
  0
LINE
  5
DE1
330
BF3
100
AcDbEntity
  8
Widoczne (ISO)
100
AcDbLine
 10
436.2955147404827
 20
1765.0
 30
0.0
 11
955.9335995454121
 21
1759.999999999999
 31
0.0
  0
ARC
  5
DE2
330
BF3
100
AcDbEntity
  8
Widoczne (ISO)
100
AcDbCircle
 10
955.9958093978558
 20
260.0000012900223
 30
0.0
 40
1500.0
100
AcDbArc
 50
0.1527888771864371
 51
90.00237624132246
  0
LINE
  5
DE3
330
BF3
100
AcDbEntity
  8
Widoczne (ISO)
100
AcDbLine
 10
2455.99047605848
 20
264.0000000001551
 30
0.0
 11
2455.990476058484
 21
-265.0000007465146
 31
0.0
  0
ARC
  5
DE4
330
BF3
100
AcDbEntity
  8
Widoczne (ISO)
100
AcDbCircle
 10
955.9904760584831
 20
-265.0000007465228
 30
0.0
 40
1499.999999999999
100
AcDbArc
 50
270.0018076457391
 51
0.0
  0
LINE
  5
DE5
330
BF3
100
AcDbEntity
  8
Widoczne wąskie (ISO)
100
AcDbLine
 10
943.9540077291622
 20
-265.0000000000005
 30
0.0
 11
943.9540077291622
 21
-246.0000000000004
 31
0.0
  0
LINE
  5
DE6
330
BF3
100
AcDbEntity
  8
Widoczne wąskie (ISO)
100
AcDbLine
 10
943.954007729155
 20
245.9999999999995
 30
0.0
 11
943.954007729155
 21
265.0
 31
0.0
  0
ENDBLK
  5
BF5
330
BF3
100
AcDbEntity
  8
0
100
AcDbBlockEnd
  0
ENDSEC
  0
SECTION
  2
ENTITIES
  0
DIMENSION
  5
371
330
77
100
AcDbEntity
  8
Wymiar (ISO)
100
AcDbDimension
  2
*D6
 10
7397.20733694961
 20
1594.846547727578
 30
0.0
 11
7397.20733694961
 21
3359.846547727578
 31
0.0
 70
   160
  1
<>
 71
     2
 42
3529.999999999998
  3
Domyślne (ISO)
100
AcDbAlignedDimension
 13
4990.575179385206
 23
5124.846547727577
 33
0.0
 14
5510.317464758548
 24
1594.846547727579
 34
0.0
 50
270.0
100
AcDbRotatedDimension
1001
ACAD
1000
DSTYLE
1002
{
1070
   172
1070
     0
1070
   289
1070
     1
1070
    74
1070
     0
1070
   271
1070
     0
1070
   272
1070
     0
1070
    48
1040
0.0
1070
    47
1040
0.0
1002
}
  0
DIMENSION
  5
45A
330
77
100
AcDbEntity
  8
Wymiar (ISO)
100
AcDbDimension
  2
*D7
 10
790.406093105459
 20
1214.846546981059
 30
0.0
 11
3900.338116904349
 21
1214.846546981059
 31
0.0
 70
   160
  1
<>
 71
     2
 42
6219.864047597752
  3
Domyślne (ISO)
100
AcDbAlignedDimension
 13
7010.27014070321
 23
3094.846546981062
 33
0.0
 14
790.4060931054591
 24
3094.846538941784
 34
0.0
 50
180.0
100
AcDbRotatedDimension
1001
ACAD
1000
DSTYLE
1002
{
1070
   172
1070
     0
1070
   289
1070
     1
1070
    74
1070
     0
1070
   271
1070
     0
1070
   272
1070
     0
1070
    48
1040
0.0
1070
    47
1040
0.0
1002
}
  0
DIMENSION
  5
53C
330
77
100
AcDbEntity
  8
Wymiar (ISO)
100
AcDbDimension
  2
*D8
 10
2612.432250812818
 20
3094.846547727577
 30
0.0
 11
2612.432250812817
 21
3359.846547727577
 31
0.0
 70
   160
  1
<>
 71
     2
 42
529.999999999999
  3
Domyślne (ISO)
100
AcDbAlignedDimension
 13
2892.303433914051
 23
3624.846547727577
 33
0.0
 14
2886.193527603892
 24
3094.846547727577
 34
0.0
 50
90.0
100
AcDbRotatedDimension
1001
ACAD
1000
DSTYLE
1002
{
1070
   172
1070
     0
1070
   289
1070
     1
1070
    74
1070
     0
1070
   271
1070
     0
1070
   272
1070
     0
1070
    48
1040
0.0
1070
    47
1040
0.0
1002
}
  0
DIMENSION
  5
624
330
77
100
AcDbEntity
  8
Wymiar (ISO)
100
AcDbDimension
  2
*D9
 10
5719.456955750992
 20
3075.846547727575
 30
0.0
 11
5719.456955750988
 21
3359.846547727575
 31
0.0
 70
   160
  1
<>
 71
     2
 42
568.0000000000005
  3
Domyślne (ISO)
100
AcDbAlignedDimension
 13
5338.344716109292
 23
3643.846547727576
 33
0.0
 14
5335.620334517287
 24
3075.846547727575
 34
0.0
 50
90.0
100
AcDbRotatedDimension
1001
ACAD
1000
DSTYLE
1002
{
1070
   172
1070
     0
1070
   289
1070
     1
1070
    74
1070
     0
1070
   271
1070
     0
1070
   272
1070
     0
1070
    48
1040
0.0
1070
    47
1040
0.0
1002
}
  0
DIMENSION
  5
70C
330
77
100
AcDbEntity
  8
Wymiar (ISO)
100
AcDbDimension
  2
*D10
 10
2790.090043978376
 20
2773.846547727575
 30
0.0
 11
4148.638492354981
 21
2773.846547727575
 31
0.0
 70
   160
  1
<>
 71
     2
 42
2716.780337164736
  3
Domyślne (ISO)
100
AcDbAlignedDimension
 13
5506.870381143111
 23
3094.846547727577
 33
0.0
 14
2790.090043978376
 24
3094.846547727577
 34
0.0
 50
180.0
100
AcDbRotatedDimension
1001
ACAD
1000
DSTYLE
1002
{
1070
   172
1070
     0
1070
   289
1070
     1
1070
    74
1070
     0
1070
   271
1070
     0
1070
   272
1070
     0
1070
    48
1040
0.0
1070
    47
1040
0.0
1002
}
  0
MTEXT
  5
B25
102
{ACAD_XDICTIONARY
360
E40
102
}
330
77
100
AcDbEntity
  8
0
100
AcDbMText
 10
790.7059268530028
 20
1023.740566432056
 30
0.0
 40
0.15
 41
6763.554300900842
 71
     1
 72
     5
  1
00{\H750x;Nr kat.: 2148\PNazwa: Zje\U+017Cd\U+017Calnia wolnostoj\U+0105ca\PData utworzenia: 23-07-2012}
 73
     1
 44
1.0
1001
ACAD
1000
ACAD_MTEXT_COLUMN_INFO_BEGIN
1070
    75
1070
     2
1070
    79
1070
     0
1070
    76
1070
     1
1070
    78
1070
     0
1070
    48
1040
6763.554300900842
1070
    49
1040
1.0
1070
    50
1070
     1
1040
0.0
1000
ACAD_MTEXT_COLUMN_INFO_END
1000
MTEXTBEGIN
1070
    73
1070
     1
1070
    44
1040
1.0
1070
    74
1070
     0
1000
MTEXTEND
  0
INSERT
  5
DE7
330
77
100
AcDbEntity
  8
0
100
AcDbBlockReference
  2
2148_Zjezdzalnia-wolnostojaca
 10
4554.279664644726
 20
3359.846547727577
 30
0.0
  0
ENDSEC
  0
SECTION
  2
OBJECTS
  0
DICTIONARY
  5
C
330
0
100
AcDbDictionary
281
     1
  3
ACAD_2007HEADERVARS_RT
350
DFE
  3
ACAD_COLOR
350
6E
  3
ACAD_GROUP
350
D
  3
ACAD_LAYOUT
350
6D
  3
ACAD_MATERIAL
350
10
  3
ACAD_MLEADERSTYLE
350
71
  3
ACAD_MLINESTYLE
350
6A
  3
ACAD_PLOTSETTINGS
350
6C
  3
ACAD_PLOTSTYLENAME
350
E
  3
ACAD_SCALELIST
350
3D
  3
ACAD_TABLESTYLE
350
6F
  3
ACAD_VISUALSTYLE
350
29
  3
ACDB_RECOMPOSE_DATA
350
DFC
  3
AcDbVariableDictionary
350
825
  3
AcmDictionary
350
888
  3
AMG
350
831
  3
AMGSNAPSETTINGS
350
8CA
  3
DWGPROPS
350
DFD
  0
DICTIONARY
  5
A09
330
8
100
AcDbDictionary
280
     1
281
     1
  0
DICTIONARY
  5
8D5
330
2
100
AcDbDictionary
280
     1
281
     1
  3
ACAD_LAYERSTATES
360
8D6
  0
DICTIONARY
  5
7EE
330
16A
100
AcDbDictionary
280
     1
281
     1
  3
ACAD_MLATT
360
DEB
  3
ACAD_XREC_ROUNDTRIP
360
DEA
  0
DICTIONARY
  5
7F1
330
16C
100
AcDbDictionary
280
     1
281
     1
  3
ACAD_MLATT
360
DED
  3
ACAD_XREC_ROUNDTRIP
360
DEC
  0
DICTIONARY
  5
7F4
330
16D
100
AcDbDictionary
280
     1
281
     1
  3
ACAD_MLATT
360
DEF
  3
ACAD_XREC_ROUNDTRIP
360
DEE
  0
DICTIONARY
  5
7F7
330
16F
100
AcDbDictionary
280
     1
281
     1
  3
ACAD_MLATT
360
DF1
  3
ACAD_XREC_ROUNDTRIP
360
DF0
  0
DICTIONARY
  5
7FA
330
170
100
AcDbDictionary
280
     1
281
     1
  3
ACAD_MLATT
360
DF3
  3
ACAD_XREC_ROUNDTRIP
360
DF2
  0
DICTIONARY
  5
7FD
330
171
100
AcDbDictionary
280
     1
281
     1
  3
ACAD_MLATT
360
DF5
  3
ACAD_XREC_ROUNDTRIP
360
DF4
  0
DICTIONARY
  5
800
330
172
100
AcDbDictionary
280
     1
281
     1
  3
ACAD_MLATT
360
DF7
  3
ACAD_XREC_ROUNDTRIP
360
DF6
  0
DICTIONARY
  5
803
330
173
100
AcDbDictionary
280
     1
281
     1
  3
ACAD_MLATT
360
DF9
  3
ACAD_XREC_ROUNDTRIP
360
DF8
  0
DICTIONARY
  5
806
330
174
100
AcDbDictionary
280
     1
281
     1
  3
ACAD_MLATT
360
DFB
  3
ACAD_XREC_ROUNDTRIP
360
DFA
  0
DICTIONARY
  5
E40
330
B25
100
AcDbDictionary
280
     1
281
     1
  3
ACAD_MTEXT_RT
360
E41
  0
DICTIONARY
  5
DFE
102
{ACAD_REACTORS
330
C
102
}
330
C
100
AcDbDictionary
281
     1
  3
DIMARCSYM
350
DFF
  3
DIMLTEX1
350
E01
  3
DIMLTEX2
350
E02
  3
DIMLTYPE
350
E00
  0
DICTIONARY
  5
6E
102
{ACAD_REACTORS
330
C
102
}
330
C
100
AcDbDictionary
281
     1
  0
DICTIONARY
  5
D
102
{ACAD_REACTORS
330
C
102
}
330
C
100
AcDbDictionary
281
     1
  0
DICTIONARY
  5
6D
102
{ACAD_REACTORS
330
C
102
}
330
C
100
AcDbDictionary
281
     1
  3
Layout1
350
76
  3
Layout2
350
7E
  3
Model
350
7A
  0
DICTIONARY
  5
10
102
{ACAD_REACTORS
330
C
102
}
330
C
100
AcDbDictionary
281
     1
  3
ByBlock
350
19
  3
ByLayer
350
11
  3
Global
350
21
  0
DICTIONARY
  5
71
102
{ACAD_REACTORS
330
C
102
}
330
C
100
AcDbDictionary
281
     1
  3
Standard
350
72
  0
DICTIONARY
  5
6A
102
{ACAD_REACTORS
330
C
102
}
330
C
100
AcDbDictionary
281
     1
  3
Standard
350
6B
  0
DICTIONARY
  5
6C
102
{ACAD_REACTORS
330
C
102
}
330
C
100
AcDbDictionary
281
     1
  0
ACDBDICTIONARYWDFLT
  5
E
102
{ACAD_REACTORS
330
C
102
}
330
C
100
AcDbDictionary
281
     1
  3
Normal
350
F
100
AcDbDictionaryWithDefault
340
F
  0
DICTIONARY
  5
3D
102
{ACAD_REACTORS
330
C
102
}
330
C
100
AcDbDictionary
281
     1
  3
A0
350
3E
  3
A1
350
3F
  3
A2
350
40
  3
A3
350
41
  3
A4
350
42
  3
A5
350
43
  3
A6
350
44
  3
A7
350
45
  3
A8
350
46
  3
A9
350
47
  3
B0
350
48
  3
B1
350
49
  3
B2
350
4A
  3
B3
350
4B
  3
B4
350
4C
  3
B5
350
4D
  3
B6
350
4E
  3
B7
350
4F
  3
B8
350
50
  3
B9
350
51
  3
C0
350
52
  3
C1
350
53
  3
C2
350
54
  3
C3
350
55
  3
C4
350
56
  3
C5
350
57
  3
C6
350
58
  3
C7
350
59
  3
C8
350
5A
  3
C9
350
5B
  3
D0
350
5C
  3
D1
350
5D
  3
D2
350
5E
  0
DICTIONARY
  5
6F
102
{ACAD_REACTORS
330
C
102
}
330
C
100
AcDbDictionary
281
     1
  3
Standard
350
70
  0
DICTIONARY
  5
29
102
{ACAD_REACTORS
330
C
102
}
330
C
100
AcDbDictionary
281
     1
  3
2dWireframe
350
2F
  3
3D Hidden
350
31
  3
3dWireframe
350
30
  3
Basic
350
2E
  3
Brighten
350
35
  3
ColorChange
350
39
  3
Conceptual
350
32
  3
Dim
350
34
  3
EdgeColorOff
350
3C
  3
Facepattern
350
38
  3
Flat
350
2A
  3
FlatWithEdges
350
2B
  3
Gouraud
350
2C
  3
GouraudWithEdges
350
2D
  3
Hidden
350
A3A
  3
JitterOff
350
3A
  3
Linepattern
350
37
  3
OverhangOff
350
3B
  3
Realistic
350
33
  3
Shaded
350
A3F
  3
Shaded with edges
350
A3E
  3
Shades of Gray
350
A3B
  3
Sketchy
350
A3C
  3
Thicken
350
36
  3
Wireframe
350
A39
  3
X-Ray
350
A3D
  0
XRECORD
  5
DFC
102
{ACAD_REACTORS
330
C
102
}
330
C
100
AcDbXrecord
280
     1
 90
        1
330
70
330
16A
330
16C
330
16D
330
16F
330
170
330
171
330
172
330
173
330
174
330
B25
  0
DICTIONARY
  5
825
102
{ACAD_REACTORS
330
C
102
}
330
C
100
AcDbDictionary
281
     1
  3
CANNOSCALE
350
828
  3
CMLEADERSTYLE
350
827
  3
CTABLESTYLE
350
826
  3
DIMASSOC
350
925
  3
HIDETEXT
350
924
  3
INDEXCTL
350
923
  3
LAYEREVAL
350
920
  3
LAYERNOTIFY
350
921
  3
LIGHTINGUNITS
350
91F
  3
MSLTSCALE
350
91E
  3
SORTENTS
350
922
  3
XCLIPFRAME
350
DE8
  0
DICTIONARY
  5
888
102
{ACAD_REACTORS
330
C
102
}
330
C
100
AcDbDictionary
281
     1
  3
AcmStdDictionary
350
894
  0
DICTIONARY
  5
831
102
{ACAD_REACTORS
330
C
102
}
330
C
100
AcDbDictionary
281
     1
  0
DICTIONARY
  5
8CA
102
{ACAD_REACTORS
330
C
102
}
330
C
100
AcDbDictionary
281
     1
  0
XRECORD
  5
DFD
102
{ACAD_REACTORS
330
C
102
}
330
C
100
AcDbXrecord
280
     1
  1
DWGPROPS COOKIE
  2

  3

  4
Paweł
  6

  7

  8
GRAFIK
  9

300
Menadżer=
301
Firma=
302
Kategoria=
303
Numer części=złożenie+beton+plaszczyzna gora
304
Opis=
305
Projekt=
306
Projektant=Paweł
307
Inżynier=
308
Zatwierdził=
309
Centrum kosztów=
 40
0.0046044444444444
 41
2455342.425536482
 42
2459858.493715614
  1

 90
       16
300
Dostawca=
300
Stan użytkownika=
300
Stan projektu=PracaWToku
300
Sprawdził=
300
Zatwierdził konstrukcję=
300
Zatwierdził do produkcji=
  0
DICTIONARY
  5
8D6
102
{ACAD_REACTORS
330
8D5
102
}
330
8D5
100
AcDbDictionary
281
     1
  0
XRECORD
  5
DEB
102
{ACAD_REACTORS
330
7EE
102
}
330
7EE
100
AcDbXrecord
280
     1
 70
     4
 70
     0
 70
     0
 40
1.0
  2
TYTUŁ
  1
Embedded Object
 10
222.5713910852681
 20
115.0
 30
0.0
 40
2.5
 41
93.99999999999998
 46
0.0
 71
     5
 72
     5
  1

  7
Tekst notatki (ISO)
 73
     1
 44
1.0
  0
XRECORD
  5
DEA
102
{ACAD_REACTORS
330
7EE
102
}
330
7EE
100
AcDbXrecord
280
     1
102
ACAD_MATT_HEIGHT
140
2.5
  0
XRECORD
  5
DED
102
{ACAD_REACTORS
330
7F1
102
}
330
7F1
100
AcDbXrecord
280
     1
 70
     4
 70
     0
 70
     0
 40
1.0
  2
NUMER_CZĘŚCI
  1
Embedded Object
 10
176.0713910852681
 20
105.0
 30
0.0
 40
2.5
 41
58.99999999999998
 46
0.0
 71
     4
 72
     5
  1
złożenie+beton+plaszczyzna gora
  7
Tekst notatki (ISO)
 73
     1
 44
1.0
  0
XRECORD
  5
DEC
102
{ACAD_REACTORS
330
7F1
102
}
330
7F1
100
AcDbXrecord
280
     1
102
ACAD_MATT_HEIGHT
140
2.5
  0
XRECORD
  5
DEF
102
{ACAD_REACTORS
330
7F4
102
}
330
7F4
100
AcDbXrecord
280
     1
 70
     4
 70
     0
 70
     0
 40
1.0
  2
FIRMA
  1
Embedded Object
 10
137.4145052978323
 20
109.9581637900171
 30
0.0
 40
2.5
 41
73.37793693868923
 46
0.0
 71
     5
 72
     5
  1

  7
Tekst notatki (ISO)
 73
     1
 44
1.0
  0
XRECORD
  5
DEE
102
{ACAD_REACTORS
330
7F4
102
}
330
7F4
100
AcDbXrecord
280
     1
102
ACAD_MATT_HEIGHT
140
2.5
  0
XRECORD
  5
DF1
102
{ACAD_REACTORS
330
7F7
102
}
330
7F7
100
AcDbXrecord
280
     1
 70
     4
 70
     0
 70
     0
 40
1.0
  2
AUTOR
  1
Embedded Object
 10
101.0713910852681
 20
120.9999999999991
 30
0.0
 40
2.485507130622863
 41
18.08427483161038
 46
0.0
 71
     7
 72
     5
  1
Paweł
  7
Styl tekstu44
 73
     1
 44
1.0
  0
XRECORD
  5
DF0
102
{ACAD_REACTORS
330
7F7
102
}
330
7F7
100
AcDbXrecord
280
     1
102
ACAD_MATT_HEIGHT
140
2.485507130622863
  0
XRECORD
  5
DF3
102
{ACAD_REACTORS
330
7FA
102
}
330
7FA
100
AcDbXrecord
280
     1
 70
     4
 70
     0
 70
     0
 40
1.0
  2
SPRAWDZIŁ
  1
Embedded Object
 10
133.0713910852681
 20
120.9999999999991
 30
0.0
 40
2.485507130622863
 41
24.19635020868251
 46
0.0
 71
     7
 72
     5
  1

  7
Styl tekstu44
 73
     1
 44
1.0
  0
XRECORD
  5
DF2
102
{ACAD_REACTORS
330
7FA
102
}
330
7FA
100
AcDbXrecord
280
     1
102
ACAD_MATT_HEIGHT
140
2.485507130622863
  0
XRECORD
  5
DF5
102
{ACAD_REACTORS
330
7FD
102
}
330
7FD
100
AcDbXrecord
280
     1
 70
     4
 70
     0
 70
     0
 40
1.0
  2
ZATWIERDZENIE_KONSTRUKCJI
  1
Embedded Object
 10
158.0713910852681
 20
121.0
 30
0.0
 40
2.485507130622863
 41
19.9788309932064
 46
0.0
 71
     7
 72
     5
  1

  7
Styl tekstu44
 73
     1
 44
1.0
  0
XRECORD
  5
DF4
102
{ACAD_REACTORS
330
7FD
102
}
330
7FD
100
AcDbXrecord
280
     1
102
ACAD_MATT_HEIGHT
140
2.485507130622863
  0
XRECORD
  5
DF7
102
{ACAD_REACTORS
330
800
102
}
330
800
100
AcDbXrecord
280
     1
 70
     4
 70
     0
 70
     0
 40
1.0
  2
DATA_ZATWIERDZENIA
  1
Embedded Object
 10
196.0713910852681
 20
120.9999999999991
 30
0.0
 40
2.485507130622863
 41
16.36541081572819
 46
0.0
 71
     9
 72
     5
  1

  7
Styl tekstu44
 73
     1
 44
1.0
  0
XRECORD
  5
DF6
102
{ACAD_REACTORS
330
800
102
}
330
800
100
AcDbXrecord
280
     1
102
ACAD_MATT_HEIGHT
140
2.485507130622863
  0
XRECORD
  5
DF9
102
{ACAD_REACTORS
330
803
102
}
330
803
100
AcDbXrecord
280
     1
 70
     4
 70
     0
 70
     0
 40
1.0
  2
DATA_UTWORZENIA
  1
Embedded Object
 10
221.0713910852682
 20
121.0
 30
0.0
 40
2.485507130622863
 41
28.66652440062225
 46
0.0
 71
     7
 72
     5
  1
2010-04-06
  7
Styl tekstu44
 73
     1
 44
1.0
  0
XRECORD
  5
DF8
102
{ACAD_REACTORS
330
803
102
}
330
803
100
AcDbXrecord
280
     1
102
ACAD_MATT_HEIGHT
140
2.485507130622863
  0
XRECORD
  5
DFB
102
{ACAD_REACTORS
330
806
102
}
330
806
100
AcDbXrecord
280
     1
 70
     4
 70
     0
 70
     0
 40
1.0
  2
NUMER_WERSJI
  1
Embedded Object
 10
242.5713910852682
 20
103.4999999999998
 30
0.0
 40
2.5
 41
15.0
 46
0.0
 71
     5
 72
     5
  1

  7
Tekst notatki (ISO)
 73
     1
 44
1.0
  0
XRECORD
  5
DFA
102
{ACAD_REACTORS
330
806
102
}
330
806
100
AcDbXrecord
280
     1
102
ACAD_MATT_HEIGHT
140
2.5
  0
XRECORD
  5
E41
102
{ACAD_REACTORS
330
E40
102
}
330
E40
100
AcDbXrecord
280
     1
 40
436347.0
  1
00{\H750x;Nr kat.: 2148\PNazwa: Zjeżdżalnia wolnostojąca\PData utworzenia: 23-07-2012}
  0
XRECORD
  5
DFF
102
{ACAD_REACTORS
330
DFE
102
}
330
DFE
100
AcDbXrecord
280
     1
 70
     1
  0
XRECORD
  5
E01
102
{ACAD_REACTORS
330
DFE
102
}
330
DFE
100
AcDbXrecord
280
     1
340
66
  0
XRECORD
  5
E02
102
{ACAD_REACTORS
330
DFE
102
}
330
DFE
100
AcDbXrecord
280
     1
340
66
  0
XRECORD
  5
E00
102
{ACAD_REACTORS
330
DFE
102
}
330
DFE
100
AcDbXrecord
280
     1
340
66
  0
LAYOUT
  5
76
102
{ACAD_XDICTIONARY
360
E2D
102
}
102
{ACAD_REACTORS
330
6D
102
}
330
6D
100
AcDbPlotSettings
  1

  2

  4

  6

 40
0.0
 41
0.0
 42
0.0
 43
0.0
 44
0.0
 45
0.0
 46
0.0
 47
0.0
 48
0.0
 49
0.0
140
0.0
141
0.0
142
1.0
143
1.0
 70
   688
 72
     0
 73
     0
 74
     5
  7

 75
    16
147
1.0
148
0.0
149
0.0
100
AcDbLayout
  1
Layout1
 70
     1
 71
     1
 10
0.0
 20
0.0
 11
8400.0
 21
5940.0
 12
0.0
 22
0.0
 32
0.0
 14
0.0
 24
0.0
 34
0.0
 15
8400.0
 25
5940.0
 35
0.0
146
0.0
 13
0.0
 23
0.0
 33
0.0
 16
1.0
 26
0.0
 36
0.0
 17
0.0
 27
1.0
 37
0.0
 76
     0
330
73
  0
LAYOUT
  5
7E
102
{ACAD_XDICTIONARY
360
E30
102
}
102
{ACAD_REACTORS
330
6D
102
}
330
6D
100
AcDbPlotSettings
  1

  2

  4

  6

 40
0.0
 41
0.0
 42
0.0
 43
0.0
 44
0.0
 45
0.0
 46
0.0
 47
0.0
 48
0.0
 49
0.0
140
0.0
141
0.0
142
1.0
143
1.0
 70
   688
 72
     0
 73
     0
 74
     5
  7

 75
    16
147
1.0
148
0.0
149
0.0
100
AcDbLayout
  1
Layout2
 70
     1
 71
     2
 10
0.0
 20
0.0
 11
12.0
 21
9.0
 12
0.0
 22
0.0
 32
0.0
 14
0.0
 24
0.0
 34
0.0
 15
0.0
 25
0.0
 35
0.0
146
0.0
 13
0.0
 23
0.0
 33
0.0
 16
1.0
 26
0.0
 36
0.0
 17
0.0
 27
1.0
 37
0.0
 76
     0
330
7B
  0
LAYOUT
  5
7A
102
{ACAD_XDICTIONARY
360
8DB
102
}
102
{ACAD_REACTORS
330
6D
102
}
330
6D
100
AcDbPlotSettings
  1

  2

  4

  6

 40
0.0
 41
0.0
 42
0.0
 43
0.0
 44
0.0
 45
0.0
 46
0.0
 47
0.0
 48
0.0
 49
0.0
140
0.0
141
0.0
142
1.0
143
1.0
 70
  1712
 72
     0
 73
     0
 74
     0
  7

 75
     0
147
1.0
148
0.0
149
0.0
100
AcDbLayout
  1
Model
 70
     1
 71
     0
 10
0.0
 20
0.0
 11
12.0
 21
9.0
 12
0.0
 22
0.0
 32
0.0
 14
0.0
 24
0.0
 34
0.0
 15
0.0
 25
0.0
 35
0.0
146
0.0
 13
0.0
 23
0.0
 33
0.0
 16
1.0
 26
0.0
 36
0.0
 17
0.0
 27
1.0
 37
0.0
 76
     0
330
77
331
62
  0
MATERIAL
  5
19
102
{ACAD_XDICTIONARY
360
1A
102
}
102
{ACAD_REACTORS
330
10
102
}
330
10
100
AcDbMaterial
  1
ByBlock
 72
     0
 43
0.0208333333333333
 43
0.0
 43
0.0
 43
0.0
 43
0.0
 43
0.0208333333333333
 43
0.0
 43
0.0
 43
0.0
 43
0.0
 43
1.0
 43
0.0
 43
0.0
 43
0.0
 43
0.0
 43
1.0
 77
     0
 47
0.0208333333333333
 47
0.0
 47
0.0
 47
0.0
 47
0.0
 47
0.0208333333333333
 47
0.0
 47
0.0
 47
0.0
 47
0.0
 47
1.0
 47
0.0
 47
0.0
 47
0.0
 47
0.0
 47
1.0
171
     0
 49
0.0208333333333333
 49
0.0
 49
0.0
 49
0.0
 49
0.0
 49
0.0208333333333333
 49
0.0
 49
0.0
 49
0.0
 49
0.0
 49
1.0
 49
0.0
 49
0.0
 49
0.0
 49
0.0
 49
1.0
175
     0
142
0.0208333333333333
142
0.0
142
0.0
142
0.0
142
0.0
142
0.0208333333333333
142
0.0
142
0.0
142
0.0
142
0.0
142
1.0
142
0.0
142
0.0
142
0.0
142
0.0
142
1.0
179
     0
144
0.0208333333333333
144
0.0
144
0.0
144
0.0
144
0.0
144
0.0208333333333333
144
0.0
144
0.0
144
0.0
144
0.0
144
1.0
144
0.0
144
0.0
144
0.0
144
0.0
144
1.0
147
0.0208333333333333
147
0.0
147
0.0
147
0.0
147
0.0
147
0.0208333333333333
147
0.0
147
0.0
147
0.0
147
0.0
147
1.0
147
0.0
147
0.0
147
0.0
147
0.0
147
1.0
  0
MATERIAL
  5
11
102
{ACAD_XDICTIONARY
360
12
102
}
102
{ACAD_REACTORS
330
10
102
}
330
10
100
AcDbMaterial
  1
ByLayer
 72
     0
 43
0.0208333333333333
 43
0.0
 43
0.0
 43
0.0
 43
0.0
 43
0.0208333333333333
 43
0.0
 43
0.0
 43
0.0
 43
0.0
 43
1.0
 43
0.0
 43
0.0
 43
0.0
 43
0.0
 43
1.0
 77
     0
 47
0.0208333333333333
 47
0.0
 47
0.0
 47
0.0
 47
0.0
 47
0.0208333333333333
 47
0.0
 47
0.0
 47
0.0
 47
0.0
 47
1.0
 47
0.0
 47
0.0
 47
0.0
 47
0.0
 47
1.0
171
     0
 49
0.0208333333333333
 49
0.0
 49
0.0
 49
0.0
 49
0.0
 49
0.0208333333333333
 49
0.0
 49
0.0
 49
0.0
 49
0.0
 49
1.0
 49
0.0
 49
0.0
 49
0.0
 49
0.0
 49
1.0
175
     0
142
0.0208333333333333
142
0.0
142
0.0
142
0.0
142
0.0
142
0.0208333333333333
142
0.0
142
0.0
142
0.0
142
0.0
142
1.0
142
0.0
142
0.0
142
0.0
142
0.0
142
1.0
179
     0
144
0.0208333333333333
144
0.0
144
0.0
144
0.0
144
0.0
144
0.0208333333333333
144
0.0
144
0.0
144
0.0
144
0.0
144
1.0
144
0.0
144
0.0
144
0.0
144
0.0
144
1.0
147
0.0208333333333333
147
0.0
147
0.0
147
0.0
147
0.0
147
0.0208333333333333
147
0.0
147
0.0
147
0.0
147
0.0
147
1.0
147
0.0
147
0.0
147
0.0
147
0.0
147
1.0
  0
MATERIAL
  5
21
102
{ACAD_XDICTIONARY
360
22
102
}
102
{ACAD_REACTORS
330
10
102
}
330
10
100
AcDbMaterial
  1
Global
 72
     0
 43
0.0208333333333333
 43
0.0
 43
0.0
 43
0.0
 43
0.0
 43
0.0208333333333333
 43
0.0
 43
0.0
 43
0.0
 43
0.0
 43
1.0
 43
0.0
 43
0.0
 43
0.0
 43
0.0
 43
1.0
 77
     0
 47
0.0208333333333333
 47
0.0
 47
0.0
 47
0.0
 47
0.0
 47
0.0208333333333333
 47
0.0
 47
0.0
 47
0.0
 47
0.0
 47
1.0
 47
0.0
 47
0.0
 47
0.0
 47
0.0
 47
1.0
171
     0
 49
0.0208333333333333
 49
0.0
 49
0.0
 49
0.0
 49
0.0
 49
0.0208333333333333
 49
0.0
 49
0.0
 49
0.0
 49
0.0
 49
1.0
 49
0.0
 49
0.0
 49
0.0
 49
0.0
 49
1.0
175
     0
142
0.0208333333333333
142
0.0
142
0.0
142
0.0
142
0.0
142
0.0208333333333333
142
0.0
142
0.0
142
0.0
142
0.0
142
1.0
142
0.0
142
0.0
142
0.0
142
0.0
142
1.0
179
     0
144
0.0208333333333333
144
0.0
144
0.0
144
0.0
144
0.0
144
0.0208333333333333
144
0.0
144
0.0
144
0.0
144
0.0
144
1.0
144
0.0
144
0.0
144
0.0
144
0.0
144
1.0
147
0.0208333333333333
147
0.0
147
0.0
147
0.0
147
0.0
147
0.0208333333333333
147
0.0
147
0.0
147
0.0
147
0.0
147
1.0
147
0.0
147
0.0
147
0.0
147
0.0
147
1.0
  0
MLEADERSTYLE
  5
72
102
{ACAD_REACTORS
330
71
102
}
330
71
100
AcDbMLeaderStyle
170
     2
171
     1
172
     0
 90
        2
 40
0.0
 41
0.0
173
     1
 91
-1056964608
340
66
 92
       -2
290
     1
 42
0.09
291
     1
 43
0.36
  3
Standard
 44
0.18
300

342
60
174
     1
178
     6
175
     1
176
     0
 93
-1056964608
 45
0.18
292
     0
297
     0
 46
0.18
 94
-1056964608
 47
1.0
 49
1.0
140
1.0
293
     1
141
0.0
294
     1
177
     0
142
1.0
295
     0
296
     0
143
0.125
1001
ACAD_MLEADERVER
1070
     2
  0
MLINESTYLE
  5
6B
102
{ACAD_REACTORS
330
6A
102
}
330
6A
100
AcDbMlineStyle
  2
STANDARD
 70
     0
  3

 62
   256
 51
90.0
 52
90.0
 71
     2
 49
0.5
 62
   256
  6
BYLAYER
 49
-0.5
 62
   256
  6
BYLAYER
  0
ACDBPLACEHOLDER
  5
F
102
{ACAD_REACTORS
330
E
102
}
330
E
  0
SCALE
  5
3E
102
{ACAD_REACTORS
330
3D
102
}
330
3D
100
AcDbScale
 70
     0
300
1:1
140
1.0
141
1.0
290
     1
  0
SCALE
  5
3F
102
{ACAD_REACTORS
330
3D
102
}
330
3D
100
AcDbScale
 70
     0
300
1:2
140
1.0
141
2.0
290
     0
  0
SCALE
  5
40
102
{ACAD_REACTORS
330
3D
102
}
330
3D
100
AcDbScale
 70
     0
300
1:4
140
1.0
141
4.0
290
     0
  0
SCALE
  5
41
102
{ACAD_REACTORS
330
3D
102
}
330
3D
100
AcDbScale
 70
     0
300
1:5
140
1.0
141
5.0
290
     0
  0
SCALE
  5
42
102
{ACAD_REACTORS
330
3D
102
}
330
3D
100
AcDbScale
 70
     0
300
1:8
140
1.0
141
8.0
290
     0
  0
SCALE
  5
43
102
{ACAD_REACTORS
330
3D
102
}
330
3D
100
AcDbScale
 70
     0
300
1:10
140
1.0
141
10.0
290
     0
  0
SCALE
  5
44
102
{ACAD_REACTORS
330
3D
102
}
330
3D
100
AcDbScale
 70
     0
300
1:16
140
1.0
141
16.0
290
     0
  0
SCALE
  5
45
102
{ACAD_REACTORS
330
3D
102
}
330
3D
100
AcDbScale
 70
     0
300
1:20
140
1.0
141
20.0
290
     0
  0
SCALE
  5
46
102
{ACAD_REACTORS
330
3D
102
}
330
3D
100
AcDbScale
 70
     0
300
1:30
140
1.0
141
30.0
290
     0
  0
SCALE
  5
47
102
{ACAD_REACTORS
330
3D
102
}
330
3D
100
AcDbScale
 70
     0
300
1:40
140
1.0
141
40.0
290
     0
  0
SCALE
  5
48
102
{ACAD_REACTORS
330
3D
102
}
330
3D
100
AcDbScale
 70
     0
300
1:50
140
1.0
141
50.0
290
     0
  0
SCALE
  5
49
102
{ACAD_REACTORS
330
3D
102
}
330
3D
100
AcDbScale
 70
     0
300
1:100
140
1.0
141
100.0
290
     0
  0
SCALE
  5
4A
102
{ACAD_REACTORS
330
3D
102
}
330
3D
100
AcDbScale
 70
     0
300
2:1
140
2.0
141
1.0
290
     0
  0
SCALE
  5
4B
102
{ACAD_REACTORS
330
3D
102
}
330
3D
100
AcDbScale
 70
     0
300
4:1
140
4.0
141
1.0
290
     0
  0
SCALE
  5
4C
102
{ACAD_REACTORS
330
3D
102
}
330
3D
100
AcDbScale
 70
     0
300
8:1
140
8.0
141
1.0
290
     0
  0
SCALE
  5
4D
102
{ACAD_REACTORS
330
3D
102
}
330
3D
100
AcDbScale
 70
     0
300
10:1
140
10.0
141
1.0
290
     0
  0
SCALE
  5
4E
102
{ACAD_REACTORS
330
3D
102
}
330
3D
100
AcDbScale
 70
     0
300
100:1
140
100.0
141
1.0
290
     0
  0
SCALE
  5
4F
102
{ACAD_REACTORS
330
3D
102
}
330
3D
100
AcDbScale
 70
     0
300
1/128" = 1'-0"
140
0.0078125
141
12.0
290
     0
  0
SCALE
  5
50
102
{ACAD_REACTORS
330
3D
102
}
330
3D
100
AcDbScale
 70
     0
300
1/64" = 1'-0"
140
0.015625
141
12.0
290
     0
  0
SCALE
  5
51
102
{ACAD_REACTORS
330
3D
102
}
330
3D
100
AcDbScale
 70
     0
300
1/32" = 1'-0"
140
0.03125
141
12.0
290
     0
  0
SCALE
  5
52
102
{ACAD_REACTORS
330
3D
102
}
330
3D
100
AcDbScale
 70
     0
300
1/16" = 1'-0"
140
0.0625
141
12.0
290
     0
  0
SCALE
  5
53
102
{ACAD_REACTORS
330
3D
102
}
330
3D
100
AcDbScale
 70
     0
300
3/32" = 1'-0"
140
0.09375
141
12.0
290
     0
  0
SCALE
  5
54
102
{ACAD_REACTORS
330
3D
102
}
330
3D
100
AcDbScale
 70
     0
300
1/8" = 1'-0"
140
0.125
141
12.0
290
     0
  0
SCALE
  5
55
102
{ACAD_REACTORS
330
3D
102
}
330
3D
100
AcDbScale
 70
     0
300
3/16" = 1'-0"
140
0.1875
141
12.0
290
     0
  0
SCALE
  5
56
102
{ACAD_REACTORS
330
3D
102
}
330
3D
100
AcDbScale
 70
     0
300
1/4" = 1'-0"
140
0.25
141
12.0
290
     0
  0
SCALE
  5
57
102
{ACAD_REACTORS
330
3D
102
}
330
3D
100
AcDbScale
 70
     0
300
3/8" = 1'-0"
140
0.375
141
12.0
290
     0
  0
SCALE
  5
58
102
{ACAD_REACTORS
330
3D
102
}
330
3D
100
AcDbScale
 70
     0
300
1/2" = 1'-0"
140
0.5
141
12.0
290
     0
  0
SCALE
  5
59
102
{ACAD_REACTORS
330
3D
102
}
330
3D
100
AcDbScale
 70
     0
300
3/4" = 1'-0"
140
0.75
141
12.0
290
     0
  0
SCALE
  5
5A
102
{ACAD_REACTORS
330
3D
102
}
330
3D
100
AcDbScale
 70
     0
300
1" = 1'-0"
140
1.0
141
12.0
290
     0
  0
SCALE
  5
5B
102
{ACAD_REACTORS
330
3D
102
}
330
3D
100
AcDbScale
 70
     0
300
1-1/2" = 1'-0"
140
1.5
141
12.0
290
     0
  0
SCALE
  5
5C
102
{ACAD_REACTORS
330
3D
102
}
330
3D
100
AcDbScale
 70
     0
300
3" = 1'-0"
140
3.0
141
12.0
290
     0
  0
SCALE
  5
5D
102
{ACAD_REACTORS
330
3D
102
}
330
3D
100
AcDbScale
 70
     0
300
6" = 1'-0"
140
6.0
141
12.0
290
     0
  0
SCALE
  5
5E
102
{ACAD_REACTORS
330
3D
102
}
330
3D
100
AcDbScale
 70
     0
300
1'-0" = 1'-0"
140
12.0
141
12.0
290
     0
  0
TABLESTYLE
  5
70
102
{ACAD_XDICTIONARY
360
927
102
}
102
{ACAD_REACTORS
330
6F
102
}
330
6F
100
AcDbTableStyle
  3
Standard
 70
     0
 71
     0
 40
0.06
 41
0.06
280
     0
281
     0
  7
Standard
140
0.18
170
     2
 62
     0
 63
     7
283
     0
274
    -2
284
     1
 64
     0
275
    -2
285
     1
 65
     0
276
    -2
286
     1
 66
     0
277
    -2
287
     1
 67
     0
278
    -2
288
     1
 68
     0
279
    -2
289
     1
 69
     0
  7
Standard
140
0.25
170
     5
 62
     0
 63
     7
283
     0
274
    -2
284
     1
 64
     0
275
    -2
285
     1
 65
     0
276
    -2
286
     1
 66
     0
277
    -2
287
     1
 67
     0
278
    -2
288
     1
 68
     0
279
    -2
289
     1
 69
     0
  7
Standard
140
0.18
170
     5
 62
     0
 63
     7
283
     0
274
    -2
284
     1
 64
     0
275
    -2
285
     1
 65
     0
276
    -2
286
     1
 66
     0
277
    -2
287
     1
 67
     0
278
    -2
288
     1
 68
     0
279
    -2
289
     1
 69
     0
  0
VISUALSTYLE
  5
2F
102
{ACAD_XDICTIONARY
360
E10
102
}
102
{ACAD_REACTORS
330
29
102
}
330
29
100
AcDbVisualStyle
  2

 70
     4
 71
     0
 72
     2
 73
     0
 90
        0
 40
-0.6
 41
-30.0
 62
     5
 63
     7
 74
     1
 91
        4
 64
     7
 65
   257
 75
     1
175
     1
 42
1.0
 92
        0
 66
   257
 43
1.0
 76
     1
 77
     6
 78
     2
 67
     7
 79
     5
170
     0
171
     0
290
     0
174
     0
 93
        1
 44
0.0
173
     0
291
     0
 45
0.0
1001
ACAD
1000
AcDbSavedByObjectVersion
1070
     0
  0
VISUALSTYLE
  5
31
102
{ACAD_XDICTIONARY
360
E14
102
}
102
{ACAD_REACTORS
330
29
102
}
330
29
100
AcDbVisualStyle
  2

 70
     6
 71
     1
 72
     2
 73
     2
 90
        0
 40
-0.6
 41
-30.0
 62
     5
 63
     7
 74
     2
 91
        2
 64
     7
 65
   257
 75
     2
175
     1
 42
179.0
 92
        0
 66
   257
 43
1.0
 76
     1
 77
     6
 78
     2
 67
     7
 79
     3
170
     0
171
     0
290
     0
174
     0
 93
        1
 44
0.0
173
     0
291
     0
 45
0.0
1001
ACAD
1000
AcDbSavedByObjectVersion
1070
     0
  0
VISUALSTYLE
  5
30
102
{ACAD_XDICTIONARY
360
E12
102
}
102
{ACAD_REACTORS
330
29
102
}
330
29
100
AcDbVisualStyle
  2

 70
     5
 71
     0
 72
     2
 73
     0
 90
        0
 40
-0.6
 41
-30.0
 62
     5
 63
     7
 74
     1
 91
        4
 64
     7
 65
   257
 75
     1
175
     1
 42
1.0
 92
        0
 66
   257
 43
1.0
 76
     1
 77
     6
 78
     2
 67
     7
 79
     5
170
     0
171
     0
290
     0
174
     0
 93
        1
 44
0.0
173
     0
291
     0
 45
0.0
1001
ACAD
1000
AcDbSavedByObjectVersion
1070
     0
  0
VISUALSTYLE
  5
2E
102
{ACAD_XDICTIONARY
360
E0E
102
}
102
{ACAD_REACTORS
330
29
102
}
330
29
100
AcDbVisualStyle
  2

 70
     7
 71
     1
 72
     0
 73
     1
 90
        0
 40
-0.6
 41
-30.0
 62
     5
 63
     7
 74
     0
 91
        4
 64
     7
 65
   257
 75
     1
175
     1
 42
1.0
 92
        8
 66
     7
 43
1.0
 76
     1
 77
     6
 78
     2
 67
     7
 79
     5
170
     0
171
     0
290
     0
174
     0
 93
        1
 44
0.0
173
     0
291
     1
 45
0.0
1001
ACAD
1000
AcDbSavedByObjectVersion
1070
     0
  0
VISUALSTYLE
  5
35
102
{ACAD_XDICTIONARY
360
E1C
102
}
102
{ACAD_REACTORS
330
29
102
}
330
29
100
AcDbVisualStyle
  2

 70
    12
 71
     2
 72
     2
 73
     0
 90
        0
 40
-0.6
 41
-30.0
 62
     5
 63
     7
 74
     1
 91
        4
 64
     7
 65
   257
 75
     1
175
     1
 42
1.0
 92
        8
 66
     7
 43
1.0
 76
     1
 77
     6
 78
     2
 67
     7
 79
     5
170
     0
171
     0
290
     0
174
     0
 93
        1
 44
50.0
173
     0
291
     1
 45
0.0
1001
ACAD
1000
AcDbSavedByObjectVersion
1070
     0
  0
VISUALSTYLE
  5
39
102
{ACAD_XDICTIONARY
360
E24
102
}
102
{ACAD_REACTORS
330
29
102
}
330
29
100
AcDbVisualStyle
  2

 70
    16
 71
     2
 72
     2
 73
     3
 90
        0
 40
-0.6
 41
-30.0
 62
     5
 63
     8
 74
     1
 91
        4
 64
     7
 65
   257
 75
     1
175
     1
 42
1.0
 92
        8
 66
     8
 43
1.0
 76
     1
 77
     6
 78
     2
 67
     7
 79
     5
170
     0
171
     0
290
     0
174
     0
 93
        1
 44
0.0
173
     0
291
     1
 45
0.0
1001
ACAD
1000
AcDbSavedByObjectVersion
1070
     0
  0
VISUALSTYLE
  5
32
102
{ACAD_XDICTIONARY
360
E16
102
}
102
{ACAD_REACTORS
330
29
102
}
330
29
100
AcDbVisualStyle
  2

 70
     9
 71
     3
 72
     2
 73
     0
 90
        0
 40
-0.6
 41
-30.0
 62
     5
 63
     7
 74
     2
 91
        2
 64
     7
 65
   257
 75
     1
175
     1
 42
179.0
 92
        8
 66
     7
 43
1.0
 76
     1
 77
     6
 78
     2
 67
     7
 79
     3
170
     0
171
     0
290
     0
174
     0
 93
        1
 44
0.0
173
     0
291
     0
 45
0.0
1001
ACAD
1000
AcDbSavedByObjectVersion
1070
     0
  0
VISUALSTYLE
  5
34
102
{ACAD_XDICTIONARY
360
E1A
102
}
102
{ACAD_REACTORS
330
29
102
}
330
29
100
AcDbVisualStyle
  2

 70
    11
 71
     2
 72
     2
 73
     0
 90
        0
 40
-0.6
 41
-30.0
 62
     5
 63
     7
 74
     1
 91
        4
 64
     7
 65
   257
 75
     1
175
     1
 42
1.0
 92
        8
 66
     7
 43
1.0
 76
     1
 77
     6
 78
     2
 67
     7
 79
     5
170
     0
171
     0
290
     0
174
     0
 93
        1
 44
-50.0
173
     0
291
     1
 45
0.0
1001
ACAD
1000
AcDbSavedByObjectVersion
1070
     0
  0
VISUALSTYLE
  5
3C
102
{ACAD_XDICTIONARY
360
E2A
102
}
102
{ACAD_REACTORS
330
29
102
}
330
29
100
AcDbVisualStyle
  2

 70
    22
 71
     2
 72
     2
 73
     0
 90
        0
 40
-0.6
 41
-30.0
 62
     5
 63
     7
 74
     1
 91
        4
 64
     7
 65
   257
 75
     1
175
     1
 42
1.0
 92
        8
 66
     7
 43
1.0
 76
     1
 77
     6
 78
     2
 67
     7
 79
     5
170
     0
171
     0
290
     0
174
     0
 93
        1
 44
0.0
173
     0
291
     1
 45
0.0
1001
ACAD
1000
AcDbSavedByObjectVersion
1070
     0
  0
VISUALSTYLE
  5
38
102
{ACAD_XDICTIONARY
360
E22
102
}
102
{ACAD_REACTORS
330
29
102
}
330
29
100
AcDbVisualStyle
  2

 70
    15
 71
     2
 72
     2
 73
     0
 90
        0
 40
-0.6
 41
-30.0
 62
     5
 63
     7
 74
     1
 91
        4
 64
     7
 65
   257
 75
     1
175
     1
 42
1.0
 92
        8
 66
     7
 43
1.0
 76
     1
 77
     6
 78
     2
 67
     7
 79
     5
170
     0
171
     0
290
     0
174
     0
 93
        1
 44
0.0
173
     0
291
     1
 45
0.0
1001
ACAD
1000
AcDbSavedByObjectVersion
1070
     0
  0
VISUALSTYLE
  5
2A
102
{ACAD_XDICTIONARY
360
E06
102
}
102
{ACAD_REACTORS
330
29
102
}
330
29
100
AcDbVisualStyle
  2

 70
     0
 71
     2
 72
     1
 73
     1
 90
        2
 40
-0.6
 41
30.0
 62
     5
 63
     7
 74
     0
 91
        4
 64
     7
 65
   257
 75
     1
175
     1
 42
1.0
 92
        8
 66
     7
 43
1.0
 76
     1
 77
     6
 78
     2
 67
     7
 79
     5
170
     0
171
     0
290
     0
174
     0
 93
       13
 44
0.0
173
     0
291
     1
 45
0.0
1001
ACAD
1000
AcDbSavedByObjectVersion
1070
     0
  0
VISUALSTYLE
  5
2B
102
{ACAD_XDICTIONARY
360
E08
102
}
102
{ACAD_REACTORS
330
29
102
}
330
29
100
AcDbVisualStyle
  2

 70
     1
 71
     2
 72
     1
 73
     1
 90
        2
 40
-0.6
 41
30.0
 62
     5
 63
     7
 74
     1
 91
        4
 64
     7
 65
   257
 75
     1
175
     1
 42
1.0
 92
        0
 66
   257
 43
1.0
 76
     1
 77
     6
 78
     2
 67
     7
 79
     5
170
     0
171
     0
290
     0
174
     0
 93
       13
 44
0.0
173
     0
291
     1
 45
0.0
1001
ACAD
1000
AcDbSavedByObjectVersion
1070
     0
  0
VISUALSTYLE
  5
2C
102
{ACAD_XDICTIONARY
360
E0A
102
}
102
{ACAD_REACTORS
330
29
102
}
330
29
100
AcDbVisualStyle
  2

 70
     2
 71
     2
 72
     2
 73
     1
 90
        2
 40
-0.6
 41
30.0
 62
     5
 63
     7
 74
     0
 91
        4
 64
     7
 65
   257
 75
     1
175
     1
 42
1.0
 92
        0
 66
     7
 43
1.0
 76
     1
 77
     6
 78
     2
 67
     7
 79
     5
170
     0
171
     0
290
     0
174
     0
 93
       13
 44
0.0
173
     0
291
     1
 45
0.0
1001
ACAD
1000
AcDbSavedByObjectVersion
1070
     0
  0
VISUALSTYLE
  5
2D
102
{ACAD_XDICTIONARY
360
E0C
102
}
102
{ACAD_REACTORS
330
29
102
}
330
29
100
AcDbVisualStyle
  2

 70
     3
 71
     2
 72
     2
 73
     1
 90
        2
 40
-0.6
 41
30.0
 62
     5
 63
     7
 74
     1
 91
        4
 64
     7
 65
   257
 75
     1
175
     1
 42
1.0
 92
        0
 66
   257
 43
1.0
 76
     1
 77
     6
 78
     2
 67
     7
 79
     5
170
     0
171
     0
290
     0
174
     0
 93
       13
 44
0.0
173
     0
291
     1
 45
0.0
1001
ACAD
1000
AcDbSavedByObjectVersion
1070
     0
  0
VISUALSTYLE
  5
A3A
102
{ACAD_XDICTIONARY
360
E34
102
}
102
{ACAD_REACTORS
330
29
102
}
330
29
100
AcDbVisualStyle
  2
Hidden
 70
     6
 71
     1
 72
     2
 73
     2
 90
        0
 40
-0.6
 41
-30.0
 62
     5
 63
     7
 74
     2
 91
        2
 64
     7
 65
   257
 75
     2
175
     1
 42
40.0
 92
        0
 66
   257
 43
1.0
 76
     1
 77
     6
 78
     2
 67
     7
 79
     3
170
     0
171
     0
290
     0
174
     0
 93
        1
 44
0.0
173
     0
291
     0
 45
0.0
1001
ACAD
1000
AcDbSavedByObjectVersion
1070
     0
  0
VISUALSTYLE
  5
3A
102
{ACAD_XDICTIONARY
360
E26
102
}
102
{ACAD_REACTORS
330
29
102
}
330
29
100
AcDbVisualStyle
  2

 70
    20
 71
     2
 72
     2
 73
     0
 90
        0
 40
-0.6
 41
-30.0
 62
     5
 63
     7
 74
     1
 91
        4
 64
     7
 65
   257
 75
     1
175
     1
 42
1.0
 92
       10
 66
     7
 43
1.0
 76
     1
 77
     6
 78
     2
 67
     7
 79
     5
170
     0
171
     0
290
     0
174
     0
 93
        1
 44
0.0
173
     0
291
     1
 45
0.0
1001
ACAD
1000
AcDbSavedByObjectVersion
1070
     0
  0
VISUALSTYLE
  5
37
102
{ACAD_XDICTIONARY
360
E20
102
}
102
{ACAD_REACTORS
330
29
102
}
330
29
100
AcDbVisualStyle
  2

 70
    14
 71
     2
 72
     2
 73
     0
 90
        0
 40
-0.6
 41
-30.0
 62
     5
 63
     7
 74
     1
 91
        4
 64
     7
 65
   257
 75
     7
175
     7
 42
1.0
 92
        8
 66
     7
 43
1.0
 76
     1
 77
     6
 78
     2
 67
     7
 79
     5
170
     0
171
     0
290
     0
174
     0
 93
        1
 44
0.0
173
     0
291
     1
 45
0.0
1001
ACAD
1000
AcDbSavedByObjectVersion
1070
     0
  0
VISUALSTYLE
  5
3B
102
{ACAD_XDICTIONARY
360
E28
102
}
102
{ACAD_REACTORS
330
29
102
}
330
29
100
AcDbVisualStyle
  2

 70
    21
 71
     2
 72
     2
 73
     0
 90
        0
 40
-0.6
 41
-30.0
 62
     5
 63
     7
 74
     1
 91
        4
 64
     7
 65
   257
 75
     1
175
     1
 42
1.0
 92
        9
 66
     7
 43
1.0
 76
     1
 77
     6
 78
     2
 67
     7
 79
     5
170
     0
171
     0
290
     0
174
     0
 93
        1
 44
0.0
173
     0
291
     1
 45
0.0
1001
ACAD
1000
AcDbSavedByObjectVersion
1070
     0
  0
VISUALSTYLE
  5
33
102
{ACAD_XDICTIONARY
360
E18
102
}
102
{ACAD_REACTORS
330
29
102
}
330
29
100
AcDbVisualStyle
  2

 70
     8
 71
     2
 72
     2
 73
     0
 90
        0
 40
-0.6
 41
-30.0
 62
     5
 63
     7
 74
     1
 91
        0
 64
     7
 65
   257
 75
     1
175
     1
 42
1.0
 92
        8
 66
     8
 43
1.0
 76
     1
 77
     6
 78
     2
 67
     7
 79
     5
170
     0
171
     0
290
     0
174
     0
 93
       13
 44
0.0
173
     0
291
     0
 45
0.0
1001
ACAD
1000
AcDbSavedByObjectVersion
1070
     0
  0
VISUALSTYLE
  5
A3F
102
{ACAD_XDICTIONARY
360
E3E
102
}
102
{ACAD_REACTORS
330
29
102
}
330
29
100
AcDbVisualStyle
  2
Shaded
 70
    27
 71
     2
 72
     2
 73
     1
 90
        2
 40
-0.6
 41
30.0
 62
     5
 63
     7
 74
     0
 91
        4
 64
     7
 65
   257
 75
     1
175
     1
 42
1.0
 92
        8
 66
   257
 43
1.0
 76
     1
 77
     6
 78
     2
 67
     8
 79
     3
170
     0
171
     0
290
     0
174
     0
 93
        5
 44
0.0
173
     0
291
     0
 45
0.0
1001
ACAD
1000
AcDbSavedByObjectVersion
1070
     0
  0
VISUALSTYLE
  5
A3E
102
{ACAD_XDICTIONARY
360
E3C
102
}
102
{ACAD_REACTORS
330
29
102
}
330
29
100
AcDbVisualStyle
  2
Shaded with edges
 70
    26
 71
     2
 72
     2
 73
     1
 90
        2
 40
-0.6
 41
30.0
 62
     5
 63
     7
 74
     1
 91
       10
 64
     7
 65
   257
 75
     2
175
     1
 42
1.0
 92
        8
 66
   257
 43
1.0
 76
     1
 77
     6
 78
     2
 67
     7
 79
     3
170
     0
171
     0
290
     0
174
     0
 93
        5
 44
0.0
173
     0
291
     0
 45
0.0
1001
ACAD
1000
AcDbSavedByObjectVersion
1070
     0
  0
VISUALSTYLE
  5
A3B
102
{ACAD_XDICTIONARY
360
E36
102
}
102
{ACAD_REACTORS
330
29
102
}
330
29
100
AcDbVisualStyle
  2
Shades of Gray
 70
    23
 71
     2
 72
     2
 73
     3
 90
        0
 40
-0.6
 41
-30.0
 62
     5
 63
     7
 74
     2
 91
        2
 64
     7
 65
     7
 75
     1
175
     1
 42
40.0
 92
        8
 66
     7
 43
1.0
 76
     1
 77
     6
 78
     2
 67
     7
 79
     3
170
     0
171
     0
290
     0
174
     0
 93
        1
 44
0.0
173
     0
291
     0
 45
0.0
1001
ACAD
1000
AcDbSavedByObjectVersion
1070
     0
  0
VISUALSTYLE
  5
A3C
102
{ACAD_XDICTIONARY
360
E38
102
}
102
{ACAD_REACTORS
330
29
102
}
330
29
100
AcDbVisualStyle
  2
Sketchy
 70
    24
 71
     1
 72
     2
 73
     2
 90
        0
 40
-0.6
 41
-30.0
 62
     5
 63
     7
 74
     2
 91
        2
 64
     7
 65
     7
 75
     1
175
     1
 42
40.0
 92
       11
 66
     7
 43
1.0
 76
     1
 77
     6
 78
     2
 67
     7
 79
     6
170
     0
171
     0
290
     0
174
     0
 93
        1
 44
0.0
173
     0
291
     0
 45
0.0
1001
ACAD
1000
AcDbSavedByObjectVersion
1070
     0
  0
VISUALSTYLE
  5
36
102
{ACAD_XDICTIONARY
360
E1E
102
}
102
{ACAD_REACTORS
330
29
102
}
330
29
100
AcDbVisualStyle
  2

 70
    13
 71
     2
 72
     2
 73
     0
 90
        0
 40
-0.6
 41
-30.0
 62
     5
 63
     7
 74
     1
 91
        4
 64
     7
 65
   257
 75
     1
175
     1
 42
1.0
 92
       12
 66
     7
 43
1.0
 76
     1
 77
     6
 78
     2
 67
     7
 79
     5
170
     0
171
     0
290
     0
174
     0
 93
        1
 44
0.0
173
     0
291
     1
 45
0.0
1001
ACAD
1000
AcDbSavedByObjectVersion
1070
     0
  0
VISUALSTYLE
  5
A39
102
{ACAD_XDICTIONARY
360
E32
102
}
102
{ACAD_REACTORS
330
29
102
}
330
29
100
AcDbVisualStyle
  2
Wireframe
 70
     5
 71
     0
 72
     2
 73
     0
 90
        0
 40
-0.6
 41
-30.0
 62
     5
 63
     7
 74
     1
 91
        4
 64
     7
 65
   257
 75
     1
175
     1
 42
1.0
 92
        0
 66
   257
 43
1.0
 76
     1
 77
     6
 78
     2
 67
     7
 79
     3
170
     0
171
     0
290
     0
174
     0
 93
        1
 44
0.0
173
     0
291
     0
 45
0.0
1001
ACAD
1000
AcDbSavedByObjectVersion
1070
     0
  0
VISUALSTYLE
  5
A3D
102
{ACAD_XDICTIONARY
360
E3A
102
}
102
{ACAD_REACTORS
330
29
102
}
330
29
100
AcDbVisualStyle
  2
X-Ray
 70
    25
 71
     2
 72
     2
 73
     1
 90
        1
 40
0.5
 41
-30.0
 62
     5
 63
     7
 74
     1
 91
        0
 64
     7
 65
   257
 75
     1
175
     1
 42
1.0
 92
        8
 66
     7
 43
1.0
 76
     1
 77
     6
 78
     2
 67
     7
 79
     3
170
     0
171
     0
290
     0
174
     0
 93
       13
 44
0.0
173
     0
291
     0
 45
0.0
1001
ACAD
1000
AcDbSavedByObjectVersion
1070
     0
  0
DICTIONARYVAR
  5
828
102
{ACAD_REACTORS
330
825
102
}
330
825
100
DictionaryVariables
280
     0
  1
1:1
  0
DICTIONARYVAR
  5
827
102
{ACAD_REACTORS
330
825
102
}
330
825
100
DictionaryVariables
280
     0
  1
STANDARD
  0
DICTIONARYVAR
  5
826
102
{ACAD_REACTORS
330
825
102
}
330
825
100
DictionaryVariables
280
     0
  1
STANDARD
  0
DICTIONARYVAR
  5
925
102
{ACAD_REACTORS
330
825
102
}
330
825
100
DictionaryVariables
280
     0
  1
1
  0
DICTIONARYVAR
  5
924
102
{ACAD_REACTORS
330
825
102
}
330
825
100
DictionaryVariables
280
     0
  1
1
  0
DICTIONARYVAR
  5
923
102
{ACAD_REACTORS
330
825
102
}
330
825
100
DictionaryVariables
280
     0
  1
0
  0
DICTIONARYVAR
  5
920
102
{ACAD_REACTORS
330
825
102
}
330
825
100
DictionaryVariables
280
     0
  1
0
  0
DICTIONARYVAR
  5
921
102
{ACAD_REACTORS
330
825
102
}
330
825
100
DictionaryVariables
280
     0
  1
0
  0
DICTIONARYVAR
  5
91F
102
{ACAD_REACTORS
330
825
102
}
330
825
100
DictionaryVariables
280
     0
  1
2
  0
DICTIONARYVAR
  5
91E
102
{ACAD_REACTORS
330
825
102
}
330
825
100
DictionaryVariables
280
     0
  1
1
  0
DICTIONARYVAR
  5
922
102
{ACAD_REACTORS
330
825
102
}
330
825
100
DictionaryVariables
280
     0
  1
127
  0
DICTIONARYVAR
  5
DE8
102
{ACAD_REACTORS
330
825
102
}
330
825
100
DictionaryVariables
280
     0
  1
2
  0
DICTIONARY
  5
894
102
{ACAD_REACTORS
330
888
102
}
330
888
100
AcDbDictionary
281
     1
  0
DICTIONARY
  5
E2D
330
76
100
AcDbDictionary
280
     1
281
     1
  3
ACAD_XREC_ROUNDTRIP
360
E2E
  0
DICTIONARY
  5
E30
330
7E
100
AcDbDictionary
280
     1
281
     1
  3
ACAD_XREC_ROUNDTRIP
360
E31
  0
DICTIONARY
  5
8DB
330
7A
100
AcDbDictionary
280
     1
281
     1
  3
ACAD_XREC_ROUNDTRIP
360
E2F
  3
ADSK_XREC_LAYOUTTHUMBNAIL
360
8DC
  0
DICTIONARY
  5
1A
330
19
100
AcDbDictionary
280
     1
281
     1
  3
ACAD_XREC_ROUNDTRIP
360
E04
  3
BUMPTILE
360
1C
  3
DIFFUSETILE
360
1B
  3
OPACITYTILE
360
1F
  3
REFLECTIONTILE
360
1E
  3
REFRACTIONTILE
360
20
  3
SPECULARTILE
360
1D
  0
DICTIONARY
  5
12
330
11
100
AcDbDictionary
280
     1
281
     1
  3
ACAD_XREC_ROUNDTRIP
360
E03
  3
BUMPTILE
360
14
  3
DIFFUSETILE
360
13
  3
OPACITYTILE
360
17
  3
REFLECTIONTILE
360
16
  3
REFRACTIONTILE
360
18
  3
SPECULARTILE
360
15
  0
DICTIONARY
  5
22
330
21
100
AcDbDictionary
280
     1
281
     1
  3
ACAD_XREC_ROUNDTRIP
360
E05
  3
BUMPTILE
360
24
  3
DIFFUSETILE
360
23
  3
OPACITYTILE
360
27
  3
REFLECTIONTILE
360
26
  3
REFRACTIONTILE
360
28
  3
SPECULARTILE
360
25
  0
DICTIONARY
  5
927
330
70
100
AcDbDictionary
280
     1
281
     1
  3
ACAD_ROUNDTRIP_2008_TABLESTYLE_CELLSTYLEMAP
360
DE9
  3
ACAD_XREC_ROUNDTRIP
360
E2C
  0
DICTIONARY
  5
E10
330
2F
100
AcDbDictionary
280
     1
281
     1
  3
ACAD_XREC_ROUNDTRIP
360
E11
  0
DICTIONARY
  5
E14
330
31
100
AcDbDictionary
280
     1
281
     1
  3
ACAD_XREC_ROUNDTRIP
360
E15
  0
DICTIONARY
  5
E12
330
30
100
AcDbDictionary
280
     1
281
     1
  3
ACAD_XREC_ROUNDTRIP
360
E13
  0
DICTIONARY
  5
E0E
330
2E
100
AcDbDictionary
280
     1
281
     1
  3
ACAD_XREC_ROUNDTRIP
360
E0F
  0
DICTIONARY
  5
E1C
330
35
100
AcDbDictionary
280
     1
281
     1
  3
ACAD_XREC_ROUNDTRIP
360
E1D
  0
DICTIONARY
  5
E24
330
39
100
AcDbDictionary
280
     1
281
     1
  3
ACAD_XREC_ROUNDTRIP
360
E25
  0
DICTIONARY
  5
E16
330
32
100
AcDbDictionary
280
     1
281
     1
  3
ACAD_XREC_ROUNDTRIP
360
E17
  0
DICTIONARY
  5
E1A
330
34
100
AcDbDictionary
280
     1
281
     1
  3
ACAD_XREC_ROUNDTRIP
360
E1B
  0
DICTIONARY
  5
E2A
330
3C
100
AcDbDictionary
280
     1
281
     1
  3
ACAD_XREC_ROUNDTRIP
360
E2B
  0
DICTIONARY
  5
E22
330
38
100
AcDbDictionary
280
     1
281
     1
  3
ACAD_XREC_ROUNDTRIP
360
E23
  0
DICTIONARY
  5
E06
330
2A
100
AcDbDictionary
280
     1
281
     1
  3
ACAD_XREC_ROUNDTRIP
360
E07
  0
DICTIONARY
  5
E08
330
2B
100
AcDbDictionary
280
     1
281
     1
  3
ACAD_XREC_ROUNDTRIP
360
E09
  0
DICTIONARY
  5
E0A
330
2C
100
AcDbDictionary
280
     1
281
     1
  3
ACAD_XREC_ROUNDTRIP
360
E0B
  0
DICTIONARY
  5
E0C
330
2D
100
AcDbDictionary
280
     1
281
     1
  3
ACAD_XREC_ROUNDTRIP
360
E0D
  0
DICTIONARY
  5
E34
330
A3A
100
AcDbDictionary
280
     1
281
     1
  3
ACAD_XREC_ROUNDTRIP
360
E35
  0
DICTIONARY
  5
E26
330
3A
100
AcDbDictionary
280
     1
281
     1
  3
ACAD_XREC_ROUNDTRIP
360
E27
  0
DICTIONARY
  5
E20
330
37
100
AcDbDictionary
280
     1
281
     1
  3
ACAD_XREC_ROUNDTRIP
360
E21
  0
DICTIONARY
  5
E28
330
3B
100
AcDbDictionary
280
     1
281
     1
  3
ACAD_XREC_ROUNDTRIP
360
E29
  0
DICTIONARY
  5
E18
330
33
100
AcDbDictionary
280
     1
281
     1
  3
ACAD_XREC_ROUNDTRIP
360
E19
  0
DICTIONARY
  5
E3E
330
A3F
100
AcDbDictionary
280
     1
281
     1
  3
ACAD_XREC_ROUNDTRIP
360
E3F
  0
DICTIONARY
  5
E3C
330
A3E
100
AcDbDictionary
280
     1
281
     1
  3
ACAD_XREC_ROUNDTRIP
360
E3D
  0
DICTIONARY
  5
E36
330
A3B
100
AcDbDictionary
280
     1
281
     1
  3
ACAD_XREC_ROUNDTRIP
360
E37
  0
DICTIONARY
  5
E38
330
A3C
100
AcDbDictionary
280
     1
281
     1
  3
ACAD_XREC_ROUNDTRIP
360
E39
  0
DICTIONARY
  5
E1E
330
36
100
AcDbDictionary
280
     1
281
     1
  3
ACAD_XREC_ROUNDTRIP
360
E1F
  0
DICTIONARY
  5
E32
330
A39
100
AcDbDictionary
280
     1
281
     1
  3
ACAD_XREC_ROUNDTRIP
360
E33
  0
DICTIONARY
  5
E3A
330
A3D
100
AcDbDictionary
280
     1
281
     1
  3
ACAD_XREC_ROUNDTRIP
360
E3B
  0
XRECORD
  5
E2E
102
{ACAD_REACTORS
330
E2D
102
}
330
E2D
100
AcDbXrecord
280
     1
102
SHADEPLOT
 70
     0
102
SHADEPLOTRESLEVEL
 70
     2
102
SHADEPLOTCUSTOMDPI
 70
   300
  0
XRECORD
  5
E31
102
{ACAD_REACTORS
330
E30
102
}
330
E30
100
AcDbXrecord
280
     1
102
SHADEPLOT
 70
     0
102
SHADEPLOTRESLEVEL
 70
     2
102
SHADEPLOTCUSTOMDPI
 70
   300
  0
XRECORD
  5
E2F
102
{ACAD_REACTORS
330
8DB
102
}
330
8DB
100
AcDbXrecord
280
     1
102
SHADEPLOT
 70
     0
102
SHADEPLOTRESLEVEL
 70
     2
102
SHADEPLOTCUSTOMDPI
 70
   300
  0
XRECORD
  5
8DC
102
{ACAD_REACTORS
330
8DB
102
}
330
8DB
100
AcDbXrecord
280
     1
310
28000000000100008800000001000800000000000088000000000000000000000001000000000000F0FCFE0000000000FFFFFF000000000000000000000000000000000000000000000000000000000000000000330000006600000099000000CC000000FF00000000330000333300006633000099330000CC330000FF3300
310
0000660000336600006666000099660000CC660000FF66000000990000339900006699000099990000CC990000FF99000000CC000033CC000066CC000099CC0000CCCC0000FFCC000000FF000033FF000066FF000099FF0000CCFF0000FFFF000000003300330033006600330099003300CC003300FF003300003333003333
310
33006633330099333300CC333300FF33330000663300336633006666330099663300CC663300FF66330000993300339933006699330099993300CC993300FF99330000CC330033CC330066CC330099CC3300CCCC3300FFCC330000FF330033FF330066FF330099FF3300CCFF3300FFFF330000006600330066006600660099
310
006600CC006600FF00660000336600333366006633660099336600CC336600FF33660000666600336666006666660099666600CC666600FF66660000996600339966006699660099996600CC996600FF99660000CC660033CC660066CC660099CC6600CCCC6600FFCC660000FF660033FF660066FF660099FF6600CCFF6600
310
FFFF660000009900330099006600990099009900CC009900FF00990000339900333399006633990099339900CC339900FF33990000669900336699006666990099669900CC669900FF66990000999900339999006699990099999900CC999900FF99990000CC990033CC990066CC990099CC9900CCCC9900FFCC990000FF99
310
0033FF990066FF990099FF9900CCFF9900FFFF99000000CC003300CC006600CC009900CC00CC00CC00FF00CC000033CC003333CC006633CC009933CC00CC33CC00FF33CC000066CC003366CC006666CC009966CC00CC66CC00FF66CC000099CC003399CC006699CC009999CC00CC99CC00FF99CC0000CCCC0033CCCC0066CC
310
CC0099CCCC00CCCCCC00FFCCCC0000FFCC0033FFCC0066FFCC0099FFCC00CCFFCC00FFFFCC000000FF003300FF006600FF009900FF00CC00FF00FF00FF000033FF003333FF006633FF009933FF00CC33FF00FF33FF000066FF003366FF006666FF009966FF00CC66FF00FF66FF000099FF003399FF006699FF009999FF00CC
310
99FF00FF99FF0000CCFF0033CCFF0066CCFF0099CCFF00CCCCFF00FFCCFF0000FFFF0033FFFF0066FFFF0099FFFF00CCFFFF00FFFFFF00000000000D0D0D001A1A1A00282828003535350043434300505050005D5D5D006B6B6B00787878008686860093939300A1A1A100AEAEAE00BBBBBB00C9C9C900D6D6D600E4E4E400
310
F1F1F100FFFFFF0000000000000000000000000000000000000000000000000000000000000000000000000000000000E1E1E1E1E1E1E1E1E1E1E1E1E1E1E1E1E1E1E1E1E1E1E1E1E1E1E1E1E1E1E1E1E1E1E1E1E1E1E1E1E1E1E1E1E1E1E1E1E1E1E1E1E1E1E1E1E1E1E1E1E1E1E1E1E1E1E1E1E1E1E1E1E1E1E1E1E1E1E1
310
E1E1E1E1E1E1E1E1E1E1E1E1E1E1E1E1E1E1E1E1E1E1E1E1E1E1E1E1E1E1E1E1E1E1E1E1E1E1E1E1E1E1E1E1E1E1E1E1E1E1E1E1E1E1E1E1E1E1E1E1E1E1E1E1E1E1E1E1E1E1E1E1E1E1E1E1E1E1E1E1E1E1E1E1E1E1E1E1E1E1E1E1E1E1E1E1E1E1E1E1E1E1E1E1E1E1E1E1E1E1E1E1E1E1E1E1E1E1E1E1E1E1E1E1E1E1E1
310
E1E1E1E1E1E1E1E1E1E1E1E1E1E1E1E1E1E1E1E1E1E1E1E1E1E1E1E1E1E1E1E1E1E1E1E1E1E1E1E1E2E1E1E1E1E1E1E1E1E1E1E1E1E1E1E1E1E1E1E1E1E1E1E1E1E1E1E1E1E1E1E1E1E1E1E1E1E1E1E1E1E1E1E1E1E1E1E1E1E1E1E1E1E1E1E1E1E1E1E1E1E1E1E1E1E1E1E1E1E1E1E1E1E1E1E1E1E1E1E1E1E1E1E1E1E1E1
310
E1E1E1E1E1E1E1E1E1E1E1E1E1E1E1E1E1E1E1E1E1E1E1E1E1E1E1E1E1E1E1E1E1E1E1E1E1E1E1E1E1E1E1E1E1E1E1E1E1E1E1E1E1E1E1E1E1E1E1E1E1E1E1E1E1E1E1E1E1E1E1E1E1E1E1E1E1E1E1E1E1E1E1E1E1E1E1E1E1E1E1E1E1E1E1E1E1E1E1E1E1E1E1E1E1E1E1E1E1E1E1E1E1E1E1E1E1E1E1E1E1E1E1E1E1E1E1
310
E1E1E1E1E1E1E1E1E1E1E1E1E1E1E1E1E1E1E1E1E1E1E1E1E1E1E1E1E1E1E1E1E1E1E1E1E1E1E1E1E1E1E2E1E1E1E1E1E1E1E1E1E1E1E1E1E1E1E1E1E1E1E1E1E1E1E1E1E1E1E1E1E1E1E1E1E1E1E1E1E1E1E1E1E1E1E1E1E1E1E1E1E1E1E1E1E1E1E1E1E1E1E1E1E1E1E1E1E1E1E1E1E1E1E1E1E1E1E1E1E1E1E1E1E1E1E1
310
E1E1E1E1E1E1E1E1E1E1E1E1E1E1E1E1E1E1E1E1E1E1E1E1E1E1E1E1E1E1E1E1E1E1E1E1E1E1E1E1E1E1E1E1E1E1E1E1E1E1E1E1E1E1E1E1E1E1E1E1E1E1E1E1E1E1E1E1E1E1E1E1E1E1E1E1E1E1E1E1E1E1E1E1E1E1E1E1E1E1E1E1E1E1E1E1E1E1E1E1E1E1E1E1E1E1E1E1E1E1E1E1E1E1E1E1E1E1E1E1E1E1E1E1E1E1E1
310
E1E1E1E1E1E1E1E1E1E1E1E1E1E1E1E1E1E1E1E1E1E1E1E1E1E1E1E1E1E1E1E1E1E1E1E1E1E1E1E1E1E1E1E1E2E1E1E1E1E1E1E1E1E1E1E1E1E1E193E1E1E1E1E1E1E1E1E1E1E1E1E1E1E1E1E1E1E1E1E1E1E1E1E1E1E1E1E1E1E1E1E1E1E1E1E1E1E1E1E1E1E1E1E1E1E1E1E1E1E1E1E1E1E1E1E1E1E1E1E1E1E1E1E1E1E1
310
E1E1E1E1E1E1E1E1E1E1E1E1E1E1E1E1E1E1E1E1E1E1E1E1E1E1E1E1E1E1E1E1E1E1E1E1E1E1E1E1E1E1E1E1E1E1E1E1E1E1E1E1E1E1E1E1E1E1E1E1E1E1E1E1E1E1E1E1E1E1E1E1E1E1E1E1E1E1E1E1E1E1E1E1E1E1E1E1E1E1E1E1E1E1E1E1E1E1E1E1E1E1E1E1E1E1E1E1E1E1E1E1E1E1E1E1E1E1E1E1E1E1E1E1E1E1E1
310
E1E1E1E1E1E1E193E1E1E1E1E1E1E1E1E1E1E1E1E1E1E1E1E1E1E1E1E1E1E1E1E1E1E1E1E1E1E1E1E1E1E1E1E1E1E2E1E1E1E1E1E1E1E1E1E1E1E1E1E193E1E1E1E1E1E1E1E1E1E1E1E1E1E1E1E1E1E1E1E1E1E1E1E1E1E1E1E1E1E1E1E1E1E1E1E1E1E1E1E1E1E1E1E1E1E1E1E1E1E1E1E1E1E1E1E1E1E1E1E1E1E1E1E1E1
310
E1E1E1E1E1E1E1E1E1E1E1E1E1E1E1E1E1E1E1E1E1E1E1E1E1E1E1E1E1E1E1E1E1E1E1E1E1E1E1E1E1E1E1E1E1E1E1E1E1E1E1E1E1E1E1E1E1E1E1E1E1E1E1E1E1E1E1E1E1E1E1E1E1E1E1E1E1E1E1E1E1E1E1E1E1E1E1E1E1E1E1E1E1E1E1E1E1E1E1E1E1E1E1E1E1E1E1E1E1E1E1E1E1E1E1E1E1E1E1E1E1E1E1E1E1E1E1
310
E1E1E1E1E1E1E1E1E193E1E1E1E1E1E1E1E1E1E1E1E1E1E1E1E1E1E1E1E1E1E1E1E1E1E1E1E1E1E1E1E1E1E1E1E1E1E1E2E1E1E1E1E1E1E1E1E1E1E1E1E1E193939393939393939393939393939393939393939393939393939393939393939393939393939393939393939393939393939393939393939393939393939393
310
93939393939393939393939393939393939393939393939393939393939393939393939393939393939393939393939393939393939393939393939393939393939393939393939393939393939393939393939393939393939393939393939393939393939393939393939393939393939393939393939393939393939393
310
939393939393939393939393E1E1E1E1E1E1E1E1E1E1E1E1E1E1E1E1E1E1E1E1E1E1E1E1E1E1E1E1E1E1E1E1E1E1E1E1E1E1E2E1E1E1E1E1E1E1E1E1E1E1E1E1E193E1E1E1E1E1E1E1E1E1E1E1E1E1E1E1E1E1E1E1E1E1E1E1E1E1E1E1E1E1E1E1E1E1E1E1E1E1E1E1E1E1E1E1E1E1E1E1E1E1E1E1E1E1E1E1E1E1E1E1E1E1
310
E1E1E1E1E1E1E1E1E1E1E1E1E1E1E1E1E1E1E1E1E1E1E1E1E1E1E1E1E1E1E1E1E1E1E193939393939393E1E1E1E1E1E1E1E1E1E1E1E1E1E1E1E1E1E1E1E1E1E1E1E1E1E1E1E1E1E1E1E1E1E1E1E1E1E1E1E1E1E1E1E1E1E1E1E1E1E1E1E1E1E1E1E1E1E1E1E1E1E1E1E1E1E1E1E1E1E1E1E1E1E1E1E1E1E1E1E1E1E1E1E1E1
310
E1E1E1E1E1E1E1E1E1E1E1E1E193E1E1E1E1E1E1E1E1E1E1E1E1E1E1E1E1E1E1E1E1E1E1E1E1E1E1E1E1E1E1E1E1E1E1E1E1E1E1E2E1E1E1E1E1E1E1E1E1E1E1E1E1E193E1E1E1E1E1E1E1E1E1E1E1E1E1E1E1E1E1E1E1E1E1E1E1E1E1E1E1E1E1E1E1E1E1E1E1E1E1E1E1E1E1E1E1E1E1E1E1E1E1E1E1E1E1E1E1E1E1E1E1
310
E1E1E1E1E1E1E1E1E1E1E1E1E1E1E1E1E1E1E1E1E1E1E1E1E1E1E1E1E1E1E1E1E1E1E1E1E193939393939393E1E1E1E1E1E1E1E1E1E1E1E1E1E1E1E1E1E1E1E1E1E1E1E1E1E1E1E1E1E1E1E1E1E1E1E1E1E1E1E1E1E1E1E1E1E1E1E1E1E1E1E1E1E1E1E1E1E1E1E1E1E1E1E1E1E1E1E1E1E1E1E1E1E1E1E1E1E1E1E1E1E1E1
310
E1E1E1E1E1E1E1E1E1E1E1E1E1E1E193E1E1E1E1E1E1E1E1E1E1E1E1E1E1E1E1E1E1E1E1E1E1E1E1E1E1E1E1E1E1E1E1E1E1E1E1E1E1E2E1E1E1E1E1E1E1E1E1E1E1E1E1E193E1E1E1E1E1E1E1E1E1E1E1E1E1E1E1E1E1E1E1E1E1E1E1E1E1E1E1E1E1E1E1E1E1E1E1E1E1E1E1E1E1E1E1E1E1E1E1E1E1E1E1E1E1E1E1E1E1
310
E1E1E1E1E1E1E1E1E1E1E1E1E1E1E1E1E1E1E1E1E1E1E1E1E1E1E1E1E1E1E1E1E1E1E1E1E1E1E193939393939393E1E1E1E1E1E1E1E1E1E1E1E1E1E1E1E1E1E1E1E1E1E1E1E1E1E1E1E1E1E1E1E1E1E1E1E1E1E1E1E1E1E1E1E1E1E1E1E1E1E1E1E1E1E1E1E1E1E1E1E1E1E1E1E1E1E1E1E1E1E1E1E1E1E1E1E1E1E1E1E1E1
310
E1E1E1E1E1E1E1E1E1E1E1E1E1E1E1E1E193E1E1E1E1E1E1E1E1E1E1E1E1E1E1E1E1E1E1E1E1E1E1E1E1E1E1E1E1E1E1E1E1E1E1E1E1E1E1E2E1E1E1E1E1E1E1E1E1E1E1E1E1E193E1E1E1E1E1E1E1E1E1E1E1E1E1E1E1E1E1E1E1E1E1E1E1E1E1E1E1E1E1E1E1E1E1E1E1E1E1E1E1E1E1E1E1E1E1E1E1E1E1E1E1E1E1E1E1
310
E1E1E1E1E1E1E1E1E1E1E1E1E1E1E1E1E1E1E1E1E1E1E1E1E1E1E1E1E1E1E1E1E1E1E1E1E1E1E1E1E1E1E1E1E1E1E1E1E1E1E1E1E1E1E1E1E1E1E1E1E1E1E1E1E1E1E1E1E1E1E1E1E1E1E1E1E1E1E1E1E1E1E1E1E1E1E1E1E1E1E1E1E1E1E1E1E1E1E1E1E1E1E1E1E1E1E1E1E1E1E1E1E1E1E1E1E1E1E1E1E1E1E1E1E1E1E1
310
E1E1E1E1E1E1E1E1E1E1E1E1E1E1E1E1E1E1E193E1E1E1E1E1E1E1E1E1E1E1E1E1E1E1E1E1E1E1E1E1E1E1E1E1E1E1E1E1E1E1E1E1E1E1E1E1E1E2E1E1E1E1E1E1E1E1E1E1E1E1E1E193E1E1E1E1E1E1E1E1E1E1E1E1E1E1E1E1E1E1E1E1E1E1E1E1E1E1E1E1E1E1E1E1E1E1E1E1E1E1E1E1E1E1E1E1E1E1E1E1E1E1E1E1E1
310
E1E1E1E1E1E1E1E1E1E1E1E1E1E1E1E1E1E1E1E1E1E1E1E1E1E1E1E1E1E1E1E1E1E1E1E1E1E1E1E1E1E1E1E1E1E1E1E1E1E1E1E1E1E1E1E1E1E1E1E1E1E1E1E1E1E1E1E1E1E1E1E1E1E1E1E1E1E1E1E1E1E1E1E1E1E1E1E1E1E1E1E1E1E1E1E1E1E1E1E1E1E1E1E1E1E1E1E1E1E1E1E1E1E1E1E1E1E1E1E1E1E1E1E1E1E1E1
310
E1E1E1E1E1E1E1E1E1E1E1E1E1E1E1E1E1E1E1E1E193E1E1E1E1E1E1E1E1E1E1E1E1E1E1E1E1E1E1E1E1E1E1E1E1E1E1E1E1E1E1E1E1E1E1E1E1E1E1E2E1E1E1E1E1E1E1E1E1E1E1E1E1E193E1E1E1E1E1E1E1E1E1E1E1E1E1E1E1E1E1E1E1E1E1E1E1E1E1E1E1E1E1E1E1E1E1E1E1E1E1E1E1E1E1E1E1E1E1E1E1E1E1E1E1
310
E1E1E1E1E1E1E1E1E1E1E1E1E1E1E1E1E1E1E1E1E1E1E1E1E1E1E1E1E1E1E1E1E1E1E1E1E1E1E1E1E1E1E1E1E1E1E1E1E1E1E1E1E1E1E1E1E1E1E1E1E1E1E1E1E1E1E1E1E1E1E1E1E1E1E1E1E1E1E1E1E1E1E1E1E1E1E1E1E1E1E1E1E1E1E1E1E1E1E1E1E1E1E1E1E1E1E1E1E1E1E1E1E1E1E1E1E1E1E1E1E1E1E1E1E1E1E1
310
E1E1E1E1E1E1E1E1E1E1E1E1E1E1E1E1E1E1E1E1E1E1E193E1E1E1E1E1E1E1E1E1E1E1E1E1E1E1E1E1E1E1E1E1E1E1E1E1E1E1E1E1E1E1E1E1E1E1E1E1E1E2E1E1E1E1E1E1E1E1E1E1E1E1E1E193E1E1E1E1E1E1E1E1E1E1E1E1E1E1E1E1E1E1E1E1E1E1E1E1E1E1E1E1E1E1E1E1E1E1E1E1E1E1E1E1E1E1E1E1E1E1E1E1E1
310
E1E1E1E1E1E1E1E1E1E1E1E1E1E1E1E1E1E1E1E1E1E1E1E1E1E1E1E1E1E1E1E1E1E1E1E1E1E1E1E1E1E1E1E1E1E1E1E1E1E1E1E1E1E1E1E1E1E1E1E1E1E1E1E1E1E1E1E1E1E1E1E1E1E1E1E1E1E1E1E1E1E1E1E1E1E1E1E1E1E1E1E1E1E1E1E1E1E1E1E1E1E1E1E1E1E1E1E1E1E1E1E1E1E1E1E1E1E1E1E1E1E1E1E1E1E1E1
310
E1E1E1E1E1E1E1E1E1E1E1E1E1E1E1E1E1E1E1E1E1E1E1E1E193E1E1E1E1E1E1E1E1E1E1E1E1E1E1E1E1E1E1E1E1E1E1E1E1E1E1E1E1E1E1E1E1E1E1E1E1E1E1E2E1E1E1E1E1E1E1E1E1E1E1E1E1E193E1E1E1E1E1E1E1E1E1E1E1E1E1E1E1E1E1E1E1E1E1E1E1E1E1E1E1E1E1E1E1E1E1E1E1E1E1E1E1E1E1E1E1E1E1E1E1
310
E1E1E1E1E1E1E1E1E1E1E1E1E1E1E1E1E1E1E1E1E1E1E1E1E1E1E1E1E1E1E1E1E1E1E1E1E1E1E1E1E1E1E1E1E1E1E1E1E1E1E1E1E1E1E1E1E1E1E1E1E1E1E1E1E1E1E1E1E1E1E1E1E1E1E1E1E1E1E1E1E1E1E1E1E1E1E1E1E1E1E1E1E1E1E1E1E1E1E1E1E1E1E1E1E1E1E1E1E1E1E1E1E1E1E1E1E1E1E1E1E1E1E1E1E1E1E1
310
E1E1E1E1E1E1E1E1E1E1E1E1E1E1E1E1E1E1E1E1E1E1E1E1E1E1E193E1E1E1E1E1E1E1E1E1E1E1E1E1E1E1E1E1E1E1E1E1E1E1E1E1E1E1E1E1E1E1E1E1E1E1E1E1E1E2E1E1E1E1E1E1E1E1E1E1E1E1E1E193E1E1E1E1E1E1E1E1E1E1E1E1E1E1E1E1E1E1E1E1E1E1E1E1E1E1E1E1E1E1E1E1E1E1E1E1E1E1E1E1E1E1E1E1E1
310
E1E1E1E1E1E1E1E1E1E1E1E1E1E1E1E1E1E1E1E1E1E1E1E1E1E1E1E1E1E1E1E1E1E1E1E1E1E1E1E1E1E1E1E1E1E1E1E1E1E1E1E1E1E1E1E1E1E1E1E1E1E1E1E1E1E1E1E1E1E1E1E1E1E1E1E1E1E1E1E1E1E1E1E1E1E1E1E1E1E1E1E1E1E1E1E1E1E1E1E1E1E1E1E1E1E1E1E1E1E1E1E1E1E1E1E1E1E1E1E1E1E1E1E1E1E1E1
310
E1E1E1E1E1E1E1E1E1E1E1E1E1E1E1E1E1E1E1E1E1E1E1E1E1E1E1E1E193E1E1E1E1E1E1E1E1E1E1E1E1E1E1E1E1E1E1E1E1E1E1E1E1E1E1E1E1E1E1E1E1E1E1E1E1E1E1E2E2E2E1E1E1E1E1E1E1E1E1E1E1E193E1E1E1E1E1E1E1E1E1E1E1E1E1E1E1E1E1E1E1E1E1E1E1E1E1E1E1E1E1E1E1E1E1E1E1E1E1E1E1E1E1E1E1
310
E1E1E1E1E1E1E1E1E1E1E1E1E1E1E1E1E1E1E1E1E1E1E1E1E1E1E1E1E1E1E1E1E1E1E1E1E1E1E1E1E1E1E1E1E1E1E1E1E1E1E1E1E1E1E1E1E1E1E1E1E1E1E1E1E1E1E1E1E1E1E1E1E1E1E1E1E1E1E1E1E1E1E1E1E1E1E1E1E1E1E1E1E1E1E1E1E1E1E1E1E1E1E1E1E1E1E1E1E1E1E1E1E1E1E1E1E1E1E1E1E1E1E1E1E1E1E1
310
E1E1E1E1E1E1E1E1E1E1E1E1E1E1E1E1E1E1E1E1E1E1E1E1E1E1E1E1E1E1E193E1E1E1E1E1E1E1E1E1E1E1E1E1E1E1E1E1E1E1E1E1E1E1E1E1E1E1E1E1E1E1E1E1E1E1E1E1E1E2E1E1E1E1E1E1E1E1E1E1E1E1E1E193E1E1E1E1E1E1E1E1E1E1E1E1E1E1E1E1E1E1E1E1E1E1E1E1E1E1E1E1E1E1E1E1E1E1E1E1E1E1E1E1E1
310
E1E1E1E1E1E1E1E1E1E1E1E1E1E1E1E1E1E1E1E1E1E1E1E1E1E1E1E1E1E1E1E1E1E1E1E1E1E1E1E1E1E1E1E1E1E1E1E1E1E1E1E1E1E1E1E1E1E1E1E1E1E1E1E1E1E1E1E1E1E1E1E1E1E1E1E1E1E1E1E1E1E1E1E1E1E1E1E1E1E1E1E1E1E1E1E1E1E1E1E1E1E1E1E1E1E1E1E1E1E1E1E1E1E1E1E1E1E1E1E1E1E1E1E1E1E1E1
310
E1E1E1E1E1E1E1E1E1E1E1E1E1E1E1E1E1E1E1E1E1E1E1E1E1E1E1E1E1E1E1E1E193E1E1E1E1E1E1E1E1E1E1E1E1E1E1E1E1E1E1E1E1E1E1E1E1E1E1E1E1E1E1E1E1E1E1E1E1E1E1E2E1E1E1E1E1E1E1E1E1E1E1E1E1E193E1E1E1E1E1E1E1E1E1E1E1E1E1E1E1E1E1E1E1E1E1E1E1E1E1E1E1E1E1E1E1E1E1E1E1E1E1E1E1
310
E1E1E1E1E1E1E1E1E1E1E1E1E1E1E1E1E1E1E1E1E1E1E1E1E1E1E1E1E1E1E1E1E1E1E1E1E1E1E1E1E1E1E1E1E1E1E1E1E1E1E1E1E1E1E1E1E1E1E1E1E1E1E1E1E1E1E1E1E2E2E2E2E2E2E2E2E2E2E2E2E2E2E2E2E2E2E2E2E2E2E2E2E2E2E2E2E2E2E2E2E2E2E2E2E2E2E2E2E2E2E2E2E29393939393939393939393939393
310
939393939393939393939393939393939393939393939393939393939393939393939393939393939393939393939393939393E1E1E1E1E1E1E1E1E1E1E1E1E1E1E1E1E1E1E1E1E1E1E1E2E1E1E1E1E1E1E1E1E1E1E1E1E1E193E1E1E1E1E1E1E1E1E1E1E1E1E1E1E1E1E1E1E1E1E1E1E1E1E1E1E1E1E1E1E1E1E1E1E1E1E1
310
E1E1E1E1E1E1E1E1E1E1E1E1E1E1E1E1E1E1E1E1E1E1E1E1E1E1E1E1E1E1E1E1E1E1E1E1E1E1E1E1E1E1E1E1E1E1E1E1E1E1E1E1E1E1E1E1E1E1E1E1E1E1E1E2E2E2E2E2E2E2E1E1E1E1E1E1E1E1E1E1E1E1E1E1E1E1E1E1E1E1E1E1E1E1E1E1E1E1E1E1E1E1E1E1E1E1E1E1E1E1E1E1E1E1E1E1E1E1E1E2E2E2E2E2E2E1E1
310
E1E1E1E1E1E1E1E1E1E1E1E1E1E1E1E1E1E1E1E1E1E1E1E1E1E1E1E1E1E1E1E1E1E1E1E1E193E1E1E1E1E1E1E1E1E1E1E1E193E1E1E1E1E1E1E1E1E1E1E1E1E1E1E1E1E1E1E1E1E1E1E1E1E1E2E1E1E1E1E1E1E1E1E1E1E1E1E1E193E1E1E1E1E1E1E1E1E1E1E1E1E1E1E1E1E1E1E1E1E1E1E1E1E1E1E1E1E1E1E1E1E1E1E1
310
E1E1E1E1E1E1E1E1E1E1E1E1E1E1E1E1E1E1E1E1E1E1E1E1E1E1E1E1E1E1E1E1E1E1E1E1E1E1E1E1E1E1E1E1E1E1E1E1E1E1E1E1E1E1E1E1E1E1E1E1E1E2E2E2E2E1E1E1E1E1E1E1E1E1E1E1E1E1E1E1E1E1E1E1E1E1E1E1E1E1E1E1E1E1E1E1E1E1E1E1E1E1E1E1E1E1E1E1E1E1E1E1E1E1E1E1E1E1E1E1E1E1E1E1E1E1E1
310
E2E2E2E2E2E1E1E1E1E1E1E1E1E1E1E1E1E1E1E1E1E1E1E1E1E1E1E1E1E1E1E1E1E1E1E1E1E1E193E1E1E1E1E1E1E1E1E1E1E19393E1E1E1E1E1E1E1E1E1E1E1E1E1E1E1E1E1E1E1E1E1E1E1E1E1E2E1E1E1E1E1E1E1E1E1E1E1E1E1E193E1E1E1E1E1E1E1E1E1E1E1E1E1E1E1E1E1E1E1E1E1E1E1E1E1E1E1E1E1E1E1E1E1
310
E1E1E1E1E1E1E1E1E1E1E1E1E1E1E1E1E1E1E1E1E1E1E1E1E1E1E1E1E1E1E1E1E1E1E1E1E1E1E1E1E1E1E1E1E1E1E1E1E1E1E1E1E1E1E1E1E1E1E1E1E1E2E2E1E1E1E1E1E1E1E1E1E1E1E1E1E1E1E1E1E1E1E1E1E1E1E1E1E1E1E1E1E1E1E1E1E1E1E1E1E1E1E1E1E1E1E1E1E1E1E1E1E1E1E1E1E1E1E1E1E1E1E1E1E1E1E1
310
E1E1E1E1E1E1E1E2E2E2E1E1E1E1E1E1E1E1E1E1E1E1E1E1E1E1E1E1E1E1E1E1E1E1E1E1E1E1E1E1E193E1E1E1E1E1E1E1E1E1E1E1E193E1E1E1E1E1E1E1E1E1E1E1E1E1E1E1E1E1E1E1E1E1E1E1E1E1E2E1E1E1E1E1E1E1E1E1E1E1E1E1E193E1E1E1E1E1E1E1E1E1E1E1E1E1E1E1E1E1E1E1E1E1E1E1E1E1E1E1E1E1E1E1
310
E1E1E1E1E1E1E1E1E1E1E1E1E1E1E1E1E1E1E1E1E1E1E1E1E1E1E1E1E1E1E1E1E1E1E1E1E1E1E1E1E1E1E1E1E1E1E1E1E1E1E1E1E1E1E1E1E1E1E1E1E1E2E2E1E1E1E1E1E1E1E1E1E1E1E1E1E1E1E1E1E1E1E1E1E1E1E1E1E1E1E1E1E1E1E1E1E1E1E1E1E1E1E1E1E1E1E1E1E1E1E1E1E1E1E1E1E1E1E1E1E1E1E1E1E1E1E1
310
E1E1E1E1E1E1E1E1E1E1E1E1E2E2E1E1E1E1E1E1E1E1E1E1E1E1E1E1E1E1E1E1E1E1E1E1E1E1E1E1E1E1E193E1E1E1E1E1E1E1E1E1E1E1E193E1E1E1E1E1E1E1E1E1E1E1E1E1E1E1E1E1E1E1E1E1E1E1E1E1E2E1E1E1E1E1E1E1E1E1E1E1E1E1E193E1E1E1E1E1E1E1E1E1E1E1E1E1E1E1E1E1E1E1E1E1E1E1E1E1E1E1E1E1
310
E1E1E1E1E1E1E1E1E1E1E1E1E1E1E1E1E1E1E1E1E1E1E1E1E1E1E1E1E1E1E1E1E1E1E1E1E1E1E1E1E1E1E1E1E1E1E1E1E1E1E1E1E1E1E1E1E1E1E1E1E1E2E2E1E1E1E1E1E1E1E1E1E1E1E1E1E1E1E1E1E1E1E1E1E1E1E1E1E1E1E1E1E1E1E1E1E1E1E1E1E1E1E1E1E1E1E1E1E1E1E1E1E1E1E1E1E1E1E1E1E1E1E1E1E1E1E1
310
E1E1E1E1E1E1E1E1E1E1E1E1E1E1E1E1E2E2E1E1E1E1E1E1E1E1E1E1E1E1E1E1E1E1E1E1E1E1E1E1E1E1E1E1E193E1E1E1E1E1E1E1E1E1E1E1E193E1E1E1E1E1E1E1E1E1E1E1E1E1E1E1E1E1E1E1E1E1E1E1E1E1E2E1E1E1E1E1E1E1E1E1E1E1E1E1E193E1E1E1E1E1E1E1E1E1E1E1E1E1E1E1E1E1E1E1E1E1E1E1E1E1E1E1
310
E1E1E1E1E1E1E1E1E1E1E1E1E1E1E1E1E1E1E1E1E1E1E1E1E1E1E1E1E1E1E1E1E1E1E1E1E1E1E1E1E1E1E1E1E1E1E1E1E1E1E1E1E1E1E1E1E1E1E1E1E1E2E2E1E1E1E1E1E1E1E1E1E1E1E1E1E1E1E1E1E1E1E1E1E1E1E1E1E1E1E1E1E1E1E1E1E1E1E1E1E1E1E1E1E1E1E1E1E1E1E1E1E1E1E1E1E1E1E1E1E1E1E1E1E1E1E1
310
E1E1E1E1E1E1E1E1E1E1E1E1E1E1E1E1E1E1E1E1E2E2E1E1E1E1E1E1E1E1E1E1E1E1E1E1E1E1E1E1E1E1E1E1E1E1E193E1E1E1E1E1E1E1E1E1E1E1E193E1E1E1E1E1E1E1E1E1E1E1E1E1E1E1E1E1E1E1E1E1E1E1E1E1E2E1E1E1E1E1E1E1E1E1E1E1E1E1E193E1E1E1E1E1E1E1E1E1E1E1E1E1E1E1E1E1E1E1E1E1E1E1E1E1
310
E1E1E1E1E1E1E1E1E1E1E1E1E1E1E1E1E1E1E1E1E1E1E1E1E1E1E1E1E1E1E1E1E1E1E1E1E1E1E1E1E1E1E1E1E1E1E1E1E1E1E1E1E1E1E1E1E1E1E1E1E1E2E2E1E1E1E1E1E1E1E1E1E1E1E1E1E1E1E1E1E1E1E1E1E1E1E1E1E1E1E1E1E1E1E1E1E1E1E1E1E1E1E1E1E1E1E1E1E1E1E1E1E1E1E1E1E1E1E1E1E1E1E1E1E1E1E1
310
E1E1E1E1E1E1E1E1E1E1E1E1E1E1E1E1E1E1E1E1E1E1E1E1E2E2E1E1E1E1E1E1E1E1E1E1E1E1E1E1E1E1E1E1E1E1E1E1E193E1E1E1E1E1E1E1E1E1E1E1E193E1E1E1E1E1E1E1E1E1E1E1E1E1E1E1E1E1E1E1E1E1E1E1E1E1E2E1E1E1E1E1E1E1E1E1E1E1E1E1E193E1E1E1E1E1E1E1E1E1E1E1E1E1E1E1E1E1E1E1E1E1E1E1
310
E1E1E1E1E1E1E1E1E1E1E1E1E1E1E1E1E1E1E1E1E1E1E1E1E1E1E1E1E1E1E1E1E1E1E1E1E1E1E1E1E1E1E1E1E1E1E1E1E1E1E1E1E1E1E1E1E1E1E1E1E1E2E2E1E1E1E1E1E1E1E1E1E1E1E1E1E1E1E1E1E1E1E1E1E1E1E1E1E1E1E1E1E1E1E1E1E1E1E1E1E1E1E1E1E1E1E1E1E1E1E1E1E1E1E1E1E1E1E1E1E1E1E1E1E1E1E1
310
E1E1E1E1E1E1E1E1E1E1E1E1E1E1E1E1E1E1E1E1E1E1E1E1E1E1E1E1E2E2E1E1E1E1E1E1E1E1E1E1E1E1E1E1E1E1E1E1E1E1E193E1E1E1E1E1E1E1E1E1E1E1E193E1E1E1E1E1E1E1E1E1E1E1E1E1E1E1E1E1E1E1E1E1E1E1E1E1E2E1E1E1E1E1E1E1E1E1E1E1E1E1E193E1E1E1E1E1E1E1E1E1E1E1E1E1E1E1E1E1E1E1E1E1
310
E1E1E1E1E1E1E1E1E1E1E1E1E1E1E1E1E1E1E1E1E1E1E1E1E1E1E1E1E1E1E1E1E1E1E1E1E1E1E1E1E1E1E1E1E1E1E1E1E1E1E1E1E1E1E1E1E1E1E1E1E1E2E2E1E1E1E1E1E1E1E1E1E1E1E1E1E1E1E1E1E1E1E1E1E1E1E1E1E1E1E1E1E1E1E1E1E1E1E1E1E1E1E1E1E1E1E1E1E1E1E1E1E1E1E1E1E1E1E1E1E1E1E1E1E1E1E1
310
E1E1E1E1E1E1E1E1E1E1E1E1E1E1E1E1E1E1E1E1E1E1E1E1E1E1E1E1E1E1E1E1E2E2E1E1E1E1E1E1E1E1E1E1E1E1E1E1E1E1E1E1E193E1E1E1E1E1E1E1E1E1E1E1E193E1E1E1E1E1E1E1E1E1E1E1E1E1E1E1E1E1E1E1E1E1E1E1E1E1E2E1E1E1E1E1E1E1E1E1E1E1E1E1E193E1E1E1E1E1E1E1E1E1E1E1E1E1E1E1E1E1E1E1
310
E1E1E1E1E1E1E1E1E1E1E1E1E1E1E1E1E1E1E1E1E1E1E1E1E1E1E1E1E1E1E1E1E1E1E1E1E1E1E1E1E1E1E1E1E1E1E1E1E1E1E1E1E1E1E1E1E1E1E1E1E1E1E2E1E1E1E1E1E1E1E1E1E1E1E1E1E1E1E1E1E1E1E1E1E1E1E1E1E1E1E1E1E1E1E1E1E1E1E1E1E1E1E1E1E1E1E1E1E1E1E1E1E1E1E1E1E1E1E1E1E1E1E1E1E1E1E1
310
E1E1E1E1E1E1E1E1E1E1E1E1E1E1E1E1E1E1E1E1E1E1E1E1E1E1E1E1E1E1E1E1E1E1E1E1E2E1E1E1E1E1E1E1E1E1E1E1E1E1E1E1E1E1E193E1E1E1E1E1E1E1E1E1E1E1E193E1E1E1E1E1E1E1E1E1E1E1E1E1E1E1E1E1E1E1E1E1E1E1E1E1E2E1E1E1E1E1E1E1E1E1E1E1E1E1E193E1E1E1E1E1E1E1E1E1E1E1E1E1E1E1E1E1
310
E1E1E1E1E1E1E1E1E1E1E1E1E1E1E1E1E1E1E1E1E1E1E1E1E1E1E1E1E1E1E1E1E1E1E1E1E1E1E1E1E1E1E1E1E1E1E1E1E1E1E1E1E1E1E1E1E1E1E1E1E1E1E2E2E1E1E1E1E1E1E1E1E1E1E1E1E1E1E1E1E1E1E1E1E1E1E1E1E1E1E1E1E1E1E1E1E1E1E1E1E1E1E1E1E1E1E1E1E1E1E1E1E1E1E1E1E1E1E1E1E1E1E1E1E1E1E1
310
E1E1E1E1E1E1E1E1E1E1E1E1E1E1E1E1E1E1E1E1E1E1E1E1E1E1E1E1E1E1E1E1E1E1E1E1E1E1E1E2E1E1E1E1E1E1E1E1E1E1E1E1E1E1E1E1E193E1E1E1E1E1E1E1E1E1E1E1E193E1E1E1E1E1E1E1E1E1E1E1E1E1E1E1E1E1E1E1E1E1E1E1E1E1E2E1E1E1E1E1E1E1E1E1E1E1E1E1E193E1E1E1E1E1E1E1E1E1E1E1E1E1E1E1
310
E1E1E1E1E1E1E1E1E1E1E1E1E1E1E1E1E1E1E1E1E1E1E1E1E1E1E1E1E1E1E1E1E1E1E1E1E1E1E1E1E1E1E1E1E1E1E1E1E1E1E1E1E1E1E1E1E1E1E1E1E1E1E1E2E1E1E1E1E1E1E1E1E1E1E1E1E1E1E1E1E1E1E1E1E1E1E1E1E1E1E1E1E1E1E1E1E1E1E1E1E1E1E1E1E1E1E1E1E1E1E1E1E1E1E1E1E1E1E1E1E1E1E1E1E1E1E1
310
E1E1E1E1E1E1E1E1E1E1E1E1E1E1E1E1E1E1E1E1E1E1E1E1E1E1E1E1E1E1E1E1E1E1E1E1E1E1E1E1E1E1E2E1E1E1E1E1E1E1E1E1E1E1E1E1E1E1E193E1E1E1E1E1E1E1E1E1E1E1E193E1E1E1E1E1E1E1E1E1E1E1E1E1E1E1E1E1E1E1E1E1E1E1E1E1E2E1E1E1E1E1E1E1E1E1E1E1E1E1E193E1E1E1E1E1E1E1E1E1E1E1E1E1
310
E1E1E1E1E1E1E1E1E1E1E1E1E1E1E1E1E1E1E1E1E1E1E1E1E1E1E1E1E1E1E1E1E1E1E1E1E1E1E1E1E1E1E1E1E1E1E1E1E1E1E1E1E1E1E1E1E1E1E1E1E1E1E1E1E2E1E1E1E1E1E1E1E1E1E1E1E1E1E1E1E1E1E1E1E1E1E1E1E1E1E1E1E1E1E1E1E1E1E1E1E1E1E1E1E1E1E1E1E1E1E1E1E1E1E1E1E1E1E1E1E1E1E1E1E1E1E1
310
E1E1E1E1E1E1E1E1E1E1E1E1E1E1E1E1E1E1E1E1E1E1E1E1E1E1E1E1E1E1E1E1E1E1E1E1E1E1E1E1E1E1E1E1E1E2E1E1E1E1E1E1E1E1E1E1E1E1E1E1E193E1E1E1E1E1E1E1E1E1E1E1E193E1E1E1E1E1E1E1E1E1E1E1E1E1E1E1E1E1E1E1E1E1E1E1E1E1E2E1E1E1E1E1E1E1E1E1E1E1E1E1E193E1E1E1E1E1E1E1E1E1E1E1
310
E1E1E1E1E1E1E1E1E1E1E1E1E1E1E1E1E1E1E1E1E1E1E1E1E1E1E1E1E1E1E1E1E1E1E1E1E1E1E1E1E1E1E1E1E1E1E1E1E1E1E1E1E1E1E1E1E1E1E1E1E1E1E1E1E1E2E1E1E1E1E1E1E1E1E1E1E1E1E1E1E1E1E1E1E1E1E1E1E1E1E1E1E1E1E1E1E1E1E1E1E1E1E1E1E1E1E1E1E1E1E1E1E1E1E1E1E1E1E1E1E1E1E1E1E1E1E1
310
E1E1E1E1E1E1E1E1E1E1E1E1E1E1E1E1E1E1E1E1E1E1E1E1E1E1E1E1E1E1E1E1E1E1E1E1E1E1E1E1E1E1E1E1E1E1E1E1E2E1E1E1E1E1E1E1E1E1E1E1E1E1E193E1E1E1E1E1E1E1E1E1E1E1E193E1E1E1E1E1E1E1E1E1E1E1E1E1E1E1E1E1E1E1E1E1E1E1E1E1E2E1E1E1E1E1E1E1E1E1E1E1E1E1E193E1E1E1E1E1E1E1E1E1
310
E1E1E1E1E1E1E1E1E1E1E1E1E1E1E1E1E1E1E1E1E1E1E1E1E1E1E1E1E1E1E1E1E1E1E1E1E1E1E1E1E1E1E1E1E1E1E1E1E1E1E1E1E1E1E1E1E1E1E1E1E1E1E1E1E1E1E2E1E1E1E1E1E1E1E1E1E1E1E1E1E1E1E1E1E1E1E1E1E1E1E1E1E1E1E1E1E1E1E1E1E1E1E1E1E1E1E1E1E1E1E1E1E1E1E1E1E1E1E1E1E1E1E1E1E1E1E1
310
E1E1E1E1E1E1E1E1E1E1E1E1E1E1E1E1E1E1E1E1E1E1E1E1E1E1E1E1E1E1E1E1E1E1E1E1E1E1E1E1E1E1E1E1E1E1E1E1E1E1E1E2E1E1E1E1E1E1E1E1E1E1E1E1E193E1E1E1E1E1E1E1E1E1E1E1E193E1E1E1E1E1E1E1E1E1E1E1E1E1E1E1E1E1E1E1E1E1E1E1E1E1E2E1E1E1E1E1E1E1E1E1E1E1E1E1E193E1E1E1E1E1E1E1
310
E1E1E1E1E1E1E1E1E1E1E1E1E1E1E1E1E1E1E1E1E1E1E1E1E1E1E1E1E1E1E1E1E1E1E1E1E1E1E1E1E1E1E1E1E1E1E1E1E1E1E1E1E1E1E1E1E1E1E1E1E1E1E1E1E1E1E1E2E1E1E1E1E1E1E1E1E1E1E1E1E1E1E1E1E1E1E1E1E1E1E1E1E1E1E1E1E1E1E1E1E1E1E1E1E1E1E1E1E1E1E1E1E1E1E1E1E1E1E1E1E1E1E1E1E1E1E1
310
E1E1E1E1E1E1E1E1E1E1E1E1E1E1E1E1E1E1E1E1E1E1E1E1E1E1E1E1E1E1E1E1E1E1E1E1E1E1E1E1E1E1E1E1E1E1E1E1E1E1E1E1E1E1E2E1E1E1E1E1E1E1E1E1E1E1E193E1E1E1E1E1E1E1E1E1E1E1E193E1E1E1E1E1E1E1E1E1E1E1E1E1E1E1E1E1E1E1E1E1E1E1E1E1E2E1E1E1E1E1E1E1E1E1E1E1E1E1E193E1E1E1E1E1
310
E1E1E1E1E1E1E1E1E1E1E1E1E1E1E1E1E1E1E1E2E2E2E2E2E2E2E2E2E2E2E2E2E2E2E2E2E2E2E2E2E2E2E2E2E2E2E2E2E2E2E2E2E2E2E2E2E2E2E2E2E2E2E2E2E2E2E2E2E2E1E1E1E1E1E1E1E1E1E1E1E1E1E1E1E1E1E1E1E1E1E1E1E1E1E1E1E1E1E1E1E1E1E1E1E1E1E1E1E1E1E1E1E1E1E1E1E1E1E1E1E1E1E1E1E1E1E1
310
E1E1E1E1E1E1E1E1E1E1E1E1E1E1E1E1E1E1E1E1E1E1E1E1E1E1E1E1E1E1E1E1E1E1E1E1E1E1E1E1E1E1E1E1E1E1E1E1E1E1E1E1E1E1E1E1E1E2E1E1E1E1E1E1E1E1E1E1E193E1E1E1E1E1E1E1E1E1E1E1E193E1E1E1E1E1E1E1E1E1E1E1E1E1E1E1E1E1E1E1E1E1E1E1E1E1E2E1E1E1E1E1E1E1E1E1E1E1E1E1E193E1E1E1
310
E1E1E1E1E1E1E1E1E1E1E1E1E1E1E1E1E1E1E2E2E2E1E1E1E1E1E1E1E1E1E1E1E1E1E1E1E1E1E1E1E1E1E1E1E1E1E1E1E1E1E1E1E1E1E1E1E1E1E1E1E1E1E1E1E1E1E1E1E1E1E1E1E1E1E1E1E1E1E1E1E1E1E1E1E1E1E1E1E1E1E1E1E1E1E1E1E1E1E1E1E1E1E1E1E1E1E1E1E1E1E1E1E1E1E1E1E1E1E1E1E1E1E1E1E1E1E1
310
E1E1E1E1E1E1E1E1E1E1E1E1E1E1E1E1E1E1E1E1E1E1E1E1E1E1E1E1E1E1E1E1E1E1E1E1E1E1E1E1E1E1E1E1E1E1E1E1E1E1E1E1E1E1E1E1E1E1E1E1E2E1E1E1E1E1E1E1E1E1E193E1E1E1E1E1E1E1E1E1E1E1E193E1E1E1E1E1E1E1E1E1E1E1E1E1E1E1E1E1E1E1E1E1E1E1E1E1E2E1E1E1E1E1E1E1E1E1E1E1E1E1E193E1
310
E1E1E1E1E1E1E1E1E1E1E1E1E1E1E1E1E1E1E2E2E1E1E1E1E1E1E1E1E1E1E1E1E1E1E1E1E1E1E1E1E1E1E1E1E1E1E1E1E1E1E1E1E1E1E1E1E1E1E1E1E1E1E1E1E1E1E1E1E1E1E1E1E1E1E1E1E1E1E1E1E1E1E1E1E1E1E1E1E1E1E1E1E1E1E1E1E1E1E1E1E1E1E1E1E1E1E1E1E1E1E1E1E1E1E1E1E1E1E1E1E1E1E1E1E1E1E1
310
E1E1E1E1E1E1E1E1E1E1E1E1E1E1E1E1E1E1E1E1E1E1E1E1E1E1E1E1E1E1E1E1E1E1E1E1E1E1E1E1E1E1E1E1E1E1E1E1E1E1E1E1E1E1E1E1E1E1E1E1E1E1E1E2E1E1E1E1E1E1E1E1E193E1E1E1E1E1E1E1E1E1E1E1E193E1E1E1E1E1E1E1E1E1E1E1E1E1E1E1E1E1E1E1E1E1E1E1E1E1E2E2E1E1E1E1E1E1E1E1E1E1E1E1E1
310
93E1E1E1E1E1E1E1E1E1E1E1E1E1E1E1E1E1E2E2E1E1E1E1E1E1E1E1E1E1E1E1E1E1E1E1E1E1E1E1E1E1E1E1E1E1E1E1E1E1E1E1E1E1E1E1E1E1E1E1E1E1E1E1E1E1E1E1E1E1E1E1E1E1E1E1E1E1E1E1E1E1E1E1E1E1E1E1E1E1E1E1E1E1E1E1E1E1E1E1E1E1E1E1E1E1E1E1E1E1E1E1E1E1E1E1E1E1E1E1E1E1E1E1E1E1E1
310
E1E1E1E1E1E1E1E1E1E1E1E1E1E1E1E1E1E1E1E1E1E1E1E1E1E1E1E1E1E1E1E1E1E1E1E1E1E1E1E1E1E1E1E1E1E1E1E1E1E1E1E1E1E1E1E1E1E1E1E1E1E1E1E1E1E1E2E1E1E1E1E1E1E1E193E1E1E1E1E1E1E1E1E1E1E1E193E1E1E1E1E1E1E1E1E1E1E1E1E1E1E1E1E1E1E1E1E1E1E1E1E1E2E2E1E1E1E1E1E1E1E1E1E1E1
310
E1E193E1E1E1E1E1E1E1E1E1E1E1E1E1E1E1E2E2E1E1E1E1E1E1E1E1E1E1E1E1E1E1E1E1E1E1E1E1E1E1E1E1E1E1E1E1E1E1E1E1E1E1E1E1E1E1E1E1E1E1E1E1E1E1E1E1E1E1E1E1E1E1E1E1E1E1E1E1E1E1E1E1E1E1E1E1E1E1E1E1E1E1E1E1E1E1E1E1E1E1E1E1E1E1E1E1E1E1E1E1E1E1E1E1E1E1E1E1E1E1E1E1E1E1E1
310
E1E1E1E1E1E1E1E1E1E1E1E1E1E1E1E1E1E1E1E1E1E1E1E1E1E1E1E1E1E1E1E1E1E1E1E1E1E1E1E1E1E1E1E1E1E1E1E1E1E1E1E1E1E1E1E1E1E1E1E1E1E1E1E1E1E1E1E1E2E1E1E1E1E1E1E1E193E1E1E1E1E1E1E1E1E1E1E1E193E1E1E1E1E1E1E1E1E1E1E1E1E1E1E1E1E1E1E1E1E1E1E1E1E1E2E2E1E1E1E1E1E1E1E1E1
310
E1E1E1E193E1E1E1E1E1E1E1E1E1E1E1E1E1E2E2E1E1E1E1E1E1E1E1E1E1E1E1E1E1E1E1E1E1E1E1E1E1E1E1E1E1E1E1E1E1E1E1E1E1E1E1E1E1E1E1E1E1E1E1E1E1E1E1E1E1E1E1E1E1E1E1E1E1E1E1E1E1E1E1E1E1E1E1E1E1E1E1E1E1E1E1E1E1E1E1E1E1E1E1E1E1E1E1E1E1E1E1E1E1E1E1E1E1E1E1E1E1E1E1E1E1E1
310
E1E1E1E1E1E1E1E1E1E1E1E1E1E1E1E1E1E1E1E1E1E1E1E1E1E1E1E1E1E1E1E1E1E1E1E1E1E1E1E1E1E1E1E1E1E1E1E1E1E1E1E1E1E1E1E1E1E1E1E1E1E1E1E1E1E1E1E1E1E1E1E2E1E1E1E1E1E1E193E1E1E1E1E1E1E1E1E1E1E1E193E1E1E1E1E1E1E1E1E1E1E1E1E1E1E1E1E1E1E1E1E1E1E1E1E1E2E1E1E1E1E1E1E1E1
310
E1E1E1E1E1E193E1E1E1E1E1E1E1E1E1E1E1E1E2E1E1E1E1E1E1E1E1E1E1E1E1E1E1E1E1E1E1E1E1E1E1E1E1E1E1E1E1E1E1E1E1E1E1E1E1E1E1E1E1E1E1E1E1E1E1E1E1E1E1E1E1E1E1E1E1E1E1E1E1E1E1E1E1E1E1E1E1E1E1E1E1E1E1E1E1E1E1E1E1E1E1E1E1E1E1E1E1E1E1E1E1E1E1E1E1E1E1E1E1E1E1E1E1E1E1E1
310
E1E1E1E1E1E1E1E1E1E1E1E1E1E1E1E1E1E1E1E1E1E1E1E1E1E1E1E1E1E1E1E1E1E1E1E1E1E1E1E1E1E1E1E1E1E1E1E1E1E1E1E1E1E1E1E1E1E1E1E1E1E1E1E1E1E1E1E1E1E1E1E1E1E2E1E1E1E1E1E1E193E1E1E1E1E1E1E1E1E1E1E1E193E1E1E1E1E1E1E1E1E1E1E1E1E1E1E1E1E1E1E1E1E1E1E1E1E1E2E1E1E1E1E1E1
310
E1E1E1E1E1E1E1E193E1E1E1E1E1E1E1E1E1E1E2E2E1E1E1E1E1E1E1E1E1E1E1E1E1E1E1E1E1E1E1E1E1E1E1E1E1E1E1E1E1E1E1E1E1E1E1E1E1E1E1E1E1E1E1E1E1E1E1E1E1E1E1E1E1E1E1E1E1E1E1E1E1E1E1E1E1E1E1E1E1E1E1E1E1E1E1E1E1E1E1E1E1E1E1E1E1E1E1E1E1E1E1E1E1E1E1E1E1E1E1E1E1E1E1E1E1E1
310
E1E1E1E1E1E1E1E1E1E1E1E1E1E1E1E1E1E1E1E1E1E1E1E1E1E1E1E1E1E1E1E1E1E1E1E1E1E1E1E1E1E1E1E1E1E1E1E1E1E1E1E1E1E1E1E1E1E1E1E1E1E1E1E1E1E1E1E1E1E1E1E1E1E1E1E1E2E1E1E1E1E1E193E1E1E1E1E1E1E1E1E1E1E1E193E1E1E1E1E1E1E1E1E1E1E1E1E1E1E1E1E1E1E1E1E1E1E1E1E1E2E1E1E1E1
310
E1E1E1E1E1E1E1E1E1E193E1E1E1E1E1E1E1E1E1E2E1E1E1E1E1E1E1E1E1E1E1E1E1E1E1E1E1E1E1E1E1E1E1E1E1E1E1E1E1E1E1E1E1E1E1E1E1E1E1E1E1E1E1E1E1E1E1E1E1E1E1E1E1E1E1E1E1E1E1E1E1E1E1E1E1E1E1E1E1E1E1E1E1E1E1E1E1E1E1E1E1E1E1E1E1E1E1E1E1E1E1E1E1E1E1E1E1E1E1E1E1E1E1E1E1E1
310
E1E1E1E1E1E1E1E1E1E1E1E1E1E1E1E1E1E1E1E1E1E1E1E1E1E1E1E1E1E1E1E1E1E1E1E1E1E1E1E1E1E1E1E1E1E1E1E1E1E1E1E1E1E1E1E1E1E1E1E1E1E1E1E1E1E1E1E1E1E1E1E1E1E1E1E1E1E1E2E1E1E1E1E1E193E1E1E1E1E1E1E1E1E1E1E1E193E1E1E1E1E1E1E1E1E1E1E1E1E1E1E1E1E1E1E1E1E1E1E1E1E1E2E1E1
310
E1E1E1E1E1E1E1E1E1E1E1E193E1E1E1E1E1E1E1E1E2E1E1E1E1E1E1E1E1E1E1E1E1E1E1E1E1E1E1E1E1E1E1E1E1E1E1E1E1E1E1E1E1E1E1E1E1E1E1E1E1E1E1E1E1E1E1E1E1E1E1E1E1E1E1E1E1E1E1E1E1E1E1E1E1E1E1E1E1E1E1E1E1E1E1E1E1E1E1E1E1E1E1E1E1E1E1E1E1E1E1E1E1E1E1E1E1E1E1E1E1E1E1E1E1E1
310
E1E1E1E1E1E1E1E1E1E1E1E1E1E1E1E1E1E1E1E1E1E1E1E1E1E1E1E1E1E1E1E1E1E1E1E1E1E1E1E1E1E1E1E1E1E1E1E1E1E1E1E1E1E1E1E1E1E1E1E1E1E1E1E1E1E1E1E1E1E1E1E1E1E1E1E1E1E1E1E1E1E2E1E1E1E1E193E1E1E1E1E1E1E1E1E1E1E1E193E1E1E1E1E1E1E1E1E1E1E1E1E1E1E1E1E1E1E1E1E1E1E1E1E1E2
310
E1E1E1E1E1E1E1E1E1E1E1E1E1E193E1E1E1E1E1E1E1E2E1E1E1E1E1E1E1E1E1E1E1E1E1E1E1E1E1E1E1E1E1E1E1E1E1E1E1E1E1E1E1E1E1E1E1E1E1E1E1E1E1E1E1E1E1E1E1E1E1E1E1E1E1E1E1E1E1E1E1E1E1E1E1E1E1E1E1E1E1E1E1E1E1E1E1E1E1E1E1E1E1E1E1E1E1E1E1E1E1E1E1E1E1E1E1E1E1E1E1E1E1E1E1E1
310
E1E1E1E1E1E1E1E1E1E1E1E1E1E1E1E1E1E1E1E1E1E1E1E1E1E1E1E1E1E1E1E1E1E1E1E1E1E1E1E1E1E1E1E1E1E1E1E1E1E1E1E1E1E1E1E1E1E1E1E1E1E1E1E1E1E1E1E1E1E1E1E1E1E1E1E1E1E1E1E1E1E1E1E2E1E1E1E1E193E1E1E1E1E1E1E1E1E1E1E1E193E1E1E1E1E1E1E1E1E1E1E1E1E1E1E1E1E1E1E1E1E1E1E1E1
310
E1E2E1E1E1E1E1E1E1E1E1E1E1E1E1E193E1E1E1E1E1E1E1E2E1E1E1E1E1E1E1E1E1E1E1E1E1E1E1E1E1E1E1E1E1E1E1E1E1E1E1E1E1E1E1E1E1E1E1E1E1E1E1E1E1E1E1E1E1E1E1E1E1E1E1E1E1E1E1E1E1E1E1E1E1E1E1E1E1E1E1E1E1E1E1E1E1E1E1E1E1E1E1E1E1E1E1E1E1E1E1E1E1E1E1E1E1E1E1E1E1E1E1E1E1E1
310
E1E1E1E1E1E1E1E1E1E1E1E1E1E1E1E1E1E1E1E1E1E1E1E1E1E1E1E1E1E1E1E1E1E1E1E1E1E1E1E1E1E1E1E1E1E1E1E1E1E1E1E1E1E1E1E1E1E1E1E1E1E1E1E1E1E1E1E1E1E1E1E1E1E1E1E1E1E1E1E1E1E1E1E1E1E1E2E1E1E1E193E1E1E1E1E1E1E1E1E1E1E1E193E1E1E1E1E1E1E1E1E1E1E1E1E1E1E1E1E1E1E1E1E1E1
310
E1E1E1E2E1E1E1E1E1E1E1E1E1E1E1E1E1E193E1E1E1E1E1E1E2E1E1E1E1E1E1E1E1E1E1E1E1E1E1E1E1E1E1E1E1E1E1E1E1E1E1E1E1E1E1E1E1E1E1E1E1E1E1E1E1E1E1E1E1E1E1E1E1E1E1E1E1E1E1E1E1E1E1E1E1E1E1E1E1E1E1E1E1E1E1E1E1E1E1E1E1E1E1E1E1E1E1E1E1E1E1E1E1E1E1E1E1E1E1E1E1E1E1E1E1E1
310
E1E1E1E1E1E1E1E1E1E1E1E1E1E1E1E1E1E1E1E1E1E1E1E1E1E1E1E1E1E1E1E1E1E1E1E1E1E1E1E1E1E1E1E1E1E1E1E1E1E1E1E1E1E1E1E1E1E1E1E1E1E1E1E1E1E1E1E1E1E1E1E1E1E1E1E1E1E1E1E1E1E1E1E1E1E1E1E1E2E1E1E1E193E1E1E1E1E1E1E1E1E1E1E1E193E1E1E1E1E1E1E1E1E1E1E1E1E1E1E1E1E1E1E1E1
310
E1E1E1E1E1E2E1E1E1E1E1E1E1E1E1E1E1E1E1E193E1E1E1E1E1E2E1E1E1E1E1E1E1E1E1E1E1E1E1E1E1E1E1E1E1E1E1E1E1E1E1E1E1E1E1E1E1E1E1E1E1E1E1E1E1E1E1E1E1E1E1E1E1E1E1E1E1E1E1E1E1E1E1E1E1E1E1E1E1E1E1E1E1E1E1E1E1E1E1E1E1E1E1E1E1E1E1E1E1E1E1E1E1E1E1E1E1E1E1E1E1E1E1E1E1E1
310
E1E1E1E1E1E1E1E1E1E1E1E1E1E1E1E1E1E1E1E1E1E1E1E1E1E1E1E1E1E1E1E1E1E1E1E1E1E1E1E1E1E1E1E1E1E1E1E1E1E1E1E1E1E1E1E1E1E1E1E1E1E1E1E1E1E1E1E1E1E1E1E1E1E1E1E1E1E1E1E1E1E1E1E1E1E1E1E1E1E1E1E2E1E1E193E1E1E1E1E1E1E1E1E1E1E1E193E1E1E1E1E1E1E1E1E1E1E1E1E1E1E1E1E1E1
310
E1E1E1E1E1E1E1E2E1E1E1E1E1E1E1E1E1E1E1E1E1E193E1E1E1E1E2E1E1E1E1E1E1E1E1E1E1E1E1E1E1E1E1E1E1E1E1E1E1E1E1E1E1E1E1E1E1E1E1E1E1E1E1E1E1E1E1E1E1E1E1E1E1E1E1E1E1E1E1E1E1E1E1E1E1E1E1E1E1E1E1E1E1E1E1E1E1E1E1E1E1E1E1E1E1E1E1E1E1E1E1E1E1E1E1E1E1E1E1E1E1E1E1E1E1E1
310
E1E1E1E1E1E1E1E1E1E1E1E1E1E1E1E1E1E1E1E1E1E1E1E1E1E1E1E1E1E1E1E1E1E1E1E1E1E1E1E1E1E1E1E1E1E1E1E1E1E1E1E1E1E1E1E1E1E1E1E1E1E1E1E1E1E1E1E1E1E1E1E1E1E1E1E1E1E1E1E1E1E1E1E1E1E1E1E1E1E1E1E1E1E2E1E1E193E1E1E1E1E1E1E1E1E1E1E1E193E1E1E1E1E1E1E1E1E1E1E1E1E1E1E1E1
310
E1E1E1E1E1E1E1E1E1E2E1E1E1E1E1E1E1E1E1E1E1E1E1E193E1E1E1E1E2E1E1E1E1E1E1E1E1E1E1E1E1E1E1E1E1E1E1E1E1E1E1E1E1E1E1E1E1E1E1E1E1E1E1E1E1E1E1E1E1E1E1E1E1E1E1E1E1E1E1E1E1E1E1E1E1E1E1E1E1E1E1E1E1E1E1E1E1E1E1E1E1E1E1E1E1E1E1E1E1E1E1E1E1E1E1E1E1E1E1E1E1E1E1E1E1E1
310
E1E1E1E1E1E1E1E1E1E1E1E1E1E1E1E1E1E1E1E1E1E1E1E1E1E1E1E1E1E1E1E1E1E1E1E1E1E1E1E1E1E1E1E1E1E1E1E1E1E1E1E1E1E1E1E1E1E1E1E1E1E1E1E1E1E1E1E1E1E1E1E1E1E1E1E1E1E1E1E1E1E1E1E1E1E1E1E1E1E1E1E1E1E1E1E1E2E1E193E1E1E1E1E1E1E1E1E1E1E1E193E1E1E1E1E1E1E1E1E1E1E1E1E1E1
310
E1E1E1E1E1E1E1E1E1E1E1E2E1E1E1E1E1E1E1E1E1E1E1E1E1E193E1E1E1E2E1E1E1E1E1E1E1E1E1E1E1E1E1E1E1E1E1E1E1E1E1E1E1E1E1E1E1E1E1E1E1E1E1E1E1E1E1E1E1E1E1E1E1E1E1E1E1E1E1E1E1E1E1E1E1E1E1E1E1E1E1E1E1E1E1E1E1E1E1E1E1E1E1E1E1E1E1E1E1E1E1E1E1E1E1E1E1E1E1E1E1E1E1E1E1E1
310
E1E1E1E1E1E1E1E1E1E1E1E1E1E1E1E1E1E1E1E1E1E1E1E1E1E1E1E1E1E1E1E1E1E1E1E1E1E1E1E1E1E1E1E1E1E1E1E1E1E1E1E1E1E1E1E1E1E1E1E1E1E1E1E1E1E1E1E1E1E1E1E1E1E1E1E1E1E1E1E1E1E1E1E1E1E1E1E1E1E1E1E1E1E1E1E1E1E1E2E1E193E1E1E1E1E1E1E1E1E1E1E1E193E1E1E1E1E1E1E1E1E1E1E1E1
310
E1E1E1E1E1E1E1E1E1E1E1E1E1E2E1E1E1E1E1E1E1E1E1E1E1E1E1E193E1E1E2E1E1E1E1E1E1E1E1E1E1E1E1E1E1E1E1E1E1E1E1E1E1E1E1E1E1E1E1E1E1E1E1E1E1E1E1E1E1E1E1E1E1E1E1E1E1E1E1E1E1E1E1E1E1E1E1E1E1E1E1E1E1E1E1E1E1E1E1E1E1E1E1E1E1E1E1E1E1E1E1E1E1E1E1E1E1E1E1E1E1E1E1E1E1E1
310
E1E1E1E1E1E1E1E1E1E1E1E1E1E1E1E1E1E1E1E1E1E1E1E1E1E1E1E1E1E1E1E1E1E1E1E1E1E1E1E1E1E1E1E1E1E1E1E1E1E1E1E1E1E1E1E1E1E1E1E1E1E1E1E1E1E1E1E1E1E1E1E1E1E1E1E1E1E1E1E1E1E1E1E1E1E1E1E1E1E1E1E1E1E1E1E1E1E1E1E1E2E1E193E1E1E1E1E1E1E1E1E1E1E1E193E1E1E1E1E1E1E1E1E1E1
310
E1E1E1E1E1E1E1E1E1E1E1E1E1E1E1E2E1E1E1E1E1E1E1E1E1E1E1E1E1E193E1E1E2E1E1E1E1E1E1E1E1E1E1E1E1E1E1E1E1E1E1E1E1E1E1E1E1E1E1E1E1E1E1E1E1E1E1E1E1E1E1E1E1E1E1E1E1E1E1E1E1E1E1E1E1E1E1E1E1E1E1E1E1E1E1E1E1E1E1E1E1E1E1E1E1E1E1E1E1E1E1E1E1E1E1E1E1E1E1E1E1E1E1E1E1E1
310
E1E1E1E1E1E1E1E1E1E1E1E1E1E1E1E1E1E1E1E1E1E1E1E1E1E1E1E1E1E1E1E1E1E1E1E1E1E1E1E1E1E1E1E1E1E1E1E1E1E1E1E1E1E1E1E1E1E1E1E1E1E1E1E1E1E1E1E1E1E1E1E1E1E1E1E1E1E1E1E1E1E1E1E1E1E1E1E1E1E1E1E1E1E1E1E1E1E1E1E1E1E1E1E2E193E1E1E1E1E1E1E1E1E1E1E1E193E1E1E1E1E1E1E1E1
310
E1E1E1E1E1E1E1E1E1E1E1E1E1E1E1E1E1E2E1E1E1E1E1E1E1E1E1E1E1E1E1E193E1E2E1E1E1E1E1E1E1E1E1E1E1E1E1E1E1E1E1E1E1E1E1E1E1E1E1E1E1E1E1E1E1E1E1E1E1E1E1E1E1E1E1E1E1E1E1E1E1E1E1E1E1E1E1E1E1E1E1E1E1E1E1E1E1E1E1E1E1E1E1E1E1E1E1E1E1E1E1E1E1E1E1E1E1E1E1E1E1E1E1E1E1E1
310
E1E1E1E1E1E1E1E1E1E1E1E1E1E1E1E1E1E1E1E1E1E1E1E1E1E1E1E1E1E1E1E1E1E1E1E1E1E1E1E1E1E1E1E1E1E1E1E1E1E1E1E1E1E1E1E1E1E1E1E1E1E1E1E1E1E1E1E1E1E1E1E1E1E1E1E1E1E1E1E1E1E1E1E1E1E1E1E1E1E1E1E1E1E1E1E1E1E1E1E1E1E1E1E1E1E2E193E1E1E1E1E1E1E1E1E1E1E1E193E1E1E1E1E1E1
310
E1E1E1E1E1E1E1E1E1E1E1E1E1E1E1E1E1E1E1E2E1E1E1E1E1E1E1E1E1E1E1E1E1E193E1E2E1E1E1E1E1E1E1E1E1E1E1E1E1E1E1E1E1E1E1E1E1E1E1E1E1E1E1E1E1E1E1E1E1E1E1E1E1E1E1E1E1E1E1E1E1E1E1E1E1E1E1E1E1E1E1E1E1E1E1E1E1E193E1E1E1E1E1E1E1E1E1E1E1E1E1E1E1E1E1E1E1E1E1E1E1E1E1E1E1
310
E1E1E1E1E1E1E1E1E1E1E1E1E1E1E1E1E1E1E1E1E1E1E1E1E1E1E1E1E1E1E1E1E1E1E1E1E1E1E1E1E1E1E1E1E1E1E1E1E1E1E1E1E1E1E1E1E1E1E1E193E1E1E1E1E1E1E1E1E1E1E1E1E1E1E1E1E1E1E1E1E1E1E1E1E1E1E1E1E1E1E1E1E1E1E1E1E1E1E1E1E1E1E1E1E1E1E2E193E1E1E1E1E1E1E1E1E1E1E1E193E1E1E1E1
310
E1E1E1E1E1E1E1E1E1E1E1E1E1E1E1E1E1E1E1E1E1E2E1E1E1E1E1E1E1E1E1E1E1E1E1E193E2E1E1E1E1E1E1E1E1E1E1E1E1E1E1E1E1E1E1E1E1E1E1E1E1E1E1E1E1E1E1E1E1E1E1E1E1E1E1E1E1E1E1E1E1E1E1E1E1E1E1E1E1E1E1E1E1E1E1E1E1E1E1E19393E1E1E1E1E1E1E1E1E1E1E1E1E1E1E1E1E1E1E1E1E1E1E1E1
310
E1E1E1E1E1E1E1E1E1E1E1E1E1E1E1E1E1E1E1E1E1E1E1E1E1E1E1E1E1E1E1E1E1E1E1E1E1E1E1E1E1E1E1E1E1E1E1E1E1E1E1E1E1E1E1E1E1E1E1E193E193E1E1E1E1E1E1E1E1E1E1E1E1E1E1E1E1E1E1E1E1E1E1E1E1E1E1E1E1E1E1E1E1E1E1E1E1E1E1E1E1E1E1E1E1E1E1E1E293E1E1E1E1E1E1E1E1E1E1E1E193E1E1
310
E1E1E1E1E1E1E1E1E1E1E1E1E1E1E1E1E1E1E1E1E1E1E1E2E1E1E1E1E1E1E1E1E1E1E1E1E1E193E2E1E1E1E1E1E1E1E1E1E1E1E1E1E1E1E1E1E1E1E1E1E1E1E1E1E1E1E1E1E1E1E1E1E1E1E1E1E1E1E1E1E1E1E1E1E1E1E1E1E1E1E1E1E1E1E1E1E1E1E1E1E1E1939393939393939393939393939393939393939393939393
310
9393939393939393939393939393939393939393939393939393939393939393939393939393939393939393939393939393939393939393939393939393939393E1E1E1E1E1E1E1E1E1E1E1E1E1E1E1E1E1E1E1E1E1E1E1E1E1E1E1E1E1E1E1E1E1E1E1E1E1E1E1E1E1E1E1E1E1E1E1E293E1E1E1E1E1E1E1E1E1E1E1E193
310
E1E1E1E1E1E1E1E1E1E1E1E1E1E1E1E1E1E1E1E1E1E1E1E1E1E2E1E1E1E1E1E1E1E1E1E1E1E1E1E193E2E1E1E1E1E1E1E1E1E1E1E1E1E1E1E1E1E1E1E1E1E1E1E1E1E1E1E1E1E1E1E1E1E1E1E1E1E1E1E1E1E1E1E1E1E1E1E1E1E1E1E1E1E1E1E1E1E1E1E1E1E1E1E193E1E1E1E1E1E1E1E1E1E1E1E1E1E1E1E1E1E1E1E1E1
310
E1E1E1E1E1E1E1E1E1E1E1E1E1E1E1E1E1E1E1939393939393E1E1E1E1E1E1E1E1E1E1E1E1E1E1E1E1E1E1E1E1E1E1E1E1E1E1E1E1E1E1E1E1E1E1E1E1E1E1E1E1E193E1E1E1E1E1E1E1E1E1E1E1E1E1E1E1E1E1E1E1E1E1E1E1E1E1E1E1E1E1E1E1E1E1E1E1E1E1E1E1E1E1E1E1E1E1E1E1E293E1E1E1E1E1E1E1E1E1E1E1
310
E193E1E1E1E1E1E1E1E1E1E1E1E1E1E1E1E1E1E1E1E1E1E1E1E1E1E2E1E1E1E1E1E1E1E1E1E1E1E1E1E193E2E1E1E1E1E1E1E1E1E1E1E1E1E1E1E1E1E1E1E1E1E1E1E1E1E1E1E1E1E1E1E1E1E1E1E1E1E1E1E1E1E1E1E1E1E1E1E1E1E1E1E1E1E1E1E1E1E1E1E1E1E1E1E193E1E1E1E1E1E1E1E1E1E1E1E1E1E1E1E1E1E1E1
310
E1E1E1E1E1E1E1E1E1E1E1E1E1E1E1E1E1E1E1E1E1939393939393E1E1E1E1E1E1E1E1E1E1E1E1E1E1E1E1E1E1E1E1E1E1E1E1E1E1E1E1E1E1E1E1E1E1E1E1E1E1E1E1E193E1E1E1E1E1E1E1E1E1E1E1E1E1E1E1E1E1E1E1E1E1E1E1E1E1E1E1E1E1E1E1E1E1E1E1E1E1E1E1E1E1E1E1E1E1E1E1E293E1E1E1E1E1E1E1E1E1
310
E1E1E193E1E1E1E1E1E1E1E1E1E1E1E1E1E1E1E1E1E1E1E1E1E1E1E1E1E2E1E1E1E1E1E1E1E1E1E1E1E1E1E193E1E1E1E1E1E1E1E1E1E1E1E1E1E1E1E1E1E1E1E1E1E1E1E1E1E1E1E1E1E1E1E1E1E1E1E1E1E1E1E1E1E1E1E1E1E1E1E1E1E1E1E1E1E1E1E1E1E1E1E1E1E1E1E193E1E1E1E1E1E1E1E1E1E1E1E1E1E1E1E1E1
310
E1E1E1E1E1E1E1E1E1E1E1E1E1E1E1E1E1E1E1E1E1E1E1E1E1E1E1E1E1E1E1E1E1E1E1E1E1E1E1E1E1E1E1E1E1E1E1E1E1E1E1E1E1E1E1E1E1E1E1E1E1E1E1E1E1E1E1E1E1E193E1E1E1E1E1E1E1E1E1E1E1E1E1E1E1E1E1E1E1E1E1E1E1E1E1E1E1E1E1E1E1E1E1E1E1E1E1E1E1E1E1E1E1E1E1E1E1E193E1E1E1E1E1E1E1
310
E1E1E1E1E193E1E1E1E1E1E1E1E1E1E1E1E1E1E1E1E1E1E1E1E1E1E1E1E1E1E2E1E1E1E1E1E1E1E1E1E1E1E1E1E193E1E1E1E1E1E1E1E1E1E1E1E1E1E1E1E1E1E1E1E1E1E1E1E1E1E1E1E1E1E1E1E1E1E1E1E1E1E1E1E1E1E1E1E1E1E1E1E1E1E1E1E1E1E1E1E1E1E1E1E1E1E1E1E193E1E1E1E1E1E1E1E1E1E1E1E1E1E1E1
310
E1E1E1E1E1E1E1E1E1E1E1E1E1E1E1E1E1E1E1E1E1E1E1E1E1E1E1E1E1E1E1E1E1E1E1E1E1E1E1E1E1E1E1E1E1E1E1E1E1E1E1E1E1E1E1E1E1E1E1E1E1E1E1E1E1E1E1E1E1E1E1E193E1E1E1E1E1E1E1E1E1E1E1E1E1E1E1E1E1E1E1E1E1E1E1E1E1E1E1E1E1E1E1E1E1E1E1E1E1E1E1E1E1E1E1E1E1E1E1E193E1E1E1E1E1
310
E1E1E1E1E1E1E193E1E1E1E1E1E1E1E1E1E1E1E1E1E1E1E1E1E1E1E1E1E1E1E1E1E2E1E1E2E1E1E1E1E1E1E1E1E1E1E193E1E1E1E1E1E1E1E1E1E1E1E1E1E1E1E1E1E1E1E1E1E1E1E1E1E1E1E1E1E1E1E1E1E1E1E1E1E1E1E1E1E1E1E1E1E1E1E1E1E1E1E1E1E1E1E1E1E1E1E1E1E1E1E193E1E1E1E1E1E1E1E1E1E1E1E1E1
310
E1E1E1E1E1E1E1E1E1E1E1E1E1E1E1E1E1E1E1E1E1E1E1E1E1E1E1E1E1E1E1E1E1E1E1E1E1E1E1E1E1E1E1E1E1E1E1E1E1E1E1E1E1E1E1E1E1E1E1E1E1E1E1E1E1E1E1E1E1E1E1E1E1E193E1E1E1E1E1E1E1E1E1E1E1E1E1E1E1E1E1E1E1E1E1E1E1E1E1E1E1E1E1E1E1E1E1E1E1E1E1E1E1E1E1E1E1E1E1E1E1E193E1E1E1
310
E1E1E1E1E1E1E1E1E193E1E1E1E1E1E1E1E1E1E1E1E1E1E1E1E1E1E1E1E1E1E1E1E1E1E2E2E2E2E1E1E1E1E1E1E1E1E1E1E193E1E1E1E1E1E1E1E1E1E1E1E1E1E1E1E1E1E1E1E1E1E1E1E1E1E1E1E1E1E1E1E1E1E1E1E1E1E1E1E1E1E1E1E1E1E1E1E1E1E1E1E1E1E1E1E1E1E1E1E1E1E1E1E193E1E1E1E1E1E1E1E1E1E1E1
310
E1E1E1E1E1E1E1E1E1E1E1E1E1E1E1E1E1E1E1E1E1E1E1E1E1E1E1E1E1E1E1E1E1E1E1E1E1E1E1E1E1E1E1E1E1E1E1E1E1E1E1E1E1E1E1E1E1E1E1E1E1E1E1E1E1E1E1E1E1E1E1E1E1E1E1E193E1E1E1E1E1E1E1E1E1E1E1E1E1E1E1E1E1E1E1E1E1E1E1E1E1E1E1E1E1E1E1E1E1E1E1E1E1E1E1E1E1E1E1E1E1E1E1E193E1
310
E1E1E1E1E1E1E1E1E1E1E193E1E1E1E1E1E1E1E1E1E1E1E1E1E1E1E1E1E1E1E1E1E1E1E1E1E2E2E2E2E2E2E2E1E1E1E1E1E1E1E193E1E1E1E1E1E1E1E1E1E1E1E1E1E1E1E1E1E1E1E1E1E1E1E1E1E1E1E1E1E1E1E1E1E1E1E1E1E1E1E1E1E1E1E1E1E1E1E1E1E1E1E1E1E1E1E1E1E1E1E1E1E1E1E193E1E1E1E1E1E1E1E1E1
310
E1E1E1E1E1E1E1E1E1E1E1E1E1E1E1E1E1E1E1E1E1E1E1E1E1E1E1E1E1E1E1E1E1E1E1E1E1E1E1E1E1E1E1E1E1E1E1E1E1E1E1E1E1E1E1E1E1E1E1E1E1E1E1E1E1E1E1E1E1E1E1E1E1E1E1E1E1E193E1E1E1E1E1E1E1E1E1E1E1E1E1E1E1E1E1E1E1E1E1E1E1E1E1E1E1E1E1E1E1E1E1E1E1E1E1E1E1E1E1E1E1E1E1E1E1E1
310
93E1E1E1E1E1E1E1E1E1E1E1E193E1E1E1E1E1E1E1E1E1E1E1E1E1E1E1E1E1E1E1E1E1E1E1E1E1E2E2E2E2E1E1E1E1E1E1E1E1E1E1E193E1E1E1E1E1E1E1E1E1E1E1E1E1E1E1E1E1E1E1E1E1E1E1E1E1E1E1E1E1E1E1E1E1E1E1E1E1E1E1E1E1E1E1E1E1E1E1E1E1E1E1E1E1E1E1E1E1E1E1E1E1E1E1E193E1E1E1E1E1E1E1
310
E1E1E1E1E1E1E1E1E1E1E1E1E1E1E1E1E1E1E1E1E1E1E1E1E1E1E1E1E1E1E1E1E1E1E1E1E1E1E1E1E1E1E1E1E1E1E1E1E1E1E1E1E1E1E1E1E1E1E1E1E1E1E1E1E1E1E1E1E1E1E1E1E1E1E1E1E1E1E1E193E1E1E1E1E1E1E1E1E1E1E1E1E1E1E1E1E1E1E1E1E1E1E1E1E1E1E1E1E1E1E1E1E1E1E1E1E1E1E1E1E1E1E1E1E1E1
310
E1E193E1E1E1E1E1E1E1E1E1E1E1E193E1E1E1E1E1E1E1E1E1E1E1E1E1E1E1E1E1E1E1E1E1E1E1E1E1E2E1E1E2E1E1E1E1E1E1E1E1E1E1E193E1E1E1E1E1E1E1E1E1E1E1E1E1E1E1E1E1E1E1E1E1E1E1E1E1E1E1E1E1E1E1E1E1E1E1E1E1E1E1E1E1E1E1E1E1E1E1E1E1E1E1E1E1E1E1E1E1E1E1E1E1E1E1E193E1E1E2E1E1
310
E2E1E1E1E1E1E1E2E1E1E1E1E1E1E2E1E1E1E1E1E1E2E1E1E1E2E2E1E1E1E1E2E1E1E1E1E2E1E1E1E1E1E2E1E1E1E1E2E2E1E1E1E1E2E2E1E2E1E2E1E1E1E2E2E2E2E2E2E2E2E2E2E2E2E2E2E2939393939393939393939393939393E1E1E1E1E1E1E1E1E1E1E1E1E1E1E1E1E1E1E1E1E1E1E1E1E1E1E1E1E1E1E1E1E1E1E1
310
E1E1E1E193E1E1E1E1E1E1E1E1E1E1E1E193E1E1E1E1E1E1E1E1E1E1E1E1E1E1E1E1E1E1E1E1E1E1E1E1E1E2E1E1E1E1E1E1E1E1E1E1E1E1E1E193E1E1E1E1E1E1E1E1E1E1E1E1E1E1E1E1E1E1E1E1E1E1E1E1E1E1E1E1E1E1E1E1E1E1E1E1E1E1E1E1E1E1E1E1E1E1E1E1E1E1E1E1E1E1E1E1939393939393939393939393
310
E2E2E2E2E2E2E2E2E2E2E2E2E2E2E2E2E2E2E2E2E2E2E2E2E2E2E2E2E2E2E2E2E2E2E2E2E2E2E2E2E2E2E2E2E2E2E2E2E2E2E2E2E2E2E2E2E2E2E2E2E2E2E2E2E2E2E2E2E2E2E2E2E2E2E2E2E2E2E2E2E2E2E2E293E1E1E1E1E1E193E1E1E1E1E1E1E1E1E1E1E1E1E1E1E1E1E1E1E1E1E1E1E1E1E1E1E1E1E1E1E1E1E1E1E1
310
E1E1E1E1E1E193E1E1E1E1E1E1E1E1E1E1E1E193E1E1E1E1E1E1E1E1E1E1E1E1E1E1E1E1E1E1E1E1E1E1E1E1E1E2E1E1E1E1E1E1E1E1E1E1E1E1E1E1E2E1E1E1E1E1E1E1E1E1E1E1E1E1E1E1E1E1E1E1E1E1E1E1E1E1E1E1E1E1E1E1E1E1E1E1E1E1E1E1E1E1E1E1E1E1E1E1E1E1E1E1E1E1E1E1E1E1E193E1E1E1E1E1E2E2
310
E2E2E2E2E2E2E2E2E2E2E2E2E2E2E2E2E2E2E2E2E2E2E2E2E2E2E2E2E2E2E2E2E2E2E2E2E2E2E2E2E2E2E2E2E2E2E2E2E2E2E2E2E2E2E2E2E2E2E2E2E2E2E2E2E2E2E2E2E2E2E2E2E2E2E2E2E2E2E2E2E2E2E2E2E2E2E2E1E1E1E1E1E193E1E1E1E1E1E1E1E1E1E1E1E1E1E1E1E1E1E1E1E1E1E1E1E1E1E1E1E1E1E1E1E1E1
310
E1E1E1E1E1E1E1E1E2E1E1E1E1E1E1E1E1E1E1E1E193E1E1E1E1E1E1E1E1E1E1E1E1E1E1E1E1E1E1E1E1E1E1E1E1E1E2E1E1E1E1E1E1E1E1E1E1E1E1E1E1E2E1E1E1E1E1E1E1E1E1E1E1E1E1E1E1E1E1E1E1E1E1E1E1E1E1E1E1E1E1E1E1E1E1E1E1E1E1E1E1E1E1E1E1E1E1E1E1E1E1E1E1E1E1E1E1E1E1E193E1E1E1E1E1
310
E1E1E2E1E1E1E2E1E1E1E1E1E1E1E1E1E1E1E2E1E1E1E1E1E1E1E1E1E2E2E1E1E1E1E1E1E1E1E1E1E1E1E1E1E1E1E1E1E1E1E1E1E1E1E1E1E1E2E2E1E1E1E2E2E1E1E1E1E1E1E1E1E2E1E1E2E1E2E1E2E1E1E2E1E2E1E2E1E1E1E1E1E1E1E193E1E1E1E1E1E1E1E1E1E1E1E1E1E1E1E1E1E1E1E1E1E1E1E1E1E1E1E1E1E1E1
310
E1E1E1E1E1E1E1E1E1E1E2E1E1E1E1E1E1E1E1E1E1E1E193E1E1E1E1E1E1E1E1E1E1E1E1E1E1E1E1E1E1E1E1E1E1E1E1E1E2E1E1E1E1E1E1E1E1E1E1E1E1E1E1E2E1E1E1E1E1E1E1E1E1E1E1E1E1E1E1E1E1E1E1E1E1E1E1E1E1E1E1E1E1E1E1E1E1E1E1E1E1E1E1E1E1E1E1E1E1E1E1E1E1E1E1E1E1E1E1E1E1E193E1E1E1
310
E1E1E1E1E2E1E1E1E2E1E1E1E1E1E1E1E1E1E1E1E2E1E1E1E1E1E1E1E1E1E2E2E1E1E1E1E1E1E1E1E1E1E1E1E1E1E1E1E1E1E1E1E1E1E1E1E1E1E1E2E2E1E1E1E2E2E1E1E1E1E1E1E1E1E2E1E1E2E1E2E1E2E1E1E2E1E2E1E2E1E1E1E1E1E1E1E193E1E1E1E1E1E1E1E1E1E1E1E1E1E1E1E1E1E1E1E1E1E1E1E1E1E1E1E1E1
310
E1E1E1E1E1E1E1E1E1E1E1E1E2E1E1E1E1E1E1E1E1E1E1E1E193E1E1E1E1E1E1E1E1E1E1E1E1E1E1E1E1E1E1E1E1E1E1E1E1E1E2E1E1E1E1E1E1E1E1E1E1E1E1E1E1E2E1E1E1E1E1E1E1E1E1E1E1E1E1E1E1E1E1E1E1E1E1E1E1E1E1E1E1E1E1E1E1E1E1E1E1E1E1E1E1E1E1E1E1E1E1E1E1E1E1E1E1E1E1E1E1E1E1E193E1
310
E1E1E1E1E1E1E2E1E1E1E2E1E1E1E1E1E1E1E1E1E1E1E2E1E1E1E1E1E1E1E1E1E2E2E1E1E1E1E1E1E1E1E1E1E1E1E1E1E1E1E1E1E1E1E1E1E1E1E1E1E1E2E2E1E1E1E2E2E1E1E1E1E1E1E1E1E2E1E1E2E1E2E1E2E1E1E2E1E2E1E2E1E1E1E1E1E1E1E193E1E1E1E1E1E1E1E1E1E1E1E1E1E1E1E1E1E1E1E1E1E1E1E1E1E1E1
310
E1E1E1E1E1E1E1E1E1E1E1E1E1E1E2E1E1E1E1E1E1E1E1E1E1E1E193E1E1E1E1E1E1E1E1E1E1E1E1E1E1E1E1E1E1E1E1E1E1E1E1E1E2E1E1E1E1E1E1E1E1E1E1E1E1E1E1E2E1E1E1E1E1E1E1E1E1E1E1E1E1E1E1E1E1E1E1E1E1E1E1E1E1E1E1E1E1E1E1E1E1E1E1E1E1E1E1E1E1E1E1E1E1E1E1E1E1E1E1E1E1E1E1E1E1E1
310
93E1E1E1E1E1E1E1E2E1E1E1E2E1E1E1E1E1E1E1E1E1E1E1E2E1E1E1E1E1E1E1E1E1E2E2E1E1E1E1E1E1E1E1E1E1E1E1E1E1E1E1E1E1E1E1E1E1E1E1E1E1E1E2E2E1E1E1E2E2E1E1E1E1E1E1E1E1E2E1E1E2E1E2E1E2E1E1E2E1E2E1E2E1E1E1E1E1E1E1E193E1E1E1E1E1E1E1E1E1E1E1E1E1E1E1E1E1E1E1E1E1E1E1E1E1
310
E1E1E1E1E1E1E1E1E1E1E1E1E1E1E1E1E2E1E1E1E1E1E1E1E19393939393E1E1E1E1E1E1E1E1E1E1E1E1E1E1E1E1E1E1E1E1E1E1E1E1E1E2E1E1E1E1E1E1E1E1E1E1E1E1E1E1E2E1E1E1E1E1E1E1E1E1E1E1E1E1E1E1E1E1E1E1E1E1E1E1E1E1E1E1E1E1E1E1E1E1E1E1E1E1E1E1E1E1E1E1E1E1E1E1E1E1E1E1E1E1E19393
310
939393E1E1E1E1E1E1E1E2E1E1E1E2E1E1E1E1E1E1E1E1E1E1E1E2E1E1E1E1E1E1E1E1E1E2E2E1E1E1E1E1E1E1E1E1E1E1E1E1E1E1E1E1E1E1E1E1E1E1E1E1E1E1E2E2E1E1E1E2E2E1E1E1E1E1E1E1E1E2E1E1E2E1E2E1E2E1E1E2E1E2E1E2E1E1E1E19393939393E1E1E1E1E1E1E1E1E1E1E1E1E1E1E1E1E1E1E1E1E1E1E1
310
E1E1E1E1E1E1E1E1E1E1E1E1E1E1E1E1E1E1E2E1E1E1E1E1E1E1E19393939393E1E1E1E1E1E1E1E1E1E1E1E1E1E1E1E1E1E1E1E1E1E1E1E1E1E2E1E1E1E1E1E1E1E1E1E1E1E1E1E1E2E1E1E1E1E1E1E1E1E1E1E1E1E1E1E1E1E1E1E1E1E1E1E1E1E1E1E1E1E1E1E1E1E1E1E1E1E1E1E1E1E1E1E1E1E1E1E1E1E1E1E1E1E1E1
310
9393939393E1E1E1E1E1E1E1E2E1E1E1E2E1E1E1E1E1E1E1E1E1E1E1E2E1E1E1E1E1E1E1E1E1E2E2E1E1E1E1E1E1E1E1E1E1E1E1E1E1E1E1E1E1E1E1E1E1E1E1E1E1E1E2E2E1E1E1E2E2E1E1E1E1E1E1E1E1E2E1E1E2E1E2E1E2E1E1E2E1E2E1E2E1E1E1E19393939393E1E1E1E1E1E1E1E1E1E1E1E1E1E1E1E1E1E1E1E1E1
310
E1E1E1E1E1E1E1E1E1E1E1E1E1E1E1E1E1E1E1E1E2E1E1E1E1E1E1E1E19393939393E1E1E1E1E1E1E1E1E1E1E1E1E1E1E1E1E1E1E1E1E1E1E1E1E1E2E1E1E1E1E1E1E1E1E1E1E1E1E1E1E2E1E1E1E1E1E1E1E1E1E1E1E1E1E1E1E1E1E1E1E1E1E1E1E1E1E1E1E1E1E1E1E1E1E1E1E1E1E1E1E1E1E1E1E1E1E1E1E1E1E1E1E1
310
E1E19393939393E1E1E1E1E1E1E1E2E1E1E1E2E1E1E1E1E1E1E1E1E1E1E1E2E1E1E1E1E1E1E1E1E1E2E2E1E1E1E1E1E1E1E1E1E1E1E1E1E1E1E1E1E1E1E1E1E1E1E1E1E1E1E2E2E1E1E1E2E2E1E1E1E1E1E1E1E2E2E2E1E2E1E2E1E2E1E1E2E1E2E1E2E1E1E1E19393939393E1E1E1E1E1E1E1E1E1E1E1E1E1E1E1E1E1E1E1
310
E1E1E1E1E1E1E1E1E1E1E1E1E1E1E1E1E1E1E1E1E1E1E2E1E1E1E1E1E1E1E19393939393E1E1E1E1E1E1E1E1E1E1E1E1E1E1E1E1E1E1E1E1E1E1E1E1E1E2E1E1E1E1E1E1E1E1E1E1E1E1E1E1E2E1E1E1E1E1E1E1E1E1E1E1E1E1E1E1E1E1E1E1E1E1E1E1E1E1E1E1E1E1E1E1E1E1E1E1E1E1E1E1E1E1E1E1E1E1E1E1E1E1E1
310
E1E1E1E19393939393E1E1E1E1E1E1E1E2E1E1E1E2E1E1E1E1E1E1E1E1E1E1E1E2E1E1E1E1E1E1E1E1E1E2E2E1E1E1E1E1E1E1E1E1E1E1E1E1E1E1E1E1E1E1E1E1E1E1E1E1E1E1E2E2E1E1E1E2E2E1E1E1E1E1E1E1E2E2E2E1E2E1E2E1E2E2E1E2E1E2E1E2E1E1E1E19393939393E1E1E1E1E1E1E1E1E1E1E1E1E1E1E1E1E1
310
E1E1E1E1E1E1E1E1E1E1E1E1E1E1E1E1E1E1E1E1E1E1E1E1E2E1E1E1E1E1E1E1E19393939393E1E1E1E1E1E1E1E1E1E1E1E1E1E1E1E1E1E1E1E1E1E1E1E1E1E2E1E1E1E1E1E1E1E1E1E1E1E1E1E1E2E1E1E1E1E1E1E1E1E1E1E1E1E1E1E1E1E1E1E1E1E1E1E1E1E1E1E1E1E1E1E1E1E1E1E1E1E1E1E1E1E1E1E1E1E1E1E1E1
310
E1E1E1E1E1E19393939393E1E1E1E1E1E1E1E2E1E1E1E2E1E1E1E1E1E1E1E1E1E1E1E2E1E1E1E1E1E1E1E1E1E2E2E1E1E1E1E1E1E1E1E1E1E1E1E1E1E1E1E1E1E1E1E1E1E1E1E1E1E1E2E2E1E1E1E2E2E1E1E1E1E1E1E1E1E2E1E1E2E1E2E1E2E1E1E2E1E2E1E2E1E1E1E19393939393E1E1E1E1E1E1E1E1E1E1E1E1E1E1E1
310
E1E1E1E1E1E1E1E1E1E1E1E1E1E1E1E1E1E1E1E1E1E1E1E1E1E1E2E1E1E1E1E1E1E1E19393939393E1E1E1E1E1E1E1E1E1E1E1E1E1E1E1E1E1E1E1E1E1E1E1E1E1E2E1E1E1E1E1E1E1E1E1E1E1E1E1E1E2E1E1E1E1E1E1E1E1E1E1E1E1E1E1E1E1E1E1E1E1E1E1E1E1E1E1E1E1E1E1E1E1E1E1E1E1E1E1E1E1E1E1E1E1E1E1
310
E1E1E1E1E1E1E1E1E1E1E1E193E1E1E1E1E1E1E1E2E1E1E1E2E1E1E1E1E1E1E1E1E1E1E1E2E1E1E1E1E1E1E1E1E1E2E2E1E1E1E1E1E1E1E1E1E1E1E1E1E1E1E1E1E1E1E1E1E1E1E1E1E1E1E2E2E1E1E1E2E2E1E1E1E1E1E1E1E1E2E1E1E2E1E2E1E2E1E1E2E1E2E1E2E1E1E1E1E1E1E1E193E1E1E1E1E1E1E1E1E1E1E1E1E1
310
E1E1E1E1E1E1E1E1E1E1E1E1E1E1E1E1E1E1E1E1E1E1E1E1E1E1E1E1E2E1E1E1E1E1E1E1E19393939393E1E1E1E1E1E1E1E1E1E1E1E1E1E1E1E1E1E1E1E1E1E1E1E1E1E2E1E1E1E1E1E1E1E1E1E1E1E1E1E1E2E1E1E1E1E1E1E1E1E1E1E1E1E1E1E1E1E1E1E1E1E1E1E1E1E1E1E1E1E1E1E1E1E1E1E1E1E1E1E1E1E1E1E1E1
310
E1E1E1E1E1E1E1E1E1E1E1E1E1E193E1E1E1E1E1E1E1E2E1E1E1E2E1E1E1E1E1E1E1E1E1E1E1E2E1E1E1E1E1E1E1E1E1E2E2E1E1E1E1E1E1E1E1E1E1E1E1E1E1E1E1E1E1E1E1E1E1E1E1E1E1E1E2E2E1E1E1E2E2E1E1E1E1E1E1E1E1E2E1E1E2E1E2E1E2E1E1E2E1E2E1E2E1E1E1E1E1E1E1E193E1E1E1E1E1E1E1E1E1E1E1
310
E1E1E1E1E1E1E1E1E1E1E1E1E1E1E1E1E1E1E1E1E1E1E1E1E1E1E1E1E1E1E2E1E1E1E1E1E1E1E1E1E1E1E193E1E1E1E1E1E1E1E1E1E1E1E1E1E1E1E1E1E1E1E1E1E1E1E1E1E2E1E1E1E1E1E1E1E1E1E1E1E1E1E1E2E1E1E1E1E1E1E1E1E1E1E1E1E1E1E1E1E1E1E1E1E1E1E1E1E1E1E1E1E1E1E1E1E1E1E1E1E1E1E1E1E1E1
310
E1E1E1E1E1E1E1E1E1E1E1E1E1E1E1E193E1E1E1E1E1E1E1E2E1E1E1E2E1E1E1E1E1E1E1E1E1E1E1E2E1E1E1E1E1E1E1E1E1E2E2E1E1E1E1E1E1E1E1E1E1E1E1E1E1E1E1E1E1E1E1E1E1E1E1E1E1E1E2E2E1E1E1E2E2E1E1E1E1E1E1E1E1E2E1E1E2E1E2E1E2E1E1E2E1E2E1E2E1E1E1E1E1E1E1E193E1E1E1E1E1E1E1E1E1
310
E1E1E1E1E1E1E1E1E1E1E1E1E1E1E1E1E1E1E1E1E1E1E1E1E1E1E1E1E1E1E1E1E2E1E1E1E1E1E1E1E1E1E1E1E193E1E1E1E1E1E1E1E1E1E1E1E1E1E1E1E1E1E1E1E1E1E1E1E1E1E2E1E1E1E1E1E1E1E1E1E1E1E1E1E1E2E1E1E1E1E1E1E1E1E1E1E1E1E1E1E1E1E1E1E1E1E1E1E1E1E1E1E1E1E1E1E1E1E1E1E1E1E1E1E1E1
310
E1E1E1E1E1E1E1E1E1E1E1E1E1E1E1E1E1E193E1E1E1E1E1E1E1E2E1E1E1E2E1E1E1E1E1E1E1E1E1E1E1E2E1E1E1E1E1E1E1E1E1E2E2E1E1E1E1E1E1E1E1E1E1E1E1E1E1E1E1E1E1E1E1E1E1E1E1E1E1E1E2E2E1E1E1E2E2E1E1E1E1E1E1E1E1E2E1E1E2E1E2E1E2E1E1E2E1E2E1E2E1E1E1E1E1E1E1E193E1E1E1E1E1E1E1
310
E1E1E1E1E1E1E1E1E1E1E1E1E1E1E1E1E1E1E1E1E1E1E1E1E1E1E1E1E1E1E1E1E1E1E2E1E1E1E1E1E1E1E1E1E1E1E193E1E1E1E1E1E1E1E1E1E1E1E1E1E1E1E1E1E1E1E1E1E1E1E1E1E2E1E1E1E1E1E1E1E1E1E1E1E1E1E1E2E1E1E1E1E1E1E1E1E1E1E1E1E1E1E1E1E1E1E1E1E1E1E1E1E1E1E1E1E1E1E1E1E1E1E1E1E1E1
310
E1E1E1E1E1E1E1E1E1E1E1E1E1E1E1E1E1E1E1E193E1E1E1E1E1E1E1E2E1E1E1E2E1E1E1E1E1E1E1E1E1E1E1E2E1E1E1E1E1E1E1E1E1E2E2E1E1E1E1E1E1E1E1E1E1E1E1E1E1E1E1E1E1E1E1E1E1E1E1E1E1E1E2E2E1E1E1E2E2E1E1E1E1E1E1E1E1E2E1E1E2E1E2E1E2E1E1E2E1E2E1E2E1E1E1E1E1E1E1E193E1E1E1E1E1
310
E1E1E1E1E1E1E1E1E1E1E1E1E1E1E1E1E1E1E1E1E1E1E1E1E1E1E1E1E1E1E1E1E1E1E1E1E2E1E1E1E1E1E1E1E1E1E1E1E193E1E1E1E1E1E1E1E1E1E1E1E1E1E1E1E1E1E1E1E1E1E1E1E1E1E2E1E1E1E1E1E1E1E1E1E1E1E1E1E1E2E1E1E1E1E1E1E1E1E1E1E1E1E1E1E1E1E1E1E1E1E1E1E1E1E1E1E1E1E1E1E1E1E1E1E1E1
310
E1E1E1E1E1E1E1E1E1E1E1E1E1E1E1E1E1E1E1E1E1E193E1E1E1E1E1E1E1E2E1E1E1E2E1E1E1E1E1E1E1E1E1E1E1E2E1E1E1E1E1E1E1E1E1E2E2E1E1E1E1E1E1E1E1E1E1E1E1E1E1E1E1E1E1E1E1E1E1E1E1E1E1E1E2E2E1E1E1E2E2E1E1E1E1E1E1E2E1E2E1E1E2E1E2E1E2E1E1E2E1E2E1E2E1E1E1E1E1E1E1E193E1E1E1
310
E1E1E1E1E1E1E1E1E1E1E1E1E1E1E1E1E1E1E1E1E1E1E1E1E1E1E1E1E1E1E1E1E1E1E1E1E1E1E2E1E1E1E1E1E1E1E1E1E1E1E193E1E1E1E1E1E1E1E1E1E1E1E1E1E1E1E1E1E1E1E1E1E1E1E1E1E2E1E1E1E1E1E1E1E1E1E1E1E1E1E1E2E1E1E1E1E1E1E1E1E1E1E1E1E1E1E1E1E1E1E1E1E1E1E1E1E1E1E1E1E1E1E1E1E1E1
310
E1E1E1E1E1E1E1E1E1E1E1E1E1E1E1E1E1E1E1E1E1E1939393939393939393939393E2E2E2E2E2E2E2E2E2E2E2E2E2E2E2E2E2E2E2E2E2E2E2E2E2E2E2E2E2E2E2E2E2E2E2E2E2E2E2E2E2E2E2E2E2E2E2E2E2E2E2E2E2E2E2E2E2E2E2E2E2E2E2E2E2E2E2E2E2E2E2E2E2E2E2E2E2E2E2E2E2E2E2E2E2E1E1E1E1E1E193E1
310
E1E1E1E1E1E1E1E1E1E1E1E1E1E1E1E1E1E1E1E1E1E1E1E1E1E1E1E1E1E1E1E1E1E1E1E1E1E1E1E1E2E1E1E1E1E1E1E1E1E1E1E1E193E1E1E1E1E1E1E1E1E1E1E1E1E1E1E1E1E1E1E1E1E1E1E1E1E1E2E1E1E1E1E1E1E1E1E1E1E1E1E1E1E2E1E1E1E1E1E1E1E1E1E1E1E1E1E1E1E1E1E1E1E1E1E1E1E1E1E1E1E1E1E1E1E1
310
E1E1E1E1E1E1E1E1E1E1E1E1E1E1E1E1E1E1E1E1E1E1E1E1E1E1E1E1E1E1E1E1E1E1E1E2E2E1E2E2E1E1E1E1E2E2E1E1E1E1E1E1E2E1E1E1E2E2E2E2E2E2E2E2E2E2E1E1E2E2E1E1E1E1E2E2E1E1E1E2E2E1E1E2E2E2E2E2E2E2E2E2E2E1E2E2E2E1E1E1E2E2E2E2E2E2E2E2E2E2E2E2E2E2E2939393939393939393939393
310
939393E1E1E1E1E1E1E1E1E1E1E1E1E1E1E1E1E1E1E1E1E1E1E1E1E1E1E1E1E1E1E1E1E1E1E1E1E1E1E1E2E1E1E1E1E1E1E1E1E1E1E1E193E1E1E1E1E1E1E1E1E1E1E1E1E1E1E1E1E1E1E1E1E1E1E1E1E1E2E2E1E1E1E1E1E1E1E1E1E1E1E1E1E2E1E1E1E1E1E1E1E1E1E1E1E1E1E1E1E1E1E1E1E1E1E1E1E1E1E1E1E1E1E1
310
E1E1E1E1E1E1E1E1E1E1E1E1E1E1E1E1E1E1E1E1E1E1E1E1E1E1E1E1E1E1E1E1E1E1E1E1E1E1E1E1E1E1E1E1E1E1E1E1E1E1E1E1E1E1E1E1E1E1E1E1E1E1E1E1E1E1E1E1E1E1E1E1E1E1E1E1E1E1E1E1E1E1E1E1E1E1E1E1E1E1E1E1E1E1E1E1E1E1E1E1E1E1E1E1E2E1E1E2E1E2E1E2E1E1E1E1E1E1E1E1E1E1E1E1E1E1E1
310
E1E1E1E1E1E1E1E1E1E1E1E1E1E1E1E1E1E1E1E1E1E1E1E1E1E1E1E1E1E1E1E1E1E1E1E1E1E1E1E1E1E1E1E1E2E1E1E1E1E1E1E1E1E1E1E1E193E1E1E1E1E1E1E1E1E1E1E1E1E1E1E1E1E1E1E1E1E1E1E1E1E1E2E2E1E1E1E1E1E1E1E1E1E1E1E1E1E2E1E1E1E1E1E1E1E1E1E1E1E1E1E1E1E1E1E1E1E1E1E1E1E1E1E1E1E1
310
E1E1E1E1E1E1E1E1E1E1E1E1E1E1E1E1E1E1E1E1E1E1E1E1E1E1E1E1E1E1E1E1E1E1E1E1E1E1E1E1E1E1E1E1E1E1E1E1E1E1E1E1E1E1E1E1E1E1E1E1E1E1E1E1E1E1E1E1E1E1E1E1E1E1E1E1E1E1E1E1E1E1E1E1E1E1E1E1E1E1E1E1E1E1E1E1E1E1E1E1E1E1E1E1E1E1E1E1E1E1E1E1E1E1E1E1E1E1E1E1E1E1E1E1E1E1E1
310
E1E1E1E1E1E1E1E1E1E1E1E1E1E1E1E1E1E1E1E1E1E1E1E1E1E1E1E1E1E1E1E1E1E1E1E1E1E1E1E1E1E1E1E1E1E1E2E1E1E1E1E1E1E1E1E1E1E1E193E1E1E1E1E1E1E1E1E1E1E1E1E1E1E1E1E1E1E1E1E1E1E1E1E1E2E2E1E1E1E1E1E1E1E1E1E1E1E1E1E2E1E1E1E1E1E1E1E1E1E1E1E1E1E1E1E1E1E1E1E1E1E1E1E1E1E1
310
E1E1E1E1E1E1E1E1E1E1E1E1E1E1E1E1E1E1E1E1E1E1E1E1E1E1E1E1E1E1E1E1E1E1E1E1E1E1E1E1E1E1E1E1E1E1E1E1E1E1E1E1E1E1E1E1E1E1E1E1E1E1E1E1E1E1E1E1E1E1E1E1E1E1E1E1E1E1E1E1E1E1E1E1E1E1E1E1E1E1E1E1E1E1E1E1E1E1E1E1E1E1E1E1E1E1E1E1E1E1E1E1E1E1E1E1E1E1E1E1E1E1E1E1E1E1E1
310
E1E1E1E1E1E1E1E1E1E1E1E1E1E1E1E1E1E1E1E1E1E1E1E1E1E1E1E1E1E1E1E1E1E1E1E1E1E1E1E1E1E1E1E1E1E1E1E1E2E1E1E1E1E1E1E1E1E1E1E1E193E1E1E1E1E1E1E1E1E1E1E1E1E1E1E1E1E1E1E1E1E1E1E1E1E1E2E1E1E1E1E1E1E1E1E1E1E1E1E1E1E2E1E1E1E1E1E1E1E1E1E1E1E1E1E1E1E1E1E1E1E1E1E1E1E1
310
E1E1E1E1E1E1E1E1E1E1E1E1E1E1E1E1E1E1E1E1E1E1E1E1E1E1E1E1E1E1E1E1E1E1E1E1E1E1E1E1E1E1E1E1E1E1E1E1E1E1E1E1E1E1E1E1E1E1E1E1E1E1E1E1E1E1E1E1E1E1E1E1E1E1E1E1E1E1E1E1E1E1E1E1E1E1E1E1E1E1E1E1E1E1E1E1E1E1E1E1E1E1E1E1E1E1E1E1E1E1E1E1E1E1E1E1E1E1E1E1E1E1E1E1E1E1E1
310
E1E1E1E1E1E1E1E1E1E1E1E1E1E1E1E1E1E1E1E1E1E1E1E1E1E1E1E1E1E1E1E1E1E1E1E1E1E1E1E1E1E1E1E1E1E1E1E1E1E1E2E1E1E1E1E1E1E1E1E1E1E1E193E1E1E1E1E1E1E1E1E1E1E1E1E1E1E1E1E1E1E1E1E1E1E1E1E1E2E1E1E1E1E1E1E1E1E1E1E1E1E1E1E2E1E1E1E1E1E1E1E1E1E1E1E1E1E1E1E1E1E1E1E1E1E1
310
E1E1E1E1E1E1E1E1E1E1E1E1E1E1E1E1E1E1E1E1E1E1E1E1E1E1E1E1E1E1E1E1E1E1E1E1E1E1E1E1E1E1E1E1E1E1E1E1E1E1E1E1E1E1E1E1E1E1E1E1E1E1E1E1E1E1E1E1E1E1E1E1E1E1E1E1E1E1E1E1E1E1E1E1E1E1E1E1E1E1E1E1E1E1E1E1E1E1E1E1E1E1E1E1E1E1E1E1E1E1E1E1E1E1E1E1E1E1E1E1E1E1E1E1E1E1E1
310
E1E1E1E1E1E1E1E1E1E1E1E1E1E1E1E1E1E1E1E1E1E1E1E1E1E1E1E1E1E1E1E1E1E1E1E1E1E1E1E1E1E1E1E1E1E1E1E1E1E1E1E1E2E1E1E1E1E1E1E1E1E1E1E1E193E1E1E1E1E1E1E1E1E1E1E1E1E1E1E1E1E1E1E1E1E1E1E1E1E1E2E1E1E1E1E1E1E1E1E1E1E1E1E1E1E2E1E1E1E1E1E1E1E1E1E1E1E1E1E1E1E1E1E1E1E1
310
E1E1E1E1E1E1E1E1E1E1E1E1E1E1E1E1E1E1E1E1E1E1E1E1E1E1E1E1E1E1E1E1E1E1E1E1E1E1E1E1E1E1E1E1E1E1E1E1E1E1E1E1E1E1E1E1E1E1E1E1E1E1E1E1E1E1E1E1E1E1E1E1E1E1E1E1E1E1E1E1E1E1E1E1E1E1E1E1E1E1E1E1E1E1E1E1E1E1E1E1E1E1E1E1E1E1E1E1E1E1E1E1E1E1E1E1E1E1E1E1E1E1E1E1E1E1E1
310
E1E1E1E1E1E1E1E1E1E1E1E1E1E1E1E1E1E1E1E1E1E1E1E1E1E1E1E1E1E1E1E1E1E1E1E1E1E1E1E1E1E1E1E1E1E1E1E1E1E1E1E1E1E1E2E1E1E1E1E1E1E1E1E1E1E1E193E1E1E1E1E1E1E1E1E1E1E1E1E1E1E1E1E1E1E1E1E1E1E1E1E1E2E1E1E1E1E1E1E1E1E1E1E1E1E1E1E1E2E1E1E1E1E1E1E1E1E1E1E1E1E1E1E1E1E1
310
E1E1E1E1E1E1E1E1E1E1E1E1E1E1E1E1E1E1E1E1E1E1E1E1E1E1E1E1E1E1E1E1E1E1E1E1E1E1E1E1E1E1E1E1E1E1E1E1E1E1E1E1E1E1E1E1E1E1E1E1E1E1E1E1E1E1E1E1E1E1E1E1E1E1E1E1E1E1E1E1E1E1E1E1E1E1E1E1E1E1E1E1E1E1E1E1E1E1E1E1E1E1E1E1E1E1E1E1E1E1E1E1E1E1E1E1E1E1E1E1E1E1E1E1E1E1E1
310
E1E1E1E1E1E1E1E1E1E1E1E1E1E1E1E1E1E1E1E1E1E1E1E1E1E1E1E1E1E1E1E1E1E1E1E1E1E1E1E1E1E1E1E1E1E1E1E1E1E1E1E1E1E1E1E1E2E1E1E1E1E1E1E1E1E1E1E1E193E1E1E1E1E1E1E1E1E1E1E1E1E1E1E1E1E1E1E1E1E1E1E1E1E1E2E1E1E1E1E1E1E1E1E1E1E1E1E1E1E1E2E1E1E1E1E1E1E1E1E1E1E1E1E1E1E1
310
E1E1E1E1E1E1E1E1E1E1E1E1E1E1E1E1E1E1E1E1E1E1E1E1E1E1E1E1E1E1E1E1E1E1E1E1E1E1E1E1E1E1E1E1E1E1E1E1E1E1E1E1E1E1E1E1E1E1E1E1E1E1E1E1E1E1E1E1E1E1E1E1E1E1E1E1E1E1E1E1E1E1E1E1E1E1E1E1E1E1E1E1E1E1E1E1E1E1E1E1E1E1E1E1E1E1E1E1E1E1E1E1E1E1E1E1E1E1E1E1E1E1E1E1E1E1E1
310
E1E1E1E1E1E1E1E1E1E1E1E1E1E1E1E1E1E1E1E1E1E1E1E1E1E1E1E1E1E1E1E1E1E1E1E1E1E1E1E1E1E1E1E1E1E1E1E1E1E1E1E1E1E1E1E1E1E2E1E1E1E1E1E1E1E1E1E1E1E1E193E1E1E1E1E1E1E1E1E1E1E1E1E1E1E1E1E1E1E1E1E1E1E1E1E1E2E1E1E1E1E1E1E1E1E1E1E1E1E1E1E1E2E1E1E1E1E1E1E1E1E1E1E1E1E1
310
E1E1E1E1E1E1E1E1E1E1E1E1E1E1E1E1E1E1E1E1E1E1E1E1E1E1E1E1E1E1E1E1E1E1E1E1E1E1E1E1E1E1E1E1E1E1E1E1E1E1E1E1E1E1E1E1E1E1E1E1E1E1E1E1E1E1E1E1E1E1E1E1E1E1E1E1E1E1E1E1E1E1E1E1E1E1E1E1E1E1E1E1E1E1E1E1E1E1E1E1E1E1E1E1E1E1E1E1E1E1E1E1E1E1E1E1E1E1E1E1E1E1E1E1E1E1E1
310
E1E1E1E1E1E1E1E1E1E1E1E1E1E1E1E1E1E1E1E1E1E1E1E1E1E1E1E1E1E1E1E1E1E1E1E1E1E1E1E1E1E1E1E1E1E1E1E1E1E1E1E1E1E1E1E1E1E1E1E2E1E1E1E1E1E1E1E1E1E1E1E1E193E1E1E1E1E1E1E1E1E1E1E1E1E1E1E1E1E1E1E1E1E1E1E1E1E1E2E1E1E1E1E1E1E1E1E1E1E1E1E1E1E1E2E1E1E1E1E1E1E1E1E1E1E1
310
E1E1E1E1E1E1E1E1E1E1E1E1E1E1E1E1E1E1E1E1E1E1E1E1E1E1E1E1E1E1E1E1E1E1E1E1E1E1E1E1E1E1E1E1E1E1E1E1E1E1E1E1E1E1E1E1E1E1E1E1E1E1E1E1E1E1E1E1E1E1E1E1E1E1E1E1E1E1E1E1E1E1E1E1E1E1E1E1E1E1E1E1E1E1E1E1E1E1E1E1E1E1E1E1E1E1E1E1E1E1E1E1E1E1E1E1E1E1E1E1E1E1E1E1E1E1E1
310
E1E1E1E1E1E1E1E1E1E1E1E1E1E1E1E1E1E1E1E1E1E1E1E1E1E1E1E1E1E1E1E1E1E1E1E1E1E1E1E1E1E1E1E1E1E1E1E1E1E1E1E1E1E1E1E1E1E1E1E1E1E2E1E1E1E1E1E1E1E1E1E1E1E1E193E1E1E1E1E1E1E1E1E1E1E1E1E1E1E1E1E1E1E1E1E1E1E1E1E1E2E1E1E1E1E1E1E1E1E1E1E1E1E1E1E1E1E2E1E1E1E1E1E1E1E1
310
E1E1E1E1E1E1E1E1E1E1E1E1E1E1E1E1E1E1E1E1E1E1E1E1E1E1E1E1E1E1E1E1E1E1E1E1E1E1E1E1E1E1E1E1E1E1E1E1E1E1E1E1E1E1E1E1E1E1E1E1E1E1E1E1E1E1E1E1E1E1E1E1E1E1E1E1E1E1E1E1E1E1E1E1E1E1E1E1E1E1E1E1E1E1E1E1E1E1E1E1E1E1E1E1E1E1E1E1E1E1E1E1E1E1E1E1E1E1E1E1E1E1E1E1E1E1E1
310
E1E1E1E1E1E1E1E1E1E1E1E1E1E1E1E1E1E1E1E1E1E1E1E1E1E1E1E1E1E1E1E1E1E1E1E1E1E1E1E1E1E1E1E1E1E1E1E1E1E1E1E1E1E1E1E1E1E1E1E1E1E1E2E1E1E1E1E1E1E1E1E1E1E1E1E1E193E1E1E1E1E1E1E1E1E1E1E1E1E1E1E1E1E1E1E1E1E1E1E1E1E1E2E1E1E1E1E1E1E1E1E1E1E1E1E1E1E1E1E2E1E1E1E1E1E1
310
E1E1E1E1E1E1E1E1E1E1E1E1E1E1E1E1E1E1E1E1E1E1E1E1E1E1E1E1E1E1E1E1E1E1E1E1E1E1E1E1E1E1E1E1E1E1E1E1E1E1E1E1E1E1E1E1E1E1E1E1E1E1E1E1E1E1E1E1E1E1E1E1E1E1E1E1E1E1E1E1E1E1E1E1E1E1E1E1E1E1E1E1E1E1E1E1E1E1E1E1E1E1E1E1E1E1E1E1E1E1E1E1E1E1E1E1E1E1E1E1E1E1E1E1E1E1E1
310
E1E1E1E1E1E1E1E1E1E1E1E1E1E1E1E1E1E1E1E1E1E1E1E1E1E1E1E1E1E1E1E1E1E1E1E1E1E1E1E1E1E1E1E1E1E1E1E1E1E1E1E1E1E1E1E1E1E1E1E1E1E1E1E1E2E1E1E1E1E1E1E1E1E1E1E1E1E1E193E1E1E1E1E1E1E1E1E1E1E1E1E1E1E1E1E1E1E1E1E1E1E1E1E1E2E1E1E1E1E1E1E1E1E1E1E1E1E1E1E1E1E1E2E1E1E1
310
E1E1E1E1E1E1E1E1E1E1E1E1E1E1E1E1E1E1E1E1E1E1E1E1E1E1E1E1E1E1E1E1E1E1E1E1E1E1E1E1E1E1E1E1E1E1E1E1E1E1E1E1E1E1E1E1E1E1E1E1E1E1E1E1E1E1E1E1E1E1E1E1E1E1E1E1E1E1E1E1E1E1E1E1E1E1E1E1E1E1E1E1E1E1E1E1E1E1E1E1E1E1E1E1E1E1E1E1E1E1E1E1E1E1E1E1E1E1E1E1E1E1E1E1E1E1E1
310
E1E1E1E1E1E1E1E1E1E1E1E1E1E1E1E1E1E1E1E1E1E1E1E1E1E1E1E1E1E1E1E1E1E1E1E1E1E1E1E1E1E1E1E1E1E1E1E1E1E1E1E1E1E1E1E1E1E1E1E1E1E1E1E1E1E1E2E1E1E1E1E1E1E1E1E1E1E1E1E1E193E1E1E1E1E1E1E1E1E1E1E1E1E1E1E1E1E1E1E1E1E1E1E1E1E1E2E1E1E1E1E1E1E1E1E1E1E1E1E1E1E1E1E1E2E1
310
E1E1E1E1E1E1E1E1E1E1E1E1E1E1E1E1E1E1E1E1E1E1E1E1E1E1E1E1E1E1E1E1E1E1E1E1E1E1E1E1E1E1E1E1E1E1E1E1E1E1E1E1E1E1E1E1E1E1E1E1E1E1E1E1E1E1E1E1E1E1E1E1E1E1E1E1E1E1E1E1E1E1E1E1E1E1E1E1E1E1E1E1E1E1E1E1E1E1E1E1E1E1E1E1E1E1E1E1E1E1E1E1E1E1E1E1E1E1E1E1E1E1E1E1E1E1E1
310
E1E1E1E1E1E1E1E1E1E1E1E1E1E1E1E1E1E1E1E1E1E1E1E1E1E1E1E1E1E1E1E1E1E1E1E1E1E1E1E1E1E1E1E1E1E1E1E1E1E1E1E1E1E1E1E1E1E1E1E1E1E1E1E1E1E1E1E2E1E1E1E1E1E1E1E1E1E1E1E1E1E1E193E1E1E1E1E1E1E1E1E1E1E1E1E1E1E1E1E1E1E1E1E1E1E1E1E1E2E1E1E1E1E1E1E1E1E1E1E1E1E1E1E1E1E1
310
E1E2E1E1E1E1E1E1E1E1E1E1E1E1E1E1E1E1E1E1E1E1E1E1E1E1E1E1E1E1E1E1E1E1E1E1E1E1E1E1E1E1E1E1E1E1E1E1E1E1E1E1E1E1E1E1E1E1E1E1E1E1E1E1E1E1E1E1E1E1E1E1E1E1E1E1E1E1E1E1E1E1E1E1E1E1E1E1E1E1E1E1E1E1E1E1E1E1E1E1E1E1E1E1E1E1E1E1E1E1E1E1E1E1E1E1E1E1E1E1E1E1E1E1E1E1E1
310
E1E1E1E1E1E1E1E1E1E1E1E1E1E1E1E1E1E1E1E1E1E1E1E1E1E1E1E1E1E1E1E1E1E1E1E1E1E1E1E1E1E1E1E1E1E1E1E1E1E1E1E1E1E1E1E1E1E1E1E1E1E1E1E1E1E1E1E1E1E2E1E1E1E1E1E1E1E1E1E1E1E1E1E1E193E1E1E1E1E1E1E1E1E1E1E1E1E1E1E1E1E1E1E1E1E1E1E1E1E1E2E1E1E1E1E1E1E1E1E1E1E1E1E1E1E1
310
E1E1E1E1E2E1E1E1E1E1E1E1E1E1E1E1E1E1E1E1E1E1E1E1E1E1E1E1E1E1E1E1E1E1E1E1E1E1E1E1E1E1E1E1E1E1E1E1E1E1E1E1E1E1E1E1E1E1E1E1E1E1E1E1E1E1E1E1E1E1E1E1E1E1E1E1E1E1E1E1E1E1E1E1E1E1E1E1E1E1E1E1E1E1E1E1E1E1E1E1E1E1E1E1E1E1E1E1E1E1E1E1E1E1E1E1E1E1E1E1E1E1E1E1E1E1E1
310
E1E1E1E1E1E1E1E1E1E1E1E1E1E1E1E1E1E1E1E1E1E1E1E1E1E1E1E1E1E1E1E1E1E1E1E1E1E1E1E1E1E1E1E1E1E1E1E1E1E1E1E1E1E1E1E1E1E1E1E1E1E1E1E1E1E1E1E1E1E1E1E2E1E1E1E1E1E1E1E1E1E1E1E1E1E1E193E1E1E1E1E1E1E1E1E1E1E1E1E1E1E1E1E1E1E1E1E1E1E1E1E1E2E1E1E1E1E1E1E1E1E1E1E1E1E1
310
E1E1E1E1E1E1E2E1E1E1E1E1E1E1E1E1E1E1E1E1E1E1E1E1E1E1E1E1E1E1E1E1E1E1E1E1E1E1E1E1E1E1E1E1E1E1E1E1E1E1E1E1E1E1E1E1E1E1E1E1E1E1E1E1E1E1E1E1E1E1E1E1E1E1E1E1E1E1E1E1E1E1E1E1E1E1E1E1E1E1E1E1E1E1E1E1E1E1E1E1E1E1E1E1E1E1E1E1E1E1E1E1E1E1E1E1E1E1E1E1E1E1E1E1E1E1E1
310
E1E1E1E1E1E1E1E1E1E1E1E1E1E1E1E1E1E1E1E1E1E1E1E1E1E1E1E1E1E1E1E1E1E1E1E1E1E1E1E1E1E1E1E1E1E1E1E1E1E1E1E1E1E1E1E1E1E1E1E1E1E1E1E1E1E1E1E1E1E1E1E1E2E1E1E1E1E1E1E1E1E1E1E1E1E1E1E1E193E1E1E1E1E1E1E1E1E1E1E1E1E1E1E1E1E1E1E1E1E1E1E1E1E1E2E1E1E1E1E1E1E1E1E1E1E1
310
E1E1E1E1E1E1E1E1E1E2E1E1E1E1E1E1E1E1E1E1E1E1E1E1E1E1E1E1E1E1E1E1E1E1E1E1E1E1E1E1E1E1E1E1E1E1E1E1E1E1E1E1E1E1E1E1E1E1E1E1E1E1E1E1E1E1E1E1E1E1E1E1E1E1E1E1E1E1E1E1E1E1E1E1E1E1E1E1E1E1E1E1E1E1E1E1E1E1E1E1E1E1E1E1E1E1E1E1E1E1E1E1E1E1E1E1E1E1E1E1E1E1E1E1E1E1E1
310
E1E1E1E1E1E1E1E1E1E1E1E1E1E1E1E1E1E1E1E1E1E1E1E1E1E1E1E1E1E1E1E1E1E1E1E1E1E1E1E1E1E1E1E1E1E1E1E1E1E1E1E1E1E1E1E1E1E1E1E1E1E1E1E1E1E1E1E1E1E1E1E1E1E1E2E1E1E1E1E1E1E1E1E1E1E1E1E1E1E1E193E1E1E1E1E1E1E1E1E1E1E1E1E1E1E1E1E1E1E1E1E1E1E1E1E1E2E1E1E1E1E1E1E1E1E1
310
E1E1E1E1E1E1E1E1E1E1E1E1E2E1E1E1E1E1E1E1E1E1E1E1E1E1E1E1E1E1E1E1E1E1E1E1E1E1E1E1E1E1E1E1E1E1E1E1E1E1E1E1E1E1E1E1E1E1E1E1E1E1E1E1E1E1E1E1E1E1E1E1E1E1E1E1E1E1E1E1E1E1E1E1E1E1E1E1E1E1E1E1E1E1E1E1E1E1E1E1E1E1E1E1E1E1E1E1E1E1E1E1E1E1E1E1E1E1E1E1E1E1E1E1E1E1E1
310
E1E1E1E1E1E1E1E1E1E1E1E1E1E1E1E1E1E1E1E1E1E1E1E1E1E1E1E1E1E1E1E1E1E1E1E1E1E1E1E1E1E1E1E1E1E1E1E1E1E1E1E1E1E1E1E1E1E1E1E1E1E1E1E1E1E1E1E1E1E1E1E1E1E1E1E2E1E1E1E1E1E1E1E1E1E1E1E1E1E1E1E1E193E1E1E1E1E1E1E1E1E1E1E1E1E1E1E1E1E1E1E1E1E1E1E1E1E1E2E1E1E1E1E1E1E1
310
E1E1E1E1E1E1E1E1E1E1E1E1E1E1E1E2E1E1E1E1E1E1E1E1E1E1E1E1E1E1E1E1E1E1E1E1E1E1E1E1E1E1E1E1E1E1E1E1E1E1E1E1E1E1E1E1E1E1E1E1E1E1E1E1E1E1E1E1E1E1E1E1E1E1E1E1E1E1E1E1E1E1E1E1E1E1E1E1E1E1E1E1E1E1E1E1E1E1E1E1E1E1E1E1E1E1E1E1E1E1E1E1E1E1E1E1E1E1E1E1E1E1E1E1E1E1E1
310
E1E1E1E1E1E1E1E1E1E1E1E1E1E1E1E1E1E1E1E1E1E1E1E1E1E1E1E1E1E1E1E1E1E1E1E1E1E1E1E1E1E1E1E1E1E1E1E1E1E1E1E1E1E1E1E1E1E1E1E1E1E1E1E1E1E1E1E1E1E1E1E1E1E1E1E1E1E2E1E1E1E1E1E1E1E1E1E1E1E1E1E1E1E1E193E1E1E1E1E1E1E1E1E1E1E1E1E1E1E1E1E1E1E1E1E1E1E1E1E1E2E1E1E1E1E1
310
E1E1E1E1E1E1E1E1E1E1E1E1E1E1E1E1E1E2E1E1E1E1E1E1E1E1E1E1E1E1E1E1E1E1E1E1E1E1E1E1E1E1E1E1E1E1E1E1E1E1E1E1E1E1E1E1E1E1E1E1E1E1E1E1E1E1E1E1E1E1E1E1E1E1E1E1E1E1E1E1E1E1E1E1E1E1E1E1E1E1E1E1E1E1E1E1E1E1E1E1E1E1E1E1E1E1E1E1E1E1E1E1E1E1E1E1E1E1E1E1E1E1E1E1E1E1E1
310
E1E1E1E1E1E1E1E1E1E1E1E1E1E1E1E1E1E1E1E1E1E1E1E1E1E1E1E1E1E1E1E1E1E1E1E1E1E1E1E1E1E1E1E1E1E1E1E1E1E1E1E1E1E1E1E1E1E1E1E1E1E1E1E1E1E1E1E1E1E1E1E1E1E1E1E1E1E1E2E1E1E1E1E1E1E1E1E1E1E1E1E1E1E1E1E1E193E1E1E1E1E1E1E1E1E1E1E1E1E1E1E1E1E1E1E1E1E1E1E1E1E1E2E1E1E1
310
E1E1E1E1E1E1E1E1E1E1E1E1E1E1E1E1E1E1E1E1E2E1E1E1E1E1E1E1E1E1E1E1E1E1E1E1E1E1E1E1E1E1E1E1E1E1E1E1E1E1E1E1E1E1E1E1E1E1E1E1E1E1E1E1E1E1E1E1E1E1E1E1E1E1E1E1E1E1E1E1E1E1E1E1E1E1E1E1E1E1E1E1E1E1E1E1E1E1E1E1E1E1E1E1E1E1E1E1E1E1E1E1E1E1E1E1E1E1E1E1E1E1E1E1E1E1E1
310
E1E1E1E1E1E1E1E1E1E1E1E1E1E1E1E1E1E1E1E1E1E1E1E1E1E1E1E1E1E1E1E1E1E1E1E1E1E1E1E1E1E1E1E1E1E1E1E1E1E1E1E1E1E1E1E1E1E1E1E1E1E1E1E1E1E1E1E1E1E1E1E1E1E1E1E1E1E1E1E1E2E1E1E1E1E1E1E1E1E1E1E1E1E1E1E1E1E1E193E1E1E1E1E1E1E1E1E1E1E1E1E1E1E1E1E1E1E1E1E1E1E1E1E1E2E1
310
E1E1E1E1E1E1E1E1E1E1E1E1E1E1E1E1E1E1E1E1E1E1E1E2E2E1E1E1E1E1E1E1E1E1E1E1E1E1E1E1E1E1E1E1E1E1E1E1E1E1E1E1E1E1E1E1E1E1E1E1E1E1E1E1E1E1E1E1E1E1E1E1E1E1E1E1E1E1E1E1E1E1E1E1E1E1E1E1E1E1E1E1E1E1E1E1E1E1E1E1E1E1E1E1E1E1E1E1E1E1E1E1E1E1E1E1E1E1E1E1E1E1E1E1E1E1E1
310
E1E1E1E1E1E1E1E1E1E1E1E1E1E1E1E1E1E1E1E1E1E1E1E1E1E1E1E1E1E1E1E1E1E1E1E1E1E1E1E1E1E1E1E1E1E1E1E1E1E1E1E1E1E1E1E1E1E1E1E1E1E1E1E1E1E1E1E1E1E1E1E1E1E1E1E1E1E1E1E1E1E2E1E1E1E1E1E1E1E1E1E1E1E1E1E1E1E1E1E1E193E1E1E1E1E1E1E1E1E1E1E1E1E1E1E1E1E1E1E1E1E1E1E1E1E1
310
E2E1E1E1E1E1E1E1E1E1E1E1E1E1E1E1E1E1E1E1E1E1E1E1E1E1E1E2E1E1E1E1E1E1E1E1E1E1E1E1E1E1E1E1E1E1E1E1E1E1E1E1E1E1E1E1E1E1E1E1E1E1E1E1E1E1E1E1E1E1E1E1E1E1E1E1E1E1E1E1E1E1E1E1E1E1E1E1E1E1E1E1E1E1E1E1E1E1E1E1E1E1E1E1E1E1E1E1E1E1E1E1E1E1E1E1E1E1E1E1E1E1E1E1E1E1E1
310
E1E1E1E1E1E1E1E1E1E1E1E1E1E1E1E1E1E1E1E1E1E1E1E1E1E1E1E1E1E1E1E1E1E1E1E1E1E1E1E1E1E1E1E1E1E1E1E1E1E1E1E1E1E1E1E1E1E1E1E1E1E1E1E1E1E1E1E1E1E1E1E1E1E1E1E1E1E1E1E1E1E1E1E2E1E1E1E1E1E1E1E1E1E1E1E1E1E1E1E1E1E1E193E1E1E1E1E1E1E1E1E1E1E1E1E1E1E1E1E1E1E1E1E1E1E1
310
E1E1E2E1E1E1E1E1E1E1E1E1E1E1E1E1E1E1E1E1E1E1E1E1E1E1E1E1E1E1E2E1E1E1E1E1E1E1E1E1E1E1E1E1E1E1E1E1E1E1E1E1E1E1E1E1E1E1E1E1E1E1E1E1E1E1E1E1E1E1E1E1E1E1E1E1E1E1E1E1E1E1E1E1E1E1E1E1E1E1E1E1E1E1E1E1E1E1E1E1E1E1E1E1E1E1E1E1E1E1E1E1E1E1E1E1E1E1E1E1E1E1E1E1E1E1E1
310
E1E1E1E1E1E1E1E1E1E1E1E1E1E1E1E1E1E1E1E1E1E1E1E1E1E1E1E1E1E1E1E1E1E1E1E1E1E1E1E1E1E1E1E1E1E1E1E1E1E1E1E1E1E1E1E1E1E1E1E1E1E1E1E1E1E1E1E1E1E1E1E1E1E1E1E1E1E1E1E1E1E1E1E1E2E1E1E1E1E1E1E1E1E1E1E1E1E1E1E1E1E1E1E1E193E1E1E1E1E1E1E1E1E1E1E1E1E1E1E1E1E1E1E1E1E1
310
E1E1E1E1E2E1E1E1E1E1E1E1E1E1E1E1E1E1E1E1E1E1E1E1E1E1E1E1E1E1E1E1E1E2E2E1E1E1E1E1E1E1E1E1E1E1E1E1E1E1E1E1E1E1E1E1E1E1E1E1E1E1E1E1E1E1E1E1E1E1E1E1E1E1E1E1E1E1E1E1E1E1E1E1E1E1E1E1E1E1E1E1E1E1E1E1E1E1E1E1E1E1E1E1E1E1E1E1E1E1E1E1E1E1E1E1E1E1E1E1E1E1E1E1E1E1E1
310
E1E1E1E1E1E1E1E1E1E1E1E1E1E1E1E1E1E1E1E1E1E1E1E1E1E1E1E1E1E1E1E1E1E1E1E1E1E1E1E1E1E1E1E1E1E1E1E1E1E1E1E1E1E1E1E1E1E1E1E1E1E1E1E1E1E1E1E1E1E1E1E1E1E1E1E1E1E1E1E1E1E1E1E1E1E1E2E1E1E1E1E1E1E1E1E1E1E1E1E1E1E1E1E1E1E1E193E1E1E1E1E1E1E1E1E1E1E1E1E1E1E1E1E1E1E1
310
E1E1E1E1E1E1E2E2E2E1E1E1E1E1E1E1E1E1E1E1E1E1E1E1E1E1E1E1E1E1E1E1E1E1E1E1E1E2E2E1E1E1E1E1E1E1E1E1E1E1E1E1E1E1E1E1E1E1E1E1E1E1E1E1E1E1E1E1E1E1E1E1E1E1E1E1E1E1E1E1E1E1E1E1E1E1E1E1E1E1E1E1E1E1E1E1E1E1E1E1E1E1E1E1E1E1E1E1E1E1E1E1E1E1E1E1E1E1E1E1E1E1E1E1E1E1E1
310
E1E1E1E1E1E1E1E1E1E1E1E1E1E1E1E1E1E1E1E1E1E1E1E1E1E1E1E1E1E1E1E1E1E1E1E1E1E1E1E1E1E1E1E1E1E1E1E1E1E1E1E1E1E1E1E1E1E1E1E1E1E1E1E1E1E1E1E1E1E1E1E1E1E1E1E1E1E1E1E1E1E1E1E1E1E1E1E2E1E1E1E1E1E1E1E1E1E1E1E1E1E1E1E1E1E1E1E1E193E1E1E1E1E1E1E1E1E1E1E1E1E1E1E1E1E1
310
E1E1E1E1E1E1E1E1E2E1E1E1E1E1E1E1E1E1E1E1E1E1E1E1E1E1E1E1E1E1E1E1E1E1E1E1E1E1E1E1E1E2E1E1E1E1E1E1E1E1E1E1E1E1E1E1E1E1E1E1E1E1E1E1E1E1E1E1E1E1E1E1E1E1E1E1E1E1E1E1E1E1E1E1E1E1E1E1E1E1E1E1E1E1E1E1E1E1E1E1E1E1E1E1E1E1E1E1E1E1E1E1E1E1E1E1E1E1E1E1E1E1E1E1E1E1E1
310
E1E1E1E1E1E1E1E1E1E1E1E1E1E1E1E1E1E1E1E1E1E1E1E1E1E1E1E1E1E1E1E1E1E1E1E1E1E1E1E1E1E1E1E1E1E1E1E1E1E1E1E1E1E1E1E1E1E1E1E1E1E1E1E1E1E1E1E1E1E1E1E1E1E1E1E1E1E1E1E1E1E1E1E1E1E1E1E1E1E2E1E1E1E1E1E1E1E1E1E1E1E1E1E1E1E1E1E1E1E1E193E1E1E1E1E1E1E1E1E1E1E1E1E1E1E1
310
E1E1E1E1E1E1E1E1E1E1E2E1E1E1E1E1E1E1E1E1E1E1E1E1E1E1E1E1E1E1E1E1E1E1E1E1E1E1E1E1E1E1E1E1E2E2E1E1E1E1E1E1E1E1E1E1E1E1E1E1E1E1E1E1E1E1E1E1E1E1E1E1E1E1E1E1E1E1E1E1E1E1E1E1E1E1E1E1E1E1E1E1E1E1E1E1E1E1E1E1E1E1E1E1E1E1E1E1E1E1E1E1E1E1E1E1E1E1E1E1E1E1E1E1E1E1E1
310
E1E1E1E1E1E1E1E1E1E1E1E1E1E1E1E1E1E1E1E1E1E1E1E1E1E1E1E1E1E1E1E1E1E1E1E1E1E1E1E1E1E1E1E1E1E1E1E1E1E1E1E1E1E1E1E1E1E1E1E1E1E1E1E1E1E1E1E1E1E1E1E1E1E1E1E1E1E1E1E1E1E1E1E1E1E1E1E1E1E1E2E1E1E1E1E1E1E1E1E1E1E1E1E1E1E1E1E1E1E1E1E1E193E1E1E1E1E1E1E1E1E1E1E1E1E1
310
E1E1E1E1E1E1E1E1E1E1E1E1E2E1E1E1E1E1E1E1E1E1E1E1E1E1E1E1E1E1E1E1E1E1E1E1E1E1E1E1E1E1E1E1E1E1E1E1E2E2E2E2E1E1E1E1E1E1E1E1E1E1E1E1E1E1E1E1E1E1E1E1E1E1E1E1E1E1E1E1E1E1E1E1E1E1E1E1E1E1E1E1E1E1E1E1E1E1E1E1E1E1E1E1E1E1E1E1E1E1E1E1E1E1E1E1E1E1E1E1E1E1E1E1E1E1E1
310
E1E1E1E1E1E1E1E1E1E1E1E1E1E1E1E1E1E1E1E1E1E1E1E1E1E1E1E1E1E1E1E1E1E1E1E1E1E1E1E1E1E1E1E1E1E1E1E1E1E1E1E1E1E1E1E1E1E1E1E1E1E1E1E1E1E1E1E1E1E1E1E1E1E1E1E1E1E1E1E1E1E1E1E1E1E1E1E1E1E1E1E2E1E1E1E1E1E1E1E1E1E1E1E1E1E1E1E1E1E1E1E1E1E1E193E1E1E1E1E1E1E1E1E1E1E1
310
E1E1E1E1E1E1E1E1E1E1E1E1E1E1E2E1E1E1E1E1E1E1E1E1E1E1E1E1E1E1E1E1E1E1E1E1E1E1E1E1E1E1E1E1E1E1E1E1E1E1E1E1E1E1E2E2E2E2E2E1E1E1E1E1E1E1E1E1E1E1E1E1E1E1E1E1E1E1E1E1E1E1E1E1E1E1E1E1E1E1E1E1E1E1E1E1E1E1E1E1E1E1E1E1E1E1E1E1E1E1E1E1E1E1E1E1E1E1E1E1E1E1E1E1E1E1E1
310
E1E1E1E1E1E1E1E1E1E1E1E1E1E1E1E1E1E1E1E1E1E1E1E1E1E1E1E1E1E1E1E1E1E1E1E1E1E1E1E1E1E1E1E1E1E1E1E1E1E1E1E1E1E1E1E1E1E1E1E1E1E1E1E1E1E1E1E1E1E1E1E1E1E1E1E1E1E1E1E1E1E1E1E1E1E1E1E1E1E1E1E1E2E1E1E1E1E1E1E1E1E1E1E1E1E1E1E1E1E1E1E1E1E1E1E1E193E1E1E1E1E1E1E1E1E1
310
E1E1E1E1E1E1E1E1E1E1E1E1E1E1E1E1E2E1E1E1E1E1E1E1E1E1E1E1E1E1E1E1E1E1E1E1E1E1E1E1E1E1E1E1E1E1E1E1E1E1E1E1E1E1E1E1E1E1E1E1E1E2E2E2E2E2E2E2E2E2E2E2E2E2E2E2E2E2E2E2E2E2E2E2E2E2E2E2E2E2E2E2E2E2E2E2E2E2E2E2E2E2E2E2E2E2E1E1E1E1E1E1E1E1E1E1E1E1E1E1E1E1E1E1E1E1E1
310
E1E1E1E1E1E1E1E1E1E1E1E1E1E1E1E1E1E1E1E1E1E1E1E1E1E1E1E1E1E1E1E1E1E1E1E1E1E1E1E1E1E1E1E1E1E1E1E1E1E1E1E1E1E1E1E1E1E1E1E1E1E1E1E1E1E1E1E1E1E1E1E1E1E1E1E1E1E1E1E1E1E1E1E1E1E1E1E1E1E1E1E1E1E2E1E1E1E1E1E1E1E1E1E1E1E1E1E1E1E1E1E1E1E1E1E1E1E1E193E1E1E1E1E1E1E1
310
E1E1E1E1E1E1E1E1E1E1E1E1E1E1E1E1E1E1E2E1E1E1E1E1E1E1E1E1E1E1E1E1E1E1E1E1E1E1E1E1E1E1E1E1E1E1E1E1E1E1E1E1E1E1E1E1E1E1E1E1E1E1E1E1E1E1E1E1E1E1E1E1E1E1E1E1E1E1E1E1E1E1E1E1E1E1E1E1E1E1E1E1E1E1E1E1E1E1E1E1E1E1E1E1E1E1E1E1E2E1E1E1E1E1E1E1E1E1E1E1E1E1E1E1E1E1E1
310
E1E1E1E1E1E1E1E1E1E1E1E1E1E1E1E1E1E1E1E1E1E1E1E1E1E1E1E1E1E1E1E1E1E1E1E1E1E1E1E1E1E1E1E1E1E1E1E1E1E1E1E1E1E1E1E1E1E1E1E1E1E1E1E1E1E1E1E1E1E1E1E1E1E1E1E1E1E1E1E1E1E1E1E1E1E1E1E1E1E1E1E1E1E1E2E1E1E1E1E1E1E1E1E1E1E1E1E1E1E1E1E1E1E1E1E1E1E1E1E1E193E1E1E1E1E1
310
E1E1E1E1E1E1E1E1E1E1E1E1E1E1E1E1E1E1E1E1E2E1E1E1E1E1E1E1E1E1E1E1E1E1E1E1E1E1E1E1E1E1E1E1E1E1E1E1E1E1E1E1E1E1E1E1E1E1E1E1E1E1E1E1E1E1E1E1E1E1E1E1E1E1E1E1E1E1E1E1E1E1E1E1E1E1E1E1E1E1E1E1E1E1E1E1E1E1E1E1E1E1E1E1E1E1E1E1E1E1E1E2E2E1E1E1E1E1E1E1E1E1E1E1E1E1E1
310
E1E1E1E1E1E1E1E1E1E1E1E1E1E1E1E1E1E1E1E1E1E1E1E1E1E1E1E1E1E1E1E1E1E1E1E1E1E1E1E1E1E1E1E1E1E1E1E1E1E1E1E1E1E1E1E1E1E1E1E1E1E1E1E1E1E1E1E1E1E1E1E1E1E1E1E1E1E1E1E1E1E1E1E1E1E1E1E1E1E1E1E1E1E1E1E2E1E1E1E1E1E1E1E1E1E1E1E1E1E1E1E1E1E1E1E1E1E1E1E1E1E1E193E1E1E1
310
E1E1E1E1E1E1E1E1E1E1E1E1E1E1E1E1E1E1E1E1E1E1E2E1E1E1E1E1E1E1E1E1E1E1E1E1E1E1E1E1E1E1E1E1E1E1E1E1E1E1E1E1E1E1E1E1E1E1E1E1E1E1E1E1E1E1E1E1E1E1E1E1E1E1E1E1E1E1E1E1E1E1E1E1E1E1E1E1E1E1E1E1E1E1E1E1E1E1E1E1E1E1E1E1E1E1E1E1E1E1E1E1E1E1E1E2E1E1E1E1E1E1E1E1E1E1E1
310
E1E1E1E1E1E1E1E1E1E1E1E1E1E1E1E1E1E1E1E1E1E1E1E1E1E1E1E1E1E1E1E1E1E1E1E1E1E1E1E1E1E1E1E1E1E1E1E1E1E1E1E1E1E1E1E1E1E1E1E1E1E1E1E1E1E1E1E1E1E1E1E1E1E1E1E1E1E1E1E1E1E1E1E1E1E1E1E1E1E1E1E1E1E1E1E1E2E1E1E1E1E1E1E1E1E1E1E1E1E1E1E1E1E1E1E1E1E1E1E1E1E1E1E1E193E1
310
E1E1E1E1E1E1E1E1E1E1E1E1E1E1E1E1E1E1E1E1E1E1E1E1E2E1E1E1E1E1E1E1E1E1E1E1E1E1E1E1E1E1E1E1E1E1E1E1E1E1E1E1E1E1E1E1E1E1E1E1E1E1E1E1E1E1E1E1E1E1E1E1E1E1E1E1E1E1E1E1E1E1E1E1E1E1E1E1E1E1E1E1E1E1E1E1E1E1E1E1E1E1E1E1E1E1E1E1E1E1E1E1E1E1E1E1E1E1E2E1E1E1E1E1E1E1E1
310
E1E1E1E1E1E1E1E1E1E1E1E1E1E1E1E1E1E1E1E1E1E1E1E1E1E1E1E1E1E1E1E1E1E1E1E1E1E1E1E1E1E1E1E1E1E1E1E1E1E1E1E1E1E1E1E1E1E1E1E1E1E1E1E1E1E1E1E1E1E1E1E1E1E1E1E1E1E1E1E1E1E1E1E1E1E1E1E1E1E1E1E1E1E1E1E1E1E2E1E1E1E1E1E1E1E1E1E1E1E1E1E1E1E1E1E1E1E1E1E1E1E1E1E1E1E1E1
310
93E1E1E1E1E1E1E1E1E1E1E1E1E1E1E1E1E1E1E1E1E1E1E1E1E1E2E1E1E1E1E1E1E1E1E1E1E1E1E1E1E1E1E1E1E1E1E1E1E1E1E1E1E1E1E1E1E1E1E1E1E1E1E1E1E1E1E1E1E1E1E1E1E1E1E1E1E1E1E1E1E1E1E1E1E1E1E1E1E1E1E1E1E1E1E1E1E1E1E1E1E1E1E1E1E1E1E1E1E1E1E1E1E1E1E1E1E1E1E1E1E2E2E1E1E1E1
310
E1E1E1E1E1E1E1E1E1E1E1E1E1E1E1E1E1E1E1E1E1E1E1E1E1E1E1E1E1E1E1E1E1E1E1E1E1E1E1E1E1E1E1E1E1E1E1E1E1E1E1E1E1E1E1E1E1E1E1E1E1E1E1E1E1E1E1E1E1E1E1E1E1E1E1E1E1E1E1E1E1E1E1E1E1E1E1E1E1E1E1E1E1E1E1E1E1E1E2E1E1E1E1E1E1E1E1E1E1E1E1E1E1E1E1E1E1E1E1E1E1E1E1E1E1E1E1
310
E1E193E1E1E1E1E1E1E1E1E1E1E1E1E1E1E1E1E1E1E1E1E1E1E1E1E1E2E1E1E1E1E1E1E1E1E1E1E1E1E1E1E1E1E1E1E1E1E1E1E1E1E1E1E1E1E1E1E1E1E1E1E1E1E1E1E1E1E1E1E1E1E1E1E1E1E1E1E1E1E1E1E1E1E1E1E1E1E1E1E1E1E1E1E1E1E1E1E1E1E1E1E1E1E1E1E1E1E1E1E1E1E1E1E1E1E1E1E1E1E1E1E1E1E2E1
310
E1E1E1E1E1E1E1E1E1E1E1E1E1E1E1E1E1E1E1E1E1E1E1E1E1E1E1E1E1E1E1E1E1E1E1E1E1E1E1E1E1E1E1E1E1E1E1E1E1E1E1E1E1E1E1E1E1E1E1E1E1E1E1E1E1E1E1E1E1E1E1E1E1E1E1E1E1E1E1E1E1E1E1E1E1E1E1E1E1E1E1E1E1E1E1E1E1E1E1E2E1E1E1E1E1E1E1E1E1E1E1E1E1E1E1E1E1E1E1E1E1E1E1E1E1E1E1
310
E1E1E1E193E1E1E1E1E1E1E1E1E1E1E1E1E1E1E1E1E1E1E1E1E1E1E1E1E1E2E1E1E1E1E1E1E1E1E1E1E1E1E1E1E1E1E1E1E1E1E1E1E1E1E1E1E1E1E1E1E1E1E1E1E1E1E1E1E1E1E1E1E1E1E1E1E1E1E1E1E1E1E1E1E1E1E1E1E1E1E1E1E1E1E1E1E1E1E1E1E1E1E1E1E1E1E1E1E1E1E1E1E1E1E1E1E1E1E1E1E1E1E1E1E1E1
310
E1E2E2E1E1E1E1E1E1E1E1E1E1E1E1E1E1E1E1E1E1E1E1E1E1E1E1E1E1E1E1E1E1E1E1E1E1E1E1E1E1E1E1E1E1E1E1E1E1E1E1E1E1E1E1E1E1E1E1E1E1E1E1E1E1E1E1E1E1E1E1E1E1E1E1E1E1E1E1E1E1E1E1E1E1E1E1E1E1E1E1E1E1E1E1E1E1E1E1E2E2E1E1E1E1E1E1E1E1E1E1E1E1E1E1E1E1E1E1E1E1E1E1E1E1E1E1
310
E1E1E1E1E1E193E1E1E1E1E1E1E1E1E1E1E1E1E1E1E1E1E1E1E1E1E1E1E1E1E1E2E1E1E1E1E1E1E1E1E1E1E1E1E1E1E1E1E1E1E1E1E1E1E1E1E1E1E1E1E1E1E1E1E1E1E1E1E1E1E1E1E1E1E1E1E1E1E1E1E1E1E1E1E1E1E1E1E1E1E1E1E1E1E1E1E1E1E1E1E1E1E1E1E1E1E1E1E1E1E1E1E1E1E1E1E1E1E1E1E1E1E1E1E1E1
310
E1E1E1E1E1E2E1E1E1E1E1E1E1E1E1E1E1E1E1E1E1E1E1E1E1E1E1E1E1E1E1E1E1E1E1E1E1E1E1E1E1E1E1E1E1E1E1E1E1E1E1E1E1E1E1E1E1E1E1E1E1E1E1E1E1E1E1E1E1E1E1E1E1E1E1E1E1E1E1E1E1E1E1E1E1E1E1E1E1E1E1E1E1E1E1E1E1E1E1E2E2E1E1E1E1E1E1E1E1E1E1E1E1E1E1E1E1E1E1E1E1E1E1E1E1E1E1
310
E1E1E1E1E1E1E1E193E1E1E1E1E1E1E1E1E1E1E1E1E1E1E1E1E1E1E1E1E1E1E1E1E1E2E1E1E1E1E1E1E1E1E1E1E1E1E1E1E1E1E1E1E1E1E1E1E1E1E1E1E1E1E1E1E1E1E1E1E1E1E1E1E1E1E1E1E1E1E1E1E1E1E1E1E1E1E1E1E1E1E1E1E1E1E1E1E1E1E1E1E1E1E1E1E1E1E1E1E1E1E1E1E1E1E1E1E1E1E1E1E1E1E1E1E1E1
310
E1E1E1E1E1E1E1E1E2E2E1E1E1E1E1E1E1E1E1E1E1E1E1E1E1E1E1E1E1E1E1E1E1E1E1E1E1E1E1E1E1E1E1E1E1E1E1E1E1E1E1E1E1E1E1E1E1E1E1E1E1E1E1E1E1E1E1E1E1E1E1E1E1E1E1E1E1E1E1E1E1E1E1E1E1E1E1E1E1E1E1E1E1E1E1E1E1E1E1E1E2E1E1E1E1E1E1E1E1E1E1E1E1E1E1E1E1E1E1E1E1E1E1E1E1E1E1
310
E1E1E1E1E1E1E1E1E1E193E1E1E1E1E1E1E1E1E1E1E1E1E1E1E1E1E1E1E1E1E1E1E1E1E1E2E1E1E1E1E1E1E1E1E1E1E1E1E1E1E1E1E1E1E1E1E1E1E1E1E1E1E1E1E1E1E1E1E1E1E1E1E1E1E1E1E1E1E1E1E1E1E1E1E1E1E1E1E1E1E1E1E1E1E1E1E1E1E1E1E1E1E1E1E1E1E1E1E1E1E1E1E1E1E1E1E1E1E1E1E1E1E1E1E1E1
310
E1E1E1E1E1E1E1E1E1E1E1E1E2E1E1E1E1E1E1E1E1E1E1E1E1E1E1E1E1E1E1E1E1E1E1E1E1E1E1E1E1E1E1E1E1E1E1E1E1E1E1E1E1E1E1E1E1E1E1E1E1E1E1E1E1E1E1E1E1E1E1E1E1E1E1E1E1E1E1E1E1E1E1E1E1E1E1E1E1E1E1E1E1E1E1E1E1E1E1E1E2E2E1E1E1E1E1E1E1E1E1E1E1E1E1E1E1E1E1E1E1E1E1E1E1E1E1
310
E1E1E1E1E1E1E1E1E1E1E1E193E1E1E1E1E1E1E1E1E1E1E1E1E1E1E1E1E1E1E1E1E1E1E1E1E1E2E1E1E1E1E1E1E1E1E1E1E1E1E1E1E1E1E1E1E1E1E1E1E1E1E1E1E1E1E1E1E1E1E1E1E1E1E1E1E1E1E1E1E1E1E1E1E1E1E1E1E1E1E1E1E1E1E1E1E1E1E1E1E1E1E1E1E1E1E1E1E1E1E1E1E1E1E1E1E1E1E1E1E1E1E1E1E1E1
310
E1E1E1E1E1E1E1E1E1E1E1E1E1E1E1E2E2E1E1E1E1E1E1E1E1E1E1E1E1E1E1E1E1E1E1E1E1E1E1E1E1E1E1E1E1E1E1E1E1E1E1E1E1E1E1E1E1E1E1E1E1E1E1E1E1E1E1E1E1E1E1E1E1E1E1E1E1E1E1E1E1E1E1E1E1E1E1E1E1E1E1E1E1E1E1E1E1E1E1E1E2E2E1E1E1E1E1E1E1E1E1E1E1E1E1E1E1E1E1E1E1E1E1E1E1E1E1
310
E1E1E1E1E1E1E1E1E1E1E1E1E1E193E1E1E1E1E1E1E1E1E1E1E1E1E1E1E1E1E1E1E1E1E1E1E1E1E1E2E1E1E1E1E1E1E1E1E1E1E1E1E1E1E1E1E1E1E1E1E1E1E1E1E1E1E1E1E1E1E1E1E1E1E1E1E1E1E1E1E1E1E1E1E1E1E1E1E1E1E1E1E1E1E1E1E1E1E1E1E1E1E1E1E1E1E1E1E1E1E1E1E1E1E1E1E1E1E1E1E1E1E1E1E1E1
310
E1E1E1E1E1E1E1E1E1E1E1E1E1E1E1E1E1E1E1E2E2E1E1E1E1E1E1E1E1E1E1E1E1E1E1E1E1E1E1E1E1E1E1E1E1E1E1E1E1E1E1E1E1E1E1E1E1E1E1E1E1E1E1E1E1E1E1E1E1E1E1E1E1E1E1E1E1E1E1E1E1E1E1E1E1E1E1E1E1E1E1E1E1E1E1E1E1E1E1E2E2E2E1E1E1E1E1E1E1E1E1E1E1E1E1E1E1E1E1E1E1E1E1E1E1E1E1
310
E1E1E1E1E1E1E1E1E1E1E1E1E1E1E1E193E1E1E1E1E1E1E1E1E1E1E1E1E1E1E1E1E1E1E1E1E1E1E1E1E1E2E1E1E1E1E1E1E1E1E1E1E1E1E1E1E1E1E1E1E1E1E1E1E1E1E1E1E1E1E1E1E1E1E1E1E1E1E1E1E1E1E1E1E1E1E1E1E1E1E1E1E1E1E1E1E1E1E1E1E1E1E1E1E1E1E1E1E1E1E1E1E1E1E1E1E1E1E1E1E1E1E1E1E1E1
310
E1E1E1E1E1E1E1E1E1E1E1E1E1E1E1E1E1E1E1E1E1E1E1E2E2E2E1E1E1E1E1E1E1E1E1E1E1E1E1E1E1E1E1E1E1E1E1E1E1E1E1E1E1E1E1E1E1E1E1E1E1E1E1E1E1E1E1E1E1E1E1E1E1E1E1E1E1E1E1E1E1E1E1E1E1E1E1E1E1E1E1E1E1E1E1E1E1E1E2E2E2E1E1E1E1E1E1E1E1E1E1E1E1E1E1E1E1E1E1E1E1E1E1E1E1E1E1
310
E1E1E1E1E1E1E1E1E1E1E1E1E1E1E1E1E1E193E1E1E1E1E1E1E1E1E1E1E1E1E1E1E1E1E1E1E1E1E1E1E1E1E1E2E1E1E1E1E1E1E1E1E1E1E1E1E1E1E1E1E1E1E1E1E1E1E1E1E1E1E1E1E1E1E1E1E1E1E1E1E1E1E1E1E1E1E1E1E1E1E1E1E1E1E1E1E1E1E1E1E1E1E1E1E1E1E1E1E1E1E1E1E1E1E1E1E1E1E1E1E1E1E1E1E1E1
310
E1E1E1E1E1E1E1E1E1E1E1E1E1E1E1E1E1E1E1E1E1E1E1E1E1E1E1E1E2E2E2E2E2E1E1E1E1E1E1E1E1E1E1E1E1E1E1E1E1E1E1E1E1E1E1E1E1E1E1E1E1E1E1E1E1E1E1E1E1E1E1E1E1E1E1E1E1E1E1E1E1E1E1E1E1E1E1E1E1E1E1E1E1E1E1E1E2E2E2E2E1E1E1E1E1E1E1E1E1E1E1E1E1E1E1E1E1E1E1E1E1E1E1E1E1E1E1
310
E1E1E1E1E1E1E1E1E1E1E1E1E1E1E1E1E1E1E19393E1E1E1E1E1E1E1E1E1E1E1E1E1E1E1E1E1E1E1E1E1E1E1E1E1E2E1E1E1E1E1E1E1E1E1E1E1E1E1E1E1E1E1E1E1E1E1E1E1E1E1E1E1E1E1E1E1E1E1E1E1E1E1E1E1E1E1E1E1E1E1E1E1E1E1E1E1E1E1E1E1E1E1E1E1E1E1E1E1E1E1E1E1E1E1E1E1E1E1E1E1E1E1E1E1E1
310
E1E1E1E1E1E1E1E1E1E1E1E1E1E1E1E1E1E1E1E1E1E1E1E1E1E1E1E1E1E1E1E1E1E1E1E2E2E2E2E2E2E2E1E1E1E1E1E1E1E1E1E1E1E1E1E1E1E1E1E1E1E1E1E1E1E1E1E1E1E1E1E1E1E1E1E1E1E1E1E1E1E1E1E1E1E1E1E1E1E1E1E2E2E2E2E2E2E2E1E1E1E1E1E1E1E1E1E1E1E1E1E1E1E1E1E1E1E1E1E1E1E1E1E1E1E1E1
310
E1E1E1E1E1E1E1E1E1E1E1E1E1E1E1E1E1E1E1E1E1E193E1E1E1E1E1E1E1E1E1E1E1E1E1E1E1E1E1E1E1E1E1E1E1E1E1E2E1E1E1E1E1E1E1E1E1E1E1E1E1E1E1E1E1E1E1E1E1E1E1E1E1E1E1E1E1E1E1E1E1E1E1E1E1E1E1E1E1E1E1E1E1E1E1E1E1E1E1E1E1E1E1E1E1E1E1E1E1E1E1E1E1E1E1E1E1E1E1E1E1E1E1E1E1E1
310
E1E1E1E1E1E1E1E1E1E1E1E1E1E1E1E1E1E1E1E1E1E1E1E1E1E1E1E1E1E1E1E1E1E1E1E1E1E1E1E1E1E1E1E1E2E2E2E2E2E2E2E2E2E2E2E2E2E2E2E2E2E2E2E2E2E2E2E2E2E2E2E293939393939393939393939393939393939393939393939393939393939393939393939393939393939393939393939393939393939393
310
939393939393939393939393939393939393939393939393939393E1E1E1E1E1E1E1E1E1E1E1E1E1E1E1E1E1E1E1E1E1E1E1E2E2E1E1E1E1E1E1E1E1E1E1E1E1E1E1E1E1E1E1E1E1E1E1E1E1E1E1E1E1E1E1E1E1E1E1E1E1E1E1E1E1E1E1E1E1E1E1E1E1E1E1E1E1E1E1E1E1E1E1E1E1E1E1E1E1E1E1E1E1E1E1E1E1E1E1E1
310
E1E1E1E1E1E1E1E1E1E1E1E1E1E1E1E1E1E1E1E1E1E1E1E1E1E1E1E1E1E1E1E1E1E1E1E1E1E1E1E1E1E1E1E1E1E1E1E1E1E1E1E1E1E1E1E1E1E1E1E1E1E1E1E1E1E1E1E1E1E1E1E1E1E1E1E1E1E1E1E1E1E1E1E1E1E1E1E1E1E1E1E1E1E1E1E1E1E1E1E1E1E1E1E1E1E1E1E1E1E1E1E1E1E1E1E1E1E1E1E1E1E1E1E1E1E1E1
310
E1E1E1E1E1E1E1E1E1E1E1E1E1E1E1E1E1E1E1E1E1E1E1E1E1E1E1E1E1E1E1E1E1E1E1E1E1E1E1E1E1E1E1E1E1E1E1E1E1E1E1E1E2E2E1E1E1E1E1E1E1E1E1E1E1E1E1E1E1E1E1E1E1E1E1E1E1E1E1E1E1E1E1E1E1E1E1E1E1E1E1E1E1E1E1E1E1E1E1E1E1E1E1E1E1E1E1E1E1E1E1E1E1E1E1E1E1E1E1E1E1E1E1E1E1E1E1
310
E1E1E1E1E1E1E1E1E1E1E1E1E1E1E1E1E1E1E1E1E1E1E1E1E1E1E1E1E1E1E1E1E1E1E1E1E1E1E1E1E1E1E1E1E1E1E1E1E1E1E1E1E1E1E1E1E1E1E1E1E1E1E1E1E1E1E1E1E1E1E1E1E1E1E1E1E1E1E1E1E1E1E1E1E1E1E1E1E1E1E1E1E1E1E1E1E1E1E1E1E1E1E1E1E1E1E1E1E1E1E1E1E1E1E1E1E1E1E1E1E1E1E1E1E1E1E1
310
E1E1E1E1E1E1E1E1E1E1E1E1E1E1E1E1E1E1E1E1E1E1E1E1E1E1E1E1E1E1E1E1E1E1E1E1E1E1E1E1E1E1E1E1E1E1E1E1E1E1E1E1E1E1E2E2E1E1E1E1E1E1E1E1E1E1E1E1E1E1E1E1E1E1E1E1E1E1E1E1E1E1E1E1E1E1E1E1E1E1E1E1E1E1E1E1E1E1E1E1E1E1E1E1E1E1E1E1E1E1E1E1E1E1E1E1E1E1E1E1E1E1E1E1E1E1E1
310
E1E1E1E1E1E1E1E1E1E1E1E1E1E1E1E1E1E1E1E1E1E1E1E1E1E1E1E1E1E1E1E1E1E1E1E1E1E1E1E1E1E1E1E1E1E1E1E1E1E1E1E1E1E1E1E1E1E1E1E1E1E1E1E1E1E1E1E1E1E1E1E1E1E1E1E1E1E1E1E1E1E1E1E1E1E1E1E1E1E1E1E1E1E1E1E1E1E1E1E1E1E1E1E1E1E1E1E1E1E1E1E1E1E1E1E1E1E1E1E1E1E1E1E1E1E1E1
310
E1E1E1E1E1E1E1E1E1E1E1E1E1E1E1E1E1E1E1E1E1E1E1E1E1E1E1E1E1E1E1E1E1E1E1E1E1E1E1E1E1E1E1E1E1E1E1E1E1E1E1E1E1E1E1E1E2E1E1E1E1E1E1E1E1E1
  0
XRECORD
  5
E04
102
{ACAD_REACTORS
330
1A
102
}
330
1A
100
AcDbXrecord
280
     1
102
MATERIAL
148
0.0
149
0.0
149
0.0
 93
        0
 94
      127
282
     0
 72
     0
 77
     0
171
     0
175
     0
179
     0
273
     0
  0
XRECORD
  5
1C
102
{ACAD_REACTORS
330
1A
102
}
330
1A
100
AcDbXrecord
280
     1
270
     1
271
     1
  0
XRECORD
  5
1B
102
{ACAD_REACTORS
330
1A
102
}
330
1A
100
AcDbXrecord
280
     1
270
     1
271
     1
  0
XRECORD
  5
1F
102
{ACAD_REACTORS
330
1A
102
}
330
1A
100
AcDbXrecord
280
     1
270
     1
271
     1
  0
XRECORD
  5
1E
102
{ACAD_REACTORS
330
1A
102
}
330
1A
100
AcDbXrecord
280
     1
270
     1
271
     1
  0
XRECORD
  5
20
102
{ACAD_REACTORS
330
1A
102
}
330
1A
100
AcDbXrecord
280
     1
270
     1
271
     1
  0
XRECORD
  5
1D
102
{ACAD_REACTORS
330
1A
102
}
330
1A
100
AcDbXrecord
280
     1
270
     1
271
     1
  0
XRECORD
  5
E03
102
{ACAD_REACTORS
330
12
102
}
330
12
100
AcDbXrecord
280
     1
102
MATERIAL
148
0.0
149
0.0
149
0.0
 93
        0
 94
      127
282
     0
 72
     0
 77
     0
171
     0
175
     0
179
     0
273
     0
  0
XRECORD
  5
14
102
{ACAD_REACTORS
330
12
102
}
330
12
100
AcDbXrecord
280
     1
270
     1
271
     1
  0
XRECORD
  5
13
102
{ACAD_REACTORS
330
12
102
}
330
12
100
AcDbXrecord
280
     1
270
     1
271
     1
  0
XRECORD
  5
17
102
{ACAD_REACTORS
330
12
102
}
330
12
100
AcDbXrecord
280
     1
270
     1
271
     1
  0
XRECORD
  5
16
102
{ACAD_REACTORS
330
12
102
}
330
12
100
AcDbXrecord
280
     1
270
     1
271
     1
  0
XRECORD
  5
18
102
{ACAD_REACTORS
330
12
102
}
330
12
100
AcDbXrecord
280
     1
270
     1
271
     1
  0
XRECORD
  5
15
102
{ACAD_REACTORS
330
12
102
}
330
12
100
AcDbXrecord
280
     1
270
     1
271
     1
  0
XRECORD
  5
E05
102
{ACAD_REACTORS
330
22
102
}
330
22
100
AcDbXrecord
280
     1
102
MATERIAL
148
0.0
149
0.0
149
0.0
 93
        0
 94
      127
282
     0
 72
     0
 77
     0
171
     0
175
     0
179
     0
273
     0
  0
XRECORD
  5
24
102
{ACAD_REACTORS
330
22
102
}
330
22
100
AcDbXrecord
280
     1
270
     1
271
     1
  0
XRECORD
  5
23
102
{ACAD_REACTORS
330
22
102
}
330
22
100
AcDbXrecord
280
     1
270
     1
271
     1
  0
XRECORD
  5
27
102
{ACAD_REACTORS
330
22
102
}
330
22
100
AcDbXrecord
280
     1
270
     1
271
     1
  0
XRECORD
  5
26
102
{ACAD_REACTORS
330
22
102
}
330
22
100
AcDbXrecord
280
     1
270
     1
271
     1
  0
XRECORD
  5
28
102
{ACAD_REACTORS
330
22
102
}
330
22
100
AcDbXrecord
280
     1
270
     1
271
     1
  0
XRECORD
  5
25
102
{ACAD_REACTORS
330
22
102
}
330
22
100
AcDbXrecord
280
     1
270
     1
271
     1
  0
CELLSTYLEMAP
  5
DE9
102
{ACAD_REACTORS
330
927
102
}
330
927
100
AcDbCellStyleMap
 90
        3
300
CELLSTYLE
  1
TABLEFORMAT_BEGIN
 90
        5
170
     1
 91
        0
 92
    32768
 62
   257
 93
        1
300
CONTENTFORMAT
  1
CONTENTFORMAT_BEGIN
 90
        0
 91
        0
 92
      512
 93
        0
300

 40
0.0
140
1.0
 94
        5
 62
     0
340
60
144
0.25
309
CONTENTFORMAT_END
171
     1
301
MARGIN
  1
CELLMARGIN_BEGIN
 40
0.06
 40
0.06
 40
0.06
 40
0.06
 40
0.18
 40
0.18
309
CELLMARGIN_END
 94
        6
 95
        1
302
GRIDFORMAT
  1
GRIDFORMAT_BEGIN
 90
        0
 91
        1
 62
     0
 92
       -2
340
0
 93
        0
 40
0.045
309
GRIDFORMAT_END
 95
        2
302
GRIDFORMAT
  1
GRIDFORMAT_BEGIN
 90
        0
 91
        1
 62
     0
 92
       -2
340
0
 93
        0
 40
0.045
309
GRIDFORMAT_END
 95
        4
302
GRIDFORMAT
  1
GRIDFORMAT_BEGIN
 90
        0
 91
        1
 62
     0
 92
       -2
340
0
 93
        0
 40
0.045
309
GRIDFORMAT_END
 95
        8
302
GRIDFORMAT
  1
GRIDFORMAT_BEGIN
 90
        0
 91
        1
 62
     0
 92
       -2
340
0
 93
        0
 40
0.045
309
GRIDFORMAT_END
 95
       16
302
GRIDFORMAT
  1
GRIDFORMAT_BEGIN
 90
        0
 91
        1
 62
     0
 92
       -2
340
0
 93
        0
 40
0.045
309
GRIDFORMAT_END
 95
       32
302
GRIDFORMAT
  1
GRIDFORMAT_BEGIN
 90
        0
 91
        1
 62
     0
 92
       -2
340
0
 93
        0
 40
0.045
309
GRIDFORMAT_END
309
TABLEFORMAT_END
  1
CELLSTYLE_BEGIN
 90
        1
 91
        1
300
_TITLE
309
CELLSTYLE_END
300
CELLSTYLE
  1
TABLEFORMAT_BEGIN
 90
        5
170
     1
 91
        0
 92
        0
 62
   257
 93
        1
300
CONTENTFORMAT
  1
CONTENTFORMAT_BEGIN
 90
        0
 91
        0
 92
      512
 93
        0
300

 40
0.0
140
1.0
 94
        5
 62
     0
340
60
144
0.18
309
CONTENTFORMAT_END
171
     1
301
MARGIN
  1
CELLMARGIN_BEGIN
 40
0.06
 40
0.06
 40
0.06
 40
0.06
 40
0.18
 40
0.18
309
CELLMARGIN_END
 94
        6
 95
        1
302
GRIDFORMAT
  1
GRIDFORMAT_BEGIN
 90
        0
 91
        1
 62
     0
 92
       -2
340
0
 93
        0
 40
0.045
309
GRIDFORMAT_END
 95
        2
302
GRIDFORMAT
  1
GRIDFORMAT_BEGIN
 90
        0
 91
        1
 62
     0
 92
       -2
340
0
 93
        0
 40
0.045
309
GRIDFORMAT_END
 95
        4
302
GRIDFORMAT
  1
GRIDFORMAT_BEGIN
 90
        0
 91
        1
 62
     0
 92
       -2
340
0
 93
        0
 40
0.045
309
GRIDFORMAT_END
 95
        8
302
GRIDFORMAT
  1
GRIDFORMAT_BEGIN
 90
        0
 91
        1
 62
     0
 92
       -2
340
0
 93
        0
 40
0.045
309
GRIDFORMAT_END
 95
       16
302
GRIDFORMAT
  1
GRIDFORMAT_BEGIN
 90
        0
 91
        1
 62
     0
 92
       -2
340
0
 93
        0
 40
0.045
309
GRIDFORMAT_END
 95
       32
302
GRIDFORMAT
  1
GRIDFORMAT_BEGIN
 90
        0
 91
        1
 62
     0
 92
       -2
340
0
 93
        0
 40
0.045
309
GRIDFORMAT_END
309
TABLEFORMAT_END
  1
CELLSTYLE_BEGIN
 90
        2
 91
        1
300
_HEADER
309
CELLSTYLE_END
300
CELLSTYLE
  1
TABLEFORMAT_BEGIN
 90
        5
170
     1
 91
        0
 92
        0
 62
   257
 93
        1
300
CONTENTFORMAT
  1
CONTENTFORMAT_BEGIN
 90
        0
 91
        0
 92
      512
 93
        0
300

 40
0.0
140
1.0
 94
        2
 62
     0
340
60
144
0.18
309
CONTENTFORMAT_END
171
     1
301
MARGIN
  1
CELLMARGIN_BEGIN
 40
0.06
 40
0.06
 40
0.06
 40
0.06
 40
0.18
 40
0.18
309
CELLMARGIN_END
 94
        6
 95
        1
302
GRIDFORMAT
  1
GRIDFORMAT_BEGIN
 90
        0
 91
        1
 62
     0
 92
       -2
340
0
 93
        0
 40
0.045
309
GRIDFORMAT_END
 95
        2
302
GRIDFORMAT
  1
GRIDFORMAT_BEGIN
 90
        0
 91
        1
 62
     0
 92
       -2
340
0
 93
        0
 40
0.045
309
GRIDFORMAT_END
 95
        4
302
GRIDFORMAT
  1
GRIDFORMAT_BEGIN
 90
        0
 91
        1
 62
     0
 92
       -2
340
0
 93
        0
 40
0.045
309
GRIDFORMAT_END
 95
        8
302
GRIDFORMAT
  1
GRIDFORMAT_BEGIN
 90
        0
 91
        1
 62
     0
 92
       -2
340
0
 93
        0
 40
0.045
309
GRIDFORMAT_END
 95
       16
302
GRIDFORMAT
  1
GRIDFORMAT_BEGIN
 90
        0
 91
        1
 62
     0
 92
       -2
340
0
 93
        0
 40
0.045
309
GRIDFORMAT_END
 95
       32
302
GRIDFORMAT
  1
GRIDFORMAT_BEGIN
 90
        0
 91
        1
 62
     0
 92
       -2
340
0
 93
        0
 40
0.045
309
GRIDFORMAT_END
309
TABLEFORMAT_END
  1
CELLSTYLE_BEGIN
 90
        3
 91
        2
300
_DATA
309
CELLSTYLE_END
  0
XRECORD
  5
E2C
102
{ACAD_REACTORS
330
927
102
}
330
927
100
AcDbXrecord
280
     1
102
ACAD_ROUNDTRIP_PRE2007_TABLESTYLE
 90
      512
 91
        0
  1

 92
      512
 93
        0
  2

 94
      512
 95
        0
  3

  0
XRECORD
  5
E11
102
{ACAD_REACTORS
330
E10
102
}
330
E10
100
AcDbXrecord
280
     1
102
RTVSPropertyOp0
 70
     1
102
RTVSPropertyOp1
 70
     1
102
RTVSPropertyOp2
 70
     1
102
RTVSPropertyOp3
 70
     1
102
RTVSPropertyOp4
 70
     1
102
RTVSPropertyOp5
 70
     1
102
RTVSPropertyOp6
 70
     1
102
RTVSPropertyOp7
 70
     1
102
RTVSPropertyOp8
 70
     1
102
RTVSPropertyOp9
 70
     1
102
RTVSPropertyOp10
 70
     1
102
RTVSPropertyOp11
 70
     1
102
RTVSPropertyOp12
 70
     1
102
RTVSPropertyOp13
 70
     1
102
RTVSPropertyOp14
 70
     1
102
RTVSPropertyOp15
 70
     1
102
RTVSPropertyOp16
 70
     1
102
RTVSPropertyOp17
 70
     1
102
RTVSPropertyOp18
 70
     1
102
RTVSPropertyOp19
 70
     1
102
RTVSPropertyOp20
 70
     1
102
RTVSPropertyOp21
 70
     1
102
RTVSPropertyOp22
 70
     1
102
RTVSPropertyOp23
 70
     1
102
RTVSPropertyOp24
 70
     1
102
RTVSPropertyOp25
 70
     1
102
RTVSPropertyOp26
 70
     1
102
RTVSPropertyOp27
 70
     1
102
RTVSPropertyOp28
 70
     1
102
RTVSPropertyOp29
 70
     1
102
RTVSPropertyOp30
 70
     1
102
RTVSPropertyOp31
 70
     1
102
RTVSPropertyOp32
 70
     1
  0
XRECORD
  5
E15
102
{ACAD_REACTORS
330
E14
102
}
330
E14
100
AcDbXrecord
280
     1
102
RTVSPropertyOp0
 70
     1
102
RTVSPropertyOp1
 70
     1
102
RTVSPropertyOp2
 70
     1
102
RTVSPropertyOp3
 70
     1
102
RTVSPropertyOp4
 70
     1
102
RTVSPropertyOp5
 70
     1
102
RTVSPropertyOp6
 70
     1
102
RTVSPropertyOp7
 70
     1
102
RTVSPropertyOp8
 70
     1
102
RTVSPropertyOp9
 70
     1
102
RTVSPropertyOp10
 70
     1
102
RTVSPropertyOp11
 70
     1
102
RTVSPropertyOp12
 70
     1
102
RTVSPropertyOp13
 70
     1
102
RTVSPropertyOp14
 70
     1
102
RTVSPropertyOp15
 70
     1
102
RTVSPropertyOp16
 70
     1
102
RTVSPropertyOp17
 70
     1
102
RTVSPropertyOp18
 70
     1
102
RTVSPropertyOp19
 70
     1
102
RTVSPropertyOp20
 70
     1
102
RTVSPropertyOp21
 70
     1
102
RTVSPropertyOp22
 70
     1
102
RTVSPropertyOp23
 70
     1
102
RTVSPropertyOp24
 70
     1
102
RTVSPropertyOp25
 70
     1
102
RTVSPropertyOp26
 70
     1
102
RTVSPropertyOp27
 70
     1
102
RTVSPropertyOp28
 70
     1
102
RTVSPropertyOp29
 70
     1
102
RTVSPropertyOp30
 70
     1
102
RTVSPropertyOp31
 70
     1
102
RTVSPropertyOp32
 70
     1
  0
XRECORD
  5
E13
102
{ACAD_REACTORS
330
E12
102
}
330
E12
100
AcDbXrecord
280
     1
102
RTVSPropertyOp0
 70
     1
102
RTVSPropertyOp1
 70
     1
102
RTVSPropertyOp2
 70
     1
102
RTVSPropertyOp3
 70
     1
102
RTVSPropertyOp4
 70
     1
102
RTVSPropertyOp5
 70
     1
102
RTVSPropertyOp6
 70
     1
102
RTVSPropertyOp7
 70
     1
102
RTVSPropertyOp8
 70
     1
102
RTVSPropertyOp9
 70
     1
102
RTVSPropertyOp10
 70
     1
102
RTVSPropertyOp11
 70
     1
102
RTVSPropertyOp12
 70
     1
102
RTVSPropertyOp13
 70
     1
102
RTVSPropertyOp14
 70
     1
102
RTVSPropertyOp15
 70
     1
102
RTVSPropertyOp16
 70
     1
102
RTVSPropertyOp17
 70
     1
102
RTVSPropertyOp18
 70
     1
102
RTVSPropertyOp19
 70
     1
102
RTVSPropertyOp20
 70
     1
102
RTVSPropertyOp21
 70
     1
102
RTVSPropertyOp22
 70
     1
102
RTVSPropertyOp23
 70
     1
102
RTVSPropertyOp24
 70
     1
102
RTVSPropertyOp25
 70
     1
102
RTVSPropertyOp26
 70
     1
102
RTVSPropertyOp27
 70
     1
102
RTVSPropertyOp28
 70
     1
102
RTVSPropertyOp29
 70
     1
102
RTVSPropertyOp30
 70
     1
102
RTVSPropertyOp31
 70
     1
102
RTVSPropertyOp32
 70
     1
  0
XRECORD
  5
E0F
102
{ACAD_REACTORS
330
E0E
102
}
330
E0E
100
AcDbXrecord
280
     1
102
RTVSPropertyOp0
 70
     1
102
RTVSPropertyOp1
 70
     1
102
RTVSPropertyOp2
 70
     1
102
RTVSPropertyOp3
 70
     1
102
RTVSPropertyOp4
 70
     1
102
RTVSPropertyOp5
 70
     1
102
RTVSPropertyOp6
 70
     1
102
RTVSPropertyOp7
 70
     1
102
RTVSPropertyOp8
 70
     1
102
RTVSPropertyOp9
 70
     1
102
RTVSPropertyOp10
 70
     1
102
RTVSPropertyOp11
 70
     1
102
RTVSPropertyOp12
 70
     1
102
RTVSPropertyOp13
 70
     1
102
RTVSPropertyOp14
 70
     1
102
RTVSPropertyOp15
 70
     1
102
RTVSPropertyOp16
 70
     1
102
RTVSPropertyOp17
 70
     1
102
RTVSPropertyOp18
 70
     1
102
RTVSPropertyOp19
 70
     1
102
RTVSPropertyOp20
 70
     1
102
RTVSPropertyOp21
 70
     1
102
RTVSPropertyOp22
 70
     1
102
RTVSPropertyOp23
 70
     1
102
RTVSPropertyOp24
 70
     1
102
RTVSPropertyOp25
 70
     1
102
RTVSPropertyOp26
 70
     1
102
RTVSPropertyOp27
 70
     1
102
RTVSPropertyOp28
 70
     1
102
RTVSPropertyOp29
 70
     1
102
RTVSPropertyOp30
 70
     1
102
RTVSPropertyOp31
 70
     1
102
RTVSPropertyOp32
 70
     1
  0
XRECORD
  5
E1D
102
{ACAD_REACTORS
330
E1C
102
}
330
E1C
100
AcDbXrecord
280
     1
102
RTVSPropertyOp0
 70
     1
102
RTVSPropertyOp1
 70
     1
102
RTVSPropertyOp2
 70
     1
102
RTVSPropertyOp3
 70
     1
102
RTVSPropertyOp4
 70
     1
102
RTVSPropertyOp5
 70
     1
102
RTVSPropertyOp6
 70
     1
102
RTVSPropertyOp7
 70
     1
102
RTVSPropertyOp8
 70
     1
102
RTVSPropertyOp9
 70
     1
102
RTVSPropertyOp10
 70
     1
102
RTVSPropertyOp11
 70
     1
102
RTVSPropertyOp12
 70
     1
102
RTVSPropertyOp13
 70
     1
102
RTVSPropertyOp14
 70
     1
102
RTVSPropertyOp15
 70
     1
102
RTVSPropertyOp16
 70
     1
102
RTVSPropertyOp17
 70
     1
102
RTVSPropertyOp18
 70
     1
102
RTVSPropertyOp19
 70
     1
102
RTVSPropertyOp20
 70
     1
102
RTVSPropertyOp21
 70
     1
102
RTVSPropertyOp22
 70
     1
102
RTVSPropertyOp23
 70
     1
102
RTVSPropertyOp24
 70
     1
102
RTVSPropertyOp25
 70
     1
102
RTVSPropertyOp26
 70
     1
102
RTVSPropertyOp27
 70
     1
102
RTVSPropertyOp28
 70
     1
102
RTVSPropertyOp29
 70
     1
102
RTVSPropertyOp30
 70
     1
102
RTVSPropertyOp31
 70
     1
102
RTVSPropertyOp32
 70
     1
  0
XRECORD
  5
E25
102
{ACAD_REACTORS
330
E24
102
}
330
E24
100
AcDbXrecord
280
     1
102
RTVSPropertyOp0
 70
     1
102
RTVSPropertyOp1
 70
     1
102
RTVSPropertyOp2
 70
     1
102
RTVSPropertyOp3
 70
     1
102
RTVSPropertyOp4
 70
     1
102
RTVSPropertyOp5
 70
     1
102
RTVSPropertyOp6
 70
     1
102
RTVSPropertyOp7
 70
     1
102
RTVSPropertyOp8
 70
     1
102
RTVSPropertyOp9
 70
     1
102
RTVSPropertyOp10
 70
     1
102
RTVSPropertyOp11
 70
     1
102
RTVSPropertyOp12
 70
     1
102
RTVSPropertyOp13
 70
     1
102
RTVSPropertyOp14
 70
     1
102
RTVSPropertyOp15
 70
     1
102
RTVSPropertyOp16
 70
     1
102
RTVSPropertyOp17
 70
     1
102
RTVSPropertyOp18
 70
     1
102
RTVSPropertyOp19
 70
     1
102
RTVSPropertyOp20
 70
     1
102
RTVSPropertyOp21
 70
     1
102
RTVSPropertyOp22
 70
     1
102
RTVSPropertyOp23
 70
     1
102
RTVSPropertyOp24
 70
     1
102
RTVSPropertyOp25
 70
     1
102
RTVSPropertyOp26
 70
     1
102
RTVSPropertyOp27
 70
     1
102
RTVSPropertyOp28
 70
     1
102
RTVSPropertyOp29
 70
     1
102
RTVSPropertyOp30
 70
     1
102
RTVSPropertyOp31
 70
     1
102
RTVSPropertyOp32
 70
     1
  0
XRECORD
  5
E17
102
{ACAD_REACTORS
330
E16
102
}
330
E16
100
AcDbXrecord
280
     1
102
RTVSPropertyOp0
 70
     1
102
RTVSPropertyOp1
 70
     1
102
RTVSPropertyOp2
 70
     1
102
RTVSPropertyOp3
 70
     1
102
RTVSPropertyOp4
 70
     1
102
RTVSPropertyOp5
 70
     1
102
RTVSPropertyOp6
 70
     1
102
RTVSPropertyOp7
 70
     1
102
RTVSPropertyOp8
 70
     1
102
RTVSPropertyOp9
 70
     1
102
RTVSPropertyOp10
 70
     1
102
RTVSPropertyOp11
 70
     1
102
RTVSPropertyOp12
 70
     1
102
RTVSPropertyOp13
 70
     1
102
RTVSPropertyOp14
 70
     1
102
RTVSPropertyOp15
 70
     1
102
RTVSPropertyOp16
 70
     1
102
RTVSPropertyOp17
 70
     1
102
RTVSPropertyOp18
 70
     1
102
RTVSPropertyOp19
 70
     1
102
RTVSPropertyOp20
 70
     1
102
RTVSPropertyOp21
 70
     1
102
RTVSPropertyOp22
 70
     1
102
RTVSPropertyOp23
 70
     1
102
RTVSPropertyOp24
 70
     1
102
RTVSPropertyOp25
 70
     1
102
RTVSPropertyOp26
 70
     1
102
RTVSPropertyOp27
 70
     1
102
RTVSPropertyOp28
 70
     1
102
RTVSPropertyOp29
 70
     1
102
RTVSPropertyOp30
 70
     1
102
RTVSPropertyOp31
 70
     1
102
RTVSPropertyOp32
 70
     1
  0
XRECORD
  5
E1B
102
{ACAD_REACTORS
330
E1A
102
}
330
E1A
100
AcDbXrecord
280
     1
102
RTVSPropertyOp0
 70
     1
102
RTVSPropertyOp1
 70
     1
102
RTVSPropertyOp2
 70
     1
102
RTVSPropertyOp3
 70
     1
102
RTVSPropertyOp4
 70
     1
102
RTVSPropertyOp5
 70
     1
102
RTVSPropertyOp6
 70
     1
102
RTVSPropertyOp7
 70
     1
102
RTVSPropertyOp8
 70
     1
102
RTVSPropertyOp9
 70
     1
102
RTVSPropertyOp10
 70
     1
102
RTVSPropertyOp11
 70
     1
102
RTVSPropertyOp12
 70
     1
102
RTVSPropertyOp13
 70
     1
102
RTVSPropertyOp14
 70
     1
102
RTVSPropertyOp15
 70
     1
102
RTVSPropertyOp16
 70
     1
102
RTVSPropertyOp17
 70
     1
102
RTVSPropertyOp18
 70
     1
102
RTVSPropertyOp19
 70
     1
102
RTVSPropertyOp20
 70
     1
102
RTVSPropertyOp21
 70
     1
102
RTVSPropertyOp22
 70
     1
102
RTVSPropertyOp23
 70
     1
102
RTVSPropertyOp24
 70
     1
102
RTVSPropertyOp25
 70
     1
102
RTVSPropertyOp26
 70
     1
102
RTVSPropertyOp27
 70
     1
102
RTVSPropertyOp28
 70
     1
102
RTVSPropertyOp29
 70
     1
102
RTVSPropertyOp30
 70
     1
102
RTVSPropertyOp31
 70
     1
102
RTVSPropertyOp32
 70
     1
  0
XRECORD
  5
E2B
102
{ACAD_REACTORS
330
E2A
102
}
330
E2A
100
AcDbXrecord
280
     1
102
RTVSPropertyOp0
 70
     0
102
RTVSPropertyOp1
 70
     0
102
RTVSPropertyOp2
 70
     0
102
RTVSPropertyOp3
 70
     0
102
RTVSPropertyOp4
 70
     0
102
RTVSPropertyOp5
 70
     0
102
RTVSPropertyOp6
 70
     0
102
RTVSPropertyOp7
 70
     0
102
RTVSPropertyOp8
 70
     0
102
RTVSPropertyOp9
 70
     0
102
RTVSPropertyOp10
 70
     0
102
RTVSPropertyOp11
 70
     0
102
RTVSPropertyOp12
 70
     0
102
RTVSPropertyOp13
 70
     0
102
RTVSPropertyOp14
 70
     2
102
RTVSPropertyOp15
 70
     0
102
RTVSPropertyOp16
 70
     0
102
RTVSPropertyOp17
 70
     0
102
RTVSPropertyOp18
 70
     0
102
RTVSPropertyOp19
 70
     0
102
RTVSPropertyOp20
 70
     0
102
RTVSPropertyOp21
 70
     0
102
RTVSPropertyOp22
 70
     0
102
RTVSPropertyOp23
 70
     0
102
RTVSPropertyOp24
 70
     0
102
RTVSPropertyOp25
 70
     0
102
RTVSPropertyOp26
 70
     0
102
RTVSPropertyOp27
 70
     0
102
RTVSPropertyOp28
 70
     1
102
RTVSPropertyOp29
 70
     1
102
RTVSPropertyOp30
 70
     1
102
RTVSPropertyOp31
 70
     1
102
RTVSPropertyOp32
 70
     1
  0
XRECORD
  5
E23
102
{ACAD_REACTORS
330
E22
102
}
330
E22
100
AcDbXrecord
280
     1
102
RTVSPropertyOp0
 70
     1
102
RTVSPropertyOp1
 70
     1
102
RTVSPropertyOp2
 70
     1
102
RTVSPropertyOp3
 70
     1
102
RTVSPropertyOp4
 70
     1
102
RTVSPropertyOp5
 70
     1
102
RTVSPropertyOp6
 70
     1
102
RTVSPropertyOp7
 70
     1
102
RTVSPropertyOp8
 70
     1
102
RTVSPropertyOp9
 70
     1
102
RTVSPropertyOp10
 70
     1
102
RTVSPropertyOp11
 70
     1
102
RTVSPropertyOp12
 70
     1
102
RTVSPropertyOp13
 70
     1
102
RTVSPropertyOp14
 70
     1
102
RTVSPropertyOp15
 70
     1
102
RTVSPropertyOp16
 70
     1
102
RTVSPropertyOp17
 70
     1
102
RTVSPropertyOp18
 70
     1
102
RTVSPropertyOp19
 70
     1
102
RTVSPropertyOp20
 70
     1
102
RTVSPropertyOp21
 70
     1
102
RTVSPropertyOp22
 70
     1
102
RTVSPropertyOp23
 70
     1
102
RTVSPropertyOp24
 70
     1
102
RTVSPropertyOp25
 70
     1
102
RTVSPropertyOp26
 70
     1
102
RTVSPropertyOp27
 70
     1
102
RTVSPropertyOp28
 70
     1
102
RTVSPropertyOp29
 70
     1
102
RTVSPropertyOp30
 70
     1
102
RTVSPropertyOp31
 70
     1
102
RTVSPropertyOp32
 70
     1
  0
XRECORD
  5
E07
102
{ACAD_REACTORS
330
E06
102
}
330
E06
100
AcDbXrecord
280
     1
102
RTVSPropertyOp0
 70
     1
102
RTVSPropertyOp1
 70
     1
102
RTVSPropertyOp2
 70
     1
102
RTVSPropertyOp3
 70
     1
102
RTVSPropertyOp4
 70
     1
102
RTVSPropertyOp5
 70
     1
102
RTVSPropertyOp6
 70
     1
102
RTVSPropertyOp7
 70
     1
102
RTVSPropertyOp8
 70
     1
102
RTVSPropertyOp9
 70
     1
102
RTVSPropertyOp10
 70
     1
102
RTVSPropertyOp11
 70
     1
102
RTVSPropertyOp12
 70
     1
102
RTVSPropertyOp13
 70
     1
102
RTVSPropertyOp14
 70
     1
102
RTVSPropertyOp15
 70
     1
102
RTVSPropertyOp16
 70
     1
102
RTVSPropertyOp17
 70
     1
102
RTVSPropertyOp18
 70
     1
102
RTVSPropertyOp19
 70
     1
102
RTVSPropertyOp20
 70
     1
102
RTVSPropertyOp21
 70
     1
102
RTVSPropertyOp22
 70
     1
102
RTVSPropertyOp23
 70
     1
102
RTVSPropertyOp24
 70
     1
102
RTVSPropertyOp25
 70
     1
102
RTVSPropertyOp26
 70
     1
102
RTVSPropertyOp27
 70
     1
102
RTVSPropertyOp28
 70
     1
102
RTVSPropertyOp29
 70
     1
102
RTVSPropertyOp30
 70
     1
102
RTVSPropertyOp31
 70
     1
102
RTVSPropertyOp32
 70
     1
  0
XRECORD
  5
E09
102
{ACAD_REACTORS
330
E08
102
}
330
E08
100
AcDbXrecord
280
     1
102
RTVSPropertyOp0
 70
     1
102
RTVSPropertyOp1
 70
     1
102
RTVSPropertyOp2
 70
     1
102
RTVSPropertyOp3
 70
     1
102
RTVSPropertyOp4
 70
     1
102
RTVSPropertyOp5
 70
     1
102
RTVSPropertyOp6
 70
     1
102
RTVSPropertyOp7
 70
     1
102
RTVSPropertyOp8
 70
     1
102
RTVSPropertyOp9
 70
     1
102
RTVSPropertyOp10
 70
     1
102
RTVSPropertyOp11
 70
     1
102
RTVSPropertyOp12
 70
     1
102
RTVSPropertyOp13
 70
     1
102
RTVSPropertyOp14
 70
     1
102
RTVSPropertyOp15
 70
     1
102
RTVSPropertyOp16
 70
     1
102
RTVSPropertyOp17
 70
     1
102
RTVSPropertyOp18
 70
     1
102
RTVSPropertyOp19
 70
     1
102
RTVSPropertyOp20
 70
     1
102
RTVSPropertyOp21
 70
     1
102
RTVSPropertyOp22
 70
     1
102
RTVSPropertyOp23
 70
     1
102
RTVSPropertyOp24
 70
     1
102
RTVSPropertyOp25
 70
     1
102
RTVSPropertyOp26
 70
     1
102
RTVSPropertyOp27
 70
     1
102
RTVSPropertyOp28
 70
     1
102
RTVSPropertyOp29
 70
     1
102
RTVSPropertyOp30
 70
     1
102
RTVSPropertyOp31
 70
     1
102
RTVSPropertyOp32
 70
     1
  0
XRECORD
  5
E0B
102
{ACAD_REACTORS
330
E0A
102
}
330
E0A
100
AcDbXrecord
280
     1
102
RTVSPropertyOp0
 70
     1
102
RTVSPropertyOp1
 70
     1
102
RTVSPropertyOp2
 70
     1
102
RTVSPropertyOp3
 70
     1
102
RTVSPropertyOp4
 70
     1
102
RTVSPropertyOp5
 70
     1
102
RTVSPropertyOp6
 70
     1
102
RTVSPropertyOp7
 70
     1
102
RTVSPropertyOp8
 70
     1
102
RTVSPropertyOp9
 70
     1
102
RTVSPropertyOp10
 70
     1
102
RTVSPropertyOp11
 70
     1
102
RTVSPropertyOp12
 70
     1
102
RTVSPropertyOp13
 70
     1
102
RTVSPropertyOp14
 70
     1
102
RTVSPropertyOp15
 70
     1
102
RTVSPropertyOp16
 70
     1
102
RTVSPropertyOp17
 70
     1
102
RTVSPropertyOp18
 70
     1
102
RTVSPropertyOp19
 70
     1
102
RTVSPropertyOp20
 70
     1
102
RTVSPropertyOp21
 70
     1
102
RTVSPropertyOp22
 70
     1
102
RTVSPropertyOp23
 70
     1
102
RTVSPropertyOp24
 70
     1
102
RTVSPropertyOp25
 70
     1
102
RTVSPropertyOp26
 70
     1
102
RTVSPropertyOp27
 70
     1
102
RTVSPropertyOp28
 70
     1
102
RTVSPropertyOp29
 70
     1
102
RTVSPropertyOp30
 70
     1
102
RTVSPropertyOp31
 70
     1
102
RTVSPropertyOp32
 70
     1
  0
XRECORD
  5
E0D
102
{ACAD_REACTORS
330
E0C
102
}
330
E0C
100
AcDbXrecord
280
     1
102
RTVSPropertyOp0
 70
     1
102
RTVSPropertyOp1
 70
     1
102
RTVSPropertyOp2
 70
     1
102
RTVSPropertyOp3
 70
     1
102
RTVSPropertyOp4
 70
     1
102
RTVSPropertyOp5
 70
     1
102
RTVSPropertyOp6
 70
     1
102
RTVSPropertyOp7
 70
     1
102
RTVSPropertyOp8
 70
     1
102
RTVSPropertyOp9
 70
     1
102
RTVSPropertyOp10
 70
     1
102
RTVSPropertyOp11
 70
     1
102
RTVSPropertyOp12
 70
     1
102
RTVSPropertyOp13
 70
     1
102
RTVSPropertyOp14
 70
     1
102
RTVSPropertyOp15
 70
     1
102
RTVSPropertyOp16
 70
     1
102
RTVSPropertyOp17
 70
     1
102
RTVSPropertyOp18
 70
     1
102
RTVSPropertyOp19
 70
     1
102
RTVSPropertyOp20
 70
     1
102
RTVSPropertyOp21
 70
     1
102
RTVSPropertyOp22
 70
     1
102
RTVSPropertyOp23
 70
     1
102
RTVSPropertyOp24
 70
     1
102
RTVSPropertyOp25
 70
     1
102
RTVSPropertyOp26
 70
     1
102
RTVSPropertyOp27
 70
     1
102
RTVSPropertyOp28
 70
     1
102
RTVSPropertyOp29
 70
     1
102
RTVSPropertyOp30
 70
     1
102
RTVSPropertyOp31
 70
     1
102
RTVSPropertyOp32
 70
     1
  0
XRECORD
  5
E35
102
{ACAD_REACTORS
330
E34
102
}
330
E34
100
AcDbXrecord
280
     1
102
RTVSPropertyOp0
 70
     1
102
RTVSPropertyOp1
 70
     1
102
RTVSPropertyOp2
 70
     1
102
RTVSPropertyOp3
 70
     1
102
RTVSPropertyOp4
 70
     1
102
RTVSPropertyOp5
 70
     1
102
RTVSPropertyOp6
 70
     1
102
RTVSPropertyOp7
 70
     1
102
RTVSPropertyOp8
 70
     1
102
RTVSPropertyOp9
 70
     1
102
RTVSPropertyOp10
 70
     1
102
RTVSPropertyOp11
 70
     1
102
RTVSPropertyOp12
 70
     1
102
RTVSPropertyOp13
 70
     1
102
RTVSPropertyOp14
 70
     1
102
RTVSPropertyOp15
 70
     1
102
RTVSPropertyOp16
 70
     1
102
RTVSPropertyOp17
 70
     1
102
RTVSPropertyOp18
 70
     1
102
RTVSPropertyOp19
 70
     1
102
RTVSPropertyOp20
 70
     1
102
RTVSPropertyOp21
 70
     1
102
RTVSPropertyOp22
 70
     1
102
RTVSPropertyOp23
 70
     1
102
RTVSPropertyOp24
 70
     1
102
RTVSPropertyOp25
 70
     1
102
RTVSPropertyOp26
 70
     1
102
RTVSPropertyOp27
 70
     1
102
RTVSPropertyOp28
 70
     1
102
RTVSPropertyOp29
 70
     1
102
RTVSPropertyOp30
 70
     1
102
RTVSPropertyOp31
 70
     1
102
RTVSPropertyOp32
 70
     1
  0
XRECORD
  5
E27
102
{ACAD_REACTORS
330
E26
102
}
330
E26
100
AcDbXrecord
280
     1
102
RTVSPropertyOp0
 70
     0
102
RTVSPropertyOp1
 70
     0
102
RTVSPropertyOp2
 70
     0
102
RTVSPropertyOp3
 70
     0
102
RTVSPropertyOp4
 70
     0
102
RTVSPropertyOp5
 70
     0
102
RTVSPropertyOp6
 70
     0
102
RTVSPropertyOp7
 70
     0
102
RTVSPropertyOp8
 70
     0
102
RTVSPropertyOp9
 70
     0
102
RTVSPropertyOp10
 70
     0
102
RTVSPropertyOp11
 70
     0
102
RTVSPropertyOp12
 70
     0
102
RTVSPropertyOp13
 70
     0
102
RTVSPropertyOp14
 70
     2
102
RTVSPropertyOp15
 70
     0
102
RTVSPropertyOp16
 70
     0
102
RTVSPropertyOp17
 70
     0
102
RTVSPropertyOp18
 70
     0
102
RTVSPropertyOp19
 70
     0
102
RTVSPropertyOp20
 70
     0
102
RTVSPropertyOp21
 70
     0
102
RTVSPropertyOp22
 70
     0
102
RTVSPropertyOp23
 70
     0
102
RTVSPropertyOp24
 70
     0
102
RTVSPropertyOp25
 70
     0
102
RTVSPropertyOp26
 70
     0
102
RTVSPropertyOp27
 70
     0
102
RTVSPropertyOp28
 70
     1
102
RTVSPropertyOp29
 70
     1
102
RTVSPropertyOp30
 70
     1
102
RTVSPropertyOp31
 70
     1
102
RTVSPropertyOp32
 70
     1
  0
XRECORD
  5
E21
102
{ACAD_REACTORS
330
E20
102
}
330
E20
100
AcDbXrecord
280
     1
102
RTVSPropertyOp0
 70
     1
102
RTVSPropertyOp1
 70
     1
102
RTVSPropertyOp2
 70
     1
102
RTVSPropertyOp3
 70
     1
102
RTVSPropertyOp4
 70
     1
102
RTVSPropertyOp5
 70
     1
102
RTVSPropertyOp6
 70
     1
102
RTVSPropertyOp7
 70
     1
102
RTVSPropertyOp8
 70
     1
102
RTVSPropertyOp9
 70
     1
102
RTVSPropertyOp10
 70
     1
102
RTVSPropertyOp11
 70
     1
102
RTVSPropertyOp12
 70
     1
102
RTVSPropertyOp13
 70
     1
102
RTVSPropertyOp14
 70
     1
102
RTVSPropertyOp15
 70
     1
102
RTVSPropertyOp16
 70
     1
102
RTVSPropertyOp17
 70
     1
102
RTVSPropertyOp18
 70
     1
102
RTVSPropertyOp19
 70
     1
102
RTVSPropertyOp20
 70
     1
102
RTVSPropertyOp21
 70
     1
102
RTVSPropertyOp22
 70
     1
102
RTVSPropertyOp23
 70
     1
102
RTVSPropertyOp24
 70
     1
102
RTVSPropertyOp25
 70
     1
102
RTVSPropertyOp26
 70
     1
102
RTVSPropertyOp27
 70
     1
102
RTVSPropertyOp28
 70
     1
102
RTVSPropertyOp29
 70
     1
102
RTVSPropertyOp30
 70
     1
102
RTVSPropertyOp31
 70
     1
102
RTVSPropertyOp32
 70
     1
  0
XRECORD
  5
E29
102
{ACAD_REACTORS
330
E28
102
}
330
E28
100
AcDbXrecord
280
     1
102
RTVSPropertyOp0
 70
     0
102
RTVSPropertyOp1
 70
     0
102
RTVSPropertyOp2
 70
     0
102
RTVSPropertyOp3
 70
     0
102
RTVSPropertyOp4
 70
     0
102
RTVSPropertyOp5
 70
     0
102
RTVSPropertyOp6
 70
     0
102
RTVSPropertyOp7
 70
     0
102
RTVSPropertyOp8
 70
     0
102
RTVSPropertyOp9
 70
     0
102
RTVSPropertyOp10
 70
     0
102
RTVSPropertyOp11
 70
     0
102
RTVSPropertyOp12
 70
     0
102
RTVSPropertyOp13
 70
     0
102
RTVSPropertyOp14
 70
     2
102
RTVSPropertyOp15
 70
     0
102
RTVSPropertyOp16
 70
     0
102
RTVSPropertyOp17
 70
     0
102
RTVSPropertyOp18
 70
     0
102
RTVSPropertyOp19
 70
     0
102
RTVSPropertyOp20
 70
     0
102
RTVSPropertyOp21
 70
     0
102
RTVSPropertyOp22
 70
     0
102
RTVSPropertyOp23
 70
     0
102
RTVSPropertyOp24
 70
     0
102
RTVSPropertyOp25
 70
     0
102
RTVSPropertyOp26
 70
     0
102
RTVSPropertyOp27
 70
     0
102
RTVSPropertyOp28
 70
     1
102
RTVSPropertyOp29
 70
     1
102
RTVSPropertyOp30
 70
     1
102
RTVSPropertyOp31
 70
     1
102
RTVSPropertyOp32
 70
     1
  0
XRECORD
  5
E19
102
{ACAD_REACTORS
330
E18
102
}
330
E18
100
AcDbXrecord
280
     1
102
RTVSPropertyOp0
 70
     1
102
RTVSPropertyOp1
 70
     1
102
RTVSPropertyOp2
 70
     1
102
RTVSPropertyOp3
 70
     1
102
RTVSPropertyOp4
 70
     1
102
RTVSPropertyOp5
 70
     1
102
RTVSPropertyOp6
 70
     1
102
RTVSPropertyOp7
 70
     1
102
RTVSPropertyOp8
 70
     1
102
RTVSPropertyOp9
 70
     1
102
RTVSPropertyOp10
 70
     1
102
RTVSPropertyOp11
 70
     1
102
RTVSPropertyOp12
 70
     1
102
RTVSPropertyOp13
 70
     1
102
RTVSPropertyOp14
 70
     1
102
RTVSPropertyOp15
 70
     1
102
RTVSPropertyOp16
 70
     1
102
RTVSPropertyOp17
 70
     1
102
RTVSPropertyOp18
 70
     1
102
RTVSPropertyOp19
 70
     1
102
RTVSPropertyOp20
 70
     1
102
RTVSPropertyOp21
 70
     1
102
RTVSPropertyOp22
 70
     1
102
RTVSPropertyOp23
 70
     1
102
RTVSPropertyOp24
 70
     1
102
RTVSPropertyOp25
 70
     1
102
RTVSPropertyOp26
 70
     1
102
RTVSPropertyOp27
 70
     1
102
RTVSPropertyOp28
 70
     1
102
RTVSPropertyOp29
 70
     1
102
RTVSPropertyOp30
 70
     1
102
RTVSPropertyOp31
 70
     1
102
RTVSPropertyOp32
 70
     1
  0
XRECORD
  5
E3F
102
{ACAD_REACTORS
330
E3E
102
}
330
E3E
100
AcDbXrecord
280
     1
102
RTVSPropertyOp0
 70
     1
102
RTVSPropertyOp1
 70
     1
102
RTVSPropertyOp2
 70
     1
102
RTVSPropertyOp3
 70
     1
102
RTVSPropertyOp4
 70
     1
102
RTVSPropertyOp5
 70
     1
102
RTVSPropertyOp6
 70
     1
102
RTVSPropertyOp7
 70
     1
102
RTVSPropertyOp8
 70
     1
102
RTVSPropertyOp9
 70
     1
102
RTVSPropertyOp10
 70
     1
102
RTVSPropertyOp11
 70
     1
102
RTVSPropertyOp12
 70
     1
102
RTVSPropertyOp13
 70
     1
102
RTVSPropertyOp14
 70
     1
102
RTVSPropertyOp15
 70
     1
102
RTVSPropertyOp16
 70
     1
102
RTVSPropertyOp17
 70
     1
102
RTVSPropertyOp18
 70
     1
102
RTVSPropertyOp19
 70
     1
102
RTVSPropertyOp20
 70
     1
102
RTVSPropertyOp21
 70
     1
102
RTVSPropertyOp22
 70
     1
102
RTVSPropertyOp23
 70
     1
102
RTVSPropertyOp24
 70
     1
102
RTVSPropertyOp25
 70
     1
102
RTVSPropertyOp26
 70
     1
102
RTVSPropertyOp27
 70
     1
102
RTVSPropertyOp28
 70
     1
102
RTVSPropertyOp29
 70
     1
102
RTVSPropertyOp30
 70
     1
102
RTVSPropertyOp31
 70
     1
102
RTVSPropertyOp32
 70
     1
  0
XRECORD
  5
E3D
102
{ACAD_REACTORS
330
E3C
102
}
330
E3C
100
AcDbXrecord
280
     1
102
RTVSPropertyOp0
 70
     1
102
RTVSPropertyOp1
 70
     1
102
RTVSPropertyOp2
 70
     1
102
RTVSPropertyOp3
 70
     1
102
RTVSPropertyOp4
 70
     1
102
RTVSPropertyOp5
 70
     1
102
RTVSPropertyOp6
 70
     1
102
RTVSPropertyOp7
 70
     1
102
RTVSPropertyOp8
 70
     1
102
RTVSPropertyOp9
 70
     1
102
RTVSPropertyOp10
 70
     1
102
RTVSPropertyOp11
 70
     1
102
RTVSPropertyOp12
 70
     1
102
RTVSPropertyOp13
 70
     1
102
RTVSPropertyOp14
 70
     1
102
RTVSPropertyOp15
 70
     1
102
RTVSPropertyOp16
 70
     1
102
RTVSPropertyOp17
 70
     1
102
RTVSPropertyOp18
 70
     1
102
RTVSPropertyOp19
 70
     1
102
RTVSPropertyOp20
 70
     1
102
RTVSPropertyOp21
 70
     1
102
RTVSPropertyOp22
 70
     1
102
RTVSPropertyOp23
 70
     1
102
RTVSPropertyOp24
 70
     1
102
RTVSPropertyOp25
 70
     1
102
RTVSPropertyOp26
 70
     1
102
RTVSPropertyOp27
 70
     1
102
RTVSPropertyOp28
 70
     1
102
RTVSPropertyOp29
 70
     1
102
RTVSPropertyOp30
 70
     1
102
RTVSPropertyOp31
 70
     1
102
RTVSPropertyOp32
 70
     1
  0
XRECORD
  5
E37
102
{ACAD_REACTORS
330
E36
102
}
330
E36
100
AcDbXrecord
280
     1
102
RTVSPropertyOp0
 70
     1
102
RTVSPropertyOp1
 70
     1
102
RTVSPropertyOp2
 70
     1
102
RTVSPropertyOp3
 70
     1
102
RTVSPropertyOp4
 70
     1
102
RTVSPropertyOp5
 70
     1
102
RTVSPropertyOp6
 70
     1
102
RTVSPropertyOp7
 70
     1
102
RTVSPropertyOp8
 70
     1
102
RTVSPropertyOp9
 70
     1
102
RTVSPropertyOp10
 70
     1
102
RTVSPropertyOp11
 70
     1
102
RTVSPropertyOp12
 70
     1
102
RTVSPropertyOp13
 70
     1
102
RTVSPropertyOp14
 70
     1
102
RTVSPropertyOp15
 70
     1
102
RTVSPropertyOp16
 70
     1
102
RTVSPropertyOp17
 70
     1
102
RTVSPropertyOp18
 70
     1
102
RTVSPropertyOp19
 70
     1
102
RTVSPropertyOp20
 70
     1
102
RTVSPropertyOp21
 70
     1
102
RTVSPropertyOp22
 70
     1
102
RTVSPropertyOp23
 70
     1
102
RTVSPropertyOp24
 70
     1
102
RTVSPropertyOp25
 70
     1
102
RTVSPropertyOp26
 70
     1
102
RTVSPropertyOp27
 70
     1
102
RTVSPropertyOp28
 70
     1
102
RTVSPropertyOp29
 70
     1
102
RTVSPropertyOp30
 70
     1
102
RTVSPropertyOp31
 70
     1
102
RTVSPropertyOp32
 70
     1
  0
XRECORD
  5
E39
102
{ACAD_REACTORS
330
E38
102
}
330
E38
100
AcDbXrecord
280
     1
102
RTVSPropertyOp0
 70
     1
102
RTVSPropertyOp1
 70
     1
102
RTVSPropertyOp2
 70
     1
102
RTVSPropertyOp3
 70
     1
102
RTVSPropertyOp4
 70
     1
102
RTVSPropertyOp5
 70
     1
102
RTVSPropertyOp6
 70
     1
102
RTVSPropertyOp7
 70
     1
102
RTVSPropertyOp8
 70
     1
102
RTVSPropertyOp9
 70
     1
102
RTVSPropertyOp10
 70
     1
102
RTVSPropertyOp11
 70
     1
102
RTVSPropertyOp12
 70
     1
102
RTVSPropertyOp13
 70
     1
102
RTVSPropertyOp14
 70
     1
102
RTVSPropertyOp15
 70
     1
102
RTVSPropertyOp16
 70
     1
102
RTVSPropertyOp17
 70
     1
102
RTVSPropertyOp18
 70
     1
102
RTVSPropertyOp19
 70
     1
102
RTVSPropertyOp20
 70
     1
102
RTVSPropertyOp21
 70
     1
102
RTVSPropertyOp22
 70
     1
102
RTVSPropertyOp23
 70
     1
102
RTVSPropertyOp24
 70
     1
102
RTVSPropertyOp25
 70
     1
102
RTVSPropertyOp26
 70
     1
102
RTVSPropertyOp27
 70
     1
102
RTVSPropertyOp28
 70
     1
102
RTVSPropertyOp29
 70
     1
102
RTVSPropertyOp30
 70
     1
102
RTVSPropertyOp31
 70
     1
102
RTVSPropertyOp32
 70
     1
  0
XRECORD
  5
E1F
102
{ACAD_REACTORS
330
E1E
102
}
330
E1E
100
AcDbXrecord
280
     1
102
RTVSPropertyOp0
 70
     1
102
RTVSPropertyOp1
 70
     1
102
RTVSPropertyOp2
 70
     1
102
RTVSPropertyOp3
 70
     1
102
RTVSPropertyOp4
 70
     1
102
RTVSPropertyOp5
 70
     1
102
RTVSPropertyOp6
 70
     1
102
RTVSPropertyOp7
 70
     1
102
RTVSPropertyOp8
 70
     1
102
RTVSPropertyOp9
 70
     1
102
RTVSPropertyOp10
 70
     1
102
RTVSPropertyOp11
 70
     1
102
RTVSPropertyOp12
 70
     1
102
RTVSPropertyOp13
 70
     1
102
RTVSPropertyOp14
 70
     1
102
RTVSPropertyOp15
 70
     1
102
RTVSPropertyOp16
 70
     1
102
RTVSPropertyOp17
 70
     1
102
RTVSPropertyOp18
 70
     1
102
RTVSPropertyOp19
 70
     1
102
RTVSPropertyOp20
 70
     1
102
RTVSPropertyOp21
 70
     1
102
RTVSPropertyOp22
 70
     1
102
RTVSPropertyOp23
 70
     1
102
RTVSPropertyOp24
 70
     1
102
RTVSPropertyOp25
 70
     1
102
RTVSPropertyOp26
 70
     1
102
RTVSPropertyOp27
 70
     1
102
RTVSPropertyOp28
 70
     1
102
RTVSPropertyOp29
 70
     1
102
RTVSPropertyOp30
 70
     1
102
RTVSPropertyOp31
 70
     1
102
RTVSPropertyOp32
 70
     1
  0
XRECORD
  5
E33
102
{ACAD_REACTORS
330
E32
102
}
330
E32
100
AcDbXrecord
280
     1
102
RTVSPropertyOp0
 70
     1
102
RTVSPropertyOp1
 70
     1
102
RTVSPropertyOp2
 70
     1
102
RTVSPropertyOp3
 70
     1
102
RTVSPropertyOp4
 70
     1
102
RTVSPropertyOp5
 70
     1
102
RTVSPropertyOp6
 70
     1
102
RTVSPropertyOp7
 70
     1
102
RTVSPropertyOp8
 70
     1
102
RTVSPropertyOp9
 70
     1
102
RTVSPropertyOp10
 70
     1
102
RTVSPropertyOp11
 70
     1
102
RTVSPropertyOp12
 70
     1
102
RTVSPropertyOp13
 70
     1
102
RTVSPropertyOp14
 70
     1
102
RTVSPropertyOp15
 70
     1
102
RTVSPropertyOp16
 70
     1
102
RTVSPropertyOp17
 70
     1
102
RTVSPropertyOp18
 70
     1
102
RTVSPropertyOp19
 70
     1
102
RTVSPropertyOp20
 70
     1
102
RTVSPropertyOp21
 70
     1
102
RTVSPropertyOp22
 70
     1
102
RTVSPropertyOp23
 70
     1
102
RTVSPropertyOp24
 70
     1
102
RTVSPropertyOp25
 70
     1
102
RTVSPropertyOp26
 70
     1
102
RTVSPropertyOp27
 70
     1
102
RTVSPropertyOp28
 70
     1
102
RTVSPropertyOp29
 70
     1
102
RTVSPropertyOp30
 70
     1
102
RTVSPropertyOp31
 70
     1
102
RTVSPropertyOp32
 70
     1
  0
XRECORD
  5
E3B
102
{ACAD_REACTORS
330
E3A
102
}
330
E3A
100
AcDbXrecord
280
     1
102
RTVSPropertyOp0
 70
     1
102
RTVSPropertyOp1
 70
     1
102
RTVSPropertyOp2
 70
     1
102
RTVSPropertyOp3
 70
     1
102
RTVSPropertyOp4
 70
     1
102
RTVSPropertyOp5
 70
     1
102
RTVSPropertyOp6
 70
     1
102
RTVSPropertyOp7
 70
     1
102
RTVSPropertyOp8
 70
     1
102
RTVSPropertyOp9
 70
     1
102
RTVSPropertyOp10
 70
     1
102
RTVSPropertyOp11
 70
     1
102
RTVSPropertyOp12
 70
     1
102
RTVSPropertyOp13
 70
     1
102
RTVSPropertyOp14
 70
     1
102
RTVSPropertyOp15
 70
     1
102
RTVSPropertyOp16
 70
     1
102
RTVSPropertyOp17
 70
     1
102
RTVSPropertyOp18
 70
     1
102
RTVSPropertyOp19
 70
     1
102
RTVSPropertyOp20
 70
     1
102
RTVSPropertyOp21
 70
     1
102
RTVSPropertyOp22
 70
     1
102
RTVSPropertyOp23
 70
     1
102
RTVSPropertyOp24
 70
     1
102
RTVSPropertyOp25
 70
     1
102
RTVSPropertyOp26
 70
     1
102
RTVSPropertyOp27
 70
     1
102
RTVSPropertyOp28
 70
     1
102
RTVSPropertyOp29
 70
     1
102
RTVSPropertyOp30
 70
     1
102
RTVSPropertyOp31
 70
     1
102
RTVSPropertyOp32
 70
     1
  0
ENDSEC
  0
EOF
