  0
SECTION
  2
HEADER
  9
$ACADVER
  1
AC1015
  9
$ACADMAINTVER
 70
    20
  9
$DWGCODEPAGE
  3
ANSI_1250
  9
$INSBASE
 10
0.0
 20
0.0
 30
0.0
  9
$EXTMIN
 10
908.5903076418844
 20
500.1369013898008
 30
0.0
  9
$EXTMAX
 10
6258.590307641885
 20
6585.51062732474
 30
0.0
  9
$LIMMIN
 10
0.0
 20
0.0
  9
$LIMMAX
 10
12600.0
 20
8910.0
  9
$ORTHOMODE
 70
     0
  9
$REGENMODE
 70
     1
  9
$FILLMODE
 70
     1
  9
$QTEXTMODE
 70
     0
  9
$MIRRTEXT
 70
     0
  9
$LTSCALE
 40
30.0
  9
$ATTMODE
 70
     1
  9
$TEXTSIZE
 40
0.2
  9
$TRACEWID
 40
0.05
  9
$TEXTSTYLE
  7
Standard
  9
$CLAYER
  8
0
  9
$CELTYPE
  6
ByLayer
  9
$CECOLOR
 62
   256
  9
$CELTSCALE
 40
1.0
  9
$DISPSILH
 70
     0
  9
$DIMSCALE
 40
1.0
  9
$DIMASZ
 40
1.799999999999999
  9
$DIMEXO
 40
0.0625
  9
$DIMDLI
 40
0.38
  9
$DIMRND
 40
0.0
  9
$DIMDLE
 40
0.0
  9
$DIMEXE
 40
0.18
  9
$DIMTP
 40
0.0
  9
$DIMTM
 40
0.0
  9
$DIMTXT
 40
0.25
  9
$DIMCEN
 40
0.09
  9
$DIMTSZ
 40
0.0
  9
$DIMTOL
 70
     0
  9
$DIMLIM
 70
     0
  9
$DIMTIH
 70
     1
  9
$DIMTOH
 70
     1
  9
$DIMSE1
 70
     0
  9
$DIMSE2
 70
     0
  9
$DIMTAD
 70
     0
  9
$DIMZIN
 70
     0
  9
$DIMBLK
  1

  9
$DIMASO
 70
     1
  9
$DIMSHO
 70
     1
  9
$DIMPOST
  1

  9
$DIMAPOST
  1

  9
$DIMALT
 70
     0
  9
$DIMALTD
 70
     2
  9
$DIMALTF
 40
25.4
  9
$DIMLFAC
 40
1.0
  9
$DIMTOFL
 70
     0
  9
$DIMTVP
 40
0.0
  9
$DIMTIX
 70
     0
  9
$DIMSOXD
 70
     0
  9
$DIMSAH
 70
     0
  9
$DIMBLK1
  1

  9
$DIMBLK2
  1

  9
$DIMSTYLE
  2
Standard
  9
$DIMCLRD
 70
     0
  9
$DIMCLRE
 70
     0
  9
$DIMCLRT
 70
     0
  9
$DIMTFAC
 40
1.0
  9
$DIMGAP
 40
0.09
  9
$DIMJUST
 70
     0
  9
$DIMSD1
 70
     0
  9
$DIMSD2
 70
     0
  9
$DIMTOLJ
 70
     1
  9
$DIMTZIN
 70
     0
  9
$DIMALTZ
 70
     0
  9
$DIMALTTZ
 70
     0
  9
$DIMUPT
 70
     0
  9
$DIMDEC
 70
     4
  9
$DIMTDEC
 70
     4
  9
$DIMALTU
 70
     2
  9
$DIMALTTD
 70
     2
  9
$DIMTXSTY
  7
Standard
  9
$DIMAUNIT
 70
     0
  9
$DIMADEC
 70
     0
  9
$DIMALTRND
 40
0.0
  9
$DIMAZIN
 70
     0
  9
$DIMDSEP
 70
    46
  9
$DIMATFIT
 70
     3
  9
$DIMFRAC
 70
     0
  9
$DIMLDRBLK
  1

  9
$DIMLUNIT
 70
     2
  9
$DIMLWD
 70
    -2
  9
$DIMLWE
 70
    -2
  9
$DIMTMOVE
 70
     0
  9
$LUNITS
 70
     2
  9
$LUPREC
 70
     4
  9
$SKETCHINC
 40
0.1
  9
$FILLETRAD
 40
0.0
  9
$AUNITS
 70
     0
  9
$AUPREC
 70
     0
  9
$MENU
  1
.
  9
$ELEVATION
 40
0.0
  9
$PELEVATION
 40
0.0
  9
$THICKNESS
 40
0.0
  9
$LIMCHECK
 70
     0
  9
$CHAMFERA
 40
0.0
  9
$CHAMFERB
 40
0.0
  9
$CHAMFERC
 40
0.0
  9
$CHAMFERD
 40
0.0
  9
$SKPOLY
 70
     0
  9
$TDCREATE
 40
2456002.755758437
  9
$TDUCREATE
 40
2456002.672425105
  9
$TDUPDATE
 40
2459858.495109884
  9
$TDUUPDATE
 40
2459858.411776551
  9
$TDINDWG
 40
0.0094784375
  9
$TDUSRTIMER
 40
0.0094784375
  9
$USRTIMER
 70
     1
  9
$ANGBASE
 50
0.0
  9
$ANGDIR
 70
     0
  9
$PDMODE
 70
     0
  9
$PDSIZE
 40
0.0
  9
$PLINEWID
 40
0.0
  9
$SPLFRAME
 70
     0
  9
$SPLINETYPE
 70
     6
  9
$SPLINESEGS
 70
     8
  9
$HANDSEED
  5
1273
  9
$SURFTAB1
 70
     6
  9
$SURFTAB2
 70
     6
  9
$SURFTYPE
 70
     6
  9
$SURFU
 70
     6
  9
$SURFV
 70
     6
  9
$UCSBASE
  2

  9
$UCSNAME
  2

  9
$UCSORG
 10
0.0
 20
0.0
 30
0.0
  9
$UCSXDIR
 10
1.0
 20
0.0
 30
0.0
  9
$UCSYDIR
 10
0.0
 20
1.0
 30
0.0
  9
$UCSORTHOREF
  2

  9
$UCSORTHOVIEW
 70
     0
  9
$UCSORGTOP
 10
0.0
 20
0.0
 30
0.0
  9
$UCSORGBOTTOM
 10
0.0
 20
0.0
 30
0.0
  9
$UCSORGLEFT
 10
0.0
 20
0.0
 30
0.0
  9
$UCSORGRIGHT
 10
0.0
 20
0.0
 30
0.0
  9
$UCSORGFRONT
 10
0.0
 20
0.0
 30
0.0
  9
$UCSORGBACK
 10
0.0
 20
0.0
 30
0.0
  9
$PUCSBASE
  2

  9
$PUCSNAME
  2

  9
$PUCSORG
 10
0.0
 20
0.0
 30
0.0
  9
$PUCSXDIR
 10
1.0
 20
0.0
 30
0.0
  9
$PUCSYDIR
 10
0.0
 20
1.0
 30
0.0
  9
$PUCSORTHOREF
  2

  9
$PUCSORTHOVIEW
 70
     0
  9
$PUCSORGTOP
 10
0.0
 20
0.0
 30
0.0
  9
$PUCSORGBOTTOM
 10
0.0
 20
0.0
 30
0.0
  9
$PUCSORGLEFT
 10
0.0
 20
0.0
 30
0.0
  9
$PUCSORGRIGHT
 10
0.0
 20
0.0
 30
0.0
  9
$PUCSORGFRONT
 10
0.0
 20
0.0
 30
0.0
  9
$PUCSORGBACK
 10
0.0
 20
0.0
 30
0.0
  9
$USERI1
 70
     0
  9
$USERI2
 70
     0
  9
$USERI3
 70
     0
  9
$USERI4
 70
     0
  9
$USERI5
 70
     0
  9
$USERR1
 40
0.0
  9
$USERR2
 40
0.0
  9
$USERR3
 40
0.0
  9
$USERR4
 40
0.0
  9
$USERR5
 40
0.0
  9
$WORLDVIEW
 70
     1
  9
$SHADEDGE
 70
     3
  9
$SHADEDIF
 70
    70
  9
$TILEMODE
 70
     1
  9
$MAXACTVP
 70
    64
  9
$PINSBASE
 10
0.0
 20
0.0
 30
0.0
  9
$PLIMCHECK
 70
     0
  9
$PEXTMIN
 10
0.0
 20
0.0
 30
0.0
  9
$PEXTMAX
 10
12600.0
 20
8910.0
 30
0.0
  9
$PLIMMIN
 10
0.0
 20
0.0
  9
$PLIMMAX
 10
12600.0
 20
8910.0
  9
$UNITMODE
 70
     0
  9
$VISRETAIN
 70
     1
  9
$PLINEGEN
 70
     0
  9
$PSLTSCALE
 70
     1
  9
$TREEDEPTH
 70
  3020
  9
$CMLSTYLE
  2
Standard
  9
$CMLJUST
 70
     0
  9
$CMLSCALE
 40
1.0
  9
$PROXYGRAPHICS
 70
     1
  9
$MEASUREMENT
 70
     1
  9
$CELWEIGHT
370
    -1
  9
$ENDCAPS
280
     0
  9
$JOINSTYLE
280
     0
  9
$LWDISPLAY
290
     0
  9
$INSUNITS
 70
     4
  9
$HYPERLINKBASE
  1

  9
$STYLESHEET
  1

  9
$XEDIT
290
     1
  9
$CEPSNTYPE
380
     0
  9
$PSTYLEMODE
290
     1
  9
$FINGERPRINTGUID
  2
{DF5DF4B6-115D-4377-9E95-C74128159377}
  9
$VERSIONGUID
  2
{4E5F0D07-DF95-4EB6-A434-C474D2CE66FE}
  9
$EXTNAMES
290
     1
  9
$PSVPSCALE
 40
0.0
  9
$OLESTARTUP
290
     0
  0
ENDSEC
  0
SECTION
  2
CLASSES
  0
CLASS
  1
ACDBDICTIONARYWDFLT
  2
AcDbDictionaryWithDefault
  3
ObjectDBX Classes
 90
        0
280
     0
281
     0
  0
CLASS
  1
MATERIAL
  2
AcDbMaterial
  3
ObjectDBX Classes
 90
     1153
280
     0
281
     0
  0
CLASS
  1
VISUALSTYLE
  2
AcDbVisualStyle
  3
ObjectDBX Classes
 90
     4095
280
     0
281
     0
  0
CLASS
  1
SCALE
  2
AcDbScale
  3
ObjectDBX Classes
 90
     1153
280
     0
281
     0
  0
CLASS
  1
TABLESTYLE
  2
AcDbTableStyle
  3
ObjectDBX Classes
 90
     4095
280
     0
281
     0
  0
CLASS
  1
MLEADERSTYLE
  2
AcDbMLeaderStyle
  3
ACDB_MLEADERSTYLE_CLASS
 90
     4095
280
     0
281
     0
  0
CLASS
  1
DICTIONARYVAR
  2
AcDbDictionaryVar
  3
ObjectDBX Classes
 90
        0
280
     0
281
     0
  0
CLASS
  1
CELLSTYLEMAP
  2
AcDbCellStyleMap
  3
ObjectDBX Classes
 90
     1152
280
     0
281
     0
  0
CLASS
  1
ACDBPLACEHOLDER
  2
AcDbPlaceHolder
  3
ObjectDBX Classes
 90
        0
280
     0
281
     0
  0
CLASS
  1
LAYOUT
  2
AcDbLayout
  3
ObjectDBX Classes
 90
        0
280
     0
281
     0
  0
CLASS
  1
ACME_DOCUMENT
  2
AcMeDbDoc
  3
AcMeServices
 90
     1024
280
     0
281
     0
  0
CLASS
  1
AMGSETTINGSOBJ
  2
AmgSettingsObj
  3
"AcadM|Product Description: AutoCAD Mechanical|Company: Autodesk, Inc."
 90
     1024
280
     0
281
     0
  0
CLASS
  1
ACMESCOPE
  2
AcMeScope
  3
AcMeServices
 90
     1024
280
     0
281
     0
  0
CLASS
  1
ACMECOMMANDHISTORY
  2
AcMeCommandHistory
  3
AcMeServices
 90
     1024
280
     0
281
     0
  0
CLASS
  1
ACIMSYSVARMAN
  2
AcImSysVarManager
  3
AcMeServices
 90
     1024
280
     0
281
     0
  0
CLASS
  1
ACIMINTSYSVAR
  2
AcImIntSysVar
  3
AcMeServices
 90
     1024
280
     0
281
     0
  0
CLASS
  1
ACMESTATEMGR
  2
AcMeStateMgr
  3
AcMeServices
 90
     1024
280
     0
281
     0
  0
CLASS
  1
ACDBENTITYCACHE
  2
AcMeEntityCache
  3
AcMeServices
 90
     1024
280
     0
281
     0
  0
CLASS
  1
ACGREFMASTER
  2
AcGrefMaster
  3
AcAttribServices
 90
     1024
280
     0
281
     0
  0
CLASS
  1
AM_DRAWING_MGR
  2
AcDmDwgMgr
  3
AcMechDwgViewMgmt
 90
     1024
280
     0
281
     0
  0
CLASS
  1
AM_DWG_DOCUMENT
  2
AcDmDwgDocument
  3
AcMechDwgViewMgmt
 90
     1024
280
     0
281
     0
  0
CLASS
  1
AM_DWG_SHEET
  2
AcDmSheet
  3
AcMechDwgViewMgmt
 90
     1024
280
     0
281
     0
  0
CLASS
  1
AM_VIEWDIMPARMAP
  2
AcDmViewDimParMap
  3
AcMechDwgViewMgmt
 90
     1024
280
     0
281
     0
  0
CLASS
  1
AMDTINTERNALREACTOR
  2
AmdtInternalReactor
  3
AcMeServices
 90
     1024
280
     0
281
     0
  0
CLASS
  1
ACIMREALSYSVAR
  2
AcImRealSysVar
  3
AcMeServices
 90
     1024
280
     0
281
     0
  0
CLASS
  1
AM_DWGMGR_NAME
  2
AcDmDwgMgrName
  3
AcMechDwgViewMgmt
 90
     1024
280
     0
281
     0
  0
CLASS
  1
ACME_DATABASE
  2
AcMeDbDatabase
  3
AcMeServices
 90
     1024
280
     0
281
     0
  0
CLASS
  1
ACRFINSADJUSTERMGR
  2
AcRfInsAdjusterMgr
  3
AcMeServices
 90
     1024
280
     0
281
     0
  0
CLASS
  1
ACGREFACADMASTER
  2
AcGrefacadMaster
  3
AcGrefServices
 90
     1024
280
     0
281
     0
  0
CLASS
  1
AMDTMENUSTATEMGR
  2
AmdtMenuStateMgr
  3
McadcomServices
 90
     1024
280
     0
281
     0
  0
CLASS
  1
AMDTMCOMMENUSTATE
  2
AmdtMcomMenuState
  3
McadcomServices
 90
     1024
280
     0
281
     0
  0
CLASS
  1
AMIMASTER
  2
AmiMaster
  3
AmiServices
 90
     1024
280
     0
281
     0
  0
CLASS
  1
MAPIAMMOUDLE
  2
MApiAmModule
  3
MApiAmServices
 90
     1024
280
     0
281
     0
  0
CLASS
  1
ACIMSTRSYSVAR
  2
AcImStrSysVar
  3
AcMeServices
 90
     1024
280
     0
281
     0
  0
CLASS
  1
AMDTDMMENUSTATE
  2
AmdtDmMenuState
  3
AcMechDwgViewMgmt
 90
     1024
280
     0
281
     0
  0
CLASS
  1
AMDTAMMENUSTATE
  2
AmdtAmMenuState
  3
DesignerAssemblies
 90
     1024
280
     0
281
     0
  0
CLASS
  1
ACAMPROJECT
  2
AcAmProject
  3
DesignerAssemblies
 90
     1024
280
     0
281
     0
  0
CLASS
  1
ACAMGRCOMPDEF
  2
AcAmGrCompDef
  3
DesignerAssemblies
 90
     1024
280
     0
281
     0
  0
CLASS
  1
ACAMCOMPDEF
  2
AcAmCompDef
  3
DesignerAssemblies
 90
     1024
280
     0
281
     0
  0
CLASS
  1
ACAMCOMPDEFMGR
  2
AcAmCompDefMgr
  3
DesignerAssemblies
 90
     1024
280
     0
281
     0
  0
CLASS
  1
AMCONTEXTMGR
  2
AcAmContextMgr
  3
DesignerAssemblies
 90
     1024
280
     0
281
     0
  0
CLASS
  1
ACAMCONTEXTMODELER
  2
AcAmContextModeler
  3
DesignerAssemblies
 90
     1024
280
     0
281
     0
  0
CLASS
  1
ACMDATADICTIONARY
  2
AcmDataDictionary
  3
"AcmSymBB|Product Description: AutoCAD Mechanical|Company: Autodesk, Inc."
 90
     1024
280
     0
281
     0
  0
CLASS
  1
ACAMGRCOMPDEFSET
  2
AcAmGrCompDefSet
  3
DesignerAssemblies
 90
     1024
280
     0
281
     0
  0
CLASS
  1
AMDTBROWSERDBTAB
  2
AmdtBrowserDbTab
  3
McadcomServices
 90
     1024
280
     0
281
     0
  0
CLASS
  1
CBROWSERAPPOBJECT
  2
CBrowserAppObject
  3
McadcomServices
 90
     1024
280
     0
281
     0
  0
CLASS
  1
DM_PLACEHOLDER
  2
AcDmSelsetPlaceholder
  3
AcMechDwgViewMgmt
 90
     1024
280
     0
281
     0
  0
CLASS
  1
EXACXREFPANELOBJECT
  2
ExAcXREFPanelObject
  3
EXAC_ESW
 90
    33793
280
     0
281
     0
  0
CLASS
  1
NPOCOLLECTION
  2
AcDbImpNonPersistentObjectsCollection
  3
ObjectDBX Classes
 90
    33921
280
     0
281
     0
  0
CLASS
  1
ACMSTANDARDISO
  2
AcmStandardISO
  3
"Amdt_StdImp|Product Description: AutoCAD Mechanical|Company: Autodesk, Inc."
 90
     1024
280
     0
281
     0
  0
CLASS
  1
AMDTEDGESTANDARDISO13715
  2
AmdtEdgeStdISO13715
  3
"Amdt_StdImp|Product Description: AutoCAD Mechanical|Company: Autodesk, Inc."
 90
     1024
280
     0
281
     0
  0
CLASS
  1
ACMSURFSTANDARDISO2002
  2
AcmSurfTextStdISO2002
  3
"Amdt_StdImp|Product Description: AutoCAD Mechanical|Company: Autodesk, Inc."
 90
     1024
280
     0
281
     0
  0
CLASS
  1
ACMFCFSTANDARDISO
  2
AcmFCFStdISO
  3
"Amdt_StdImp|Product Description: AutoCAD Mechanical|Company: Autodesk, Inc."
 90
     1024
280
     0
281
     0
  0
CLASS
  1
ACMWELDSTANDARDISO
  2
AcmWeldingStdISO
  3
"Amdt_StdImp|Product Description: AutoCAD Mechanical|Company: Autodesk, Inc."
 90
     1024
280
     0
281
     0
  0
CLASS
  1
ACMIDSTANDARDISO
  2
AcmIdStdISO
  3
"Amdt_StdImp|Product Description: AutoCAD Mechanical|Company: Autodesk, Inc."
 90
     1024
280
     0
281
     0
  0
CLASS
  1
ACMDATUMSTANDARDISO
  2
AcmDatumStdISO
  3
"Amdt_StdImp|Product Description: AutoCAD Mechanical|Company: Autodesk, Inc."
 90
     1024
280
     0
281
     0
  0
CLASS
  1
ACMBOMSTANDARDISO
  2
AcmBOMStdISO
  3
"Amdt_StdImp|Product Description: AutoCAD Mechanical|Company: Autodesk, Inc."
 90
     1024
280
     0
281
     0
  0
CLASS
  1
ACMDETAILSTANDARDISO
  2
AmdtDetailSymStdISO
  3
"Amdt_StdImp|Product Description: AutoCAD Mechanical|Company: Autodesk, Inc."
 90
     1024
280
     0
281
     0
  0
CLASS
  1
ACMSECTIONSTANDARDISO2001
  2
AmdtSectionSymStdISO2001
  3
"Amdt_StdImp|Product Description: AutoCAD Mechanical|Company: Autodesk, Inc."
 90
     1024
280
     0
281
     0
  0
CLASS
  1
ACMCENTERLINESTANDARDISO
  2
AmdtCenterLineStdISO
  3
"Amdt_StdImp|Product Description: AutoCAD Mechanical|Company: Autodesk, Inc."
 90
     1024
280
     0
281
     0
  0
CLASS
  1
ACMTHREADLINESTANDARDISO
  2
AmdtThreadLineStdISO
  3
"Amdt_StdImp|Product Description: AutoCAD Mechanical|Company: Autodesk, Inc."
 90
     1024
280
     0
281
     0
  0
CLASS
  1
ACMNOTESTANDARDISO
  2
AmdtNoteStdISO
  3
"Amdt_StdImp|Product Description: AutoCAD Mechanical|Company: Autodesk, Inc."
 90
     1024
280
     0
281
     0
  0
CLASS
  1
ACMTAPERSTANDARDISO
  2
AcmTaperStdISO
  3
"Amdt_StdImp|Product Description: AutoCAD Mechanical|Company: Autodesk, Inc."
 90
     1024
280
     0
281
     0
  0
CLASS
  1
ACMANOOTATIONVIEWSTANDARDISO
  2
AmdtAnViewStdISO
  3
"Amdt_StdImp|Product Description: AutoCAD Mechanical|Company: Autodesk, Inc."
 90
     1024
280
     0
281
     0
  0
CLASS
  1
ACAMGLAYSTD
  2
AcAmgLayStd
  3
"AmgLay|Product Description: AutoCAD Mechanical|Company: Autodesk, Inc."
 90
     1024
280
     0
281
     0
  0
CLASS
  1
ACAMGDIMSTD
  2
AcAmgDimStd
  3
"AmgDim|Product Description: AutoCAD Mechanical|Company: Autodesk, Inc."
 90
     1024
280
     0
281
     0
  0
CLASS
  1
AMGOBJPROPCFG
  2
AmgObjPropCfg
  3
"AmgLay|Product Description: AutoCAD Mechanical|Company: Autodesk, Inc."
 90
     1025
280
     0
281
     0
  0
CLASS
  1
ACAMGHOLECHARTSTDISO
  2
AcAmgHoleChartStdISO
  3
AmgDim|Product Description: AutoCAD Mechanical|Company: Autodesk, Inc.
 90
     1024
280
     0
281
     0
  0
CLASS
  1
ACAMGTITLESTD
  2
AcAmgTitleStd
  3
"AmgTitle|Product Description: AutoCAD Mechanical|Company: Autodesk, Inc."
 90
     4095
280
     0
281
     0
  0
CLASS
  1
AMDTNOTETEMPLATEDB
  2
AmdtNoteTemplateDB
  3
AcmSymBB|Product Description: AutoCAD Mechanical|Company: Autodesk, Inc.
 90
     1024
280
     0
281
     0
  0
CLASS
  1
ACAMGFILTERDAT
  2
AcAmgFilterDat
  3
"AcadM|Product Description: AutoCAD Mechanical|Company: Autodesk, Inc."
 90
    33792
280
     0
281
     0
  0
ENDSEC
  0
SECTION
  2
TABLES
  0
TABLE
  2
VPORT
  5
8
102
{ACAD_XDICTIONARY
360
EC4
102
}
330
0
100
AcDbSymbolTable
 70
     1
  0
VPORT
  5
57
330
8
100
AcDbSymbolTableRecord
100
AcDbViewportTableRecord
  2
*Active
 70
     0
 10
0.0
 20
0.0
 11
1.0
 21
1.0
 12
3771.191195287125
 22
3482.716955542274
 13
0.0
 23
0.0
 14
1.0
 24
1.0
 15
0.0
 25
0.0
 16
0.0
 26
0.0
 36
1.0
 17
0.0
 27
0.0
 37
0.0
 40
6926.394771057253
 41
2.40253164556962
 42
50.0
 43
0.0
 44
0.0
 50
0.0
 51
0.0
 71
     0
 72
   100
 73
     1
 74
     1
 75
     0
 76
     0
 77
     0
 78
     0
281
     0
 65
     1
110
0.0
120
0.0
130
0.0
111
1.0
121
0.0
131
0.0
112
0.0
122
1.0
132
0.0
 79
     0
146
0.0
  0
ENDTAB
  0
TABLE
  2
LTYPE
  5
5
330
0
100
AcDbSymbolTable
 70
    69
  0
LTYPE
  5
5B
330
5
100
AcDbSymbolTableRecord
100
AcDbLinetypeTableRecord
  2
ByBlock
 70
     0
  3

 72
    65
 73
     0
 40
0.0
  0
LTYPE
  5
5C
330
5
100
AcDbSymbolTableRecord
100
AcDbLinetypeTableRecord
  2
ByLayer
 70
     0
  3

 72
    65
 73
     0
 40
0.0
  0
LTYPE
  5
5D
330
5
100
AcDbSymbolTableRecord
100
AcDbLinetypeTableRecord
  2
Continuous
 70
     0
  3
Solid line
 72
    65
 73
     0
 40
0.0
  0
LTYPE
  5
74
330
5
100
AcDbSymbolTableRecord
100
AcDbLinetypeTableRecord
  2
Section_View_Lines
 70
     0
  3
Section View Lines
 72
    65
 73
     4
 40
0.8406
 49
0.6614
 74
     0
 49
-0.0827
 74
     0
 49
0.0138
 74
     0
 49
-0.0827
 74
     0
  0
LTYPE
  5
75
330
5
100
AcDbSymbolTableRecord
100
AcDbLinetypeTableRecord
  2
CHAIN
 70
     0
  3
Chain ____ _ ____ _ ____ _ ____ _ ____ _ ____
 72
    65
 73
     4
 40
0.3543
 49
0.2362
 74
     0
 49
-0.0295
 74
     0
 49
0.0591
 74
     0
 49
-0.0295
 74
     0
  0
LTYPE
  5
76
330
5
100
AcDbSymbolTableRecord
100
AcDbLinetypeTableRecord
  2
DASH_DOT
 70
     0
  3
Dash dot _._._._._._._._._._._._._._._.
 72
    65
 73
     4
 40
0.182
 49
0.1181
 74
     0
 49
-0.0295
 74
     0
 49
0.0049
 74
     0
 49
-0.0295
 74
     0
  0
LTYPE
  5
77
330
5
100
AcDbSymbolTableRecord
100
AcDbLinetypeTableRecord
  2
DASH_DOUBLE_DOT
 70
     0
  3
Dash Double Dot __ __ . __ __ . __ __ . __ _
 72
    65
 73
     6
 40
0.2164
 49
0.1181
 74
     0
 49
-0.0295
 74
     0
 49
0.0049
 74
     0
 49
-0.0295
 74
     0
 49
0.0049
 74
     0
 49
-0.0295
 74
     0
  0
LTYPE
  5
78
330
5
100
AcDbSymbolTableRecord
100
AcDbLinetypeTableRecord
  2
DASH_TRIPLE_DOT
 70
     0
  3
Dash Triple-Dot _ . . . _ . . . _ . . . _
 72
    65
 73
     8
 40
0.2508
 49
0.1181
 74
     0
 49
-0.0295
 74
     0
 49
0.0049
 74
     0
 49
-0.0295
 74
     0
 49
0.0049
 74
     0
 49
-0.0295
 74
     0
 49
0.0049
 74
     0
 49
-0.0295
 74
     0
  0
LTYPE
  5
79
330
5
100
AcDbSymbolTableRecord
100
AcDbLinetypeTableRecord
  2
DASHED
 70
     0
  3
Dashed __ __ __ __ __ __ __ __ __ __ __ __ __ _
 72
    65
 73
     2
 40
0.2068
 49
0.1655
 74
     0
 49
-0.0413
 74
     0
  0
LTYPE
  5
7A
330
5
100
AcDbSymbolTableRecord
100
AcDbLinetypeTableRecord
  2
DASHED_SPACE
 70
     0
  3
Dashed Space __ __ __ __ __ __ __ __ __ __ __ _
 72
    65
 73
     2
 40
0.2067
 49
0.1654
 74
     0
 49
-0.0413
 74
     0
  0
LTYPE
  5
7B
330
5
100
AcDbSymbolTableRecord
100
AcDbLinetypeTableRecord
  2
DOTTED
 70
     0
  3
Dotted . . . . . . . . . . . . . . . . . . . . 
 72
    65
 73
     2
 40
0.0481
 49
0.0068
 74
     0
 49
-0.0413
 74
     0
  0
LTYPE
  5
7C
330
5
100
AcDbSymbolTableRecord
100
AcDbLinetypeTableRecord
  2
DOUBLE_DASH_CHAIN
 70
     0
  3
Double Dash Chain ___ _ _ ___ _ _ ___ _ _ ___ _
 72
    65
 73
     6
 40
1.240299999999999
 49
0.6614
 74
     0
 49
-0.0827
 74
     0
 49
0.1654
 74
     0
 49
-0.0827
 74
     0
 49
0.1654
 74
     0
 49
-0.0827
 74
     0
  0
LTYPE
  5
7D
330
5
100
AcDbSymbolTableRecord
100
AcDbLinetypeTableRecord
  2
DOUBLE_DASH_DOT
 70
     0
  3
Double Dash Dot __ __ . __ __ . __ __ . __ _
 72
    65
 73
     6
 40
0.3296
 49
0.1181
 74
     0
 49
-0.0295
 74
     0
 49
0.1181
 74
     0
 49
-0.0295
 74
     0
 49
0.0049
 74
     0
 49
-0.0295
 74
     0
  0
LTYPE
  5
7E
330
5
100
AcDbSymbolTableRecord
100
AcDbLinetypeTableRecord
  2
DOUBLE_DASH_DOUBLE_DOT
 70
     0
  3
Double Dash Double Dot _ _ . . _ _ . . _ _
 72
    65
 73
     8
 40
0.364
 49
0.1181
 74
     0
 49
-0.0295
 74
     0
 49
0.1181
 74
     0
 49
-0.0295
 74
     0
 49
0.0049
 74
     0
 49
-0.0295
 74
     0
 49
0.0049
 74
     0
 49
-0.0295
 74
     0
  0
LTYPE
  5
7F
330
5
100
AcDbSymbolTableRecord
100
AcDbLinetypeTableRecord
  2
DOUBLE_DASH_TRIPLE_DOT
 70
     0
  3
Double Dash Triple Dot __ __ . . . __ __ . . .
 72
    65
 73
    10
 40
0.3984
 49
0.1181
 74
     0
 49
-0.0295
 74
     0
 49
0.1181
 74
     0
 49
-0.0295
 74
     0
 49
0.0049
 74
     0
 49
-0.0295
 74
     0
 49
0.0049
 74
     0
 49
-0.0295
 74
     0
 49
0.0049
 74
     0
 49
-0.0295
 74
     0
  0
LTYPE
  5
80
330
5
100
AcDbSymbolTableRecord
100
AcDbLinetypeTableRecord
  2
LONG_DASH_DOTTED
 70
     0
  3
Long Dash Dotted ____ . ____ . ____ . ____ . _
 72
    65
 73
     4
 40
0.3001
 49
0.2362
 74
     0
 49
-0.0295
 74
     0
 49
0.0049
 74
     0
 49
-0.0295
 74
     0
  0
LTYPE
  5
81
330
5
100
AcDbSymbolTableRecord
100
AcDbLinetypeTableRecord
  2
LONG_DASH_DOUBLE_DOT
 70
     0
  3
Long Dash Double Dot ____ . . ____ . . ____ . .
 72
    65
 73
     6
 40
0.3345
 49
0.2362
 74
     0
 49
-0.0295
 74
     0
 49
0.0049
 74
     0
 49
-0.0295
 74
     0
 49
0.0049
 74
     0
 49
-0.0295
 74
     0
  0
LTYPE
  5
82
330
5
100
AcDbSymbolTableRecord
100
AcDbLinetypeTableRecord
  2
LONG_DASH_TRIPLE_DOT
 70
     0
  3
Long Dash Triple Dot ____ ... ____ ... ____
 72
    65
 73
     8
 40
0.3689
 49
0.2362
 74
     0
 49
-0.0295
 74
     0
 49
0.0049
 74
     0
 49
-0.0295
 74
     0
 49
0.0049
 74
     0
 49
-0.0295
 74
     0
 49
0.0049
 74
     0
 49
-0.0295
 74
     0
  0
LTYPE
  5
83
330
5
100
AcDbSymbolTableRecord
100
AcDbLinetypeTableRecord
  2
BORDER
 70
     0
  3
Border __ __ . __ __ . __ __ . __ __ . __ __ .
 72
    65
 73
     6
 40
44.45
 49
12.7
 74
     0
 49
-6.349999999999999
 74
     0
 49
12.7
 74
     0
 49
-6.349999999999999
 74
     0
 49
0.0
 74
     0
 49
-6.349999999999999
 74
     0
  0
LTYPE
  5
84
330
5
100
AcDbSymbolTableRecord
100
AcDbLinetypeTableRecord
  2
BORDER2
 70
     0
  3
Border (.5x) __.__.__.__.__.__.__.__.__.__.__.
 72
    65
 73
     6
 40
22.225
 49
6.349999999999999
 74
     0
 49
-3.174999999999999
 74
     0
 49
6.349999999999999
 74
     0
 49
-3.174999999999999
 74
     0
 49
0.0
 74
     0
 49
-3.174999999999999
 74
     0
  0
LTYPE
  5
85
330
5
100
AcDbSymbolTableRecord
100
AcDbLinetypeTableRecord
  2
BORDERX2
 70
     0
  3
Border (2x) ____  ____  .  ____  ____  .  ___
 72
    65
 73
     6
 40
88.9
 49
25.4
 74
     0
 49
-12.7
 74
     0
 49
25.4
 74
     0
 49
-12.7
 74
     0
 49
0.0
 74
     0
 49
-12.7
 74
     0
  0
LTYPE
  5
86
330
5
100
AcDbSymbolTableRecord
100
AcDbLinetypeTableRecord
  2
CENTER
 70
     0
  3
Center ____ _ ____ _ ____ _ ____ _ ____ _ ____
 72
    65
 73
     4
 40
50.8
 49
31.75
 74
     0
 49
-6.349999999999999
 74
     0
 49
6.349999999999999
 74
     0
 49
-6.349999999999999
 74
     0
  0
LTYPE
  5
87
330
5
100
AcDbSymbolTableRecord
100
AcDbLinetypeTableRecord
  2
CENTER2
 70
     0
  3
Center (.5x) ___ _ ___ _ ___ _ ___ _ ___ _ ___
 72
    65
 73
     4
 40
28.575
 49
19.05
 74
     0
 49
-3.174999999999999
 74
     0
 49
3.174999999999999
 74
     0
 49
-3.174999999999999
 74
     0
  0
LTYPE
  5
88
330
5
100
AcDbSymbolTableRecord
100
AcDbLinetypeTableRecord
  2
CENTERX2
 70
     0
  3
Center (2x) ________  __  ________  __  _____
 72
    65
 73
     4
 40
101.6
 49
63.5
 74
     0
 49
-12.7
 74
     0
 49
12.7
 74
     0
 49
-12.7
 74
     0
  0
LTYPE
  5
89
330
5
100
AcDbSymbolTableRecord
100
AcDbLinetypeTableRecord
  2
DASHDOT2
 70
     0
  3
Dash dot (.5x) _._._._._._._._._._._._._._._.
 72
    65
 73
     4
 40
12.7
 49
6.349999999999999
 74
     0
 49
-3.174999999999999
 74
     0
 49
0.0
 74
     0
 49
-3.174999999999999
 74
     0
  0
LTYPE
  5
8A
330
5
100
AcDbSymbolTableRecord
100
AcDbLinetypeTableRecord
  2
DASHDOTX2
 70
     0
  3
Dash dot (2x) ____  .  ____  .  ____  .  ___
 72
    65
 73
     4
 40
50.8
 49
25.4
 74
     0
 49
-12.7
 74
     0
 49
0.0
 74
     0
 49
-12.7
 74
     0
  0
LTYPE
  5
8B
330
5
100
AcDbSymbolTableRecord
100
AcDbLinetypeTableRecord
  2
DASHED2
 70
     0
  3
Dashed (.5x) _ _ _ _ _ _ _ _ _ _ _ _ _ _ _ _ _
 72
    65
 73
     2
 40
9.524999999999998
 49
6.349999999999999
 74
     0
 49
-3.174999999999999
 74
     0
  0
LTYPE
  5
8C
330
5
100
AcDbSymbolTableRecord
100
AcDbLinetypeTableRecord
  2
DASHEDX2
 70
     0
  3
Dashed (2x) ____  ____  ____  ____  ____  ___
 72
    65
 73
     2
 40
38.1
 49
25.4
 74
     0
 49
-12.7
 74
     0
  0
LTYPE
  5
8D
330
5
100
AcDbSymbolTableRecord
100
AcDbLinetypeTableRecord
  2
DIVIDE
 70
     0
  3
Divide ____ . . ____ . . ____ . . ____ . . ____
 72
    65
 73
     6
 40
31.75
 49
12.7
 74
     0
 49
-6.349999999999999
 74
     0
 49
0.0
 74
     0
 49
-6.349999999999999
 74
     0
 49
0.0
 74
     0
 49
-6.349999999999999
 74
     0
  0
LTYPE
  5
8E
330
5
100
AcDbSymbolTableRecord
100
AcDbLinetypeTableRecord
  2
DIVIDE2
 70
     0
  3
Divide (.5x) __..__..__..__..__..__..__..__.._
 72
    65
 73
     6
 40
15.875
 49
6.349999999999999
 74
     0
 49
-3.174999999999999
 74
     0
 49
0.0
 74
     0
 49
-3.174999999999999
 74
     0
 49
0.0
 74
     0
 49
-3.174999999999999
 74
     0
  0
LTYPE
  5
8F
330
5
100
AcDbSymbolTableRecord
100
AcDbLinetypeTableRecord
  2
DIVIDEX2
 70
     0
  3
Divide (2x) ________  .  .  ________  .  .  _
 72
    65
 73
     6
 40
63.49999999999999
 49
25.4
 74
     0
 49
-12.7
 74
     0
 49
0.0
 74
     0
 49
-12.7
 74
     0
 49
0.0
 74
     0
 49
-12.7
 74
     0
  0
LTYPE
  5
90
330
5
100
AcDbSymbolTableRecord
100
AcDbLinetypeTableRecord
  2
DOT
 70
     0
  3
Dot . . . . . . . . . . . . . . . . . . . . . .
 72
    65
 73
     2
 40
6.349999999999999
 49
0.0
 74
     0
 49
-6.349999999999999
 74
     0
  0
LTYPE
  5
91
330
5
100
AcDbSymbolTableRecord
100
AcDbLinetypeTableRecord
  2
DOT2
 70
     0
  3
Dot (.5x) .....................................
 72
    65
 73
     2
 40
3.174999999999999
 49
0.0
 74
     0
 49
-3.174999999999999
 74
     0
  0
LTYPE
  5
92
330
5
100
AcDbSymbolTableRecord
100
AcDbLinetypeTableRecord
  2
DOTX2
 70
     0
  3
Dot (2x) .  .  .  .  .  .  .  .  .  .  .  .  . 
 72
    65
 73
     2
 40
12.7
 49
0.0
 74
     0
 49
-12.7
 74
     0
  0
LTYPE
  5
93
330
5
100
AcDbSymbolTableRecord
100
AcDbLinetypeTableRecord
  2
HIDDEN
 70
     0
  3
Hidden __ __ __ __ __ __ __ __ __ __ __ __ __ _
 72
    65
 73
     2
 40
9.524999999999998
 49
6.349999999999999
 74
     0
 49
-3.174999999999999
 74
     0
  0
LTYPE
  5
94
330
5
100
AcDbSymbolTableRecord
100
AcDbLinetypeTableRecord
  2
HIDDEN2
 70
     0
  3
Hidden (.5x) _ _ _ _ _ _ _ _ _ _ _ _ _ _ _ _ _
 72
    65
 73
     2
 40
4.762499999999999
 49
3.174999999999999
 74
     0
 49
-1.587499999999999
 74
     0
  0
LTYPE
  5
95
330
5
100
AcDbSymbolTableRecord
100
AcDbLinetypeTableRecord
  2
HIDDENX2
 70
     0
  3
Hidden (2x) ____ ____ ____ ____ ____ ____ ____
 72
    65
 73
     2
 40
19.05
 49
12.7
 74
     0
 49
-6.349999999999999
 74
     0
  0
LTYPE
  5
96
330
5
100
AcDbSymbolTableRecord
100
AcDbLinetypeTableRecord
  2
PHANTOM
 70
     0
  3
Phantom ______  __  __  ______  __  __  ______
 72
    65
 73
     6
 40
63.5
 49
31.75
 74
     0
 49
-6.349999999999999
 74
     0
 49
6.349999999999999
 74
     0
 49
-6.349999999999999
 74
     0
 49
6.349999999999999
 74
     0
 49
-6.349999999999999
 74
     0
  0
LTYPE
  5
97
330
5
100
AcDbSymbolTableRecord
100
AcDbLinetypeTableRecord
  2
PHANTOM2
 70
     0
  3
Phantom (.5x) ___ _ _ ___ _ _ ___ _ _ ___ _ _
 72
    65
 73
     6
 40
31.75
 49
15.875
 74
     0
 49
-3.174999999999999
 74
     0
 49
3.174999999999999
 74
     0
 49
-3.174999999999999
 74
     0
 49
3.174999999999999
 74
     0
 49
-3.174999999999999
 74
     0
  0
LTYPE
  5
98
330
5
100
AcDbSymbolTableRecord
100
AcDbLinetypeTableRecord
  2
PHANTOMX2
 70
     0
  3
Phantom (2x) ____________    ____    ____   _
 72
    65
 73
     6
 40
127.0
 49
63.5
 74
     0
 49
-12.7
 74
     0
 49
12.7
 74
     0
 49
-12.7
 74
     0
 49
12.7
 74
     0
 49
-12.7
 74
     0
  0
LTYPE
  5
99
330
5
100
AcDbSymbolTableRecord
100
AcDbLinetypeTableRecord
  2
ACAD_ISO02W100
 70
     0
  3
ISO dash __ __ __ __ __ __ __ __ __ __ __ __ __
 72
    65
 73
     2
 40
15.0
 49
12.0
 74
     0
 49
-3.0
 74
     0
  0
LTYPE
  5
9A
330
5
100
AcDbSymbolTableRecord
100
AcDbLinetypeTableRecord
  2
ACAD_ISO03W100
 70
     0
  3
ISO dash space __    __    __    __    __    __
 72
    65
 73
     2
 40
30.0
 49
12.0
 74
     0
 49
-18.0
 74
     0
  0
LTYPE
  5
9B
330
5
100
AcDbSymbolTableRecord
100
AcDbLinetypeTableRecord
  2
ACAD_ISO04W100
 70
     0
  3
ISO long-dash dot ____ . ____ . ____ . ____ . _
 72
    65
 73
     4
 40
30.0
 49
24.0
 74
     0
 49
-3.0
 74
     0
 49
0.0
 74
     0
 49
-3.0
 74
     0
  0
LTYPE
  5
9C
330
5
100
AcDbSymbolTableRecord
100
AcDbLinetypeTableRecord
  2
ACAD_ISO05W100
 70
     0
  3
ISO long-dash double-dot ____ .. ____ .. ____ .
 72
    65
 73
     6
 40
33.0
 49
24.0
 74
     0
 49
-3.0
 74
     0
 49
0.0
 74
     0
 49
-3.0
 74
     0
 49
0.0
 74
     0
 49
-3.0
 74
     0
  0
LTYPE
  5
9D
330
5
100
AcDbSymbolTableRecord
100
AcDbLinetypeTableRecord
  2
ACAD_ISO06W100
 70
     0
  3
ISO long-dash triple-dot ____ ... ____ ... ____
 72
    65
 73
     8
 40
36.0
 49
24.0
 74
     0
 49
-3.0
 74
     0
 49
0.0
 74
     0
 49
-3.0
 74
     0
 49
0.0
 74
     0
 49
-3.0
 74
     0
 49
0.0
 74
     0
 49
-3.0
 74
     0
  0
LTYPE
  5
9E
330
5
100
AcDbSymbolTableRecord
100
AcDbLinetypeTableRecord
  2
ACAD_ISO07W100
 70
     0
  3
ISO dot . . . . . . . . . . . . . . . . . . . .
 72
    65
 73
     2
 40
3.0
 49
0.0
 74
     0
 49
-3.0
 74
     0
  0
LTYPE
  5
9F
330
5
100
AcDbSymbolTableRecord
100
AcDbLinetypeTableRecord
  2
ACAD_ISO08W100
 70
     0
  3
ISO long-dash short-dash ____ __ ____ __ ____ _
 72
    65
 73
     4
 40
36.0
 49
24.0
 74
     0
 49
-3.0
 74
     0
 49
6.0
 74
     0
 49
-3.0
 74
     0
  0
LTYPE
  5
A0
330
5
100
AcDbSymbolTableRecord
100
AcDbLinetypeTableRecord
  2
ACAD_ISO09W100
 70
     0
  3
ISO long-dash double-short-dash ____ __ __ ____
 72
    65
 73
     6
 40
45.0
 49
24.0
 74
     0
 49
-3.0
 74
     0
 49
6.0
 74
     0
 49
-3.0
 74
     0
 49
6.0
 74
     0
 49
-3.0
 74
     0
  0
LTYPE
  5
A1
330
5
100
AcDbSymbolTableRecord
100
AcDbLinetypeTableRecord
  2
ACAD_ISO10W100
 70
     0
  3
ISO dash dot __ . __ . __ . __ . __ . __ . __ .
 72
    65
 73
     4
 40
18.0
 49
12.0
 74
     0
 49
-3.0
 74
     0
 49
0.0
 74
     0
 49
-3.0
 74
     0
  0
LTYPE
  5
A2
330
5
100
AcDbSymbolTableRecord
100
AcDbLinetypeTableRecord
  2
ACAD_ISO11W100
 70
     0
  3
ISO double-dash dot __ __ . __ __ . __ __ . __ 
 72
    65
 73
     6
 40
33.0
 49
12.0
 74
     0
 49
-3.0
 74
     0
 49
12.0
 74
     0
 49
-3.0
 74
     0
 49
0.0
 74
     0
 49
-3.0
 74
     0
  0
LTYPE
  5
A3
330
5
100
AcDbSymbolTableRecord
100
AcDbLinetypeTableRecord
  2
ACAD_ISO12W100
 70
     0
  3
ISO dash double-dot __ . . __ . . __ . . __ . .
 72
    65
 73
     6
 40
21.0
 49
12.0
 74
     0
 49
-3.0
 74
     0
 49
0.0
 74
     0
 49
-3.0
 74
     0
 49
0.0
 74
     0
 49
-3.0
 74
     0
  0
LTYPE
  5
A4
330
5
100
AcDbSymbolTableRecord
100
AcDbLinetypeTableRecord
  2
ACAD_ISO13W100
 70
     0
  3
ISO double-dash double-dot __ __ . . __ __ . . 
 72
    65
 73
     8
 40
36.0
 49
12.0
 74
     0
 49
-3.0
 74
     0
 49
12.0
 74
     0
 49
-3.0
 74
     0
 49
0.0
 74
     0
 49
-3.0
 74
     0
 49
0.0
 74
     0
 49
-3.0
 74
     0
  0
LTYPE
  5
A5
330
5
100
AcDbSymbolTableRecord
100
AcDbLinetypeTableRecord
  2
ACAD_ISO14W100
 70
     0
  3
ISO dash triple-dot __ . . . __ . . . __ . . . 
 72
    65
 73
     8
 40
24.0
 49
12.0
 74
     0
 49
-3.0
 74
     0
 49
0.0
 74
     0
 49
-3.0
 74
     0
 49
0.0
 74
     0
 49
-3.0
 74
     0
 49
0.0
 74
     0
 49
-3.0
 74
     0
  0
LTYPE
  5
A6
330
5
100
AcDbSymbolTableRecord
100
AcDbLinetypeTableRecord
  2
ACAD_ISO15W100
 70
     0
  3
ISO double-dash triple-dot __ __ . . . __ __ . 
 72
    65
 73
    10
 40
39.0
 49
12.0
 74
     0
 49
-3.0
 74
     0
 49
12.0
 74
     0
 49
-3.0
 74
     0
 49
0.0
 74
     0
 49
-3.0
 74
     0
 49
0.0
 74
     0
 49
-3.0
 74
     0
 49
0.0
 74
     0
 49
-3.0
 74
     0
  0
LTYPE
  5
A9
330
5
100
AcDbSymbolTableRecord
100
AcDbLinetypeTableRecord
  2
FENCELINE1
 70
     0
  3
Fenceline circle ----0-----0----0-----0----0---
 72
    65
 73
     4
 40
36.83
 49
6.349999999999999
 74
     0
 49
-2.54
 74
     4
 75
   133
340
A8
 46
2.54
 50
0.0
 44
-2.54
 45
0.0
 49
-2.54
 74
     0
 49
25.4
 74
     0
  0
LTYPE
  5
AA
330
5
100
AcDbSymbolTableRecord
100
AcDbLinetypeTableRecord
  2
FENCELINE2
 70
     0
  3
Fenceline square ----[]-----[]----[]-----[]----
 72
    65
 73
     4
 40
36.83
 49
6.349999999999999
 74
     0
 49
-2.54
 74
     4
 75
   132
340
A8
 46
2.54
 50
0.0
 44
-2.54
 45
0.0
 49
-2.54
 74
     0
 49
25.4
 74
     0
  0
LTYPE
  5
AB
330
5
100
AcDbSymbolTableRecord
100
AcDbLinetypeTableRecord
  2
TRACKS
 70
     0
  3
Tracks -|-|-|-|-|-|-|-|-|-|-|-|-|-|-|-|-|-|-|-|
 72
    65
 73
     2
 40
7.62
 49
3.81
 74
     4
 75
   130
340
A8
 46
6.349999999999999
 50
0.0
 44
0.0
 45
0.0
 49
3.81
 74
     0
  0
LTYPE
  5
AC
330
5
100
AcDbSymbolTableRecord
100
AcDbLinetypeTableRecord
  2
BATTING
 70
     0
  3
Batting SSSSSSSSSSSSSSSSSSSSSSSSSSSSSSSSSSSSSSS
 72
    65
 73
     4
 40
10.16254
 49
0.00254
 74
     0
 49
-2.54
 74
     4
 75
   134
340
A8
 46
2.54
 50
0.0
 44
-2.54
 45
0.0
 49
-5.08
 74
     4
 75
   134
340
A8
 46
2.54
 50
180.0
 44
2.54
 45
0.0
 49
-2.54
 74
     0
  0
LTYPE
  5
AD
330
5
100
AcDbSymbolTableRecord
100
AcDbLinetypeTableRecord
  2
HOT_WATER_SUPPLY
 70
     0
  3
Hot water supply ---- HW ---- HW ---- HW ----
 72
    65
 73
     3
 40
22.86
 49
12.7
 74
     0
 49
-5.08
 74
     2
 75
     0
340
55
 46
2.54
 50
0.0
 44
-2.54
 45
-1.27
  9
HW
 49
-5.08
 74
     0
  0
LTYPE
  5
AE
330
5
100
AcDbSymbolTableRecord
100
AcDbLinetypeTableRecord
  2
GAS_LINE
 70
     0
  3
Gas line ----GAS----GAS----GAS----GAS----GAS---
 72
    65
 73
     3
 40
24.13
 49
12.7
 74
     0
 49
-5.08
 74
     2
 75
     0
340
55
 46
2.54
 50
0.0
 44
-2.54
 45
-1.27
  9
GAS
 49
-6.349999999999999
 74
     0
  0
LTYPE
  5
AF
330
5
100
AcDbSymbolTableRecord
100
AcDbLinetypeTableRecord
  2
ZIGZAG
 70
     0
  3
Zig zag /\/\/\/\/\/\/\/\/\/\/\/\/\/\/\/\/\/\/\/
 72
    65
 73
     4
 40
20.32254
 49
0.00254
 74
     0
 49
-5.08
 74
     4
 75
   131
340
A8
 46
5.08
 50
0.0
 44
-5.08
 45
0.0
 49
-10.16
 74
     4
 75
   131
340
A8
 46
5.08
 50
180.0
 44
5.08
 45
0.0
 49
-5.08
 74
     0
  0
LTYPE
  5
1053
330
5
100
AcDbSymbolTableRecord
100
AcDbLinetypeTableRecord
  2
AM_ISO02W050
 70
     0
  3
__ __ __ __ __ __ __ __ __ __ __ __ __ __ __
 72
    65
 73
     2
 40
7.5
 49
6.0
 74
     0
 49
-1.5
 74
     0
  0
LTYPE
  5
1054
330
5
100
AcDbSymbolTableRecord
100
AcDbLinetypeTableRecord
  2
AM_ISO08W050
 70
     0
  3
____ . ____ . ____ . ____ . ____ . ____ . ____
 72
    65
 73
     4
 40
18.0
 49
12.0
 74
     0
 49
-1.5
 74
     0
 49
3.0
 74
     0
 49
-1.5
 74
     0
  0
LTYPE
  5
1055
330
5
100
AcDbSymbolTableRecord
100
AcDbLinetypeTableRecord
  2
AM_ISO09W050
 70
     0
  3
_____ . . _____ . . _____ . . ____ .. ____
 72
    65
 73
     6
 40
22.5
 49
12.0
 74
     0
 49
-1.5
 74
     0
 49
3.0
 74
     0
 49
-1.5
 74
     0
 49
3.0
 74
     0
 49
-1.5
 74
     0
  0
LTYPE
  5
1056
330
5
100
AcDbSymbolTableRecord
100
AcDbLinetypeTableRecord
  2
Amconstr
 70
     0
  3
_______________________
 72
    65
 73
     2
 40
9999.0
 49
9999.0
 74
     0
 49
0.0
 74
     0
  0
LTYPE
  5
1057
330
5
100
AcDbSymbolTableRecord
100
AcDbLinetypeTableRecord
  2
AM_ISO08W050x2
 70
     0
  3
__ . __ . __ . __ . __ . __
 72
    65
 73
     4
 40
9.0
 49
6.0
 74
     0
 49
-0.75
 74
     0
 49
1.5
 74
     0
 49
-0.75
 74
     0
  0
LTYPE
  5
1058
330
5
100
AcDbSymbolTableRecord
100
AcDbLinetypeTableRecord
  2
AM_ISO02W050x2
 70
     0
  3
 _ _ _ _ _ _ _ _ _ _ _ _
 72
    65
 73
     2
 40
3.75
 49
3.0
 74
     0
 49
-0.75
 74
     0
  0
LTYPE
  5
105B
330
5
100
AcDbSymbolTableRecord
100
AcDbLinetypeTableRecord
  2
Amzigzag
 70
     0
  3
/\/-/\/-/\/-/\/-/\/-/\/
 72
    65
 73
     2
 40
11.0001
 49
0.0001
 74
     4
 75
   136
340
105A
 46
0.04
 50
0.0
 44
0.0
 45
0.0
 49
-11.0
 74
     0
  0
LTYPE
  5
106A
330
5
100
AcDbSymbolTableRecord
100
AcDbLinetypeTableRecord
  2
ACISOWELD
 70
     0
  3
_ _ _ _ _
 72
    65
 73
     2
 40
2.0
 49
2.0
 74
     0
 49
-1.0
 74
     0
  0
LTYPE
  5
106B
330
5
100
AcDbSymbolTableRecord
100
AcDbLinetypeTableRecord
  2
ACISOTGB
 70
     0
  3
__ . . __ . .
 72
    65
 73
     6
 40
9.0
 49
4.0
 74
     0
 49
-1.0
 74
     0
 49
1.0
 74
     0
 49
-1.0
 74
     0
 49
1.0
 74
     0
 49
-1.0
 74
     0
  0
LTYPE
  5
106C
330
5
100
AcDbSymbolTableRecord
100
AcDbLinetypeTableRecord
  2
ACISOTGL
 70
     0
  3
_ _ _ _ _
 72
    65
 73
     2
 40
3.0
 49
2.0
 74
     0
 49
-1.0
 74
     0
  0
ENDTAB
  0
TABLE
  2
LAYER
  5
2
102
{ACAD_XDICTIONARY
360
DA3
102
}
330
0
100
AcDbSymbolTable
 70
     9
  0
LAYER
  5
54
330
2
100
AcDbSymbolTableRecord
100
AcDbLayerTableRecord
  2
0
 70
     0
 62
     7
  6
Continuous
370
    -3
390
F
  0
LAYER
  5
B2
330
2
100
AcDbSymbolTableRecord
100
AcDbLayerTableRecord
  2
Geometria szkicu (ISO)
 70
     0
 62
     7
  6
Continuous
370
    25
390
F
  0
LAYER
  5
B9
330
2
100
AcDbSymbolTableRecord
100
AcDbLayerTableRecord
  2
Obramowanie (ISO)
 70
     0
 62
     7
  6
Continuous
370
    35
390
F
  0
LAYER
  5
C1
330
2
100
AcDbSymbolTableRecord
100
AcDbLayerTableRecord
  2
Symbol (ISO)
 70
     0
 62
     7
  6
Continuous
370
    25
390
F
  0
LAYER
  5
C3
330
2
100
AcDbSymbolTableRecord
100
AcDbLayerTableRecord
  2
Tytuł (ISO)
 70
     0
 62
     7
  6
Continuous
370
    30
390
F
  0
LAYER
  5
C6
330
2
100
AcDbSymbolTableRecord
100
AcDbLayerTableRecord
  2
Widoczne (ISO)
 70
     0
 62
     7
  6
Continuous
370
    25
390
F
  0
LAYER
  5
C7
330
2
100
AcDbSymbolTableRecord
100
AcDbLayerTableRecord
  2
Widoczne wąskie (ISO)
 70
     0
 62
     7
  6
Continuous
370
    15
390
F
  0
LAYER
  5
C8
330
2
100
AcDbSymbolTableRecord
100
AcDbLayerTableRecord
  2
Wymiar (ISO)
 70
     0
 62
   151
  6
Continuous
370
    18
390
F
  0
LAYER
  5
633
330
2
100
AcDbSymbolTableRecord
100
AcDbLayerTableRecord
  2
Defpoints
 70
     0
 62
     7
  6
Continuous
290
     0
370
    -3
390
F
  0
ENDTAB
  0
TABLE
  2
STYLE
  5
3
330
0
100
AcDbSymbolTable
 70
    10
  0
STYLE
  5
55
330
3
100
AcDbSymbolTableRecord
100
AcDbTextStyleTableRecord
  2
Standard
 70
     0
 40
0.0
 41
1.0
 50
0.0
 71
     0
 42
0.2
  3
tahoma.ttf
  4

1001
ACAD
1000
Tahoma
1071
      256
  0
STYLE
  5
5A
330
3
100
AcDbSymbolTableRecord
100
AcDbTextStyleTableRecord
  2
Annotative
 70
     0
 40
0.0
 41
1.0
 50
0.0
 71
     0
 42
0.2
  3
txt
  4

1001
AcadAnnotative
1000
AnnotativeData
1002
{
1070
     1
1070
     1
1002
}
  0
STYLE
  5
A8
330
3
100
AcDbSymbolTableRecord
100
AcDbTextStyleTableRecord
  2

 70
     1
 40
0.0
 41
1.0
 50
0.0
 71
     0
 42
0.2
  3
ltypeshp.shx
  4

  0
STYLE
  5
CB
330
3
100
AcDbSymbolTableRecord
100
AcDbTextStyleTableRecord
  2
Tekst etykiety (ISO)
 70
     0
 40
0.0
 41
1.0
 50
0.0
 71
     0
 42
0.2
  3
tahoma.ttf
  4

1001
ACAD
1000
Tahoma
1071
      256
  0
STYLE
  5
CC
330
3
100
AcDbSymbolTableRecord
100
AcDbTextStyleTableRecord
  2
Tekst mały
 70
     0
 40
0.0
 41
1.0
 50
0.0
 71
     0
 42
0.2
  3
tahoma.ttf
  4

1001
ACAD
1000
Tahoma
1071
      256
  0
STYLE
  5
CD
330
3
100
AcDbSymbolTableRecord
100
AcDbTextStyleTableRecord
  2
Tekst notatki (ISO)
 70
     0
 40
0.0
 41
1.0
 50
0.0
 71
     0
 42
0.2
  3
tahoma.ttf
  4

1001
ACAD
1000
Tahoma
1071
      256
  0
STYLE
  5
155
330
3
100
AcDbSymbolTableRecord
100
AcDbTextStyleTableRecord
  2
Styl tekstu14
 70
     0
 40
0.0
 41
1.0
 50
0.0
 71
     0
 42
0.2
  3
tahoma.ttf
  4

1001
ACAD
1000
Tahoma
1071
      256
  0
STYLE
  5
105A
330
3
100
AcDbSymbolTableRecord
100
AcDbTextStyleTableRecord
  2

 70
     1
 40
0.0
 41
1.0
 50
0.0
 71
     0
 42
0.2
  3
genltshp.shx
  4

  0
STYLE
  5
1068
330
3
100
AcDbSymbolTableRecord
100
AcDbTextStyleTableRecord
  2
ACISOTS
 70
     0
 40
1.0
 41
1.0
 50
0.0
 71
     0
 42
0.2
  3
isocp.shx
  4

  0
STYLE
  5
1069
330
3
100
AcDbSymbolTableRecord
100
AcDbTextStyleTableRecord
  2
ACISOGDT
 70
     0
 40
0.0
 41
1.0
 50
0.0
 71
     0
 42
0.2
  3
amgdt.shx
  4

  0
ENDTAB
  0
TABLE
  2
VIEW
  5
6
330
0
100
AcDbSymbolTable
 70
     0
  0
ENDTAB
  0
TABLE
  2
UCS
  5
7
330
0
100
AcDbSymbolTable
 70
     0
  0
ENDTAB
  0
TABLE
  2
APPID
  5
9
330
0
100
AcDbSymbolTable
 70
    19
  0
APPID
  5
56
330
9
100
AcDbSymbolTableRecord
100
AcDbRegAppTableRecord
  2
ACAD
 70
     0
  0
APPID
  5
5E
330
9
100
AcDbSymbolTableRecord
100
AcDbRegAppTableRecord
  2
AcadAnnotative
 70
     0
  0
APPID
  5
160
330
9
100
AcDbSymbolTableRecord
100
AcDbRegAppTableRecord
  2
AcadAnnoPO
 70
     0
  0
APPID
  5
6DC
330
9
100
AcDbSymbolTableRecord
100
AcDbRegAppTableRecord
  2
ACAD_DSTYLE_DIMRADIAL_EXTENSION
 70
     0
  0
APPID
  5
D9A
330
9
100
AcDbSymbolTableRecord
100
AcDbRegAppTableRecord
  2
ACAD_EXEMPT_FROM_CAD_STANDARDS
 70
     0
  0
APPID
  5
EFA
330
9
100
AcDbSymbolTableRecord
100
AcDbRegAppTableRecord
  2
ACAD_MLEADERVER
 70
     0
  0
APPID
  5
FE9
330
9
100
AcDbSymbolTableRecord
100
AcDbRegAppTableRecord
  2
MCAD_NO_VIS
 70
     0
  0
APPID
  5
FEA
330
9
100
AcDbSymbolTableRecord
100
AcDbRegAppTableRecord
  2
ACAD_TEMP_GRAPHIC
 70
     0
  0
APPID
  5
1015
330
9
100
AcDbSymbolTableRecord
100
AcDbRegAppTableRecord
  2
AD_DRAW
 70
     0
  0
APPID
  5
1018
330
9
100
AcDbSymbolTableRecord
100
AcDbRegAppTableRecord
  2
ACATTRIBSERVICES
 70
     0
  0
APPID
  5
1031
330
9
100
AcDbSymbolTableRecord
100
AcDbRegAppTableRecord
  2
DESIGNERASSEMBLIES
 70
     0
  0
APPID
  5
1036
330
9
100
AcDbSymbolTableRecord
100
AcDbRegAppTableRecord
  2
ACADM_DIM_EDIT
 70
     0
  0
APPID
  5
1037
330
9
100
AcDbSymbolTableRecord
100
AcDbRegAppTableRecord
  2
AMDT_DM_ADJ
 70
     0
  0
APPID
  5
1050
330
9
100
AcDbSymbolTableRecord
100
AcDbRegAppTableRecord
  2
ACAD_DSTYLE_DIMJAG
 70
     0
  0
APPID
  5
1051
330
9
100
AcDbSymbolTableRecord
100
AcDbRegAppTableRecord
  2
ACAD_DSTYLE_DIMBREAK
 70
     0
  0
APPID
  5
10D3
330
9
100
AcDbSymbolTableRecord
100
AcDbRegAppTableRecord
  2
ACAD_DSTYLE_DIMARC_LENGTH_SYMBOL
 70
     0
  0
APPID
  5
10D4
330
9
100
AcDbSymbolTableRecord
100
AcDbRegAppTableRecord
  2
ACAD_DSTYLE_DIM_LINETYPE
 70
     0
  0
APPID
  5
10D5
330
9
100
AcDbSymbolTableRecord
100
AcDbRegAppTableRecord
  2
ACAD_DSTYLE_DIM_EXT1_LINETYPE
 70
     0
  0
APPID
  5
10D6
330
9
100
AcDbSymbolTableRecord
100
AcDbRegAppTableRecord
  2
ACAD_DSTYLE_DIM_EXT2_LINETYPE
 70
     0
  0
ENDTAB
  0
TABLE
  2
DIMSTYLE
  5
A
330
0
100
AcDbSymbolTable
 70
    23
100
AcDbDimStyleTable
 71
     2
340
58
340
D6
  0
DIMSTYLE
105
58
330
A
100
AcDbSymbolTableRecord
100
AcDbDimStyleTableRecord
  2
Standard
 70
     0
340
55
  0
DIMSTYLE
105
59
330
A
100
AcDbSymbolTableRecord
100
AcDbDimStyleTableRecord
  2
Annotative
 70
     0
340
55
1001
AcadAnnotative
1000
AnnotativeData
1002
{
1070
     1
1070
     1
1002
}
  0
DIMSTYLE
105
CE
330
A
100
AcDbSymbolTableRecord
100
AcDbDimStyleTableRecord
  2
Domyślne - Metoda 1b (ISO)
 70
     0
 40
30.0
 41
2.5
 42
0.0
 43
5.999999999999999
 44
3.174999999999999
 45
0.00000001
 46
10.0
 73
     0
 77
     1
 78
     8
 79
     2
140
2.5
143
0.03937
146
1.399999999999999
147
0.762
171
     3
172
     1
176
   256
177
   256
178
   256
179
     2
271
     2
272
     2
274
     3
278
    44
284
     8
286
     8
340
CD
371
    -1
372
    -1
  0
DIMSTYLE
105
CF
330
A
100
AcDbSymbolTableRecord
100
AcDbDimStyleTableRecord
  2
Domyślne - Metoda 1b (ISO)$7
 70
     0
 40
30.0
 41
2.5
 42
0.0
 43
5.999999999999999
 44
3.174999999999999
 45
0.00000001
 46
10.0
 73
     0
 77
     1
 78
     8
 79
     2
140
2.5
143
0.03937
146
1.399999999999999
147
0.762
171
     3
172
     1
176
   256
177
   256
178
   256
179
     2
271
     2
272
     2
274
     3
278
    44
284
     8
286
     8
340
CD
371
    -1
372
    -1
  0
DIMSTYLE
105
D0
330
A
100
AcDbSymbolTableRecord
100
AcDbDimStyleTableRecord
  2
Domyślne - Metoda 2a (ISO)
 70
     0
 40
30.0
 41
2.5
 42
0.0
 43
5.999999999999999
 44
3.174999999999999
 45
0.00000001
 46
10.0
 77
     1
 78
     8
 79
     2
140
2.5
143
0.03937
146
1.399999999999999
147
0.762
171
     3
172
     1
176
   256
177
   256
178
   256
179
     2
271
     2
272
     2
274
     3
278
    44
284
     8
286
     8
340
CD
371
    -1
372
    -1
  0
DIMSTYLE
105
D1
330
A
100
AcDbSymbolTableRecord
100
AcDbDimStyleTableRecord
  2
Domyślne - Metoda 2a (ISO)$7
 70
     0
 40
30.0
 41
2.5
 42
0.0
 43
5.999999999999999
 44
3.174999999999999
 45
0.00000001
 46
10.0
 77
     1
 78
     8
 79
     2
140
2.5
143
0.03937
146
1.399999999999999
147
0.762
171
     3
172
     1
176
   256
177
   256
178
   256
179
     2
271
     2
272
     2
274
     3
278
    44
284
     8
286
     8
340
CD
371
    -1
372
    -1
  0
DIMSTYLE
105
D2
330
A
100
AcDbSymbolTableRecord
100
AcDbDimStyleTableRecord
  2
Domyślne - Metoda 2b (ISO)
 70
     0
 40
30.0
 41
2.5
 42
0.0
 43
5.999999999999999
 44
3.174999999999999
 45
0.00000001
 46
10.0
 77
     1
 78
     8
 79
     2
140
2.5
143
0.03937
146
1.399999999999999
147
0.762
171
     3
172
     1
176
   256
177
   256
178
   256
179
     2
271
     2
272
     2
274
     3
278
    44
284
     8
286
     8
340
CD
371
    -1
372
    -1
  0
DIMSTYLE
105
D3
330
A
100
AcDbSymbolTableRecord
100
AcDbDimStyleTableRecord
  2
Domyślne - Metoda 2b (ISO)$7
 70
     0
 40
30.0
 41
2.5
 42
0.0
 43
5.999999999999999
 44
3.174999999999999
 45
0.00000001
 46
10.0
 77
     1
 78
     8
 79
     2
140
2.5
143
0.03937
146
1.399999999999999
147
0.762
171
     3
172
     1
176
   256
177
   256
178
   256
179
     2
271
     2
272
     2
274
     3
278
    44
284
     8
286
     8
340
CD
371
    -1
372
    -1
  0
DIMSTYLE
105
D4
330
A
100
AcDbSymbolTableRecord
100
AcDbDimStyleTableRecord
  2
Domyślne - mm [cale] (ISO)
 70
     0
  4
 cal
 40
30.0
 41
2.5
 42
0.0
 43
5.999999999999999
 44
3.174999999999999
 45
0.00000001
 46
10.0
 73
     0
 74
     0
 77
     1
 78
     8
 79
     2
140
2.5
143
0.03937
146
1.399999999999999
147
0.762
170
     1
171
     3
172
     1
176
   256
177
   256
178
   256
179
     3
271
     3
272
     2
274
     3
275
     1
278
    44
284
     8
285
     8
286
     8
340
CD
371
    -1
372
    -1
  0
DIMSTYLE
105
D5
330
A
100
AcDbSymbolTableRecord
100
AcDbDimStyleTableRecord
  2
Domyślne - mm [cale] (ISO)$7
 70
     0
  4
 cal
 40
30.0
 41
2.5
 42
0.0
 43
5.999999999999999
 44
3.174999999999999
 45
0.00000001
 46
10.0
 73
     0
 74
     0
 77
     1
 78
     8
 79
     2
140
2.5
143
0.03937
146
1.399999999999999
147
0.762
170
     1
171
     3
172
     1
176
   256
177
   256
178
   256
179
     3
271
     3
272
     2
274
     3
275
     1
278
    44
284
     8
285
     8
286
     8
340
CD
371
    -1
372
    -1
  0
DIMSTYLE
105
D6
102
{ACAD_REACTORS
330
631
330
6E9
102
}
330
A
100
AcDbSymbolTableRecord
100
AcDbDimStyleTableRecord
  2
Domyślne (ISO)
 70
     0
 40
30.0
 41
2.5
 42
0.0
 43
5.999999999999999
 44
3.174999999999999
 45
0.00000001
 46
10.0
 73
     0
 77
     1
140
3.5
143
0.03937
146
0.7142857142857144
147
0.762
171
     3
172
     1
176
   256
177
   256
178
   256
271
     0
272
     0
274
     3
278
    44
340
CB
371
    -1
372
    -1
  0
DIMSTYLE
105
D7
330
A
100
AcDbSymbolTableRecord
100
AcDbDimStyleTableRecord
  2
Domyślne (ISO)$7
 70
     0
 40
30.0
 41
2.5
 42
0.0
 43
5.999999999999999
 44
3.174999999999999
 45
0.00000001
 46
10.0
 73
     0
 77
     1
140
3.5
143
0.03937
146
0.7142857142857144
147
0.762
171
     3
172
     1
176
   256
177
   256
178
   256
271
     0
272
     0
274
     3
278
    44
340
CB
371
    -1
372
    -1
  0
DIMSTYLE
105
E6
330
A
100
AcDbSymbolTableRecord
100
AcDbDimStyleTableRecord
  2
Obiekt mieszany (ISO)
 70
     0
 40
30.0
 41
2.5
 42
0.0
 43
5.999999999999999
 44
3.174999999999999
 45
0.00000001
 46
10.0
 73
     0
 74
     0
 77
     1
140
3.5
143
0.03937
146
1.001485756465366
147
0.762
171
     3
172
     1
176
   256
177
   256
178
   256
179
     2
271
     2
272
     2
274
     3
278
    44
340
CB
341
D8
371
    -1
372
    -1
  0
DIMSTYLE
105
E7
330
A
100
AcDbSymbolTableRecord
100
AcDbDimStyleTableRecord
  2
Obiekt mieszany (ISO)$7
 70
     0
 40
30.0
 41
5.0
 42
0.0
 43
5.999999999999999
 44
3.174999999999999
 45
0.00000001
 46
10.0
 73
     0
 74
     0
 77
     1
140
3.5
143
0.03937
146
1.001485756465366
147
0.762
171
     3
172
     1
176
   256
177
   256
178
   256
179
     2
271
     2
272
     2
274
     3
278
    44
340
CB
341
D8
371
    25
372
    -1
  0
DIMSTYLE
105
E8
330
A
100
AcDbSymbolTableRecord
100
AcDbDimStyleTableRecord
  2
Dodatkowy (ISO)
 70
     0
 40
30.0
 41
2.5
340
55
342
E9
  0
DIMSTYLE
105
FA
330
A
100
AcDbSymbolTableRecord
100
AcDbDimStyleTableRecord
  2
Odniesienie (ISO)
 70
     0
 40
30.0
 41
2.5
340
55
342
E9
  0
DIMSTYLE
105
104F
102
{ACAD_REACTORS
330
1131
102
}
330
A
100
AcDbSymbolTableRecord
100
AcDbDimStyleTableRecord
  2
AM_ISO
 70
     0
  4
"
 41
3.5
 42
1.0
 43
10.0
 44
1.0
 47
0.1
 48
0.1
 73
     0
 74
     0
 77
     1
 78
     8
 79
     2
140
3.5
141
0.0
143
0.0393701
146
0.71
147
1.5
172
     1
176
   256
177
   256
178
     2
271
     2
272
     3
274
     4
283
     0
284
     8
340
55
371
    -1
372
    -1
1001
ACAD_DSTYLE_DIMJAG
1070
   388
1040
1.5
1001
ACAD_DSTYLE_DIMBREAK
1070
   391
1040
3.75
1001
ACAD_DSTYLE_DIMARC_LENGTH_SYMBOL
1070
   379
1070
     1
1001
ACAD_DSTYLE_DIM_LINETYPE
1070
   380
1005
5B
1001
ACAD_DSTYLE_DIM_EXT1_LINETYPE
1070
   381
1005
5B
1001
ACAD_DSTYLE_DIM_EXT2_LINETYPE
1070
   382
1005
5B
  0
DIMSTYLE
105
105C
330
A
100
AcDbSymbolTableRecord
100
AcDbDimStyleTableRecord
  2
AM_ISO$3
 70
     0
  4
"
 41
3.5
 42
1.0
 43
10.0
 44
1.0
 47
0.1
 48
0.1
 73
     0
 77
     1
 78
     8
 79
     2
140
3.5
141
0.0
143
0.0393701
146
0.71
147
1.5
176
   256
177
   256
178
     2
271
     2
272
     3
274
     4
283
     0
284
     8
288
     1
289
     0
340
55
371
    -1
372
    -1
1001
ACAD_DSTYLE_DIMBREAK
1070
   391
1040
3.75
1001
ACAD_DSTYLE_DIMJAG
1070
   388
1040
1.5
1001
ACAD_DSTYLE_DIMARC_LENGTH_SYMBOL
1070
   379
1070
     1
1001
ACAD_DSTYLE_DIM_LINETYPE
1070
   380
1005
5B
1001
ACAD_DSTYLE_DIM_EXT1_LINETYPE
1070
   381
1005
5B
1001
ACAD_DSTYLE_DIM_EXT2_LINETYPE
1070
   382
1005
5B
  0
DIMSTYLE
105
105D
330
A
100
AcDbSymbolTableRecord
100
AcDbDimStyleTableRecord
  2
AM_ISO$4
 70
     0
  4
"
 41
3.5
 42
1.0
 43
10.0
 44
1.0
 47
0.1
 48
0.1
 73
     0
 77
     1
 78
     8
 79
     2
140
3.5
141
0.0
143
0.0393701
146
0.71
147
1.5
176
   256
177
   256
178
     2
271
     2
272
     3
274
     4
283
     0
284
     8
288
     1
289
     0
340
55
371
    -1
372
    -1
1001
ACAD_DSTYLE_DIMBREAK
1070
   391
1040
3.75
1001
ACAD_DSTYLE_DIMJAG
1070
   388
1040
1.5
1001
ACAD_DSTYLE_DIMARC_LENGTH_SYMBOL
1070
   379
1070
     1
1001
ACAD_DSTYLE_DIM_LINETYPE
1070
   380
1005
5B
1001
ACAD_DSTYLE_DIM_EXT1_LINETYPE
1070
   381
1005
5B
1001
ACAD_DSTYLE_DIM_EXT2_LINETYPE
1070
   382
1005
5B
  0
DIMSTYLE
105
105E
330
A
100
AcDbSymbolTableRecord
100
AcDbDimStyleTableRecord
  2
AM_ISO$6
 70
     0
  4
"
 41
3.5
 42
1.0
 43
10.0
 44
1.0
 47
0.1
 48
0.1
 73
     0
 74
     0
 78
     8
 79
     2
140
3.5
141
0.0
143
0.0393701
146
0.71
147
1.5
172
     1
176
   256
177
   256
178
     2
271
     2
272
     3
274
     4
283
     0
284
     8
340
55
371
    -1
372
    -1
1001
ACAD_DSTYLE_DIMBREAK
1070
   391
1040
3.75
1001
ACAD_DSTYLE_DIMJAG
1070
   388
1040
1.5
1001
ACAD_DSTYLE_DIMARC_LENGTH_SYMBOL
1070
   379
1070
     1
1001
ACAD_DSTYLE_DIM_LINETYPE
1070
   380
1005
5B
1001
ACAD_DSTYLE_DIM_EXT1_LINETYPE
1070
   381
1005
5B
1001
ACAD_DSTYLE_DIM_EXT2_LINETYPE
1070
   382
1005
5B
  0
DIMSTYLE
105
105F
330
A
100
AcDbSymbolTableRecord
100
AcDbDimStyleTableRecord
  2
AM_ISO$7
 70
     0
  4
"
 41
3.5
 42
1.0
 43
10.0
 44
1.0
 47
0.1
 48
0.1
 73
     0
 74
     0
 77
     1
 78
     8
 79
     2
140
3.5
141
0.0
143
0.0393701
146
0.71
147
1.5
172
     1
176
   256
177
   256
178
     2
271
     2
272
     3
274
     4
283
     0
284
     8
340
55
371
    -1
372
    -1
1001
ACAD_DSTYLE_DIMBREAK
1070
   391
1040
3.75
1001
ACAD_DSTYLE_DIMJAG
1070
   388
1040
1.5
1001
ACAD_DSTYLE_DIMARC_LENGTH_SYMBOL
1070
   379
1070
     1
1001
ACAD_DSTYLE_DIM_LINETYPE
1070
   380
1005
5B
1001
ACAD_DSTYLE_DIM_EXT1_LINETYPE
1070
   381
1005
5B
1001
ACAD_DSTYLE_DIM_EXT2_LINETYPE
1070
   382
1005
5B
  0
DIMSTYLE
105
1060
330
A
100
AcDbSymbolTableRecord
100
AcDbDimStyleTableRecord
  2
AM_ISO$SF
 70
     0
  4
"
 41
3.5
 42
1.0
 43
10.0
 44
1.0
 47
0.1
 48
0.1
 73
     0
 74
     0
 75
     1
 76
     1
 77
     1
 78
     8
 79
     2
140
3.5
141
0.0
143
0.0393701
146
0.71
147
1.5
172
     1
176
   256
177
   256
178
     2
271
     2
272
     3
274
     4
283
     0
284
     8
340
55
371
    -1
372
    -1
1001
ACAD_DSTYLE_DIMBREAK
1070
   391
1040
3.75
1001
ACAD_DSTYLE_DIMJAG
1070
   388
1040
1.5
1001
ACAD_DSTYLE_DIMARC_LENGTH_SYMBOL
1070
   379
1070
     1
1001
ACAD_DSTYLE_DIM_LINETYPE
1070
   380
1005
5B
1001
ACAD_DSTYLE_DIM_EXT1_LINETYPE
1070
   381
1005
5B
1001
ACAD_DSTYLE_DIM_EXT2_LINETYPE
1070
   382
1005
5B
  0
DIMSTYLE
105
1065
330
A
100
AcDbSymbolTableRecord
100
AcDbDimStyleTableRecord
  2
AM_ISO$SH
 70
     0
  4
"
 41
3.5
 42
1.0
 43
10.0
 44
1.0
 47
0.1
 48
0.1
 73
     0
 74
     0
 75
     1
 76
     1
 77
     1
 78
     8
 79
     2
140
3.5
141
0.0
143
0.0393701
144
2.0
146
0.71
147
1.5
172
     1
173
     1
176
   256
177
   256
178
     2
271
     2
272
     3
274
     4
283
     0
284
     8
340
55
343
1061
371
    -1
372
    -1
1001
ACAD_DSTYLE_DIMBREAK
1070
   391
1040
3.75
1001
ACAD_DSTYLE_DIMJAG
1070
   388
1040
1.5
1001
ACAD_DSTYLE_DIMARC_LENGTH_SYMBOL
1070
   379
1070
     1
1001
ACAD_DSTYLE_DIM_LINETYPE
1070
   380
1005
5B
1001
ACAD_DSTYLE_DIM_EXT1_LINETYPE
1070
   381
1005
5B
1001
ACAD_DSTYLE_DIM_EXT2_LINETYPE
1070
   382
1005
5B
  0
ENDTAB
  0
TABLE
  2
BLOCK_RECORD
  5
1
330
0
100
AcDbSymbolTable
 70
    12
  0
BLOCK_RECORD
  5
6C
330
1
100
AcDbSymbolTableRecord
100
AcDbBlockTableRecord
  2
*Model_Space
340
6F
  0
BLOCK_RECORD
  5
68
330
1
100
AcDbSymbolTableRecord
100
AcDbBlockTableRecord
  2
*Paper_Space
340
6B
  0
BLOCK_RECORD
  5
70
330
1
100
AcDbSymbolTableRecord
100
AcDbBlockTableRecord
  2
*Paper_Space0
340
73
  0
BLOCK_RECORD
  5
D8
330
1
100
AcDbSymbolTableRecord
100
AcDbBlockTableRecord
  2
Filled-1
340
0
  0
BLOCK_RECORD
  5
E9
330
1
100
AcDbSymbolTableRecord
100
AcDbBlockTableRecord
  2
_Closed
340
0
  0
BLOCK_RECORD
  5
F0
330
1
100
AcDbSymbolTableRecord
100
AcDbBlockTableRecord
  2
DatumFilled45
340
0
  0
BLOCK_RECORD
  5
FC
330
1
100
AcDbSymbolTableRecord
100
AcDbBlockTableRecord
  2
Ramki Ramka domyślna
340
0
  0
BLOCK_RECORD
  5
144
330
1
100
AcDbSymbolTableRecord
100
AcDbBlockTableRecord
  2
Tabelki rysunkowe ISO
340
0
  0
BLOCK_RECORD
  5
610
330
1
100
AcDbSymbolTableRecord
100
AcDbBlockTableRecord
  2
Lista części
340
0
  0
BLOCK_RECORD
  5
634
330
1
100
AcDbSymbolTableRecord
100
AcDbBlockTableRecord
  2
*D7
340
0
  0
BLOCK_RECORD
  5
6EA
330
1
100
AcDbSymbolTableRecord
100
AcDbBlockTableRecord
  2
*D8
340
0
  0
BLOCK_RECORD
  5
1061
330
1
100
AcDbSymbolTableRecord
100
AcDbBlockTableRecord
  2
GENAXEH
340
0
  0
BLOCK_RECORD
  5
114B
330
1
100
AcDbSymbolTableRecord
100
AcDbBlockTableRecord
  2
2208_Karuzela-Tomek
340
0
310
2800000020000000200000000100080000000000000400000000000000000000000000000000000000000000000080000080000000808000800000008000800080800000C0C0C000C0DCC000F0CAA6000020400000206000002080000020A0000020C0000020E00000400000004020000040400000406000004080000040A0
310
000040C0000040E00000600000006020000060400000606000006080000060A0000060C0000060E00000800000008020000080400000806000008080000080A0000080C0000080E00000A0000000A0200000A0400000A0600000A0800000A0A00000A0C00000A0E00000C0000000C0200000C0400000C0600000C0800000C0
310
A00000C0C00000C0E00000E0000000E0200000E0400000E0600000E0800000E0A00000E0C00000E0E00040000000400020004000400040006000400080004000A0004000C0004000E00040200000402020004020400040206000402080004020A0004020C0004020E000404000004040200040404000404060004040800040
310
40A0004040C0004040E00040600000406020004060400040606000406080004060A0004060C0004060E00040800000408020004080400040806000408080004080A0004080C0004080E00040A0000040A0200040A0400040A0600040A0800040A0A00040A0C00040A0E00040C0000040C0200040C0400040C0600040C08000
310
40C0A00040C0C00040C0E00040E0000040E0200040E0400040E0600040E0800040E0A00040E0C00040E0E00080000000800020008000400080006000800080008000A0008000C0008000E00080200000802020008020400080206000802080008020A0008020C0008020E00080400000804020008040400080406000804080
310
008040A0008040C0008040E00080600000806020008060400080606000806080008060A0008060C0008060E00080800000808020008080400080806000808080008080A0008080C0008080E00080A0000080A0200080A0400080A0600080A0800080A0A00080A0C00080A0E00080C0000080C0200080C0400080C0600080C0
310
800080C0A00080C0C00080C0E00080E0000080E0200080E0400080E0600080E0800080E0A00080E0C00080E0E000C0000000C0002000C0004000C0006000C0008000C000A000C000C000C000E000C0200000C0202000C0204000C0206000C0208000C020A000C020C000C020E000C0400000C0402000C0404000C0406000C0
310
408000C040A000C040C000C040E000C0600000C0602000C0604000C0606000C0608000C060A000C060C000C060E000C0800000C0802000C0804000C0806000C0808000C080A000C080C000C080E000C0A00000C0A02000C0A04000C0A06000C0A08000C0A0A000C0A0C000C0A0E000C0C00000C0C02000C0C04000C0C06000
310
C0C08000C0C0A000F0FBFF00A4A0A000808080000000FF0000FF000000FFFF00FF000000FF00FF00FFFF0000FFFFFF004949494949494949494949494949494949494949494949494949494949494949494949494949494949494949494949FFFFFF494949494949494949494949494949494949494949494949FFFFFFFFFF
310
494949FFFF4949494949494949494949494949494949494949FFFF49494949494949494949FFFFFF49494949494949494949494949494949FF494949494949494949494949494949FFFF49494949494949494949494949FF494949494949494949494949494949494949FF4949494949494949494949FF4949494949494949
310
494949494949494949494949FF494949494949494949FF49494949494949494949494949494949494949494949FF4949494949494949FF49494949494949494949494949494949494949494949FF49494949494949FF494949494949494949494949494949494949494949494949FF494949494949FF494949494949494949
310
49494949494949494949494949494949FF49494949FF4949494949494949494949494949494949494949494949494949FF49494949FF4949494949494949494949FFFFFFFF4949494949494949494949FF49494949FF49494949494949494949FFFF49FFFFFF49494949494949494949FF494949FF49494949494949494949
310
FFFFFF4949FFFFFF494949494949494949FF494949FF49494949494949494949FFFF49FFFF49FFFF49494949494949494949FF4949FF49494949494949494949FFFF49FFFFFFFFFF49494949494949494949FF4949FF49494949494949494949FFFFFF4949FFFFFF49494949494949494949FF494949FF4949494949494949
310
4949FFFFFFFFFFFF49494949494949494949FF49494949FF4949494949494949494949FFFFFFFF4949494949494949494949FF49494949FF4949494949494949494949494949494949494949494949494949FF4949494949FF49494949494949494949494949494949494949494949494949FF4949494949FF494949494949
310
494949494949494949494949494949494949FF49494949494949FF49494949494949494949494949494949494949494949FF4949494949494949FF49494949494949494949494949494949494949494949FF494949494949494949FF4949494949494949494949494949494949494949FF4949494949494949494949FF4949
310
49494949494949494949494949494949FF49494949494949494949494949FF494949494949494949494949494949FFFF494949494949494949494949494949FFFF4949494949494949494949FFFF49494949494949494949494949494949494949FFFFFFFFFF494949FFFFFF49494949494949494949494949494949494949
310
49494949494949FFFFFF49494949494949494949494949494949494949494949494949494949494949494949494949494949494949494949
102
{BLKREFS
331
121A
102
}
1001
ACAD
1000
DesignCenter Data
1002
{
1070
     1
1070
     4
1002
}
  0
ENDTAB
  0
ENDSEC
  0
SECTION
  2
BLOCKS
  0
BLOCK
  5
6D
330
6C
100
AcDbEntity
  8
0
100
AcDbBlockBegin
  2
*Model_Space
 70
     0
 10
0.0
 20
0.0
 30
0.0
  3
*Model_Space
  1

  0
ENDBLK
  5
6E
330
6C
100
AcDbEntity
  8
0
100
AcDbBlockEnd
  0
BLOCK
  5
69
330
68
100
AcDbEntity
 67
     1
  8
0
100
AcDbBlockBegin
  2
*Paper_Space
 70
     0
 10
0.0
 20
0.0
 30
0.0
  3
*Paper_Space
  1

  0
ENDBLK
  5
6A
330
68
100
AcDbEntity
 67
     1
  8
0
100
AcDbBlockEnd
  0
BLOCK
  5
71
330
70
100
AcDbEntity
 67
     1
  8
0
100
AcDbBlockBegin
  2
*Paper_Space0
 70
     0
 10
0.0
 20
0.0
 30
0.0
  3
*Paper_Space0
  1

  0
ENDBLK
  5
72
330
70
100
AcDbEntity
 67
     1
  8
0
100
AcDbBlockEnd
  0
BLOCK
  5
D9
330
D8
100
AcDbEntity
  8
0
100
AcDbBlockBegin
  2
Filled-1
 70
     0
 10
0.0
 20
0.0
 30
0.0
  3
Filled-1
  1

  0
LINE
  5
DB
330
D8
100
AcDbEntity
  8
0
 62
     0
100
AcDbLine
 10
-1.0
 20
0.0
 30
0.0
 11
0.0
 21
0.0
 31
0.0
  0
POLYLINE
  5
DC
330
D8
100
AcDbEntity
  8
0
 62
     0
100
AcDb2dPolyline
 66
     1
 10
0.0
 20
0.0
 30
0.0
 70
   128
  0
VERTEX
  5
DD
330
DC
100
AcDbEntity
  8
0
 62
     0
100
AcDbVertex
100
AcDb2dVertex
 10
-1.0
 20
-0.1
 30
0.0
  0
VERTEX
  5
DE
330
DC
100
AcDbEntity
  8
0
 62
     0
100
AcDbVertex
100
AcDb2dVertex
 10
0.0
 20
0.0
 30
0.0
  0
VERTEX
  5
E0
330
DC
100
AcDbEntity
  8
0
 62
     0
100
AcDbVertex
100
AcDb2dVertex
 10
-1.0
 20
0.1
 30
0.0
  0
VERTEX
  5
E1
330
DC
100
AcDbEntity
  8
0
 62
     0
100
AcDbVertex
100
AcDb2dVertex
 10
-1.0
 20
-0.1
 30
0.0
  0
SEQEND
  5
DF
330
DC
100
AcDbEntity
  8
0
 62
     0
  0
SOLID
  5
E2
330
D8
100
AcDbEntity
  8
0
 62
     0
100
AcDbTrace
 10
-1.0
 20
-0.1
 30
0.0
 11
0.0
 21
0.0
 31
0.0
 12
-1.0
 22
0.1
 32
0.0
 13
-1.0
 23
-0.1
 33
0.0
  0
LINE
  5
E3
330
D8
100
AcDbEntity
  8
0
 62
     0
100
AcDbLine
 10
-1.0
 20
-0.1
 30
0.0
 11
0.0
 21
0.0
 31
0.0
  0
LINE
  5
E4
330
D8
100
AcDbEntity
  8
0
 62
     0
100
AcDbLine
 10
0.0
 20
0.0
 30
0.0
 11
-1.0
 21
0.1
 31
0.0
  0
LINE
  5
E5
330
D8
100
AcDbEntity
  8
0
 62
     0
100
AcDbLine
 10
-1.0
 20
0.1
 30
0.0
 11
-1.0
 21
-0.1
 31
0.0
  0
ENDBLK
  5
DA
330
D8
100
AcDbEntity
  8
0
100
AcDbBlockEnd
  0
BLOCK
  5
EE
330
E9
100
AcDbEntity
  8
0
100
AcDbBlockBegin
  2
_Closed
 70
     0
 10
0.0
 20
0.0
 30
0.0
  3
_Closed
  1

  0
LINE
  5
EA
330
E9
100
AcDbEntity
  8
0
  6
ByBlock
 62
     0
370
    -2
100
AcDbLine
 10
-1.0
 20
0.1666666666666666
 30
0.0
 11
0.0
 21
0.0
 31
0.0
  0
LINE
  5
EB
330
E9
100
AcDbEntity
  8
0
  6
ByBlock
 62
     0
370
    -2
100
AcDbLine
 10
0.0
 20
0.0
 30
0.0
 11
-1.0
 21
-0.1666666666666666
 31
0.0
  0
LINE
  5
EC
330
E9
100
AcDbEntity
  8
0
  6
ByBlock
 62
     0
370
    -2
100
AcDbLine
 10
-1.0
 20
0.1666666666666666
 30
0.0
 11
-1.0
 21
-0.1666666666666666
 31
0.0
  0
LINE
  5
ED
330
E9
100
AcDbEntity
  8
0
  6
ByBlock
 62
     0
370
    -2
100
AcDbLine
 10
0.0
 20
0.0
 30
0.0
 11
-1.0
 21
0.0
 31
0.0
  0
ENDBLK
  5
EF
330
E9
100
AcDbEntity
  8
0
100
AcDbBlockEnd
  0
BLOCK
  5
F1
330
F0
100
AcDbEntity
  8
0
100
AcDbBlockBegin
  2
DatumFilled45
 70
     0
 10
0.0
 20
0.0
 30
0.0
  3
DatumFilled45
  1

  0
POLYLINE
  5
F3
330
F0
100
AcDbEntity
  8
0
 62
     0
100
AcDb2dPolyline
 66
     1
 10
0.0
 20
0.0
 30
0.0
 70
   128
  0
VERTEX
  5
F4
330
F3
100
AcDbEntity
  8
0
 62
     0
100
AcDbVertex
100
AcDb2dVertex
 10
0.0
 20
1.0
 30
0.0
  0
VERTEX
  5
F5
330
F3
100
AcDbEntity
  8
0
 62
     0
100
AcDbVertex
100
AcDb2dVertex
 10
0.0
 20
-1.0
 30
0.0
  0
VERTEX
  5
F7
330
F3
100
AcDbEntity
  8
0
 62
     0
100
AcDbVertex
100
AcDb2dVertex
 10
-1.0
 20
0.0
 30
0.0
  0
VERTEX
  5
F8
330
F3
100
AcDbEntity
  8
0
 62
     0
100
AcDbVertex
100
AcDb2dVertex
 10
0.0
 20
1.0
 30
0.0
  0
SEQEND
  5
F6
330
F3
100
AcDbEntity
  8
0
 62
     0
  0
SOLID
  5
F9
330
F0
100
AcDbEntity
  8
0
 62
     0
100
AcDbTrace
 10
0.0
 20
1.0
 30
0.0
 11
0.0
 21
-1.0
 31
0.0
 12
-1.0
 22
0.0
 32
0.0
 13
0.0
 23
1.0
 33
0.0
  0
ENDBLK
  5
F2
330
F0
100
AcDbEntity
  8
0
100
AcDbBlockEnd
  0
BLOCK
  5
FD
330
FC
100
AcDbEntity
  8
0
100
AcDbBlockBegin
  2
Ramki Ramka domyślna
 70
     0
 10
0.0
 20
0.0
 30
0.0
  3
Ramki Ramka domyślna
  1

  0
POLYLINE
  5
FF
330
FC
100
AcDbEntity
  8
Obramowanie (ISO)
100
AcDb2dPolyline
 66
     1
 10
0.0
 20
0.0
 30
0.0
 70
   128
  0
VERTEX
  5
100
330
FF
100
AcDbEntity
  8
Obramowanie (ISO)
100
AcDbVertex
100
AcDb2dVertex
 10
10.0
 20
10.0
 30
0.0
  0
VERTEX
  5
101
330
FF
100
AcDbEntity
  8
Obramowanie (ISO)
100
AcDbVertex
100
AcDb2dVertex
 10
10.0
 20
287.0000076293946
 30
0.0
  0
VERTEX
  5
103
330
FF
100
AcDbEntity
  8
Obramowanie (ISO)
100
AcDbVertex
100
AcDb2dVertex
 10
410.0
 20
287.0000076293946
 30
0.0
  0
VERTEX
  5
104
330
FF
100
AcDbEntity
  8
Obramowanie (ISO)
100
AcDbVertex
100
AcDb2dVertex
 10
410.0
 20
10.0
 30
0.0
  0
VERTEX
  5
105
330
FF
100
AcDbEntity
  8
Obramowanie (ISO)
100
AcDbVertex
100
AcDb2dVertex
 10
10.0
 20
10.0
 30
0.0
  0
SEQEND
  5
102
330
FF
100
AcDbEntity
  8
Obramowanie (ISO)
  0
POLYLINE
  5
106
330
FC
100
AcDbEntity
  8
Obramowanie (ISO)
100
AcDb2dPolyline
 66
     1
 10
0.0
 20
0.0
 30
0.0
 70
   128
  0
VERTEX
  5
107
330
106
100
AcDbEntity
  8
Obramowanie (ISO)
100
AcDbVertex
100
AcDb2dVertex
 10
210.0
 20
0.0
 30
0.0
  0
VERTEX
  5
108
330
106
100
AcDbEntity
  8
Obramowanie (ISO)
100
AcDbVertex
100
AcDb2dVertex
 10
210.0
 20
10.0
 30
0.0
  0
VERTEX
  5
10A
330
106
100
AcDbEntity
  8
Obramowanie (ISO)
100
AcDbVertex
100
AcDb2dVertex
 10
207.1132469177246
 20
5.0
 30
0.0
  0
VERTEX
  5
10B
330
106
100
AcDbEntity
  8
Obramowanie (ISO)
100
AcDbVertex
100
AcDb2dVertex
 10
212.8867530822754
 20
5.0
 30
0.0
  0
VERTEX
  5
10C
330
106
100
AcDbEntity
  8
Obramowanie (ISO)
100
AcDbVertex
100
AcDb2dVertex
 10
210.0
 20
10.0
 30
0.0
  0
SEQEND
  5
109
330
106
100
AcDbEntity
  8
Obramowanie (ISO)
  0
POLYLINE
  5
10D
330
FC
100
AcDbEntity
  8
Obramowanie (ISO)
100
AcDb2dPolyline
 66
     1
 10
0.0
 20
0.0
 30
0.0
 70
   128
  0
VERTEX
  5
10E
330
10D
100
AcDbEntity
  8
Obramowanie (ISO)
100
AcDbVertex
100
AcDb2dVertex
 10
210.0
 20
297.0000076293946
 30
0.0
  0
VERTEX
  5
10F
330
10D
100
AcDbEntity
  8
Obramowanie (ISO)
100
AcDbVertex
100
AcDb2dVertex
 10
210.0
 20
287.0000076293946
 30
0.0
  0
VERTEX
  5
111
330
10D
100
AcDbEntity
  8
Obramowanie (ISO)
100
AcDbVertex
100
AcDb2dVertex
 10
207.1132469177246
 20
292.0000076293945
 30
0.0
  0
VERTEX
  5
112
330
10D
100
AcDbEntity
  8
Obramowanie (ISO)
100
AcDbVertex
100
AcDb2dVertex
 10
212.8867530822754
 20
292.0000076293945
 30
0.0
  0
VERTEX
  5
113
330
10D
100
AcDbEntity
  8
Obramowanie (ISO)
100
AcDbVertex
100
AcDb2dVertex
 10
210.0
 20
287.0000076293946
 30
0.0
  0
SEQEND
  5
110
330
10D
100
AcDbEntity
  8
Obramowanie (ISO)
  0
POLYLINE
  5
114
330
FC
100
AcDbEntity
  8
Obramowanie (ISO)
100
AcDb2dPolyline
 66
     1
 10
0.0
 20
0.0
 30
0.0
 70
   128
  0
VERTEX
  5
115
330
114
100
AcDbEntity
  8
Obramowanie (ISO)
100
AcDbVertex
100
AcDb2dVertex
 10
0.0
 20
148.5000038146973
 30
0.0
  0
VERTEX
  5
116
330
114
100
AcDbEntity
  8
Obramowanie (ISO)
100
AcDbVertex
100
AcDb2dVertex
 10
10.0
 20
148.5000038146973
 30
0.0
  0
VERTEX
  5
118
330
114
100
AcDbEntity
  8
Obramowanie (ISO)
100
AcDbVertex
100
AcDb2dVertex
 10
5.0
 20
151.3867473602295
 30
0.0
  0
VERTEX
  5
119
330
114
100
AcDbEntity
  8
Obramowanie (ISO)
100
AcDbVertex
100
AcDb2dVertex
 10
5.0
 20
145.6132507324219
 30
0.0
  0
VERTEX
  5
11A
330
114
100
AcDbEntity
  8
Obramowanie (ISO)
100
AcDbVertex
100
AcDb2dVertex
 10
10.0
 20
148.5000038146973
 30
0.0
  0
SEQEND
  5
117
330
114
100
AcDbEntity
  8
Obramowanie (ISO)
  0
POLYLINE
  5
11B
330
FC
100
AcDbEntity
  8
Obramowanie (ISO)
100
AcDb2dPolyline
 66
     1
 10
0.0
 20
0.0
 30
0.0
 70
   128
  0
VERTEX
  5
11C
330
11B
100
AcDbEntity
  8
Obramowanie (ISO)
100
AcDbVertex
100
AcDb2dVertex
 10
420.0
 20
148.5000038146973
 30
0.0
  0
VERTEX
  5
11D
330
11B
100
AcDbEntity
  8
Obramowanie (ISO)
100
AcDbVertex
100
AcDb2dVertex
 10
410.0
 20
148.5000038146973
 30
0.0
  0
VERTEX
  5
11F
330
11B
100
AcDbEntity
  8
Obramowanie (ISO)
100
AcDbVertex
100
AcDb2dVertex
 10
415.0
 20
151.3867473602295
 30
0.0
  0
VERTEX
  5
120
330
11B
100
AcDbEntity
  8
Obramowanie (ISO)
100
AcDbVertex
100
AcDb2dVertex
 10
415.0
 20
145.6132507324219
 30
0.0
  0
VERTEX
  5
121
330
11B
100
AcDbEntity
  8
Obramowanie (ISO)
100
AcDbVertex
100
AcDb2dVertex
 10
410.0
 20
148.5000038146973
 30
0.0
  0
SEQEND
  5
11E
330
11B
100
AcDbEntity
  8
Obramowanie (ISO)
  0
LINE
  5
122
330
FC
100
AcDbEntity
  8
Obramowanie (ISO)
100
AcDbLine
 10
70.0
 20
10.0
 30
0.0
 11
70.0
 21
7.099999785423278
 31
0.0
  0
LINE
  5
123
330
FC
100
AcDbEntity
  8
Obramowanie (ISO)
100
AcDbLine
 10
70.0
 20
287.0000076293946
 30
0.0
 11
70.0
 21
289.8999977111817
 31
0.0
  0
LINE
  5
124
330
FC
100
AcDbEntity
  8
Obramowanie (ISO)
100
AcDbLine
 10
140.0
 20
10.0
 30
0.0
 11
140.0
 21
7.099999785423278
 31
0.0
  0
LINE
  5
125
330
FC
100
AcDbEntity
  8
Obramowanie (ISO)
100
AcDbLine
 10
140.0
 20
287.0000076293946
 30
0.0
 11
140.0
 21
289.8999977111817
 31
0.0
  0
LINE
  5
126
330
FC
100
AcDbEntity
  8
Obramowanie (ISO)
100
AcDbLine
 10
280.0
 20
10.0
 30
0.0
 11
280.0
 21
7.099999785423278
 31
0.0
  0
LINE
  5
127
330
FC
100
AcDbEntity
  8
Obramowanie (ISO)
100
AcDbLine
 10
280.0
 20
287.0000076293946
 30
0.0
 11
280.0
 21
289.8999977111817
 31
0.0
  0
LINE
  5
128
330
FC
100
AcDbEntity
  8
Obramowanie (ISO)
100
AcDbLine
 10
350.0
 20
10.0
 30
0.0
 11
350.0
 21
7.099999785423278
 31
0.0
  0
LINE
  5
129
330
FC
100
AcDbEntity
  8
Obramowanie (ISO)
100
AcDbLine
 10
350.0
 20
287.0000076293946
 30
0.0
 11
350.0
 21
289.8999977111817
 31
0.0
  0
MTEXT
  5
12A
330
FC
100
AcDbEntity
  8
Obramowanie (ISO)
100
AcDbMText
 10
384.4359944669735
 20
287.4
 30
0.0
 40
2.5
 41
0.0
 71
     7
 72
     1
  1
1
  7
Tekst notatki (ISO)
 73
     1
 44
0.0
1001
ACAD
1000
MTEXTBEGIN
1070
    73
1070
     1
1070
    44
1040
0.0
1070
    74
1070
     0
1000
MTEXTEND
  0
MTEXT
  5
12C
330
FC
100
AcDbEntity
  8
Obramowanie (ISO)
100
AcDbMText
 10
384.4359944669735
 20
7.099999999999999
 30
0.0
 40
2.5
 41
0.0
 71
     7
 72
     1
  1
1
  7
Tekst notatki (ISO)
 73
     1
 44
1.0
1001
ACAD
1000
MTEXTBEGIN
1070
    73
1070
     1
1070
    44
1040
1.0
1070
    74
1070
     0
1000
MTEXTEND
  0
MTEXT
  5
12D
330
FC
100
AcDbEntity
  8
Obramowanie (ISO)
100
AcDbMText
 10
314.2419939703322
 20
287.4
 30
0.0
 40
2.5
 41
0.0
 71
     7
 72
     1
  1
2
  7
Tekst notatki (ISO)
 73
     1
 44
1.0
1001
ACAD
1000
MTEXTBEGIN
1070
    73
1070
     1
1070
    44
1040
1.0
1070
    74
1070
     0
1000
MTEXTEND
  0
MTEXT
  5
12E
330
FC
100
AcDbEntity
  8
Obramowanie (ISO)
100
AcDbMText
 10
314.2419939703322
 20
7.099999999999999
 30
0.0
 40
2.5
 41
0.0
 71
     7
 72
     1
  1
2
  7
Tekst notatki (ISO)
 73
     1
 44
1.0
1001
ACAD
1000
MTEXTBEGIN
1070
    73
1070
     1
1070
    44
1040
1.0
1070
    74
1070
     0
1000
MTEXTEND
  0
MTEXT
  5
12F
330
FC
100
AcDbEntity
  8
Obramowanie (ISO)
100
AcDbMText
 10
244.2219939191321
 20
287.3473257688805
 30
0.0
 40
2.5
 41
0.0
 71
     7
 72
     1
  1
3
  7
Tekst notatki (ISO)
 73
     1
 44
1.0
1001
ACAD
1000
MTEXTBEGIN
1070
    73
1070
     1
1070
    44
1040
1.0
1070
    74
1070
     0
1000
MTEXTEND
  0
MTEXT
  5
130
330
FC
100
AcDbEntity
  8
Obramowanie (ISO)
100
AcDbMText
 10
244.2219939191321
 20
7.047325768880545
 30
0.0
 40
2.5
 41
0.0
 71
     7
 72
     1
  1
3
  7
Tekst notatki (ISO)
 73
     1
 44
1.0
1001
ACAD
1000
MTEXTBEGIN
1070
    73
1070
     1
1070
    44
1040
1.0
1070
    74
1070
     0
1000
MTEXTEND
  0
MTEXT
  5
131
330
FC
100
AcDbEntity
  8
Obramowanie (ISO)
100
AcDbMText
 10
174.1279936784914
 20
287.4
 30
0.0
 40
2.5
 41
0.0
 71
     7
 72
     1
  1
4
  7
Tekst notatki (ISO)
 73
     1
 44
1.0
1001
ACAD
1000
MTEXTBEGIN
1070
    73
1070
     1
1070
    44
1040
1.0
1070
    74
1070
     0
1000
MTEXTEND
  0
MTEXT
  5
132
330
FC
100
AcDbEntity
  8
Obramowanie (ISO)
100
AcDbMText
 10
174.1279936784914
 20
7.099999999999999
 30
0.0
 40
2.5
 41
0.0
 71
     7
 72
     1
  1
4
  7
Tekst notatki (ISO)
 73
     1
 44
1.0
1001
ACAD
1000
MTEXTBEGIN
1070
    73
1070
     1
1070
    44
1040
1.0
1070
    74
1070
     0
1000
MTEXTEND
  0
MTEXT
  5
133
330
FC
100
AcDbEntity
  8
Obramowanie (ISO)
100
AcDbMText
 10
104.2679940368923
 20
287.3473257688805
 30
0.0
 40
2.5
 41
0.0
 71
     7
 72
     1
  1
5
  7
Tekst notatki (ISO)
 73
     1
 44
1.0
1001
ACAD
1000
MTEXTBEGIN
1070
    73
1070
     1
1070
    44
1040
1.0
1070
    74
1070
     0
1000
MTEXTEND
  0
MTEXT
  5
134
330
FC
100
AcDbEntity
  8
Obramowanie (ISO)
100
AcDbMText
 10
104.2679940368923
 20
7.047325768880545
 30
0.0
 40
2.5
 41
0.0
 71
     7
 72
     1
  1
5
  7
Tekst notatki (ISO)
 73
     1
 44
1.0
1001
ACAD
1000
MTEXTBEGIN
1070
    73
1070
     1
1070
    44
1040
1.0
1070
    74
1070
     0
1000
MTEXTEND
  0
MTEXT
  5
135
330
FC
100
AcDbEntity
  8
Obramowanie (ISO)
100
AcDbMText
 10
34.20199386793194
 20
287.3473257688805
 30
0.0
 40
2.5
 41
0.0
 71
     7
 72
     1
  1
6
  7
Tekst notatki (ISO)
 73
     1
 44
1.0
1001
ACAD
1000
MTEXTBEGIN
1070
    73
1070
     1
1070
    44
1040
1.0
1070
    74
1070
     0
1000
MTEXTEND
  0
MTEXT
  5
136
330
FC
100
AcDbEntity
  8
Obramowanie (ISO)
100
AcDbMText
 10
34.20199386793194
 20
7.047325768880545
 30
0.0
 40
2.5
 41
0.0
 71
     7
 72
     1
  1
6
  7
Tekst notatki (ISO)
 73
     1
 44
1.0
1001
ACAD
1000
MTEXTBEGIN
1070
    73
1070
     1
1070
    44
1040
1.0
1070
    74
1070
     0
1000
MTEXTEND
  0
LINE
  5
137
330
FC
100
AcDbEntity
  8
Obramowanie (ISO)
100
AcDbLine
 10
10.0
 20
74.25000190734863
 30
0.0
 11
7.099999785423278
 21
74.25000190734863
 31
0.0
  0
LINE
  5
138
330
FC
100
AcDbEntity
  8
Obramowanie (ISO)
100
AcDbLine
 10
410.0
 20
74.25000190734863
 30
0.0
 11
412.9000091552734
 21
74.25000190734863
 31
0.0
  0
LINE
  5
139
330
FC
100
AcDbEntity
  8
Obramowanie (ISO)
100
AcDbLine
 10
10.0
 20
222.7499961853027
 30
0.0
 11
7.099999785423278
 21
222.7499961853027
 31
0.0
  0
LINE
  5
13A
330
FC
100
AcDbEntity
  8
Obramowanie (ISO)
100
AcDbLine
 10
410.0
 20
222.7499961853027
 30
0.0
 11
412.9000091552734
 21
222.7499961853027
 31
0.0
  0
MTEXT
  5
13B
330
FC
100
AcDbEntity
  8
Obramowanie (ISO)
100
AcDbMText
 10
7.286593166399208
 20
35.875
 30
0.0
 40
2.5
 41
0.0
 71
     7
 72
     1
  1
A
  7
Tekst notatki (ISO)
 73
     1
 44
1.0
1001
ACAD
1000
MTEXTBEGIN
1070
    73
1070
     1
1070
    44
1040
1.0
1070
    74
1070
     0
1000
MTEXTEND
  0
MTEXT
  5
13C
330
FC
100
AcDbEntity
  8
Obramowanie (ISO)
100
AcDbMText
 10
410.5865931663991
 20
35.875
 30
0.0
 40
2.5
 41
0.0
 71
     7
 72
     1
  1
A
  7
Tekst notatki (ISO)
 73
     1
 44
1.0
1001
ACAD
1000
MTEXTBEGIN
1070
    73
1070
     1
1070
    44
1040
1.0
1070
    74
1070
     0
1000
MTEXTEND
  0
MTEXT
  5
13D
330
FC
100
AcDbEntity
  8
Obramowanie (ISO)
100
AcDbMText
 10
7.587034677710874
 20
110.125
 30
0.0
 40
2.5
 41
0.0
 71
     7
 72
     1
  1
B
  7
Tekst notatki (ISO)
 73
     1
 44
1.0
1001
ACAD
1000
MTEXTBEGIN
1070
    73
1070
     1
1070
    44
1040
1.0
1070
    74
1070
     0
1000
MTEXTEND
  0
MTEXT
  5
13E
330
FC
100
AcDbEntity
  8
Obramowanie (ISO)
100
AcDbMText
 10
410.8870346777108
 20
110.125
 30
0.0
 40
2.5
 41
0.0
 71
     7
 72
     1
  1
B
  7
Tekst notatki (ISO)
 73
     1
 44
1.0
1001
ACAD
1000
MTEXTBEGIN
1070
    73
1070
     1
1070
    44
1040
1.0
1070
    74
1070
     0
1000
MTEXTEND
  0
MTEXT
  5
13F
330
FC
100
AcDbEntity
  8
Obramowanie (ISO)
100
AcDbMText
 10
7.427787979511982
 20
184.3304294999689
 30
0.0
 40
2.5
 41
0.0
 71
     7
 72
     1
  1
C
  7
Tekst notatki (ISO)
 73
     1
 44
1.0
1001
ACAD
1000
MTEXTBEGIN
1070
    73
1070
     1
1070
    44
1040
1.0
1070
    74
1070
     0
1000
MTEXTEND
  0
MTEXT
  5
140
330
FC
100
AcDbEntity
  8
Obramowanie (ISO)
100
AcDbMText
 10
410.7277879795119
 20
184.3304294999689
 30
0.0
 40
2.5
 41
0.0
 71
     7
 72
     1
  1
C
  7
Tekst notatki (ISO)
 73
     1
 44
1.0
1001
ACAD
1000
MTEXTBEGIN
1070
    73
1070
     1
1070
    44
1040
1.0
1070
    74
1070
     0
1000
MTEXTEND
  0
MTEXT
  5
141
330
FC
100
AcDbEntity
  8
Obramowanie (ISO)
100
AcDbMText
 10
7.434076865759236
 20
258.625
 30
0.0
 40
2.5
 41
0.0
 71
     7
 72
     1
  1
D
  7
Tekst notatki (ISO)
 73
     1
 44
1.0
1001
ACAD
1000
MTEXTBEGIN
1070
    73
1070
     1
1070
    44
1040
1.0
1070
    74
1070
     0
1000
MTEXTEND
  0
MTEXT
  5
142
330
FC
100
AcDbEntity
  8
Obramowanie (ISO)
100
AcDbMText
 10
410.7340768657592
 20
258.625
 30
0.0
 40
2.5
 41
0.0
 71
     7
 72
     1
  1
D
  7
Tekst notatki (ISO)
 73
     1
 44
1.0
1001
ACAD
1000
MTEXTBEGIN
1070
    73
1070
     1
1070
    44
1040
1.0
1070
    74
1070
     0
1000
MTEXTEND
  0
ENDBLK
  5
FE
330
FC
100
AcDbEntity
  8
0
100
AcDbBlockEnd
  0
BLOCK
  5
145
330
144
100
AcDbEntity
  8
0
100
AcDbBlockBegin
  2
Tabelki rysunkowe ISO
 70
     2
 10
0.0
 20
0.0
 30
0.0
  3
Tabelki rysunkowe ISO
  1

  0
LINE
  5
147
330
144
100
AcDbEntity
  8
Tytuł (ISO)
100
AcDbLine
 10
100.0713910852681
 20
99.99999999999918
 30
0.0
 11
270.0713910852682
 21
99.99999999999916
 31
0.0
  0
LINE
  5
148
330
144
100
AcDbEntity
  8
Tytuł (ISO)
100
AcDbLine
 10
270.0713910852682
 20
99.99999999999916
 30
0.0
 11
270.0713910852682
 21
129.9999999999993
 31
0.0
  0
LINE
  5
149
330
144
100
AcDbEntity
  8
Tytuł (ISO)
100
AcDbLine
 10
270.0713910852682
 20
129.9999999999993
 30
0.0
 11
100.0713910852681
 21
129.9999999999991
 31
0.0
  0
LINE
  5
14A
330
144
100
AcDbEntity
  8
Tytuł (ISO)
100
AcDbLine
 10
100.0713910852681
 20
129.9999999999991
 30
0.0
 11
100.0713910852681
 21
99.99999999999918
 31
0.0
  0
LINE
  5
14B
330
144
100
AcDbEntity
  8
Tytuł (ISO)
100
AcDbLine
 10
100.0713910852681
 20
120.0
 30
0.0
 11
270.0713910852682
 21
120.0
 31
0.0
  0
LINE
  5
14C
330
144
100
AcDbEntity
  8
Tytuł (ISO)
100
AcDbLine
 10
132.0713910852681
 20
119.9999999999991
 30
0.0
 11
132.0713910852681
 21
129.9999999999991
 31
0.0
  0
LINE
  5
14D
330
144
100
AcDbEntity
  8
Tytuł (ISO)
100
AcDbLine
 10
157.0713910852681
 20
119.9999999999991
 30
0.0
 11
157.0713910852681
 21
129.9999999999991
 31
0.0
  0
LINE
  5
14E
330
144
100
AcDbEntity
  8
Tytuł (ISO)
100
AcDbLine
 10
175.0713910852681
 20
120.0
 30
0.0
 11
175.0713910852681
 21
100.0
 31
0.0
  0
LINE
  5
14F
330
144
100
AcDbEntity
  8
Tytuł (ISO)
100
AcDbLine
 10
197.0713910852682
 20
119.9999999999992
 30
0.0
 11
197.0713910852682
 21
129.9999999999992
 31
0.0
  0
LINE
  5
150
330
144
100
AcDbEntity
  8
Tytuł (ISO)
100
AcDbLine
 10
220.0713910852682
 20
119.9999999999992
 30
0.0
 11
220.0713910852682
 21
129.9999999999992
 31
0.0
  0
LINE
  5
151
330
144
100
AcDbEntity
  8
Tytuł (ISO)
100
AcDbLine
 10
270.0713910852682
 20
109.9999999999992
 30
0.0
 11
175.0713910852681
 21
110.0
 31
0.0
  0
LINE
  5
152
330
144
100
AcDbEntity
  8
Tytuł (ISO)
100
AcDbLine
 10
235.0713910852681
 20
100.0
 30
0.0
 11
235.0713910852681
 21
110.0
 31
0.0
  0
LINE
  5
153
330
144
100
AcDbEntity
  8
Tytuł (ISO)
100
AcDbLine
 10
250.0713910852681
 20
100.0
 30
0.0
 11
250.0713910852681
 21
110.0
 31
0.0
  0
LINE
  5
154
330
144
100
AcDbEntity
  8
Tytuł (ISO)
100
AcDbLine
 10
250.0713910852682
 20
119.9999999999993
 30
0.0
 11
250.0713910852682
 21
129.9999999999992
 31
0.0
  0
TEXT
  5
156
330
144
100
AcDbEntity
  8
Tytuł (ISO)
100
AcDbText
 10
101.0713910852681
 20
126.9999999701967
 30
0.0
 40
2.000000029802322
  1
Zaprojektowany przez
  7
Styl tekstu14
 11
101.0713910852681
 21
128.999999999999
 31
0.0
100
AcDbText
 73
     3
  0
TEXT
  5
158
330
144
100
AcDbEntity
  8
Tytuł (ISO)
100
AcDbText
 10
133.0713910852681
 20
126.9999999701968
 30
0.0
 40
2.000000029802322
  1
Kreślony przez
  7
Styl tekstu14
 11
133.0713910852681
 21
128.9999999999991
 31
0.0
100
AcDbText
 73
     3
  0
TEXT
  5
159
330
144
100
AcDbEntity
  8
Tytuł (ISO)
100
AcDbText
 10
158.0713910852681
 20
126.9999999701968
 30
0.0
 40
2.000000029802322
  1
Zatwierdzony przez
  7
Styl tekstu14
 11
158.0713910852681
 21
128.9999999999991
 31
0.0
100
AcDbText
 73
     3
  0
TEXT
  5
15A
330
144
100
AcDbEntity
  8
Tytuł (ISO)
100
AcDbText
 10
221.0713910852682
 20
126.9999999701977
 30
0.0
 40
2.000000029802322
  1
Data
  7
Styl tekstu14
 11
221.0713910852682
 21
129.0
 31
0.0
100
AcDbText
 73
     3
  0
TEXT
  5
15B
330
144
100
AcDbEntity
  8
Tytuł (ISO)
100
AcDbText
 10
255.9251519986328
 20
102.2499999999996
 30
0.0
 40
2.5
  1
1 / 1 
  7
Tekst notatki (ISO)
 72
     1
 11
260.0713910852681
 21
103.4999999999996
 31
0.0
100
AcDbText
 73
     2
  0
TEXT
  5
15C
330
144
100
AcDbEntity
  8
Tytuł (ISO)
100
AcDbText
 10
237.3584964474825
 20
106.9999999701969
 30
0.0
 40
2.000000029802322
  1
Wydanie
  7
Styl tekstu14
 72
     1
 11
242.5713910852682
 21
108.9999999999992
 31
0.0
100
AcDbText
 73
     3
  0
TEXT
  5
15D
330
144
100
AcDbEntity
  8
Tytuł (ISO)
100
AcDbText
 10
256.0807933092153
 20
106.9999999701969
 30
0.0
 40
2.000000029802322
  1
Arkusz
  7
Styl tekstu14
 72
     1
 11
260.0713910852681
 21
108.9999999999992
 31
0.0
100
AcDbText
 73
     3
  0
TEXT
  5
15E
330
144
100
AcDbEntity
  8
Tytuł (ISO)
100
AcDbText
 10
190.3977845534448
 20
126.9999999701969
 30
0.0
 40
2.000000029802322
  1
Data
  7
Styl tekstu14
 72
     2
 11
196.0713910852681
 21
128.9999999999992
 31
0.0
100
AcDbText
 73
     3
  0
ATTDEF
  5
15F
102
{ACAD_XDICTIONARY
360
D54
102
}
330
144
100
AcDbEntity
  8
Tytuł (ISO)
100
AcDbText
 10
222.5713910852681
 20
113.75
 30
0.0
 40
2.5
  1

  7
Tekst notatki (ISO)
 72
     1
 11
222.5713910852681
 21
115.0
 31
0.0
100
AcDbAttributeDefinition
  3
TYTUŁ
  2
TYTUŁ
 70
     0
 74
     2
  0
ATTDEF
  5
161
102
{ACAD_XDICTIONARY
360
D57
102
}
330
144
100
AcDbEntity
  8
Tytuł (ISO)
100
AcDbText
 10
137.4145052978323
 20
108.7081637900171
 30
0.0
 40
2.5
  1

  7
Tekst notatki (ISO)
 72
     1
 11
137.4145052978323
 21
109.9581637900171
 31
0.0
100
AcDbAttributeDefinition
  3
FIRMA
  2
FIRMA
 70
     0
 74
     2
  0
ATTDEF
  5
162
102
{ACAD_XDICTIONARY
360
D5A
102
}
330
144
100
AcDbEntity
  8
Tytuł (ISO)
100
AcDbText
 10
132.8178652289887
 20
121.7102081934175
 30
0.0
 40
2.5
  1
Pro-design
  7
Tekst notatki (ISO)
100
AcDbAttributeDefinition
  3
SPRAWDZIŁ
  2
SPRAWDZIŁ_001
 70
     0
  0
ATTDEF
  5
163
102
{ACAD_XDICTIONARY
360
D5D
102
}
330
144
100
AcDbEntity
  8
Tytuł (ISO)
100
AcDbText
 10
157.8178652289888
 20
121.0520483546004
 30
0.0
 40
2.5
  1
Muller
  7
Tekst notatki (ISO)
100
AcDbAttributeDefinition
  3
ZATWIERDZIŁ
  2
ZATWIERDZIŁ_001
 70
     0
  0
ATTDEF
  5
164
102
{ACAD_XDICTIONARY
360
D60
102
}
330
144
100
AcDbEntity
  8
Tytuł (ISO)
100
AcDbText
 10
196.0713910852681
 20
121.2871054398917
 30
0.0
 40
2.5
  1

  7
Tekst notatki (ISO)
 72
     2
 11
196.0713910852681
 21
120.9999999999991
 31
0.0
100
AcDbAttributeDefinition
  3
DATA ZATWIERDZENIA
  2
DATA_ZATWIERDZENIA
 70
     0
 74
     1
  0
ATTDEF
  5
165
102
{ACAD_XDICTIONARY
360
D63
102
}
330
144
100
AcDbEntity
  8
Tytuł (ISO)
100
AcDbText
 10
242.5713910852682
 20
102.2499999999998
 30
0.0
 40
2.5
  1

  7
Tekst notatki (ISO)
 72
     1
 11
242.5713910852682
 21
103.4999999999998
 31
0.0
100
AcDbAttributeDefinition
  3
NUMER WERSJI
  2
NUMER_WERSJI
 70
     0
 74
     2
  0
ATTDEF
  5
166
102
{ACAD_XDICTIONARY
360
D66
102
}
330
144
100
AcDbEntity
  8
Tytuł (ISO)
100
AcDbText
 10
220.8883823545765
 20
121.0520483546004
 30
0.0
 40
2.5
  1
2012-02-27
  7
Tekst notatki (ISO)
100
AcDbAttributeDefinition
  3
DATA UTWORZENIA
  2
DATA_UTWORZENIA_001
 70
     0
  0
ENDBLK
  5
146
330
144
100
AcDbEntity
  8
0
100
AcDbBlockEnd
  0
BLOCK
  5
611
330
610
100
AcDbEntity
  8
0
100
AcDbBlockBegin
  2
Lista części
 70
     0
 10
0.0
 20
0.0
 30
0.0
  3
Lista części
  1

  0
MTEXT
  5
613
330
610
100
AcDbEntity
  8
Symbol (ISO)
100
AcDbMText
 10
384.0120002883896
 20
46.26077788397681
 30
0.0
 40
2.000000029802322
 41
0.0
 71
     7
 72
     1
  1
66.001
  7
Tekst mały
 73
     1
 44
1.0
1001
ACAD
1000
MTEXTBEGIN
1070
    73
1070
     1
1070
    44
1040
1.0
1070
    74
1070
     0
1000
MTEXTEND
  0
MTEXT
  5
614
330
610
100
AcDbEntity
  8
Symbol (ISO)
100
AcDbMText
 10
368.9
 20
46.32317658960831
 30
0.0
 40
2.000000029802322
 41
0.0
 71
     7
 72
     1
  1
 
  7
Tekst mały
 73
     1
 44
1.0
1001
ACAD
1000
MTEXTBEGIN
1070
    73
1070
     1
1070
    44
1040
1.0
1070
    74
1070
     0
1000
MTEXTEND
  0
MTEXT
  5
615
330
610
100
AcDbEntity
  8
Symbol (ISO)
100
AcDbMText
 10
361.5487955780372
 20
46.319935065508
 30
0.0
 40
2.000000029802322
 41
0.0
 71
     7
 72
     1
  1
1
  7
Tekst mały
 73
     1
 44
1.0
1001
ACAD
1000
MTEXTBEGIN
1070
    73
1070
     1
1070
    44
1040
1.0
1070
    74
1070
     0
1000
MTEXTEND
  0
MTEXT
  5
616
330
610
100
AcDbEntity
  8
Symbol (ISO)
100
AcDbMText
 10
331.9
 20
46.32317658960831
 30
0.0
 40
2.000000029802322
 41
0.0
 71
     7
 72
     1
  1
 
  7
Tekst mały
 73
     1
 44
1.0
1001
ACAD
1000
MTEXTBEGIN
1070
    73
1070
     1
1070
    44
1040
1.0
1070
    74
1070
     0
1000
MTEXTEND
  0
MTEXT
  5
617
102
{ACAD_XDICTIONARY
360
126B
102
}
330
610
100
AcDbEntity
  8
Symbol (ISO)
100
AcDbMText
 10
287.0808004655432
 20
46.23646663948905
 30
0.0
 40
2.000000029802322
 41
0.0
 71
     7
 72
     1
  1
karuzela Tomek - z\U+0142o\U+017Cenie
  7
Tekst mały
 73
     1
 44
1.0
1001
ACAD
1000
MTEXTBEGIN
1070
    73
1070
     1
1070
    44
1040
1.0
1070
    74
1070
     0
1000
MTEXTEND
  0
MTEXT
  5
618
330
610
100
AcDbEntity
  8
Symbol (ISO)
100
AcDbMText
 10
279.5487955780372
 20
46.319935065508
 30
0.0
 40
2.000000029802322
 41
0.0
 71
     7
 72
     1
  1
1
  7
Tekst mały
 73
     1
 44
1.0
1001
ACAD
1000
MTEXTBEGIN
1070
    73
1070
     1
1070
    44
1040
1.0
1070
    74
1070
     0
1000
MTEXTEND
  0
LINE
  5
619
330
610
100
AcDbEntity
  8
Symbol (ISO)
100
AcDbLine
 10
410.0
 20
49.54408430159104
 30
0.0
 11
273.9999999999999
 21
49.54408430159104
 31
0.0
  0
LINE
  5
61A
330
610
100
AcDbEntity
  8
Symbol (ISO)
100
AcDbLine
 10
410.0
 20
45.10226890742791
 30
0.0
 11
273.9999999999999
 21
45.10226890742791
 31
0.0
  0
LINE
  5
61B
330
610
100
AcDbEntity
  8
Symbol (ISO)
100
AcDbLine
 10
410.0
 20
49.54408430159104
 30
0.0
 11
410.0
 21
45.10226890742791
 31
0.0
  0
LINE
  5
61C
330
610
100
AcDbEntity
  8
Symbol (ISO)
100
AcDbLine
 10
383.0
 20
49.54408430159104
 30
0.0
 11
383.0
 21
45.10226890742791
 31
0.0
  0
LINE
  5
61D
330
610
100
AcDbEntity
  8
Symbol (ISO)
100
AcDbLine
 10
368.0
 20
49.54408430159104
 30
0.0
 11
368.0
 21
45.10226890742791
 31
0.0
  0
LINE
  5
61E
330
610
100
AcDbEntity
  8
Symbol (ISO)
100
AcDbLine
 10
356.0
 20
49.54408430159104
 30
0.0
 11
356.0
 21
45.10226890742791
 31
0.0
  0
LINE
  5
61F
330
610
100
AcDbEntity
  8
Symbol (ISO)
100
AcDbLine
 10
331.0
 20
49.54408430159104
 30
0.0
 11
331.0
 21
45.10226890742791
 31
0.0
  0
LINE
  5
620
330
610
100
AcDbEntity
  8
Symbol (ISO)
100
AcDbLine
 10
285.9999999999999
 20
49.54408430159104
 30
0.0
 11
285.9999999999999
 21
45.10226890742791
 31
0.0
  0
LINE
  5
621
330
610
100
AcDbEntity
  8
Symbol (ISO)
100
AcDbLine
 10
273.9999999999999
 20
49.54408430159104
 30
0.0
 11
273.9999999999999
 21
45.10226890742791
 31
0.0
  0
LINE
  5
622
330
610
100
AcDbEntity
  8
Symbol (ISO)
100
AcDbLine
 10
410.0
 20
40.00000000000013
 30
0.0
 11
274.0
 21
40.00000000000013
 31
0.0
  0
LINE
  5
623
330
610
100
AcDbEntity
  8
Symbol (ISO)
100
AcDbLine
 10
410.0
 20
40.00000000000013
 30
0.0
 11
410.0
 21
45.10226890742791
 31
0.0
  0
MTEXT
  5
624
330
610
100
AcDbEntity
  8
Symbol (ISO)
100
AcDbMText
 10
384.3087529383567
 20
40.70247166007769
 30
0.0
 40
2.5
 41
0.0
 71
     7
 72
     1
  1
NR RYS./UWAGI
  7
Tekst notatki (ISO)
 73
     1
 44
1.0
1001
ACAD
1000
MTEXTBEGIN
1070
    73
1070
     1
1070
    44
1040
1.0
1070
    74
1070
     0
1000
MTEXTEND
  0
LINE
  5
625
330
610
100
AcDbEntity
  8
Symbol (ISO)
100
AcDbLine
 10
383.0
 20
40.00000000000013
 30
0.0
 11
383.0
 21
45.10226890742791
 31
0.0
  0
MTEXT
  5
626
330
610
100
AcDbEntity
  8
Symbol (ISO)
100
AcDbMText
 10
371.8693281851677
 20
41.30113445371401
 30
0.0
 40
2.5
 41
0.0
 71
     7
 72
     1
  1
MAT.
  7
Tekst notatki (ISO)
 73
     1
 44
1.0
1001
ACAD
1000
MTEXTBEGIN
1070
    73
1070
     1
1070
    44
1040
1.0
1070
    74
1070
     0
1000
MTEXTEND
  0
LINE
  5
627
330
610
100
AcDbEntity
  8
Symbol (ISO)
100
AcDbLine
 10
368.0
 20
40.00000000000013
 30
0.0
 11
368.0
 21
45.10226890742791
 31
0.0
  0
MTEXT
  5
628
330
610
100
AcDbEntity
  8
Symbol (ISO)
100
AcDbMText
 10
358.6849290815337
 20
41.23427867107105
 30
0.0
 40
2.5
 41
0.0
 71
     7
 72
     1
  1
SZT.
  7
Tekst notatki (ISO)
 73
     1
 44
1.0
1001
ACAD
1000
MTEXTBEGIN
1070
    73
1070
     1
1070
    44
1040
1.0
1070
    74
1070
     0
1000
MTEXTEND
  0
LINE
  5
629
330
610
100
AcDbEntity
  8
Symbol (ISO)
100
AcDbLine
 10
356.0
 20
40.00000000000013
 30
0.0
 11
356.0
 21
45.10226890742791
 31
0.0
  0
MTEXT
  5
62A
330
610
100
AcDbEntity
  8
Symbol (ISO)
100
AcDbMText
 10
336.9394621487731
 20
41.30113445371401
 30
0.0
 40
2.5
 41
0.0
 71
     7
 72
     1
  1
WYMIAR
  7
Tekst notatki (ISO)
 73
     1
 44
1.0
1001
ACAD
1000
MTEXTBEGIN
1070
    73
1070
     1
1070
    44
1040
1.0
1070
    74
1070
     0
1000
MTEXTEND
  0
LINE
  5
62B
330
610
100
AcDbEntity
  8
Symbol (ISO)
100
AcDbLine
 10
331.0
 20
40.00000000000013
 30
0.0
 11
331.0
 21
45.10226890742791
 31
0.0
  0
MTEXT
  5
62C
102
{ACAD_XDICTIONARY
360
126D
102
}
330
610
100
AcDbEntity
  8
Symbol (ISO)
100
AcDbMText
 10
296.9033641062644
 20
40.13824962228548
 30
0.0
 40
2.5
 41
0.0
 71
     7
 72
     1
  1
NAZWA CZ\U+0118\U+015ACI
  7
Tekst notatki (ISO)
 73
     1
 44
1.0
1001
ACAD
1000
MTEXTBEGIN
1070
    73
1070
     1
1070
    44
1040
1.0
1070
    74
1070
     0
1000
MTEXTEND
  0
LINE
  5
62D
330
610
100
AcDbEntity
  8
Symbol (ISO)
100
AcDbLine
 10
285.9999999999999
 20
40.00000000000013
 30
0.0
 11
285.9999999999999
 21
45.10226890742791
 31
0.0
  0
MTEXT
  5
62E
330
610
100
AcDbEntity
  8
Symbol (ISO)
100
AcDbMText
 10
278.0356570921806
 20
41.30113445371401
 30
0.0
 40
2.5
 41
0.0
 71
     7
 72
     1
  1
NR
  7
Tekst notatki (ISO)
 73
     1
 44
1.0
1001
ACAD
1000
MTEXTBEGIN
1070
    73
1070
     1
1070
    44
1040
1.0
1070
    74
1070
     0
1000
MTEXTEND
  0
LINE
  5
62F
330
610
100
AcDbEntity
  8
Symbol (ISO)
100
AcDbLine
 10
273.9999999999999
 20
40.00000000000013
 30
0.0
 11
273.9999999999999
 21
45.10226890742791
 31
0.0
  0
ENDBLK
  5
612
330
610
100
AcDbEntity
  8
0
100
AcDbBlockEnd
  0
BLOCK
  5
635
330
634
100
AcDbEntity
  8
0
100
AcDbBlockBegin
  2
*D7
 70
     1
 10
0.0
 20
0.0
 30
0.0
  3
*D7
  1

  0
LINE
  5
D94
330
634
100
AcDbEntity
  8
0
100
AcDbLine
 10
5566.891342621222
 20
2229.285774828831
 30
0.0
 11
1600.289272662547
 21
5591.735479820646
 31
0.0
  0
SOLID
  5
D95
330
634
100
AcDbEntity
  8
0
100
AcDbTrace
 10
5574.974154412068
 20
2238.820875958539
 30
0.0
 11
5558.808530830376
 21
2219.750673699123
 31
0.0
 12
5624.101949399472
 22
2180.788904083756
 32
0.0
 13
5624.101949399472
 23
2180.788904083756
 33
0.0
  0
SOLID
  5
D96
330
634
100
AcDbEntity
  8
0
100
AcDbTrace
 10
1608.372084453393
 20
5601.270580950355
 30
0.0
 11
1592.206460871702
 21
5582.200378690939
 31
0.0
 12
1543.078665884298
 22
5640.232350565722
 32
0.0
 13
1543.078665884298
 23
5640.232350565722
 33
0.0
  0
MTEXT
  5
D97
102
{ACAD_XDICTIONARY
360
1271
102
}
330
634
100
AcDbEntity
  8
0
100
AcDbMText
 10
2158.141497986128
 20
5297.077210174197
 30
0.0
 40
105.0
 41
0.0
 71
     2
 72
     1
  1
\A1;\U+22055350
  7
Tekst etykiety (ISO)
 11
0.7628080903766685
 21
-0.6466249432676569
 31
0.0
 73
     1
 44
1.0
1001
ACAD
1000
MTEXTBEGIN
1070
    73
1070
     1
1070
    44
1040
1.0
1070
    74
1070
     0
1000
MTEXTEND
  0
POINT
  5
D98
330
634
100
AcDbEntity
  8
Defpoints
 62
     0
100
AcDbPoint
 10
1543.078665884298
 20
5640.232350565722
 30
0.0
  0
POINT
  5
D99
330
634
100
AcDbEntity
  8
Defpoints
 62
     0
100
AcDbPoint
 10
5624.101949399472
 20
2180.788904083756
 30
0.0
  0
ENDBLK
  5
636
330
634
100
AcDbEntity
  8
0
100
AcDbBlockEnd
  0
BLOCK
  5
6EB
330
6EA
100
AcDbEntity
  8
0
100
AcDbBlockBegin
  2
*D8
 70
     1
 10
0.0
 20
0.0
 30
0.0
  3
*D8
  1

  0
LINE
  5
D8C
330
6EA
100
AcDbEntity
  8
0
100
AcDbLine
 10
3094.490576986461
 20
3562.974365227165
 30
0.0
 11
4072.690038297319
 21
4258.046889422404
 31
0.0
  0
LINE
  5
D8D
330
6EA
100
AcDbEntity
  8
0
100
AcDbLine
 10
4133.827504629248
 20
4301.488922184608
 30
0.0
 11
4576.603594602474
 21
4616.109310646654
 31
0.0
  0
LINE
  5
D8E
330
6EA
100
AcDbEntity
  8
0
100
AcDbLine
 10
4576.603594602474
 20
4616.109310646654
 30
0.0
 11
5017.114691275942
 21
4616.109310646655
 31
0.0
  0
SOLID
  5
D8F
330
6EA
100
AcDbEntity
  8
0
100
AcDbTrace
 10
3087.25023819276
 20
3573.163942949153
 30
0.0
 11
3101.730915780161
 21
3552.784787505177
 31
0.0
 12
3033.353110654532
 22
3519.532332464963
 32
0.0
 13
3033.353110654532
 23
3519.532332464963
 33
0.0
  0
SOLID
  5
D90
330
6EA
100
AcDbEntity
  8
0
100
AcDbTrace
 10
4065.449699503619
 20
4268.236467144393
 30
0.0
 11
4079.930377091019
 21
4247.857311700417
 31
0.0
 12
4133.827504629248
 22
4301.488922184608
 32
0.0
 13
4133.827504629248
 23
4301.488922184608
 33
0.0
  0
MTEXT
  5
D91
102
{ACAD_XDICTIONARY
360
126F
102
}
330
6EA
100
AcDbEntity
  8
0
100
AcDbMText
 10
4808.289142939208
 20
4752.06276221555
 30
0.0
 40
105.0
 41
0.0
 71
     2
 72
     1
  1
\A1;\U+22051350
  7
Tekst etykiety (ISO)
 73
     1
 44
1.0
1001
ACAD
1000
MTEXTBEGIN
1070
    73
1070
     1
1070
    44
1040
1.0
1070
    74
1070
     0
1000
MTEXTEND
  0
POINT
  5
D92
330
6EA
100
AcDbEntity
  8
Defpoints
 62
     0
100
AcDbPoint
 10
4133.827504629248
 20
4301.488922184608
 30
0.0
  0
POINT
  5
D93
330
6EA
100
AcDbEntity
  8
Defpoints
 62
     0
100
AcDbPoint
 10
3033.353110654532
 20
3519.532332464963
 30
0.0
  0
ENDBLK
  5
6EC
330
6EA
100
AcDbEntity
  8
0
100
AcDbBlockEnd
  0
BLOCK
  5
1063
330
1061
100
AcDbEntity
  8
0
100
AcDbBlockBegin
  2
GENAXEH
 70
     0
 10
0.0
 20
0.0
 30
0.0
  3
GENAXEH
  1

  0
LINE
  5
1062
330
1061
100
AcDbEntity
  8
0
100
AcDbLine
 10
-1.0
 20
0.0
 30
0.0
 11
1.0
 21
0.0
 31
0.0
  0
ENDBLK
  5
1064
330
1061
100
AcDbEntity
  8
0
100
AcDbBlockEnd
  0
BLOCK
  5
114C
330
114B
100
AcDbEntity
  8
0
100
AcDbBlockBegin
  2
2208_Karuzela-Tomek
 70
     0
 10
0.0
 20
0.0
 30
0.0
  3
2208_Karuzela-Tomek
  1

  0
CIRCLE
  5
114E
330
114B
100
AcDbEntity
  8
Widoczne (ISO)
100
AcDbCircle
 10
-0.0000000000013642
 20
-0.0000000001873559
 30
0.0
 40
675.0000000000023
  0
CIRCLE
  5
114F
330
114B
100
AcDbEntity
  8
Widoczne wąskie (ISO)
100
AcDbCircle
 10
-0.0000000000013642
 20
-0.0000000001869012
 30
0.0
 40
672.0000000000021
  0
SPLINE
  5
1150
330
114B
100
AcDbEntity
  8
Widoczne (ISO)
100
AcDbSpline
210
0.0
220
0.0
230
1.0
 70
    24
 71
     3
 72
     8
 73
     4
 74
     0
 42
0.0000000001
 43
0.0000000001
 40
-0.1718819826057963
 40
-0.1718819826057963
 40
-0.1718819826057963
 40
-0.1718819826057963
 40
-0.0000000000000053
 40
0.0
 40
0.0
 40
0.0
 10
379.8575451854858
 20
-509.9682817601924
 30
0.0
 10
379.8999690029209
 20
-510.0286483347599
 30
0.0
 10
379.9193199121969
 20
-510.0561835302805
 30
0.0
 10
379.9193199121969
 20
-510.056183530281
 30
0.0
  0
SPLINE
  5
1151
330
114B
100
AcDbEntity
  8
Widoczne (ISO)
100
AcDbSpline
210
0.0
220
0.0
230
1.0
 70
    24
 71
     3
 72
    24
 73
    20
 74
     0
 42
0.0000000001
 43
0.0000000001
 40
0.0
 40
0.0
 40
0.0
 40
0.0
 40
0.2774594849745271
 40
0.2774594849745271
 40
0.5549189699490542
 40
0.5549189699490542
 40
0.8327270263604164
 40
0.8327270263604164
 40
1.110535082771778
 40
1.110535082771778
 40
1.388776016266673
 40
1.388776016266673
 40
1.667016949761567
 40
1.667016949761567
 40
1.945634589513335
 40
1.945634589513335
 40
2.224252229265102
 40
2.224252229265102
 40
2.227746829159674
 40
2.227746829159674
 40
2.227746829159674
 40
2.227746829159674
 10
-406.6605843152419
 20
-489.0022179544862
 30
0.0
 10
-406.6605843152419
 20
-489.0022179544862
 30
0.0
 10
-406.6072023589931
 20
-488.9280205364116
 30
0.0
 10
-406.3770548277898
 20
-488.6081305625038
 30
0.0
 10
-406.2002922779566
 20
-488.3624422113912
 30
0.0
 10
-405.7861264949142
 20
-487.7867789364558
 30
0.0
 10
-405.5104503517527
 20
-487.4036071779678
 30
0.0
 10
-404.8544771549955
 20
-486.4918474571604
 30
0.0
 10
-404.4741864161001
 20
-485.9632682718606
 30
0.0
 10
-403.7081896658069
 20
-484.8985830276465
 30
0.0
 10
-403.2517949726525
 20
-484.2642243372838
 30
0.0
 10
-402.269119125835
 20
-482.8983693600257
 30
0.0
 10
-401.7428423761502
 20
-482.1668791943729
 30
0.0
 10
-400.7410997046099
 20
-480.7745225812682
 30
0.0
 10
-400.1732680226914
 20
-479.9852737852338
 30
0.0
 10
-399.013059627704
 20
-478.3726602096776
 30
0.0
 10
-398.4206836366307
 20
-477.5492964336812
 30
0.0
 10
-397.8714908957254
 20
-476.7859545432011
 30
0.0
 10
-397.8646800349557
 20
-476.7764878934281
 30
0.0
 10
-397.8578614338617
 20
-476.7670104851122
 30
0.0
  0
SPLINE
  5
1152
330
114B
100
AcDbEntity
  8
Widoczne (ISO)
100
AcDbSpline
210
0.0
220
0.0
230
1.0
 70
    24
 71
     3
 72
    24
 73
    20
 74
     0
 42
0.0000000001
 43
0.0000000001
 40
6.669498408039211
 40
6.669498408039211
 40
6.669498408039211
 40
6.669498408039211
 40
6.672993007935859
 40
6.672993007935859
 40
6.951610647687626
 40
6.951610647687626
 40
7.230228287439394
 40
7.230228287439394
 40
7.508469220934289
 40
7.508469220934289
 40
7.786710154429183
 40
7.786710154429183
 40
8.064518210840542
 40
8.064518210840542
 40
8.342326267251902
 40
8.342326267251902
 40
8.619785752226432
 40
8.619785752226432
 40
8.725363360395792
 40
8.725363360395792
 40
8.725363360395792
 40
8.725363360395792
 10
371.7801451840906
 20
-497.3702683499573
 30
0.0
 10
371.7864469610154
 20
-497.3800969916237
 30
0.0
 10
371.7927415843032
 20
-497.3899144760348
 30
0.0
 10
372.3003075926858
 20
-498.1815458647338
 30
0.0
 10
372.8477837242044
 20
-499.0354235537747
 30
0.0
 10
373.9200527111552
 20
-500.7078006893184
 30
0.0
 10
374.4448448993166
 20
-501.5262990951064
 30
0.0
 10
375.3706592652866
 20
-502.9702565313924
 30
0.0
 10
375.8570462279031
 20
-503.7288557683427
 30
0.0
 10
376.7652389623468
 20
-505.1453294164994
 30
0.0
 10
377.1870406640001
 20
-505.8031974796099
 30
0.0
 10
377.8949777578819
 20
-506.9073400255761
 30
0.0
 10
378.2464438971579
 20
-507.4555083885493
 30
0.0
 10
378.8526968067149
 20
-508.4010579816449
 30
0.0
 10
379.1074777409262
 20
-508.7984301094725
 30
0.0
 10
379.49025132413
 20
-509.395427501387
 30
0.0
 10
379.6536159412621
 20
-509.6502210781618
 30
0.0
 10
379.8004359763604
 20
-509.8792106999144
 30
0.0
 10
379.8330330909635
 20
-509.9300511791311
 30
0.0
 10
379.8575451854858
 20
-509.9682817601924
 30
0.0
  0
ARC
  5
1153
330
114B
100
AcDbEntity
  8
Widoczne (ISO)
100
AcDbCircle
 10
0.0
 20
-0.0000000000231921
 30
0.0
 40
635.9999999999987
100
AcDbArc
 50
306.6808704014681
 51
230.2526505188017
  0
ARC
  5
1154
330
114B
100
AcDbEntity
  8
Widoczne (ISO)
100
AcDbCircle
 10
0.0
 20
-0.0000000000231921
 30
0.0
 40
605.9999999999986
100
AcDbArc
 50
306.8795172129305
 51
230.0535920166259
  0
LINE
  5
1155
330
114B
100
AcDbEntity
  8
Widoczne (ISO)
100
AcDbLine
 10
-397.8578614301118
 20
-476.7670104799008
 30
0.0
 11
-389.0772542754334
 21
-464.5625424201685
 31
0.0
  0
LINE
  5
1156
330
114B
100
AcDbEntity
  8
Widoczne wąskie (ISO)
100
AcDbLine
 10
-382.2454261045182
 20
-506.4352796586526
 30
0.0
 11
-364.7249715707344
 21
-482.0829969539527
 31
0.0
  0
ARC
  5
1157
330
114B
100
AcDbEntity
  8
Widoczne (ISO)
100
AcDbCircle
 10
-324.7806334282277
 20
-529.3000473738884
 30
0.0
 40
14.99999999999996
100
AcDbArc
 50
234.2665546147766
 51
54.26655461477662
  0
LINE
  5
1158
330
114B
100
AcDbEntity
  8
Widoczne (ISO)
100
AcDbLine
 10
-382.2454261045182
 20
-506.4352796586522
 30
0.0
 11
-406.5977088092177
 21
-488.914825124868
 31
0.0
  0
LINE
  5
1159
330
114B
100
AcDbEntity
  8
Widoczne (ISO)
100
AcDbLine
 10
-364.7249715707344
 20
-482.0829969539527
 30
0.0
 11
-389.0772542754334
 21
-464.5625424201685
 31
0.0
  0
LINE
  5
115A
330
114B
100
AcDbEntity
  8
Widoczne (ISO)
100
AcDbLine
 10
-382.2454261045182
 20
-506.4352796586526
 30
0.0
 11
-333.5408606951196
 21
-541.4761887262384
 31
0.0
  0
LINE
  5
115B
330
114B
100
AcDbEntity
  8
Widoczne (ISO)
100
AcDbLine
 10
-316.0204061613354
 20
-517.1239060215393
 30
0.0
 11
-364.7249715707344
 21
-482.0829969539532
 31
0.0
  0
LINE
  5
115C
330
114B
100
AcDbEntity
  8
Widoczne (ISO)
100
AcDbLine
 10
363.6650748370343
 20
-484.713501935088
 30
0.0
 11
371.7801451806244
 21
-497.370268344553
 31
0.0
  0
LINE
  5
115D
330
114B
100
AcDbEntity
  8
Widoczne wąskie (ISO)
100
AcDbLine
 10
338.41029501193
 20
-500.9059722835391
 30
0.0
 11
354.6027653603805
 21
-526.1607521086435
 31
0.0
  0
ARC
  5
115E
330
114B
100
AcDbEntity
  8
Widoczne (ISO)
100
AcDbCircle
 10
295.9969705359453
 20
-545.9183028930111
 30
0.0
 40
14.99999999999997
100
AcDbArc
 50
122.6665546147925
 51
302.6665546147925
  0
LINE
  5
115F
330
114B
100
AcDbEntity
  8
Widoczne (ISO)
100
AcDbLine
 10
338.41029501193
 20
-500.9059722835391
 30
0.0
 11
363.6650748370343
 21
-484.7135019350876
 31
0.0
  0
LINE
  5
1160
330
114B
100
AcDbEntity
  8
Widoczne (ISO)
100
AcDbLine
 10
354.6027653603805
 20
-526.1607521086435
 30
0.0
 11
379.8575451854854
 21
-509.9682817601928
 31
0.0
  0
LINE
  5
1161
330
114B
100
AcDbEntity
  8
Widoczne (ISO)
100
AcDbLine
 10
338.41029501193
 20
-500.9059722835391
 30
0.0
 11
287.9007353617199
 21
-533.2909129804589
 31
0.0
  0
LINE
  5
1162
330
114B
100
AcDbEntity
  8
Widoczne (ISO)
100
AcDbLine
 10
304.0932057101709
 20
-558.5456928055641
 30
0.0
 11
354.6027653603805
 21
-526.1607521086443
 31
0.0
  0
ARC
  5
1163
330
114B
100
AcDbEntity
  8
Widoczne (ISO)
100
AcDbCircle
 10
-324.7806334282277
 20
-529.3000473740348
 30
0.0
 40
24.99999999999995
100
AcDbArc
 50
181.1364522606152
 51
358.9924997051191
  0
ARC
  5
1164
330
114B
100
AcDbEntity
  8
Widoczne (ISO)
100
AcDbCircle
 10
295.9969705359458
 20
-545.9183028931565
 30
0.0
 40
24.99999999999995
100
AcDbArc
 50
176.8207529085739
 51
355.7966569689325
  0
ARC
  5
1165
330
114B
100
AcDbEntity
  8
Widoczne (ISO)
100
AcDbCircle
 10
620.7776039641726
 20
-16.61825551930906
 30
0.0
 40
24.99999999999995
100
AcDbArc
 50
304.4192812804212
 51
52.51382794913258
  0
ARC
  5
1166
330
114B
100
AcDbEntity
  8
Widoczne (ISO)
100
AcDbCircle
 10
620.7776039641735
 20
-16.61825551930997
 30
0.0
 40
25.00000000000128
100
AcDbArc
 50
126.2647704050805
 51
133.3214755527193
  0
ARC
  5
1167
330
114B
100
AcDbEntity
  8
Widoczne (ISO)
100
AcDbCircle
 10
620.7776039641726
 20
-16.61825551930997
 30
0.0
 40
24.99999999999882
100
AcDbArc
 50
224.1689403287173
 51
230.6683388244641
  0
ARC
  5
1168
330
114B
100
AcDbEntity
  8
Widoczne (ISO)
100
AcDbCircle
 10
324.7806334282268
 20
529.3000473736606
 30
0.0
 40
24.99999999999995
100
AcDbArc
 50
4.419281280433545
 51
112.5138279491492
  0
ARC
  5
1169
330
114B
100
AcDbEntity
  8
Widoczne (ISO)
100
AcDbCircle
 10
324.7806334282263
 20
529.3000473736606
 30
0.0
 40
24.9999999999992
100
AcDbArc
 50
186.2647704050821
 51
194.9394443270304
  0
ARC
  5
116A
330
114B
100
AcDbEntity
  8
Widoczne (ISO)
100
AcDbCircle
 10
324.7806334282268
 20
529.3000473736606
 30
0.0
 40
24.9999999999996
100
AcDbArc
 50
280.7215807955047
 51
290.6683388244747
  0
ARC
  5
116B
330
114B
100
AcDbEntity
  8
Widoczne (ISO)
100
AcDbCircle
 10
-295.9969705359458
 20
545.9183028927832
 30
0.0
 40
24.99999999999994
100
AcDbArc
 50
64.41928128042461
 51
172.5138279491453
  0
ARC
  5
116C
330
114B
100
AcDbEntity
  8
Widoczne (ISO)
100
AcDbCircle
 10
-295.9969705359295
 20
545.9183028927522
 30
0.0
 40
24.99999999996429
100
AcDbArc
 50
297.1266057078736
 51
298.5400294766538
  0
ARC
  5
116D
330
114B
100
AcDbEntity
  8
Widoczne (ISO)
100
AcDbCircle
 10
-620.7776039641735
 20
16.61825551893616
 30
0.0
 40
24.99999999999995
100
AcDbArc
 50
124.4192812804064
 51
232.5138279491326
  0
ARC
  5
116E
330
114B
100
AcDbEntity
  8
Widoczne (ISO)
100
AcDbCircle
 10
-620.7776039641621
 20
16.61825551893025
 30
0.0
 40
24.99999999998727
100
AcDbArc
 50
331.3261862732428
 51
333.4921993740148
  0
LINE
  5
116F
330
114B
100
AcDbEntity
  8
Widoczne (ISO)
100
AcDbLine
 10
328.0331728010492
 20
509.5392404339186
 30
0.0
 11
326.3269114639579
 21
506.7585198071333
 31
0.0
  0
LINE
  5
1170
330
114B
100
AcDbEntity
  8
Widoczne (ISO)
100
AcDbLine
 10
321.6547139753079
 20
499.1441669253786
 30
0.0
 11
316.4154680773718
 21
490.6056864356109
 31
0.0
  0
LINE
  5
1171
330
114B
100
AcDbEntity
  8
Widoczne (ISO)
100
AcDbLine
 10
300.2514123390397
 20
464.2628735106423
 30
0.0
 11
300.0285433706931
 21
463.8996604881826
 31
0.0
  0
LINE
  5
1172
330
114B
100
AcDbEntity
  8
Widoczne (ISO)
100
AcDbLine
 10
272.7165900991217
 20
419.3889456468382
 30
0.0
 11
272.635489487509
 21
419.2567747192938
 31
0.0
  0
LINE
  5
1173
330
114B
100
AcDbEntity
  8
Widoczne wąskie (ISO)
100
AcDbLine
 10
268.6872331062905
 20
424.2945988441711
 30
0.0
 11
268.8687658082363
 21
424.5904455106588
 31
0.0
  0
LINE
  5
1174
330
114B
100
AcDbEntity
  8
Widoczne wąskie (ISO)
100
AcDbLine
 10
292.6673595737511
 20
463.3753837459058
 30
0.0
 11
292.7741564765497
 21
463.5494323186735
 31
0.0
  0
LINE
  5
1175
330
114B
100
AcDbEntity
  8
Widoczne wąskie (ISO)
100
AcDbLine
 10
321.42379592611
 20
510.2401951201041
 30
0.0
 11
322.9715068839905
 21
512.762523729048
 31
0.0
  0
LINE
  5
1176
330
114B
100
AcDbEntity
  8
Widoczne (ISO)
100
AcDbLine
 10
232.7301766845821
 20
446.2060807467037
 30
0.0
 11
232.6768151626366
 21
446.1191166448247
 31
0.0
  0
ARC
  5
1177
330
114B
100
AcDbEntity
  8
Widoczne (ISO)
100
AcDbCircle
 10
318.0457252572637
 20
512.607836098719
 30
0.0
 40
2.999960666408782
100
AcDbArc
 50
82.16133444731408
 51
152.0419463858087
  0
CIRCLE
  5
1178
330
114B
100
AcDbEntity
  8
Widoczne (ISO)
100
AcDbCircle
 10
0.0
 20
-0.0000000000009095
 30
0.0
 40
190.0000000000001
  0
CIRCLE
  5
1179
330
114B
100
AcDbEntity
  8
Widoczne wąskie (ISO)
100
AcDbCircle
 10
0.0
 20
0.0
 30
0.0
 40
187.0
  0
LINE
  5
117A
330
114B
100
AcDbEntity
  8
Widoczne (ISO)
100
AcDbLine
 10
-43.14899999999852
 20
73.50400000000354
 30
0.0
 11
-43.14899999999852
 21
75.75400000000354
 31
0.0
  0
LINE
  5
117B
330
114B
100
AcDbEntity
  8
Widoczne (ISO)
100
AcDbLine
 10
-43.14899999999852
 20
70.25400000000354
 30
0.0
 11
-43.14899999999852
 21
72.50400000000354
 31
0.0
  0
LINE
  5
117C
330
114B
100
AcDbEntity
  8
Widoczne (ISO)
100
AcDbLine
 10
-42.14899999999807
 20
75.75400000000354
 30
0.0
 11
-42.14899999999807
 21
73.50400000000354
 31
0.0
  0
LINE
  5
117D
330
114B
100
AcDbEntity
  8
Widoczne (ISO)
100
AcDbLine
 10
-42.14899999999807
 20
72.50400000000354
 30
0.0
 11
-42.14899999999807
 21
70.25400000000354
 31
0.0
  0
LINE
  5
117E
330
114B
100
AcDbEntity
  8
Widoczne (ISO)
100
AcDbLine
 10
-42.14899999999807
 20
70.25400000000354
 30
0.0
 11
-43.14899999999852
 21
70.25400000000354
 31
0.0
  0
LINE
  5
117F
330
114B
100
AcDbEntity
  8
Widoczne (ISO)
100
AcDbLine
 10
-42.14899999999807
 20
72.50400000000218
 30
0.0
 11
-43.14899999999852
 21
72.50400000000218
 31
0.0
  0
LINE
  5
1180
330
114B
100
AcDbEntity
  8
Widoczne (ISO)
100
AcDbLine
 10
-43.14899999999852
 20
73.50400000000263
 30
0.0
 11
-42.14899999999807
 21
73.50400000000263
 31
0.0
  0
LINE
  5
1181
330
114B
100
AcDbEntity
  8
Widoczne (ISO)
100
AcDbLine
 10
-43.14899999999852
 20
75.75400000000354
 30
0.0
 11
-42.14899999999807
 21
75.75400000000354
 31
0.0
  0
LINE
  5
1182
330
114B
100
AcDbEntity
  8
Widoczne (ISO)
100
AcDbLine
 10
-39.89899999999807
 20
72.50400000000354
 30
0.0
 11
-42.14899999999807
 21
72.50400000000354
 31
0.0
  0
LINE
  5
1183
330
114B
100
AcDbEntity
  8
Widoczne (ISO)
100
AcDbLine
 10
-43.14899999999852
 20
72.50400000000354
 30
0.0
 11
-45.39899999999852
 21
72.50400000000354
 31
0.0
  0
LINE
  5
1184
330
114B
100
AcDbEntity
  8
Widoczne (ISO)
100
AcDbLine
 10
-42.14899999999807
 20
73.50400000000354
 30
0.0
 11
-39.89899999999807
 21
73.50400000000354
 31
0.0
  0
LINE
  5
1185
330
114B
100
AcDbEntity
  8
Widoczne (ISO)
100
AcDbLine
 10
-45.39899999999852
 20
73.50400000000354
 30
0.0
 11
-43.14899999999852
 21
73.50400000000354
 31
0.0
  0
LINE
  5
1186
330
114B
100
AcDbEntity
  8
Widoczne (ISO)
100
AcDbLine
 10
-39.89899999999807
 20
73.50400000000354
 30
0.0
 11
-39.89899999999807
 21
72.50400000000354
 31
0.0
  0
LINE
  5
1187
330
114B
100
AcDbEntity
  8
Widoczne (ISO)
100
AcDbLine
 10
-42.14899999999807
 20
73.50400000000263
 30
0.0
 11
-42.14899999999807
 21
72.50400000000218
 31
0.0
  0
LINE
  5
1188
330
114B
100
AcDbEntity
  8
Widoczne (ISO)
100
AcDbLine
 10
-43.14899999999852
 20
73.50400000000263
 30
0.0
 11
-43.14899999999852
 21
72.50400000000218
 31
0.0
  0
LINE
  5
1189
330
114B
100
AcDbEntity
  8
Widoczne (ISO)
100
AcDbLine
 10
-45.39899999999852
 20
72.50400000000354
 30
0.0
 11
-45.39899999999852
 21
73.50400000000354
 31
0.0
  0
CIRCLE
  5
118A
330
114B
100
AcDbEntity
  8
Widoczne (ISO)
100
AcDbCircle
 10
-42.64899999999807
 20
73.00400000000355
 30
0.0
 40
6.200000000000001
  0
LINE
  5
118B
330
114B
100
AcDbEntity
  8
Widoczne (ISO)
100
AcDbLine
 10
85.23083127976997
 20
0.6161301478982751
 30
0.0
 11
87.17938843828505
 21
-0.508869852101725
 31
0.0
  0
LINE
  5
118C
330
114B
100
AcDbEntity
  8
Widoczne (ISO)
100
AcDbLine
 10
82.4162487174699
 20
2.241130147898275
 30
0.0
 11
84.36480587598499
 21
1.116130147898275
 31
0.0
  0
LINE
  5
118D
330
114B
100
AcDbEntity
  8
Widoczne (ISO)
100
AcDbLine
 10
86.6793884382846
 20
-1.374895255886713
 30
0.0
 11
84.73083127976996
 21
-0.2498952558867131
 31
0.0
  0
LINE
  5
118E
330
114B
100
AcDbEntity
  8
Widoczne (ISO)
100
AcDbLine
 10
83.86480587598498
 20
0.2501047441137416
 30
0.0
 11
81.9162487174699
 21
1.375104744113741
 31
0.0
  0
LINE
  5
118F
330
114B
100
AcDbEntity
  8
Widoczne (ISO)
100
AcDbLine
 10
81.9162487174699
 20
1.375104744113741
 30
0.0
 11
82.4162487174699
 21
2.241130147898275
 31
0.0
  0
LINE
  5
1190
330
114B
100
AcDbEntity
  8
Widoczne (ISO)
100
AcDbLine
 10
83.86480587598498
 20
0.2501047441128321
 30
0.0
 11
84.36480587598499
 21
1.116130147897365
 31
0.0
  0
LINE
  5
1191
330
114B
100
AcDbEntity
  8
Widoczne (ISO)
100
AcDbLine
 10
85.23083127976997
 20
0.6161301478969108
 30
0.0
 11
84.73083127976996
 21
-0.2498952558871679
 31
0.0
  0
LINE
  5
1192
330
114B
100
AcDbEntity
  8
Widoczne (ISO)
100
AcDbLine
 10
87.17938843828505
 20
-0.508869852101725
 30
0.0
 11
86.6793884382846
 21
-1.374895255886713
 31
0.0
  0
LINE
  5
1193
330
114B
100
AcDbEntity
  8
Widoczne (ISO)
100
AcDbLine
 10
82.73980587598499
 20
-1.698452414401344
 30
0.0
 11
83.86480587598498
 21
0.2501047441137416
 31
0.0
  0
LINE
  5
1194
330
114B
100
AcDbEntity
  8
Widoczne (ISO)
100
AcDbLine
 10
84.36480587598499
 20
1.116130147898275
 30
0.0
 11
85.48980587598498
 21
3.064687306413361
 31
0.0
  0
LINE
  5
1195
330
114B
100
AcDbEntity
  8
Widoczne (ISO)
100
AcDbLine
 10
84.73083127976996
 20
-0.2498952558867131
 30
0.0
 11
83.60583127976951
 21
-2.198452414401799
 31
0.0
  0
LINE
  5
1196
330
114B
100
AcDbEntity
  8
Widoczne (ISO)
100
AcDbLine
 10
86.35583127976998
 20
2.564687306413361
 30
0.0
 11
85.23083127976997
 21
0.6161301478982751
 31
0.0
  0
LINE
  5
1197
330
114B
100
AcDbEntity
  8
Widoczne (ISO)
100
AcDbLine
 10
83.60583127976951
 20
-2.198452414401799
 30
0.0
 11
82.73980587598499
 21
-1.698452414401344
 31
0.0
  0
LINE
  5
1198
330
114B
100
AcDbEntity
  8
Widoczne (ISO)
100
AcDbLine
 10
84.73083127976996
 20
-0.2498952558871679
 30
0.0
 11
83.86480587598498
 21
0.2501047441128321
 31
0.0
  0
LINE
  5
1199
330
114B
100
AcDbEntity
  8
Widoczne (ISO)
100
AcDbLine
 10
85.23083127976997
 20
0.6161301478969108
 30
0.0
 11
84.36480587598499
 21
1.116130147897365
 31
0.0
  0
LINE
  5
119A
330
114B
100
AcDbEntity
  8
Widoczne (ISO)
100
AcDbLine
 10
85.48980587598498
 20
3.064687306413361
 30
0.0
 11
86.35583127976998
 21
2.564687306413361
 31
0.0
  0
CIRCLE
  5
119B
330
114B
100
AcDbEntity
  8
Widoczne (ISO)
100
AcDbCircle
 10
84.54781857787748
 20
0.433117446005781
 30
0.0
 40
6.200000000000001
  0
LINE
  5
119C
330
114B
100
AcDbEntity
  8
Widoczne (ISO)
100
AcDbLine
 10
-42.0818312797719
 20
-74.12013014788818
 30
0.0
 11
-44.03038843828698
 21
-75.24513014788817
 31
0.0
  0
LINE
  5
119D
330
114B
100
AcDbEntity
  8
Widoczne (ISO)
100
AcDbLine
 10
-39.26724871747183
 20
-72.49513014788817
 30
0.0
 11
-41.21580587598692
 21
-73.62013014788818
 31
0.0
  0
LINE
  5
119E
330
114B
100
AcDbEntity
  8
Widoczne (ISO)
100
AcDbLine
 10
-44.53038843828699
 20
-74.37910474410364
 30
0.0
 11
-42.5818312797719
 21
-73.25410474410364
 31
0.0
  0
LINE
  5
119F
330
114B
100
AcDbEntity
  8
Widoczne (ISO)
100
AcDbLine
 10
-41.71580587598737
 20
-72.75410474410318
 30
0.0
 11
-39.76724871747228
 21
-71.62910474410319
 31
0.0
  0
LINE
  5
11A0
330
114B
100
AcDbEntity
  8
Widoczne (ISO)
100
AcDbLine
 10
-39.76724871747228
 20
-71.62910474410319
 30
0.0
 11
-39.26724871747183
 21
-72.49513014788817
 31
0.0
  0
LINE
  5
11A1
330
114B
100
AcDbEntity
  8
Widoczne (ISO)
100
AcDbLine
 10
-41.71580587598737
 20
-72.75410474410455
 30
0.0
 11
-41.21580587598692
 21
-73.62013014788863
 31
0.0
  0
LINE
  5
11A2
330
114B
100
AcDbEntity
  8
Widoczne (ISO)
100
AcDbLine
 10
-42.0818312797719
 20
-74.12013014788863
 30
0.0
 11
-42.5818312797719
 21
-73.25410474410455
 31
0.0
  0
LINE
  5
11A3
330
114B
100
AcDbEntity
  8
Widoczne (ISO)
100
AcDbLine
 10
-44.03038843828698
 20
-75.24513014788817
 30
0.0
 11
-44.53038843828699
 21
-74.37910474410364
 31
0.0
  0
LINE
  5
11A4
330
114B
100
AcDbEntity
  8
Widoczne (ISO)
100
AcDbLine
 10
-42.84080587598737
 20
-70.80554758558855
 30
0.0
 11
-41.71580587598737
 21
-72.75410474410318
 31
0.0
  0
LINE
  5
11A5
330
114B
100
AcDbEntity
  8
Widoczne (ISO)
100
AcDbLine
 10
-41.21580587598692
 20
-73.62013014788818
 30
0.0
 11
-40.09080587598691
 21
-75.56868730640326
 31
0.0
  0
LINE
  5
11A6
330
114B
100
AcDbEntity
  8
Widoczne (ISO)
100
AcDbLine
 10
-42.5818312797719
 20
-73.25410474410364
 30
0.0
 11
-43.7068312797719
 21
-71.30554758558855
 31
0.0
  0
LINE
  5
11A7
330
114B
100
AcDbEntity
  8
Widoczne (ISO)
100
AcDbLine
 10
-40.9568312797719
 20
-76.06868730640326
 30
0.0
 11
-42.0818312797719
 21
-74.12013014788818
 31
0.0
  0
LINE
  5
11A8
330
114B
100
AcDbEntity
  8
Widoczne (ISO)
100
AcDbLine
 10
-43.7068312797719
 20
-71.30554758558855
 30
0.0
 11
-42.84080587598737
 21
-70.80554758558855
 31
0.0
  0
LINE
  5
11A9
330
114B
100
AcDbEntity
  8
Widoczne (ISO)
100
AcDbLine
 10
-42.5818312797719
 20
-73.25410474410455
 30
0.0
 11
-41.71580587598737
 21
-72.75410474410455
 31
0.0
  0
LINE
  5
11AA
330
114B
100
AcDbEntity
  8
Widoczne (ISO)
100
AcDbLine
 10
-42.0818312797719
 20
-74.12013014788863
 30
0.0
 11
-41.21580587598692
 21
-73.62013014788863
 31
0.0
  0
LINE
  5
11AB
330
114B
100
AcDbEntity
  8
Widoczne (ISO)
100
AcDbLine
 10
-40.09080587598691
 20
-75.56868730640326
 30
0.0
 11
-40.9568312797719
 21
-76.06868730640326
 31
0.0
  0
CIRCLE
  5
11AC
330
114B
100
AcDbEntity
  8
Widoczne (ISO)
100
AcDbCircle
 10
-41.8988185778794
 20
-73.43711744599568
 30
0.0
 40
6.2
  0
ARC
  5
11AD
330
114B
100
AcDbEntity
  8
Widoczne (ISO)
100
AcDbCircle
 10
-42.49964734508966
 20
73.6125617452999
 30
0.0
 40
39.99971999901979
100
AcDbArc
 50
28.27808051249784
 51
211.7221499460987
  0
ARC
  5
11AE
330
114B
100
AcDbEntity
  8
Widoczne (ISO)
100
AcDbCircle
 10
-161.5846438446201
 20
0.0005560817035075
 30
0.0
 40
100.0001506048865
100
AcDbArc
 50
328.2778527788222
 51
31.72214994609868
  0
ARC
  5
11AF
330
114B
100
AcDbEntity
  8
Widoczne (ISO)
100
AcDbCircle
 10
-42.4996866300903
 20
-73.61141747037709
 30
0.0
 40
39.99966969863613
100
AcDbArc
 50
148.2778527788222
 51
331.7218687299416
  0
LINE
  5
11B0
330
114B
100
AcDbEntity
  8
Widoczne wąskie (ISO)
100
AcDbLine
 10
-9.915622632937356
 20
-91.14008916099782
 30
0.0
 11
-7.273647912955766
 21
-92.56134549923581
 31
0.0
  0
ARC
  5
11B1
330
114B
100
AcDbEntity
  8
Widoczne wąskie (ISO)
100
AcDbCircle
 10
-42.4996866300903
 20
-73.61141747037573
 30
0.0
 40
36.99966969863614
100
AcDbArc
 50
148.2778527788222
 51
331.7218687299416
  0
LINE
  5
11B2
330
114B
100
AcDbEntity
  8
Widoczne wąskie (ISO)
100
AcDbLine
 10
-76.52372283478235
 20
-52.57957170397322
 30
0.0
 11
-73.97189904765856
 21
-54.15697316189834
 31
0.0
  0
LINE
  5
11B3
330
114B
100
AcDbEntity
  8
Widoczne wąskie (ISO)
100
AcDbLine
 10
-76.52372533543484
 20
52.58068791278265
 30
0.0
 11
-73.97190162333027
 21
54.15808949207212
 31
0.0
  0
ARC
  5
11B4
330
114B
100
AcDbEntity
  8
Widoczne wąskie (ISO)
100
AcDbCircle
 10
-161.5846438446201
 20
0.000556081704417
 30
0.0
 40
103.0001506048866
100
AcDbArc
 50
328.2778527788222
 51
31.72214994609868
  0
LINE
  5
11B5
330
114B
100
AcDbEntity
  8
Widoczne wąskie (ISO)
100
AcDbLine
 10
-7.273547543016775
 20
92.56248239775549
 30
0.0
 11
-9.915523522068724
 21
91.14122840000982
 31
0.0
  0
ARC
  5
11B6
330
114B
100
AcDbEntity
  8
Widoczne wąskie (ISO)
100
AcDbCircle
 10
-42.49964734508966
 20
73.61256174530081
 30
0.0
 40
36.99971999901981
100
AcDbArc
 50
28.27808051249784
 51
211.7221499460987
  0
LINE
  5
11B7
330
114B
100
AcDbEntity
  8
Widoczne wąskie (ISO)
100
AcDbLine
 10
83.79793182752928
 20
39.98276404878243
 30
0.0
 11
83.88809872951105
 21
36.98411936663343
 31
0.0
  0
ARC
  5
11B8
330
114B
100
AcDbEntity
  8
Widoczne (ISO)
100
AcDbCircle
 10
80.79236677793597
 20
139.9376416672985
 30
0.0
 40
100.0000549049846
100
AcDbArc
 50
208.2780805124978
 51
271.7223203519782
  0
ARC
  5
11B9
330
114B
100
AcDbEntity
  8
Widoczne wąskie (ISO)
100
AcDbCircle
 10
80.79236677793597
 20
139.9376416672994
 30
0.0
 40
103.0000549049845
100
AcDbArc
 50
208.2780805124978
 51
271.7223203519782
  0
LINE
  5
11BA
330
114B
100
AcDbEntity
  8
Widoczne wąskie (ISO)
100
AcDbLine
 10
83.79812030959419
 20
-39.98122795095651
 30
0.0
 11
83.88827307544351
 21
-36.98258284377653
 31
0.0
  0
ARC
  5
11BB
330
114B
100
AcDbEntity
  8
Widoczne (ISO)
100
AcDbCircle
 10
85.00015911384981
 20
0.000770882431425
 30
0.0
 40
40.00006409994843
100
AcDbArc
 50
268.2779497502784
 51
91.72232035197815
  0
ARC
  5
11BC
330
114B
100
AcDbEntity
  8
Widoczne wąskie (ISO)
100
AcDbCircle
 10
85.00015911384981
 20
0.0007708824323345
 30
0.0
 40
37.00006409994845
100
AcDbArc
 50
268.2779497502523
 51
91.72232035197815
  0
ARC
  5
11BD
330
114B
100
AcDbEntity
  8
Widoczne (ISO)
100
AcDbCircle
 10
80.79300000000012
 20
-139.9369999999962
 30
0.0
 40
100.0009355656236
100
AcDbArc
 50
88.27794975027837
 51
151.7218687299416
  0
ARC
  5
11BE
330
114B
100
AcDbEntity
  8
Widoczne wąskie (ISO)
100
AcDbCircle
 10
80.79300000000012
 20
-139.9369999999953
 30
0.0
 40
103.0009355656236
100
AcDbArc
 50
88.27794975025232
 51
151.7218687299416
  0
ARC
  5
11BF
330
114B
100
AcDbEntity
  8
Widoczne (ISO)
100
AcDbCircle
 10
-42.64899999999943
 20
-73.00399999999581
 30
0.0
 40
2.999933999273963
100
AcDbArc
 50
5.371292185031114
 51
23.93049382443346
  0
ARC
  5
11C0
330
114B
100
AcDbEntity
  8
Widoczne (ISO)
100
AcDbCircle
 10
-42.64899999999943
 20
-73.00399999999581
 30
0.0
 40
2.999933999273938
100
AcDbArc
 50
298.7225033626669
 51
318.1222781121738
  0
ARC
  5
11C1
330
114B
100
AcDbEntity
  8
Widoczne (ISO)
100
AcDbCircle
 10
83.79799999999978
 20
0.000000000003638
 30
0.0
 40
3.000000000000123
100
AcDbArc
 50
41.88444893667855
 51
61.2834714219397
  0
ARC
  5
11C2
330
114B
100
AcDbEntity
  8
Widoczne (ISO)
100
AcDbCircle
 10
83.79799999999931
 20
0.000000000003638
 30
0.0
 40
3.000000000000522
100
AcDbArc
 50
336.1377377235318
 51
354.6243183521097
  0
ARC
  5
11C3
330
114B
100
AcDbEntity
  8
Widoczne (ISO)
100
AcDbCircle
 10
-274.2038104753642
 20
-498.180253207036
 30
0.0
 40
40.00024089927483
100
AcDbArc
 50
241.4131531492793
 51
326.1608716337603
  0
ARC
  5
11C4
330
114B
100
AcDbEntity
  8
Widoczne (ISO)
100
AcDbCircle
 10
-2.615591294844307
 20
-0.3718349327823489
 30
0.0
 40
607.0746423834906
100
AcDbArc
 50
239.4645323795203
 51
241.3864268697412
  0
LINE
  5
11C5
330
114B
100
AcDbEntity
  8
Widoczne (ISO)
100
AcDbLine
 10
-605.9853384705243
 20
4.215395445956346
 30
0.0
 11
-591.0478070439644
 21
5.067272521592258
 31
0.0
  0
LINE
  5
11C6
330
114B
100
AcDbEntity
  8
Widoczne (ISO)
100
AcDbLine
 10
-571.0809784753678
 20
6.205966931331204
 30
0.0
 11
-561.7256456129917
 21
6.739495087545037
 31
0.0
  0
ARC
  5
11C7
330
114B
100
AcDbEntity
  8
Widoczne (ISO)
100
AcDbCircle
 10
-561.2697371569892
 20
-1.247752027684782
 30
0.0
 40
8.000248058654234
100
AcDbArc
 50
327.4059090028118
 51
93.2668723757577
  0
ARC
  5
11C8
330
114B
100
AcDbEntity
  8
Widoczne (ISO)
100
AcDbCircle
 10
-529.3380397269324
 20
-21.66331978610106
 30
0.0
 40
29.8999987458195
100
AcDbArc
 50
147.4074668833531
 51
39.29389987288983
  0
ARC
  5
11C9
330
114B
100
AcDbEntity
  8
Widoczne (ISO)
100
AcDbCircle
 10
-499.9913666978791
 20
2.319959494729118
 30
0.0
 40
8.000227121776017
100
AcDbArc
 50
93.26052269269711
 51
219.1194362397874
  0
LINE
  5
11CA
330
114B
100
AcDbEntity
  8
Widoczne (ISO)
100
AcDbLine
 10
-500.4463887905822
 20
10.30723618300999
 30
0.0
 11
-475.1529575522331
 21
11.74914608428389
 31
0.0
  0
LINE
  5
11CB
330
114B
100
AcDbEntity
  8
Widoczne (ISO)
100
AcDbLine
 10
-468.1100365243573
 20
12.15064390671432
 30
0.0
 11
-453.0412139489203
 21
13.00967660446531
 31
0.0
  0
ARC
  5
11CC
330
114B
100
AcDbEntity
  8
Widoczne (ISO)
100
AcDbCircle
 10
-4.045015768499524
 20
-2.939021509470876
 30
0.0
 40
449.2793640397937
100
AcDbArc
 50
177.9656641501204
 51
242.1879195953585
  0
ARC
  5
11CD
330
114B
100
AcDbEntity
  8
Widoczne (ISO)
100
AcDbCircle
 10
-232.4187569684586
 20
-435.6506262213525
 30
0.0
 40
39.99971081145485
100
AcDbArc
 50
326.2477187369765
 51
62.04325487654436
  0
LINE
  5
11CE
330
114B
100
AcDbEntity
  8
Widoczne (ISO)
100
AcDbLine
 10
-199.161097761209
 20
-457.8745990672337
 30
0.0
 11
-240.9794355521313
 21
-520.4549065816782
 31
0.0
  0
ARC
  5
11CF
330
114B
100
AcDbEntity
  8
Widoczne (ISO)
100
AcDbCircle
 10
-3.146781805327464
 20
-2.90128086055347
 30
0.0
 40
607.0745597708762
100
AcDbArc
 50
327.4111938123387
 51
356.098778001827
  0
ARC
  5
11D0
330
114B
100
AcDbEntity
  8
Widoczne (ISO)
100
AcDbCircle
 10
-3.146781805331556
 20
-2.901280860545284
 30
0.0
 40
607.0745597708854
100
AcDbArc
 50
295.632896672866
 51
298.1333665014225
  0
LINE
  5
11D1
330
114B
100
AcDbEntity
  8
Widoczne (ISO)
100
AcDbLine
 10
555.7010900487344
 20
-43.4257939136296
 30
0.0
 11
602.5210817852025
 21
-44.2045511267961
 31
0.0
  0
ARC
  5
11D2
330
114B
100
AcDbEntity
  8
Widoczne (ISO)
100
AcDbCircle
 10
555.8329755881909
 20
-35.42677058546769
 30
0.0
 40
8.00011049923688
100
AcDbArc
 50
143.2001020786423
 51
269.0554096591589
  0
ARC
  5
11D3
330
114B
100
AcDbEntity
  8
Widoczne (ISO)
100
AcDbCircle
 10
525.4852148073601
 20
-12.72412006945069
 30
0.0
 40
29.89971700534987
100
AcDbArc
 50
323.200548329438
 51
214.910589928612
  0
ARC
  5
11D4
330
114B
100
AcDbEntity
  8
Widoczne (ISO)
100
AcDbCircle
 10
494.4060269271536
 20
-34.41508481817664
 30
0.0
 40
8.000334118022877
100
AcDbArc
 50
269.0516146237008
 51
34.91811899141161
  0
LINE
  5
11D5
330
114B
100
AcDbEntity
  8
Widoczne (ISO)
100
AcDbLine
 10
446.7974768618046
 20
-41.63192009428621
 30
0.0
 11
494.2736078644943
 21
-42.41432298139261
 31
0.0
  0
ARC
  5
11D6
330
114B
100
AcDbEntity
  8
Widoczne (ISO)
100
AcDbCircle
 10
-4.045015768499524
 20
-2.939021509470876
 30
0.0
 40
452.4998271402999
100
AcDbArc
 50
294.9409672400743
 51
355.0946934640744
  0
ARC
  5
11D7
330
114B
100
AcDbEntity
  8
Widoczne (ISO)
100
AcDbCircle
 10
203.6632474200637
 20
-449.4959168091868
 30
0.0
 40
39.99971081145478
100
AcDbArc
 50
114.9867291148873
 51
210.7716289492516
  0
LINE
  5
11D8
330
114B
100
AcDbEntity
  8
Widoczne (ISO)
100
AcDbLine
 10
207.8030011608567
 20
-534.6312385941182
 30
0.0
 11
169.2949623353729
 21
-469.9604677531328
 31
0.0
  0
ARC
  5
11D9
330
114B
100
AcDbEntity
  8
Widoczne (ISO)
100
AcDbCircle
 10
242.1717717240777
 20
-514.1664668638336
 30
0.0
 40
40.00024089927474
100
AcDbArc
 50
210.7715449015143
 51
295.6325221168624
  0
ARC
  5
11DA
330
114B
100
AcDbEntity
  8
Widoczne (ISO)
100
AcDbCircle
 10
-4.045015768499524
 20
-2.939021509471331
 30
0.0
 40
452.2198933815285
100
AcDbArc
 50
56.08977020699621
 51
115.9072867356877
  0
LINE
  5
11DB
330
114B
100
AcDbEntity
  8
Widoczne (ISO)
100
AcDbLine
 10
271.8210818516118
 20
413.2572460315818
 30
0.0
 11
248.2454299116334
 21
372.3640067070896
 31
0.0
  0
ARC
  5
11DC
330
114B
100
AcDbEntity
  8
Widoczne (ISO)
100
AcDbCircle
 10
264.8906603408755
 20
417.2530582998856
 30
0.0
 40
7.999828623164393
100
AcDbArc
 50
330.0339185571155
 51
95.41026849438472
  0
ARC
  5
11DD
330
114B
100
AcDbEntity
  8
Widoczne (ISO)
100
AcDbCircle
 10
261.3065864517134
 20
455.0840559048151
 30
0.0
 40
30.00056566133391
100
AcDbArc
 50
24.65909601815987
 51
275.4124569086465
  0
ARC
  5
11DE
330
114B
100
AcDbEntity
  8
Widoczne (ISO)
100
AcDbCircle
 10
295.8418853707531
 20
470.9375436085615
 30
0.0
 40
7.999696806754717
100
AcDbArc
 50
204.6518453340682
 51
330.0341634996519
  0
LINE
  5
11DF
330
114B
100
AcDbEntity
  8
Widoczne (ISO)
100
AcDbLine
 10
326.0331575617438
 20
507.2873066716142
 30
0.0
 11
302.7722097681003
 21
466.9418268083441
 31
0.0
  0
ARC
  5
11E0
330
114B
100
AcDbEntity
  8
Widoczne (ISO)
100
AcDbCircle
 10
-3.742004619638919
 20
-2.406887591224403
 30
0.0
 40
607.07481355843
100
AcDbArc
 50
57.09689363146062
 51
108.5662455895955
  0
LINE
  5
11E1
330
114B
100
AcDbEntity
  8
Widoczne (ISO)
100
AcDbLine
 10
-265.7672316970634
 20
493.2261484898931
 30
0.0
 11
-289.1702067207598
 21
532.5566557137149
 31
0.0
  0
ARC
  5
11E2
330
114B
100
AcDbEntity
  8
Widoczne (ISO)
100
AcDbCircle
 10
-272.6441255930713
 20
489.137352537165
 30
0.0
 40
8.000620100967182
100
AcDbArc
 50
264.8854126446762
 51
30.73445366834412
  0
ARC
  5
11E3
330
114B
100
AcDbEntity
  8
Widoczne (ISO)
100
AcDbCircle
 10
-276.0268913275199
 20
451.3878244854509
 30
0.0
 40
29.90017113663407
100
AcDbArc
 50
84.87773545436033
 51
336.5918934158245
  0
ARC
  5
11E4
330
114B
100
AcDbEntity
  8
Widoczne (ISO)
100
AcDbCircle
 10
-241.2461737474309
 20
436.3310993392729
 30
0.0
 40
7.999740308285034
100
AcDbArc
 50
30.73445366836652
 51
156.5924076633061
  0
LINE
  5
11E5
330
114B
100
AcDbEntity
  8
Widoczne (ISO)
100
AcDbLine
 10
-210.1027602915729
 20
399.6066751915191
 30
0.0
 11
-234.3700360729217
 21
440.4194456652572
 31
0.0
  0
ARC
  5
11E6
330
114B
100
AcDbEntity
  8
Widoczne (ISO)
100
AcDbCircle
 10
-4.044926737618425
 20
-2.939204802011317
 30
0.0
 40
452.2200971526087
100
AcDbArc
 50
115.9072867356877
 51
117.1072973944387
  0
ARC
  5
11E7
330
114B
100
AcDbEntity
  8
Widoczne (ISO)
100
AcDbCircle
 10
-4.045015768499524
 20
-2.939021509470876
 30
0.0
 40
452.2198933815292
100
AcDbArc
 50
355.1226318195328
 51
54.94014834821296
  0
LINE
  5
11E8
330
114B
100
AcDbEntity
  8
Widoczne (ISO)
100
AcDbLine
 10
493.7335541089546
 20
-42.15550148931288
 30
0.0
 11
446.5373704434832
 21
-41.38827645045921
 31
0.0
  0
ARC
  5
11E9
330
114B
100
AcDbEntity
  8
Widoczne (ISO)
100
AcDbCircle
 10
493.8638476259566
 20
-34.15673398428908
 30
0.0
 40
7.999828623164359
100
AcDbArc
 50
269.0667801696465
 51
34.44313010692201
  0
ARC
  5
11EA
330
114B
100
AcDbEntity
  8
Widoczne (ISO)
100
AcDbCircle
 10
525.2016678661825
 20
-12.66322361444827
 30
0.0
 40
30.00056566133394
100
AcDbArc
 50
323.6919576307006
 51
214.4453185211818
  0
ARC
  5
11EB
330
114B
100
AcDbEntity
  8
Widoczne (ISO)
100
AcDbCircle
 10
555.8233965691502
 20
-35.16499410128017
 30
0.0
 40
7.999696806754667
100
AcDbArc
 50
143.6847069466057
 51
269.067025112184
  0
LINE
  5
11EC
330
114B
100
AcDbEntity
  8
Widoczne (ISO)
100
AcDbLine
 10
602.2576647896398
 20
-43.92153029307883
 30
0.0
 11
555.693139393646
 21
-43.16363036430857
 31
0.0
  0
ARC
  5
11ED
330
114B
100
AcDbEntity
  8
Widoczne (ISO)
100
AcDbCircle
 10
-3.432694302084655
 20
-2.945706197144318
 30
0.0
 40
607.0748135584311
100
AcDbArc
 50
356.1297552439942
 51
55.91748947468973
  0
ARC
  5
11EE
330
114B
100
AcDbEntity
  8
Widoczne (ISO)
100
AcDbCircle
 10
-3.431604542329296
 20
-2.946495992290692
 30
0.0
 40
607.0748570067527
100
AcDbArc
 50
55.91761643135875
 51
57.11821726125911
  0
LINE
  5
11EF
330
114B
100
AcDbEntity
  8
Widoczne (ISO)
100
AcDbLine
 10
302.7560696321866
 20
466.690074935816
 30
0.0
 11
326.1538667547175
 21
506.8704310704265
 31
0.0
  0
ARC
  5
11F0
330
114B
100
AcDbEntity
  8
Widoczne (ISO)
100
AcDbCircle
 10
295.8436321876543
 20
470.7184903284264
 30
0.0
 40
8.000620100967207
100
AcDbArc
 50
203.9182742571978
 51
329.7673152808753
  0
ARC
  5
11F1
330
114B
100
AcDbEntity
  8
Widoczne (ISO)
100
AcDbCircle
 10
261.1959590507827
 20
455.355915077454
 30
0.0
 40
29.90017113663413
100
AcDbArc
 50
23.91059706688642
 51
275.6247550283522
  0
ARC
  5
11F2
330
114B
100
AcDbEntity
  8
Widoczne (ISO)
100
AcDbCircle
 10
264.9107101806171
 20
417.6384932202158
 30
0.0
 40
7.99974030828505
100
AcDbArc
 50
329.7673152808753
 51
95.62526927582885
  0
LINE
  5
11F3
330
114B
100
AcDbEntity
  8
Widoczne (ISO)
100
AcDbLine
 10
247.9152684474616
 20
372.585740907381
 30
0.0
 11
271.8223874950845
 21
413.6105208145659
 31
0.0
  0
ARC
  5
11F4
330
114B
100
AcDbEntity
  8
Widoczne (ISO)
100
AcDbCircle
 10
-4.045132821095194
 20
-2.939188306782853
 30
0.0
 40
452.2200971526095
100
AcDbArc
 50
54.94014834821296
 51
56.14015900696059
  0
ARC
  5
11F5
330
114B
100
AcDbEntity
  8
Widoczne (ISO)
100
AcDbCircle
 10
-0.0000000000004547
 20
-0.0000000000923137
 30
0.0
 40
452.2198933815286
100
AcDbArc
 50
117.569850408929
 51
177.3892782662761
  0
LINE
  5
11F6
330
114B
100
AcDbEntity
  8
Widoczne (ISO)
100
AcDbLine
 10
-233.9754423670261
 20
441.1094195719193
 30
0.0
 11
-209.3007714219775
 21
400.8690796907298
 31
0.0
  0
ARC
  5
11F7
330
114B
100
AcDbEntity
  8
Widoczne (ISO)
100
AcDbCircle
 10
-240.7953961040466
 20
436.9278541921962
 30
0.0
 40
7.999828623164412
100
AcDbArc
 50
31.5139987590488
 51
156.8893172456057
  0
ARC
  5
11F8
330
114B
100
AcDbEntity
  8
Widoczne (ISO)
100
AcDbCircle
 10
-275.7468148260405
 20
451.841884312616
 30
0.0
 40
30.0005656613339
100
AcDbArc
 50
86.13917621002698
 51
336.8923318456277
  0
ARC
  5
11F9
330
114B
100
AcDbEntity
  8
Widoczne (ISO)
100
AcDbCircle
 10
-273.1882403876189
 20
489.755913964555
 30
0.0
 40
7.999696806754649
100
AcDbArc
 50
266.1399026748802
 51
31.51379271522878
  0
LINE
  5
11FA
330
114B
100
AcDbEntity
  8
Widoczne (ISO)
100
AcDbLine
 10
-289.8284819152836
 20
532.1986951041731
 30
0.0
 11
-266.3683839885166
 21
493.9373859177817
 31
0.0
  0
LINE
  5
11FB
330
114B
100
AcDbEntity
  8
Widoczne (ISO)
100
AcDbLine
 10
-560.9196264637066
 20
6.922712313758893
 30
0.0
 11
-571.1070660635491
 21
6.525269352566283
 31
0.0
  0
LINE
  5
11FC
330
114B
100
AcDbEntity
  8
Widoczne (ISO)
100
AcDbLine
 10
-591.0576221666433
 20
5.746937562979837
 30
0.0
 11
-605.9779899781329
 21
5.164848696885201
 31
0.0
  0
ARC
  5
11FD
330
114B
100
AcDbEntity
  8
Widoczne (ISO)
100
AcDbCircle
 10
-560.6104722240671
 20
-1.071932497370198
 30
0.0
 40
8.00062010096714
100
AcDbArc
 50
326.3622375171468
 51
92.21453387026357
  0
ARC
  5
11FE
330
114B
100
AcDbEntity
  8
Widoczne (ISO)
100
AcDbCircle
 10
-529.0568118357537
 20
-22.06803908537677
 30
0.0
 40
29.9001711366341
100
AcDbArc
 50
146.3591820707107
 51
38.07197360952507
  0
ARC
  5
11FF
330
114B
100
AcDbEntity
  8
Widoczne (ISO)
100
AcDbCircle
 10
-499.220995590118
 20
1.303468247649107
 30
0.0
 40
7.999740308285023
100
AcDbArc
 50
92.21453387028962
 51
218.0764678610354
  0
LINE
  5
1200
330
114B
100
AcDbEntity
  8
Widoczne (ISO)
100
AcDbLine
 10
-452.0831478941495
 20
11.13306548393211
 30
0.0
 11
-465.1265226409191
 21
10.62838752327525
 31
0.0
  0
LINE
  5
1201
330
114B
100
AcDbEntity
  8
Widoczne (ISO)
100
AcDbLine
 10
-477.6732213099444
 20
10.1429270944991
 30
0.0
 11
-499.5301158334386
 21
9.297233923171916
 31
0.0
  0
ARC
  5
1202
330
114B
100
AcDbEntity
  8
Widoczne (ISO)
100
AcDbCircle
 10
-0.0004838400086555
 20
-0.0150792129561523
 30
0.0
 40
452.2200971523402
100
AcDbArc
 50
177.3873669376165
 51
178.5873994575777
  0
CIRCLE
  5
1203
330
114B
100
AcDbEntity
  8
Widoczne (ISO)
100
AcDbCircle
 10
-255.9005476413686
 20
-397.924502533986
 30
0.0
 40
10.0
  0
CIRCLE
  5
1204
330
114B
100
AcDbEntity
  8
Widoczne (ISO)
100
AcDbCircle
 10
-284.6653380416146
 20
-444.8029286298979
 30
0.0
 40
10.0
  0
CIRCLE
  5
1205
330
114B
100
AcDbEntity
  8
Widoczne (ISO)
100
AcDbCircle
 10
-313.4301284418602
 20
-491.6813547258107
 30
0.0
 40
10.0
  0
CIRCLE
  5
1206
330
114B
100
AcDbEntity
  8
Widoczne (ISO)
100
AcDbCircle
 10
-581.0595337493977
 20
5.551417740598481
 30
0.0
 40
10.0
  0
CIRCLE
  5
1207
330
114B
100
AcDbEntity
  8
Widoczne (ISO)
100
AcDbCircle
 10
-526.0792306607831
 20
4.079591567407533
 30
0.0
 40
10.0
  0
CIRCLE
  5
1208
330
114B
100
AcDbEntity
  8
Widoczne (ISO)
100
AcDbCircle
 10
-471.098927572169
 20
2.60776539421613
 30
0.0
 40
10.0
  0
CIRCLE
  5
1209
330
114B
100
AcDbEntity
  8
Widoczne (ISO)
100
AcDbCircle
 10
-285.7220980842421
 20
505.9880262083729
 30
0.0
 40
10.0
  0
CIRCLE
  5
120A
330
114B
100
AcDbEntity
  8
Widoczne (ISO)
100
AcDbCircle
 10
-259.5065853958731
 20
457.6377739392687
 30
0.0
 40
10.0
  0
CIRCLE
  5
120B
330
114B
100
AcDbEntity
  8
Widoczne (ISO)
100
AcDbCircle
 10
-233.2910727075045
 20
409.2875216701655
 30
0.0
 40
10.0
  0
CIRCLE
  5
120C
330
114B
100
AcDbEntity
  8
Widoczne (ISO)
100
AcDbCircle
 10
295.3374356651547
 20
500.4366084676835
 30
0.0
 40
10.0
  0
CIRCLE
  5
120D
330
114B
100
AcDbEntity
  8
Widoczne (ISO)
100
AcDbCircle
 10
266.5726452649092
 20
453.5581823717707
 30
0.0
 40
10.0
  0
CIRCLE
  5
120E
330
114B
100
AcDbEntity
  8
Widoczne (ISO)
100
AcDbCircle
 10
237.807854864664
 20
406.6797562758579
 30
0.0
 40
10.0
  0
CIRCLE
  5
120F
330
114B
100
AcDbEntity
  8
Widoczne (ISO)
100
AcDbCircle
 10
581.0595337493964
 20
-5.551417740780834
 30
0.0
 40
10.0
  0
CIRCLE
  5
1210
330
114B
100
AcDbEntity
  8
Widoczne (ISO)
100
AcDbCircle
 10
526.0792306607823
 20
-4.079591567589886
 30
0.0
 40
10.0
  0
CIRCLE
  5
1211
330
114B
100
AcDbEntity
  8
Widoczne (ISO)
100
AcDbCircle
 10
471.0989275721677
 20
-2.607765394398938
 30
0.0
 40
10.0
  0
CIRCLE
  5
1212
330
114B
100
AcDbEntity
  8
Widoczne (ISO)
100
AcDbCircle
 10
285.7220980842408
 20
-505.9880262085552
 30
0.0
 40
9.999999999999998
  0
CIRCLE
  5
1213
330
114B
100
AcDbEntity
  8
Widoczne (ISO)
100
AcDbCircle
 10
259.5065853958722
 20
-457.6377739394515
 30
0.0
 40
9.999999999999998
  0
CIRCLE
  5
1214
330
114B
100
AcDbEntity
  8
Widoczne (ISO)
100
AcDbCircle
 10
233.2910727075032
 20
-409.2875216703478
 30
0.0
 40
9.999999999999998
  0
CIRCLE
  5
1215
330
114B
100
AcDbEntity
  8
Widoczne (ISO)
100
AcDbCircle
 10
-0.0000000000013642
 20
-0.0000000002305569
 30
0.0
 40
2675.0
  0
LINE
  5
1216
330
114B
100
AcDbEntity
  8
Widoczne wąskie (ISO)
100
AcDbLine
 10
87.00618335752825
 20
-0.4088698521022707
 30
0.0
 11
86.54156180723157
 21
-1.213617983506992
 31
0.0
  0
LINE
  5
1217
330
114B
100
AcDbEntity
  8
Widoczne wąskie (ISO)
100
AcDbLine
 10
85.38980587598553
 20
2.891482225656091
 30
0.0
 11
86.25583127976961
 21
2.391482225655636
 31
0.0
  0
LINE
  5
1218
330
114B
100
AcDbEntity
  8
Widoczne wąskie (ISO)
100
AcDbLine
 10
-39.90694572039729
 20
-71.7871424373725
 30
0.0
 11
-39.4404537982291
 21
-72.59513014788808
 31
0.0
  0
LINE
  5
1219
330
114B
100
AcDbEntity
  8
Widoczne wąskie (ISO)
100
AcDbLine
 10
-40.19080587598728
 20
-75.3954822256469
 30
0.0
 11
-41.05683127977181
 21
-75.8954822256469
 31
0.0
  0
ENDBLK
  5
114D
330
114B
100
AcDbEntity
  8
0
100
AcDbBlockEnd
  0
ENDSEC
  0
SECTION
  2
ENTITIES
  0
DIMENSION
  5
631
330
6C
100
AcDbEntity
  8
0
100
AcDbDimension
  2
*D7
 10
5624.101949399472
 20
2180.788904083756
 30
0.0
 11
2070.23060507835
 21
5193.370817402812
 31
0.0
 70
   163
  1
<>
 71
     2
 42
5350.0
  3
Domyślne (ISO)
100
AcDbDiametricDimension
 15
1543.078665884298
 25
5640.232350565722
 35
0.0
 40
0.0
1001
ACAD
1000
DSTYLE
1002
{
1070
   144
1040
1.0
1070
    74
1070
     0
1070
   289
1070
     2
1070
   271
1070
     0
1070
   272
1070
     0
1070
    48
1040
0.0
1070
    47
1040
0.0
1002
}
1001
ACAD_DSTYLE_DIMRADIAL_EXTENSION
1070
   387
1070
     1
1070
   388
1040
0.0
1070
   390
1040
0.0
  0
DIMENSION
  5
6E9
330
6C
100
AcDbEntity
  8
0
100
AcDbDimension
  2
*D8
 10
3033.353110654532
 20
3519.532332464963
 30
0.0
 11
4808.289142939208
 21
4616.109310646655
 31
0.0
 70
   163
  1
<>
 71
     2
 42
1350.000000000001
  3
Domyślne (ISO)
100
AcDbDiametricDimension
 15
4133.827504629248
 25
4301.488922184608
 35
0.0
 40
0.0
1001
ACAD
1000
DSTYLE
1002
{
1070
   144
1040
1.000000000000001
1070
    73
1070
     1
1070
   289
1070
     2
1070
   271
1070
     0
1070
   272
1070
     0
1070
    48
1040
0.0
1070
    47
1040
0.0
1002
}
1001
ACAD_DSTYLE_DIMRADIAL_EXTENSION
1070
   387
1070
     1
1070
   388
1040
0.0
1070
   390
1040
0.0
  0
LINE
  5
DA1
330
6C
100
AcDbEntity
  8
0
100
AcDbLine
 10
4602.000267872363
 20
4644.066973352326
 30
0.0
 11
4698.632640288661
 21
4751.175594910092
 31
0.0
  0
LINE
  5
DA2
330
6C
100
AcDbEntity
  8
0
100
AcDbLine
 10
1931.199619814675
 20
5347.170102262785
 30
0.0
 11
2074.217594726704
 21
5366.778857542165
 31
0.0
  0
MTEXT
  5
107D
330
6C
100
AcDbEntity
  8
0
100
AcDbMText
 10
1035.381150514607
 20
1209.371286883421
 30
0.0
 40
150.0
 41
5394.025359607465
 71
     1
 72
     5
  1
Nr kat.:2208\PNazwa: Karuzela Tomek\PData utworzenia: 23-07-2012
 73
     1
 44
1.0
1001
ACAD
1000
ACAD_MTEXT_COLUMN_INFO_BEGIN
1070
    75
1070
     2
1070
    79
1070
     0
1070
    76
1070
     1
1070
    78
1070
     0
1070
    48
1040
5394.025359607465
1070
    49
1040
1.0
1070
    50
1070
     1
1040
0.0
1000
ACAD_MTEXT_COLUMN_INFO_END
1000
MTEXTBEGIN
1070
    73
1070
     1
1070
    44
1040
1.0
1070
    74
1070
     0
1000
MTEXTEND
  0
INSERT
  5
121A
330
6C
100
AcDbEntity
  8
0
100
AcDbBlockReference
  2
2208_Karuzela-Tomek
 10
3583.590307641886
 20
3910.51062732497
 30
0.0
  0
ENDSEC
  0
SECTION
  2
OBJECTS
  0
DICTIONARY
  5
C
330
0
100
AcDbDictionary
281
     1
  3
ACAD_2007HEADERVARS_RT
350
122D
  3
ACAD_COLOR
350
63
  3
ACAD_GROUP
350
D
  3
ACAD_LAYOUT
350
62
  3
ACAD_MATERIAL
350
10
  3
ACAD_MLEADERSTYLE
350
66
  3
ACAD_MLINESTYLE
350
5F
  3
ACAD_PLOTSETTINGS
350
61
  3
ACAD_PLOTSTYLENAME
350
E
  3
ACAD_SCALELIST
350
42
  3
ACAD_TABLESTYLE
350
64
  3
ACAD_VISUALSTYLE
350
29
  3
ACDB_RECOMPOSE_DATA
350
122B
  3
AcDbVariableDictionary
350
D7F
  3
AcmDictionary
350
1032
  3
AMG
350
FE4
  3
AMGSNAPSETTINGS
350
1073
  3
DWGPROPS
350
122C
  0
DICTIONARY
  5
EC4
330
8
100
AcDbDictionary
280
     1
281
     1
  0
DICTIONARY
  5
DA3
330
2
100
AcDbDictionary
280
     1
281
     1
  3
ACAD_LAYERSTATES
360
DA4
  0
DICTIONARY
  5
D54
330
15F
100
AcDbDictionary
280
     1
281
     1
  3
ACAD_MLATT
360
121E
  3
ACAD_XREC_ROUNDTRIP
360
121D
  0
DICTIONARY
  5
D57
330
161
100
AcDbDictionary
280
     1
281
     1
  3
ACAD_MLATT
360
1220
  3
ACAD_XREC_ROUNDTRIP
360
121F
  0
DICTIONARY
  5
D5A
330
162
100
AcDbDictionary
280
     1
281
     1
  3
ACAD_MLATT
360
1222
  3
ACAD_XREC_ROUNDTRIP
360
1221
  0
DICTIONARY
  5
D5D
330
163
100
AcDbDictionary
280
     1
281
     1
  3
ACAD_MLATT
360
1224
  3
ACAD_XREC_ROUNDTRIP
360
1223
  0
DICTIONARY
  5
D60
330
164
100
AcDbDictionary
280
     1
281
     1
  3
ACAD_MLATT
360
1226
  3
ACAD_XREC_ROUNDTRIP
360
1225
  0
DICTIONARY
  5
D63
330
165
100
AcDbDictionary
280
     1
281
     1
  3
ACAD_MLATT
360
1228
  3
ACAD_XREC_ROUNDTRIP
360
1227
  0
DICTIONARY
  5
D66
330
166
100
AcDbDictionary
280
     1
281
     1
  3
ACAD_MLATT
360
122A
  3
ACAD_XREC_ROUNDTRIP
360
1229
  0
DICTIONARY
  5
126B
330
617
100
AcDbDictionary
280
     1
281
     1
  3
ACAD_MTEXT_RT
360
126C
  0
DICTIONARY
  5
126D
330
62C
100
AcDbDictionary
280
     1
281
     1
  3
ACAD_MTEXT_RT
360
126E
  0
DICTIONARY
  5
1271
330
D97
100
AcDbDictionary
280
     1
281
     1
  3
ACAD_MTEXT_RT
360
1272
  0
DICTIONARY
  5
126F
330
D91
100
AcDbDictionary
280
     1
281
     1
  3
ACAD_MTEXT_RT
360
1270
  0
DICTIONARY
  5
122D
102
{ACAD_REACTORS
330
C
102
}
330
C
100
AcDbDictionary
281
     1
  3
DIMARCSYM
350
122E
  3
DIMLTEX1
350
1230
  3
DIMLTEX2
350
1231
  3
DIMLTYPE
350
122F
  0
DICTIONARY
  5
63
102
{ACAD_REACTORS
330
C
102
}
330
C
100
AcDbDictionary
281
     1
  0
DICTIONARY
  5
D
102
{ACAD_REACTORS
330
C
102
}
330
C
100
AcDbDictionary
281
     1
  0
DICTIONARY
  5
62
102
{ACAD_REACTORS
330
C
102
}
330
C
100
AcDbDictionary
281
     1
  3
Layout1
350
6B
  3
Layout2
350
73
  3
Model
350
6F
  0
DICTIONARY
  5
10
102
{ACAD_REACTORS
330
C
102
}
330
C
100
AcDbDictionary
281
     1
  3
ByBlock
350
19
  3
ByLayer
350
11
  3
Global
350
21
  0
DICTIONARY
  5
66
102
{ACAD_REACTORS
330
C
102
}
330
C
100
AcDbDictionary
281
     1
  3
Standard
350
67
  0
DICTIONARY
  5
5F
102
{ACAD_REACTORS
330
C
102
}
330
C
100
AcDbDictionary
281
     1
  3
Standard
350
60
  0
DICTIONARY
  5
61
102
{ACAD_REACTORS
330
C
102
}
330
C
100
AcDbDictionary
281
     1
  0
ACDBDICTIONARYWDFLT
  5
E
102
{ACAD_REACTORS
330
C
102
}
330
C
100
AcDbDictionary
281
     1
  3
Normal
350
F
100
AcDbDictionaryWithDefault
340
F
  0
DICTIONARY
  5
42
102
{ACAD_REACTORS
330
C
102
}
330
C
100
AcDbDictionary
281
     1
  3
A0
350
43
  3
A1
350
44
  3
A2
350
45
  3
A3
350
46
  3
A4
350
47
  3
A5
350
48
  3
A6
350
49
  3
A7
350
4A
  3
A8
350
4B
  3
A9
350
4C
  3
B0
350
4D
  3
B1
350
4E
  3
B2
350
4F
  3
B3
350
50
  3
B4
350
51
  3
B5
350
52
  3
B6
350
53
  0
DICTIONARY
  5
64
102
{ACAD_REACTORS
330
C
102
}
330
C
100
AcDbDictionary
281
     1
  3
Standard
350
65
  0
DICTIONARY
  5
29
102
{ACAD_REACTORS
330
C
102
}
330
C
100
AcDbDictionary
281
     1
  3
2dWireframe
350
2F
  3
Basic
350
2E
  3
Brighten
350
35
  3
ColorChange
350
39
  3
Conceptual
350
32
  3
Dim
350
34
  3
EdgeColorOff
350
41
  3
Facepattern
350
38
  3
Flat
350
2A
  3
FlatWithEdges
350
2B
  3
Gouraud
350
2C
  3
GouraudWithEdges
350
2D
  3
Hidden
350
31
  3
JitterOff
350
3F
  3
Linepattern
350
37
  3
OverhangOff
350
40
  3
Realistic
350
33
  3
Shaded
350
3E
  3
Shaded with edges
350
3D
  3
Shades of Gray
350
3A
  3
Sketchy
350
3B
  3
Thicken
350
36
  3
Wireframe
350
30
  3
X-Ray
350
3C
  0
XRECORD
  5
122B
102
{ACAD_REACTORS
330
C
102
}
330
C
100
AcDbXrecord
280
     1
 90
        1
330
65
330
15F
330
161
330
162
330
163
330
164
330
165
330
166
330
631
330
6E9
330
107D
  0
DICTIONARY
  5
D7F
102
{ACAD_REACTORS
330
C
102
}
330
C
100
AcDbDictionary
281
     1
  3
CANNOSCALE
350
D82
  3
CMLEADERSTYLE
350
D81
  3
CTABLESTYLE
350
D80
  3
DIMASSOC
350
F11
  3
HIDETEXT
350
F10
  3
INDEXCTL
350
F0F
  3
LAYEREVAL
350
F0C
  3
LAYERNOTIFY
350
F0D
  3
LIGHTINGUNITS
350
F0B
  3
MSLTSCALE
350
F0A
  3
SORTENTS
350
F0E
  3
XCLIPFRAME
350
121B
  0
DICTIONARY
  5
1032
102
{ACAD_REACTORS
330
C
102
}
330
C
100
AcDbDictionary
281
     1
  3
AcmStdDictionary
350
103D
  0
DICTIONARY
  5
FE4
102
{ACAD_REACTORS
330
C
102
}
330
C
100
AcDbDictionary
281
     1
  0
DICTIONARY
  5
1073
102
{ACAD_REACTORS
330
C
102
}
330
C
100
AcDbDictionary
281
     1
  0
XRECORD
  5
122C
102
{ACAD_REACTORS
330
C
102
}
330
C
100
AcDbXrecord
280
     1
  1
DWGPROPS COOKIE
  2

  3

  4
Muller
  6

  7

  8
GRAFIK
  9

300
Menadżer=
301
Firma=
302
Kategoria=
303
Numer części=2208 Karuzela Tomek - kt
304
Opis=
305
Projekt=
306
Projektant=Paweł
307
Inżynier=
308
Zatwierdził=
309
Centrum kosztów=
 40
0.009478287037037
 41
2456002.755758437
 42
2459858.495109884
  1

 90
       16
300
Dostawca=
300
Stan użytkownika=
300
Stan projektu=PracaWToku
300
Sprawdził=Pro-design
300
Zatwierdził konstrukcję=Muller
300
Zatwierdził do produkcji=
  0
DICTIONARY
  5
DA4
102
{ACAD_REACTORS
330
DA3
102
}
330
DA3
100
AcDbDictionary
281
     1
  0
XRECORD
  5
121E
102
{ACAD_REACTORS
330
D54
102
}
330
D54
100
AcDbXrecord
280
     1
 70
     4
 70
     0
 70
     0
 40
1.0
  2
TYTUŁ
  1
Embedded Object
 10
222.5713910852681
 20
115.0
 30
0.0
 40
2.5
 41
93.99999999999998
 46
0.0
 71
     5
 72
     5
  1

  7
Tekst notatki (ISO)
 73
     1
 44
1.0
  0
XRECORD
  5
121D
102
{ACAD_REACTORS
330
D54
102
}
330
D54
100
AcDbXrecord
280
     1
102
ACAD_MATT_HEIGHT
140
2.5
  0
XRECORD
  5
1220
102
{ACAD_REACTORS
330
D57
102
}
330
D57
100
AcDbXrecord
280
     1
 70
     4
 70
     0
 70
     0
 40
1.0
  2
FIRMA
  1
Embedded Object
 10
137.4145052978323
 20
109.9581637900171
 30
0.0
 40
2.5
 41
73.37793693868924
 46
0.0
 71
     5
 72
     5
  1

  7
Tekst notatki (ISO)
 73
     1
 44
1.0
  0
XRECORD
  5
121F
102
{ACAD_REACTORS
330
D57
102
}
330
D57
100
AcDbXrecord
280
     1
102
ACAD_MATT_HEIGHT
140
2.5
  0
XRECORD
  5
1222
102
{ACAD_REACTORS
330
D5A
102
}
330
D5A
100
AcDbXrecord
280
     1
 70
     4
 70
     0
 70
     0
 40
1.0
  2
SPRAWDZIŁ
  1
Embedded Object
 10
133.0713910852681
 20
120.9999999999991
 30
0.0
 40
2.5
 41
24.19635020868251
 46
0.0
 71
     7
 72
     5
  1
Pro-design
  7
Tekst notatki (ISO)
 73
     1
 44
1.0
  0
XRECORD
  5
1221
102
{ACAD_REACTORS
330
D5A
102
}
330
D5A
100
AcDbXrecord
280
     1
102
ACAD_MATT_HEIGHT
140
2.5
  0
XRECORD
  5
1224
102
{ACAD_REACTORS
330
D5D
102
}
330
D5D
100
AcDbXrecord
280
     1
 70
     4
 70
     0
 70
     0
 40
1.0
  2
ZATWIERDZIŁ
  1
Embedded Object
 10
158.0713910852681
 20
121.0
 30
0.0
 40
2.5
 41
19.9788309932064
 46
0.0
 71
     7
 72
     5
  1
Muller
  7
Tekst notatki (ISO)
 73
     1
 44
1.0
  0
XRECORD
  5
1223
102
{ACAD_REACTORS
330
D5D
102
}
330
D5D
100
AcDbXrecord
280
     1
102
ACAD_MATT_HEIGHT
140
2.5
  0
XRECORD
  5
1226
102
{ACAD_REACTORS
330
D60
102
}
330
D60
100
AcDbXrecord
280
     1
 70
     4
 70
     0
 70
     0
 40
1.0
  2
DATA_ZATWIERDZENIA
  1
Embedded Object
 10
196.0713910852681
 20
120.9999999999991
 30
0.0
 40
2.5
 41
16.36541081572819
 46
0.0
 71
     9
 72
     5
  1

  7
Tekst notatki (ISO)
 73
     1
 44
1.0
  0
XRECORD
  5
1225
102
{ACAD_REACTORS
330
D60
102
}
330
D60
100
AcDbXrecord
280
     1
102
ACAD_MATT_HEIGHT
140
2.5
  0
XRECORD
  5
1228
102
{ACAD_REACTORS
330
D63
102
}
330
D63
100
AcDbXrecord
280
     1
 70
     4
 70
     0
 70
     0
 40
1.0
  2
NUMER_WERSJI
  1
Embedded Object
 10
242.5713910852682
 20
103.4999999999998
 30
0.0
 40
2.5
 41
15.0
 46
0.0
 71
     5
 72
     5
  1

  7
Tekst notatki (ISO)
 73
     1
 44
1.0
  0
XRECORD
  5
1227
102
{ACAD_REACTORS
330
D63
102
}
330
D63
100
AcDbXrecord
280
     1
102
ACAD_MATT_HEIGHT
140
2.5
  0
XRECORD
  5
122A
102
{ACAD_REACTORS
330
D66
102
}
330
D66
100
AcDbXrecord
280
     1
 70
     4
 70
     0
 70
     0
 40
1.0
  2
DATA_UTWORZENIA
  1
Embedded Object
 10
221.0713910852682
 20
121.0
 30
0.0
 40
2.5
 41
28.66652440062225
 46
0.0
 71
     7
 72
     5
  1
2012-02-27
  7
Tekst notatki (ISO)
 73
     1
 44
1.0
  0
XRECORD
  5
1229
102
{ACAD_REACTORS
330
D66
102
}
330
D66
100
AcDbXrecord
280
     1
102
ACAD_MATT_HEIGHT
140
2.5
  0
XRECORD
  5
126C
102
{ACAD_REACTORS
330
126B
102
}
330
126B
100
AcDbXrecord
280
     1
 40
54027.0
  1
karuzela Tomek - złożenie
  0
XRECORD
  5
126E
102
{ACAD_REACTORS
330
126D
102
}
330
126D
100
AcDbXrecord
280
     1
 40
18841.0
  1
NAZWA CZĘŚCI
  0
XRECORD
  5
1272
102
{ACAD_REACTORS
330
1271
102
}
330
1271
100
AcDbXrecord
280
     1
 40
6550.0
  1
\A1;\U+22055350
  0
XRECORD
  5
1270
102
{ACAD_REACTORS
330
126F
102
}
330
126F
100
AcDbXrecord
280
     1
 40
6502.0
  1
\A1;\U+22051350
  0
XRECORD
  5
122E
102
{ACAD_REACTORS
330
122D
102
}
330
122D
100
AcDbXrecord
280
     1
 70
     1
  0
XRECORD
  5
1230
102
{ACAD_REACTORS
330
122D
102
}
330
122D
100
AcDbXrecord
280
     1
340
5B
  0
XRECORD
  5
1231
102
{ACAD_REACTORS
330
122D
102
}
330
122D
100
AcDbXrecord
280
     1
340
5B
  0
XRECORD
  5
122F
102
{ACAD_REACTORS
330
122D
102
}
330
122D
100
AcDbXrecord
280
     1
340
5B
  0
LAYOUT
  5
6B
102
{ACAD_XDICTIONARY
360
1266
102
}
102
{ACAD_REACTORS
330
62
102
}
330
62
100
AcDbPlotSettings
  1

  2

  4

  6

 40
0.0
 41
0.0
 42
0.0
 43
0.0
 44
0.0
 45
0.0
 46
0.0
 47
0.0
 48
0.0
 49
0.0
140
0.0
141
0.0
142
1.0
143
1.0
 70
   688
 72
     0
 73
     0
 74
     5
  7

 75
    16
147
1.0
148
0.0
149
0.0
100
AcDbLayout
  1
Layout1
 70
     1
 71
     1
 10
0.0
 20
0.0
 11
12600.0
 21
8910.0
 12
0.0
 22
0.0
 32
0.0
 14
0.0
 24
0.0
 34
0.0
 15
12600.0
 25
8910.0
 35
0.0
146
0.0
 13
0.0
 23
0.0
 33
0.0
 16
1.0
 26
0.0
 36
0.0
 17
0.0
 27
1.0
 37
0.0
 76
     0
330
68
  0
LAYOUT
  5
73
102
{ACAD_XDICTIONARY
360
1269
102
}
102
{ACAD_REACTORS
330
62
102
}
330
62
100
AcDbPlotSettings
  1

  2

  4

  6

 40
0.0
 41
0.0
 42
0.0
 43
0.0
 44
0.0
 45
0.0
 46
0.0
 47
0.0
 48
0.0
 49
0.0
140
0.0
141
0.0
142
1.0
143
1.0
 70
   688
 72
     0
 73
     0
 74
     5
  7

 75
    16
147
1.0
148
0.0
149
0.0
100
AcDbLayout
  1
Layout2
 70
     1
 71
     2
 10
0.0
 20
0.0
 11
12.0
 21
9.0
 12
0.0
 22
0.0
 32
0.0
 14
0.0
 24
0.0
 34
0.0
 15
0.0
 25
0.0
 35
0.0
146
0.0
 13
0.0
 23
0.0
 33
0.0
 16
1.0
 26
0.0
 36
0.0
 17
0.0
 27
1.0
 37
0.0
 76
     0
330
70
  0
LAYOUT
  5
6F
102
{ACAD_XDICTIONARY
360
E2A
102
}
102
{ACAD_REACTORS
330
62
102
}
330
62
100
AcDbPlotSettings
  1

  2

  4

  6

 40
0.0
 41
0.0
 42
0.0
 43
0.0
 44
0.0
 45
0.0
 46
0.0
 47
0.0
 48
0.0
 49
0.0
140
0.0
141
0.0
142
1.0
143
1.0
 70
  1712
 72
     0
 73
     0
 74
     0
  7

 75
     0
147
1.0
148
0.0
149
0.0
100
AcDbLayout
  1
Model
 70
     1
 71
     0
 10
0.0
 20
0.0
 11
12.0
 21
9.0
 12
0.0
 22
0.0
 32
0.0
 14
0.0
 24
0.0
 34
0.0
 15
0.0
 25
0.0
 35
0.0
146
0.0
 13
0.0
 23
0.0
 33
0.0
 16
1.0
 26
0.0
 36
0.0
 17
0.0
 27
1.0
 37
0.0
 76
     0
330
6C
331
57
  0
MATERIAL
  5
19
102
{ACAD_XDICTIONARY
360
1A
102
}
102
{ACAD_REACTORS
330
10
102
}
330
10
100
AcDbMaterial
  1
ByBlock
 72
     0
 43
0.0208333333333333
 43
0.0
 43
0.0
 43
0.0
 43
0.0
 43
0.0208333333333333
 43
0.0
 43
0.0
 43
0.0
 43
0.0
 43
1.0
 43
0.0
 43
0.0
 43
0.0
 43
0.0
 43
1.0
 77
     0
 47
0.0208333333333333
 47
0.0
 47
0.0
 47
0.0
 47
0.0
 47
0.0208333333333333
 47
0.0
 47
0.0
 47
0.0
 47
0.0
 47
1.0
 47
0.0
 47
0.0
 47
0.0
 47
0.0
 47
1.0
171
     0
 49
0.0208333333333333
 49
0.0
 49
0.0
 49
0.0
 49
0.0
 49
0.0208333333333333
 49
0.0
 49
0.0
 49
0.0
 49
0.0
 49
1.0
 49
0.0
 49
0.0
 49
0.0
 49
0.0
 49
1.0
175
     0
142
0.0208333333333333
142
0.0
142
0.0
142
0.0
142
0.0
142
0.0208333333333333
142
0.0
142
0.0
142
0.0
142
0.0
142
1.0
142
0.0
142
0.0
142
0.0
142
0.0
142
1.0
179
     0
144
0.0208333333333333
144
0.0
144
0.0
144
0.0
144
0.0
144
0.0208333333333333
144
0.0
144
0.0
144
0.0
144
0.0
144
1.0
144
0.0
144
0.0
144
0.0
144
0.0
144
1.0
147
0.0208333333333333
147
0.0
147
0.0
147
0.0
147
0.0
147
0.0208333333333333
147
0.0
147
0.0
147
0.0
147
0.0
147
1.0
147
0.0
147
0.0
147
0.0
147
0.0
147
1.0
  0
MATERIAL
  5
11
102
{ACAD_XDICTIONARY
360
12
102
}
102
{ACAD_REACTORS
330
10
102
}
330
10
100
AcDbMaterial
  1
ByLayer
 72
     0
 43
0.0208333333333333
 43
0.0
 43
0.0
 43
0.0
 43
0.0
 43
0.0208333333333333
 43
0.0
 43
0.0
 43
0.0
 43
0.0
 43
1.0
 43
0.0
 43
0.0
 43
0.0
 43
0.0
 43
1.0
 77
     0
 47
0.0208333333333333
 47
0.0
 47
0.0
 47
0.0
 47
0.0
 47
0.0208333333333333
 47
0.0
 47
0.0
 47
0.0
 47
0.0
 47
1.0
 47
0.0
 47
0.0
 47
0.0
 47
0.0
 47
1.0
171
     0
 49
0.0208333333333333
 49
0.0
 49
0.0
 49
0.0
 49
0.0
 49
0.0208333333333333
 49
0.0
 49
0.0
 49
0.0
 49
0.0
 49
1.0
 49
0.0
 49
0.0
 49
0.0
 49
0.0
 49
1.0
175
     0
142
0.0208333333333333
142
0.0
142
0.0
142
0.0
142
0.0
142
0.0208333333333333
142
0.0
142
0.0
142
0.0
142
0.0
142
1.0
142
0.0
142
0.0
142
0.0
142
0.0
142
1.0
179
     0
144
0.0208333333333333
144
0.0
144
0.0
144
0.0
144
0.0
144
0.0208333333333333
144
0.0
144
0.0
144
0.0
144
0.0
144
1.0
144
0.0
144
0.0
144
0.0
144
0.0
144
1.0
147
0.0208333333333333
147
0.0
147
0.0
147
0.0
147
0.0
147
0.0208333333333333
147
0.0
147
0.0
147
0.0
147
0.0
147
1.0
147
0.0
147
0.0
147
0.0
147
0.0
147
1.0
  0
MATERIAL
  5
21
102
{ACAD_XDICTIONARY
360
22
102
}
102
{ACAD_REACTORS
330
10
102
}
330
10
100
AcDbMaterial
  1
Global
 72
     0
 43
0.0208333333333333
 43
0.0
 43
0.0
 43
0.0
 43
0.0
 43
0.0208333333333333
 43
0.0
 43
0.0
 43
0.0
 43
0.0
 43
1.0
 43
0.0
 43
0.0
 43
0.0
 43
0.0
 43
1.0
 77
     0
 47
0.0208333333333333
 47
0.0
 47
0.0
 47
0.0
 47
0.0
 47
0.0208333333333333
 47
0.0
 47
0.0
 47
0.0
 47
0.0
 47
1.0
 47
0.0
 47
0.0
 47
0.0
 47
0.0
 47
1.0
171
     0
 49
0.0208333333333333
 49
0.0
 49
0.0
 49
0.0
 49
0.0
 49
0.0208333333333333
 49
0.0
 49
0.0
 49
0.0
 49
0.0
 49
1.0
 49
0.0
 49
0.0
 49
0.0
 49
0.0
 49
1.0
175
     0
142
0.0208333333333333
142
0.0
142
0.0
142
0.0
142
0.0
142
0.0208333333333333
142
0.0
142
0.0
142
0.0
142
0.0
142
1.0
142
0.0
142
0.0
142
0.0
142
0.0
142
1.0
179
     0
144
0.0208333333333333
144
0.0
144
0.0
144
0.0
144
0.0
144
0.0208333333333333
144
0.0
144
0.0
144
0.0
144
0.0
144
1.0
144
0.0
144
0.0
144
0.0
144
0.0
144
1.0
147
0.0208333333333333
147
0.0
147
0.0
147
0.0
147
0.0
147
0.0208333333333333
147
0.0
147
0.0
147
0.0
147
0.0
147
1.0
147
0.0
147
0.0
147
0.0
147
0.0
147
1.0
  0
MLEADERSTYLE
  5
67
102
{ACAD_REACTORS
330
66
102
}
330
66
100
AcDbMLeaderStyle
170
     2
171
     1
172
     0
 90
        2
 40
0.0
 41
0.0
173
     1
 91
-1056964608
340
5B
 92
       -2
290
     1
 42
0.09
291
     1
 43
0.36
  3
Standard
 44
0.18
300

342
55
174
     1
178
     6
175
     1
176
     0
 93
-1056964608
 45
0.18
292
     0
297
     0
 46
0.18
 94
-1056964608
 47
1.0
 49
1.0
140
1.0
293
     1
141
0.0
294
     1
177
     0
142
1.0
295
     0
296
     0
143
0.125
1001
ACAD_MLEADERVER
1070
     2
  0
MLINESTYLE
  5
60
102
{ACAD_REACTORS
330
5F
102
}
330
5F
100
AcDbMlineStyle
  2
STANDARD
 70
     0
  3

 62
   256
 51
90.0
 52
90.0
 71
     2
 49
0.5
 62
   256
  6
BYLAYER
 49
-0.5
 62
   256
  6
BYLAYER
  0
ACDBPLACEHOLDER
  5
F
102
{ACAD_REACTORS
330
E
102
}
330
E
  0
SCALE
  5
43
102
{ACAD_REACTORS
330
42
102
}
330
42
100
AcDbScale
 70
     0
300
1:1
140
1.0
141
1.0
290
     1
  0
SCALE
  5
44
102
{ACAD_REACTORS
330
42
102
}
330
42
100
AcDbScale
 70
     0
300
1/128" = 1'-0"
140
0.0078125
141
12.0
290
     0
  0
SCALE
  5
45
102
{ACAD_REACTORS
330
42
102
}
330
42
100
AcDbScale
 70
     0
300
1/64" = 1'-0"
140
0.015625
141
12.0
290
     0
  0
SCALE
  5
46
102
{ACAD_REACTORS
330
42
102
}
330
42
100
AcDbScale
 70
     0
300
1/32" = 1'-0"
140
0.03125
141
12.0
290
     0
  0
SCALE
  5
47
102
{ACAD_REACTORS
330
42
102
}
330
42
100
AcDbScale
 70
     0
300
1/16" = 1'-0"
140
0.0625
141
12.0
290
     0
  0
SCALE
  5
48
102
{ACAD_REACTORS
330
42
102
}
330
42
100
AcDbScale
 70
     0
300
3/32" = 1'-0"
140
0.09375
141
12.0
290
     0
  0
SCALE
  5
49
102
{ACAD_REACTORS
330
42
102
}
330
42
100
AcDbScale
 70
     0
300
1/8" = 1'-0"
140
0.125
141
12.0
290
     0
  0
SCALE
  5
4A
102
{ACAD_REACTORS
330
42
102
}
330
42
100
AcDbScale
 70
     0
300
3/16" = 1'-0"
140
0.1875
141
12.0
290
     0
  0
SCALE
  5
4B
102
{ACAD_REACTORS
330
42
102
}
330
42
100
AcDbScale
 70
     0
300
1/4" = 1'-0"
140
0.25
141
12.0
290
     0
  0
SCALE
  5
4C
102
{ACAD_REACTORS
330
42
102
}
330
42
100
AcDbScale
 70
     0
300
3/8" = 1'-0"
140
0.375
141
12.0
290
     0
  0
SCALE
  5
4D
102
{ACAD_REACTORS
330
42
102
}
330
42
100
AcDbScale
 70
     0
300
1/2" = 1'-0"
140
0.5
141
12.0
290
     0
  0
SCALE
  5
4E
102
{ACAD_REACTORS
330
42
102
}
330
42
100
AcDbScale
 70
     0
300
3/4" = 1'-0"
140
0.75
141
12.0
290
     0
  0
SCALE
  5
4F
102
{ACAD_REACTORS
330
42
102
}
330
42
100
AcDbScale
 70
     0
300
1" = 1'-0"
140
1.0
141
12.0
290
     0
  0
SCALE
  5
50
102
{ACAD_REACTORS
330
42
102
}
330
42
100
AcDbScale
 70
     0
300
1-1/2" = 1'-0"
140
1.5
141
12.0
290
     0
  0
SCALE
  5
51
102
{ACAD_REACTORS
330
42
102
}
330
42
100
AcDbScale
 70
     0
300
3" = 1'-0"
140
3.0
141
12.0
290
     0
  0
SCALE
  5
52
102
{ACAD_REACTORS
330
42
102
}
330
42
100
AcDbScale
 70
     0
300
6" = 1'-0"
140
6.0
141
12.0
290
     0
  0
SCALE
  5
53
102
{ACAD_REACTORS
330
42
102
}
330
42
100
AcDbScale
 70
     0
300
1'-0" = 1'-0"
140
12.0
141
12.0
290
     0
  0
TABLESTYLE
  5
65
102
{ACAD_XDICTIONARY
360
EB2
102
}
102
{ACAD_REACTORS
330
64
102
}
330
64
100
AcDbTableStyle
  3
Standard
 70
     0
 71
     0
 40
0.06
 41
0.06
280
     0
281
     0
  7
Standard
140
0.18
170
     2
 62
     0
 63
     7
283
     0
274
    -2
284
     1
 64
     0
275
    -2
285
     1
 65
     0
276
    -2
286
     1
 66
     0
277
    -2
287
     1
 67
     0
278
    -2
288
     1
 68
     0
279
    -2
289
     1
 69
     0
  7
Standard
140
0.25
170
     5
 62
     0
 63
     7
283
     0
274
    -2
284
     1
 64
     0
275
    -2
285
     1
 65
     0
276
    -2
286
     1
 66
     0
277
    -2
287
     1
 67
     0
278
    -2
288
     1
 68
     0
279
    -2
289
     1
 69
     0
  7
Standard
140
0.18
170
     5
 62
     0
 63
     7
283
     0
274
    -2
284
     1
 64
     0
275
    -2
285
     1
 65
     0
276
    -2
286
     1
 66
     0
277
    -2
287
     1
 67
     0
278
    -2
288
     1
 68
     0
279
    -2
289
     1
 69
     0
  0
VISUALSTYLE
  5
2F
102
{ACAD_XDICTIONARY
360
123F
102
}
102
{ACAD_REACTORS
330
29
102
}
330
29
100
AcDbVisualStyle
  2
2dWireframe
 70
     4
 71
     0
 72
     2
 73
     0
 90
        0
 40
-0.6
 41
-30.0
 62
     5
 63
     7
 74
     1
 91
        4
 64
     7
 65
   257
 75
     1
175
     1
 42
1.0
 92
        0
 66
   257
 43
1.0
 76
     1
 77
     6
 78
     2
 67
     7
 79
     5
170
     0
171
     0
290
     0
174
     0
 93
        1
 44
0.0
173
     0
291
     0
 45
0.0
1001
ACAD
1000
AcDbSavedByObjectVersion
1070
     0
  0
VISUALSTYLE
  5
2E
102
{ACAD_XDICTIONARY
360
123D
102
}
102
{ACAD_REACTORS
330
29
102
}
330
29
100
AcDbVisualStyle
  2
Basic
 70
     7
 71
     1
 72
     0
 73
     1
 90
        0
 40
-0.6
 41
-30.0
 62
     5
 63
     7
 74
     0
 91
        4
 64
     7
 65
   257
 75
     1
175
     1
 42
1.0
 92
        8
 66
     7
 43
1.0
 76
     1
 77
     6
 78
     2
 67
     7
 79
     5
170
     0
171
     0
290
     0
174
     0
 93
        1
 44
0.0
173
     0
291
     1
 45
0.0
1001
ACAD
1000
AcDbSavedByObjectVersion
1070
     0
  0
VISUALSTYLE
  5
35
102
{ACAD_XDICTIONARY
360
124B
102
}
102
{ACAD_REACTORS
330
29
102
}
330
29
100
AcDbVisualStyle
  2
Brighten
 70
    12
 71
     2
 72
     2
 73
     0
 90
        0
 40
-0.6
 41
-30.0
 62
     5
 63
     7
 74
     1
 91
        4
 64
     7
 65
   257
 75
     1
175
     1
 42
1.0
 92
        8
 66
     7
 43
1.0
 76
     1
 77
     6
 78
     2
 67
     7
 79
     5
170
     0
171
     0
290
     0
174
     0
 93
        1
 44
50.0
173
     0
291
     1
 45
0.0
1001
ACAD
1000
AcDbSavedByObjectVersion
1070
     0
  0
VISUALSTYLE
  5
39
102
{ACAD_XDICTIONARY
360
1253
102
}
102
{ACAD_REACTORS
330
29
102
}
330
29
100
AcDbVisualStyle
  2
ColorChange
 70
    16
 71
     2
 72
     2
 73
     3
 90
        0
 40
-0.6
 41
-30.0
 62
     5
 63
     8
 74
     1
 91
        4
 64
     7
 65
   257
 75
     1
175
     1
 42
1.0
 92
        8
 66
     8
 43
1.0
 76
     1
 77
     6
 78
     2
 67
     7
 79
     5
170
     0
171
     0
290
     0
174
     0
 93
        1
 44
0.0
173
     0
291
     1
 45
0.0
1001
ACAD
1000
AcDbSavedByObjectVersion
1070
     0
  0
VISUALSTYLE
  5
32
102
{ACAD_XDICTIONARY
360
1245
102
}
102
{ACAD_REACTORS
330
29
102
}
330
29
100
AcDbVisualStyle
  2
Conceptual
 70
     9
 71
     3
 72
     2
 73
     0
 90
        0
 40
-0.6
 41
-30.0
 62
     5
 63
     7
 74
     2
 91
        2
 64
     7
 65
   257
 75
     1
175
     1
 42
179.0
 92
        8
 66
     7
 43
1.0
 76
     1
 77
     6
 78
     2
 67
     7
 79
     3
170
     0
171
     0
290
     0
174
     0
 93
        1
 44
0.0
173
     0
291
     0
 45
0.0
1001
ACAD
1000
AcDbSavedByObjectVersion
1070
     0
  0
VISUALSTYLE
  5
34
102
{ACAD_XDICTIONARY
360
1249
102
}
102
{ACAD_REACTORS
330
29
102
}
330
29
100
AcDbVisualStyle
  2
Dim
 70
    11
 71
     2
 72
     2
 73
     0
 90
        0
 40
-0.6
 41
-30.0
 62
     5
 63
     7
 74
     1
 91
        4
 64
     7
 65
   257
 75
     1
175
     1
 42
1.0
 92
        8
 66
     7
 43
1.0
 76
     1
 77
     6
 78
     2
 67
     7
 79
     5
170
     0
171
     0
290
     0
174
     0
 93
        1
 44
-50.0
173
     0
291
     1
 45
0.0
1001
ACAD
1000
AcDbSavedByObjectVersion
1070
     0
  0
VISUALSTYLE
  5
41
102
{ACAD_XDICTIONARY
360
1263
102
}
102
{ACAD_REACTORS
330
29
102
}
330
29
100
AcDbVisualStyle
  2
EdgeColorOff
 70
    22
 71
     2
 72
     2
 73
     0
 90
        0
 40
-0.6
 41
-30.0
 62
     5
 63
     7
 74
     1
 91
        4
 64
     7
 65
   257
 75
     1
175
     1
 42
1.0
 92
        8
 66
     7
 43
1.0
 76
     1
 77
     6
 78
     2
 67
     7
 79
     5
170
     0
171
     0
290
     0
174
     0
 93
        1
 44
0.0
173
     0
291
     1
 45
0.0
1001
ACAD
1000
AcDbSavedByObjectVersion
1070
     0
  0
VISUALSTYLE
  5
38
102
{ACAD_XDICTIONARY
360
1251
102
}
102
{ACAD_REACTORS
330
29
102
}
330
29
100
AcDbVisualStyle
  2
Facepattern
 70
    15
 71
     2
 72
     2
 73
     0
 90
        0
 40
-0.6
 41
-30.0
 62
     5
 63
     7
 74
     1
 91
        4
 64
     7
 65
   257
 75
     1
175
     1
 42
1.0
 92
        8
 66
     7
 43
1.0
 76
     1
 77
     6
 78
     2
 67
     7
 79
     5
170
     0
171
     0
290
     0
174
     0
 93
        1
 44
0.0
173
     0
291
     1
 45
0.0
1001
ACAD
1000
AcDbSavedByObjectVersion
1070
     0
  0
VISUALSTYLE
  5
2A
102
{ACAD_XDICTIONARY
360
1235
102
}
102
{ACAD_REACTORS
330
29
102
}
330
29
100
AcDbVisualStyle
  2
Flat
 70
     0
 71
     2
 72
     1
 73
     1
 90
        2
 40
-0.6
 41
30.0
 62
     5
 63
     7
 74
     0
 91
        0
 64
     7
 65
   257
 75
     1
175
     1
 42
1.0
 92
        8
 66
     7
 43
1.0
 76
     1
 77
     6
 78
     2
 67
     7
 79
     5
170
     0
171
     0
290
     0
174
     0
 93
       13
 44
0.0
173
     0
291
     1
 45
0.0
1001
ACAD
1000
AcDbSavedByObjectVersion
1070
     0
  0
VISUALSTYLE
  5
2B
102
{ACAD_XDICTIONARY
360
1237
102
}
102
{ACAD_REACTORS
330
29
102
}
330
29
100
AcDbVisualStyle
  2
FlatWithEdges
 70
     1
 71
     2
 72
     1
 73
     1
 90
        2
 40
-0.6
 41
30.0
 62
     5
 63
     7
 74
     1
 91
        0
 64
     7
 65
   257
 75
     1
175
     1
 42
1.0
 92
        0
 66
   257
 43
1.0
 76
     1
 77
     6
 78
     2
 67
     7
 79
     5
170
     0
171
     0
290
     0
174
     0
 93
       13
 44
0.0
173
     0
291
     1
 45
0.0
1001
ACAD
1000
AcDbSavedByObjectVersion
1070
     0
  0
VISUALSTYLE
  5
2C
102
{ACAD_XDICTIONARY
360
1239
102
}
102
{ACAD_REACTORS
330
29
102
}
330
29
100
AcDbVisualStyle
  2
Gouraud
 70
     2
 71
     2
 72
     2
 73
     1
 90
        2
 40
-0.6
 41
30.0
 62
     5
 63
     7
 74
     0
 91
        0
 64
     7
 65
   257
 75
     1
175
     1
 42
1.0
 92
        0
 66
     7
 43
1.0
 76
     1
 77
     6
 78
     2
 67
     7
 79
     5
170
     0
171
     0
290
     0
174
     0
 93
       13
 44
0.0
173
     0
291
     1
 45
0.0
1001
ACAD
1000
AcDbSavedByObjectVersion
1070
     0
  0
VISUALSTYLE
  5
2D
102
{ACAD_XDICTIONARY
360
123B
102
}
102
{ACAD_REACTORS
330
29
102
}
330
29
100
AcDbVisualStyle
  2
GouraudWithEdges
 70
     3
 71
     2
 72
     2
 73
     1
 90
        2
 40
-0.6
 41
30.0
 62
     5
 63
     7
 74
     1
 91
        0
 64
     7
 65
   257
 75
     1
175
     1
 42
1.0
 92
        0
 66
   257
 43
1.0
 76
     1
 77
     6
 78
     2
 67
     7
 79
     5
170
     0
171
     0
290
     0
174
     0
 93
       13
 44
0.0
173
     0
291
     1
 45
0.0
1001
ACAD
1000
AcDbSavedByObjectVersion
1070
     0
  0
VISUALSTYLE
  5
31
102
{ACAD_XDICTIONARY
360
1243
102
}
102
{ACAD_REACTORS
330
29
102
}
330
29
100
AcDbVisualStyle
  2
Hidden
 70
     6
 71
     1
 72
     2
 73
     2
 90
        0
 40
-0.6
 41
-30.0
 62
     5
 63
     7
 74
     2
 91
        2
 64
     7
 65
   257
 75
     2
175
     1
 42
40.0
 92
        0
 66
   257
 43
1.0
 76
     1
 77
     6
 78
     2
 67
     7
 79
     3
170
     0
171
     0
290
     0
174
     0
 93
        1
 44
0.0
173
     0
291
     0
 45
0.0
1001
ACAD
1000
AcDbSavedByObjectVersion
1070
     0
  0
VISUALSTYLE
  5
3F
102
{ACAD_XDICTIONARY
360
125F
102
}
102
{ACAD_REACTORS
330
29
102
}
330
29
100
AcDbVisualStyle
  2
JitterOff
 70
    20
 71
     2
 72
     2
 73
     0
 90
        0
 40
-0.6
 41
-30.0
 62
     5
 63
     7
 74
     1
 91
        4
 64
     7
 65
   257
 75
     1
175
     1
 42
1.0
 92
       10
 66
     7
 43
1.0
 76
     1
 77
     6
 78
     2
 67
     7
 79
     5
170
     0
171
     0
290
     0
174
     0
 93
        1
 44
0.0
173
     0
291
     1
 45
0.0
1001
ACAD
1000
AcDbSavedByObjectVersion
1070
     0
  0
VISUALSTYLE
  5
37
102
{ACAD_XDICTIONARY
360
124F
102
}
102
{ACAD_REACTORS
330
29
102
}
330
29
100
AcDbVisualStyle
  2
Linepattern
 70
    14
 71
     2
 72
     2
 73
     0
 90
        0
 40
-0.6
 41
-30.0
 62
     5
 63
     7
 74
     1
 91
        4
 64
     7
 65
   257
 75
     7
175
     7
 42
1.0
 92
        8
 66
     7
 43
1.0
 76
     1
 77
     6
 78
     2
 67
     7
 79
     5
170
     0
171
     0
290
     0
174
     0
 93
        1
 44
0.0
173
     0
291
     1
 45
0.0
1001
ACAD
1000
AcDbSavedByObjectVersion
1070
     0
  0
VISUALSTYLE
  5
40
102
{ACAD_XDICTIONARY
360
1261
102
}
102
{ACAD_REACTORS
330
29
102
}
330
29
100
AcDbVisualStyle
  2
OverhangOff
 70
    21
 71
     2
 72
     2
 73
     0
 90
        0
 40
-0.6
 41
-30.0
 62
     5
 63
     7
 74
     1
 91
        4
 64
     7
 65
   257
 75
     1
175
     1
 42
1.0
 92
        9
 66
     7
 43
1.0
 76
     1
 77
     6
 78
     2
 67
     7
 79
     5
170
     0
171
     0
290
     0
174
     0
 93
        1
 44
0.0
173
     0
291
     1
 45
0.0
1001
ACAD
1000
AcDbSavedByObjectVersion
1070
     0
  0
VISUALSTYLE
  5
33
102
{ACAD_XDICTIONARY
360
1247
102
}
102
{ACAD_REACTORS
330
29
102
}
330
29
100
AcDbVisualStyle
  2
Realistic
 70
     8
 71
     2
 72
     2
 73
     0
 90
        2
 40
-0.6
 41
30.0
 62
     5
 63
     7
 74
     0
 91
        0
 64
     7
 65
   257
 75
     1
175
     1
 42
1.0
 92
        8
 66
   257
 43
1.0
 76
     1
 77
     6
 78
     2
 67
     7
 79
     3
170
     0
171
     0
290
     0
174
     0
 93
       13
 44
0.0
173
     0
291
     0
 45
0.0
1001
ACAD
1000
AcDbSavedByObjectVersion
1070
     0
  0
VISUALSTYLE
  5
3E
102
{ACAD_XDICTIONARY
360
125D
102
}
102
{ACAD_REACTORS
330
29
102
}
330
29
100
AcDbVisualStyle
  2
Shaded
 70
    27
 71
     2
 72
     2
 73
     1
 90
        2
 40
-0.6
 41
30.0
 62
     5
 63
     7
 74
     0
 91
        4
 64
     7
 65
   257
 75
     1
175
     1
 42
1.0
 92
        8
 66
   257
 43
1.0
 76
     1
 77
     6
 78
     2
 67
     8
 79
     3
170
     0
171
     0
290
     0
174
     0
 93
        5
 44
0.0
173
     0
291
     0
 45
0.0
1001
ACAD
1000
AcDbSavedByObjectVersion
1070
     0
  0
VISUALSTYLE
  5
3D
102
{ACAD_XDICTIONARY
360
125B
102
}
102
{ACAD_REACTORS
330
29
102
}
330
29
100
AcDbVisualStyle
  2
Shaded with edges
 70
    26
 71
     2
 72
     2
 73
     1
 90
        2
 40
-0.6
 41
30.0
 62
     5
 63
     7
 74
     1
 91
       10
 64
     7
 65
   257
 75
     2
175
     1
 42
1.0
 92
        8
 66
   257
 43
1.0
 76
     1
 77
     6
 78
     2
 67
     7
 79
     3
170
     0
171
     0
290
     0
174
     0
 93
        5
 44
0.0
173
     0
291
     0
 45
0.0
1001
ACAD
1000
AcDbSavedByObjectVersion
1070
     0
  0
VISUALSTYLE
  5
3A
102
{ACAD_XDICTIONARY
360
1255
102
}
102
{ACAD_REACTORS
330
29
102
}
330
29
100
AcDbVisualStyle
  2
Shades of Gray
 70
    23
 71
     2
 72
     2
 73
     3
 90
        0
 40
-0.6
 41
-30.0
 62
     5
 63
     7
 74
     2
 91
        2
 64
     7
 65
     7
 75
     1
175
     1
 42
40.0
 92
        8
 66
     7
 43
1.0
 76
     1
 77
     6
 78
     2
 67
     7
 79
     3
170
     0
171
     0
290
     0
174
     0
 93
        1
 44
0.0
173
     0
291
     0
 45
0.0
1001
ACAD
1000
AcDbSavedByObjectVersion
1070
     0
  0
VISUALSTYLE
  5
3B
102
{ACAD_XDICTIONARY
360
1257
102
}
102
{ACAD_REACTORS
330
29
102
}
330
29
100
AcDbVisualStyle
  2
Sketchy
 70
    24
 71
     1
 72
     2
 73
     2
 90
        0
 40
-0.6
 41
-30.0
 62
     5
 63
     7
 74
     2
 91
        2
 64
     7
 65
     7
 75
     1
175
     1
 42
40.0
 92
       11
 66
     7
 43
1.0
 76
     1
 77
     6
 78
     2
 67
     7
 79
     6
170
     0
171
     0
290
     0
174
     0
 93
        1
 44
0.0
173
     0
291
     0
 45
0.0
1001
ACAD
1000
AcDbSavedByObjectVersion
1070
     0
  0
VISUALSTYLE
  5
36
102
{ACAD_XDICTIONARY
360
124D
102
}
102
{ACAD_REACTORS
330
29
102
}
330
29
100
AcDbVisualStyle
  2
Thicken
 70
    13
 71
     2
 72
     2
 73
     0
 90
        0
 40
-0.6
 41
-30.0
 62
     5
 63
     7
 74
     1
 91
        4
 64
     7
 65
   257
 75
     1
175
     1
 42
1.0
 92
       12
 66
     7
 43
1.0
 76
     1
 77
     6
 78
     2
 67
     7
 79
     5
170
     0
171
     0
290
     0
174
     0
 93
        1
 44
0.0
173
     0
291
     1
 45
0.0
1001
ACAD
1000
AcDbSavedByObjectVersion
1070
     0
  0
VISUALSTYLE
  5
30
102
{ACAD_XDICTIONARY
360
1241
102
}
102
{ACAD_REACTORS
330
29
102
}
330
29
100
AcDbVisualStyle
  2
Wireframe
 70
     5
 71
     0
 72
     2
 73
     0
 90
        0
 40
-0.6
 41
-30.0
 62
     5
 63
     7
 74
     1
 91
        4
 64
     7
 65
   257
 75
     1
175
     1
 42
1.0
 92
        0
 66
   257
 43
1.0
 76
     1
 77
     6
 78
     2
 67
     7
 79
     3
170
     0
171
     0
290
     0
174
     0
 93
        1
 44
0.0
173
     0
291
     0
 45
0.0
1001
ACAD
1000
AcDbSavedByObjectVersion
1070
     0
  0
VISUALSTYLE
  5
3C
102
{ACAD_XDICTIONARY
360
1259
102
}
102
{ACAD_REACTORS
330
29
102
}
330
29
100
AcDbVisualStyle
  2
X-Ray
 70
    25
 71
     2
 72
     2
 73
     1
 90
        1
 40
0.5
 41
-30.0
 62
     5
 63
     7
 74
     1
 91
        0
 64
     7
 65
   257
 75
     1
175
     1
 42
1.0
 92
        8
 66
     7
 43
1.0
 76
     1
 77
     6
 78
     2
 67
     7
 79
     3
170
     0
171
     0
290
     0
174
     0
 93
       13
 44
0.0
173
     0
291
     0
 45
0.0
1001
ACAD
1000
AcDbSavedByObjectVersion
1070
     0
  0
DICTIONARYVAR
  5
D82
102
{ACAD_REACTORS
330
D7F
102
}
330
D7F
100
DictionaryVariables
280
     0
  1
1:1
  0
DICTIONARYVAR
  5
D81
102
{ACAD_REACTORS
330
D7F
102
}
330
D7F
100
DictionaryVariables
280
     0
  1
STANDARD
  0
DICTIONARYVAR
  5
D80
102
{ACAD_REACTORS
330
D7F
102
}
330
D7F
100
DictionaryVariables
280
     0
  1
STANDARD
  0
DICTIONARYVAR
  5
F11
102
{ACAD_REACTORS
330
D7F
102
}
330
D7F
100
DictionaryVariables
280
     0
  1
1
  0
DICTIONARYVAR
  5
F10
102
{ACAD_REACTORS
330
D7F
102
}
330
D7F
100
DictionaryVariables
280
     0
  1
1
  0
DICTIONARYVAR
  5
F0F
102
{ACAD_REACTORS
330
D7F
102
}
330
D7F
100
DictionaryVariables
280
     0
  1
0
  0
DICTIONARYVAR
  5
F0C
102
{ACAD_REACTORS
330
D7F
102
}
330
D7F
100
DictionaryVariables
280
     0
  1
0
  0
DICTIONARYVAR
  5
F0D
102
{ACAD_REACTORS
330
D7F
102
}
330
D7F
100
DictionaryVariables
280
     0
  1
0
  0
DICTIONARYVAR
  5
F0B
102
{ACAD_REACTORS
330
D7F
102
}
330
D7F
100
DictionaryVariables
280
     0
  1
2
  0
DICTIONARYVAR
  5
F0A
102
{ACAD_REACTORS
330
D7F
102
}
330
D7F
100
DictionaryVariables
280
     0
  1
1
  0
DICTIONARYVAR
  5
F0E
102
{ACAD_REACTORS
330
D7F
102
}
330
D7F
100
DictionaryVariables
280
     0
  1
127
  0
DICTIONARYVAR
  5
121B
102
{ACAD_REACTORS
330
D7F
102
}
330
D7F
100
DictionaryVariables
280
     0
  1
2
  0
DICTIONARY
  5
103D
102
{ACAD_REACTORS
330
1032
102
}
330
1032
100
AcDbDictionary
281
     1
  0
DICTIONARY
  5
1266
330
6B
100
AcDbDictionary
280
     1
281
     1
  3
ACAD_XREC_ROUNDTRIP
360
1267
  0
DICTIONARY
  5
1269
330
73
100
AcDbDictionary
280
     1
281
     1
  3
ACAD_XREC_ROUNDTRIP
360
126A
  0
DICTIONARY
  5
E2A
330
6F
100
AcDbDictionary
280
     1
281
     1
  3
ACAD_XREC_ROUNDTRIP
360
1268
  3
ADSK_XREC_LAYOUTTHUMBNAIL
360
E2B
  0
DICTIONARY
  5
1A
330
19
100
AcDbDictionary
280
     1
281
     1
  3
ACAD_XREC_ROUNDTRIP
360
1233
  3
BUMPTILE
360
1C
  3
DIFFUSETILE
360
1B
  3
OPACITYTILE
360
1F
  3
REFLECTIONTILE
360
1E
  3
REFRACTIONTILE
360
20
  3
SPECULARTILE
360
1D
  0
DICTIONARY
  5
12
330
11
100
AcDbDictionary
280
     1
281
     1
  3
ACAD_XREC_ROUNDTRIP
360
1232
  3
BUMPTILE
360
14
  3
DIFFUSETILE
360
13
  3
OPACITYTILE
360
17
  3
REFLECTIONTILE
360
16
  3
REFRACTIONTILE
360
18
  3
SPECULARTILE
360
15
  0
DICTIONARY
  5
22
330
21
100
AcDbDictionary
280
     1
281
     1
  3
ACAD_XREC_ROUNDTRIP
360
1234
  3
BUMPTILE
360
24
  3
DIFFUSETILE
360
23
  3
OPACITYTILE
360
27
  3
REFLECTIONTILE
360
26
  3
REFRACTIONTILE
360
28
  3
SPECULARTILE
360
25
  0
DICTIONARY
  5
EB2
330
65
100
AcDbDictionary
280
     1
281
     1
  3
ACAD_ROUNDTRIP_2008_TABLESTYLE_CELLSTYLEMAP
360
121C
  3
ACAD_XREC_ROUNDTRIP
360
1265
  0
DICTIONARY
  5
123F
330
2F
100
AcDbDictionary
280
     1
281
     1
  3
ACAD_XREC_ROUNDTRIP
360
1240
  0
DICTIONARY
  5
123D
330
2E
100
AcDbDictionary
280
     1
281
     1
  3
ACAD_XREC_ROUNDTRIP
360
123E
  0
DICTIONARY
  5
124B
330
35
100
AcDbDictionary
280
     1
281
     1
  3
ACAD_XREC_ROUNDTRIP
360
124C
  0
DICTIONARY
  5
1253
330
39
100
AcDbDictionary
280
     1
281
     1
  3
ACAD_XREC_ROUNDTRIP
360
1254
  0
DICTIONARY
  5
1245
330
32
100
AcDbDictionary
280
     1
281
     1
  3
ACAD_XREC_ROUNDTRIP
360
1246
  0
DICTIONARY
  5
1249
330
34
100
AcDbDictionary
280
     1
281
     1
  3
ACAD_XREC_ROUNDTRIP
360
124A
  0
DICTIONARY
  5
1263
330
41
100
AcDbDictionary
280
     1
281
     1
  3
ACAD_XREC_ROUNDTRIP
360
1264
  0
DICTIONARY
  5
1251
330
38
100
AcDbDictionary
280
     1
281
     1
  3
ACAD_XREC_ROUNDTRIP
360
1252
  0
DICTIONARY
  5
1235
330
2A
100
AcDbDictionary
280
     1
281
     1
  3
ACAD_XREC_ROUNDTRIP
360
1236
  0
DICTIONARY
  5
1237
330
2B
100
AcDbDictionary
280
     1
281
     1
  3
ACAD_XREC_ROUNDTRIP
360
1238
  0
DICTIONARY
  5
1239
330
2C
100
AcDbDictionary
280
     1
281
     1
  3
ACAD_XREC_ROUNDTRIP
360
123A
  0
DICTIONARY
  5
123B
330
2D
100
AcDbDictionary
280
     1
281
     1
  3
ACAD_XREC_ROUNDTRIP
360
123C
  0
DICTIONARY
  5
1243
330
31
100
AcDbDictionary
280
     1
281
     1
  3
ACAD_XREC_ROUNDTRIP
360
1244
  0
DICTIONARY
  5
125F
330
3F
100
AcDbDictionary
280
     1
281
     1
  3
ACAD_XREC_ROUNDTRIP
360
1260
  0
DICTIONARY
  5
124F
330
37
100
AcDbDictionary
280
     1
281
     1
  3
ACAD_XREC_ROUNDTRIP
360
1250
  0
DICTIONARY
  5
1261
330
40
100
AcDbDictionary
280
     1
281
     1
  3
ACAD_XREC_ROUNDTRIP
360
1262
  0
DICTIONARY
  5
1247
330
33
100
AcDbDictionary
280
     1
281
     1
  3
ACAD_XREC_ROUNDTRIP
360
1248
  0
DICTIONARY
  5
125D
330
3E
100
AcDbDictionary
280
     1
281
     1
  3
ACAD_XREC_ROUNDTRIP
360
125E
  0
DICTIONARY
  5
125B
330
3D
100
AcDbDictionary
280
     1
281
     1
  3
ACAD_XREC_ROUNDTRIP
360
125C
  0
DICTIONARY
  5
1255
330
3A
100
AcDbDictionary
280
     1
281
     1
  3
ACAD_XREC_ROUNDTRIP
360
1256
  0
DICTIONARY
  5
1257
330
3B
100
AcDbDictionary
280
     1
281
     1
  3
ACAD_XREC_ROUNDTRIP
360
1258
  0
DICTIONARY
  5
124D
330
36
100
AcDbDictionary
280
     1
281
     1
  3
ACAD_XREC_ROUNDTRIP
360
124E
  0
DICTIONARY
  5
1241
330
30
100
AcDbDictionary
280
     1
281
     1
  3
ACAD_XREC_ROUNDTRIP
360
1242
  0
DICTIONARY
  5
1259
330
3C
100
AcDbDictionary
280
     1
281
     1
  3
ACAD_XREC_ROUNDTRIP
360
125A
  0
XRECORD
  5
1267
102
{ACAD_REACTORS
330
1266
102
}
330
1266
100
AcDbXrecord
280
     1
102
SHADEPLOT
 70
     0
102
SHADEPLOTRESLEVEL
 70
     2
102
SHADEPLOTCUSTOMDPI
 70
   300
  0
XRECORD
  5
126A
102
{ACAD_REACTORS
330
1269
102
}
330
1269
100
AcDbXrecord
280
     1
102
SHADEPLOT
 70
     0
102
SHADEPLOTRESLEVEL
 70
     2
102
SHADEPLOTCUSTOMDPI
 70
   300
  0
XRECORD
  5
1268
102
{ACAD_REACTORS
330
E2A
102
}
330
E2A
100
AcDbXrecord
280
     1
102
SHADEPLOT
 70
     0
102
SHADEPLOTRESLEVEL
 70
     2
102
SHADEPLOTCUSTOMDPI
 70
   300
  0
XRECORD
  5
E2B
102
{ACAD_REACTORS
330
E2A
102
}
330
E2A
100
AcDbXrecord
280
     1
310
280000000001000080000000010008000000000000800000000000000000000000010000000000003028210000000000FFFFFF000000000000000000000000000000000000000000000000000000000000000000330000006600000099000000CC000000FF00000000330000333300006633000099330000CC330000FF3300
310
0000660000336600006666000099660000CC660000FF66000000990000339900006699000099990000CC990000FF99000000CC000033CC000066CC000099CC0000CCCC0000FFCC000000FF000033FF000066FF000099FF0000CCFF0000FFFF000000003300330033006600330099003300CC003300FF003300003333003333
310
33006633330099333300CC333300FF33330000663300336633006666330099663300CC663300FF66330000993300339933006699330099993300CC993300FF99330000CC330033CC330066CC330099CC3300CCCC3300FFCC330000FF330033FF330066FF330099FF3300CCFF3300FFFF330000006600330066006600660099
310
006600CC006600FF00660000336600333366006633660099336600CC336600FF33660000666600336666006666660099666600CC666600FF66660000996600339966006699660099996600CC996600FF99660000CC660033CC660066CC660099CC6600CCCC6600FFCC660000FF660033FF660066FF660099FF6600CCFF6600
310
FFFF660000009900330099006600990099009900CC009900FF00990000339900333399006633990099339900CC339900FF33990000669900336699006666990099669900CC669900FF66990000999900339999006699990099999900CC999900FF99990000CC990033CC990066CC990099CC9900CCCC9900FFCC990000FF99
310
0033FF990066FF990099FF9900CCFF9900FFFF99000000CC003300CC006600CC009900CC00CC00CC00FF00CC000033CC003333CC006633CC009933CC00CC33CC00FF33CC000066CC003366CC006666CC009966CC00CC66CC00FF66CC000099CC003399CC006699CC009999CC00CC99CC00FF99CC0000CCCC0033CCCC0066CC
310
CC0099CCCC00CCCCCC00FFCCCC0000FFCC0033FFCC0066FFCC0099FFCC00CCFFCC00FFFFCC000000FF003300FF006600FF009900FF00CC00FF00FF00FF000033FF003333FF006633FF009933FF00CC33FF00FF33FF000066FF003366FF006666FF009966FF00CC66FF00FF66FF000099FF003399FF006699FF009999FF00CC
310
99FF00FF99FF0000CCFF0033CCFF0066CCFF0099CCFF00CCCCFF00FFCCFF0000FFFF0033FFFF0066FFFF0099FFFF00CCFFFF00FFFFFF00000000000D0D0D001A1A1A00282828003535350043434300505050005D5D5D006B6B6B00787878008686860093939300A1A1A100AEAEAE00BBBBBB00C9C9C900D6D6D600E4E4E400
310
F1F1F100FFFFFF000000000000000000000000000000000000000000000000000000000000000000000000000000000000000000000000000000000000000000000000000000000000000000000000000000000000000000000000000000000000000000000000000000000000000000000000000000000000000000000000
310
00000000000000000000000000000000000000000000000000000000000000000000000000000000000000000000000000000000000000000000000000000000000000000000000000000000000000000000000000000000000000000000000000000000000000000000000000000000000000000000000000000000000000
310
00000000000000000000000000000000000000000000000000000000000000000000000000000000000000000000000000000000000000000000000000000000000000000000000000000000000000000000000000000000000000000000000000000000000000000000000000000000000000000000000000000000000000
310
00000000000000000000000000000000000000000000000000000000000000000000000000000000000000000000000000000000000000000000000000000000000000000000000000000000000000000000000000000000000000000000000000000000000000000000000000000000000000000000000000000000000000
310
00000000000000000000000000000000000000000000000000000000000000000000000000000000000000000000000000000000000000000000000000000000000000000000000000000000000000000000000000000000000000000000000000000000000000000000000000000000000000000000000000000000000000
310
00000000000000000000000000000000000000000000000000000000000000000000000000000000000000000000000000000000000000000000000000000000000000000000000000000000000000000000000000000000000000000000000000000000000000000000000000000000000000000000000000000000000000
310
00000000000000000000000000000000000000000000000000000000000000000000000000000000000000000000000000000000000000000000000000000000000000000000000000000000000000000000000000000000000000000000000000000000000000000000000000000000000000000000000000000000000000
310
00000000000000000000000000000000000000000000000000000000000000000000000000000000000000000000000000000000000000000000000000000000000000000000000000000000000000000000000000000000000000000000000000000000000000000000000000000000000000000000000000000000000000
310
00000000000000000000000000000000000000000000000000000000000000000000000000000000000000000000000000000000000000000000000000000000000000000000000000000000000000000000000000000000000000000000000000000000000000000000000000000000000000000000000000000000000000
310
00000000000000000000000000000000000000000000000000000000000000000000000000000000000000000000000000000000000000000000000000000000000000000000000000000000000000000000000000000000000000000000000000000000000000000000000000000000000000000000000000000000000000
310
00000000000000000000000000000000000000000000000000000000000000000000000000000000000000000000000000000000000000000000000000000000000000000000000000000000000000000000000000000000000000000000000000000000000000000000000000000000000000000000000000000000000000
310
00000000000000000000000000000000000000000000000000000000000000000000000000000000000000000000000000000000000000000000000000000000000000000000000000000000000000000000000000000000000000000000000000000000000000000000000000000000000000000000000000000000000000
310
00000000000000000000000000000000000000000000000000000000000000000000000000000000000000000000000000000000000000000000000000000000000000000000000000000000000000000000000000000000000000000000000000000000000000000000000000000000000000000000000000000000000000
310
00000000000000000000000000000000000000000000000000000000000000000000000000000000000000000000000000000000000000000000000000000000000000000000000000000000000000000000000000000000000000000000000000000000000000000000000000000000000000000000000000000000000000
310
00000000000000000000000000000000000000000000000000000000000000000000000000000000000000000000000000000000000000000000000000000000000000000000000000000000000000000000000000000000000000000000000000000000000000000000000000000000000000000000000000000000000000
310
00000000000000000000000000000000000000000000000000000000000000000000000000000000000000000000000000000000000000000000000000000000000000000000000000000000000000000000000000000000000000000000000000000000000000000000000000000000000000000000000000000000000000
310
00000000000000000000000000000000000000000000000000000000000000000000000000000000000000000000000000000000000000000000000000000000000000000000000000000000000000000000000000000000000000000000000000000000000000000000000000000000000000000000000000000000000000
310
00000000000000000000000000000000000000000000000000000000000000000000000000000000000000000000000000000000000000000000000000000000000000000000000000000000000000000000000000000000000000000000000000000000000000000000000000000000000000000000000000000000000000
310
00000000000000000000000000000000000000000000000000000000000000000000000000000000000000000000000000000000000000000000000000000000000000000000000000000000000000000000000000000000000000000000000000000000000000000000000000000000000000000000000000000000000000
310
00000000000000000000000000000000000000000000000000000000000000000000000000000000000000000000000000000000000000000000000000000000000000000000000000000000000000000000000000000000000000000000000000000000000000000000000000000000000000000000000000000000000000
310
00000000000000000000000000000000000000000000000000000000000000000000000000000000000000000000000000000000000000000000000000000000000000000000000000000000000000000000000000000000000000000000000000000000000000000000000000000000000000000000000000000000000000
310
0000F5F5F5F5F5F5F5F5F5F500000000000000000000000000000000000000000000000000000000000000000000000000000000000000000000000000000000000000000000000000000000000000000000000000000000000000000000000000000000000000000000000000000000000000000000000000000000000000
310
000000000000000000000000000000000000000000000000000000000000000000000000000000000000000000000000000000000000000000000000000000000000000000000000000000000000000000000000000000000000000000000000000000000000000000000000000000000000000000000000000000000000F5
310
F5F5F5F5F50000000000000000F5F5F5F5F5F5000000000000000000000000000000000000000000000000000000000000000000000000000000000000000000000000000000000000000000000000000000000000000000000000000000000000000000000000000000000000000000000000000000000000000000000000
310
0000000000000000000000000000000000000000000000000000000000000000000000000000000000000000000000000000000000000000000000000000000000000000000000000000000000000000000000000000000000000000000000000000000000000000000000000000000000000000000000000000000000F5F5
310
F5F500000000000000000000000000000000000000F5F5F500000000000000000000000000000000000000000000000000000000000000000000000000000000000000000000000000000000000000000000000000000000000000000000000000000000000000000000000000000000000000000000000000000000000000
310
0000000000000000000000000000000000000000000000000000000000000000000000000000000000000000000000000000000000000000000000000000000000000000000000000000000000000000000000000000000000000000000000000000000000000000000000000000000000000000000000000000000000F5F5
310
F500000000000000000000000000000000000000000000000000F5F5F50000000000000000000000000000000000000000000000000000000000000000000000000000000000000000000000000000000000000000000000000000000000000000000000000000000000000000000000000000000000000000000000000000
310
0000000000000000000000000000000000000000000000000000000000000000000000000000000000000000000000000000000000000000000000000000000000000000000000000000000000000000000000000000000000000000000000000000000000000000000000000000000000000000000000000000000000F5F5
310
000000000000000000000000000000000000000000000000000000000000F5F5F500000000000000000000000000000000000000000000000000000000000000000000000000000000000000000000000000000000000000000000000000000000000000000000000000000000000000000000000000000000000000000000
310
0000000000000000000000000000000000000000000000000000000000000000000000000000000000000000000000000000000000000000000000000000000000000000000000000000000000000000000000000000000000000000000000000000000000000000000000000000000000000000000000000000000000F5F5
310
00000000000000000000000000000000000000000000000000000000000000000000F5F5F5000000000000000000000000000000000000000000000000000000000000000000000000000000000000000000000000000000000000000000000000000000000000000000000000000000000000000000000000000000000000
310
0000000000000000000000000000000000000000000000000000000000000000000000000000000000000000000000000000000000000000000000000000000000000000000000000000000000000000000000000000000000000000000000000000000000000000000000000000000000000000000000000000000000F5F5
310
0000000000000000000000000000000000000000000000000000000000000000000000000000F5F5000000000000000000000000000000000000000000000000000000000000000000000000000000000000000000000000000000000000000000000000000000000000000000000000000000000000000000000000000000
310
000000000000000000000000000000000000000000000000000000000000000000000000000000000000000000000000000000000000000000000000000000000000000000000000000000000000000000000000000000000000000000000000000000000000000000000000000000000000000000000000000000000000F5
310
F500000000000000000000000000000000000000000000000000000000000000000000000000000000F5F5000000000000000000000000000000000000000000000000000000000000000000000000000000000000000000000000000000000000000000000000000000000000000000000000000000000000000000000000
310
00000000000000000000000000000000000000000000000000000000000000000000000000000000000000000000000000000000000000000000000000000000000000000000000000000000000000000000000000000000000000000000000000000000000000000000000000000000000000000000000000000000000000
310
F5F500000000000000000000000000000000000000000000000000000000000000000000000000000000000000F5F50000000000000000000000000000000000000000000000000000000000000000000000000000000000000000000000000000000000000000000000000000000000000000000000000000000000000000
310
00000000000000000000000000000000000000000000000000000000000000000000000000000000000000000000000000000000000000000000000000000000000000000000000000000000000000000000000000000000000000000000000000000000000000000000000000000000000000000000000000000000000000
310
00F500000000000000000000000000000000000000000000000000000000000000000000000000000000000000000000F5F50000000000000000000000000000000000000000000000000000000000000000000000000000000000000000000000000000000000000000000000000000000000000000000000000000000000
310
00000000000000000000000000000000000000000000000000000000000000000000000000000000000000000000000000000000000000000000000000000000000000000000000000000000000000000000000000000000000000000000000000000000000000000000000000000000000000000000000000000000000000
310
00F5F5000000000000000000000000000000000000000000000000000000000000000000000000000000000000000000000000F5F50000000000000000000000000000000000000000000000000000000000000000000000000000000000000000000000000000000000000000000000000000000000000000000000000000
310
00000000000000000000000000000000000000000000000000000000000000000000000000000000000000000000000000000000000000000000000000000000000000000000000000000000000000000000000000000000000000000000000000000000000000000000000000000000000000000000000000000000000000
310
0000F5F50000000000000000000000000000000000000000000000000000000000000000000000000000000000000000000000000000F5F50000000000000000000000000000000000000000000000000000000000000000000000000000000000000000000000000000000000000000000000000000000000000000000000
310
00000000000000000000000000000000000000000000000000000000000000000000000000000000000000000000000000000000000000000000000000000000000000000000000000000000000000000000000000000000000000000000000000000000000000000000000000000000000000000000000000000000000000
310
00000000F500000000000000000000000000000000000000000000000000000000000000000000000000000000000000000000000000000000F5F50000000000000000000000000000000000000000000000000000000000000000000000000000000000000000000000000000000000000000000000000000000000000000
310
00000000000000000000000000000000000000000000000000000000000000000000000000000000000000000000000000000000000000000000000000000000000000000000000000000000000000000000000000000000000000000000000000000000000000000000000000000000000000000000000000000000000000
310
0000000000F5000000000000000000000000000000000000000000000000000000000000000000000000000000000000000000000000000000000000F5F50000000000000000000000000000000000000000000000000000000000000000000000000000000000000000000000000000000000000000000000000000000000
310
00000000000000000000000000000000000000000000000000000000000000000000000000000000000000000000000000000000000000000000000000000000000000000000000000000000000000000000000000000000000000000000000000000000000000000000000000000000000000000000000000000000000000
310
000000000000F500000000000000000000000000000000000000000000000000000000000000000000000000000000000000000000000000000000000000F5F5F50000000000000000000000000000000000000000000000000000000000000000000000000000000000000000000000000000000000000000000000000000
310
00000000000000000000000000000000000000000000000000000000000000000000000000000000000000000000000000000000000000000000000000000000000000000000000000000000000000000000000000000000000000000000000000000000000000000000000000000000000000000000000000000000000000
310
00000000000000F5F5000000000000000000000000000000000000000000000000000000000000000000000000000000000000000000000000000000000000F50000F5000000000000000000000000000000000000000000000000000000000000000000000000000000000000000000000000000000000000000000000000
310
00000000000000000000000000000000000000000000000000000000000000000000000000000000000000000000000000000000000000000000000000000000000000000000000000000000000000000000000000000000000000000000000000000000000000000000000000000000000000000000000000000000000000
310
0000000000000000F5F5000000000000000000000000000000000000000000000000000000000000000000000000000000000000000000000000000000000000F5000000F5F5000000000000000000000000000000000000000000000000000000000000000000000000000000000000000000000000000000000000000000
310
00000000000000000000000000000000000000000000000000000000000000000000000000000000000000000000000000000000000000000000000000000000000000000000000000000000000000000000000000000000000000000000000000000000000000000000000000000000000000000000000000000000000000
310
00000000000000000000F50000000000000000000000000000000000000000000000000000000000000000000000000000000000000000000000000000000000F5F50000000000F5F5000000000000000000000000000000000000000000000000000000000000000000000000000000000000000000000000000000000000
310
00000000000000000000000000000000000000000000000000000000000000000000000000000000000000000000000000000000000000000000000000000000000000000000000000000000000000000000000000000000000000000000000000000000000000000000000000000000000000000000000000000000000000
310
0000000000000000000000F50000000000000000000000000000000000000000000000000000000000000000000000000000000000000000000000000000000000F50000000000000000F500000000000000000000000000000000000000000000000000000000000000000000000000000000000000000000000000000000
310
00000000000000000000000000000000000000000000000000000000000000000000000000000000000000000000000000000000000000000000000000000000000000000000000000000000000000000000000000000000000000000000000000000000000000000000000000000000000000000000000000000000000000
310
000000000000000000000000F5F500000000000000000000000000000000000000000000000000000000000000000000000000000000000000000000000000000000F500000000000000000000F500000000000000000000000000000000000000000000000000000000000000000000000000000000000000000000000000
310
00000000000000000000000000000000000000000000000000000000000000000000000000000000000000000000000000000000000000000000000000000000000000000000000000000000000000000000000000000000000000000000000000000000000000000000000000000000000000000000000000000000000000
310
0000000000000000000000000000F500000000000000000000000000000000000000000000000000000000000000000000000000000000000000000000000000000000F50000000000000000000000F50000000000000000000000000000000000000000000000000000000000000000000000000000000000000000000000
310
00000000000000000000000000000000000000000000000000000000000000000000000000000000000000000000000000000000000000000000000000000000000000000000000000000000000000000000000000000000000000000000000000000000000000000000000000000000000000000000000000000000000000
310
000000000000000000000000000000F5F5000000000000000000000000000000000000000000000000000000000000000000000000000000000000000000000000000000F500000000000000000000000000F50000000000000000000000000000000000000000000000000000000000000000000000000000000000000000
310
00000000000000000000000000000000000000000000000000000000000000000000000000000000000000000000000000000000000000000000000000000000000000000000000000000000000000000000000000000000000000000000000000000000000000000000000000000000000000000000000000000000000000
310
0000000000000000000000000000000000F50000000000000000000000000000000000000000000000000000000000000000000000000000000000000000000000000000F5F50000000000000000000000000000F5000000000000000000000000000000000000000000000000000000000000000000000000000000000000
310
00000000000000000000000000000000000000000000000000000000000000000000000000000000000000000000000000000000000000000000000000000000000000000000000000000000000000000000000000000000000000000000000000000000000000000000000000000000000000000000000000000000000000
310
00000000000000000000000000000000000000F500000000000000000000000000000000000000000000000000000000000000000000000000000000000000000000000000F500000000000000000000000000000000F5F5000000000000000000000000000000000000000000000000000000000000000000000000000000
310
00000000000000000000000000000000000000000000000000000000000000000000000000000000000000000000000000000000000000000000000000000000000000000000000000000000000000000000000000000000000000000000000000000000000000000000000000000000000000000000000000000000000000
310
0000000000000000000000000000000000000000F5F5000000000000000000000000000000000000000000000000000000000000000000000000000000000000000000000000F5000000000000000000000000000000000000F500000000000000000000000000000000000000000000000000000000000000000000000000
310
00000000000000000000000000000000000000000000000000000000000000000000000000000000000000000000000000000000000000000000000000000000000000000000000000000000000000000000000000000000000000000000000000000000000000000000000000000000000000000000000000000000000000
310
00000000000000000000000000000000000000000000F5000000000000000000000000000000000000000000000000000000000000000000000000000000000000000000000000F500000000000000000000000000000000000000F50000000000000000000000000000000000000000000000000000000000000000000000
310
00000000000000000000000000000000000000000000000000000000000000000000000000000000000000000000000000000000000000000000000000000000000000000000000000000000000000000000000000000000000000000000000000000000000000000000000000000000000000000000000000000000000000
310
000000000000000000000000000000000000000000000000F50000000000000000000000000000000000000000000000000000000000000000000000000000000000000000000000F5000000000000000000000000000000000000000000F50000000000000000000000000000000000000000000000000000000000000000
310
00000000000000000000000000000000000000000000000000000000000000000000000000000000000000000000000000000000000000000000000000000000000000000000000000000000000000000000000000000000000000000000000000000000000000000000000000000000000000000000000000000000000000
310
00000000000000000000000000000000000000000000000000F5000000000000000000000000000000000000000000000000000000000000000000F5F5F5F5000000000000000000F5F500000000000000000000000000000000000000000000F5000000000000000000000000000000000000000000000000000000000000
310
00000000000000000000000000000000000000000000000000000000000000000000000000000000000000000000000000000000000000000000000000000000000000000000000000000000000000000000000000000000000000000000000000000000000000000000000000000000000000000000000000000000000000
310
000000000000000000000000000000000000000000000000000000F5000000000000000000000000000000000000000000000000000000000000F5F5F5F5F500F5F5F5F50000000000F5000000000000000000000000000000000000000000000000F500000000000000000000000000000000000000000000000000000000
310
00000000000000000000000000000000000000000000000000000000000000000000000000000000000000000000000000000000000000000000000000000000000000000000000000000000000000000000000000000000000000000000000000000000000000000000000000000000000000000000000000000000000000
310
0000000000000000000000000000000000000000000000000000000000F50000000000000000000000000000000000000000000000000000000000F5F5F5000000000000F5F5F5000000F500000000000000000000000000000000000000000000000000F5F500000000000000000000000000000000000000000000000000
310
00000000000000000000000000000000000000000000000000000000000000000000000000000000000000000000000000000000000000000000000000000000000000000000000000000000000000000000000000000000000000000000000000000000000000000000000000000000000000000000000000000000000000
310
00000000000000000000000000000000000000000000000000000000000000F500000000000000000000000000000000000000000000000000000000F5F5F5F5F500000000F5F5F5F5F5F5F5000000000000000000000000000000000000000000000000000000F50000000000000000000000000000000000000000000000
310
00000000000000000000000000000000000000000000000000000000000000000000000000000000000000000000000000000000000000000000000000000000000000000000000000000000000000000000000000000000000000000000000000000000000000000000000000000000000000000000000000000000000000
310
000000000000000000000000000000000000000000000000000000000000000000F5000000000000000000000000000000000000000000000000000000F5F5F500F5F500000000F5F500F5F5F500000000000000000000000000000000000000000000000000000000F5000000000000000000000000000000000000000000
310
00000000000000000000000000000000000000000000000000000000000000000000000000000000000000000000000000000000000000000000000000000000000000000000000000000000000000000000000000000000000000000000000000000000000000000000000000000000000000000000000000000000000000
310
00000000000000000000000000000000000000000000000000000000000000000000F5000000000000000000000000000000000000000000000000000000F5F5F500F5F5000000000000F5F5F5F5F5F5000000000000000000000000000000000000000000000000000000F500000000000000000000000000000000000000
310
00000000000000000000000000000000000000000000000000000000000000000000000000000000000000000000000000000000000000000000000000000000000000000000000000000000000000000000000000000000000000000000000000000000000000000000000000000000000000000000000000000000000000
310
000000000000000000000000000000000000000000000000000000000000000000000000F5000000000000000000000000000000000000000000000000000000F5F500F5F50000000000000000F5F500F5F5000000000000000000000000000000000000000000000000000000F50000000000000000000000000000000000
310
00000000000000000000000000000000000000000000000000000000000000000000000000000000000000000000000000000000000000000000000000000000000000000000000000000000000000000000000000000000000000000000000000000000000000000000000000000000000000000000000000000000000000
310
0000000000000000000000000000000000000000000000000000000000000000000000000000F5000000000000000000000000000000000000000000000000000000F5F500F500F500F5F5F5F500F500F500F5F5F50000000000000000000000000000000000000000000000000000F5000000000000000000000000000000
310
000000000000000000000000000000000000000000000000000000F5F5F5F5F5F5F5000000000000000000000000000000000000000000000000000000000000000000000000000000000000000000000000000000000000000000000000000000000000000000000000000000000000000000000000000000000000000000
310
00000000000000000000000000000000000000000000000000000000000000000000000000000000F5000000000000000000000000000000000000000000000000000000F5F500F50000F5F5F5F5F5F50000F5F500F5F50000000000000000000000000000000000000000000000000000F500000000000000000000000000
310
0000000000000000000000000000000000000000F5F5F5F5F5F5F5F5F5F5F5F5F5F5F5F5F5F5F5F5F5F5F5F50000000000000000000000000000000000000000000000000000000000000000000000000000000000000000000000000000000000000000000000000000000000000000000000000000000000000000000000
310
000000000000000000000000000000000000000000000000000000000000000000000000000000000000F50000000000000000000000000000000000000000000000000000F5F5F5F5F50000F500F5F5F5F5000000F5F5F5F50000000000000000000000000000000000000000000000000000F50000000000000000000000
310
000000000000000000000000000000000000F5F5F5F5F5F5000000000000000000000000000000000000000000F5F5F5F5F5F500000000000000000000000000000000000000000000000000000000000000000000000000000000000000000000000000000000000000000000000000000000000000000000000000000000
310
0000000000000000000000000000000000000000000000000000000000000000000000000000000000000000F50000000000000000000000000000000000000000000000000000F5F5F5F5F50000F500F5F5F5F5000000F5F5F5F50000000000000000000000000000000000000000000000000000F5000000000000000000
310
0000000000000000000000000000000000F5F5F5F5000000000000000000000000000000000000000000000000000000000000F5F5F5F5F50000000000000000000000000000000000000000000000000000000000000000000000000000000000000000000000000000000000000000000000000000000000000000000000
310
00000000000000000000000000000000000000000000000000000000000000000000000000000000000000000000F5000000000000000000000000000000000000000000000000000000F5F500F50000F5F5F5F5F5F5000000F500F5F50000000000000000000000000000000000000000000000000000F500000000000000
310
00000000000000000000000000000000F5F5F5F500000000000000000000000000000000000000000000000000000000000000000000000000F5F5F500000000000000000000000000000000000000000000000000000000000000000000000000000000000000000000000000000000000000000000000000000000000000
310
000000000000000000000000000000000000000000000000000000000000000000000000000000000000000000000000F5000000000000000000000000000000000000000000000000000000F5F500F50000F5F5F5F5F500F500F5F5F5F5F50000000000000000000000000000000000000000000000000000F50000000000
310
00000000000000000000000000000000F5F5F5000000000000000000000000000000000000000000000000000000000000000000000000000000000000F5F5F5000000000000000000000000000000000000000000000000000000000000000000000000000000000000000000000000000000000000000000000000000000
310
0000000000000000000000000000000000000000000000000000000000000000000000000000000000000000000000000000F5000000000000000000000000000000000000000000000000000000F5F500F5F5F500000000000000F5F500F5F5000000000000000000000000000000000000000000000000000000F5000000
310
00000000000000000000000000000000F5F5F500000000000000000000000000000000000000000000000000000000000000000000000000000000000000000000F5F5F50000000000000000000000000000000000000000000000000000000000000000000000000000000000000000000000000000000000000000000000
310
00000000000000000000000000000000000000000000000000000000000000000000000000000000000000000000000000000000F5000000000000000000000000000000000000000000000000000000F5F5F500F5F5000000000000F5F500F5F5F5000000000000000000000000000000000000000000000000000000F500
310
00000000000000000000000000000000F5F5F50000000000000000000000000000000000000000000000000000000000000000000000000000000000000000000000000000F5F5F500000000000000000000000000000000000000000000000000000000000000000000000000000000000000000000000000000000000000
310
000000000000000000000000000000000000000000000000000000000000000000000000000000000000000000000000000000000000F5F5000000000000000000000000000000000000000000000000000000F5F5F500F5F5F50000F5F5F500F5F5F500000000000000000000000000000000000000000000000000000000
310
F500000000000000000000000000000000F5F5000000000000000000000000000000000000000000000000000000000000000000000000000000000000000000000000000000000000F5F500000000000000000000000000000000000000000000000000000000000000000000000000000000000000000000000000000000
310
000000000000000000000000000000000000000000000000000000000000000000000000000000000000000000000000000000000000000000F5000000000000000000000000000000000000000000000000000000F5F5F5F5F500F5F5F5F500F5F5F5F5F5F5F5000000000000000000000000000000000000000000000000
310
0000F5000000000000000000000000000000F5F50000000000000000000000000000000000000000000000000000000000000000000000000000000000000000000000000000000000000000F5F5F5000000000000000000000000000000000000000000000000000000000000000000000000000000000000000000000000
310
0000000000000000000000000000000000000000000000000000000000000000000000000000000000000000000000000000000000000000000000F50000000000000000000000000000000000000000000000000000F50000F5F5F5F500000000F5F5F5F5F5000000F5000000000000000000000000000000000000000000
310
000000F5F500000000000000000000000000F5F5F50000000000000000000000000000000000000000000000000000000000000000000000000000000000000000000000000000000000000000000000F5F5000000000000000000000000000000000000000000000000000000000000000000000000000000000000000000
310
00000000000000000000000000000000000000000000000000000000000000000000000000000000000000000000000000000000000000000000000000F500000000000000000000000000000000000000000000000000F500000000F5F5F5F5F5F5F5F5F5F5000000000000F5F5F5F5F50000000000000000000000000000
310
0000000000F50000000000000000000000000000F5F500000000000000000000000000000000000000000000000000000000000000000000000000000000000000000000000000000000000000000000000000F5F5000000000000000000000000000000000000000000000000000000000000000000000000000000000000
310
000000000000000000000000000000000000000000000000000000000000000000000000000000000000000000000000000000000000000000000000000000F5000000000000000000000000000000000000000000000000F50000000000000000F5F5F5F5F500000000000000000000F5F5F5F5F5F5F50000000000000000
310
00000000000000F500000000000000000000000000F5F5000000000000000000000000000000000000000000000000000000000000000000000000000000000000000000000000000000000000000000000000000000F5F5000000000000000000000000000000000000000000000000000000000000000000000000000000
310
000000000000000000000000000000000000000000000000000000000000000000000000000000000000000000000000000000000000000000000000000000000000F5000000000000000000000000000000000000000000F5F5000000000000000000000000000000000000000000000000F5F5F5F5F5F500000000000000
310
000000000000000000F5000000000000000000000000F5F50000000000000000000000000000000000000000000000000000000000000000000000000000000000000000000000000000000000000000000000000000000000F5F5000000000000000000000000000000000000000000000000000000000000000000000000
310
0000000000000000000000000000000000000000000000000000000000000000000000000000000000000000000000000000000000000000000000000000000000000000F50000000000000000000000000000000000000000F500000000000000000000000000000000000000000000000000000000F5F5F5F50000000000
310
00000000000000000000F5000000000000000000000000F5F500000000000000000000000000000000000000000000000000000000000000000000000000000000000000000000000000000000000000000000000000000000000000F500000000000000000000000000000000000000000000000000000000000000000000
310
00000000000000000000000000000000000000000000000000000000000000000000000000000000000000000000000000000000000000000000000000000000000000000000F500000000000000000000000000000000000000F5000000000000000000000000000000000000000000000000000000000000000000000000
310
000000000000000000000000F5000000000000000000000000F50000000000000000000000000000000000000000000000000000000000000000000000000000000000000000000000000000000000000000000000000000000000000000F5F500000000000000000000000000000000000000000000000000000000000000
310
00000000000000000000000000000000000000000000000000000000000000000000000000000000000000000000000000000000000000000000000000000000000000000000000000F50000000000000000000000000000000000F50000000000000000000000000000000000000000000000000000000000000000000000
310
0000000000000000000000000000F50000000000000000000000F5F5000000000000000000000000000000000000000000000000000000000000000000000000000000000000000000000000000000000000000000000000000000000000000000F50000000000000000000000000000000000000000000000000000000000
310
000000000000000000000000000000000000000000000000000000000000000000000000000000000000000000000000000000000000000000000000000000000000000000000000000000F500000000000000000000000000000000F500000000000000000000000000000000000000000000000000000000000000000000
310
000000000000000000000000000000F5000000000000000000000000F50000000000000000000000000000000000000000000000000000000000000000F5F5F5F5F5F50000000000000000000000000000000000000000000000000000000000000000F5F50000000000000000000000000000000000000000000000000000
310
0000000000000000000000000000000000000000000000000000000000000000000000000000000000000000000000000000000000000000000000000000000000000000000000000000000000F5F500000000000000000000000000F5F5000000000000000000000000000000000000000000000000000000000000000000
310
0000000000000000000000000000000000F5000000000000000000000000F50000000000000000000000000000000000000000000000000000000000F5F5F5F5F5F5F5F5F5F5F5F5F50000000000000000000000000000000000000000000000000000000000F5000000000000000000000000000000000000000000000000
310
0000000000000000000000000000000000000000000000000000000000000000000000000000000000000000000000000000000000000000000000000000000000000000000000000000000000000000F5000000000000000000000000F5F50000000000000000000000000000000000000000000000000000000000000000
310
000000000000000000000000000000000000F5000000000000000000000000F5F5000000000000000000000000000000000000000000000000000000F5F5F5F50000000000F5F500F5F5F5F500000000000000000000000000000000000000000000000000000000F500000000000000000000000000000000000000000000
310
00000000000000000000000000000000000000000000000000000000000000000000000000000000000000000000000000000000000000000000000000000000000000000000000000000000000000000000F5F5000000000000000000F5F5F5F5F50000000000000000000000000000000000000000000000000000000000
310
0000000000000000000000000000000000000000F5000000000000000000000000F5000000000000000000000000000000000000000000000000000000F5F5F5F5000000000000F5F5000000F5F5F5000000000000000000000000000000000000000000000000000000F50000000000000000000000000000000000000000
310
00000000000000000000000000000000000000000000000000000000000000000000000000000000000000000000000000000000000000000000000000000000000000000000000000000000000000000000000000F50000000000000000F5F5F5F5F500000000000000000000000000000000000000000000000000000000
310
000000000000000000000000000000000000000000F500000000000000000000000000F5000000000000000000000000000000000000000000000000000000F5F5F5F5000000000000F5F50000000000F5F50000000000000000000000000000000000000000000000000000F5000000000000000000000000000000000000
310
00000000000000000000000000000000000000000000000000000000000000000000000000000000000000000000000000000000000000000000000000000000000000000000000000000000000000000000000000000000F500000000000000F5F5F500000000000000000000000000000000000000000000000000000000
310
00000000000000000000000000000000000000000000F5F500000000000000000000000000F5000000000000000000000000000000000000000000000000000000F500F5F5F5F5F5F5F5F5F5F50000000000F5F50000000000000000000000000000000000000000000000000000F500000000000000000000000000000000
310
000000000000000000000000000000000000000000000000000000000000000000000000000000000000000000000000000000000000000000000000000000000000000000000000000000000000000000000000000000000000F5F500000000F5F500F5000000000000000000000000000000000000000000000000000000
310
000000000000000000000000000000000000000000000000F50000000000000000000000000000F5000000000000000000000000000000000000000000000000000000F500F5F5F5F5F5F5F5F5F5F50000000000F5F50000000000000000000000000000000000000000000000000000F50000000000000000000000000000
310
000000000000000000000000000000000000000000000000000000000000000000000000000000000000000000000000000000000000000000000000000000000000000000000000000000000000000000000000000000000000000000F5000000F50000000000000000000000000000000000000000000000000000000000
310
00000000000000000000000000000000000000000000000000F5000000000000000000000000000000F5F50000000000000000000000000000000000000000000000000000F5F5F5F5F5F5F5F5F5F5F5F500000000F5F5F50000000000000000000000000000000000000000000000000000F5000000000000000000000000
310
000000000000000000000000000000000000000000000000000000000000000000000000000000000000000000000000000000000000000000000000000000000000000000000000000000000000000000000000000000000000000000000000F5F5F500000000000000000000000000000000000000000000000000000000
310
0000000000000000000000000000000000000000000000000000F5F500000000000000000000000000000000F50000000000000000000000000000000000000000000000000000F5F5F5F5F5F5F5F5F5F5F5F50000F5F5F5F5F50000000000000000000000000000000000000000000000000000F500000000000000000000
310
000000000000000000000000000000000000000000000000000000000000000000000000000000000000000000000000000000000000000000000000000000000000000000000000000000000000000000000000000000000000000000000000000000F5F50000000000000000000000000000000000000000000000000000
310
000000000000000000000000000000000000000000000000000000F5F50000000000000000000000000000000000F50000000000000000000000000000000000000000000000000000F5F5F5F5F5000000F500F500000000F5F5F50000000000000000000000000000000000000000000000000000F5F50000000000000000
310
0000000000000000000000000000000000000000000000000000000000000000000000000000000000000000000000000000000000000000000000000000000000000000000000000000000000000000000000000000000000000000000000000000000000F5F5000000000000000000000000000000000000000000000000
310
0000000000000000000000000000000000000000000000000000000000F5000000000000000000000000000000000000F5F500000000000000000000000000000000000000000000000000F5F5F5F5F5000000F500F5000000F5F500F50000000000000000000000000000000000000000000000000000F500000000000000
310
0000000000000000000000000000000000000000000000000000000000000000000000000000000000000000000000000000000000000000000000000000000000000000000000000000000000000000000000000000000000000000000000000000000000000000F5F5000000000000000000000000000000000000000000
310
000000000000000000000000000000000000000000000000000000000000F50000000000000000000000000000000000000000F500000000000000000000000000000000000000000000000000F5F5F5F5F5F5F5F5F5F5F5F5F5F5F5F5F5F500000000000000000000000000000000000000000000000000F5F50000000000
310
0000000000000000000000000000000000000000000000000000000000000000000000000000000000000000000000000000000000000000000000000000000000000000000000000000000000000000000000000000000000000000000000000000000000000000000000F5F5000000000000000000000000000000000000
310
000000000000000000000000000000000000000000000000000000000000F5F5000000000000000000000000000000000000000000F5F5000000000000000000000000000000000000000000000000F5F5F5F5F5F5F5F5F5F5F5F5F5F5F5F5F5F500000000000000000000000000000000000000000000000000F500000000
310
0000000000000000000000000000000000000000000000000000000000000000000000000000000000000000000000000000000000000000000000000000000000000000000000000000000000000000000000000000000000000000000000000000000000000000000000000000F5F5000000000000000000000000000000
310
00000000000000000000000000000000000000000000000000000000000000F5F50000000000000000000000000000000000000000000000F5F50000000000000000000000000000000000000000000000F5F5F5F5F5F5F5F5F5F5F5F5F500F5F500F5000000000000000000000000000000000000000000000000F5000000
310
0000000000000000000000000000000000000000000000000000000000000000000000000000000000000000000000000000000000000000000000000000000000000000000000000000000000000000000000000000000000000000000000000000000000000000000000000000000000F5F5000000000000000000000000
310
0000000000000000000000000000000000000000000000000000000000000000F5F500000000000000000000000000000000000000000000000000F5F500000000000000000000000000000000000000000000F5F50000F5F5F5F5F5F5F5F5F5F5F5F5F5F50000000000000000000000000000000000000000000000F5F500
310
000000000000000000000000000000000000000000000000000000000000000000000000000000000000000000000000000000000000000000000000000000000000000000000000000000000000000000000000000000000000000000000000000000000000000000000000000000000000000000F5F50000000000000000
310
000000000000000000000000000000000000000000000000000000000000000000F5F5000000000000000000000000000000000000000000000000000000F5F500000000000000000000000000000000000000000000F5F5F5000000F5F5F5F500000000F5F5F500000000000000000000000000000000000000000000F5F5
310
000000000000000000000000000000000000000000000000000000000000000000000000000000000000000000000000000000000000000000000000000000000000000000000000000000000000000000000000000000000000000000000000000000000000000000000000000000000000000000000000F5F50000000000
310
000000000000000000000000000000000000000000000000000000000000000000F5F5000000000000000000000000000000000000000000000000000000000000F5F500000000000000000000000000000000000000000000F5F5F5F500F500000000F5F5F5F50000000000000000000000000000000000000000000000F5
310
F50000000000000000000000000000000000000000000000000000000000000000000000000000000000000000000000000000000000000000000000000000000000000000000000000000000000000000000000000000000000000000000000000000000000000000000000000000000000000000000000000000F5F5F500
310
000000000000000000000000000000000000000000000000000000000000000000F5F5F50000000000000000000000000000000000000000000000000000000000000000F5F50000000000000000000000000000000000000000000000F5F5F5F5F5F5F5F5F5F50000000000000000000000000000000000000000000000F5
310
F5F50000000000000000000000000000000000000000000000000000000000000000000000000000000000000000000000000000000000000000000000000000000000000000000000000000000000000000000000000000000000000000000000000000000000000000000000000000000000000000000000000000000000
310
F5F5F500000000000000000000000000000000000000000000000000000000000000F5F50000000000000000000000000000000000000000000000000000000000000000000000F5F5000000000000000000000000000000000000000000000000000000000000000000000000000000000000000000000000000000000000
310
F5F50000000000000000000000000000000000000000000000000000000000000000000000000000000000000000000000000000000000000000000000000000000000000000000000000000000000000000000000000000000000000000000000000000000000000000000000000000000000000000000000000000000000
310
00000000F5F5F50000000000000000000000000000000000000000000000000000F5F5F5000000000000000000000000000000000000000000000000000000000000000000000000000000F5F50000000000000000000000000000000000000000000000000000000000000000000000000000000000000000000000000000
310
F5F5F500000000000000000000000000000000000000000000000000000000000000000000000000000000000000000000000000000000000000000000000000000000000000000000000000000000000000000000000000000000000000000000000000000000000000000000000000000000000000000000000000000000
310
000000000000000000F5F5F50000000000000000000000000000000000000000F5F5F5F5000000000000000000000000000000000000000000000000000000000000000000000000000000000000F5F5F500000000000000000000000000000000000000000000000000000000000000000000000000000000000000000000
310
F5F5F500000000000000000000000000000000000000000000000000000000000000000000000000000000000000000000000000000000000000000000000000000000000000000000000000000000000000000000000000000000000000000000000000000000000000000000000000000000000000000000000000000000
310
00000000000000000000000000F5F5F5F5F5F50000000000000000000000F5F5F5F5F50000000000000000000000000000000000000000000000000000000000000000000000000000000000000000000000F5F5F5000000000000000000000000000000000000000000000000000000000000000000000000000000000000
310
F5F5F500000000000000000000000000000000000000000000000000000000000000000000000000000000000000000000000000000000000000000000000000000000000000000000000000000000000000000000000000000000000000000000000000000000000000000000000000000000000000000000000000000000
310
0000000000000000000000000000000000000000F5F5F5F5F5F5F5F5F5F5F5F5000000000000000000000000000000000000000000000000000000000000000000000000000000000000000000000000000000000000F5F5F5F5000000000000000000000000000000000000000000000000000000000000000000000000F5
310
F5F5F500000000000000000000000000000000000000000000000000000000000000000000000000000000000000000000000000000000000000000000000000000000000000000000000000000000000000000000000000000000000000000000000000000000000000000000000000000000000000000000000000000000
310
00000000000000000000000000000000000000000000000000000000000000000000000000000000000000000000000000000000000000000000000000000000000000000000000000000000000000000000000000000000000000F5F5F5F5000000000000000000000000000000000000000000000000000000000000F5F5
310
F5F50000000000000000000000000000000000000000000000000000000000000000000000000000000000000000000000000000000000000000000000000000000000000000000000000000000000000000000000000000000000000000000000000000000000000000000000000000000000000000000000000000000000
310
00000000000000000000000000000000000000000000000000000000000000000000000000000000000000000000000000000000000000000000000000000000000000000000000000000000000000000000000000000000000000000000000000F5F5F5F5F5000000000000000000000000000000000000000000F5F5F5F5
310
F5000000000000000000000000000000000000000000000000000000000000000000000000000000000000000000000000000000000000000000000000000000000000000000000000000000000000000000000000000000000000000000000000000000000000000000000000000000000000000000000000000000000000
310
00000000000000000000000000000000000000000000000000000000000000000000000000000000000000000000000000000000000000000000000000000000000000000000000000000000000000000000000000000000000000000000000000000000000000F5F5F5F5F5F5F5F5F5F5F5F5F5F5F5F5F5F5F5F5F5F50000
310
00000000000000000000000000000000000000000000000000000000000000000000000000000000000000000000000000000000000000000000000000000000000000000000000000000000000000000000000000000000000000000000000000000000000000000000000000000000000000000000000000000000000000
310
000000000000000000000000000000000000000000000000000000F5F5F5F5F5F5F5F5F5F5F5F5F5F5F500000000000000000000000000000000000000000000F50000000000000000000000000000000000000000000000000000000000000000000000000000000000000000000000000000000000000000000000000000
310
00000000000000000000000000000000000000000000000000000000000000000000000000000000000000000000000000000000000000000000000000000000000000000000000000000000000000000000000000000000000000000000000000000000000000000000000000000000000000000000000000000000000000
310
0000000000000000000000000000000000000000000000000000000000F5F5F5F5F5F5F5F5F5F5F5F5F5F5F5000000000000000000000000000000000000000000F5F5F5F5F5F5F500000000000000000000000000000000000000000000000000000000000000000000000000000000000000000000000000000000000000
310
00000000000000000000000000000000000000000000000000000000000000000000000000000000000000000000000000000000000000000000000000000000000000000000000000000000000000000000000000000000000000000000000000000000000000000000000000000000000000000000000000000000000000
310
00000000000000000000000000000000000000000000000000000000000000F5F5F5000000000000000000F5F50000000000000000000000000000000000000000000000F5F5F5F500000000000000000000000000000000000000000000000000000000000000000000000000000000000000000000000000000000000000
310
00000000000000000000000000000000000000000000000000000000000000000000000000000000000000000000000000000000000000000000000000000000000000000000000000000000000000000000000000000000000000000000000000000000000000000000000000000000000000000000000000000000000000
310
0000000000000000000000000000000000000000000000000000000000000000000000F5F5F500000000F5F5F5F5000000000000000000000000000000000000000000000000000000000000000000000000000000000000000000000000000000000000000000000000000000000000000000000000000000000000000000
310
00000000000000000000000000000000000000000000000000000000000000000000000000000000000000000000000000000000000000000000000000000000000000000000000000000000000000000000000000000000000000000000000000000000000000000000000000000000000000000000000000000000000000
310
000000000000000000000000000000000000000000000000000000000000000000000000000000F5F5F5F5F5F500000000000000000000000000000000000000000000000000000000000000000000000000000000000000000000000000000000000000000000000000000000000000000000000000000000000000000000
310
00000000000000000000000000000000000000000000000000000000000000000000000000000000000000000000000000000000000000000000000000000000000000000000000000000000000000000000000000000000000000000000000000000000000000000000000000000000000000000000000000000000000000
310
00000000000000F5F5F5F5F5F5F5F5F5F5F5F5F5F5F5F5F5F5F5F5F5F5F5F5F5F5F5F5F5F5F5F5F5F5F5F5F5F5F5F5F5F5F5F5F5F5F5F5F5F5F5F5F5F5F5F5F5F5F5F5F5F5F5F5F5F5F5F5F5F5F5F5F5F500000000000000000000000000000000000000000000000000000000000000000000000000000000000000000000
310
00000000000000000000000000000000000000000000000000000000000000000000000000000000000000000000000000000000000000000000000000000000000000000000000000000000000000000000000000000000000000000000000000000000000000000000000000000000000000000000000000000000000000
310
000000000000000000F5F5F5F5F5F5F5F5F5F5F5F5F5F5F5F5F5F5F5F5F5F5F5F5F5F5F5F5F5F5F5F5F5F5F5F5F5F5F5F5F5F5F5F5F5F5F5F5F5F5F5F5F5F5F5F5F5F5F5F5F5F5F5F5F5F5F5F5F5F5F5F5F5F50000000000000000000000000000000000000000000000000000000000000000000000000000000000000000
310
00000000000000000000000000000000000000000000000000000000000000000000000000000000000000000000000000000000000000000000000000000000000000000000000000000000000000000000000000000000000000000000000000000000000000000000000000000000000000000000000000000000000000
310
0000000000000000000000000000000000000000000000000000000000000000000000000000F5F5F5F5F5F5F5F5F5F5F5F5F5F5F5F5F5F5F5F50000000000000000000000F5F5F5F5F5F500000000000000000000000000000000000000000000000000000000000000000000000000000000000000000000000000000000
310
00000000000000000000000000000000000000000000000000000000000000000000000000000000000000000000000000000000000000000000000000000000000000000000000000000000000000000000000000000000000000000000000000000000000000000000000000000000000000000000000000000000000000
310
00000000000000000000000000000000000000000000000000000000000000000000000000000000F5F5F5F5F5F5F5F5F5F5F5F5F5F5F5F5F5F5F5F5000000000000000000000000F5F5F50000000000F500000000000000000000000000000000000000000000000000000000000000000000000000000000000000000000
310
00000000000000000000000000000000000000000000000000000000000000000000000000000000000000000000000000000000000000000000000000000000000000000000000000000000000000000000000000000000000000000000000000000000000000000000000000000000000000000000000000000000000000
310
00000000000000000000000000000000000000000000000000000000000000000000000000000000000000F5000000F5F50000F5F5000000F5000000F50000000000000000000000000000000000000000F5F5F5F5F5F5F5000000000000000000000000000000000000000000000000000000000000000000000000000000
310
00000000000000000000000000000000000000000000000000000000000000000000000000000000000000000000000000000000000000000000000000000000000000000000000000000000000000000000000000000000000000000000000000000000000000000000000000000000000000000000000000000000000000
310
000000000000000000000000000000000000000000000000000000000000000000000000000000000000000000F5000000F5F50000F5F5000000F5000000F5000000000000000000000000000000000000000000F5F5F5F5F50000000000000000000000000000000000000000000000000000000000000000000000000000
310
00000000000000000000000000000000000000000000000000000000000000000000000000000000000000000000000000000000000000000000000000000000000000000000000000000000000000000000000000000000000000000000000000000000000000000000000000000000000000000000000000000000000000
310
0000000000000000000000000000000000000000000000000000000000000000000000000000000000000000000000F5F5F500F5F5F500F5F5000000F500F5F5F50000000000000000000000000000000000000000000000000000000000000000000000000000000000000000000000000000000000000000000000000000
310
00000000000000000000000000000000000000000000000000000000000000000000000000000000000000000000000000000000000000000000000000000000000000000000000000000000000000000000000000000000000000000000000000000000000000000000000000000000000000000000000000000000000000
310
00000000000000000000000000000000000000000000000000000000000000000000000000000000000000000000000000F5F5F5F5F5F5F5F5F5F5F5F5F5F5F5F5F5F5000000000000000000000000000000000000000000F50000000000000000000000000000000000000000000000000000000000000000000000000000
310
00000000000000000000000000000000000000000000000000000000000000000000000000000000000000000000000000000000000000000000000000000000000000000000000000000000000000000000000000000000000000000000000000000000000000000000000000000000000000000000000000000000000000
310
000000000000000000000000000000000000000000000000000000000000000000000000000000000000000000000000000000F5000000F5F50000F5F5000000F5000000F50000000000000000000000000000000000000000F5F5F5F5F5F5F500000000000000000000000000000000000000000000000000000000000000
310
00000000000000000000000000000000000000000000000000000000000000000000000000000000000000000000000000000000000000000000000000000000000000000000000000000000000000000000000000000000000000000000000000000000000000000000000000000000000000000000000000000000000000
310
0000000000000000000000000000000000000000000000000000000000000000000000000000000000000000000000000000000000F5000000F5F50000F5F5000000F5000000F5000000000000000000000000000000000000000000F5F5F5F5F5000000000000000000000000000000000000000000000000000000000000
310
00000000000000000000000000000000000000000000000000000000000000000000000000000000000000000000000000000000000000000000000000000000000000000000000000000000000000000000000000000000000000000000000000000000000000000000000000000000000000000000000000000000000000
310
00000000000000000000000000000000000000000000000000000000000000000000000000000000000000000000000000000000000000F5F5F5F5F5F5F5F5F5F5F5F5F5F5F5F5F5F5000000000000000000000000000000000000000000000000000000000000000000000000000000000000000000000000000000000000
310
00000000000000000000000000000000000000000000000000000000000000000000000000000000000000000000000000000000000000000000000000000000000000000000000000000000000000000000000000000000000000000000000000000000000000000000000000000000000000000000000000000000000000
310
000000000000000000000000000000000000000000000000000000000000000000000000000000000000000000000000000000000000000000000000000000F5F5F5F5F5F5000000000000000000000000000000000000000000000000000000F5000000000000000000000000000000000000000000000000000000000000
310
00000000000000000000000000000000000000000000000000000000000000000000000000000000000000000000000000000000000000000000000000000000000000000000000000000000000000000000000000000000000000000000000000000000000000000000000000000000000000000000000000000000000000
310
00000000000000000000000000000000000000000000000000000000000000000000000000000000000000000000000000000000000000000000000000000000000000000000000000000000000000000000000000000000000000000000000000F5F5F5F5F5F5F50000000000000000000000000000000000000000000000
310
00000000000000000000000000000000000000000000000000000000000000000000000000000000000000000000000000000000000000000000000000000000000000000000000000000000000000000000000000000000000000000000000000000000000000000000000000000000000000000000000000000000000000
310
00000000000000000000000000000000000000000000000000000000000000000000000000000000000000000000000000000000000000000000000000000000000000000000000000000000000000000000000000000000000000000000000000000000F5F5F5F5F500000000000000000000000000000000000000000000
310
00000000000000000000000000000000000000000000000000000000000000000000000000000000000000000000000000000000000000000000000000000000000000000000000000000000000000000000000000000000000000000000000000000000000000000000000000000000000000000000000000000000000000
310
000000000000000000000000000000000000000000000000000000000000000000000000000000000000000000000000000000000000000000000000000000000000000000000000000000000000000000000000000000000000000000000000000000000000F5F5F5F5F50000000000000000000000000000000000000000
310
00000000000000000000000000000000000000000000000000000000000000000000000000000000000000000000000000000000000000000000000000000000000000000000000000000000000000000000000000000000000000000000000000000000000000000000000000000000000000000000000000000000000000
310
00000000000000000000000000000000000000000000000000000000000000000000000000000000000000000000000000000000000000000000000000000000000000000000000000000000000000000000000000000000000000000000000000000000000000000000000000000000000000000000000000000000000000
310
00000000000000000000000000000000000000000000000000000000000000000000000000000000000000000000000000000000000000000000000000000000000000000000000000000000000000000000000000000000000000000000000000000000000000000000000000000000000000000000000000000000000000
310
00000000000000000000000000000000000000000000000000000000000000000000000000000000000000000000000000000000000000000000000000000000000000000000000000000000000000000000000000000000000000000000000000000000000000000000000000000000000000000000000000000000000000
310
00000000000000000000000000000000000000000000000000000000000000000000000000000000000000000000000000000000000000000000000000000000000000000000000000000000000000000000000000000000000000000000000000000000000000000000000000000000000000000000000000000000000000
310
00000000000000000000000000000000000000000000000000000000000000000000000000000000000000000000000000000000000000000000000000000000000000000000000000000000000000000000000000000000000000000000000000000000000000000000000000000000000000000000000000000000000000
310
00000000000000000000000000000000000000000000000000000000000000000000000000000000000000000000000000000000000000000000000000000000000000000000000000000000000000000000000000000000000000000000000000000000000000000000000000000000000000000000000000000000000000
310
00000000000000000000000000000000000000000000000000000000000000000000000000000000000000000000000000000000000000000000000000000000000000000000000000000000000000000000000000000000000000000000000000000000000000000000000000000000000000000000000000000000000000
310
00000000000000000000000000000000000000000000000000000000000000000000000000000000000000000000000000000000000000000000000000000000000000000000000000000000000000000000000000000000000000000000000000000000000000000000000000000000000000000000000000000000000000
310
00000000000000000000000000000000000000000000000000000000000000000000000000000000000000000000000000000000000000000000000000000000000000000000000000000000000000000000000000000000000000000000000000000000000000000000000000000000000000000000000000000000000000
310
00000000000000000000000000000000000000000000000000000000000000000000000000000000000000000000000000000000000000000000000000000000000000000000000000000000000000000000000000000000000000000000000000000000000000000000000000000000000000000000000000000000000000
310
00000000000000000000000000000000000000000000000000000000000000000000000000000000000000000000000000000000000000000000000000000000000000000000000000000000000000000000000000000000000000000000000000000000000000000000000000000000000000000000000000000000000000
310
00000000000000000000000000000000000000000000000000000000000000000000000000000000000000000000000000000000000000000000000000000000000000000000000000000000000000000000000000000000000000000000000000000000000000000000000000000000000000000000000000000000000000
310
00000000000000000000000000000000000000000000000000000000000000000000000000000000000000000000000000000000000000000000000000000000000000000000000000000000000000000000000000000000000000000000000000000000000000000000000000000000000000000000000000000000000000
310
00000000000000000000000000000000000000000000000000000000000000000000000000000000000000000000000000000000000000000000000000000000000000000000000000000000000000000000000000000000000000000000000000000000000000000000000000000000000000000000000000000000000000
310
00000000000000000000000000000000000000000000000000000000000000000000000000000000000000000000000000000000000000000000000000000000000000000000000000000000000000000000000000000000000000000000000000000000000000000000000000000000000000000000000000000000000000
310
00000000000000000000000000000000000000000000000000000000000000000000000000000000000000000000000000000000000000000000000000000000000000000000000000000000000000000000000000000000000000000000000000000000000000000000000000000000000000000000000000000000000000
310
00000000000000000000000000000000000000000000000000000000000000000000000000000000000000000000000000000000000000000000000000000000000000000000000000000000000000000000000000000000000000000000000000000000000000000000000000000000000000000000000000000000000000
310
00000000000000000000000000000000000000000000000000000000000000000000000000000000000000000000000000000000000000000000000000000000000000000000000000000000000000000000000000000000000000000000000000000000000000000000000000000000000000000000000000000000000000
310
00000000000000000000000000000000000000000000000000000000000000000000000000000000000000000000000000000000000000000000000000000000000000000000000000000000000000000000000000000000000000000000000000000000000000000000000000000000000000000000000000000000000000
310
00000000000000000000000000000000000000000000000000000000000000000000000000000000000000000000000000000000000000000000000000000000000000000000000000000000000000000000000000000000000000000000000000000000000000000000000000000000000000000000000000000000000000
310
00000000000000000000000000000000000000000000000000000000000000000000000000000000000000000000000000000000000000000000000000000000000000000000000000000000000000000000000000000000000000000000000000000000000000000000000000000000000000000000000000000000000000
310
00000000000000000000000000000000000000000000000000000000000000000000000000000000000000000000000000000000000000000000000000000000000000000000000000000000000000000000000000000000000000000000000000000000000000000000000000000000000000000000000000000000000000
310
00000000000000000000000000000000000000000000000000000000000000000000000000000000000000000000000000000000000000000000000000000000000000000000000000000000000000000000000000000000000000000000000000000000000000000000000000000000000000000000000000000000000000
310
00000000000000000000000000000000000000000000000000000000000000000000000000000000000000000000000000000000000000000000000000000000000000000000000000000000000000000000000000000000000000000000000000000000000000000000000000000000000000000000000000000000000000
310
00000000000000000000000000000000000000000000000000000000000000000000000000000000000000000000000000000000000000000000000000000000000000000000000000000000000000000000000000000000000000000000000000000000000000000000000000000000000000000000000000000000000000
310
00000000000000000000000000000000000000000000000000000000000000000000000000000000000000000000000000000000000000000000000000000000000000000000000000000000000000000000000000000000000000000000000000000000000000000000000000000000000000000000000000000000000000
310
00000000000000000000000000000000000000000000000000000000000000000000000000000000000000000000000000000000000000000000000000000000000000000000000000000000000000000000000000000000000000000000000000000000000000000000000000000000000000000000000000000000000000
310
00000000000000000000000000000000000000000000000000000000000000000000000000000000000000000000000000000000000000000000000000000000000000000000000000000000000000000000000000000000000000000000000000000000000000000000000000000000000000000000000000000000000000
310
00000000000000000000000000000000000000000000000000000000000000000000000000000000000000000000000000000000000000000000000000000000000000000000000000000000000000000000000000000000000000000000000000000000000000000000000000000000000000000000000000000000000000
310
00000000000000000000000000000000000000000000000000000000000000000000000000000000000000000000000000000000000000000000000000000000000000000000000000000000000000000000000000000000000000000000000000000000000000000000000000000000000000000000000000000000000000
310
00000000000000000000000000000000000000000000000000000000000000000000000000000000000000000000000000000000000000000000000000000000000000000000000000000000000000000000000000000000000000000000000000000000000000000000000000000000000000000000000000000000000000
310
00000000000000000000000000000000000000000000000000000000000000000000000000000000000000000000000000000000000000000000000000000000000000000000000000000000000000000000000000000000000000000000000000000000000000000000000000000000000000000000000000000000000000
310
00000000000000000000000000000000000000000000000000000000000000000000000000000000000000000000000000000000000000000000000000000000000000000000000000000000000000000000000000000000000000000000000000000000000000000000000000000000000000000000000000000000000000
310
00000000000000000000000000000000000000000000000000000000000000000000000000000000000000000000000000000000000000000000000000000000000000000000000000000000000000000000000000000000000000000000000000000000000000000000000000000000000000000000000000000000000000
310
00000000000000000000000000000000000000000000000000000000000000000000000000000000000000000000000000000000000000000000000000000000000000000000000000000000000000000000000000000000000000000000000000000000000000000000000000000000000000000000000000000000000000
310
00000000000000000000000000000000000000000000000000000000000000000000000000000000000000000000000000000000000000000000000000000000000000000000000000000000000000000000000000000000000000000000000000000000000000000000000000000000000000000000000000000000000000
310
00000000000000000000000000000000000000000000000000000000000000000000000000000000000000000000000000000000000000000000000000000000000000000000000000000000000000000000000000000000000000000000000000000000000000000000000000000000000000000000000000000000000000
310
00000000000000000000000000000000000000000000000000000000000000000000000000000000000000000000000000000000000000000000000000000000000000000000000000000000000000000000000000000000000000000000000000000000000000000000000000000000000000000000000000000000000000
310
00000000000000000000000000000000000000000000000000000000000000000000000000000000000000000000000000000000000000000000000000000000000000000000000000000000000000000000000000000000000000000000000000000000000000000000000000000000000000000000000000000000000000
310
00000000000000000000000000000000000000000000000000000000000000000000000000000000000000000000000000000000000000000000000000000000000000000000000000000000000000000000000000000000000000000000000000000000000000000000000000000000000000000000000000000000000000
310
00000000000000000000000000000000000000000000000000000000000000000000000000000000000000000000000000000000000000000000000000000000000000000000000000000000000000000000000000000000000000000000000000000000000000000000000000000000000000000000000000000000000000
310
00000000000000000000000000000000000000000000000000000000000000000000000000000000000000000000000000000000000000000000000000000000000000000000000000000000000000000000000000000000000000000000000000000000000000000000000000000000000000000000000000000000000000
310
0000000000000000000000000000000000000000000000000000000000000000000000000000000000000000000000000000
  0
XRECORD
  5
1233
102
{ACAD_REACTORS
330
1A
102
}
330
1A
100
AcDbXrecord
280
     1
102
MATERIAL
148
0.0
149
0.0
149
0.0
 93
        0
 94
      127
282
     0
 72
     0
 77
     0
171
     0
175
     0
179
     0
273
     0
  0
XRECORD
  5
1C
102
{ACAD_REACTORS
330
1A
102
}
330
1A
100
AcDbXrecord
280
     1
270
     1
271
     1
  0
XRECORD
  5
1B
102
{ACAD_REACTORS
330
1A
102
}
330
1A
100
AcDbXrecord
280
     1
270
     1
271
     1
  0
XRECORD
  5
1F
102
{ACAD_REACTORS
330
1A
102
}
330
1A
100
AcDbXrecord
280
     1
270
     1
271
     1
  0
XRECORD
  5
1E
102
{ACAD_REACTORS
330
1A
102
}
330
1A
100
AcDbXrecord
280
     1
270
     1
271
     1
  0
XRECORD
  5
20
102
{ACAD_REACTORS
330
1A
102
}
330
1A
100
AcDbXrecord
280
     1
270
     1
271
     1
  0
XRECORD
  5
1D
102
{ACAD_REACTORS
330
1A
102
}
330
1A
100
AcDbXrecord
280
     1
270
     1
271
     1
  0
XRECORD
  5
1232
102
{ACAD_REACTORS
330
12
102
}
330
12
100
AcDbXrecord
280
     1
102
MATERIAL
148
0.0
149
0.0
149
0.0
 93
        0
 94
      127
282
     0
 72
     0
 77
     0
171
     0
175
     0
179
     0
273
     0
  0
XRECORD
  5
14
102
{ACAD_REACTORS
330
12
102
}
330
12
100
AcDbXrecord
280
     1
270
     1
271
     1
  0
XRECORD
  5
13
102
{ACAD_REACTORS
330
12
102
}
330
12
100
AcDbXrecord
280
     1
270
     1
271
     1
  0
XRECORD
  5
17
102
{ACAD_REACTORS
330
12
102
}
330
12
100
AcDbXrecord
280
     1
270
     1
271
     1
  0
XRECORD
  5
16
102
{ACAD_REACTORS
330
12
102
}
330
12
100
AcDbXrecord
280
     1
270
     1
271
     1
  0
XRECORD
  5
18
102
{ACAD_REACTORS
330
12
102
}
330
12
100
AcDbXrecord
280
     1
270
     1
271
     1
  0
XRECORD
  5
15
102
{ACAD_REACTORS
330
12
102
}
330
12
100
AcDbXrecord
280
     1
270
     1
271
     1
  0
XRECORD
  5
1234
102
{ACAD_REACTORS
330
22
102
}
330
22
100
AcDbXrecord
280
     1
102
MATERIAL
148
0.0
149
0.0
149
0.0
 93
        0
 94
      127
282
     0
 72
     0
 77
     0
171
     0
175
     0
179
     0
273
     0
  0
XRECORD
  5
24
102
{ACAD_REACTORS
330
22
102
}
330
22
100
AcDbXrecord
280
     1
270
     1
271
     1
  0
XRECORD
  5
23
102
{ACAD_REACTORS
330
22
102
}
330
22
100
AcDbXrecord
280
     1
270
     1
271
     1
  0
XRECORD
  5
27
102
{ACAD_REACTORS
330
22
102
}
330
22
100
AcDbXrecord
280
     1
270
     1
271
     1
  0
XRECORD
  5
26
102
{ACAD_REACTORS
330
22
102
}
330
22
100
AcDbXrecord
280
     1
270
     1
271
     1
  0
XRECORD
  5
28
102
{ACAD_REACTORS
330
22
102
}
330
22
100
AcDbXrecord
280
     1
270
     1
271
     1
  0
XRECORD
  5
25
102
{ACAD_REACTORS
330
22
102
}
330
22
100
AcDbXrecord
280
     1
270
     1
271
     1
  0
CELLSTYLEMAP
  5
121C
102
{ACAD_REACTORS
330
EB2
102
}
330
EB2
100
AcDbCellStyleMap
 90
        3
300
CELLSTYLE
  1
TABLEFORMAT_BEGIN
 90
        5
170
     1
 91
        0
 92
    32768
 62
   257
 93
        1
300
CONTENTFORMAT
  1
CONTENTFORMAT_BEGIN
 90
        0
 91
        0
 92
      512
 93
        0
300

 40
0.0
140
1.0
 94
        5
 62
     0
340
55
144
0.25
309
CONTENTFORMAT_END
171
     0
 94
        0
309
TABLEFORMAT_END
  1
CELLSTYLE_BEGIN
 90
        1
 91
        1
300
_TITLE
309
CELLSTYLE_END
300
CELLSTYLE
  1
TABLEFORMAT_BEGIN
 90
        5
170
     1
 91
        0
 92
        0
 62
   257
 93
        1
300
CONTENTFORMAT
  1
CONTENTFORMAT_BEGIN
 90
        0
 91
        0
 92
      512
 93
        0
300

 40
0.0
140
1.0
 94
        5
 62
     0
340
55
144
0.18
309
CONTENTFORMAT_END
171
     0
 94
        0
309
TABLEFORMAT_END
  1
CELLSTYLE_BEGIN
 90
        2
 91
        1
300
_HEADER
309
CELLSTYLE_END
300
CELLSTYLE
  1
TABLEFORMAT_BEGIN
 90
        5
170
     1
 91
        0
 92
        0
 62
   257
 93
        1
300
CONTENTFORMAT
  1
CONTENTFORMAT_BEGIN
 90
        0
 91
        0
 92
      512
 93
        0
300

 40
0.0
140
1.0
 94
        2
 62
     0
340
55
144
0.18
309
CONTENTFORMAT_END
171
     0
 94
        0
309
TABLEFORMAT_END
  1
CELLSTYLE_BEGIN
 90
        3
 91
        2
300
_DATA
309
CELLSTYLE_END
  0
XRECORD
  5
1265
102
{ACAD_REACTORS
330
EB2
102
}
330
EB2
100
AcDbXrecord
280
     1
102
ACAD_ROUNDTRIP_PRE2007_TABLESTYLE
 90
      512
 91
        0
  1

 92
      512
 93
        0
  2

 94
      512
 95
        0
  3

  0
XRECORD
  5
1240
102
{ACAD_REACTORS
330
123F
102
}
330
123F
100
AcDbXrecord
280
     1
102
RTVSPropertyOp0
 70
     1
102
RTVSPropertyOp1
 70
     1
102
RTVSPropertyOp2
 70
     1
102
RTVSPropertyOp3
 70
     1
102
RTVSPropertyOp4
 70
     1
102
RTVSPropertyOp5
 70
     1
102
RTVSPropertyOp6
 70
     1
102
RTVSPropertyOp7
 70
     1
102
RTVSPropertyOp8
 70
     1
102
RTVSPropertyOp9
 70
     1
102
RTVSPropertyOp10
 70
     1
102
RTVSPropertyOp11
 70
     1
102
RTVSPropertyOp12
 70
     1
102
RTVSPropertyOp13
 70
     1
102
RTVSPropertyOp14
 70
     1
102
RTVSPropertyOp15
 70
     1
102
RTVSPropertyOp16
 70
     1
102
RTVSPropertyOp17
 70
     1
102
RTVSPropertyOp18
 70
     1
102
RTVSPropertyOp19
 70
     1
102
RTVSPropertyOp20
 70
     1
102
RTVSPropertyOp21
 70
     1
102
RTVSPropertyOp22
 70
     1
102
RTVSPropertyOp23
 70
     1
102
RTVSPropertyOp24
 70
     1
102
RTVSPropertyOp25
 70
     1
102
RTVSPropertyOp26
 70
     1
102
RTVSPropertyOp27
 70
     1
102
RTVSPropertyOp28
 70
     1
102
RTVSPropertyOp29
 70
     1
102
RTVSPropertyOp30
 70
     1
102
RTVSPropertyOp31
 70
     1
102
RTVSPropertyOp32
 70
     1
  0
XRECORD
  5
123E
102
{ACAD_REACTORS
330
123D
102
}
330
123D
100
AcDbXrecord
280
     1
102
RTVSPropertyOp0
 70
     1
102
RTVSPropertyOp1
 70
     1
102
RTVSPropertyOp2
 70
     1
102
RTVSPropertyOp3
 70
     1
102
RTVSPropertyOp4
 70
     1
102
RTVSPropertyOp5
 70
     1
102
RTVSPropertyOp6
 70
     1
102
RTVSPropertyOp7
 70
     1
102
RTVSPropertyOp8
 70
     1
102
RTVSPropertyOp9
 70
     1
102
RTVSPropertyOp10
 70
     1
102
RTVSPropertyOp11
 70
     1
102
RTVSPropertyOp12
 70
     1
102
RTVSPropertyOp13
 70
     1
102
RTVSPropertyOp14
 70
     1
102
RTVSPropertyOp15
 70
     1
102
RTVSPropertyOp16
 70
     1
102
RTVSPropertyOp17
 70
     1
102
RTVSPropertyOp18
 70
     1
102
RTVSPropertyOp19
 70
     1
102
RTVSPropertyOp20
 70
     1
102
RTVSPropertyOp21
 70
     1
102
RTVSPropertyOp22
 70
     1
102
RTVSPropertyOp23
 70
     1
102
RTVSPropertyOp24
 70
     1
102
RTVSPropertyOp25
 70
     1
102
RTVSPropertyOp26
 70
     1
102
RTVSPropertyOp27
 70
     1
102
RTVSPropertyOp28
 70
     1
102
RTVSPropertyOp29
 70
     1
102
RTVSPropertyOp30
 70
     1
102
RTVSPropertyOp31
 70
     1
102
RTVSPropertyOp32
 70
     1
  0
XRECORD
  5
124C
102
{ACAD_REACTORS
330
124B
102
}
330
124B
100
AcDbXrecord
280
     1
102
RTVSPropertyOp0
 70
     1
102
RTVSPropertyOp1
 70
     1
102
RTVSPropertyOp2
 70
     1
102
RTVSPropertyOp3
 70
     1
102
RTVSPropertyOp4
 70
     1
102
RTVSPropertyOp5
 70
     1
102
RTVSPropertyOp6
 70
     1
102
RTVSPropertyOp7
 70
     1
102
RTVSPropertyOp8
 70
     1
102
RTVSPropertyOp9
 70
     1
102
RTVSPropertyOp10
 70
     1
102
RTVSPropertyOp11
 70
     1
102
RTVSPropertyOp12
 70
     1
102
RTVSPropertyOp13
 70
     1
102
RTVSPropertyOp14
 70
     1
102
RTVSPropertyOp15
 70
     1
102
RTVSPropertyOp16
 70
     1
102
RTVSPropertyOp17
 70
     1
102
RTVSPropertyOp18
 70
     1
102
RTVSPropertyOp19
 70
     1
102
RTVSPropertyOp20
 70
     1
102
RTVSPropertyOp21
 70
     1
102
RTVSPropertyOp22
 70
     1
102
RTVSPropertyOp23
 70
     1
102
RTVSPropertyOp24
 70
     1
102
RTVSPropertyOp25
 70
     1
102
RTVSPropertyOp26
 70
     1
102
RTVSPropertyOp27
 70
     1
102
RTVSPropertyOp28
 70
     1
102
RTVSPropertyOp29
 70
     1
102
RTVSPropertyOp30
 70
     1
102
RTVSPropertyOp31
 70
     1
102
RTVSPropertyOp32
 70
     1
  0
XRECORD
  5
1254
102
{ACAD_REACTORS
330
1253
102
}
330
1253
100
AcDbXrecord
280
     1
102
RTVSPropertyOp0
 70
     1
102
RTVSPropertyOp1
 70
     1
102
RTVSPropertyOp2
 70
     1
102
RTVSPropertyOp3
 70
     1
102
RTVSPropertyOp4
 70
     1
102
RTVSPropertyOp5
 70
     1
102
RTVSPropertyOp6
 70
     1
102
RTVSPropertyOp7
 70
     1
102
RTVSPropertyOp8
 70
     1
102
RTVSPropertyOp9
 70
     1
102
RTVSPropertyOp10
 70
     1
102
RTVSPropertyOp11
 70
     1
102
RTVSPropertyOp12
 70
     1
102
RTVSPropertyOp13
 70
     1
102
RTVSPropertyOp14
 70
     1
102
RTVSPropertyOp15
 70
     1
102
RTVSPropertyOp16
 70
     1
102
RTVSPropertyOp17
 70
     1
102
RTVSPropertyOp18
 70
     1
102
RTVSPropertyOp19
 70
     1
102
RTVSPropertyOp20
 70
     1
102
RTVSPropertyOp21
 70
     1
102
RTVSPropertyOp22
 70
     1
102
RTVSPropertyOp23
 70
     1
102
RTVSPropertyOp24
 70
     1
102
RTVSPropertyOp25
 70
     1
102
RTVSPropertyOp26
 70
     1
102
RTVSPropertyOp27
 70
     1
102
RTVSPropertyOp28
 70
     1
102
RTVSPropertyOp29
 70
     1
102
RTVSPropertyOp30
 70
     1
102
RTVSPropertyOp31
 70
     1
102
RTVSPropertyOp32
 70
     1
  0
XRECORD
  5
1246
102
{ACAD_REACTORS
330
1245
102
}
330
1245
100
AcDbXrecord
280
     1
102
RTVSPropertyOp0
 70
     1
102
RTVSPropertyOp1
 70
     1
102
RTVSPropertyOp2
 70
     1
102
RTVSPropertyOp3
 70
     1
102
RTVSPropertyOp4
 70
     1
102
RTVSPropertyOp5
 70
     1
102
RTVSPropertyOp6
 70
     1
102
RTVSPropertyOp7
 70
     1
102
RTVSPropertyOp8
 70
     1
102
RTVSPropertyOp9
 70
     1
102
RTVSPropertyOp10
 70
     1
102
RTVSPropertyOp11
 70
     1
102
RTVSPropertyOp12
 70
     1
102
RTVSPropertyOp13
 70
     1
102
RTVSPropertyOp14
 70
     1
102
RTVSPropertyOp15
 70
     1
102
RTVSPropertyOp16
 70
     1
102
RTVSPropertyOp17
 70
     1
102
RTVSPropertyOp18
 70
     1
102
RTVSPropertyOp19
 70
     1
102
RTVSPropertyOp20
 70
     1
102
RTVSPropertyOp21
 70
     1
102
RTVSPropertyOp22
 70
     1
102
RTVSPropertyOp23
 70
     1
102
RTVSPropertyOp24
 70
     1
102
RTVSPropertyOp25
 70
     1
102
RTVSPropertyOp26
 70
     1
102
RTVSPropertyOp27
 70
     1
102
RTVSPropertyOp28
 70
     1
102
RTVSPropertyOp29
 70
     1
102
RTVSPropertyOp30
 70
     1
102
RTVSPropertyOp31
 70
     1
102
RTVSPropertyOp32
 70
     1
  0
XRECORD
  5
124A
102
{ACAD_REACTORS
330
1249
102
}
330
1249
100
AcDbXrecord
280
     1
102
RTVSPropertyOp0
 70
     1
102
RTVSPropertyOp1
 70
     1
102
RTVSPropertyOp2
 70
     1
102
RTVSPropertyOp3
 70
     1
102
RTVSPropertyOp4
 70
     1
102
RTVSPropertyOp5
 70
     1
102
RTVSPropertyOp6
 70
     1
102
RTVSPropertyOp7
 70
     1
102
RTVSPropertyOp8
 70
     1
102
RTVSPropertyOp9
 70
     1
102
RTVSPropertyOp10
 70
     1
102
RTVSPropertyOp11
 70
     1
102
RTVSPropertyOp12
 70
     1
102
RTVSPropertyOp13
 70
     1
102
RTVSPropertyOp14
 70
     1
102
RTVSPropertyOp15
 70
     1
102
RTVSPropertyOp16
 70
     1
102
RTVSPropertyOp17
 70
     1
102
RTVSPropertyOp18
 70
     1
102
RTVSPropertyOp19
 70
     1
102
RTVSPropertyOp20
 70
     1
102
RTVSPropertyOp21
 70
     1
102
RTVSPropertyOp22
 70
     1
102
RTVSPropertyOp23
 70
     1
102
RTVSPropertyOp24
 70
     1
102
RTVSPropertyOp25
 70
     1
102
RTVSPropertyOp26
 70
     1
102
RTVSPropertyOp27
 70
     1
102
RTVSPropertyOp28
 70
     1
102
RTVSPropertyOp29
 70
     1
102
RTVSPropertyOp30
 70
     1
102
RTVSPropertyOp31
 70
     1
102
RTVSPropertyOp32
 70
     1
  0
XRECORD
  5
1264
102
{ACAD_REACTORS
330
1263
102
}
330
1263
100
AcDbXrecord
280
     1
102
RTVSPropertyOp0
 70
     0
102
RTVSPropertyOp1
 70
     0
102
RTVSPropertyOp2
 70
     0
102
RTVSPropertyOp3
 70
     0
102
RTVSPropertyOp4
 70
     0
102
RTVSPropertyOp5
 70
     0
102
RTVSPropertyOp6
 70
     0
102
RTVSPropertyOp7
 70
     0
102
RTVSPropertyOp8
 70
     0
102
RTVSPropertyOp9
 70
     0
102
RTVSPropertyOp10
 70
     0
102
RTVSPropertyOp11
 70
     0
102
RTVSPropertyOp12
 70
     0
102
RTVSPropertyOp13
 70
     0
102
RTVSPropertyOp14
 70
     2
102
RTVSPropertyOp15
 70
     0
102
RTVSPropertyOp16
 70
     0
102
RTVSPropertyOp17
 70
     0
102
RTVSPropertyOp18
 70
     0
102
RTVSPropertyOp19
 70
     0
102
RTVSPropertyOp20
 70
     0
102
RTVSPropertyOp21
 70
     0
102
RTVSPropertyOp22
 70
     0
102
RTVSPropertyOp23
 70
     0
102
RTVSPropertyOp24
 70
     0
102
RTVSPropertyOp25
 70
     0
102
RTVSPropertyOp26
 70
     0
102
RTVSPropertyOp27
 70
     0
102
RTVSPropertyOp28
 70
     1
102
RTVSPropertyOp29
 70
     1
102
RTVSPropertyOp30
 70
     1
102
RTVSPropertyOp31
 70
     1
102
RTVSPropertyOp32
 70
     1
  0
XRECORD
  5
1252
102
{ACAD_REACTORS
330
1251
102
}
330
1251
100
AcDbXrecord
280
     1
102
RTVSPropertyOp0
 70
     1
102
RTVSPropertyOp1
 70
     1
102
RTVSPropertyOp2
 70
     1
102
RTVSPropertyOp3
 70
     1
102
RTVSPropertyOp4
 70
     1
102
RTVSPropertyOp5
 70
     1
102
RTVSPropertyOp6
 70
     1
102
RTVSPropertyOp7
 70
     1
102
RTVSPropertyOp8
 70
     1
102
RTVSPropertyOp9
 70
     1
102
RTVSPropertyOp10
 70
     1
102
RTVSPropertyOp11
 70
     1
102
RTVSPropertyOp12
 70
     1
102
RTVSPropertyOp13
 70
     1
102
RTVSPropertyOp14
 70
     1
102
RTVSPropertyOp15
 70
     1
102
RTVSPropertyOp16
 70
     1
102
RTVSPropertyOp17
 70
     1
102
RTVSPropertyOp18
 70
     1
102
RTVSPropertyOp19
 70
     1
102
RTVSPropertyOp20
 70
     1
102
RTVSPropertyOp21
 70
     1
102
RTVSPropertyOp22
 70
     1
102
RTVSPropertyOp23
 70
     1
102
RTVSPropertyOp24
 70
     1
102
RTVSPropertyOp25
 70
     1
102
RTVSPropertyOp26
 70
     1
102
RTVSPropertyOp27
 70
     1
102
RTVSPropertyOp28
 70
     1
102
RTVSPropertyOp29
 70
     1
102
RTVSPropertyOp30
 70
     1
102
RTVSPropertyOp31
 70
     1
102
RTVSPropertyOp32
 70
     1
  0
XRECORD
  5
1236
102
{ACAD_REACTORS
330
1235
102
}
330
1235
100
AcDbXrecord
280
     1
102
RTVSPropertyOp0
 70
     1
102
RTVSPropertyOp1
 70
     1
102
RTVSPropertyOp2
 70
     1
102
RTVSPropertyOp3
 70
     1
102
RTVSPropertyOp4
 70
     1
102
RTVSPropertyOp5
 70
     1
102
RTVSPropertyOp6
 70
     1
102
RTVSPropertyOp7
 70
     1
102
RTVSPropertyOp8
 70
     1
102
RTVSPropertyOp9
 70
     1
102
RTVSPropertyOp10
 70
     1
102
RTVSPropertyOp11
 70
     1
102
RTVSPropertyOp12
 70
     1
102
RTVSPropertyOp13
 70
     1
102
RTVSPropertyOp14
 70
     1
102
RTVSPropertyOp15
 70
     1
102
RTVSPropertyOp16
 70
     1
102
RTVSPropertyOp17
 70
     1
102
RTVSPropertyOp18
 70
     1
102
RTVSPropertyOp19
 70
     1
102
RTVSPropertyOp20
 70
     1
102
RTVSPropertyOp21
 70
     1
102
RTVSPropertyOp22
 70
     1
102
RTVSPropertyOp23
 70
     1
102
RTVSPropertyOp24
 70
     1
102
RTVSPropertyOp25
 70
     1
102
RTVSPropertyOp26
 70
     1
102
RTVSPropertyOp27
 70
     1
102
RTVSPropertyOp28
 70
     1
102
RTVSPropertyOp29
 70
     1
102
RTVSPropertyOp30
 70
     1
102
RTVSPropertyOp31
 70
     1
102
RTVSPropertyOp32
 70
     1
  0
XRECORD
  5
1238
102
{ACAD_REACTORS
330
1237
102
}
330
1237
100
AcDbXrecord
280
     1
102
RTVSPropertyOp0
 70
     1
102
RTVSPropertyOp1
 70
     1
102
RTVSPropertyOp2
 70
     1
102
RTVSPropertyOp3
 70
     1
102
RTVSPropertyOp4
 70
     1
102
RTVSPropertyOp5
 70
     1
102
RTVSPropertyOp6
 70
     1
102
RTVSPropertyOp7
 70
     1
102
RTVSPropertyOp8
 70
     1
102
RTVSPropertyOp9
 70
     1
102
RTVSPropertyOp10
 70
     1
102
RTVSPropertyOp11
 70
     1
102
RTVSPropertyOp12
 70
     1
102
RTVSPropertyOp13
 70
     1
102
RTVSPropertyOp14
 70
     1
102
RTVSPropertyOp15
 70
     1
102
RTVSPropertyOp16
 70
     1
102
RTVSPropertyOp17
 70
     1
102
RTVSPropertyOp18
 70
     1
102
RTVSPropertyOp19
 70
     1
102
RTVSPropertyOp20
 70
     1
102
RTVSPropertyOp21
 70
     1
102
RTVSPropertyOp22
 70
     1
102
RTVSPropertyOp23
 70
     1
102
RTVSPropertyOp24
 70
     1
102
RTVSPropertyOp25
 70
     1
102
RTVSPropertyOp26
 70
     1
102
RTVSPropertyOp27
 70
     1
102
RTVSPropertyOp28
 70
     1
102
RTVSPropertyOp29
 70
     1
102
RTVSPropertyOp30
 70
     1
102
RTVSPropertyOp31
 70
     1
102
RTVSPropertyOp32
 70
     1
  0
XRECORD
  5
123A
102
{ACAD_REACTORS
330
1239
102
}
330
1239
100
AcDbXrecord
280
     1
102
RTVSPropertyOp0
 70
     1
102
RTVSPropertyOp1
 70
     1
102
RTVSPropertyOp2
 70
     1
102
RTVSPropertyOp3
 70
     1
102
RTVSPropertyOp4
 70
     1
102
RTVSPropertyOp5
 70
     1
102
RTVSPropertyOp6
 70
     1
102
RTVSPropertyOp7
 70
     1
102
RTVSPropertyOp8
 70
     1
102
RTVSPropertyOp9
 70
     1
102
RTVSPropertyOp10
 70
     1
102
RTVSPropertyOp11
 70
     1
102
RTVSPropertyOp12
 70
     1
102
RTVSPropertyOp13
 70
     1
102
RTVSPropertyOp14
 70
     1
102
RTVSPropertyOp15
 70
     1
102
RTVSPropertyOp16
 70
     1
102
RTVSPropertyOp17
 70
     1
102
RTVSPropertyOp18
 70
     1
102
RTVSPropertyOp19
 70
     1
102
RTVSPropertyOp20
 70
     1
102
RTVSPropertyOp21
 70
     1
102
RTVSPropertyOp22
 70
     1
102
RTVSPropertyOp23
 70
     1
102
RTVSPropertyOp24
 70
     1
102
RTVSPropertyOp25
 70
     1
102
RTVSPropertyOp26
 70
     1
102
RTVSPropertyOp27
 70
     1
102
RTVSPropertyOp28
 70
     1
102
RTVSPropertyOp29
 70
     1
102
RTVSPropertyOp30
 70
     1
102
RTVSPropertyOp31
 70
     1
102
RTVSPropertyOp32
 70
     1
  0
XRECORD
  5
123C
102
{ACAD_REACTORS
330
123B
102
}
330
123B
100
AcDbXrecord
280
     1
102
RTVSPropertyOp0
 70
     1
102
RTVSPropertyOp1
 70
     1
102
RTVSPropertyOp2
 70
     1
102
RTVSPropertyOp3
 70
     1
102
RTVSPropertyOp4
 70
     1
102
RTVSPropertyOp5
 70
     1
102
RTVSPropertyOp6
 70
     1
102
RTVSPropertyOp7
 70
     1
102
RTVSPropertyOp8
 70
     1
102
RTVSPropertyOp9
 70
     1
102
RTVSPropertyOp10
 70
     1
102
RTVSPropertyOp11
 70
     1
102
RTVSPropertyOp12
 70
     1
102
RTVSPropertyOp13
 70
     1
102
RTVSPropertyOp14
 70
     1
102
RTVSPropertyOp15
 70
     1
102
RTVSPropertyOp16
 70
     1
102
RTVSPropertyOp17
 70
     1
102
RTVSPropertyOp18
 70
     1
102
RTVSPropertyOp19
 70
     1
102
RTVSPropertyOp20
 70
     1
102
RTVSPropertyOp21
 70
     1
102
RTVSPropertyOp22
 70
     1
102
RTVSPropertyOp23
 70
     1
102
RTVSPropertyOp24
 70
     1
102
RTVSPropertyOp25
 70
     1
102
RTVSPropertyOp26
 70
     1
102
RTVSPropertyOp27
 70
     1
102
RTVSPropertyOp28
 70
     1
102
RTVSPropertyOp29
 70
     1
102
RTVSPropertyOp30
 70
     1
102
RTVSPropertyOp31
 70
     1
102
RTVSPropertyOp32
 70
     1
  0
XRECORD
  5
1244
102
{ACAD_REACTORS
330
1243
102
}
330
1243
100
AcDbXrecord
280
     1
102
RTVSPropertyOp0
 70
     1
102
RTVSPropertyOp1
 70
     1
102
RTVSPropertyOp2
 70
     1
102
RTVSPropertyOp3
 70
     1
102
RTVSPropertyOp4
 70
     1
102
RTVSPropertyOp5
 70
     1
102
RTVSPropertyOp6
 70
     1
102
RTVSPropertyOp7
 70
     1
102
RTVSPropertyOp8
 70
     1
102
RTVSPropertyOp9
 70
     1
102
RTVSPropertyOp10
 70
     1
102
RTVSPropertyOp11
 70
     1
102
RTVSPropertyOp12
 70
     1
102
RTVSPropertyOp13
 70
     1
102
RTVSPropertyOp14
 70
     1
102
RTVSPropertyOp15
 70
     1
102
RTVSPropertyOp16
 70
     1
102
RTVSPropertyOp17
 70
     1
102
RTVSPropertyOp18
 70
     1
102
RTVSPropertyOp19
 70
     1
102
RTVSPropertyOp20
 70
     1
102
RTVSPropertyOp21
 70
     1
102
RTVSPropertyOp22
 70
     1
102
RTVSPropertyOp23
 70
     1
102
RTVSPropertyOp24
 70
     1
102
RTVSPropertyOp25
 70
     1
102
RTVSPropertyOp26
 70
     1
102
RTVSPropertyOp27
 70
     1
102
RTVSPropertyOp28
 70
     1
102
RTVSPropertyOp29
 70
     1
102
RTVSPropertyOp30
 70
     1
102
RTVSPropertyOp31
 70
     1
102
RTVSPropertyOp32
 70
     1
  0
XRECORD
  5
1260
102
{ACAD_REACTORS
330
125F
102
}
330
125F
100
AcDbXrecord
280
     1
102
RTVSPropertyOp0
 70
     0
102
RTVSPropertyOp1
 70
     0
102
RTVSPropertyOp2
 70
     0
102
RTVSPropertyOp3
 70
     0
102
RTVSPropertyOp4
 70
     0
102
RTVSPropertyOp5
 70
     0
102
RTVSPropertyOp6
 70
     0
102
RTVSPropertyOp7
 70
     0
102
RTVSPropertyOp8
 70
     0
102
RTVSPropertyOp9
 70
     0
102
RTVSPropertyOp10
 70
     0
102
RTVSPropertyOp11
 70
     0
102
RTVSPropertyOp12
 70
     0
102
RTVSPropertyOp13
 70
     0
102
RTVSPropertyOp14
 70
     2
102
RTVSPropertyOp15
 70
     0
102
RTVSPropertyOp16
 70
     0
102
RTVSPropertyOp17
 70
     0
102
RTVSPropertyOp18
 70
     0
102
RTVSPropertyOp19
 70
     0
102
RTVSPropertyOp20
 70
     0
102
RTVSPropertyOp21
 70
     0
102
RTVSPropertyOp22
 70
     0
102
RTVSPropertyOp23
 70
     0
102
RTVSPropertyOp24
 70
     0
102
RTVSPropertyOp25
 70
     0
102
RTVSPropertyOp26
 70
     0
102
RTVSPropertyOp27
 70
     0
102
RTVSPropertyOp28
 70
     1
102
RTVSPropertyOp29
 70
     1
102
RTVSPropertyOp30
 70
     1
102
RTVSPropertyOp31
 70
     1
102
RTVSPropertyOp32
 70
     1
  0
XRECORD
  5
1250
102
{ACAD_REACTORS
330
124F
102
}
330
124F
100
AcDbXrecord
280
     1
102
RTVSPropertyOp0
 70
     1
102
RTVSPropertyOp1
 70
     1
102
RTVSPropertyOp2
 70
     1
102
RTVSPropertyOp3
 70
     1
102
RTVSPropertyOp4
 70
     1
102
RTVSPropertyOp5
 70
     1
102
RTVSPropertyOp6
 70
     1
102
RTVSPropertyOp7
 70
     1
102
RTVSPropertyOp8
 70
     1
102
RTVSPropertyOp9
 70
     1
102
RTVSPropertyOp10
 70
     1
102
RTVSPropertyOp11
 70
     1
102
RTVSPropertyOp12
 70
     1
102
RTVSPropertyOp13
 70
     1
102
RTVSPropertyOp14
 70
     1
102
RTVSPropertyOp15
 70
     1
102
RTVSPropertyOp16
 70
     1
102
RTVSPropertyOp17
 70
     1
102
RTVSPropertyOp18
 70
     1
102
RTVSPropertyOp19
 70
     1
102
RTVSPropertyOp20
 70
     1
102
RTVSPropertyOp21
 70
     1
102
RTVSPropertyOp22
 70
     1
102
RTVSPropertyOp23
 70
     1
102
RTVSPropertyOp24
 70
     1
102
RTVSPropertyOp25
 70
     1
102
RTVSPropertyOp26
 70
     1
102
RTVSPropertyOp27
 70
     1
102
RTVSPropertyOp28
 70
     1
102
RTVSPropertyOp29
 70
     1
102
RTVSPropertyOp30
 70
     1
102
RTVSPropertyOp31
 70
     1
102
RTVSPropertyOp32
 70
     1
  0
XRECORD
  5
1262
102
{ACAD_REACTORS
330
1261
102
}
330
1261
100
AcDbXrecord
280
     1
102
RTVSPropertyOp0
 70
     0
102
RTVSPropertyOp1
 70
     0
102
RTVSPropertyOp2
 70
     0
102
RTVSPropertyOp3
 70
     0
102
RTVSPropertyOp4
 70
     0
102
RTVSPropertyOp5
 70
     0
102
RTVSPropertyOp6
 70
     0
102
RTVSPropertyOp7
 70
     0
102
RTVSPropertyOp8
 70
     0
102
RTVSPropertyOp9
 70
     0
102
RTVSPropertyOp10
 70
     0
102
RTVSPropertyOp11
 70
     0
102
RTVSPropertyOp12
 70
     0
102
RTVSPropertyOp13
 70
     0
102
RTVSPropertyOp14
 70
     2
102
RTVSPropertyOp15
 70
     0
102
RTVSPropertyOp16
 70
     0
102
RTVSPropertyOp17
 70
     0
102
RTVSPropertyOp18
 70
     0
102
RTVSPropertyOp19
 70
     0
102
RTVSPropertyOp20
 70
     0
102
RTVSPropertyOp21
 70
     0
102
RTVSPropertyOp22
 70
     0
102
RTVSPropertyOp23
 70
     0
102
RTVSPropertyOp24
 70
     0
102
RTVSPropertyOp25
 70
     0
102
RTVSPropertyOp26
 70
     0
102
RTVSPropertyOp27
 70
     0
102
RTVSPropertyOp28
 70
     1
102
RTVSPropertyOp29
 70
     1
102
RTVSPropertyOp30
 70
     1
102
RTVSPropertyOp31
 70
     1
102
RTVSPropertyOp32
 70
     1
  0
XRECORD
  5
1248
102
{ACAD_REACTORS
330
1247
102
}
330
1247
100
AcDbXrecord
280
     1
102
RTVSPropertyOp0
 70
     1
102
RTVSPropertyOp1
 70
     1
102
RTVSPropertyOp2
 70
     1
102
RTVSPropertyOp3
 70
     1
102
RTVSPropertyOp4
 70
     1
102
RTVSPropertyOp5
 70
     1
102
RTVSPropertyOp6
 70
     1
102
RTVSPropertyOp7
 70
     1
102
RTVSPropertyOp8
 70
     1
102
RTVSPropertyOp9
 70
     1
102
RTVSPropertyOp10
 70
     1
102
RTVSPropertyOp11
 70
     1
102
RTVSPropertyOp12
 70
     1
102
RTVSPropertyOp13
 70
     1
102
RTVSPropertyOp14
 70
     1
102
RTVSPropertyOp15
 70
     1
102
RTVSPropertyOp16
 70
     1
102
RTVSPropertyOp17
 70
     1
102
RTVSPropertyOp18
 70
     1
102
RTVSPropertyOp19
 70
     1
102
RTVSPropertyOp20
 70
     1
102
RTVSPropertyOp21
 70
     1
102
RTVSPropertyOp22
 70
     1
102
RTVSPropertyOp23
 70
     1
102
RTVSPropertyOp24
 70
     1
102
RTVSPropertyOp25
 70
     1
102
RTVSPropertyOp26
 70
     1
102
RTVSPropertyOp27
 70
     1
102
RTVSPropertyOp28
 70
     1
102
RTVSPropertyOp29
 70
     1
102
RTVSPropertyOp30
 70
     1
102
RTVSPropertyOp31
 70
     1
102
RTVSPropertyOp32
 70
     1
  0
XRECORD
  5
125E
102
{ACAD_REACTORS
330
125D
102
}
330
125D
100
AcDbXrecord
280
     1
102
RTVSPropertyOp0
 70
     1
102
RTVSPropertyOp1
 70
     1
102
RTVSPropertyOp2
 70
     1
102
RTVSPropertyOp3
 70
     1
102
RTVSPropertyOp4
 70
     1
102
RTVSPropertyOp5
 70
     1
102
RTVSPropertyOp6
 70
     1
102
RTVSPropertyOp7
 70
     1
102
RTVSPropertyOp8
 70
     1
102
RTVSPropertyOp9
 70
     1
102
RTVSPropertyOp10
 70
     1
102
RTVSPropertyOp11
 70
     1
102
RTVSPropertyOp12
 70
     1
102
RTVSPropertyOp13
 70
     1
102
RTVSPropertyOp14
 70
     1
102
RTVSPropertyOp15
 70
     1
102
RTVSPropertyOp16
 70
     1
102
RTVSPropertyOp17
 70
     1
102
RTVSPropertyOp18
 70
     1
102
RTVSPropertyOp19
 70
     1
102
RTVSPropertyOp20
 70
     1
102
RTVSPropertyOp21
 70
     1
102
RTVSPropertyOp22
 70
     1
102
RTVSPropertyOp23
 70
     1
102
RTVSPropertyOp24
 70
     1
102
RTVSPropertyOp25
 70
     1
102
RTVSPropertyOp26
 70
     1
102
RTVSPropertyOp27
 70
     1
102
RTVSPropertyOp28
 70
     1
102
RTVSPropertyOp29
 70
     1
102
RTVSPropertyOp30
 70
     1
102
RTVSPropertyOp31
 70
     1
102
RTVSPropertyOp32
 70
     1
  0
XRECORD
  5
125C
102
{ACAD_REACTORS
330
125B
102
}
330
125B
100
AcDbXrecord
280
     1
102
RTVSPropertyOp0
 70
     1
102
RTVSPropertyOp1
 70
     1
102
RTVSPropertyOp2
 70
     1
102
RTVSPropertyOp3
 70
     1
102
RTVSPropertyOp4
 70
     1
102
RTVSPropertyOp5
 70
     1
102
RTVSPropertyOp6
 70
     1
102
RTVSPropertyOp7
 70
     1
102
RTVSPropertyOp8
 70
     1
102
RTVSPropertyOp9
 70
     1
102
RTVSPropertyOp10
 70
     1
102
RTVSPropertyOp11
 70
     1
102
RTVSPropertyOp12
 70
     1
102
RTVSPropertyOp13
 70
     1
102
RTVSPropertyOp14
 70
     1
102
RTVSPropertyOp15
 70
     1
102
RTVSPropertyOp16
 70
     1
102
RTVSPropertyOp17
 70
     1
102
RTVSPropertyOp18
 70
     1
102
RTVSPropertyOp19
 70
     1
102
RTVSPropertyOp20
 70
     1
102
RTVSPropertyOp21
 70
     1
102
RTVSPropertyOp22
 70
     1
102
RTVSPropertyOp23
 70
     1
102
RTVSPropertyOp24
 70
     1
102
RTVSPropertyOp25
 70
     1
102
RTVSPropertyOp26
 70
     1
102
RTVSPropertyOp27
 70
     1
102
RTVSPropertyOp28
 70
     1
102
RTVSPropertyOp29
 70
     1
102
RTVSPropertyOp30
 70
     1
102
RTVSPropertyOp31
 70
     1
102
RTVSPropertyOp32
 70
     1
  0
XRECORD
  5
1256
102
{ACAD_REACTORS
330
1255
102
}
330
1255
100
AcDbXrecord
280
     1
102
RTVSPropertyOp0
 70
     1
102
RTVSPropertyOp1
 70
     1
102
RTVSPropertyOp2
 70
     1
102
RTVSPropertyOp3
 70
     1
102
RTVSPropertyOp4
 70
     1
102
RTVSPropertyOp5
 70
     1
102
RTVSPropertyOp6
 70
     1
102
RTVSPropertyOp7
 70
     1
102
RTVSPropertyOp8
 70
     1
102
RTVSPropertyOp9
 70
     1
102
RTVSPropertyOp10
 70
     1
102
RTVSPropertyOp11
 70
     1
102
RTVSPropertyOp12
 70
     1
102
RTVSPropertyOp13
 70
     1
102
RTVSPropertyOp14
 70
     1
102
RTVSPropertyOp15
 70
     1
102
RTVSPropertyOp16
 70
     1
102
RTVSPropertyOp17
 70
     1
102
RTVSPropertyOp18
 70
     1
102
RTVSPropertyOp19
 70
     1
102
RTVSPropertyOp20
 70
     1
102
RTVSPropertyOp21
 70
     1
102
RTVSPropertyOp22
 70
     1
102
RTVSPropertyOp23
 70
     1
102
RTVSPropertyOp24
 70
     1
102
RTVSPropertyOp25
 70
     1
102
RTVSPropertyOp26
 70
     1
102
RTVSPropertyOp27
 70
     1
102
RTVSPropertyOp28
 70
     1
102
RTVSPropertyOp29
 70
     1
102
RTVSPropertyOp30
 70
     1
102
RTVSPropertyOp31
 70
     1
102
RTVSPropertyOp32
 70
     1
  0
XRECORD
  5
1258
102
{ACAD_REACTORS
330
1257
102
}
330
1257
100
AcDbXrecord
280
     1
102
RTVSPropertyOp0
 70
     1
102
RTVSPropertyOp1
 70
     1
102
RTVSPropertyOp2
 70
     1
102
RTVSPropertyOp3
 70
     1
102
RTVSPropertyOp4
 70
     1
102
RTVSPropertyOp5
 70
     1
102
RTVSPropertyOp6
 70
     1
102
RTVSPropertyOp7
 70
     1
102
RTVSPropertyOp8
 70
     1
102
RTVSPropertyOp9
 70
     1
102
RTVSPropertyOp10
 70
     1
102
RTVSPropertyOp11
 70
     1
102
RTVSPropertyOp12
 70
     1
102
RTVSPropertyOp13
 70
     1
102
RTVSPropertyOp14
 70
     1
102
RTVSPropertyOp15
 70
     1
102
RTVSPropertyOp16
 70
     1
102
RTVSPropertyOp17
 70
     1
102
RTVSPropertyOp18
 70
     1
102
RTVSPropertyOp19
 70
     1
102
RTVSPropertyOp20
 70
     1
102
RTVSPropertyOp21
 70
     1
102
RTVSPropertyOp22
 70
     1
102
RTVSPropertyOp23
 70
     1
102
RTVSPropertyOp24
 70
     1
102
RTVSPropertyOp25
 70
     1
102
RTVSPropertyOp26
 70
     1
102
RTVSPropertyOp27
 70
     1
102
RTVSPropertyOp28
 70
     1
102
RTVSPropertyOp29
 70
     1
102
RTVSPropertyOp30
 70
     1
102
RTVSPropertyOp31
 70
     1
102
RTVSPropertyOp32
 70
     1
  0
XRECORD
  5
124E
102
{ACAD_REACTORS
330
124D
102
}
330
124D
100
AcDbXrecord
280
     1
102
RTVSPropertyOp0
 70
     1
102
RTVSPropertyOp1
 70
     1
102
RTVSPropertyOp2
 70
     1
102
RTVSPropertyOp3
 70
     1
102
RTVSPropertyOp4
 70
     1
102
RTVSPropertyOp5
 70
     1
102
RTVSPropertyOp6
 70
     1
102
RTVSPropertyOp7
 70
     1
102
RTVSPropertyOp8
 70
     1
102
RTVSPropertyOp9
 70
     1
102
RTVSPropertyOp10
 70
     1
102
RTVSPropertyOp11
 70
     1
102
RTVSPropertyOp12
 70
     1
102
RTVSPropertyOp13
 70
     1
102
RTVSPropertyOp14
 70
     1
102
RTVSPropertyOp15
 70
     1
102
RTVSPropertyOp16
 70
     1
102
RTVSPropertyOp17
 70
     1
102
RTVSPropertyOp18
 70
     1
102
RTVSPropertyOp19
 70
     1
102
RTVSPropertyOp20
 70
     1
102
RTVSPropertyOp21
 70
     1
102
RTVSPropertyOp22
 70
     1
102
RTVSPropertyOp23
 70
     1
102
RTVSPropertyOp24
 70
     1
102
RTVSPropertyOp25
 70
     1
102
RTVSPropertyOp26
 70
     1
102
RTVSPropertyOp27
 70
     1
102
RTVSPropertyOp28
 70
     1
102
RTVSPropertyOp29
 70
     1
102
RTVSPropertyOp30
 70
     1
102
RTVSPropertyOp31
 70
     1
102
RTVSPropertyOp32
 70
     1
  0
XRECORD
  5
1242
102
{ACAD_REACTORS
330
1241
102
}
330
1241
100
AcDbXrecord
280
     1
102
RTVSPropertyOp0
 70
     1
102
RTVSPropertyOp1
 70
     1
102
RTVSPropertyOp2
 70
     1
102
RTVSPropertyOp3
 70
     1
102
RTVSPropertyOp4
 70
     1
102
RTVSPropertyOp5
 70
     1
102
RTVSPropertyOp6
 70
     1
102
RTVSPropertyOp7
 70
     1
102
RTVSPropertyOp8
 70
     1
102
RTVSPropertyOp9
 70
     1
102
RTVSPropertyOp10
 70
     1
102
RTVSPropertyOp11
 70
     1
102
RTVSPropertyOp12
 70
     1
102
RTVSPropertyOp13
 70
     1
102
RTVSPropertyOp14
 70
     1
102
RTVSPropertyOp15
 70
     1
102
RTVSPropertyOp16
 70
     1
102
RTVSPropertyOp17
 70
     1
102
RTVSPropertyOp18
 70
     1
102
RTVSPropertyOp19
 70
     1
102
RTVSPropertyOp20
 70
     1
102
RTVSPropertyOp21
 70
     1
102
RTVSPropertyOp22
 70
     1
102
RTVSPropertyOp23
 70
     1
102
RTVSPropertyOp24
 70
     1
102
RTVSPropertyOp25
 70
     1
102
RTVSPropertyOp26
 70
     1
102
RTVSPropertyOp27
 70
     1
102
RTVSPropertyOp28
 70
     1
102
RTVSPropertyOp29
 70
     1
102
RTVSPropertyOp30
 70
     1
102
RTVSPropertyOp31
 70
     1
102
RTVSPropertyOp32
 70
     1
  0
XRECORD
  5
125A
102
{ACAD_REACTORS
330
1259
102
}
330
1259
100
AcDbXrecord
280
     1
102
RTVSPropertyOp0
 70
     1
102
RTVSPropertyOp1
 70
     1
102
RTVSPropertyOp2
 70
     1
102
RTVSPropertyOp3
 70
     1
102
RTVSPropertyOp4
 70
     1
102
RTVSPropertyOp5
 70
     1
102
RTVSPropertyOp6
 70
     1
102
RTVSPropertyOp7
 70
     1
102
RTVSPropertyOp8
 70
     1
102
RTVSPropertyOp9
 70
     1
102
RTVSPropertyOp10
 70
     1
102
RTVSPropertyOp11
 70
     1
102
RTVSPropertyOp12
 70
     1
102
RTVSPropertyOp13
 70
     1
102
RTVSPropertyOp14
 70
     1
102
RTVSPropertyOp15
 70
     1
102
RTVSPropertyOp16
 70
     1
102
RTVSPropertyOp17
 70
     1
102
RTVSPropertyOp18
 70
     1
102
RTVSPropertyOp19
 70
     1
102
RTVSPropertyOp20
 70
     1
102
RTVSPropertyOp21
 70
     1
102
RTVSPropertyOp22
 70
     1
102
RTVSPropertyOp23
 70
     1
102
RTVSPropertyOp24
 70
     1
102
RTVSPropertyOp25
 70
     1
102
RTVSPropertyOp26
 70
     1
102
RTVSPropertyOp27
 70
     1
102
RTVSPropertyOp28
 70
     1
102
RTVSPropertyOp29
 70
     1
102
RTVSPropertyOp30
 70
     1
102
RTVSPropertyOp31
 70
     1
102
RTVSPropertyOp32
 70
     1
  0
ENDSEC
  0
EOF
