  0
SECTION
  2
HEADER
  9
$ACADVER
  1
AC1015
  9
$ACADMAINTVER
 70
    20
  9
$DWGCODEPAGE
  3
ANSI_1250
  9
$INSBASE
 10
0.0
 20
0.0
 30
0.0
  9
$EXTMIN
 10
1853.276099150514
 20
4766.68118691358
 30
0.0
  9
$EXTMAX
 10
13823.18681618881
 20
8245.131339506214
 30
0.0
  9
$LIMMIN
 10
0.0
 20
0.0
  9
$LIMMAX
 10
14850.0
 20
10500.0
  9
$ORTHOMODE
 70
     0
  9
$REGENMODE
 70
     1
  9
$FILLMODE
 70
     1
  9
$QTEXTMODE
 70
     0
  9
$MIRRTEXT
 70
     0
  9
$LTSCALE
 40
25.0
  9
$ATTMODE
 70
     1
  9
$TEXTSIZE
 40
0.2
  9
$TRACEWID
 40
0.05
  9
$TEXTSTYLE
  7
Standard
  9
$CLAYER
  8
0
  9
$CELTYPE
  6
ByLayer
  9
$CECOLOR
 62
   256
  9
$CELTSCALE
 40
1.0
  9
$DISPSILH
 70
     0
  9
$DIMSCALE
 40
1.0
  9
$DIMASZ
 40
1.799999999999999
  9
$DIMEXO
 40
0.0625
  9
$DIMDLI
 40
0.38
  9
$DIMRND
 40
0.0
  9
$DIMDLE
 40
0.0
  9
$DIMEXE
 40
0.18
  9
$DIMTP
 40
0.0
  9
$DIMTM
 40
0.0
  9
$DIMTXT
 40
0.25
  9
$DIMCEN
 40
0.09
  9
$DIMTSZ
 40
0.0
  9
$DIMTOL
 70
     0
  9
$DIMLIM
 70
     0
  9
$DIMTIH
 70
     1
  9
$DIMTOH
 70
     1
  9
$DIMSE1
 70
     0
  9
$DIMSE2
 70
     0
  9
$DIMTAD
 70
     0
  9
$DIMZIN
 70
     0
  9
$DIMBLK
  1

  9
$DIMASO
 70
     1
  9
$DIMSHO
 70
     1
  9
$DIMPOST
  1

  9
$DIMAPOST
  1

  9
$DIMALT
 70
     0
  9
$DIMALTD
 70
     2
  9
$DIMALTF
 40
25.4
  9
$DIMLFAC
 40
1.0
  9
$DIMTOFL
 70
     0
  9
$DIMTVP
 40
0.0
  9
$DIMTIX
 70
     0
  9
$DIMSOXD
 70
     0
  9
$DIMSAH
 70
     0
  9
$DIMBLK1
  1

  9
$DIMBLK2
  1

  9
$DIMSTYLE
  2
Standard
  9
$DIMCLRD
 70
     0
  9
$DIMCLRE
 70
     0
  9
$DIMCLRT
 70
     0
  9
$DIMTFAC
 40
1.0
  9
$DIMGAP
 40
0.09
  9
$DIMJUST
 70
     0
  9
$DIMSD1
 70
     0
  9
$DIMSD2
 70
     0
  9
$DIMTOLJ
 70
     1
  9
$DIMTZIN
 70
     0
  9
$DIMALTZ
 70
     0
  9
$DIMALTTZ
 70
     0
  9
$DIMUPT
 70
     0
  9
$DIMDEC
 70
     4
  9
$DIMTDEC
 70
     4
  9
$DIMALTU
 70
     2
  9
$DIMALTTD
 70
     2
  9
$DIMTXSTY
  7
Standard
  9
$DIMAUNIT
 70
     0
  9
$DIMADEC
 70
     0
  9
$DIMALTRND
 40
0.0
  9
$DIMAZIN
 70
     0
  9
$DIMDSEP
 70
    46
  9
$DIMATFIT
 70
     3
  9
$DIMFRAC
 70
     0
  9
$DIMLDRBLK
  1

  9
$DIMLUNIT
 70
     2
  9
$DIMLWD
 70
    -2
  9
$DIMLWE
 70
    -2
  9
$DIMTMOVE
 70
     0
  9
$LUNITS
 70
     2
  9
$LUPREC
 70
     4
  9
$SKETCHINC
 40
0.1
  9
$FILLETRAD
 40
0.0
  9
$AUNITS
 70
     0
  9
$AUPREC
 70
     0
  9
$MENU
  1
.
  9
$ELEVATION
 40
0.0
  9
$PELEVATION
 40
0.0
  9
$THICKNESS
 40
0.0
  9
$LIMCHECK
 70
     0
  9
$CHAMFERA
 40
0.0
  9
$CHAMFERB
 40
0.0
  9
$CHAMFERC
 40
0.0
  9
$CHAMFERD
 40
0.0
  9
$SKPOLY
 70
     0
  9
$TDCREATE
 40
2455793.643249352
  9
$TDUCREATE
 40
2455793.559916019
  9
$TDUPDATE
 40
2459858.491709456
  9
$TDUUPDATE
 40
2459858.408376123
  9
$TDINDWG
 40
0.0251588542
  9
$TDUSRTIMER
 40
0.0251588542
  9
$USRTIMER
 70
     1
  9
$ANGBASE
 50
0.0
  9
$ANGDIR
 70
     0
  9
$PDMODE
 70
     0
  9
$PDSIZE
 40
0.0
  9
$PLINEWID
 40
0.0
  9
$SPLFRAME
 70
     0
  9
$SPLINETYPE
 70
     6
  9
$SPLINESEGS
 70
     8
  9
$HANDSEED
  5
174B
  9
$SURFTAB1
 70
     6
  9
$SURFTAB2
 70
     6
  9
$SURFTYPE
 70
     6
  9
$SURFU
 70
     6
  9
$SURFV
 70
     6
  9
$UCSBASE
  2

  9
$UCSNAME
  2

  9
$UCSORG
 10
0.0
 20
0.0
 30
0.0
  9
$UCSXDIR
 10
1.0
 20
0.0
 30
0.0
  9
$UCSYDIR
 10
0.0
 20
1.0
 30
0.0
  9
$UCSORTHOREF
  2

  9
$UCSORTHOVIEW
 70
     0
  9
$UCSORGTOP
 10
0.0
 20
0.0
 30
0.0
  9
$UCSORGBOTTOM
 10
0.0
 20
0.0
 30
0.0
  9
$UCSORGLEFT
 10
0.0
 20
0.0
 30
0.0
  9
$UCSORGRIGHT
 10
0.0
 20
0.0
 30
0.0
  9
$UCSORGFRONT
 10
0.0
 20
0.0
 30
0.0
  9
$UCSORGBACK
 10
0.0
 20
0.0
 30
0.0
  9
$PUCSBASE
  2

  9
$PUCSNAME
  2

  9
$PUCSORG
 10
0.0
 20
0.0
 30
0.0
  9
$PUCSXDIR
 10
1.0
 20
0.0
 30
0.0
  9
$PUCSYDIR
 10
0.0
 20
1.0
 30
0.0
  9
$PUCSORTHOREF
  2

  9
$PUCSORTHOVIEW
 70
     0
  9
$PUCSORGTOP
 10
0.0
 20
0.0
 30
0.0
  9
$PUCSORGBOTTOM
 10
0.0
 20
0.0
 30
0.0
  9
$PUCSORGLEFT
 10
0.0
 20
0.0
 30
0.0
  9
$PUCSORGRIGHT
 10
0.0
 20
0.0
 30
0.0
  9
$PUCSORGFRONT
 10
0.0
 20
0.0
 30
0.0
  9
$PUCSORGBACK
 10
0.0
 20
0.0
 30
0.0
  9
$USERI1
 70
     0
  9
$USERI2
 70
     0
  9
$USERI3
 70
     0
  9
$USERI4
 70
     0
  9
$USERI5
 70
     0
  9
$USERR1
 40
0.0
  9
$USERR2
 40
0.0
  9
$USERR3
 40
0.0
  9
$USERR4
 40
0.0
  9
$USERR5
 40
0.0
  9
$WORLDVIEW
 70
     1
  9
$SHADEDGE
 70
     3
  9
$SHADEDIF
 70
    70
  9
$TILEMODE
 70
     1
  9
$MAXACTVP
 70
    64
  9
$PINSBASE
 10
0.0
 20
0.0
 30
0.0
  9
$PLIMCHECK
 70
     0
  9
$PEXTMIN
 10
0.0
 20
0.0
 30
0.0
  9
$PEXTMAX
 10
14850.0
 20
10500.0
 30
0.0
  9
$PLIMMIN
 10
0.0
 20
0.0
  9
$PLIMMAX
 10
14850.0
 20
10500.0
  9
$UNITMODE
 70
     0
  9
$VISRETAIN
 70
     1
  9
$PLINEGEN
 70
     0
  9
$PSLTSCALE
 70
     1
  9
$TREEDEPTH
 70
  3020
  9
$CMLSTYLE
  2
Standard
  9
$CMLJUST
 70
     0
  9
$CMLSCALE
 40
1.0
  9
$PROXYGRAPHICS
 70
     1
  9
$MEASUREMENT
 70
     1
  9
$CELWEIGHT
370
    -1
  9
$ENDCAPS
280
     0
  9
$JOINSTYLE
280
     0
  9
$LWDISPLAY
290
     0
  9
$INSUNITS
 70
     4
  9
$HYPERLINKBASE
  1

  9
$STYLESHEET
  1

  9
$XEDIT
290
     1
  9
$CEPSNTYPE
380
     0
  9
$PSTYLEMODE
290
     1
  9
$FINGERPRINTGUID
  2
{7069256B-FFB8-4821-8F43-455C408EF732}
  9
$VERSIONGUID
  2
{498F5DCB-1D57-4A99-9604-2F4A5079858F}
  9
$EXTNAMES
290
     1
  9
$PSVPSCALE
 40
0.0
  9
$OLESTARTUP
290
     0
  0
ENDSEC
  0
SECTION
  2
CLASSES
  0
CLASS
  1
ACDBDICTIONARYWDFLT
  2
AcDbDictionaryWithDefault
  3
ObjectDBX Classes
 90
        0
280
     0
281
     0
  0
CLASS
  1
MATERIAL
  2
AcDbMaterial
  3
ObjectDBX Classes
 90
     1153
280
     0
281
     0
  0
CLASS
  1
VISUALSTYLE
  2
AcDbVisualStyle
  3
ObjectDBX Classes
 90
     4095
280
     0
281
     0
  0
CLASS
  1
SCALE
  2
AcDbScale
  3
ObjectDBX Classes
 90
     1153
280
     0
281
     0
  0
CLASS
  1
TABLESTYLE
  2
AcDbTableStyle
  3
ObjectDBX Classes
 90
     4095
280
     0
281
     0
  0
CLASS
  1
MLEADERSTYLE
  2
AcDbMLeaderStyle
  3
ACDB_MLEADERSTYLE_CLASS
 90
     4095
280
     0
281
     0
  0
CLASS
  1
DICTIONARYVAR
  2
AcDbDictionaryVar
  3
ObjectDBX Classes
 90
        0
280
     0
281
     0
  0
CLASS
  1
CELLSTYLEMAP
  2
AcDbCellStyleMap
  3
ObjectDBX Classes
 90
     1152
280
     0
281
     0
  0
CLASS
  1
ACDBPLACEHOLDER
  2
AcDbPlaceHolder
  3
ObjectDBX Classes
 90
        0
280
     0
281
     0
  0
CLASS
  1
LAYOUT
  2
AcDbLayout
  3
ObjectDBX Classes
 90
        0
280
     0
281
     0
  0
CLASS
  1
ACME_DOCUMENT
  2
AcMeDbDoc
  3
AcMeServices
 90
     1024
280
     0
281
     0
  0
CLASS
  1
AMGSETTINGSOBJ
  2
AmgSettingsObj
  3
"AcadM|Product Description: AutoCAD Mechanical|Company: Autodesk, Inc."
 90
     1024
280
     0
281
     0
  0
CLASS
  1
ACMESCOPE
  2
AcMeScope
  3
AcMeServices
 90
     1024
280
     0
281
     0
  0
CLASS
  1
ACMECOMMANDHISTORY
  2
AcMeCommandHistory
  3
AcMeServices
 90
     1024
280
     0
281
     0
  0
CLASS
  1
ACIMSYSVARMAN
  2
AcImSysVarManager
  3
AcMeServices
 90
     1024
280
     0
281
     0
  0
CLASS
  1
ACIMINTSYSVAR
  2
AcImIntSysVar
  3
AcMeServices
 90
     1024
280
     0
281
     0
  0
CLASS
  1
ACMESTATEMGR
  2
AcMeStateMgr
  3
AcMeServices
 90
     1024
280
     0
281
     0
  0
CLASS
  1
ACDBENTITYCACHE
  2
AcMeEntityCache
  3
AcMeServices
 90
     1024
280
     0
281
     0
  0
CLASS
  1
ACGREFMASTER
  2
AcGrefMaster
  3
AcAttribServices
 90
     1024
280
     0
281
     0
  0
CLASS
  1
AM_DRAWING_MGR
  2
AcDmDwgMgr
  3
AcMechDwgViewMgmt
 90
     1024
280
     0
281
     0
  0
CLASS
  1
AM_DWG_DOCUMENT
  2
AcDmDwgDocument
  3
AcMechDwgViewMgmt
 90
     1024
280
     0
281
     0
  0
CLASS
  1
AM_DWG_SHEET
  2
AcDmSheet
  3
AcMechDwgViewMgmt
 90
     1024
280
     0
281
     0
  0
CLASS
  1
AM_VIEWDIMPARMAP
  2
AcDmViewDimParMap
  3
AcMechDwgViewMgmt
 90
     1024
280
     0
281
     0
  0
CLASS
  1
AMDTINTERNALREACTOR
  2
AmdtInternalReactor
  3
AcMeServices
 90
     1024
280
     0
281
     0
  0
CLASS
  1
ACIMREALSYSVAR
  2
AcImRealSysVar
  3
AcMeServices
 90
     1024
280
     0
281
     0
  0
CLASS
  1
AM_DWGMGR_NAME
  2
AcDmDwgMgrName
  3
AcMechDwgViewMgmt
 90
     1024
280
     0
281
     0
  0
CLASS
  1
ACME_DATABASE
  2
AcMeDbDatabase
  3
AcMeServices
 90
     1024
280
     0
281
     0
  0
CLASS
  1
ACRFINSADJUSTERMGR
  2
AcRfInsAdjusterMgr
  3
AcMeServices
 90
     1024
280
     0
281
     0
  0
CLASS
  1
ACGREFACADMASTER
  2
AcGrefacadMaster
  3
AcGrefServices
 90
     1024
280
     0
281
     0
  0
CLASS
  1
AMDTMENUSTATEMGR
  2
AmdtMenuStateMgr
  3
McadcomServices
 90
     1024
280
     0
281
     0
  0
CLASS
  1
AMDTMCOMMENUSTATE
  2
AmdtMcomMenuState
  3
McadcomServices
 90
     1024
280
     0
281
     0
  0
CLASS
  1
AMIMASTER
  2
AmiMaster
  3
AmiServices
 90
     1024
280
     0
281
     0
  0
CLASS
  1
MAPIAMMOUDLE
  2
MApiAmModule
  3
MApiAmServices
 90
     1024
280
     0
281
     0
  0
CLASS
  1
ACIMSTRSYSVAR
  2
AcImStrSysVar
  3
AcMeServices
 90
     1024
280
     0
281
     0
  0
CLASS
  1
AMDTDMMENUSTATE
  2
AmdtDmMenuState
  3
AcMechDwgViewMgmt
 90
     1024
280
     0
281
     0
  0
CLASS
  1
AMDTAMMENUSTATE
  2
AmdtAmMenuState
  3
DesignerAssemblies
 90
     1024
280
     0
281
     0
  0
CLASS
  1
ACAMPROJECT
  2
AcAmProject
  3
DesignerAssemblies
 90
     1024
280
     0
281
     0
  0
CLASS
  1
ACAMGRCOMPDEF
  2
AcAmGrCompDef
  3
DesignerAssemblies
 90
     1024
280
     0
281
     0
  0
CLASS
  1
ACAMCOMPDEF
  2
AcAmCompDef
  3
DesignerAssemblies
 90
     1024
280
     0
281
     0
  0
CLASS
  1
ACAMCOMPDEFMGR
  2
AcAmCompDefMgr
  3
DesignerAssemblies
 90
     1024
280
     0
281
     0
  0
CLASS
  1
AMCONTEXTMGR
  2
AcAmContextMgr
  3
DesignerAssemblies
 90
     1024
280
     0
281
     0
  0
CLASS
  1
ACAMCONTEXTMODELER
  2
AcAmContextModeler
  3
DesignerAssemblies
 90
     1024
280
     0
281
     0
  0
CLASS
  1
ACMDATADICTIONARY
  2
AcmDataDictionary
  3
"AcmSymBB|Product Description: AutoCAD Mechanical|Company: Autodesk, Inc."
 90
     1024
280
     0
281
     0
  0
CLASS
  1
ACAMGRCOMPDEFSET
  2
AcAmGrCompDefSet
  3
DesignerAssemblies
 90
     1024
280
     0
281
     0
  0
CLASS
  1
AMDTBROWSERDBTAB
  2
AmdtBrowserDbTab
  3
McadcomServices
 90
     1024
280
     0
281
     0
  0
CLASS
  1
CBROWSERAPPOBJECT
  2
CBrowserAppObject
  3
McadcomServices
 90
     1024
280
     0
281
     0
  0
CLASS
  1
DM_PLACEHOLDER
  2
AcDmSelsetPlaceholder
  3
AcMechDwgViewMgmt
 90
     1024
280
     0
281
     0
  0
CLASS
  1
EXACXREFPANELOBJECT
  2
ExAcXREFPanelObject
  3
EXAC_ESW
 90
    33793
280
     0
281
     0
  0
CLASS
  1
NPOCOLLECTION
  2
AcDbImpNonPersistentObjectsCollection
  3
ObjectDBX Classes
 90
    33921
280
     0
281
     0
  0
CLASS
  1
ACMSTANDARDISO
  2
AcmStandardISO
  3
"Amdt_StdImp|Product Description: AutoCAD Mechanical|Company: Autodesk, Inc."
 90
     1024
280
     0
281
     0
  0
CLASS
  1
AMDTEDGESTANDARDISO13715
  2
AmdtEdgeStdISO13715
  3
"Amdt_StdImp|Product Description: AutoCAD Mechanical|Company: Autodesk, Inc."
 90
     1024
280
     0
281
     0
  0
CLASS
  1
ACMSURFSTANDARDISO2002
  2
AcmSurfTextStdISO2002
  3
"Amdt_StdImp|Product Description: AutoCAD Mechanical|Company: Autodesk, Inc."
 90
     1024
280
     0
281
     0
  0
CLASS
  1
ACMFCFSTANDARDISO
  2
AcmFCFStdISO
  3
"Amdt_StdImp|Product Description: AutoCAD Mechanical|Company: Autodesk, Inc."
 90
     1024
280
     0
281
     0
  0
CLASS
  1
ACMWELDSTANDARDISO
  2
AcmWeldingStdISO
  3
"Amdt_StdImp|Product Description: AutoCAD Mechanical|Company: Autodesk, Inc."
 90
     1024
280
     0
281
     0
  0
CLASS
  1
ACMIDSTANDARDISO
  2
AcmIdStdISO
  3
"Amdt_StdImp|Product Description: AutoCAD Mechanical|Company: Autodesk, Inc."
 90
     1024
280
     0
281
     0
  0
CLASS
  1
ACMDATUMSTANDARDISO
  2
AcmDatumStdISO
  3
"Amdt_StdImp|Product Description: AutoCAD Mechanical|Company: Autodesk, Inc."
 90
     1024
280
     0
281
     0
  0
CLASS
  1
ACMBOMSTANDARDISO
  2
AcmBOMStdISO
  3
"Amdt_StdImp|Product Description: AutoCAD Mechanical|Company: Autodesk, Inc."
 90
     1024
280
     0
281
     0
  0
CLASS
  1
ACMDETAILSTANDARDISO
  2
AmdtDetailSymStdISO
  3
"Amdt_StdImp|Product Description: AutoCAD Mechanical|Company: Autodesk, Inc."
 90
     1024
280
     0
281
     0
  0
CLASS
  1
ACMSECTIONSTANDARDISO2001
  2
AmdtSectionSymStdISO2001
  3
"Amdt_StdImp|Product Description: AutoCAD Mechanical|Company: Autodesk, Inc."
 90
     1024
280
     0
281
     0
  0
CLASS
  1
ACMCENTERLINESTANDARDISO
  2
AmdtCenterLineStdISO
  3
"Amdt_StdImp|Product Description: AutoCAD Mechanical|Company: Autodesk, Inc."
 90
     1024
280
     0
281
     0
  0
CLASS
  1
ACMTHREADLINESTANDARDISO
  2
AmdtThreadLineStdISO
  3
"Amdt_StdImp|Product Description: AutoCAD Mechanical|Company: Autodesk, Inc."
 90
     1024
280
     0
281
     0
  0
CLASS
  1
ACMNOTESTANDARDISO
  2
AmdtNoteStdISO
  3
"Amdt_StdImp|Product Description: AutoCAD Mechanical|Company: Autodesk, Inc."
 90
     1024
280
     0
281
     0
  0
CLASS
  1
ACMTAPERSTANDARDISO
  2
AcmTaperStdISO
  3
"Amdt_StdImp|Product Description: AutoCAD Mechanical|Company: Autodesk, Inc."
 90
     1024
280
     0
281
     0
  0
CLASS
  1
ACMANOOTATIONVIEWSTANDARDISO
  2
AmdtAnViewStdISO
  3
"Amdt_StdImp|Product Description: AutoCAD Mechanical|Company: Autodesk, Inc."
 90
     1024
280
     0
281
     0
  0
CLASS
  1
ACAMGLAYSTD
  2
AcAmgLayStd
  3
"AmgLay|Product Description: AutoCAD Mechanical|Company: Autodesk, Inc."
 90
     1024
280
     0
281
     0
  0
CLASS
  1
ACAMGDIMSTD
  2
AcAmgDimStd
  3
"AmgDim|Product Description: AutoCAD Mechanical|Company: Autodesk, Inc."
 90
     1024
280
     0
281
     0
  0
CLASS
  1
AMGOBJPROPCFG
  2
AmgObjPropCfg
  3
"AmgLay|Product Description: AutoCAD Mechanical|Company: Autodesk, Inc."
 90
     1025
280
     0
281
     0
  0
CLASS
  1
ACAMGHOLECHARTSTDISO
  2
AcAmgHoleChartStdISO
  3
AmgDim|Product Description: AutoCAD Mechanical|Company: Autodesk, Inc.
 90
     1024
280
     0
281
     0
  0
CLASS
  1
ACAMGTITLESTD
  2
AcAmgTitleStd
  3
"AmgTitle|Product Description: AutoCAD Mechanical|Company: Autodesk, Inc."
 90
     4095
280
     0
281
     0
  0
CLASS
  1
AMDTNOTETEMPLATEDB
  2
AmdtNoteTemplateDB
  3
AcmSymBB|Product Description: AutoCAD Mechanical|Company: Autodesk, Inc.
 90
     1024
280
     0
281
     0
  0
CLASS
  1
ACAMGFILTERDAT
  2
AcAmgFilterDat
  3
"AcadM|Product Description: AutoCAD Mechanical|Company: Autodesk, Inc."
 90
    33792
280
     0
281
     0
  0
CLASS
  1
SORTENTSTABLE
  2
AcDbSortentsTable
  3
ObjectDBX Classes
 90
        0
280
     0
281
     0
  0
ENDSEC
  0
SECTION
  2
TABLES
  0
TABLE
  2
VPORT
  5
8
102
{ACAD_XDICTIONARY
360
1248
102
}
330
0
100
AcDbSymbolTable
 70
     1
  0
VPORT
  5
57
330
8
100
AcDbSymbolTableRecord
100
AcDbViewportTableRecord
  2
*Active
 70
     0
 10
0.0
 20
0.0
 11
1.0
 21
1.0
 12
9823.373206805335
 22
5666.704717160037
 13
0.0
 23
0.0
 14
1.0
 24
1.0
 15
0.0
 25
0.0
 16
0.0
 26
0.0
 36
1.0
 17
0.0
 27
0.0
 37
0.0
 40
9665.143352213188
 41
2.40253164556962
 42
50.0
 43
0.0
 44
0.0
 50
0.0
 51
0.0
 71
     0
 72
  4000
 73
     1
 74
     1
 75
     0
 76
     0
 77
     0
 78
     0
281
     0
 65
     1
110
0.0
120
0.0
130
0.0
111
1.0
121
0.0
131
0.0
112
0.0
122
1.0
132
0.0
 79
     0
146
0.0
  0
ENDTAB
  0
TABLE
  2
LTYPE
  5
5
330
0
100
AcDbSymbolTable
 70
    69
  0
LTYPE
  5
5B
330
5
100
AcDbSymbolTableRecord
100
AcDbLinetypeTableRecord
  2
ByBlock
 70
     0
  3

 72
    65
 73
     0
 40
0.0
  0
LTYPE
  5
5C
330
5
100
AcDbSymbolTableRecord
100
AcDbLinetypeTableRecord
  2
ByLayer
 70
     0
  3

 72
    65
 73
     0
 40
0.0
  0
LTYPE
  5
5D
330
5
100
AcDbSymbolTableRecord
100
AcDbLinetypeTableRecord
  2
Continuous
 70
     0
  3
Solid line
 72
    65
 73
     0
 40
0.0
  0
LTYPE
  5
86
330
5
100
AcDbSymbolTableRecord
100
AcDbLinetypeTableRecord
  2
CENTER
 70
     0
  3
Center ____ _ ____ _ ____ _ ____ _ ____ _ ____
 72
    65
 73
     4
 40
50.8
 49
31.75
 74
     0
 49
-6.349999999999999
 74
     0
 49
6.349999999999999
 74
     0
 49
-6.349999999999999
 74
     0
  0
LTYPE
  5
93
330
5
100
AcDbSymbolTableRecord
100
AcDbLinetypeTableRecord
  2
HIDDEN
 70
     0
  3
Hidden __ __ __ __ __ __ __ __ __ __ __ __ __ _
 72
    65
 73
     2
 40
9.524999999999998
 49
6.349999999999999
 74
     0
 49
-3.174999999999999
 74
     0
  0
LTYPE
  5
97
330
5
100
AcDbSymbolTableRecord
100
AcDbLinetypeTableRecord
  2
PHANTOM2
 70
     0
  3
Phantom (.5x) ___ _ _ ___ _ _ ___ _ _ ___ _ _
 72
    65
 73
     6
 40
31.75
 49
15.875
 74
     0
 49
-3.174999999999999
 74
     0
 49
3.174999999999999
 74
     0
 49
-3.174999999999999
 74
     0
 49
3.174999999999999
 74
     0
 49
-3.174999999999999
 74
     0
  0
LTYPE
  5
13C7
330
5
100
AcDbSymbolTableRecord
100
AcDbLinetypeTableRecord
  2
AM_ISO02W050
 70
     0
  3
__ __ __ __ __ __ __ __ __ __ __ __ __ __ __
 72
    65
 73
     2
 40
7.5
 49
6.0
 74
     0
 49
-1.5
 74
     0
  0
LTYPE
  5
13C8
330
5
100
AcDbSymbolTableRecord
100
AcDbLinetypeTableRecord
  2
AM_ISO08W050
 70
     0
  3
____ . ____ . ____ . ____ . ____ . ____ . ____
 72
    65
 73
     4
 40
18.0
 49
12.0
 74
     0
 49
-1.5
 74
     0
 49
3.0
 74
     0
 49
-1.5
 74
     0
  0
LTYPE
  5
13C9
330
5
100
AcDbSymbolTableRecord
100
AcDbLinetypeTableRecord
  2
AM_ISO09W050
 70
     0
  3
_____ . . _____ . . _____ . . ____ .. ____
 72
    65
 73
     6
 40
22.5
 49
12.0
 74
     0
 49
-1.5
 74
     0
 49
3.0
 74
     0
 49
-1.5
 74
     0
 49
3.0
 74
     0
 49
-1.5
 74
     0
  0
LTYPE
  5
13CA
330
5
100
AcDbSymbolTableRecord
100
AcDbLinetypeTableRecord
  2
Amconstr
 70
     0
  3
_______________________
 72
    65
 73
     2
 40
9999.0
 49
9999.0
 74
     0
 49
0.0
 74
     0
  0
LTYPE
  5
13CB
330
5
100
AcDbSymbolTableRecord
100
AcDbLinetypeTableRecord
  2
AM_ISO08W050x2
 70
     0
  3
__ . __ . __ . __ . __ . __
 72
    65
 73
     4
 40
9.0
 49
6.0
 74
     0
 49
-0.75
 74
     0
 49
1.5
 74
     0
 49
-0.75
 74
     0
  0
LTYPE
  5
13CC
330
5
100
AcDbSymbolTableRecord
100
AcDbLinetypeTableRecord
  2
AM_ISO02W050x2
 70
     0
  3
 _ _ _ _ _ _ _ _ _ _ _ _
 72
    65
 73
     2
 40
3.75
 49
3.0
 74
     0
 49
-0.75
 74
     0
  0
LTYPE
  5
13CF
330
5
100
AcDbSymbolTableRecord
100
AcDbLinetypeTableRecord
  2
Amzigzag
 70
     0
  3
/\/-/\/-/\/-/\/-/\/-/\/
 72
    65
 73
     2
 40
11.0001
 49
0.0001
 74
     4
 75
   136
340
13CE
 46
0.04
 50
0.0
 44
0.0
 45
0.0
 49
-11.0
 74
     0
  0
LTYPE
  5
13DE
330
5
100
AcDbSymbolTableRecord
100
AcDbLinetypeTableRecord
  2
ACISOWELD
 70
     0
  3
_ _ _ _ _
 72
    65
 73
     2
 40
2.0
 49
2.0
 74
     0
 49
-1.0
 74
     0
  0
LTYPE
  5
13DF
330
5
100
AcDbSymbolTableRecord
100
AcDbLinetypeTableRecord
  2
ACISOTGB
 70
     0
  3
__ . . __ . .
 72
    65
 73
     6
 40
9.0
 49
4.0
 74
     0
 49
-1.0
 74
     0
 49
1.0
 74
     0
 49
-1.0
 74
     0
 49
1.0
 74
     0
 49
-1.0
 74
     0
  0
LTYPE
  5
13E0
330
5
100
AcDbSymbolTableRecord
100
AcDbLinetypeTableRecord
  2
ACISOTGL
 70
     0
  3
_ _ _ _ _
 72
    65
 73
     2
 40
3.0
 49
2.0
 74
     0
 49
-1.0
 74
     0
  0
ENDTAB
  0
TABLE
  2
LAYER
  5
2
102
{ACAD_XDICTIONARY
360
10BB
102
}
330
0
100
AcDbSymbolTable
 70
     8
  0
LAYER
  5
54
330
2
100
AcDbSymbolTableRecord
100
AcDbLayerTableRecord
  2
0
 70
     0
 62
     7
  6
Continuous
370
    -3
390
F
  0
LAYER
  5
C6
330
2
100
AcDbSymbolTableRecord
100
AcDbLayerTableRecord
  2
Widoczne (ISO)
 70
     0
 62
     7
  6
Continuous
370
    25
390
F
  0
LAYER
  5
C7
330
2
100
AcDbSymbolTableRecord
100
AcDbLayerTableRecord
  2
Widoczne wąskie (ISO)
 70
     0
 62
     7
  6
Continuous
370
    15
390
F
  0
LAYER
  5
C8
330
2
100
AcDbSymbolTableRecord
100
AcDbLayerTableRecord
  2
Wymiar (ISO)
 70
     0
 62
   151
  6
Continuous
370
    18
390
F
  0
LAYER
  5
329
330
2
100
AcDbSymbolTableRecord
100
AcDbLayerTableRecord
  2
Defpoints
 70
     0
 62
     7
  6
Continuous
290
     0
370
    -3
390
F
  0
ENDTAB
  0
TABLE
  2
STYLE
  5
3
330
0
100
AcDbSymbolTable
 70
    12
  0
STYLE
  5
55
330
3
100
AcDbSymbolTableRecord
100
AcDbTextStyleTableRecord
  2
Standard
 70
     0
 40
0.0
 41
1.0
 50
0.0
 71
     0
 42
0.2
  3
tahoma.ttf
  4

1001
ACAD
1000
Tahoma
1071
      256
  0
STYLE
  5
CB
330
3
100
AcDbSymbolTableRecord
100
AcDbTextStyleTableRecord
  2
Tekst etykiety (ISO)
 70
     0
 40
0.0
 41
1.0
 50
0.0
 71
     0
 42
0.2
  3
tahoma.ttf
  4

1001
ACAD
1000
Tahoma
1071
      256
  0
STYLE
  5
13CE
330
3
100
AcDbSymbolTableRecord
100
AcDbTextStyleTableRecord
  2

 70
     1
 40
0.0
 41
1.0
 50
0.0
 71
     0
 42
0.2
  3
genltshp.shx
  4

  0
STYLE
  5
13DD
330
3
100
AcDbSymbolTableRecord
100
AcDbTextStyleTableRecord
  2
ACISOGDT
 70
     0
 40
0.0
 41
1.0
 50
0.0
 71
     0
 42
0.2
  3
amgdt.shx
  4

  0
ENDTAB
  0
TABLE
  2
VIEW
  5
6
330
0
100
AcDbSymbolTable
 70
     0
  0
ENDTAB
  0
TABLE
  2
UCS
  5
7
330
0
100
AcDbSymbolTable
 70
     0
  0
ENDTAB
  0
TABLE
  2
APPID
  5
9
330
0
100
AcDbSymbolTable
 70
    19
  0
APPID
  5
56
330
9
100
AcDbSymbolTableRecord
100
AcDbRegAppTableRecord
  2
ACAD
 70
     0
  0
APPID
  5
5E
330
9
100
AcDbSymbolTableRecord
100
AcDbRegAppTableRecord
  2
AcadAnnotative
 70
     0
  0
APPID
  5
170
330
9
100
AcDbSymbolTableRecord
100
AcDbRegAppTableRecord
  2
AcadAnnoPO
 70
     0
  0
APPID
  5
10D9
330
9
100
AcDbSymbolTableRecord
100
AcDbRegAppTableRecord
  2
ACAD_EXEMPT_FROM_CAD_STANDARDS
 70
     0
  0
APPID
  5
127E
330
9
100
AcDbSymbolTableRecord
100
AcDbRegAppTableRecord
  2
ACAD_MLEADERVER
 70
     0
  0
APPID
  5
135D
330
9
100
AcDbSymbolTableRecord
100
AcDbRegAppTableRecord
  2
MCAD_NO_VIS
 70
     0
  0
APPID
  5
135E
330
9
100
AcDbSymbolTableRecord
100
AcDbRegAppTableRecord
  2
ACAD_TEMP_GRAPHIC
 70
     0
  0
APPID
  5
1389
330
9
100
AcDbSymbolTableRecord
100
AcDbRegAppTableRecord
  2
AD_DRAW
 70
     0
  0
APPID
  5
138C
330
9
100
AcDbSymbolTableRecord
100
AcDbRegAppTableRecord
  2
ACATTRIBSERVICES
 70
     0
  0
APPID
  5
13A5
330
9
100
AcDbSymbolTableRecord
100
AcDbRegAppTableRecord
  2
DESIGNERASSEMBLIES
 70
     0
  0
APPID
  5
13AA
330
9
100
AcDbSymbolTableRecord
100
AcDbRegAppTableRecord
  2
ACADM_DIM_EDIT
 70
     0
  0
APPID
  5
13AB
330
9
100
AcDbSymbolTableRecord
100
AcDbRegAppTableRecord
  2
AMDT_DM_ADJ
 70
     0
  0
APPID
  5
13C4
330
9
100
AcDbSymbolTableRecord
100
AcDbRegAppTableRecord
  2
ACAD_DSTYLE_DIMJAG
 70
     0
  0
APPID
  5
13C5
330
9
100
AcDbSymbolTableRecord
100
AcDbRegAppTableRecord
  2
ACAD_DSTYLE_DIMBREAK
 70
     0
  0
APPID
  5
1481
330
9
100
AcDbSymbolTableRecord
100
AcDbRegAppTableRecord
  2
AcAecLayerStandard
 70
     0
  0
APPID
  5
14E8
330
9
100
AcDbSymbolTableRecord
100
AcDbRegAppTableRecord
  2
ACAD_DSTYLE_DIMARC_LENGTH_SYMBOL
 70
     0
  0
APPID
  5
14E9
330
9
100
AcDbSymbolTableRecord
100
AcDbRegAppTableRecord
  2
ACAD_DSTYLE_DIM_LINETYPE
 70
     0
  0
APPID
  5
14EA
330
9
100
AcDbSymbolTableRecord
100
AcDbRegAppTableRecord
  2
ACAD_DSTYLE_DIM_EXT1_LINETYPE
 70
     0
  0
APPID
  5
14EB
330
9
100
AcDbSymbolTableRecord
100
AcDbRegAppTableRecord
  2
ACAD_DSTYLE_DIM_EXT2_LINETYPE
 70
     0
  0
ENDTAB
  0
TABLE
  2
DIMSTYLE
  5
A
330
0
100
AcDbSymbolTable
 70
    23
100
AcDbDimStyleTable
 71
     2
340
58
340
D6
  0
DIMSTYLE
105
58
330
A
100
AcDbSymbolTableRecord
100
AcDbDimStyleTableRecord
  2
Standard
 70
     0
340
55
  0
DIMSTYLE
105
D6
102
{ACAD_REACTORS
330
328
330
411
330
AA1
330
B83
102
}
330
A
100
AcDbSymbolTableRecord
100
AcDbDimStyleTableRecord
  2
Domyślne (ISO)
 70
     0
 40
25.0
 41
2.5
 42
0.0
 43
5.999999999999999
 44
3.174999999999999
 45
0.00000001
 46
10.0
 73
     0
 77
     1
140
3.5
143
0.03937
146
0.7142857142857144
147
0.762
171
     3
172
     1
176
   256
177
   256
178
   256
271
     0
272
     0
274
     3
278
    44
340
CB
371
    -1
372
    -1
  0
DIMSTYLE
105
13C3
102
{ACAD_REACTORS
330
154B
102
}
330
A
100
AcDbSymbolTableRecord
100
AcDbDimStyleTableRecord
  2
AM_ISO
 70
     0
  4
"
 41
3.5
 42
1.0
 43
10.0
 44
1.0
 47
0.1
 48
0.1
 73
     0
 74
     0
 77
     1
 78
     8
 79
     2
140
3.5
141
0.0
143
0.0393701
146
0.71
147
1.5
172
     1
176
   256
177
   256
178
     2
271
     2
272
     3
274
     4
283
     0
284
     8
340
55
371
    -1
372
    -1
1001
ACAD_DSTYLE_DIMJAG
1070
   388
1040
1.5
1001
ACAD_DSTYLE_DIMBREAK
1070
   391
1040
3.75
1001
ACAD_DSTYLE_DIMARC_LENGTH_SYMBOL
1070
   379
1070
     1
1001
ACAD_DSTYLE_DIM_LINETYPE
1070
   380
1005
5B
1001
ACAD_DSTYLE_DIM_EXT1_LINETYPE
1070
   381
1005
5B
1001
ACAD_DSTYLE_DIM_EXT2_LINETYPE
1070
   382
1005
5B
  0
DIMSTYLE
105
13D0
330
A
100
AcDbSymbolTableRecord
100
AcDbDimStyleTableRecord
  2
AM_ISO$3
 70
     0
  4
"
 41
3.5
 42
1.0
 43
10.0
 44
1.0
 47
0.1
 48
0.1
 73
     0
 77
     1
 78
     8
 79
     2
140
3.5
141
0.0
143
0.0393701
146
0.71
147
1.5
176
   256
177
   256
178
     2
271
     2
272
     3
274
     4
283
     0
284
     8
288
     1
289
     0
340
55
371
    -1
372
    -1
1001
ACAD_DSTYLE_DIMBREAK
1070
   391
1040
3.75
1001
ACAD_DSTYLE_DIMJAG
1070
   388
1040
1.5
1001
ACAD_DSTYLE_DIMARC_LENGTH_SYMBOL
1070
   379
1070
     1
1001
ACAD_DSTYLE_DIM_LINETYPE
1070
   380
1005
5B
1001
ACAD_DSTYLE_DIM_EXT1_LINETYPE
1070
   381
1005
5B
1001
ACAD_DSTYLE_DIM_EXT2_LINETYPE
1070
   382
1005
5B
  0
DIMSTYLE
105
13D1
330
A
100
AcDbSymbolTableRecord
100
AcDbDimStyleTableRecord
  2
AM_ISO$4
 70
     0
  4
"
 41
3.5
 42
1.0
 43
10.0
 44
1.0
 47
0.1
 48
0.1
 73
     0
 77
     1
 78
     8
 79
     2
140
3.5
141
0.0
143
0.0393701
146
0.71
147
1.5
176
   256
177
   256
178
     2
271
     2
272
     3
274
     4
283
     0
284
     8
288
     1
289
     0
340
55
371
    -1
372
    -1
1001
ACAD_DSTYLE_DIMBREAK
1070
   391
1040
3.75
1001
ACAD_DSTYLE_DIMJAG
1070
   388
1040
1.5
1001
ACAD_DSTYLE_DIMARC_LENGTH_SYMBOL
1070
   379
1070
     1
1001
ACAD_DSTYLE_DIM_LINETYPE
1070
   380
1005
5B
1001
ACAD_DSTYLE_DIM_EXT1_LINETYPE
1070
   381
1005
5B
1001
ACAD_DSTYLE_DIM_EXT2_LINETYPE
1070
   382
1005
5B
  0
DIMSTYLE
105
13D2
330
A
100
AcDbSymbolTableRecord
100
AcDbDimStyleTableRecord
  2
AM_ISO$6
 70
     0
  4
"
 41
3.5
 42
1.0
 43
10.0
 44
1.0
 47
0.1
 48
0.1
 73
     0
 74
     0
 78
     8
 79
     2
140
3.5
141
0.0
143
0.0393701
146
0.71
147
1.5
172
     1
176
   256
177
   256
178
     2
271
     2
272
     3
274
     4
283
     0
284
     8
340
55
371
    -1
372
    -1
1001
ACAD_DSTYLE_DIMBREAK
1070
   391
1040
3.75
1001
ACAD_DSTYLE_DIMJAG
1070
   388
1040
1.5
1001
ACAD_DSTYLE_DIMARC_LENGTH_SYMBOL
1070
   379
1070
     1
1001
ACAD_DSTYLE_DIM_LINETYPE
1070
   380
1005
5B
1001
ACAD_DSTYLE_DIM_EXT1_LINETYPE
1070
   381
1005
5B
1001
ACAD_DSTYLE_DIM_EXT2_LINETYPE
1070
   382
1005
5B
  0
DIMSTYLE
105
13D3
330
A
100
AcDbSymbolTableRecord
100
AcDbDimStyleTableRecord
  2
AM_ISO$7
 70
     0
  4
"
 41
3.5
 42
1.0
 43
10.0
 44
1.0
 47
0.1
 48
0.1
 73
     0
 74
     0
 77
     1
 78
     8
 79
     2
140
3.5
141
0.0
143
0.0393701
146
0.71
147
1.5
172
     1
176
   256
177
   256
178
     2
271
     2
272
     3
274
     4
283
     0
284
     8
340
55
371
    -1
372
    -1
1001
ACAD_DSTYLE_DIMBREAK
1070
   391
1040
3.75
1001
ACAD_DSTYLE_DIMJAG
1070
   388
1040
1.5
1001
ACAD_DSTYLE_DIMARC_LENGTH_SYMBOL
1070
   379
1070
     1
1001
ACAD_DSTYLE_DIM_LINETYPE
1070
   380
1005
5B
1001
ACAD_DSTYLE_DIM_EXT1_LINETYPE
1070
   381
1005
5B
1001
ACAD_DSTYLE_DIM_EXT2_LINETYPE
1070
   382
1005
5B
  0
DIMSTYLE
105
13D4
330
A
100
AcDbSymbolTableRecord
100
AcDbDimStyleTableRecord
  2
AM_ISO$SF
 70
     0
  4
"
 41
3.5
 42
1.0
 43
10.0
 44
1.0
 47
0.1
 48
0.1
 73
     0
 74
     0
 75
     1
 76
     1
 77
     1
 78
     8
 79
     2
140
3.5
141
0.0
143
0.0393701
146
0.71
147
1.5
172
     1
176
   256
177
   256
178
     2
271
     2
272
     3
274
     4
283
     0
284
     8
340
55
371
    -1
372
    -1
1001
ACAD_DSTYLE_DIMBREAK
1070
   391
1040
3.75
1001
ACAD_DSTYLE_DIMJAG
1070
   388
1040
1.5
1001
ACAD_DSTYLE_DIMARC_LENGTH_SYMBOL
1070
   379
1070
     1
1001
ACAD_DSTYLE_DIM_LINETYPE
1070
   380
1005
5B
1001
ACAD_DSTYLE_DIM_EXT1_LINETYPE
1070
   381
1005
5B
1001
ACAD_DSTYLE_DIM_EXT2_LINETYPE
1070
   382
1005
5B
  0
DIMSTYLE
105
13D9
330
A
100
AcDbSymbolTableRecord
100
AcDbDimStyleTableRecord
  2
AM_ISO$SH
 70
     0
  4
"
 41
3.5
 42
1.0
 43
10.0
 44
1.0
 47
0.1
 48
0.1
 73
     0
 74
     0
 75
     1
 76
     1
 77
     1
 78
     8
 79
     2
140
3.5
141
0.0
143
0.0393701
144
2.0
146
0.71
147
1.5
172
     1
173
     1
176
   256
177
   256
178
     2
271
     2
272
     3
274
     4
283
     0
284
     8
340
55
343
13D5
371
    -1
372
    -1
1001
ACAD_DSTYLE_DIMBREAK
1070
   391
1040
3.75
1001
ACAD_DSTYLE_DIMJAG
1070
   388
1040
1.5
1001
ACAD_DSTYLE_DIMARC_LENGTH_SYMBOL
1070
   379
1070
     1
1001
ACAD_DSTYLE_DIM_LINETYPE
1070
   380
1005
5B
1001
ACAD_DSTYLE_DIM_EXT1_LINETYPE
1070
   381
1005
5B
1001
ACAD_DSTYLE_DIM_EXT2_LINETYPE
1070
   382
1005
5B
  0
ENDTAB
  0
TABLE
  2
BLOCK_RECORD
  5
1
330
0
100
AcDbSymbolTable
 70
    14
  0
BLOCK_RECORD
  5
6C
102
{ACAD_XDICTIONARY
360
1483
102
}
330
1
100
AcDbSymbolTableRecord
100
AcDbBlockTableRecord
  2
*Model_Space
340
6F
  0
BLOCK_RECORD
  5
68
330
1
100
AcDbSymbolTableRecord
100
AcDbBlockTableRecord
  2
*Paper_Space
340
6B
  0
BLOCK_RECORD
  5
70
330
1
100
AcDbSymbolTableRecord
100
AcDbBlockTableRecord
  2
*Paper_Space0
340
73
  0
BLOCK_RECORD
  5
32A
330
1
100
AcDbSymbolTableRecord
100
AcDbBlockTableRecord
  2
*D6
340
0
  0
BLOCK_RECORD
  5
412
330
1
100
AcDbSymbolTableRecord
100
AcDbBlockTableRecord
  2
*D7
340
0
  0
BLOCK_RECORD
  5
AA2
330
1
100
AcDbSymbolTableRecord
100
AcDbBlockTableRecord
  2
*D8
340
0
  0
BLOCK_RECORD
  5
B84
330
1
100
AcDbSymbolTableRecord
100
AcDbBlockTableRecord
  2
*D9
340
0
  0
BLOCK_RECORD
  5
13D5
330
1
100
AcDbSymbolTableRecord
100
AcDbBlockTableRecord
  2
GENAXEH
340
0
  0
BLOCK_RECORD
  5
1565
330
1
100
AcDbSymbolTableRecord
100
AcDbBlockTableRecord
  2
2236A_Hustawka-wagowa
340
0
310
2800000020000000200000000100080000000000000400000000000000000000000000000000000000000000000080000080000000808000800000008000800080800000C0C0C000C0DCC000F0CAA6000020400000206000002080000020A0000020C0000020E00000400000004020000040400000406000004080000040A0
310
000040C0000040E00000600000006020000060400000606000006080000060A0000060C0000060E00000800000008020000080400000806000008080000080A0000080C0000080E00000A0000000A0200000A0400000A0600000A0800000A0A00000A0C00000A0E00000C0000000C0200000C0400000C0600000C0800000C0
310
A00000C0C00000C0E00000E0000000E0200000E0400000E0600000E0800000E0A00000E0C00000E0E00040000000400020004000400040006000400080004000A0004000C0004000E00040200000402020004020400040206000402080004020A0004020C0004020E000404000004040200040404000404060004040800040
310
40A0004040C0004040E00040600000406020004060400040606000406080004060A0004060C0004060E00040800000408020004080400040806000408080004080A0004080C0004080E00040A0000040A0200040A0400040A0600040A0800040A0A00040A0C00040A0E00040C0000040C0200040C0400040C0600040C08000
310
40C0A00040C0C00040C0E00040E0000040E0200040E0400040E0600040E0800040E0A00040E0C00040E0E00080000000800020008000400080006000800080008000A0008000C0008000E00080200000802020008020400080206000802080008020A0008020C0008020E00080400000804020008040400080406000804080
310
008040A0008040C0008040E00080600000806020008060400080606000806080008060A0008060C0008060E00080800000808020008080400080806000808080008080A0008080C0008080E00080A0000080A0200080A0400080A0600080A0800080A0A00080A0C00080A0E00080C0000080C0200080C0400080C0600080C0
310
800080C0A00080C0C00080C0E00080E0000080E0200080E0400080E0600080E0800080E0A00080E0C00080E0E000C0000000C0002000C0004000C0006000C0008000C000A000C000C000C000E000C0200000C0202000C0204000C0206000C0208000C020A000C020C000C020E000C0400000C0402000C0404000C0406000C0
310
408000C040A000C040C000C040E000C0600000C0602000C0604000C0606000C0608000C060A000C060C000C060E000C0800000C0802000C0804000C0806000C0808000C080A000C080C000C080E000C0A00000C0A02000C0A04000C0A06000C0A08000C0A0A000C0A0C000C0A0E000C0C00000C0C02000C0C04000C0C06000
310
C0C08000C0C0A000F0FBFF00A4A0A000808080000000FF0000FF000000FFFF00FF000000FF00FF00FFFF0000FFFFFF0049494949494949494949494949494949494949494949494949494949494949494949494949494949494949494949494949494949494949494949494949494949494949494949494949494949494949
310
49494949494949494949494949494949494949494949494949494949494949494949494949494949494949494949494949494949494949494949494949494949494949494949494949494949494949494949494949494949494949494949494949494949494949494949494949494949494949494949494949494949494949
310
494949494949494949494949494949494949494949494949494949494949494949494949494949494949494949494949494949494949494949494949494949494949494949494949494949494949494949494949494949FFFFFFFFFFFFFFFFFFFFFFFFFFFFFFFFFFFFFFFFFFFF4949494949494949FFFF4949494949494949
310
4949494949494949494949494949FFFF494949494949FF494949494949494949494949494949494949494949494949FF4949494949FF4949494949494949494949494949494949494949494949494949FF49494949FF4949494949494949494949494949494949494949494949494949FF494949FF49494949494949494949
310
494949494949494949494949494949494949FF4949FF4949494949FFFFFFFFFFFFFFFFFFFFFFFFFFFFFFFFFFFF4949494949FF4949FF4949494949FFFFFFFFFFFFFFFFFFFFFFFFFFFFFFFFFFFF4949494949FF494949FF494949494949494949494949494949494949494949494949494949FF494949FF4949494949494949
310
494949494949494949494949494949494949FF49494949FF4949494949494949494949494949494949494949494949494949FF4949494949FF494949494949494949494949494949494949494949494949FF49494949494949FFFF494949494949494949494949494949494949494949FFFF494949494949494949FFFFFFFF
310
FFFFFFFFFFFFFFFFFFFFFFFFFFFFFFFFFF4949494949494949494949494949494949494949494949494949494949494949494949494949494949494949494949494949494949494949494949494949494949494949494949494949494949494949494949494949494949494949494949494949494949494949494949494949
310
49494949494949494949494949494949494949494949494949494949494949494949494949494949494949494949494949494949494949494949494949494949494949494949494949494949494949494949494949494949494949494949494949494949494949494949494949494949494949494949494949494949494949
310
4949494949494949494949494949494949494949494949494949494949494949494949494949494949494949494949494949494949494949
102
{BLKREFS
331
160A
102
}
1001
ACAD
1000
DesignCenter Data
1002
{
1070
     1
1070
     4
1002
}
  0
BLOCK_RECORD
  5
160B
330
1
100
AcDbSymbolTableRecord
100
AcDbBlockTableRecord
  2
2236_Hustawka-wagowa
340
0
310
2800000020000000200000000100080000000000000400000000000000000000000000000000000000000000000080000080000000808000800000008000800080800000C0C0C000C0DCC000F0CAA6000020400000206000002080000020A0000020C0000020E00000400000004020000040400000406000004080000040A0
310
000040C0000040E00000600000006020000060400000606000006080000060A0000060C0000060E00000800000008020000080400000806000008080000080A0000080C0000080E00000A0000000A0200000A0400000A0600000A0800000A0A00000A0C00000A0E00000C0000000C0200000C0400000C0600000C0800000C0
310
A00000C0C00000C0E00000E0000000E0200000E0400000E0600000E0800000E0A00000E0C00000E0E00040000000400020004000400040006000400080004000A0004000C0004000E00040200000402020004020400040206000402080004020A0004020C0004020E000404000004040200040404000404060004040800040
310
40A0004040C0004040E00040600000406020004060400040606000406080004060A0004060C0004060E00040800000408020004080400040806000408080004080A0004080C0004080E00040A0000040A0200040A0400040A0600040A0800040A0A00040A0C00040A0E00040C0000040C0200040C0400040C0600040C08000
310
40C0A00040C0C00040C0E00040E0000040E0200040E0400040E0600040E0800040E0A00040E0C00040E0E00080000000800020008000400080006000800080008000A0008000C0008000E00080200000802020008020400080206000802080008020A0008020C0008020E00080400000804020008040400080406000804080
310
008040A0008040C0008040E00080600000806020008060400080606000806080008060A0008060C0008060E00080800000808020008080400080806000808080008080A0008080C0008080E00080A0000080A0200080A0400080A0600080A0800080A0A00080A0C00080A0E00080C0000080C0200080C0400080C0600080C0
310
800080C0A00080C0C00080C0E00080E0000080E0200080E0400080E0600080E0800080E0A00080E0C00080E0E000C0000000C0002000C0004000C0006000C0008000C000A000C000C000C000E000C0200000C0202000C0204000C0206000C0208000C020A000C020C000C020E000C0400000C0402000C0404000C0406000C0
310
408000C040A000C040C000C040E000C0600000C0602000C0604000C0606000C0608000C060A000C060C000C060E000C0800000C0802000C0804000C0806000C0808000C080A000C080C000C080E000C0A00000C0A02000C0A04000C0A06000C0A08000C0A0A000C0A0C000C0A0E000C0C00000C0C02000C0C04000C0C06000
310
C0C08000C0C0A000F0FBFF00A4A0A000808080000000FF0000FF000000FFFF00FF000000FF00FF00FFFF0000FFFFFF0049494949494949494949494949494949494949494949494949494949494949494949494949494949494949494949494949494949494949494949494949494949494949494949494949494949494949
310
49494949494949494949494949494949494949494949494949494949494949494949494949494949494949494949494949494949494949494949494949494949494949494949494949494949494949494949494949494949494949494949494949494949494949494949494949494949494949494949494949494949494949
310
494949494949494949494949494949494949494949494949494949494949494949494949494949494949494949494949494949494949494949494949494949494949494949494949494949494949494949494949494949FFFFFFFFFFFFFFFFFFFFFFFFFFFFFFFFFFFFFFFFFFFF4949494949494949FFFF4949494949494949
310
4949494949494949494949494949FFFF494949494949FF494949494949494949494949494949494949494949494949FF4949494949FF4949494949494949494949494949494949494949494949494949FF49494949FF4949494949494949494949494949494949494949494949494949FF494949FF49494949494949494949
310
494949494949494949494949494949494949FF4949FF4949494949FFFFFFFFFFFFFFFFFFFFFFFFFFFFFFFFFFFF4949494949FF4949FF4949494949FFFFFFFFFFFFFFFFFFFFFFFFFFFFFFFFFFFF4949494949FF4949FF49494949494949494949494949494949494949494949494949494949FF494949FF4949494949494949
310
494949494949494949494949494949494949FF49494949FF4949494949494949494949494949494949494949494949494949FF4949494949FF494949494949494949494949494949494949494949494949FF494949494949FFFF49494949494949494949494949494949494949494949FFFF4949494949494949FFFFFFFFFF
310
FFFFFFFFFFFFFFFFFFFFFFFFFFFFFFFFFF4949494949494949494949494949494949494949494949494949494949494949494949494949494949494949494949494949494949494949494949494949494949494949494949494949494949494949494949494949494949494949494949494949494949494949494949494949
310
49494949494949494949494949494949494949494949494949494949494949494949494949494949494949494949494949494949494949494949494949494949494949494949494949494949494949494949494949494949494949494949494949494949494949494949494949494949494949494949494949494949494949
310
4949494949494949494949494949494949494949494949494949494949494949494949494949494949494949494949494949494949494949
102
{BLKREFS
331
16BE
102
}
1001
ACAD
1000
DesignCenter Data
1002
{
1070
     1
1070
     4
1002
}
  0
ENDTAB
  0
ENDSEC
  0
SECTION
  2
BLOCKS
  0
BLOCK
  5
6D
330
6C
100
AcDbEntity
  8
0
100
AcDbBlockBegin
  2
*Model_Space
 70
     0
 10
0.0
 20
0.0
 30
0.0
  3
*Model_Space
  1

  0
ENDBLK
  5
6E
330
6C
100
AcDbEntity
  8
0
100
AcDbBlockEnd
  0
BLOCK
  5
69
330
68
100
AcDbEntity
 67
     1
  8
0
100
AcDbBlockBegin
  2
*Paper_Space
 70
     0
 10
0.0
 20
0.0
 30
0.0
  3
*Paper_Space
  1

  0
ENDBLK
  5
6A
330
68
100
AcDbEntity
 67
     1
  8
0
100
AcDbBlockEnd
  0
BLOCK
  5
71
330
70
100
AcDbEntity
 67
     1
  8
0
100
AcDbBlockBegin
  2
*Paper_Space0
 70
     0
 10
0.0
 20
0.0
 30
0.0
  3
*Paper_Space0
  1

  0
ENDBLK
  5
72
330
70
100
AcDbEntity
 67
     1
  8
0
100
AcDbBlockEnd
  0
BLOCK
  5
32B
330
32A
100
AcDbEntity
  8
0
100
AcDbBlockBegin
  2
*D6
 70
     1
 10
0.0
 20
0.0
 30
0.0
  3
*D6
  1

  0
LINE
  5
1485
330
32A
100
AcDbEntity
  8
Wymiar (ISO)
100
AcDbLine
 10
12515.87642604834
 20
8245.131339506214
 30
0.0
 11
13823.18681618881
 21
8245.131339506214
 31
0.0
  0
LINE
  5
1486
330
32A
100
AcDbEntity
  8
Wymiar (ISO)
100
AcDbLine
 10
12515.87642604834
 20
5915.131339506214
 30
0.0
 11
13823.18681618881
 21
5915.131339506214
 31
0.0
  0
LINE
  5
1487
330
32A
100
AcDbEntity
  8
Wymiar (ISO)
100
AcDbLine
 10
13743.8118161888
 20
8182.631339506214
 30
0.0
 11
13743.8118161888
 21
5977.631339506214
 31
0.0
  0
SOLID
  5
1488
330
32A
100
AcDbEntity
  8
Wymiar (ISO)
100
AcDbTrace
 10
13733.39514952214
 20
8182.631339506214
 30
0.0
 11
13754.22848285547
 21
8182.631339506214
 31
0.0
 12
13743.8118161888
 22
8245.131339506214
 32
0.0
 13
13743.8118161888
 23
8245.131339506214
 33
0.0
  0
SOLID
  5
1489
330
32A
100
AcDbEntity
  8
Wymiar (ISO)
100
AcDbTrace
 10
13733.39514952214
 20
5977.631339506214
 30
0.0
 11
13754.22848285547
 21
5977.631339506214
 31
0.0
 12
13743.8118161888
 22
5915.131339506214
 32
0.0
 13
13743.8118161888
 23
5915.131339506214
 33
0.0
  0
MTEXT
  5
148A
330
32A
100
AcDbEntity
  8
Wymiar (ISO)
100
AcDbMText
 10
13633.61843136677
 20
7080.131339506213
 30
0.0
 40
87.5
 41
0.0
 71
     2
 72
     1
  1
\A1;2330
  7
Tekst etykiety (ISO)
 11
0.0000000000000001
 21
1.0
 31
0.0
 73
     1
 44
1.0
1001
ACAD
1000
MTEXTBEGIN
1070
    73
1070
     1
1070
    44
1040
1.0
1070
    74
1070
     0
1000
MTEXTEND
  0
POINT
  5
148B
330
32A
100
AcDbEntity
  8
Defpoints
 62
     0
100
AcDbPoint
 10
12515.87642604834
 20
8245.131339506214
 30
0.0
  0
POINT
  5
148C
330
32A
100
AcDbEntity
  8
Defpoints
 62
     0
100
AcDbPoint
 10
12515.87642604834
 20
5915.131339506214
 30
0.0
  0
POINT
  5
148D
330
32A
100
AcDbEntity
  8
Defpoints
 62
     0
100
AcDbPoint
 10
13743.8118161888
 20
5915.131339506214
 30
0.0
  0
ENDBLK
  5
32C
330
32A
100
AcDbEntity
  8
0
100
AcDbBlockEnd
  0
BLOCK
  5
413
330
412
100
AcDbEntity
  8
0
100
AcDbBlockBegin
  2
*D7
 70
     1
 10
0.0
 20
0.0
 30
0.0
  3
*D7
  1

  0
LINE
  5
148E
330
412
100
AcDbEntity
  8
Wymiar (ISO)
100
AcDbLine
 10
13515.87642604834
 20
6915.131339506214
 30
0.0
 11
13515.87642604834
 21
5566.39418173491
 31
0.0
  0
LINE
  5
148F
330
412
100
AcDbEntity
  8
Wymiar (ISO)
100
AcDbLine
 10
8345.87642604834
 20
6915.131339506213
 30
0.0
 11
8345.87642604834
 21
5566.39418173491
 31
0.0
  0
LINE
  5
1490
330
412
100
AcDbEntity
  8
Wymiar (ISO)
100
AcDbLine
 10
13453.37642604834
 20
5645.769181734909
 30
0.0
 11
8408.37642604834
 21
5645.769181734909
 31
0.0
  0
SOLID
  5
1491
330
412
100
AcDbEntity
  8
Wymiar (ISO)
100
AcDbTrace
 10
13453.37642604834
 20
5656.185848401577
 30
0.0
 11
13453.37642604834
 21
5635.352515068243
 31
0.0
 12
13515.87642604834
 22
5645.769181734909
 32
0.0
 13
13515.87642604834
 23
5645.769181734909
 33
0.0
  0
SOLID
  5
1492
330
412
100
AcDbEntity
  8
Wymiar (ISO)
100
AcDbTrace
 10
8408.37642604834
 20
5656.185848401577
 30
0.0
 11
8408.37642604834
 21
5635.352515068243
 31
0.0
 12
8345.87642604834
 22
5645.769181734909
 32
0.0
 13
8345.87642604834
 23
5645.769181734909
 33
0.0
  0
MTEXT
  5
1493
330
412
100
AcDbEntity
  8
Wymiar (ISO)
100
AcDbMText
 10
10930.87642604834
 20
5755.903802285615
 30
0.0
 40
87.5
 41
0.0
 71
     2
 72
     1
  1
\A1;5170
  7
Tekst etykiety (ISO)
 73
     1
 44
1.0
1001
ACAD
1000
MTEXTBEGIN
1070
    73
1070
     1
1070
    44
1040
1.0
1070
    74
1070
     0
1000
MTEXTEND
  0
POINT
  5
1494
330
412
100
AcDbEntity
  8
Defpoints
 62
     0
100
AcDbPoint
 10
13515.87642604834
 20
6915.131339506214
 30
0.0
  0
POINT
  5
1495
330
412
100
AcDbEntity
  8
Defpoints
 62
     0
100
AcDbPoint
 10
8345.87642604834
 20
6915.131339506213
 30
0.0
  0
POINT
  5
1496
330
412
100
AcDbEntity
  8
Defpoints
 62
     0
100
AcDbPoint
 10
8345.87642604834
 20
5645.769181734909
 30
0.0
  0
ENDBLK
  5
414
330
412
100
AcDbEntity
  8
0
100
AcDbBlockEnd
  0
BLOCK
  5
AA3
330
AA2
100
AcDbEntity
  8
0
100
AcDbBlockBegin
  2
*D8
 70
     1
 10
0.0
 20
0.0
 30
0.0
  3
*D8
  1

  0
LINE
  5
B7A
330
AA2
100
AcDbEntity
  8
Wymiar (ISO)
100
AcDbLine
 10
1859.162976450536
 20
6915.131339506216
 30
0.0
 11
1859.162976450536
 21
5531.938554052452
 31
0.0
  0
LINE
  5
B7B
330
AA2
100
AcDbEntity
  8
Wymiar (ISO)
100
AcDbLine
 10
7029.162976450535
 20
6915.131339506214
 30
0.0
 11
7029.162976450535
 21
5531.938554052452
 31
0.0
  0
LINE
  5
B7C
330
AA2
100
AcDbEntity
  8
Wymiar (ISO)
100
AcDbLine
 10
1921.662976450536
 20
5611.313554052451
 30
0.0
 11
6966.662976450535
 21
5611.313554052451
 31
0.0
  0
SOLID
  5
B7D
330
AA2
100
AcDbEntity
  8
Wymiar (ISO)
100
AcDbTrace
 10
1921.662976450536
 20
5621.730220719118
 30
0.0
 11
1921.662976450536
 21
5600.896887385784
 31
0.0
 12
1859.162976450536
 22
5611.313554052451
 32
0.0
 13
1859.162976450536
 23
5611.313554052451
 33
0.0
  0
SOLID
  5
B7E
330
AA2
100
AcDbEntity
  8
Wymiar (ISO)
100
AcDbTrace
 10
6966.662976450535
 20
5621.730220719118
 30
0.0
 11
6966.662976450535
 21
5600.896887385784
 31
0.0
 12
7029.162976450535
 22
5611.313554052451
 32
0.0
 13
7029.162976450535
 23
5611.313554052451
 33
0.0
  0
MTEXT
  5
B7F
330
AA2
100
AcDbEntity
  8
Wymiar (ISO)
100
AcDbMText
 10
4444.162976450535
 20
5721.448174603157
 30
0.0
 40
87.5
 41
0.0
 71
     2
 72
     1
  1
\A1;5170
  7
Tekst etykiety (ISO)
 73
     1
 44
1.0
1001
ACAD
1000
MTEXTBEGIN
1070
    73
1070
     1
1070
    44
1040
1.0
1070
    74
1070
     0
1000
MTEXTEND
  0
POINT
  5
B80
330
AA2
100
AcDbEntity
  8
Defpoints
 62
     0
100
AcDbPoint
 10
1859.162976450536
 20
6915.131339506216
 30
0.0
  0
POINT
  5
B81
330
AA2
100
AcDbEntity
  8
Defpoints
 62
     0
100
AcDbPoint
 10
7029.162976450535
 20
6915.131339506214
 30
0.0
  0
POINT
  5
B82
330
AA2
100
AcDbEntity
  8
Defpoints
 62
     0
100
AcDbPoint
 10
7029.162976450535
 20
5611.313554052451
 30
0.0
  0
ENDBLK
  5
AA4
330
AA2
100
AcDbEntity
  8
0
100
AcDbBlockEnd
  0
BLOCK
  5
B85
330
B84
100
AcDbEntity
  8
0
100
AcDbBlockBegin
  2
*D9
 70
     1
 10
0.0
 20
0.0
 30
0.0
  3
*D9
  1

  0
LINE
  5
C62
330
B84
100
AcDbEntity
  8
Wymiar (ISO)
100
AcDbLine
 10
6029.162976450535
 20
5915.131339506215
 30
0.0
 11
7351.737863333436
 21
5915.131339506214
 31
0.0
  0
LINE
  5
C63
330
B84
100
AcDbEntity
  8
Wymiar (ISO)
100
AcDbLine
 10
6029.162976450535
 20
8245.131339506212
 30
0.0
 11
7351.737863333437
 21
8245.131339506212
 31
0.0
  0
LINE
  5
C64
330
B84
100
AcDbEntity
  8
Wymiar (ISO)
100
AcDbLine
 10
7272.362863333437
 20
5977.631339506214
 30
0.0
 11
7272.362863333437
 21
8182.631339506212
 31
0.0
  0
SOLID
  5
C65
330
B84
100
AcDbEntity
  8
Wymiar (ISO)
100
AcDbTrace
 10
7261.946196666769
 20
5977.631339506214
 30
0.0
 11
7282.779530000104
 21
5977.631339506214
 31
0.0
 12
7272.362863333437
 22
5915.131339506214
 32
0.0
 13
7272.362863333437
 23
5915.131339506214
 33
0.0
  0
SOLID
  5
C66
330
B84
100
AcDbEntity
  8
Wymiar (ISO)
100
AcDbTrace
 10
7261.946196666769
 20
8182.631339506212
 30
0.0
 11
7282.779530000104
 21
8182.631339506212
 31
0.0
 12
7272.362863333437
 22
8245.131339506212
 32
0.0
 13
7272.362863333437
 23
8245.131339506212
 33
0.0
  0
MTEXT
  5
C67
330
B84
100
AcDbEntity
  8
Wymiar (ISO)
100
AcDbMText
 10
7162.169478511407
 20
7080.131339506213
 30
0.0
 40
87.5
 41
0.0
 71
     2
 72
     1
  1
\A1;2330
  7
Tekst etykiety (ISO)
 11
0.0000000000000001
 21
1.0
 31
0.0
 73
     1
 44
1.0
1001
ACAD
1000
MTEXTBEGIN
1070
    73
1070
     1
1070
    44
1040
1.0
1070
    74
1070
     0
1000
MTEXTEND
  0
POINT
  5
C68
330
B84
100
AcDbEntity
  8
Defpoints
 62
     0
100
AcDbPoint
 10
6029.162976450535
 20
5915.131339506215
 30
0.0
  0
POINT
  5
C69
330
B84
100
AcDbEntity
  8
Defpoints
 62
     0
100
AcDbPoint
 10
6029.162976450535
 20
8245.131339506212
 30
0.0
  0
POINT
  5
C6A
330
B84
100
AcDbEntity
  8
Defpoints
 62
     0
100
AcDbPoint
 10
7272.362863333437
 20
8245.131339506212
 30
0.0
  0
ENDBLK
  5
B86
330
B84
100
AcDbEntity
  8
0
100
AcDbBlockEnd
  0
BLOCK
  5
13D7
330
13D5
100
AcDbEntity
  8
0
100
AcDbBlockBegin
  2
GENAXEH
 70
     0
 10
0.0
 20
0.0
 30
0.0
  3
GENAXEH
  1

  0
LINE
  5
13D6
330
13D5
100
AcDbEntity
  8
0
100
AcDbLine
 10
-1.0
 20
0.0
 30
0.0
 11
1.0
 21
0.0
 31
0.0
  0
ENDBLK
  5
13D8
330
13D5
100
AcDbEntity
  8
0
100
AcDbBlockEnd
  0
BLOCK
  5
1566
330
1565
100
AcDbEntity
  8
0
100
AcDbBlockBegin
  2
2236A_Hustawka-wagowa
 70
     0
 10
0.0
 20
0.0
 30
0.0
  3
2236A_Hustawka-wagowa
  1

  0
LINE
  5
1568
330
1565
100
AcDbEntity
  8
Widoczne (ISO)
100
AcDbLine
 10
-38.04598298261317
 20
122.8005165396789
 30
0.0
 11
37.95401701738683
 21
122.8005165396789
 31
0.0
  0
LINE
  5
1569
330
1565
100
AcDbEntity
  8
Widoczne (ISO)
100
AcDbLine
 10
37.95401701738683
 20
122.8005165396789
 30
0.0
 11
37.95401701738683
 21
97.80051653967802
 31
0.0
  0
LINE
  5
156A
330
1565
100
AcDbEntity
  8
Widoczne (ISO)
100
AcDbLine
 10
-38.04598298261317
 20
122.8005165396789
 30
0.0
 11
-38.04598298261317
 21
97.80051653967802
 31
0.0
  0
LINE
  5
156B
330
1565
100
AcDbEntity
  8
Widoczne (ISO)
100
AcDbLine
 10
37.95401701738865
 20
-117.199483460321
 30
0.0
 11
-38.04598298261135
 21
-117.199483460321
 31
0.0
  0
LINE
  5
156C
330
1565
100
AcDbEntity
  8
Widoczne (ISO)
100
AcDbLine
 10
-38.04598298261135
 20
-117.199483460321
 30
0.0
 11
-38.04598298261135
 21
-92.19948346032106
 31
0.0
  0
LINE
  5
156D
330
1565
100
AcDbEntity
  8
Widoczne (ISO)
100
AcDbLine
 10
37.95401701738865
 20
-117.199483460321
 30
0.0
 11
37.95401701738865
 21
-92.19948346032106
 31
0.0
  0
LINE
  5
156E
330
1565
100
AcDbEntity
  8
Widoczne (ISO)
100
AcDbLine
 10
57.10401701738646
 20
-47.19948346032106
 30
0.0
 11
-57.19598298261371
 21
-47.19948346032106
 31
0.0
  0
LINE
  5
156F
330
1565
100
AcDbEntity
  8
Widoczne (ISO)
100
AcDbLine
 10
-57.19598298261371
 20
52.80051653967894
 30
0.0
 11
57.10401701738646
 21
52.80051653967894
 31
0.0
  0
LINE
  5
1570
330
1565
100
AcDbEntity
  8
Widoczne (ISO)
100
AcDbLine
 10
-57.19598298261371
 20
-47.19948346032106
 30
0.0
 11
-57.19598298261371
 21
-35.19948346032197
 31
0.0
  0
LINE
  5
1571
330
1565
100
AcDbEntity
  8
Widoczne (ISO)
100
AcDbLine
 10
-57.19598298261371
 20
40.80051653967894
 30
0.0
 11
-57.19598298261371
 21
52.80051653967894
 31
0.0
  0
LINE
  5
1572
330
1565
100
AcDbEntity
  8
Widoczne (ISO)
100
AcDbLine
 10
57.10401701738646
 20
-47.19948346032106
 30
0.0
 11
57.10401701738646
 21
-35.19948346032197
 31
0.0
  0
LINE
  5
1573
330
1565
100
AcDbEntity
  8
Widoczne (ISO)
100
AcDbLine
 10
57.10401701738646
 20
40.80051653967894
 30
0.0
 11
57.10401701738646
 21
52.80051653967894
 31
0.0
  0
SPLINE
  5
1574
330
1565
100
AcDbEntity
  8
Widoczne (ISO)
100
AcDbSpline
210
0.0
220
0.0
230
1.0
 70
    11
 71
     3
 72
    48
 73
    44
 74
     0
 42
0.0000000001
 43
0.0000000001
 40
0.0
 40
0.0
 40
0.0
 40
0.0
 40
0.1767957152850295
 40
0.1767957152850295
 40
0.4368922378757756
 40
0.4368922378757756
 40
0.8058300986573097
 40
0.8058300986573097
 40
1.142148611261259
 40
1.142148611261259
 40
1.469617201985668
 40
1.469617201985668
 40
1.79479096632619
 40
1.79479096632619
 40
2.120434222995439
 40
2.120434222995439
 40
2.44991113550019
 40
2.44991113550019
 40
2.79291763179002
 40
2.79291763179002
 40
2.976896888478732
 40
2.976896888478732
 40
3.22667133790021
 40
3.22667133790021
 40
3.423221828912367
 40
3.423221828912367
 40
3.767123552695378
 40
3.767123552695378
 40
4.115549653030436
 40
4.115549653030436
 40
4.446090742877596
 40
4.446090742877596
 40
4.771990769435281
 40
4.771990769435281
 40
5.097089025022635
 40
5.097089025022635
 40
5.424027396087912
 40
5.424027396087912
 40
5.758099594259794
 40
5.758099594259794
 40
6.117230094348061
 40
6.117230094348061
 40
6.283185307179586
 40
6.283185307179586
 40
6.283185307179586
 40
6.283185307179586
 10
-1123.262405455124
 20
-159.6994834602628
 30
0.0
 10
-1118.659414831255
 20
-159.6994834602601
 30
0.0
 10
-1114.239109624564
 20
-158.0366787217117
 30
0.0
 10
-1105.344364079602
 20
-151.8966952545797
 30
0.0
 10
-1101.380547521831
 20
-146.6558936544206
 30
0.0
 10
-1092.757833947941
 20
-131.0978546037722
 30
0.0
 10
-1088.583982444883
 20
-119.3074209701699
 30
0.0
 10
-1081.892782289695
 20
-92.37597415180061
 30
0.0
 10
-1079.312385090172
 20
-77.65233886807163
 30
0.0
 10
-1075.602315276696
 20
-46.28457209752014
 30
0.0
 10
-1074.440477913842
 20
-29.71198494622968
 30
0.0
 10
-1073.558244811505
 20
3.862600649711566
 30
0.0
 10
-1073.828271413689
 20
20.85309370835057
 30
0.0
 10
-1075.76488525514
 20
53.6973590010275
 30
0.0
 10
-1077.43216752689
 20
69.54154321178703
 30
0.0
 10
-1082.053379075373
 20
98.68745118464085
 30
0.0
 10
-1085.014018984561
 20
111.9448302444089
 30
0.0
 10
-1092.215767300908
 20
134.9889230183798
 30
0.0
 10
-1096.414118223636
 20
144.5962450652241
 30
0.0
 10
-1104.429397290186
 20
155.8542106966934
 30
0.0
 10
-1107.549389937692
 20
159.1865365557532
 30
0.0
 10
-1116.599029279779
 20
164.9977819962623
 30
0.0
 10
-1123.695660057894
 20
166.2402599721354
 30
0.0
 10
-1134.507114893189
 20
162.6777317817559
 30
0.0
 10
-1138.387796733187
 20
159.6455758807424
 30
0.0
 10
-1147.453837678848
 20
149.5111660345501
 30
0.0
 10
-1151.860429467033
 20
140.7562530223586
 30
0.0
 10
-1159.76523350519
 20
118.6961424744158
 30
0.0
 10
-1163.107208663283
 20
105.3117278138661
 30
0.0
 10
-1168.271647883576
 20
75.94651636068011
 30
0.0
 10
-1170.150321511335
 20
60.15131695065974
 30
0.0
 10
-1172.465773337592
 20
27.35448200727842
 30
0.0
 10
-1172.920794690219
 20
10.38143094801671
 30
0.0
 10
-1172.401908847453
 20
-23.21565494069091
 30
0.0
 10
-1171.431844534921
 20
-39.83292026585059
 30
0.0
 10
-1168.144960011707
 20
-71.19967251394246
 30
0.0
 10
-1165.823727086462
 20
-85.92892187357028
 30
0.0
 10
-1159.937804404236
 20
-112.299452459817
 30
0.0
 10
-1156.371577170565
 20
-123.8479852913069
 30
0.0
 10
-1147.670782262003
 20
-143.3236431350706
 30
0.0
 10
-1142.689345036946
 20
-151.1630221163059
 30
0.0
 10
-1131.762094402601
 20
-158.2346334199719
 30
0.0
 10
-1127.583156596712
 20
-159.6994834602656
 30
0.0
 10
-1123.262405455124
 20
-159.6994834602628
 30
0.0
  0
SPLINE
  5
1575
330
1565
100
AcDbEntity
  8
Widoczne (ISO)
100
AcDbSpline
210
0.0
220
0.0
230
1.0
 70
    11
 71
     3
 72
    50
 73
    46
 74
     0
 42
0.0000000001
 43
0.0000000001
 40
0.0
 40
0.0
 40
0.0
 40
0.0
 40
0.3141592653589793
 40
0.3141592653589793
 40
0.5680100392127346
 40
0.5680100392127346
 40
0.8559051302456399
 40
0.8559051302456399
 40
1.162016267999103
 40
1.162016267999103
 40
1.474807574383523
 40
1.474807574383523
 40
1.789628645958865
 40
1.789628645958865
 40
2.103999459104344
 40
2.103999459104344
 40
2.41491160146105
 40
2.41491160146105
 40
2.715090704639351
 40
2.715090704639351
 40
2.985394844576399
 40
2.985394844576399
 40
3.254810616142236
 40
3.254810616142236
 40
3.571041045400316
 40
3.571041045400316
 40
3.841774119365897
 40
3.841774119365897
 40
4.140352765957591
 40
4.140352765957591
 40
4.450483444265532
 40
4.450483444265532
 40
4.764601314301946
 40
4.764601314301946
 40
5.079495189828937
 40
5.079495189828937
 40
5.392745436573226
 40
5.392745436573226
 40
5.700024765710299
 40
5.700024765710299
 40
5.989406365005728
 40
5.989406365005728
 40
6.24084467478868
 40
6.24084467478868
 40
6.283185307179586
 40
6.283185307179586
 40
6.283185307179586
 40
6.283185307179586
 10
-1123.262405455124
 20
-139.6994834602637
 30
0.0
 10
-1123.175187373759
 20
-139.6994834602592
 30
0.0
 10
-1121.736373572761
 20
-139.5817418627121
 30
0.0
 10
-1116.58519066286
 20
-133.1149813286711
 30
0.0
 10
-1113.867353284735
 20
-128.3341425597264
 30
0.0
 10
-1108.380260807179
 20
-114.8047355097915
 30
0.0
 10
-1105.605017727019
 20
-105.6235827464597
 30
0.0
 10
-1100.669451416984
 20
-83.65579555838577
 30
0.0
 10
-1098.548641617901
 20
-70.67328996050491
 30
0.0
 10
-1095.381785850804
 20
-42.42695705470123
 30
0.0
 10
-1094.358726020686
 20
-27.12110091987779
 30
0.0
 10
-1093.580943639175
 20
4.089692448445021
 30
0.0
 10
-1093.834412440033
 20
19.99396529777368
 30
0.0
 10
-1095.598865556501
 20
50.64827012368732
 30
0.0
 10
-1097.108530505348
 20
65.39642165999248
 30
0.0
 10
-1101.182738541773
 20
92.06668165719293
 30
0.0
 10
-1103.739599450696
 20
104.0184158664388
 30
0.0
 10
-1109.440711607196
 20
123.59985871974
 30
0.0
 10
-1112.593385952244
 20
131.370256359788
 30
0.0
 10
-1118.351955526657
 20
141.4802517341632
 30
0.0
 10
-1121.031597144702
 20
144.1169458683498
 30
0.0
 10
-1123.604811309963
 20
145.682639637047
 30
0.0
 10
-1122.874751775284
 20
145.5310031036033
 30
0.0
 10
-1124.667347298139
 20
144.7434812355895
 30
0.0
 10
-1127.794752195992
 20
142.1874059201827
 30
0.0
 10
-1133.726718163413
 20
131.6914049532224
 30
0.0
 10
-1136.562932211317
 20
124.8612556725557
 30
0.0
 10
-1141.973493426474
 20
107.2468969996689
 30
0.0
 10
-1144.516448786626
 20
96.12368411285661
 30
0.0
 10
-1148.733043157799
 20
70.81997362481343
 30
0.0
 10
-1150.373584911688
 20
56.53655996772158
 30
0.0
 10
-1152.460347866974
 20
26.45917525853292
 30
0.0
 10
-1152.891443843187
 20
10.65123276815393
 30
0.0
 10
-1152.466905745292
 20
-20.73595704000945
 30
0.0
 10
-1151.607975296682
 20
-36.31051677217693
 30
0.0
 10
-1148.702801018411
 20
-65.50070995445003
 30
0.0
 10
-1146.661428924527
 20
-79.12385757068477
 30
0.0
 10
-1141.699636038219
 20
-102.8135326010433
 30
0.0
 10
-1138.785808198222
 20
-112.946866757672
 30
0.0
 10
-1132.77046195281
 20
-128.2791774218076
 30
0.0
 10
-1129.619647728149
 20
-133.7117655153661
 30
0.0
 10
-1124.89774248603
 20
-139.2311882975928
 30
0.0
 10
-1123.504868871724
 20
-139.6635069082494
 30
0.0
 10
-1123.286171167939
 20
-139.6993054194599
 30
0.0
 10
-1123.274160221347
 20
-139.6994834602647
 30
0.0
 10
-1123.262405455124
 20
-139.6994834602637
 30
0.0
  0
SPLINE
  5
1576
330
1565
100
AcDbEntity
  8
Widoczne (ISO)
100
AcDbSpline
210
0.0
220
0.0
230
1.0
 70
    11
 71
     3
 72
    48
 73
    44
 74
     0
 42
0.0000000001
 43
0.0000000001
 40
0.0
 40
0.0
 40
0.0
 40
0.0
 40
0.1767957152850295
 40
0.1767957152850295
 40
0.4368922378757752
 40
0.4368922378757752
 40
0.8058300986573094
 40
0.8058300986573094
 40
1.142148611261259
 40
1.142148611261259
 40
1.469617201985668
 40
1.469617201985668
 40
1.794790966326189
 40
1.794790966326189
 40
2.120434222995439
 40
2.120434222995439
 40
2.449911135500189
 40
2.449911135500189
 40
2.792917631790019
 40
2.792917631790019
 40
2.976896888478731
 40
2.976896888478731
 40
3.22667133790021
 40
3.22667133790021
 40
3.423221828912367
 40
3.423221828912367
 40
3.767123552695378
 40
3.767123552695378
 40
4.115549653030435
 40
4.115549653030435
 40
4.446090742877595
 40
4.446090742877595
 40
4.77199076943528
 40
4.77199076943528
 40
5.097089025022635
 40
5.097089025022635
 40
5.424027396087911
 40
5.424027396087911
 40
5.758099594259793
 40
5.758099594259793
 40
6.11723009434806
 40
6.11723009434806
 40
6.283185307179586
 40
6.283185307179586
 40
6.283185307179586
 40
6.283185307179586
 10
1123.170439489897
 20
165.3005165397362
 30
0.0
 10
1118.567448866029
 20
165.3005165397389
 30
0.0
 10
1114.147143659336
 20
163.6377118011951
 30
0.0
 10
1105.252398114376
 20
157.4977283340758
 30
0.0
 10
1101.288581556604
 20
152.2569267339231
 30
0.0
 10
1092.665867982715
 20
136.6988876832929
 30
0.0
 10
1088.492016479656
 20
124.9084540496978
 30
0.0
 10
1081.800816324468
 20
97.97700723134312
 30
0.0
 10
1079.220419124945
 20
83.2533719476196
 30
0.0
 10
1075.510349311468
 20
51.88560517707628
 30
0.0
 10
1074.348511948615
 20
35.31301802578855
 30
0.0
 10
1073.466278846278
 20
1.738432429849126
 30
0.0
 10
1073.736305448462
 20
-15.25206062878988
 30
0.0
 10
1075.672919289914
 20
-48.09632592147136
 30
0.0
 10
1077.340201561662
 20
-63.94051013223543
 30
0.0
 10
1081.961413110146
 20
-93.08641810509834
 30
0.0
 10
1084.922053019334
 20
-106.3437971648718
 30
0.0
 10
1092.12380133568
 20
-129.3878899388583
 30
0.0
 10
1096.322152258409
 20
-138.9952119857116
 30
0.0
 10
1104.337431324959
 20
-150.2531776171954
 30
0.0
 10
1107.457423972464
 20
-153.5855034762608
 30
0.0
 10
1116.507063314551
 20
-159.3967489167817
 30
0.0
 10
1123.603694092667
 20
-160.639226892662
 30
0.0
 10
1134.415148927962
 20
-157.0766987022953
 30
0.0
 10
1138.29583076796
 20
-154.0445428012881
 30
0.0
 10
1147.36187171362
 20
-143.9101329551113
 30
0.0
 10
1151.768463501806
 20
-135.1552199429288
 30
0.0
 10
1159.673267539962
 20
-113.0951093950025
 30
0.0
 10
1163.015242698056
 20
-99.71069473446005
 30
0.0
 10
1168.179681918349
 20
-70.34548328128494
 30
0.0
 10
1170.058355546108
 20
-54.55028387126913
 30
0.0
 10
1172.373807372364
 20
-21.75344892789326
 30
0.0
 10
1172.828828724992
 20
-4.780397868632462
 30
0.0
 10
1172.309942882226
 20
28.81668802007698
 30
0.0
 10
1171.339878569694
 20
45.43395334523848
 30
0.0
 10
1168.05299404648
 20
76.80070559333853
 30
0.0
 10
1165.731761121234
 20
91.52995495297
 30
0.0
 10
1159.845838439008
 20
117.9004855392295
 30
0.0
 10
1156.279611205338
 20
129.4490183707275
 30
0.0
 10
1147.578816296776
 20
148.9246762145085
 30
0.0
 10
1142.597379071719
 20
156.7640551957538
 30
0.0
 10
1131.670128437374
 20
163.8356664994353
 30
0.0
 10
1127.491190631485
 20
165.3005165397344
 30
0.0
 10
1123.170439489897
 20
165.3005165397362
 30
0.0
  0
SPLINE
  5
1577
330
1565
100
AcDbEntity
  8
Widoczne (ISO)
100
AcDbSpline
210
0.0
220
0.0
230
1.0
 70
    11
 71
     3
 72
    50
 73
    46
 74
     0
 42
0.0000000001
 43
0.0000000001
 40
0.0
 40
0.0
 40
0.0
 40
0.0
 40
0.3141592653589793
 40
0.3141592653589793
 40
0.5680100392127346
 40
0.5680100392127346
 40
0.8559051302456399
 40
0.8559051302456399
 40
1.162016267999103
 40
1.162016267999103
 40
1.474807574383523
 40
1.474807574383523
 40
1.789628645958865
 40
1.789628645958865
 40
2.103999459104344
 40
2.103999459104344
 40
2.414911601461051
 40
2.414911601461051
 40
2.715090704639351
 40
2.715090704639351
 40
2.9853948445764
 40
2.9853948445764
 40
3.254810616142236
 40
3.254810616142236
 40
3.571041045400317
 40
3.571041045400317
 40
3.841774119365897
 40
3.841774119365897
 40
4.140352765957591
 40
4.140352765957591
 40
4.450483444265532
 40
4.450483444265532
 40
4.764601314301946
 40
4.764601314301946
 40
5.079495189828937
 40
5.079495189828937
 40
5.392745436573226
 40
5.392745436573226
 40
5.700024765710299
 40
5.700024765710299
 40
5.989406365005728
 40
5.989406365005728
 40
6.24084467478868
 40
6.24084467478868
 40
6.283185307179586
 40
6.283185307179586
 40
6.283185307179586
 40
6.283185307179586
 10
1123.170439489897
 20
145.3005165397362
 30
0.0
 10
1123.083221408532
 20
145.3005165397408
 30
0.0
 10
1121.644407607534
 20
145.1827749422036
 30
0.0
 10
1116.493224697632
 20
138.7160144081781
 30
0.0
 10
1113.775387319509
 20
133.9351756392398
 30
0.0
 10
1108.288294841953
 20
120.4057685893176
 30
0.0
 10
1105.513051761792
 20
111.2246158259931
 30
0.0
 10
1100.577485451758
 20
89.25682863793099
 30
0.0
 10
1098.456675652674
 20
76.2743230400547
 30
0.0
 10
1095.289819885577
 20
48.0279901342592
 30
0.0
 10
1094.266760055458
 20
32.72213399943666
 30
0.0
 10
1093.488977673948
 20
1.511340631115672
 30
0.0
 10
1093.742446474805
 20
-14.3929322182139
 30
0.0
 10
1095.506899591274
 20
-45.04723704413118
 30
0.0
 10
1097.016564540122
 20
-59.79538858043998
 30
0.0
 10
1101.090772576545
 20
-86.46564857765042
 30
0.0
 10
1103.647633485469
 20
-98.41738278690081
 30
0.0
 10
1109.348745641969
 20
-117.9988256402157
 30
0.0
 10
1112.501419987018
 20
-125.769223280271
 30
0.0
 10
1118.259989561429
 20
-135.8792186546616
 30
0.0
 10
1120.939631179475
 20
-138.5159127888555
 30
0.0
 10
1123.512845344736
 20
-140.0816065575682
 30
0.0
 10
1122.782785810057
 20
-139.9299700241317
 30
0.0
 10
1124.575381332912
 20
-139.1424481561362
 30
0.0
 10
1127.702786230766
 20
-136.5863728407385
 30
0.0
 10
1133.634752198187
 20
-126.0903718737927
 30
0.0
 10
1136.470966246091
 20
-119.2602225931323
 30
0.0
 10
1141.881527461247
 20
-101.6458639202592
 30
0.0
 10
1144.424482821399
 20
-90.52265103345234
 30
0.0
 10
1148.641077192571
 20
-65.21894054541826
 30
0.0
 10
1150.28161894646
 20
-50.93552688833097
 30
0.0
 10
1152.368381901747
 20
-20.85814217914685
 30
0.0
 10
1152.79947787796
 20
-5.050199688768771
 30
0.0
 10
1152.374939780065
 20
26.33699011939552
 30
0.0
 10
1151.516009331455
 20
41.91154985156481
 30
0.0
 10
1148.610835053184
 20
71.10174303384429
 30
0.0
 10
1146.5694629593
 20
84.72489065008359
 30
0.0
 10
1141.607670072993
 20
108.4145656804539
 30
0.0
 10
1138.693842232996
 20
118.5478998370899
 30
0.0
 10
1132.678495987583
 20
133.8802105012391
 30
0.0
 10
1129.527681762922
 20
139.3127985948058
 30
0.0
 10
1124.805776520803
 20
144.8322213770479
 30
0.0
 10
1123.412902906498
 20
145.264539987711
 30
0.0
 10
1123.194205202711
 20
145.3003384989306
 30
0.0
 10
1123.18219425612
 20
145.3005165397353
 30
0.0
 10
1123.170439489897
 20
145.3005165397362
 30
0.0
  0
SPLINE
  5
1578
330
1565
100
AcDbEntity
  8
Widoczne (ISO)
100
AcDbSpline
210
0.0
220
0.0
230
1.0
 70
     8
 71
     3
 72
    22
 73
    18
 74
     0
 42
0.0000000001
 43
0.0000000001
 40
5.962146691401434
 40
5.962146691401434
 40
5.96214669153896
 40
5.96214669153896
 40
6.703349465858048
 40
6.703349465858048
 40
7.444552240177136
 40
7.444552240177136
 40
8.185755014496225
 40
8.185755014496225
 40
8.926957788815313
 40
8.926957788815313
 40
9.676291687380963
 40
9.676291687380963
 40
10.42562558594661
 40
10.42562558594661
 40
11.17495948451227
 40
11.17495948451227
 40
11.92429338307792
 40
11.92429338307792
 40
11.92429338307792
 40
11.92429338307792
 10
-57.19598298261371
 20
-35.19948346032197
 30
0.0
 10
-57.19598298261371
 20
-35.19948346032106
 30
0.0
 10
-57.03222709913553
 20
-34.95464353664011
 30
0.0
 10
-56.37310773734771
 20
-33.95223950673881
 30
0.0
 10
-55.87812098737868
 20
-33.19508516894803
 30
0.0
 10
-54.63074666568354
 20
-31.22817880878938
 30
0.0
 10
-53.87778825341229
 20
-30.01681260674377
 30
0.0
 10
-52.24005841640064
 20
-27.25502111017068
 30
0.0
 10
-51.35621601495405
 20
-25.70442749641734
 30
0.0
 10
-49.60478600427996
 20
-22.41671980478713
 30
0.0
 10
-48.66936608804462
 20
-20.55366726499415
 30
0.0
 10
-46.85269753948887
 20
-16.48816001744762
 30
0.0
 10
-45.97265751631494
 20
-14.28565657662239
 30
0.0
 10
-44.45673899767643
 20
-9.649074396071227
 30
0.0
 10
-43.82190578456266
 20
-7.210061012932783
 30
0.0
 10
-42.95834310155078
 20
-2.234449958062214
 30
0.0
 10
-42.7323098332572
 20
0.302736877803909
 30
0.0
 10
-42.7323098332572
 20
2.800516539688942
 30
0.0
  0
SPLINE
  5
1579
330
1565
100
AcDbEntity
  8
Widoczne (ISO)
100
AcDbSpline
210
0.0
220
0.0
230
1.0
 70
     8
 71
     3
 72
    22
 73
    18
 74
     0
 42
0.0000000001
 43
0.0000000001
 40
11.92429338307792
 40
11.92429338307792
 40
11.92429338307792
 40
11.92429338307792
 40
12.67362728164357
 40
12.67362728164357
 40
13.42296118020922
 40
13.42296118020922
 40
14.17229507877487
 40
14.17229507877487
 40
14.92162897734052
 40
14.92162897734052
 40
15.66283175165961
 40
15.66283175165961
 40
16.4040345259787
 40
16.4040345259787
 40
17.14523730029779
 40
17.14523730029779
 40
17.88644007447934
 40
17.88644007447934
 40
17.88644007461688
 40
17.88644007461688
 10
-42.7323098332572
 20
2.800516539688942
 30
0.0
 10
-42.7323098332572
 20
5.298296201575794
 30
0.0
 10
-42.95834310155078
 20
7.835483037441917
 30
0.0
 10
-43.82190578456266
 20
12.81109409231158
 30
0.0
 10
-44.45673899767643
 20
15.25010747544911
 30
0.0
 10
-45.97265751631494
 20
19.88668965599936
 30
0.0
 10
-46.85269753948887
 20
22.08919309682369
 30
0.0
 10
-48.66936608804462
 20
26.1547003443693
 30
0.0
 10
-49.60478600427996
 20
28.01775288416138
 30
0.0
 10
-51.35621601495405
 20
31.30546057578886
 30
0.0
 10
-52.24005841640064
 20
32.85605418954129
 30
0.0
 10
-53.87778825341229
 20
35.61784568611165
 30
0.0
 10
-54.63074666568354
 20
36.82921188815635
 30
0.0
 10
-55.87812098737868
 20
38.79611824831227
 30
0.0
 10
-56.37310773734771
 20
39.55327258610032
 30
0.0
 10
-57.03222709907368
 20
40.55567661590703
 30
0.0
 10
-57.19598298255277
 20
40.80051653958799
 30
0.0
 10
-57.19598298261371
 20
40.80051653967802
 30
0.0
  0
LINE
  5
157A
330
1565
100
AcDbEntity
  8
Widoczne (ISO)
100
AcDbLine
 10
-1273.758365643784
 20
40.80051653967894
 30
0.0
 11
-1171.509058992738
 21
40.80051653967894
 31
0.0
  0
LINE
  5
157B
330
1565
100
AcDbEntity
  8
Widoczne (ISO)
100
AcDbLine
 10
-1151.464745291437
 20
40.80051653967894
 30
0.0
 11
-1095.06006561881
 21
40.80051653967894
 31
0.0
  0
LINE
  5
157C
330
1565
100
AcDbEntity
  8
Widoczne (ISO)
100
AcDbLine
 10
-1075.015751917509
 20
40.80051653967894
 30
0.0
 11
-57.19598298261371
 21
40.80051653967802
 31
0.0
  0
LINE
  5
157D
330
1565
100
AcDbEntity
  8
Widoczne (ISO)
100
AcDbLine
 10
-1273.758365643785
 20
-35.19948346032197
 30
0.0
 11
-1171.509058992738
 21
-35.19948346032197
 31
0.0
  0
LINE
  5
157E
330
1565
100
AcDbEntity
  8
Widoczne (ISO)
100
AcDbLine
 10
-1151.464745291437
 20
-35.19948346032197
 30
0.0
 11
-1095.06006561881
 21
-35.19948346032197
 31
0.0
  0
LINE
  5
157F
330
1565
100
AcDbEntity
  8
Widoczne (ISO)
100
AcDbLine
 10
-1075.015751917509
 20
-35.19948346032197
 30
0.0
 11
-57.19598298261371
 21
-35.19948346032197
 31
0.0
  0
SPLINE
  5
1580
330
1565
100
AcDbEntity
  8
Widoczne (ISO)
100
AcDbSpline
210
0.0
220
0.0
230
1.0
 70
     8
 71
     3
 72
    22
 73
    18
 74
     0
 42
0.0000000001
 43
0.0000000001
 40
5.962146691401445
 40
5.962146691401445
 40
5.96214669153896
 40
5.96214669153896
 40
6.703349465858048
 40
6.703349465858048
 40
7.444552240177136
 40
7.444552240177136
 40
8.185755014496225
 40
8.185755014496225
 40
8.926957788815313
 40
8.926957788815313
 40
9.676291687380963
 40
9.676291687380963
 40
10.42562558594661
 40
10.42562558594661
 40
11.17495948451227
 40
11.17495948451227
 40
11.92429338307792
 40
11.92429338307792
 40
11.92429338307792
 40
11.92429338307792
 10
57.10401701738646
 20
40.80051653967802
 30
0.0
 10
57.10401701738646
 20
40.80051653967894
 30
0.0
 10
56.94026113390918
 20
40.55567661600071
 30
0.0
 10
56.28114177212046
 20
39.55327258610032
 30
0.0
 10
55.78615502215325
 20
38.79611824831227
 30
0.0
 10
54.53878070045812
 20
36.82921188815635
 30
0.0
 10
53.78582228818686
 20
35.61784568611165
 30
0.0
 10
52.14809245117431
 20
32.85605418954129
 30
0.0
 10
51.26425004972862
 20
31.30546057578886
 30
0.0
 10
49.51282003905453
 20
28.01775288416138
 30
0.0
 10
48.57740012281738
 20
26.15470034436839
 30
0.0
 10
46.76073157426344
 20
22.08919309682369
 30
0.0
 10
45.88069155108951
 20
19.88668965599936
 30
0.0
 10
44.3647730324501
 20
15.25010747544911
 30
0.0
 10
43.72993981933632
 20
12.81109409231158
 30
0.0
 10
42.86637713632535
 20
7.835483037441917
 30
0.0
 10
42.64034386803086
 20
5.298296201575794
 30
0.0
 10
42.64034386803086
 20
2.800516539688942
 30
0.0
  0
SPLINE
  5
1581
330
1565
100
AcDbEntity
  8
Widoczne (ISO)
100
AcDbSpline
210
0.0
220
0.0
230
1.0
 70
     8
 71
     3
 72
    22
 73
    18
 74
     0
 42
0.0000000001
 43
0.0000000001
 40
11.92429338307792
 40
11.92429338307792
 40
11.92429338307792
 40
11.92429338307792
 40
12.67362728164357
 40
12.67362728164357
 40
13.42296118020922
 40
13.42296118020922
 40
14.17229507877487
 40
14.17229507877487
 40
14.92162897734052
 40
14.92162897734052
 40
15.66283175165961
 40
15.66283175165961
 40
16.4040345259787
 40
16.4040345259787
 40
17.14523730029779
 40
17.14523730029779
 40
17.88644007447934
 40
17.88644007447934
 40
17.88644007461688
 40
17.88644007461688
 10
42.64034386803086
 20
2.800516539688942
 30
0.0
 10
42.64034386803086
 20
0.302736877803909
 30
0.0
 10
42.86637713632535
 20
-2.234449958062214
 30
0.0
 10
43.72993981933723
 20
-7.210061012932783
 30
0.0
 10
44.3647730324501
 20
-9.649074396071227
 30
0.0
 10
45.88069155108951
 20
-14.28565657662239
 30
0.0
 10
46.76073157426344
 20
-16.48816001744762
 30
0.0
 10
48.57740012281738
 20
-20.55366726499415
 30
0.0
 10
49.51282003905453
 20
-22.41671980478713
 30
0.0
 10
51.26425004972862
 20
-25.70442749641734
 30
0.0
 10
52.14809245117431
 20
-27.25502111017068
 30
0.0
 10
53.78582228818686
 20
-30.01681260674377
 30
0.0
 10
54.53878070045812
 20
-31.22817880878938
 30
0.0
 10
55.78615502215325
 20
-33.19508516894803
 30
0.0
 10
56.28114177212046
 20
-33.95223950673881
 30
0.0
 10
56.94026113384734
 20
-34.95464353654734
 30
0.0
 10
57.10401701732644
 20
-35.19948346023011
 30
0.0
 10
57.10401701738646
 20
-35.19948346032197
 30
0.0
  0
LINE
  5
1582
330
1565
100
AcDbEntity
  8
Widoczne (ISO)
100
AcDbLine
 10
1273.666399678557
 20
-35.19948346032288
 30
0.0
 11
1171.417093027512
 21
-35.19948346032288
 31
0.0
  0
LINE
  5
1583
330
1565
100
AcDbEntity
  8
Widoczne (ISO)
100
AcDbLine
 10
1151.372779326211
 20
-35.19948346032288
 30
0.0
 11
1094.968099653584
 21
-35.19948346032288
 31
0.0
  0
LINE
  5
1584
330
1565
100
AcDbEntity
  8
Widoczne (ISO)
100
AcDbLine
 10
1074.923785952283
 20
-35.19948346032288
 30
0.0
 11
57.10401701738646
 21
-35.19948346032197
 31
0.0
  0
LINE
  5
1585
330
1565
100
AcDbEntity
  8
Widoczne (ISO)
100
AcDbLine
 10
1273.666399678558
 20
40.80051653967802
 30
0.0
 11
1171.417093027512
 21
40.80051653967802
 31
0.0
  0
LINE
  5
1586
330
1565
100
AcDbEntity
  8
Widoczne (ISO)
100
AcDbLine
 10
1151.372779326211
 20
40.80051653967802
 30
0.0
 11
1094.968099653584
 21
40.80051653967802
 31
0.0
  0
LINE
  5
1587
330
1565
100
AcDbEntity
  8
Widoczne (ISO)
100
AcDbLine
 10
1074.923785952283
 20
40.80051653967802
 30
0.0
 11
57.10401701738646
 21
40.80051653967802
 31
0.0
  0
LINE
  5
1588
330
1565
100
AcDbEntity
  8
Widoczne (ISO)
100
AcDbLine
 10
-1262.732309833258
 20
-9.699483460302872
 30
0.0
 11
-1262.732309833258
 21
15.30051653969622
 31
0.0
  0
ARC
  5
1589
330
1565
100
AcDbEntity
  8
Widoczne (ISO)
100
AcDbCircle
 10
-1297.732309833258
 20
15.30051653969622
 30
0.0
 40
35.00000000000011
100
AcDbArc
 50
0.0
 51
90.0
  0
ARC
  5
158A
330
1565
100
AcDbEntity
  8
Widoczne (ISO)
100
AcDbCircle
 10
-1256.936633650364
 20
168.4559768654071
 30
0.0
 40
125.0000000000002
100
AcDbArc
 50
211.6846492947356
 51
250.9516815568452
  0
ARC
  5
158B
330
1565
100
AcDbEntity
  8
Widoczne wąskie (ISO)
100
AcDbCircle
 10
-1450.232309833258
 20
2.800516539698037
 30
0.0
 40
127.5000000000002
100
AcDbArc
 50
49.33613731912724
 51
310.6638626808727
  0
SPLINE
  5
158C
330
1565
100
AcDbEntity
  8
Widoczne (ISO)
100
AcDbSpline
210
0.0
220
0.0
230
1.0
 70
     8
 71
     3
 72
    18
 73
    14
 74
     0
 42
0.0000000001
 43
0.0000000001
 40
-0.0010193431241842
 40
-0.0010193431241842
 40
-0.0010193431241842
 40
-0.0010193431241842
 40
0.0
 40
0.0
 40
0.103301638245449
 40
0.103301638245449
 40
0.2065114955842874
 40
0.2065114955842874
 40
0.403302337171522
 40
0.403302337171522
 40
0.5977796781856713
 40
0.5977796781856713
 40
0.7910966247999527
 40
0.7910966247999527
 40
0.7910966247999527
 40
0.7910966247999527
 10
-1367.150746151414
 20
99.51506444320513
 30
0.0
 10
-1367.148169436647
 20
99.5172793148995
 30
0.0
 10
-1367.145592709276
 20
99.51949417073411
 30
0.0
 10
-1366.881885988578
 20
99.74616360303935
 30
0.0
 10
-1366.621293012886
 20
99.96987968189024
 30
0.0
 10
-1366.109550209178
 20
100.4086839108458
 30
0.0
 10
-1365.859619685344
 20
100.6227273898957
 30
0.0
 10
-1365.161550723643
 20
101.2199118676435
 30
0.0
 10
-1364.745497373282
 20
101.574983715951
 30
0.0
 10
-1364.049677404242
 20
102.1679807163864
 30
0.0
 10
-1363.7749678347
 20
102.4016318696367
 30
0.0
 10
-1363.401585596387
 20
102.7190396481637
 30
0.0
 10
-1363.30561657969
 20
102.8005165396971
 30
0.0
 10
-1363.30561657969
 20
102.8005165396971
 30
0.0
  0
ARC
  5
158D
330
1565
100
AcDbEntity
  8
Widoczne (ISO)
100
AcDbCircle
 10
-1450.232309833258
 20
2.800516539696218
 30
0.0
 40
132.5000000000002
100
AcDbArc
 50
49.00064634981575
 51
310.9993536501843
  0
SPLINE
  5
158E
330
1565
100
AcDbEntity
  8
Widoczne (ISO)
100
AcDbSpline
210
0.0
220
0.0
230
1.0
 70
     8
 71
     3
 72
    18
 73
    14
 74
     0
 42
0.0000000001
 43
0.0000000001
 40
0.0
 40
0.0
 40
0.0
 40
0.0
 40
0.1932359001510995
 40
0.1932359001510995
 40
0.3876317082167227
 40
0.3876317082167227
 40
0.5843400469402736
 40
0.5843400469402736
 40
0.6875066344362401
 40
0.6875066344362401
 40
0.7907649643594162
 40
0.7907649643594162
 40
0.7917838801328231
 40
0.7917838801328231
 40
0.7917838801328231
 40
0.7917838801328231
 10
-1363.30561657969
 20
-97.19948346030287
 30
0.0
 10
-1363.30561657969
 20
-97.19948346030287
 30
0.0
 10
-1363.401585596387
 20
-97.11800656876949
 30
0.0
 10
-1363.7749678347
 20
-96.80059879024065
 30
0.0
 10
-1364.049677404242
 20
-96.56694763699215
 30
0.0
 10
-1364.745497373282
 20
-95.97395063655586
 30
0.0
 10
-1365.161550723643
 20
-95.61887878824837
 30
0.0
 10
-1365.859619685344
 20
-95.02169431049969
 30
0.0
 10
-1366.109550209177
 20
-94.80765083144888
 30
0.0
 10
-1366.621293012883
 20
-94.36884660249507
 30
0.0
 10
-1366.881885988562
 20
-94.14513052365146
 30
0.0
 10
-1367.145592709276
 20
-93.91846109133712
 30
0.0
 10
-1367.148169436647
 20
-93.91624623550251
 30
0.0
 10
-1367.150746151414
 20
-93.91403136380905
 30
0.0
  0
LINE
  5
158F
330
1565
100
AcDbEntity
  8
Widoczne wąskie (ISO)
100
AcDbLine
 10
-1262.732309833258
 20
15.30051653969622
 30
0.0
 11
-1267.732309833258
 21
15.30051653969804
 31
0.0
  0
SPLINE
  5
1590
330
1565
100
AcDbEntity
  8
Widoczne (ISO)
100
AcDbSpline
210
0.0
220
0.0
230
1.0
 70
     8
 71
     3
 72
    18
 73
    14
 74
     0
 42
0.0000000001
 43
0.0000000001
 40
-0.793086982181826
 40
-0.793086982181826
 40
-0.793086982181826
 40
-0.793086982181826
 40
-0.7919887633394883
 40
-0.7919887633394883
 40
-0.6878679732083045
 40
-0.6878679732083045
 40
-0.5839028266824111
 40
-0.5839028266824111
 40
-0.3869447385380962
 40
-0.3869447385380962
 40
-0.1927940926365018
 40
-0.1927940926365018
 40
0.0
 40
0.0
 40
0.0
 40
0.0
 10
-1298.53124492929
 20
45.28987636468173
 30
0.0
 10
-1298.530699291252
 20
45.29349825366717
 30
0.0
 10
-1298.530153581821
 20
45.29712013094195
 30
0.0
 10
-1298.477863080588
 20
45.64412604879999
 30
0.0
 10
-1298.425601628382
 20
45.98653540187115
 30
0.0
 10
-1298.321890578705
 20
46.65815611454763
 30
0.0
 10
-1298.270687942319
 20
46.98578864167575
 30
0.0
 10
-1298.126969073614
 20
47.8961859123392
 30
0.0
 10
-1298.039759246404
 20
48.43678512559836
 30
0.0
 10
-1297.89251024718
 20
49.33885158404883
 30
0.0
 10
-1297.83355239894
 20
49.69415935723373
 30
0.0
 10
-1297.753160640816
 20
50.17664235855682
 30
0.0
 10
-1297.732309833258
 20
50.30051653969713
 30
0.0
 10
-1297.732309833258
 20
50.30051653969713
 30
0.0
  0
ARC
  5
1591
330
1565
100
AcDbEntity
  8
Widoczne wąskie (ISO)
100
AcDbCircle
 10
-1297.732309833258
 20
15.30051653969804
 30
0.0
 40
30.00000000000011
100
AcDbArc
 50
0.0
 51
91.52603405529529
  0
LINE
  5
1592
330
1565
100
AcDbEntity
  8
Widoczne wąskie (ISO)
100
AcDbLine
 10
-1262.732309833258
 20
-9.699483460302872
 30
0.0
 11
-1267.732309833258
 21
-9.699483460301053
 31
0.0
  0
LINE
  5
1593
330
1565
100
AcDbEntity
  8
Widoczne wąskie (ISO)
100
AcDbLine
 10
-1267.732309833258
 20
15.30051653969804
 30
0.0
 11
-1267.732309833258
 21
-9.699483460301962
 31
0.0
  0
ARC
  5
1594
330
1565
100
AcDbEntity
  8
Widoczne (ISO)
100
AcDbCircle
 10
-1297.732309833258
 20
-9.699483460302872
 30
0.0
 40
35.0000000000001
100
AcDbArc
 50
270.0
 51
0.0
  0
ARC
  5
1595
330
1565
100
AcDbEntity
  8
Widoczne wąskie (ISO)
100
AcDbCircle
 10
-1297.732309833258
 20
-9.699483460301962
 30
0.0
 40
30.00000000000009
100
AcDbArc
 50
268.4739659447047
 51
0.0
  0
SPLINE
  5
1596
330
1565
100
AcDbEntity
  8
Widoczne (ISO)
100
AcDbSpline
210
0.0
220
0.0
230
1.0
 70
     8
 71
     3
 72
    18
 73
    14
 74
     0
 42
0.0000000001
 43
0.0000000001
 40
-0.7930870113980126
 40
-0.7930870113980126
 40
-0.7930870113980126
 40
-0.7930870113980126
 40
-0.7919887946153739
 40
-0.7919887946153739
 40
-0.6878718559847862
 40
-0.6878718559847862
 40
-0.5839078264446347
 40
-0.5839078264446347
 40
-0.3869486399446162
 40
-0.3869486399446162
 40
-0.1927949669046634
 40
-0.1927949669046634
 40
0.0
 40
0.0
 40
0.0
 40
0.0
 10
-1298.53124492929
 20
-39.68884328528475
 30
0.0
 10
-1298.530699292267
 20
-39.69246516753173
 30
0.0
 10
-1298.53015358385
 20
-39.69608703807535
 30
0.0
 10
-1298.477864996958
 20
-40.04308025236423
 30
0.0
 10
-1298.425605492121
 20
-40.3854770111111
 30
0.0
 10
-1298.321896843932
 20
-41.05708275192137
 30
0.0
 10
-1298.270694668752
 20
-41.38471263716382
 30
0.0
 10
-1298.126975345095
 20
-42.29511369068496
 30
0.0
 10
-1298.039764566828
 20
-42.83571920751365
 30
0.0
 10
-1297.892512938415
 20
-43.73780225917926
 30
0.0
 10
-1297.833553736849
 20
-44.09311823317693
 30
0.0
 10
-1297.753160830438
 20
-44.57560815601027
 30
0.0
 10
-1297.732309833258
 20
-44.69948346030287
 30
0.0
 10
-1297.732309833258
 20
-44.69948346030287
 30
0.0
  0
ARC
  5
1597
330
1565
100
AcDbEntity
  8
Widoczne wąskie (ISO)
100
AcDbCircle
 10
-1256.936633650364
 20
-162.854943786012
 30
0.0
 40
130.0000000000002
100
AcDbArc
 50
108.6604180811123
 51
147.9732789565421
  0
ARC
  5
1598
330
1565
100
AcDbEntity
  8
Widoczne (ISO)
100
AcDbCircle
 10
-1256.936633650364
 20
-162.8549437860138
 30
0.0
 40
125.0000000000004
100
AcDbArc
 50
109.0483184431548
 51
148.3153507052643
  0
ARC
  5
1599
330
1565
100
AcDbEntity
  8
Widoczne wąskie (ISO)
100
AcDbCircle
 10
-1256.936633650364
 20
168.4559768654089
 30
0.0
 40
130.0000000000004
100
AcDbArc
 50
212.0267210434579
 51
251.3395819188877
  0
LINE
  5
159A
330
1565
100
AcDbEntity
  8
Widoczne (ISO)
100
AcDbLine
 10
1262.640343868032
 20
15.3005165396944
 30
0.0
 11
1262.640343868031
 21
-9.6994834603056
 31
0.0
  0
ARC
  5
159B
330
1565
100
AcDbEntity
  8
Widoczne (ISO)
100
AcDbCircle
 10
1297.640343868031
 20
-9.6994834603056
 30
0.0
 40
35.00000000000011
100
AcDbArc
 50
180.0
 51
270.0
  0
ARC
  5
159C
330
1565
100
AcDbEntity
  8
Widoczne (ISO)
100
AcDbCircle
 10
1256.844667685138
 20
-162.8549437860156
 30
0.0
 40
125.0000000000002
100
AcDbArc
 50
31.68464929473568
 51
70.95168155684522
  0
ARC
  5
159D
330
1565
100
AcDbEntity
  8
Widoczne wąskie (ISO)
100
AcDbCircle
 10
1450.140343868032
 20
2.800516539696218
 30
0.0
 40
127.5000000000002
100
AcDbArc
 50
229.3361373191272
 51
130.6638626808727
  0
SPLINE
  5
159E
330
1565
100
AcDbEntity
  8
Widoczne (ISO)
100
AcDbSpline
210
0.0
220
0.0
230
1.0
 70
     8
 71
     3
 72
    18
 73
    14
 74
     0
 42
0.0000000001
 43
0.0000000001
 40
-0.0010193431241842
 40
-0.0010193431241842
 40
-0.0010193431241842
 40
-0.0010193431241842
 40
0.0
 40
0.0
 40
0.103301638245449
 40
0.103301638245449
 40
0.2065114955842874
 40
0.2065114955842874
 40
0.403302337171522
 40
0.403302337171522
 40
0.5977796781856713
 40
0.5977796781856713
 40
0.7910966247999527
 40
0.7910966247999527
 40
0.7910966247999527
 40
0.7910966247999527
 10
1367.058780186187
 20
-93.91403136381086
 30
0.0
 10
1367.056203471421
 20
-93.91624623550432
 30
0.0
 10
1367.053626744049
 20
-93.91846109133894
 30
0.0
 10
1366.789920023352
 20
-94.1451305236451
 30
0.0
 10
1366.529327047659
 20
-94.36884660249507
 30
0.0
 10
1366.01758424395
 20
-94.80765083145071
 30
0.0
 10
1365.767653720118
 20
-95.02169431050152
 30
0.0
 10
1365.069584758416
 20
-95.61887878825018
 30
0.0
 10
1364.653531408056
 20
-95.97395063655767
 30
0.0
 10
1363.957711439016
 20
-96.56694763699306
 30
0.0
 10
1363.683001869472
 20
-96.80059879024339
 30
0.0
 10
1363.30961963116
 20
-97.1180065687713
 30
0.0
 10
1363.213650614463
 20
-97.1994834603047
 30
0.0
 10
1363.213650614463
 20
-97.1994834603047
 30
0.0
  0
ARC
  5
159F
330
1565
100
AcDbEntity
  8
Widoczne (ISO)
100
AcDbCircle
 10
1450.140343868032
 20
2.800516539694399
 30
0.0
 40
132.5000000000002
100
AcDbArc
 50
229.0006463498157
 51
130.9993536501842
  0
SPLINE
  5
15A0
330
1565
100
AcDbEntity
  8
Widoczne (ISO)
100
AcDbSpline
210
0.0
220
0.0
230
1.0
 70
     8
 71
     3
 72
    18
 73
    14
 74
     0
 42
0.0000000001
 43
0.0000000001
 40
0.0
 40
0.0
 40
0.0
 40
0.0
 40
0.1932359001510995
 40
0.1932359001510995
 40
0.3876317082167227
 40
0.3876317082167227
 40
0.5843400469402736
 40
0.5843400469402736
 40
0.6875066344362401
 40
0.6875066344362401
 40
0.7907649643594162
 40
0.7907649643594162
 40
0.7917838801328231
 40
0.7917838801328231
 40
0.7917838801328231
 40
0.7917838801328231
 10
1363.213650614463
 20
102.8005165396953
 30
0.0
 10
1363.213650614463
 20
102.8005165396953
 30
0.0
 10
1363.309619631159
 20
102.7190396481619
 30
0.0
 10
1363.683001869472
 20
102.4016318696349
 30
0.0
 10
1363.957711439016
 20
102.1679807163846
 30
0.0
 10
1364.653531408056
 20
101.5749837159492
 30
0.0
 10
1365.069584758416
 20
101.2199118676417
 30
0.0
 10
1365.767653720118
 20
100.6227273898939
 30
0.0
 10
1366.01758424395
 20
100.408683910844
 30
0.0
 10
1366.529327047657
 20
99.96987968189024
 30
0.0
 10
1366.789920023336
 20
99.74616360304572
 30
0.0
 10
1367.053626744049
 20
99.5194941707323
 30
0.0
 10
1367.05620347142
 20
99.51727931489768
 30
0.0
 10
1367.058780186187
 20
99.5150644432033
 30
0.0
  0
LINE
  5
15A1
330
1565
100
AcDbEntity
  8
Widoczne wąskie (ISO)
100
AcDbLine
 10
1262.640343868032
 20
-9.6994834603056
 30
0.0
 11
1267.640343868032
 21
-9.699483460303781
 31
0.0
  0
SPLINE
  5
15A2
330
1565
100
AcDbEntity
  8
Widoczne (ISO)
100
AcDbSpline
210
0.0
220
0.0
230
1.0
 70
     8
 71
     3
 72
    18
 73
    14
 74
     0
 42
0.0000000001
 43
0.0000000001
 40
-0.793086982181826
 40
-0.793086982181826
 40
-0.793086982181826
 40
-0.793086982181826
 40
-0.7919887633394883
 40
-0.7919887633394883
 40
-0.6878679732083045
 40
-0.6878679732083045
 40
-0.5839028266824111
 40
-0.5839028266824111
 40
-0.3869447385380962
 40
-0.3869447385380962
 40
-0.1927940926365018
 40
-0.1927940926365018
 40
0.0
 40
0.0
 40
0.0
 40
0.0
 10
1298.439278964062
 20
-39.68884328528748
 30
0.0
 10
1298.438733326024
 20
-39.69246517427291
 30
0.0
 10
1298.438187616593
 20
-39.69608705154679
 30
0.0
 10
1298.385897115361
 20
-40.04309296940482
 30
0.0
 10
1298.333635663156
 20
-40.38550232247598
 30
0.0
 10
1298.229924613479
 20
-41.05712303515338
 30
0.0
 10
1298.178721977092
 20
-41.38475556228058
 30
0.0
 10
1298.035003108387
 20
-42.29515283294495
 30
0.0
 10
1297.947793281177
 20
-42.83575204620411
 30
0.0
 10
1297.800544281954
 20
-43.73781850465547
 30
0.0
 10
1297.741586433712
 20
-44.09312627784038
 30
0.0
 10
1297.661194675588
 20
-44.57560927916438
 30
0.0
 10
1297.640343868031
 20
-44.69948346030469
 30
0.0
 10
1297.640343868031
 20
-44.6994834603056
 30
0.0
  0
ARC
  5
15A3
330
1565
100
AcDbEntity
  8
Widoczne wąskie (ISO)
100
AcDbCircle
 10
1297.640343868031
 20
-9.699483460303781
 30
0.0
 40
30.00000000000011
100
AcDbArc
 50
180.0
 51
271.5260340552953
  0
LINE
  5
15A4
330
1565
100
AcDbEntity
  8
Widoczne wąskie (ISO)
100
AcDbLine
 10
1262.640343868032
 20
15.3005165396944
 30
0.0
 11
1267.640343868032
 21
15.30051653969622
 31
0.0
  0
LINE
  5
15A5
330
1565
100
AcDbEntity
  8
Widoczne wąskie (ISO)
100
AcDbLine
 10
1267.640343868032
 20
-9.699483460303781
 30
0.0
 11
1267.640343868032
 21
15.30051653969622
 31
0.0
  0
ARC
  5
15A6
330
1565
100
AcDbEntity
  8
Widoczne (ISO)
100
AcDbCircle
 10
1297.640343868032
 20
15.3005165396944
 30
0.0
 40
35.0000000000001
100
AcDbArc
 50
90.0
 51
180.0
  0
ARC
  5
15A7
330
1565
100
AcDbEntity
  8
Widoczne wąskie (ISO)
100
AcDbCircle
 10
1297.640343868031
 20
15.30051653969622
 30
0.0
 40
30.00000000000009
100
AcDbArc
 50
88.47396594470472
 51
180.0
  0
SPLINE
  5
15A8
330
1565
100
AcDbEntity
  8
Widoczne (ISO)
100
AcDbSpline
210
0.0
220
0.0
230
1.0
 70
     8
 71
     3
 72
    18
 73
    14
 74
     0
 42
0.0000000001
 43
0.0000000001
 40
-0.7930870113980126
 40
-0.7930870113980126
 40
-0.7930870113980126
 40
-0.7930870113980126
 40
-0.7919887946153739
 40
-0.7919887946153739
 40
-0.6878718559847862
 40
-0.6878718559847862
 40
-0.5839078264446347
 40
-0.5839078264446347
 40
-0.3869486399446162
 40
-0.3869486399446162
 40
-0.1927949669046634
 40
-0.1927949669046634
 40
0.0
 40
0.0
 40
0.0
 40
0.0
 10
1298.439278964062
 20
45.28987636467991
 30
0.0
 10
1298.438733327041
 20
45.29349824692689
 30
0.0
 10
1298.438187618623
 20
45.2971201174696
 30
0.0
 10
1298.385899031732
 20
45.64411333175849
 30
0.0
 10
1298.333639526894
 20
45.98651009050536
 30
0.0
 10
1298.229930878705
 20
46.65811583131563
 30
0.0
 10
1298.178728703526
 20
46.98574571655808
 30
0.0
 10
1298.035009379869
 20
47.89614677008012
 30
0.0
 10
1297.947798601602
 20
48.4367522869079
 30
0.0
 10
1297.800546973188
 20
49.33883533857261
 30
0.0
 10
1297.741587771622
 20
49.69415131256937
 30
0.0
 10
1297.661194865211
 20
50.17664123540271
 30
0.0
 10
1297.640343868031
 20
50.30051653969531
 30
0.0
 10
1297.640343868031
 20
50.30051653969531
 30
0.0
  0
ARC
  5
15A9
330
1565
100
AcDbEntity
  8
Widoczne wąskie (ISO)
100
AcDbCircle
 10
1256.844667685137
 20
168.4559768654062
 30
0.0
 40
130.0000000000002
100
AcDbArc
 50
288.6604180811123
 51
327.9732789565421
  0
ARC
  5
15AA
330
1565
100
AcDbEntity
  8
Widoczne (ISO)
100
AcDbCircle
 10
1256.844667685137
 20
168.4559768654053
 30
0.0
 40
125.0000000000004
100
AcDbArc
 50
289.0483184431547
 51
328.3153507052643
  0
ARC
  5
15AB
330
1565
100
AcDbEntity
  8
Widoczne wąskie (ISO)
100
AcDbCircle
 10
1256.844667685137
 20
-162.8549437860147
 30
0.0
 40
130.0000000000004
100
AcDbArc
 50
32.0267210434579
 51
71.33958191888767
  0
CIRCLE
  5
15AC
330
1565
100
AcDbEntity
  8
Widoczne (ISO)
100
AcDbCircle
 10
-1442.732309833258
 20
-47.19948346030196
 30
0.0
 40
9.999999999999991
  0
CIRCLE
  5
15AD
330
1565
100
AcDbEntity
  8
Widoczne (ISO)
100
AcDbCircle
 10
-1442.732309833258
 20
52.80051653969803
 30
0.0
 40
9.999999999999991
  0
CIRCLE
  5
15AE
330
1565
100
AcDbEntity
  8
Widoczne (ISO)
100
AcDbCircle
 10
1442.640343868031
 20
52.80051653969713
 30
0.0
 40
9.999999999999991
  0
CIRCLE
  5
15AF
330
1565
100
AcDbEntity
  8
Widoczne (ISO)
100
AcDbCircle
 10
1442.640343868031
 20
-47.19948346030378
 30
0.0
 40
9.999999999999991
  0
LINE
  5
15B0
330
1565
100
AcDbEntity
  8
Widoczne (ISO)
100
AcDbLine
 10
56.95401701738683
 20
55.30051653967894
 30
0.0
 11
-57.04598298261316
 21
55.30051653967894
 31
0.0
  0
LINE
  5
15B1
330
1565
100
AcDbEntity
  8
Widoczne (ISO)
100
AcDbLine
 10
51.95401701738774
 20
57.80051653968531
 30
0.0
 11
56.95401701738683
 21
57.80051653967802
 31
0.0
  0
LINE
  5
15B2
330
1565
100
AcDbEntity
  8
Widoczne (ISO)
100
AcDbLine
 10
-25.50182710532954
 20
57.80051653969349
 30
0.0
 11
25.4098611401032
 21
57.80051653969349
 31
0.0
  0
LINE
  5
15B3
330
1565
100
AcDbEntity
  8
Widoczne (ISO)
100
AcDbLine
 10
-57.04598298261316
 20
57.80051653967802
 30
0.0
 11
-52.04598298261226
 21
57.80051653968531
 31
0.0
  0
LINE
  5
15B4
330
1565
100
AcDbEntity
  8
Widoczne (ISO)
100
AcDbLine
 10
-57.04598298261316
 20
55.30051653967894
 30
0.0
 11
-57.04598298261316
 21
57.80051653967802
 31
0.0
  0
LINE
  5
15B5
330
1565
100
AcDbEntity
  8
Widoczne (ISO)
100
AcDbLine
 10
56.95401701738683
 20
55.30051653967894
 30
0.0
 11
56.95401701738683
 21
57.80051653967802
 31
0.0
  0
LINE
  5
15B6
330
1565
100
AcDbEntity
  8
Widoczne (ISO)
100
AcDbLine
 10
-57.04598298261316
 20
55.30051653967894
 30
0.0
 11
56.95401701738683
 21
55.30051653967894
 31
0.0
  0
LINE
  5
15B7
330
1565
100
AcDbEntity
  8
Widoczne (ISO)
100
AcDbLine
 10
-57.04598298261316
 20
52.80051653967894
 30
0.0
 11
-57.04598298261316
 21
55.30051653967894
 31
0.0
  0
LINE
  5
15B8
330
1565
100
AcDbEntity
  8
Widoczne (ISO)
100
AcDbLine
 10
56.95401701738683
 20
52.80051653967894
 30
0.0
 11
56.95401701738683
 21
55.30051653967894
 31
0.0
  0
LINE
  5
15B9
330
1565
100
AcDbEntity
  8
Widoczne (ISO)
100
AcDbLine
 10
56.95401701738683
 20
-49.69948346032106
 30
0.0
 11
-57.04598298261316
 21
-49.69948346032106
 31
0.0
  0
LINE
  5
15BA
330
1565
100
AcDbEntity
  8
Widoczne (ISO)
100
AcDbLine
 10
-57.04598298261316
 20
-49.69948346032106
 30
0.0
 11
-57.04598298261316
 21
-47.19948346032106
 31
0.0
  0
LINE
  5
15BB
330
1565
100
AcDbEntity
  8
Widoczne (ISO)
100
AcDbLine
 10
56.95401701738683
 20
-49.69948346032106
 30
0.0
 11
56.95401701738683
 21
-47.19948346032106
 31
0.0
  0
LINE
  5
15BC
330
1565
100
AcDbEntity
  8
Widoczne (ISO)
100
AcDbLine
 10
-52.04598298261226
 20
-52.19948346031379
 30
0.0
 11
-57.04598298261316
 21
-52.19948346032106
 31
0.0
  0
LINE
  5
15BD
330
1565
100
AcDbEntity
  8
Widoczne (ISO)
100
AcDbLine
 10
25.4098611401032
 20
-52.1994834603056
 30
0.0
 11
-25.50182710532954
 21
-52.1994834603056
 31
0.0
  0
LINE
  5
15BE
330
1565
100
AcDbEntity
  8
Widoczne (ISO)
100
AcDbLine
 10
56.95401701738683
 20
-52.19948346032106
 30
0.0
 11
51.95401701738774
 21
-52.19948346031379
 31
0.0
  0
LINE
  5
15BF
330
1565
100
AcDbEntity
  8
Widoczne (ISO)
100
AcDbLine
 10
-57.04598298261316
 20
-49.69948346032197
 30
0.0
 11
56.95401701738683
 21
-49.69948346032197
 31
0.0
  0
LINE
  5
15C0
330
1565
100
AcDbEntity
  8
Widoczne (ISO)
100
AcDbLine
 10
-57.04598298261316
 20
-52.19948346032106
 30
0.0
 11
-57.04598298261316
 21
-49.69948346032197
 31
0.0
  0
LINE
  5
15C1
330
1565
100
AcDbEntity
  8
Widoczne (ISO)
100
AcDbLine
 10
56.95401701738683
 20
-52.19948346032106
 30
0.0
 11
56.95401701738683
 21
-49.69948346032197
 31
0.0
  0
LINE
  5
15C2
330
1565
100
AcDbEntity
  8
Widoczne wąskie (ISO)
100
AcDbLine
 10
37.95401701738683
 20
123.800516539678
 30
0.0
 11
-38.04598298261317
 21
123.800516539678
 31
0.0
  0
LINE
  5
15C3
330
1565
100
AcDbEntity
  8
Widoczne (ISO)
100
AcDbLine
 10
-36.04598298261317
 20
125.8005165396789
 30
0.0
 11
35.95401701738592
 21
125.8005165396789
 31
0.0
  0
ARC
  5
15C4
330
1565
100
AcDbEntity
  8
Widoczne (ISO)
100
AcDbCircle
 10
35.95401701738592
 20
123.800516539678
 30
0.0
 40
2.0
100
AcDbArc
 50
0.0
 51
90.0
  0
ARC
  5
15C5
330
1565
100
AcDbEntity
  8
Widoczne (ISO)
100
AcDbCircle
 10
-36.04598298261317
 20
123.800516539678
 30
0.0
 40
2.0
100
AcDbArc
 50
90.0
 51
180.0
  0
LINE
  5
15C6
330
1565
100
AcDbEntity
  8
Widoczne (ISO)
100
AcDbLine
 10
37.95401701738683
 20
122.8005165396789
 30
0.0
 11
-38.04598298261317
 21
122.8005165396789
 31
0.0
  0
LINE
  5
15C7
330
1565
100
AcDbEntity
  8
Widoczne (ISO)
100
AcDbLine
 10
-38.04598298261317
 20
122.8005165396789
 30
0.0
 11
-38.04598298261317
 21
123.800516539678
 31
0.0
  0
LINE
  5
15C8
330
1565
100
AcDbEntity
  8
Widoczne (ISO)
100
AcDbLine
 10
37.95401701738683
 20
122.8005165396789
 30
0.0
 11
37.95401701738683
 21
123.800516539678
 31
0.0
  0
LINE
  5
15C9
330
1565
100
AcDbEntity
  8
Widoczne wąskie (ISO)
100
AcDbLine
 10
-38.04598298261135
 20
-118.199483460321
 30
0.0
 11
37.95401701738865
 21
-118.199483460321
 31
0.0
  0
LINE
  5
15CA
330
1565
100
AcDbEntity
  8
Widoczne (ISO)
100
AcDbLine
 10
35.95401701738774
 20
-120.1994834603219
 30
0.0
 11
-36.04598298261135
 21
-120.1994834603219
 31
0.0
  0
ARC
  5
15CB
330
1565
100
AcDbEntity
  8
Widoczne (ISO)
100
AcDbCircle
 10
-36.04598298261135
 20
-118.199483460321
 30
0.0
 40
2.0
100
AcDbArc
 50
180.0
 51
270.0
  0
ARC
  5
15CC
330
1565
100
AcDbEntity
  8
Widoczne (ISO)
100
AcDbCircle
 10
35.95401701738774
 20
-118.199483460321
 30
0.0
 40
2.0
100
AcDbArc
 50
270.0
 51
0.0
  0
LINE
  5
15CD
330
1565
100
AcDbEntity
  8
Widoczne (ISO)
100
AcDbLine
 10
-38.04598298261135
 20
-117.199483460321
 30
0.0
 11
37.95401701738865
 21
-117.199483460321
 31
0.0
  0
LINE
  5
15CE
330
1565
100
AcDbEntity
  8
Widoczne (ISO)
100
AcDbLine
 10
37.95401701738865
 20
-117.199483460321
 30
0.0
 11
37.95401701738865
 21
-118.199483460321
 31
0.0
  0
LINE
  5
15CF
330
1565
100
AcDbEntity
  8
Widoczne (ISO)
100
AcDbLine
 10
-38.04598298261135
 20
-117.199483460321
 30
0.0
 11
-38.04598298261135
 21
-118.199483460321
 31
0.0
  0
LINE
  5
15D0
330
1565
100
AcDbEntity
  8
Widoczne wąskie (ISO)
100
AcDbLine
 10
-52.04598298261226
 20
93.8005165396953
 30
0.0
 11
-52.04598298261226
 21
97.8005165396935
 31
0.0
  0
LINE
  5
15D1
330
1565
100
AcDbEntity
  8
Widoczne wąskie (ISO)
100
AcDbLine
 10
-52.04598298261226
 20
93.8005165396953
 30
0.0
 11
51.95401701738683
 21
93.8005165396953
 31
0.0
  0
LINE
  5
15D2
330
1565
100
AcDbEntity
  8
Widoczne wąskie (ISO)
100
AcDbLine
 10
51.95401701738683
 20
97.8005165396935
 30
0.0
 11
51.95401701738683
 21
93.8005165396953
 31
0.0
  0
LINE
  5
15D3
330
1565
100
AcDbEntity
  8
Widoczne (ISO)
100
AcDbLine
 10
51.95401701738683
 20
97.8005165396944
 30
0.0
 11
-52.04598298261226
 21
97.8005165396944
 31
0.0
  0
LINE
  5
15D4
330
1565
100
AcDbEntity
  8
Widoczne wąskie (ISO)
100
AcDbLine
 10
-56.04598298261226
 20
89.8005165396953
 30
0.0
 11
-60.04598298261226
 21
89.80051653969439
 31
0.0
  0
ARC
  5
15D5
330
1565
100
AcDbEntity
  8
Widoczne wąskie (ISO)
100
AcDbCircle
 10
-52.04598298261226
 20
89.8005165396953
 30
0.0
 40
4.000000000000003
100
AcDbArc
 50
90.0
 51
180.0
  0
ARC
  5
15D6
330
1565
100
AcDbEntity
  8
Widoczne (ISO)
100
AcDbCircle
 10
-52.04598298261226
 20
89.80051653969439
 30
0.0
 40
8.000000000000015
100
AcDbArc
 50
90.0
 51
180.0
  0
LINE
  5
15D7
330
1565
100
AcDbEntity
  8
Widoczne wąskie (ISO)
100
AcDbLine
 10
59.95401701738774
 20
89.80051653969439
 30
0.0
 11
55.95401701738774
 21
89.8005165396953
 31
0.0
  0
ARC
  5
15D8
330
1565
100
AcDbEntity
  8
Widoczne (ISO)
100
AcDbCircle
 10
51.95401701738683
 20
89.80051653969439
 30
0.0
 40
7.999999999999998
100
AcDbArc
 50
0.0
 51
90.0
  0
ARC
  5
15D9
330
1565
100
AcDbEntity
  8
Widoczne wąskie (ISO)
100
AcDbCircle
 10
51.95401701738683
 20
89.8005165396953
 30
0.0
 40
4.000000000000016
100
AcDbArc
 50
0.0
 51
90.0
  0
LINE
  5
15DA
330
1565
100
AcDbEntity
  8
Widoczne wąskie (ISO)
100
AcDbLine
 10
-56.04598298261226
 20
65.80051653969531
 30
0.0
 11
-60.04598298261226
 21
65.8005165396944
 31
0.0
  0
LINE
  5
15DB
330
1565
100
AcDbEntity
  8
Widoczne wąskie (ISO)
100
AcDbLine
 10
-56.04598298261226
 20
65.80051653969531
 30
0.0
 11
-56.04598298261226
 21
89.8005165396953
 31
0.0
  0
LINE
  5
15DC
330
1565
100
AcDbEntity
  8
Widoczne (ISO)
100
AcDbLine
 10
-60.04598298261226
 20
89.80051653969439
 30
0.0
 11
-60.04598298261226
 21
65.8005165396944
 31
0.0
  0
LINE
  5
15DD
330
1565
100
AcDbEntity
  8
Widoczne wąskie (ISO)
100
AcDbLine
 10
59.95401701738683
 20
65.8005165396944
 30
0.0
 11
55.95401701738774
 21
65.80051653969531
 31
0.0
  0
LINE
  5
15DE
330
1565
100
AcDbEntity
  8
Widoczne (ISO)
100
AcDbLine
 10
59.95401701738683
 20
65.8005165396944
 30
0.0
 11
59.95401701738683
 21
89.80051653969439
 31
0.0
  0
LINE
  5
15DF
330
1565
100
AcDbEntity
  8
Widoczne wąskie (ISO)
100
AcDbLine
 10
55.95401701738774
 20
89.8005165396953
 30
0.0
 11
55.95401701738774
 21
65.80051653969531
 31
0.0
  0
LINE
  5
15E0
330
1565
100
AcDbEntity
  8
Widoczne wąskie (ISO)
100
AcDbLine
 10
-52.04598298261226
 20
61.8005165396944
 30
0.0
 11
-52.04598298261226
 21
57.8005165396944
 31
0.0
  0
ARC
  5
15E1
330
1565
100
AcDbEntity
  8
Widoczne wąskie (ISO)
100
AcDbCircle
 10
-52.04598298261226
 20
65.80051653969531
 30
0.0
 40
4.000000000000012
100
AcDbArc
 50
180.0
 51
270.0
  0
ARC
  5
15E2
330
1565
100
AcDbEntity
  8
Widoczne (ISO)
100
AcDbCircle
 10
-52.04598298261226
 20
65.8005165396944
 30
0.0
 40
7.999999999999998
100
AcDbArc
 50
180.0
 51
270.0
  0
LINE
  5
15E3
330
1565
100
AcDbEntity
  8
Widoczne wąskie (ISO)
100
AcDbLine
 10
51.95401701738683
 20
57.8005165396944
 30
0.0
 11
51.95401701738683
 21
61.8005165396944
 31
0.0
  0
ARC
  5
15E4
330
1565
100
AcDbEntity
  8
Widoczne (ISO)
100
AcDbCircle
 10
51.95401701738683
 20
65.8005165396944
 30
0.0
 40
8.000000000000015
100
AcDbArc
 50
270.0
 51
0.0
  0
ARC
  5
15E5
330
1565
100
AcDbEntity
  8
Widoczne wąskie (ISO)
100
AcDbCircle
 10
51.95401701738683
 20
65.80051653969531
 30
0.0
 40
4.000000000000003
100
AcDbArc
 50
270.0
 51
0.0
  0
LINE
  5
15E6
330
1565
100
AcDbEntity
  8
Widoczne (ISO)
100
AcDbLine
 10
-52.04598298261226
 20
57.8005165396944
 30
0.0
 11
-25.50182710532954
 21
57.8005165396944
 31
0.0
  0
LINE
  5
15E7
330
1565
100
AcDbEntity
  8
Widoczne (ISO)
100
AcDbLine
 10
25.4098611401032
 20
57.8005165396944
 30
0.0
 11
51.95401701738683
 21
57.8005165396944
 31
0.0
  0
LINE
  5
15E8
330
1565
100
AcDbEntity
  8
Widoczne wąskie (ISO)
100
AcDbLine
 10
51.95401701738683
 20
61.80051653969531
 30
0.0
 11
-52.04598298261226
 21
61.80051653969531
 31
0.0
  0
LINE
  5
15E9
330
1565
100
AcDbEntity
  8
Widoczne wąskie (ISO)
100
AcDbLine
 10
51.95401701738683
 20
-88.1994834603056
 30
0.0
 11
51.95401701738683
 21
-92.19948346030561
 31
0.0
  0
LINE
  5
15EA
330
1565
100
AcDbEntity
  8
Widoczne wąskie (ISO)
100
AcDbLine
 10
51.95401701738683
 20
-88.1994834603047
 30
0.0
 11
-52.04598298261226
 21
-88.1994834603047
 31
0.0
  0
LINE
  5
15EB
330
1565
100
AcDbEntity
  8
Widoczne wąskie (ISO)
100
AcDbLine
 10
-52.04598298261226
 20
-92.19948346030561
 30
0.0
 11
-52.04598298261226
 21
-88.1994834603056
 31
0.0
  0
LINE
  5
15EC
330
1565
100
AcDbEntity
  8
Widoczne (ISO)
100
AcDbLine
 10
-52.04598298261226
 20
-92.19948346030561
 30
0.0
 11
51.95401701738683
 21
-92.19948346030561
 31
0.0
  0
LINE
  5
15ED
330
1565
100
AcDbEntity
  8
Widoczne wąskie (ISO)
100
AcDbLine
 10
55.95401701738774
 20
-84.19948346030469
 30
0.0
 11
59.95401701738683
 21
-84.1994834603056
 31
0.0
  0
ARC
  5
15EE
330
1565
100
AcDbEntity
  8
Widoczne wąskie (ISO)
100
AcDbCircle
 10
51.95401701738683
 20
-84.19948346030469
 30
0.0
 40
4.000000000000003
100
AcDbArc
 50
270.0
 51
0.0
  0
ARC
  5
15EF
330
1565
100
AcDbEntity
  8
Widoczne (ISO)
100
AcDbCircle
 10
51.95401701738683
 20
-84.1994834603056
 30
0.0
 40
8.000000000000015
100
AcDbArc
 50
270.0
 51
0.0
  0
LINE
  5
15F0
330
1565
100
AcDbEntity
  8
Widoczne wąskie (ISO)
100
AcDbLine
 10
-60.04598298261317
 20
-84.1994834603056
 30
0.0
 11
-56.04598298261226
 21
-84.19948346030469
 31
0.0
  0
ARC
  5
15F1
330
1565
100
AcDbEntity
  8
Widoczne (ISO)
100
AcDbCircle
 10
-52.04598298261226
 20
-84.1994834603056
 30
0.0
 40
7.999999999999998
100
AcDbArc
 50
180.0
 51
270.0
  0
ARC
  5
15F2
330
1565
100
AcDbEntity
  8
Widoczne wąskie (ISO)
100
AcDbCircle
 10
-52.04598298261226
 20
-84.19948346030469
 30
0.0
 40
4.000000000000016
100
AcDbArc
 50
180.0
 51
270.0
  0
LINE
  5
15F3
330
1565
100
AcDbEntity
  8
Widoczne wąskie (ISO)
100
AcDbLine
 10
55.95401701738774
 20
-60.19948346030469
 30
0.0
 11
59.95401701738683
 21
-60.1994834603056
 31
0.0
  0
LINE
  5
15F4
330
1565
100
AcDbEntity
  8
Widoczne wąskie (ISO)
100
AcDbLine
 10
55.95401701738774
 20
-60.19948346030469
 30
0.0
 11
55.95401701738774
 21
-84.19948346030469
 31
0.0
  0
LINE
  5
15F5
330
1565
100
AcDbEntity
  8
Widoczne (ISO)
100
AcDbLine
 10
59.95401701738683
 20
-84.1994834603056
 30
0.0
 11
59.95401701738683
 21
-60.1994834603056
 31
0.0
  0
LINE
  5
15F6
330
1565
100
AcDbEntity
  8
Widoczne wąskie (ISO)
100
AcDbLine
 10
-60.04598298261226
 20
-60.1994834603056
 30
0.0
 11
-56.04598298261226
 21
-60.19948346030469
 31
0.0
  0
LINE
  5
15F7
330
1565
100
AcDbEntity
  8
Widoczne (ISO)
100
AcDbLine
 10
-60.04598298261226
 20
-60.1994834603056
 30
0.0
 11
-60.04598298261226
 21
-84.1994834603056
 31
0.0
  0
LINE
  5
15F8
330
1565
100
AcDbEntity
  8
Widoczne wąskie (ISO)
100
AcDbLine
 10
-56.04598298261226
 20
-84.19948346030469
 30
0.0
 11
-56.04598298261226
 21
-60.19948346030469
 31
0.0
  0
LINE
  5
15F9
330
1565
100
AcDbEntity
  8
Widoczne wąskie (ISO)
100
AcDbLine
 10
51.95401701738683
 20
-56.1994834603056
 30
0.0
 11
51.95401701738683
 21
-52.19948346030651
 31
0.0
  0
ARC
  5
15FA
330
1565
100
AcDbEntity
  8
Widoczne wąskie (ISO)
100
AcDbCircle
 10
51.95401701738683
 20
-60.19948346030469
 30
0.0
 40
4.000000000000012
100
AcDbArc
 50
0.0
 51
90.0
  0
ARC
  5
15FB
330
1565
100
AcDbEntity
  8
Widoczne (ISO)
100
AcDbCircle
 10
51.95401701738683
 20
-60.1994834603056
 30
0.0
 40
7.999999999999998
100
AcDbArc
 50
0.0
 51
90.0
  0
LINE
  5
15FC
330
1565
100
AcDbEntity
  8
Widoczne wąskie (ISO)
100
AcDbLine
 10
-52.04598298261226
 20
-52.19948346030651
 30
0.0
 11
-52.04598298261226
 21
-56.1994834603056
 31
0.0
  0
ARC
  5
15FD
330
1565
100
AcDbEntity
  8
Widoczne (ISO)
100
AcDbCircle
 10
-52.04598298261226
 20
-60.1994834603056
 30
0.0
 40
8.000000000000015
100
AcDbArc
 50
90.0
 51
180.0
  0
ARC
  5
15FE
330
1565
100
AcDbEntity
  8
Widoczne wąskie (ISO)
100
AcDbCircle
 10
-52.04598298261226
 20
-60.19948346030469
 30
0.0
 40
4.000000000000003
100
AcDbArc
 50
90.0
 51
180.0
  0
LINE
  5
15FF
330
1565
100
AcDbEntity
  8
Widoczne (ISO)
100
AcDbLine
 10
51.95401701738683
 20
-52.1994834603056
 30
0.0
 11
25.40986114010229
 21
-52.1994834603056
 31
0.0
  0
LINE
  5
1600
330
1565
100
AcDbEntity
  8
Widoczne (ISO)
100
AcDbLine
 10
-25.50182710532954
 20
-52.1994834603056
 30
0.0
 11
-52.04598298261226
 21
-52.1994834603056
 31
0.0
  0
LINE
  5
1601
330
1565
100
AcDbEntity
  8
Widoczne wąskie (ISO)
100
AcDbLine
 10
-52.04598298261226
 20
-56.19948346030469
 30
0.0
 11
51.95401701738683
 21
-56.19948346030469
 31
0.0
  0
ARC
  5
1602
330
1565
100
AcDbEntity
  8
Widoczne (ISO)
100
AcDbCircle
 10
-1585.045982982612
 20
-162.1994834604684
 30
0.0
 40
1000.0
100
AcDbArc
 50
180.0
 51
270.0
  0
LINE
  5
1603
330
1565
100
AcDbEntity
  8
Widoczne (ISO)
100
AcDbLine
 10
-1585.045982982612
 20
-1162.199483460467
 30
0.0
 11
1584.954017017388
 21
-1162.199483460469
 31
0.0
  0
ARC
  5
1604
330
1565
100
AcDbEntity
  8
Widoczne (ISO)
100
AcDbCircle
 10
1584.954017017388
 20
-162.1994834604684
 30
0.0
 40
1000.0
100
AcDbArc
 50
270.0
 51
0.0
  0
LINE
  5
1605
330
1565
100
AcDbEntity
  8
Widoczne (ISO)
100
AcDbLine
 10
2584.954017017388
 20
-162.1994834604693
 30
0.0
 11
2584.954017017388
 21
167.8005165395298
 31
0.0
  0
ARC
  5
1606
330
1565
100
AcDbEntity
  8
Widoczne (ISO)
100
AcDbCircle
 10
1584.954017017388
 20
167.8005165395298
 30
0.0
 40
999.9999999999998
100
AcDbArc
 50
0.0
 51
90.0
  0
LINE
  5
1607
330
1565
100
AcDbEntity
  8
Widoczne (ISO)
100
AcDbLine
 10
1584.954017017388
 20
1167.800516539528
 30
0.0
 11
-1585.045982982612
 21
1167.800516539529
 31
0.0
  0
ARC
  5
1608
330
1565
100
AcDbEntity
  8
Widoczne (ISO)
100
AcDbCircle
 10
-1585.045982982611
 20
167.8005165395298
 30
0.0
 40
1000.0
100
AcDbArc
 50
90.0
 51
180.0
  0
LINE
  5
1609
330
1565
100
AcDbEntity
  8
Widoczne (ISO)
100
AcDbLine
 10
-2585.045982982612
 20
167.8005165395307
 30
0.0
 11
-2585.045982982612
 21
-162.1994834604684
 31
0.0
  0
ENDBLK
  5
1567
330
1565
100
AcDbEntity
  8
0
100
AcDbBlockEnd
  0
BLOCK
  5
160C
330
160B
100
AcDbEntity
  8
0
100
AcDbBlockBegin
  2
2236_Hustawka-wagowa
 70
     0
 10
0.0
 20
0.0
 30
0.0
  3
2236_Hustawka-wagowa
  1

  0
LINE
  5
160E
330
160B
100
AcDbEntity
  8
Widoczne (ISO)
100
AcDbLine
 10
38.0
 20
-120.0000000000118
 30
0.0
 11
-37.99999999999818
 21
-120.0000000000118
 31
0.0
  0
LINE
  5
160F
330
160B
100
AcDbEntity
  8
Widoczne (ISO)
100
AcDbLine
 10
-37.99999999999818
 20
-120.0000000000118
 30
0.0
 11
-37.99999999999818
 21
-95.00000000001183
 31
0.0
  0
LINE
  5
1610
330
160B
100
AcDbEntity
  8
Widoczne (ISO)
100
AcDbLine
 10
38.00000000000182
 20
-120.0000000000118
 30
0.0
 11
38.00000000000182
 21
-95.00000000001183
 31
0.0
  0
LINE
  5
1611
330
160B
100
AcDbEntity
  8
Widoczne (ISO)
100
AcDbLine
 10
-38.0
 20
119.9999999999882
 30
0.0
 11
38.0
 21
119.9999999999882
 31
0.0
  0
LINE
  5
1612
330
160B
100
AcDbEntity
  8
Widoczne (ISO)
100
AcDbLine
 10
38.0
 20
119.9999999999882
 30
0.0
 11
38.0
 21
94.99999999998818
 31
0.0
  0
LINE
  5
1613
330
160B
100
AcDbEntity
  8
Widoczne (ISO)
100
AcDbLine
 10
-38.0
 20
119.9999999999882
 30
0.0
 11
-38.0
 21
94.99999999998818
 31
0.0
  0
LINE
  5
1614
330
160B
100
AcDbEntity
  8
Widoczne (ISO)
100
AcDbLine
 10
-56.99999999999818
 20
52.49999999998817
 30
0.0
 11
57.00000000000182
 21
52.49999999998817
 31
0.0
  0
LINE
  5
1615
330
160B
100
AcDbEntity
  8
Widoczne (ISO)
100
AcDbLine
 10
57.00000000000182
 20
52.49999999998817
 30
0.0
 11
57.00000000000182
 21
49.99999999998727
 31
0.0
  0
LINE
  5
1616
330
160B
100
AcDbEntity
  8
Widoczne (ISO)
100
AcDbLine
 10
-56.99999999999818
 20
52.49999999998817
 30
0.0
 11
-56.99999999999818
 21
49.99999999998727
 31
0.0
  0
LINE
  5
1617
330
160B
100
AcDbEntity
  8
Widoczne (ISO)
100
AcDbLine
 10
57.00000000000182
 20
-52.50000000001183
 30
0.0
 11
-56.99999999999818
 21
-52.50000000001183
 31
0.0
  0
LINE
  5
1618
330
160B
100
AcDbEntity
  8
Widoczne (ISO)
100
AcDbLine
 10
57.00000000000182
 20
-50.00000000001183
 30
0.0
 11
57.00000000000182
 21
-52.50000000001183
 31
0.0
  0
LINE
  5
1619
330
160B
100
AcDbEntity
  8
Widoczne (ISO)
100
AcDbLine
 10
-56.99999999999818
 20
-50.00000000001183
 30
0.0
 11
-56.99999999999818
 21
-52.50000000001183
 31
0.0
  0
LINE
  5
161A
330
160B
100
AcDbEntity
  8
Widoczne (ISO)
100
AcDbLine
 10
52.0
 20
54.99999999999454
 30
0.0
 11
57.00000000000182
 21
54.99999999998817
 31
0.0
  0
LINE
  5
161B
330
160B
100
AcDbEntity
  8
Widoczne (ISO)
100
AcDbLine
 10
-25.45584412271455
 20
55.00000000000364
 30
0.0
 11
25.45584412271637
 21
55.00000000000364
 31
0.0
  0
LINE
  5
161C
330
160B
100
AcDbEntity
  8
Widoczne (ISO)
100
AcDbLine
 10
-56.99999999999818
 20
54.99999999998817
 30
0.0
 11
-52.0
 21
54.99999999999454
 31
0.0
  0
LINE
  5
161D
330
160B
100
AcDbEntity
  8
Widoczne (ISO)
100
AcDbLine
 10
57.00000000000182
 20
52.49999999998727
 30
0.0
 11
-56.99999999999818
 21
52.49999999998727
 31
0.0
  0
LINE
  5
161E
330
160B
100
AcDbEntity
  8
Widoczne (ISO)
100
AcDbLine
 10
57.00000000000182
 20
54.99999999998817
 30
0.0
 11
57.00000000000182
 21
52.49999999998727
 31
0.0
  0
LINE
  5
161F
330
160B
100
AcDbEntity
  8
Widoczne (ISO)
100
AcDbLine
 10
-56.99999999999818
 20
54.99999999998817
 30
0.0
 11
-56.99999999999818
 21
52.49999999998727
 31
0.0
  0
LINE
  5
1620
330
160B
100
AcDbEntity
  8
Widoczne (ISO)
100
AcDbLine
 10
-56.99999999999818
 20
-52.50000000001183
 30
0.0
 11
57.00000000000182
 21
-52.50000000001183
 31
0.0
  0
LINE
  5
1621
330
160B
100
AcDbEntity
  8
Widoczne (ISO)
100
AcDbLine
 10
-52.0
 20
-55.00000000000546
 30
0.0
 11
-56.99999999999818
 21
-55.00000000001183
 31
0.0
  0
LINE
  5
1622
330
160B
100
AcDbEntity
  8
Widoczne (ISO)
100
AcDbLine
 10
25.45584412271637
 20
-54.99999999999636
 30
0.0
 11
-25.45584412271637
 21
-54.99999999999636
 31
0.0
  0
LINE
  5
1623
330
160B
100
AcDbEntity
  8
Widoczne (ISO)
100
AcDbLine
 10
57.00000000000182
 20
-55.00000000001183
 30
0.0
 11
52.0
 21
-55.00000000000546
 31
0.0
  0
LINE
  5
1624
330
160B
100
AcDbEntity
  8
Widoczne (ISO)
100
AcDbLine
 10
57.00000000000182
 20
-52.50000000001183
 30
0.0
 11
57.00000000000182
 21
-55.00000000001183
 31
0.0
  0
LINE
  5
1625
330
160B
100
AcDbEntity
  8
Widoczne (ISO)
100
AcDbLine
 10
-56.99999999999818
 20
-52.50000000001183
 30
0.0
 11
-56.99999999999818
 21
-55.00000000001183
 31
0.0
  0
LINE
  5
1626
330
160B
100
AcDbEntity
  8
Widoczne (ISO)
100
AcDbLine
 10
-57.14999999999782
 20
49.99999999998817
 30
0.0
 11
57.15000000000145
 21
49.99999999998817
 31
0.0
  0
LINE
  5
1627
330
160B
100
AcDbEntity
  8
Widoczne (ISO)
100
AcDbLine
 10
57.15000000000145
 20
-50.00000000001183
 30
0.0
 11
-57.14999999999782
 21
-50.00000000001183
 31
0.0
  0
LINE
  5
1628
330
160B
100
AcDbEntity
  8
Widoczne (ISO)
100
AcDbLine
 10
57.15000000000145
 20
49.99999999998817
 30
0.0
 11
57.15000000000145
 21
19.99999999998818
 31
0.0
  0
LINE
  5
1629
330
160B
100
AcDbEntity
  8
Widoczne (ISO)
100
AcDbLine
 10
57.15000000000145
 20
-20.00000000001183
 30
0.0
 11
57.15000000000145
 21
-50.00000000001183
 31
0.0
  0
LINE
  5
162A
330
160B
100
AcDbEntity
  8
Widoczne (ISO)
100
AcDbLine
 10
-57.14999999999782
 20
49.99999999998817
 30
0.0
 11
-57.14999999999782
 21
19.99999999998818
 31
0.0
  0
LINE
  5
162B
330
160B
100
AcDbEntity
  8
Widoczne (ISO)
100
AcDbLine
 10
-57.14999999999782
 20
-20.00000000001183
 30
0.0
 11
-57.14999999999782
 21
-50.00000000001183
 31
0.0
  0
SPLINE
  5
162C
330
160B
100
AcDbEntity
  8
Widoczne (ISO)
100
AcDbSpline
210
0.0
220
0.0
230
1.0
 70
     8
 71
     3
 72
    14
 73
    10
 74
     0
 42
0.0000000001
 43
0.0000000001
 40
2.043709856685268
 40
2.043709856685268
 40
2.043709856685268
 40
2.043709856685268
 40
2.270278810834351
 40
2.270278810834351
 40
2.496847764983433
 40
2.496847764983433
 40
2.79415968152781
 40
2.79415968152781
 40
3.091471598072187
 40
3.091471598072187
 40
3.091471598072187
 40
3.091471598072187
 10
40.81816384895501
 20
-14.0
 30
0.0
 10
40.81816384895501
 20
-14.75522984716372
 30
0.0
 10
40.96748421440679
 20
-15.53258250504313
 30
0.0
 10
41.49980586393212
 20
-16.92056326416605
 30
0.0
 10
41.87917401728372
 20
-17.5331758898501
 30
0.0
 10
42.78693474166721
 20
-18.64222869816603
 30
0.0
 10
43.40946209951653
 20
-19.15445848589024
 30
0.0
 10
44.68942434939345
 20
-19.83399738551725
 30
0.0
 10
45.34647477051294
 20
-20.00000000000182
 30
0.0
 10
45.93606970562541
 20
-20.00000000000182
 30
0.0
  0
LINE
  5
162D
330
160B
100
AcDbEntity
  8
Widoczne (ISO)
100
AcDbLine
 10
40.81816384895501
 20
14.0
 30
0.0
 11
40.81816384895501
 21
-14.0
 31
0.0
  0
SPLINE
  5
162E
330
160B
100
AcDbEntity
  8
Widoczne (ISO)
100
AcDbSpline
210
0.0
220
0.0
230
1.0
 70
     8
 71
     3
 72
    14
 73
    10
 74
     0
 42
0.0000000001
 43
0.0000000001
 40
0.9959481152983499
 40
0.9959481152983499
 40
0.9959481152983499
 40
0.9959481152983499
 40
1.293260031842726
 40
1.293260031842726
 40
1.590571948387103
 40
1.590571948387103
 40
1.817140902536185
 40
1.817140902536185
 40
2.043709856685268
 40
2.043709856685268
 40
2.043709856685268
 40
2.043709856685268
 10
45.93606970562541
 20
19.99999999999818
 30
0.0
 10
45.34647477051294
 20
19.99999999999818
 30
0.0
 10
44.68942434939527
 20
19.83399738551452
 30
0.0
 10
43.40946209951653
 20
19.15445848588842
 30
0.0
 10
42.78693474166721
 20
18.64222869816513
 30
0.0
 10
41.87917401728372
 20
17.53317588984919
 30
0.0
 10
41.49980586393212
 20
16.92056326416514
 30
0.0
 10
40.96748421440679
 20
15.53258250504223
 30
0.0
 10
40.81816384895501
 20
14.75522984716372
 30
0.0
 10
40.81816384895501
 20
14.0
 30
0.0
  0
LINE
  5
162F
330
160B
100
AcDbEntity
  8
Widoczne (ISO)
100
AcDbLine
 10
45.93606970562541
 20
-20.00000000000182
 30
0.0
 11
1072.213502449252
 21
-20.00000000000182
 31
0.0
  0
LINE
  5
1630
330
160B
100
AcDbEntity
  8
Widoczne (ISO)
100
AcDbLine
 10
1092.225225859556
 20
-20.00000000000182
 30
0.0
 11
1150.471293082086
 21
-20.00000000000182
 31
0.0
  0
LINE
  5
1631
330
160B
100
AcDbEntity
  8
Widoczne (ISO)
100
AcDbLine
 10
1170.483016492389
 20
-20.00000000000182
 30
0.0
 11
1261.631178021012
 21
-20.00000000000182
 31
0.0
  0
LINE
  5
1632
330
160B
100
AcDbEntity
  8
Widoczne wąskie (ISO)
100
AcDbLine
 10
40.81816384895501
 20
-14.0
 30
0.0
 11
1072.042231764775
 21
-14.0
 31
0.0
  0
LINE
  5
1633
330
160B
100
AcDbEntity
  8
Widoczne wąskie (ISO)
100
AcDbLine
 10
1092.047926217156
 20
-14.0
 30
0.0
 11
1150.648592724488
 21
-14.0
 31
0.0
  0
LINE
  5
1634
330
160B
100
AcDbEntity
  8
Widoczne wąskie (ISO)
100
AcDbLine
 10
1170.654287176869
 20
-14.0
 30
0.0
 11
1260.850321479145
 21
-14.0
 31
0.0
  0
LINE
  5
1635
330
160B
100
AcDbEntity
  8
Widoczne (ISO)
100
AcDbLine
 10
45.93606970562541
 20
19.99999999999818
 30
0.0
 11
1072.213502449252
 21
19.99999999999818
 31
0.0
  0
LINE
  5
1636
330
160B
100
AcDbEntity
  8
Widoczne (ISO)
100
AcDbLine
 10
1092.225225859556
 20
19.99999999999818
 30
0.0
 11
1150.471293082086
 21
19.99999999999818
 31
0.0
  0
LINE
  5
1637
330
160B
100
AcDbEntity
  8
Widoczne (ISO)
100
AcDbLine
 10
1170.483016492389
 20
19.99999999999818
 30
0.0
 11
1261.631178021012
 21
19.99999999999818
 31
0.0
  0
LINE
  5
1638
330
160B
100
AcDbEntity
  8
Widoczne wąskie (ISO)
100
AcDbLine
 10
40.81816384895501
 20
14.0
 30
0.0
 11
1072.042231764775
 21
14.0
 31
0.0
  0
LINE
  5
1639
330
160B
100
AcDbEntity
  8
Widoczne wąskie (ISO)
100
AcDbLine
 10
1092.047926217156
 20
14.0
 30
0.0
 11
1150.648592724488
 21
14.0
 31
0.0
  0
LINE
  5
163A
330
160B
100
AcDbEntity
  8
Widoczne wąskie (ISO)
100
AcDbLine
 10
1170.654287176869
 20
14.0
 30
0.0
 11
1260.850321479145
 21
14.0
 31
0.0
  0
SPLINE
  5
163B
330
160B
100
AcDbEntity
  8
Widoczne (ISO)
100
AcDbSpline
210
0.0
220
0.0
230
1.0
 70
     8
 71
     3
 72
    14
 73
    10
 74
     0
 42
0.0000000001
 43
0.0000000001
 40
2.043709856685268
 40
2.043709856685268
 40
2.043709856685268
 40
2.043709856685268
 40
2.270278810834351
 40
2.270278810834351
 40
2.496847764983433
 40
2.496847764983433
 40
2.79415968152781
 40
2.79415968152781
 40
3.091471598072187
 40
3.091471598072187
 40
3.091471598072187
 40
3.091471598072187
 10
-40.81816384895136
 20
14.0
 30
0.0
 10
-40.81816384895136
 20
14.75522984716372
 30
0.0
 10
-40.96748421440316
 20
15.53258250504313
 30
0.0
 10
-41.49980586392849
 20
16.92056326416514
 30
0.0
 10
-41.87917401728009
 20
17.53317588984919
 30
0.0
 10
-42.78693474166357
 20
18.64222869816513
 30
0.0
 10
-43.40946209951289
 20
19.15445848588842
 30
0.0
 10
-44.68942434939163
 20
19.83399738551452
 30
0.0
 10
-45.34647477051112
 20
19.99999999999818
 30
0.0
 10
-45.93606970562177
 20
19.99999999999818
 30
0.0
  0
LINE
  5
163C
330
160B
100
AcDbEntity
  8
Widoczne (ISO)
100
AcDbLine
 10
-40.81816384895136
 20
-14.0
 30
0.0
 11
-40.81816384895136
 21
14.0
 31
0.0
  0
SPLINE
  5
163D
330
160B
100
AcDbEntity
  8
Widoczne (ISO)
100
AcDbSpline
210
0.0
220
0.0
230
1.0
 70
     8
 71
     3
 72
    14
 73
    10
 74
     0
 42
0.0000000001
 43
0.0000000001
 40
0.9959481152983499
 40
0.9959481152983499
 40
0.9959481152983499
 40
0.9959481152983499
 40
1.293260031842726
 40
1.293260031842726
 40
1.590571948387103
 40
1.590571948387103
 40
1.817140902536185
 40
1.817140902536185
 40
2.043709856685268
 40
2.043709856685268
 40
2.043709856685268
 40
2.043709856685268
 10
-45.93606970562177
 20
-20.00000000000182
 30
0.0
 10
-45.34647477051112
 20
-20.00000000000182
 30
0.0
 10
-44.68942434939163
 20
-19.83399738551725
 30
0.0
 10
-43.40946209951289
 20
-19.15445848589024
 30
0.0
 10
-42.78693474166357
 20
-18.64222869816603
 30
0.0
 10
-41.87917401728009
 20
-17.5331758898501
 30
0.0
 10
-41.49980586392849
 20
-16.92056326416514
 30
0.0
 10
-40.96748421440316
 20
-15.53258250504313
 30
0.0
 10
-40.81816384895136
 20
-14.75522984716372
 30
0.0
 10
-40.81816384895136
 20
-14.0
 30
0.0
  0
LINE
  5
163E
330
160B
100
AcDbEntity
  8
Widoczne (ISO)
100
AcDbLine
 10
-45.93606970562359
 20
19.99999999999818
 30
0.0
 11
-1072.213502449249
 21
19.99999999999818
 31
0.0
  0
LINE
  5
163F
330
160B
100
AcDbEntity
  8
Widoczne (ISO)
100
AcDbLine
 10
-1092.225225859553
 20
19.99999999999818
 30
0.0
 11
-1150.471293082084
 21
19.99999999999818
 31
0.0
  0
LINE
  5
1640
330
160B
100
AcDbEntity
  8
Widoczne (ISO)
100
AcDbLine
 10
-1170.483016492388
 20
19.99999999999818
 30
0.0
 11
-1261.631178021009
 21
19.99999999999818
 31
0.0
  0
LINE
  5
1641
330
160B
100
AcDbEntity
  8
Widoczne wąskie (ISO)
100
AcDbLine
 10
-40.81816384895136
 20
14.0
 30
0.0
 11
-1072.042231764771
 21
14.0
 31
0.0
  0
LINE
  5
1642
330
160B
100
AcDbEntity
  8
Widoczne wąskie (ISO)
100
AcDbLine
 10
-1092.047926217152
 20
14.0
 30
0.0
 11
-1150.648592724485
 21
14.0
 31
0.0
  0
LINE
  5
1643
330
160B
100
AcDbEntity
  8
Widoczne wąskie (ISO)
100
AcDbLine
 10
-1170.654287176865
 20
14.0
 30
0.0
 11
-1260.850321479141
 21
14.0
 31
0.0
  0
LINE
  5
1644
330
160B
100
AcDbEntity
  8
Widoczne (ISO)
100
AcDbLine
 10
-45.93606970562359
 20
-20.00000000000182
 30
0.0
 11
-1072.213502449249
 21
-20.00000000000182
 31
0.0
  0
LINE
  5
1645
330
160B
100
AcDbEntity
  8
Widoczne (ISO)
100
AcDbLine
 10
-1092.225225859553
 20
-20.00000000000182
 30
0.0
 11
-1150.471293082084
 21
-20.00000000000182
 31
0.0
  0
LINE
  5
1646
330
160B
100
AcDbEntity
  8
Widoczne (ISO)
100
AcDbLine
 10
-1170.483016492388
 20
-20.00000000000182
 30
0.0
 11
-1261.631178021009
 21
-20.00000000000182
 31
0.0
  0
LINE
  5
1647
330
160B
100
AcDbEntity
  8
Widoczne wąskie (ISO)
100
AcDbLine
 10
-40.81816384895136
 20
-14.0
 30
0.0
 11
-1072.042231764771
 21
-14.0
 31
0.0
  0
LINE
  5
1648
330
160B
100
AcDbEntity
  8
Widoczne wąskie (ISO)
100
AcDbLine
 10
-1092.047926217152
 20
-14.0
 30
0.0
 11
-1150.648592724485
 21
-14.0
 31
0.0
  0
LINE
  5
1649
330
160B
100
AcDbEntity
  8
Widoczne wąskie (ISO)
100
AcDbLine
 10
-1170.654287176865
 20
-14.0
 30
0.0
 11
-1260.850321479141
 21
-14.0
 31
0.0
  0
SPLINE
  5
164A
330
160B
100
AcDbEntity
  8
Widoczne (ISO)
100
AcDbSpline
210
0.0
220
0.0
230
1.0
 70
    11
 71
     3
 72
    48
 73
    44
 74
     0
 42
0.0000000001
 43
0.0000000001
 40
0.0
 40
0.0
 40
0.0
 40
0.0
 40
0.1767957152850295
 40
0.1767957152850295
 40
0.4368922378757755
 40
0.4368922378757755
 40
0.8058300986573097
 40
0.8058300986573097
 40
1.142148611261259
 40
1.142148611261259
 40
1.469617201985668
 40
1.469617201985668
 40
1.79479096632619
 40
1.79479096632619
 40
2.120434222995439
 40
2.120434222995439
 40
2.44991113550019
 40
2.44991113550019
 40
2.792917631790019
 40
2.792917631790019
 40
2.976896888478732
 40
2.976896888478732
 40
3.22667133790021
 40
3.22667133790021
 40
3.423221828912367
 40
3.423221828912367
 40
3.767123552695378
 40
3.767123552695378
 40
4.115549653030436
 40
4.115549653030436
 40
4.446090742877596
 40
4.446090742877596
 40
4.771990769435281
 40
4.771990769435281
 40
5.097089025022635
 40
5.097089025022635
 40
5.424027396087912
 40
5.424027396087912
 40
5.758099594259794
 40
5.758099594259794
 40
6.117230094348061
 40
6.117230094348061
 40
6.283185307179586
 40
6.283185307179586
 40
6.283185307179586
 40
6.283185307179586
 10
1121.348259470822
 20
162.5000000000473
 30
0.0
 10
1116.745268846953
 20
162.5000000000491
 30
0.0
 10
1112.32496364026
 20
160.8371952615052
 30
0.0
 10
1103.430218095298
 20
154.697211794386
 30
0.0
 10
1099.466401537527
 20
149.4564101942342
 30
0.0
 10
1090.843687963639
 20
133.8983711436031
 30
0.0
 10
1086.66983646058
 20
122.1079375100089
 30
0.0
 10
1079.978636305392
 20
95.17649069165418
 30
0.0
 10
1077.398239105869
 20
80.45285540793065
 30
0.0
 10
1073.688169292392
 20
49.08508863738643
 30
0.0
 10
1072.526331929539
 20
32.51250148609961
 30
0.0
 10
1071.644098827202
 20
-1.062084109839815
 30
0.0
 10
1071.914125429386
 20
-18.05257716847973
 30
0.0
 10
1073.850739270838
 20
-50.89684246116121
 30
0.0
 10
1075.518021542586
 20
-66.74102667192437
 30
0.0
 10
1080.139233091071
 20
-95.8869346447882
 30
0.0
 10
1083.099873000257
 20
-109.1443137045617
 30
0.0
 10
1090.301621316605
 20
-132.1884064785481
 30
0.0
 10
1094.499972239333
 20
-141.7957285254015
 30
0.0
 10
1102.515251305882
 20
-153.0536941568844
 30
0.0
 10
1105.635243953387
 20
-156.3860200159497
 30
0.0
 10
1114.684883295474
 20
-162.1972654564715
 30
0.0
 10
1121.781514073591
 20
-163.4397434323518
 30
0.0
 10
1132.592968908886
 20
-159.8772152419851
 30
0.0
 10
1136.473650748883
 20
-156.845059340977
 30
0.0
 10
1145.539691694543
 20
-146.7106494948002
 30
0.0
 10
1149.94628348273
 20
-137.9557364826178
 30
0.0
 10
1157.851087520886
 20
-115.8956259346914
 30
0.0
 10
1161.19306267898
 20
-102.511211274149
 30
0.0
 10
1166.357501899272
 20
-73.14599982097388
 30
0.0
 10
1168.236175527032
 20
-57.35080041095717
 30
0.0
 10
1170.551627353288
 20
-24.5539654675822
 30
0.0
 10
1171.006648705915
 20
-7.580914408321405
 30
0.0
 10
1170.487762863151
 20
26.01617148038804
 30
0.0
 10
1169.517698550619
 20
42.63343680554953
 30
0.0
 10
1166.230814027403
 20
74.00018905364959
 30
0.0
 10
1163.909581102158
 20
88.72943841328106
 30
0.0
 10
1158.023658419932
 20
115.0999689995406
 30
0.0
 10
1154.457431186263
 20
126.6485018310395
 30
0.0
 10
1145.7566362777
 20
146.1241596748186
 30
0.0
 10
1140.775199052641
 20
153.9635386560658
 30
0.0
 10
1129.847948418297
 20
161.0351499597454
 30
0.0
 10
1125.669010612408
 20
162.5000000000445
 30
0.0
 10
1121.348259470822
 20
162.5000000000473
 30
0.0
  0
SPLINE
  5
164B
330
160B
100
AcDbEntity
  8
Widoczne (ISO)
100
AcDbSpline
210
0.0
220
0.0
230
1.0
 70
    11
 71
     3
 72
    50
 73
    46
 74
     0
 42
0.0000000001
 43
0.0000000001
 40
0.0
 40
0.0
 40
0.0
 40
0.0
 40
0.3141592653589793
 40
0.3141592653589793
 40
0.5680100392127346
 40
0.5680100392127346
 40
0.8559051302456399
 40
0.8559051302456399
 40
1.162016267999103
 40
1.162016267999103
 40
1.474807574383523
 40
1.474807574383523
 40
1.789628645958865
 40
1.789628645958865
 40
2.103999459104344
 40
2.103999459104344
 40
2.414911601461051
 40
2.414911601461051
 40
2.715090704639351
 40
2.715090704639351
 40
2.9853948445764
 40
2.9853948445764
 40
3.254810616142236
 40
3.254810616142236
 40
3.571041045400316
 40
3.571041045400316
 40
3.841774119365897
 40
3.841774119365897
 40
4.140352765957591
 40
4.140352765957591
 40
4.450483444265532
 40
4.450483444265532
 40
4.764601314301946
 40
4.764601314301946
 40
5.079495189828937
 40
5.079495189828937
 40
5.392745436573226
 40
5.392745436573226
 40
5.700024765710299
 40
5.700024765710299
 40
5.989406365005728
 40
5.989406365005728
 40
6.24084467478868
 40
6.24084467478868
 40
6.283185307179586
 40
6.283185307179586
 40
6.283185307179586
 40
6.283185307179586
 10
1121.348259470822
 20
142.5000000000473
 30
0.0
 10
1121.261041389456
 20
142.5000000000518
 30
0.0
 10
1119.822227588458
 20
142.3822584025138
 30
0.0
 10
1114.671044678556
 20
135.9154978684882
 30
0.0
 10
1111.953207300432
 20
131.1346590995508
 30
0.0
 10
1106.466114822877
 20
117.6052520496287
 30
0.0
 10
1103.690871742716
 20
108.4240992863033
 30
0.0
 10
1098.755305432682
 20
86.45631209824205
 30
0.0
 10
1096.634495633598
 20
73.47380650036575
 30
0.0
 10
1093.467639866501
 20
45.22747359456935
 30
0.0
 10
1092.444580036383
 20
29.92161745974681
 30
0.0
 10
1091.666797654871
 20
-1.28917590857327
 30
0.0
 10
1091.92026645573
 20
-17.19344875790375
 30
0.0
 10
1093.684719572197
 20
-47.84775358382012
 30
0.0
 10
1095.194384521044
 20
-62.59590512012891
 30
0.0
 10
1099.26859255747
 20
-89.26616511733937
 30
0.0
 10
1101.825453466394
 20
-101.2178993265897
 30
0.0
 10
1107.526565622891
 20
-120.7993421799046
 30
0.0
 10
1110.679239967941
 20
-128.5697398199609
 30
0.0
 10
1116.437809542352
 20
-138.6797351943505
 30
0.0
 10
1119.117451160398
 20
-141.3164293285453
 30
0.0
 10
1121.690665325659
 20
-142.8821230972571
 30
0.0
 10
1120.96060579098
 20
-142.7304865638216
 30
0.0
 10
1122.753201313837
 20
-141.9429646958251
 30
0.0
 10
1125.880606211689
 20
-139.3868893804274
 30
0.0
 10
1131.812572179111
 20
-128.8908884134825
 30
0.0
 10
1134.648786227015
 20
-122.0607391328221
 30
0.0
 10
1140.059347442171
 20
-104.4463804599481
 30
0.0
 10
1142.602302802323
 20
-93.3231675731422
 30
0.0
 10
1146.818897173496
 20
-68.01945708510811
 30
0.0
 10
1148.459438927384
 20
-53.73604342801991
 30
0.0
 10
1150.546201882671
 20
-23.65865871883579
 30
0.0
 10
1150.977297858884
 20
-7.850716228457713
 30
0.0
 10
1150.552759760989
 20
23.53647357970658
 30
0.0
 10
1149.693829312378
 20
39.11103331187587
 30
0.0
 10
1146.788655034108
 20
68.30122649415534
 30
0.0
 10
1144.747282940225
 20
81.92437411039463
 30
0.0
 10
1139.785490053915
 20
105.6140491407641
 30
0.0
 10
1136.871662213918
 20
115.747383297401
 30
0.0
 10
1130.856315968507
 20
131.0796939615502
 30
0.0
 10
1127.705501743847
 20
136.5122820551169
 30
0.0
 10
1122.983596501726
 20
142.0317048373581
 30
0.0
 10
1121.59072288742
 20
142.4640234480221
 30
0.0
 10
1121.372025183634
 20
142.4998219592416
 30
0.0
 10
1121.360014237043
 20
142.5000000000464
 30
0.0
 10
1121.348259470822
 20
142.5000000000473
 30
0.0
  0
SPLINE
  5
164C
330
160B
100
AcDbEntity
  8
Widoczne (ISO)
100
AcDbSpline
210
0.0
220
0.0
230
1.0
 70
    11
 71
     3
 72
    48
 73
    44
 74
     0
 42
0.0000000001
 43
0.0000000001
 40
0.0
 40
0.0
 40
0.0
 40
0.0
 40
0.1767957152850293
 40
0.1767957152850293
 40
0.436892237875775
 40
0.436892237875775
 40
0.8058300986573092
 40
0.8058300986573092
 40
1.142148611261259
 40
1.142148611261259
 40
1.469617201985667
 40
1.469617201985667
 40
1.794790966326189
 40
1.794790966326189
 40
2.120434222995439
 40
2.120434222995439
 40
2.449911135500189
 40
2.449911135500189
 40
2.792917631790019
 40
2.792917631790019
 40
2.976896888478731
 40
2.976896888478731
 40
3.22667133790021
 40
3.22667133790021
 40
3.423221828912367
 40
3.423221828912367
 40
3.767123552695378
 40
3.767123552695378
 40
4.115549653030435
 40
4.115549653030435
 40
4.446090742877595
 40
4.446090742877595
 40
4.77199076943528
 40
4.77199076943528
 40
5.097089025022635
 40
5.097089025022635
 40
5.424027396087911
 40
5.424027396087911
 40
5.758099594259793
 40
5.758099594259793
 40
6.11723009434806
 40
6.11723009434806
 40
6.283185307179586
 40
6.283185307179586
 40
6.283185307179586
 40
6.283185307179586
 10
-1121.348259470818
 20
-162.4999999999536
 30
0.0
 10
-1116.745268846949
 20
-162.4999999999509
 30
0.0
 10
-1112.324963640258
 20
-160.8371952614016
 30
0.0
 10
-1103.430218095296
 20
-154.6972117942696
 30
0.0
 10
-1099.466401537523
 20
-149.4564101941105
 30
0.0
 10
-1090.843687963635
 20
-133.898371143463
 30
0.0
 10
-1086.669836460576
 20
-122.1079375098597
 30
0.0
 10
-1079.97863630539
 20
-95.17649069149047
 30
0.0
 10
-1077.398239105867
 20
-80.45285540776239
 30
0.0
 10
-1073.688169292389
 20
-49.08508863720999
 30
0.0
 10
-1072.526331929535
 20
-32.51250148592044
 30
0.0
 10
-1071.644098827199
 20
1.062084110020805
 30
0.0
 10
-1071.914125429382
 20
18.05257716866072
 30
0.0
 10
-1073.850739270834
 20
50.89684246133765
 30
0.0
 10
-1075.518021542584
 20
66.74102667209718
 30
0.0
 10
-1080.139233091067
 20
95.88693464495008
 30
0.0
 10
-1083.099873000254
 20
109.144313704719
 30
0.0
 10
-1090.301621316601
 20
132.18840647869
 30
0.0
 10
-1094.499972239329
 20
141.7957285255343
 30
0.0
 10
-1102.51525130588
 20
153.0536941570026
 30
0.0
 10
-1105.635243953385
 20
156.3860200160634
 30
0.0
 10
-1114.684883295473
 20
162.1972654565725
 30
0.0
 10
-1121.781514073587
 20
163.4397434324455
 30
0.0
 10
-1132.592968908882
 20
159.8772152420661
 30
0.0
 10
-1136.473650748881
 20
156.8450593410525
 30
0.0
 10
-1145.539691694541
 20
146.7106494948602
 30
0.0
 10
-1149.946283482728
 20
137.9557364826687
 30
0.0
 10
-1157.851087520885
 20
115.895625934726
 30
0.0
 10
-1161.193062678976
 20
102.5112112741753
 30
0.0
 10
-1166.357501899269
 20
73.14599982099025
 30
0.0
 10
-1168.236175527028
 20
57.35080041096989
 30
0.0
 10
-1170.551627353285
 20
24.55396546758857
 30
0.0
 10
-1171.006648705912
 20
7.580914408326862
 30
0.0
 10
-1170.487762863147
 20
-26.01617148038076
 30
0.0
 10
-1169.517698550615
 20
-42.63343680554044
 30
0.0
 10
-1166.2308140274
 20
-74.00018905363322
 30
0.0
 10
-1163.909581102156
 20
-88.72943841325923
 30
0.0
 10
-1158.02365841993
 20
-115.0999689995069
 30
0.0
 10
-1154.45743118626
 20
-126.6485018309977
 30
0.0
 10
-1145.756636277696
 20
-146.1241596747604
 30
0.0
 10
-1140.775199052639
 20
-153.9635386559966
 30
0.0
 10
-1129.847948418293
 20
-161.0351499596618
 30
0.0
 10
-1125.669010612406
 20
-162.4999999999563
 30
0.0
 10
-1121.348259470818
 20
-162.4999999999536
 30
0.0
  0
SPLINE
  5
164D
330
160B
100
AcDbEntity
  8
Widoczne (ISO)
100
AcDbSpline
210
0.0
220
0.0
230
1.0
 70
    11
 71
     3
 72
    50
 73
    46
 74
     0
 42
0.0000000001
 43
0.0000000001
 40
0.0
 40
0.0
 40
0.0
 40
0.0
 40
0.3141592653589793
 40
0.3141592653589793
 40
0.5680100392127345
 40
0.5680100392127345
 40
0.8559051302456397
 40
0.8559051302456397
 40
1.162016267999102
 40
1.162016267999102
 40
1.474807574383523
 40
1.474807574383523
 40
1.789628645958865
 40
1.789628645958865
 40
2.103999459104344
 40
2.103999459104344
 40
2.414911601461051
 40
2.414911601461051
 40
2.715090704639351
 40
2.715090704639351
 40
2.985394844576399
 40
2.985394844576399
 40
3.254810616142235
 40
3.254810616142235
 40
3.571041045400317
 40
3.571041045400317
 40
3.841774119365897
 40
3.841774119365897
 40
4.140352765957591
 40
4.140352765957591
 40
4.450483444265532
 40
4.450483444265532
 40
4.764601314301946
 40
4.764601314301946
 40
5.079495189828937
 40
5.079495189828937
 40
5.392745436573226
 40
5.392745436573226
 40
5.700024765710299
 40
5.700024765710299
 40
5.989406365005729
 40
5.989406365005729
 40
6.240844674788681
 40
6.240844674788681
 40
6.283185307179586
 40
6.283185307179586
 40
6.283185307179586
 40
6.283185307179586
 10
-1121.348259470818
 20
-142.4999999999536
 30
0.0
 10
-1121.261041389453
 20
-142.499999999949
 30
0.0
 10
-1119.822227588454
 20
-142.3822584024019
 30
0.0
 10
-1114.671044678553
 20
-135.9154978683609
 30
0.0
 10
-1111.953207300428
 20
-131.1346590994162
 30
0.0
 10
-1106.466114822873
 20
-117.6052520494813
 30
0.0
 10
-1103.690871742714
 20
-108.4240992861496
 30
0.0
 10
-1098.755305432678
 20
-86.45631209807651
 30
0.0
 10
-1096.634495633596
 20
-73.47380650019477
 30
0.0
 10
-1093.467639866497
 20
-45.227473594392
 30
0.0
 10
-1092.444580036379
 20
-29.92161745956764
 30
0.0
 10
-1091.666797654869
 20
1.289175908754259
 30
0.0
 10
-1091.920266455727
 20
17.19344875808474
 30
0.0
 10
-1093.684719572195
 20
47.84775358399747
 30
0.0
 10
-1095.194384521042
 20
62.59590512030263
 30
0.0
 10
-1099.268592557466
 20
89.26616511750399
 30
0.0
 10
-1101.82545346639
 20
101.217899326748
 30
0.0
 10
-1107.526565622889
 20
120.7993421800493
 30
0.0
 10
-1110.679239967939
 20
128.5697398200991
 30
0.0
 10
-1116.437809542351
 20
138.6797351944733
 30
0.0
 10
-1119.117451160397
 20
141.3164293286609
 30
0.0
 10
-1121.690665325655
 20
142.8821230973571
 30
0.0
 10
-1120.960605790978
 20
142.7304865639125
 30
0.0
 10
-1122.753201313833
 20
141.9429646958997
 30
0.0
 10
-1125.880606211685
 20
139.3868893804929
 30
0.0
 10
-1131.812572179107
 20
128.8908884135326
 30
0.0
 10
-1134.648786227011
 20
122.0607391328649
 30
0.0
 10
-1140.059347442167
 20
104.4463804599782
 30
0.0
 10
-1142.602302802319
 20
93.32316757316675
 30
0.0
 10
-1146.818897173492
 20
68.01945708512358
 30
0.0
 10
-1148.459438927381
 20
53.73604342803173
 30
0.0
 10
-1150.546201882667
 20
23.65865871884307
 30
0.0
 10
-1150.977297858881
 20
7.850716228464079
 30
0.0
 10
-1150.552759760987
 20
-23.53647357969931
 30
0.0
 10
-1149.693829312375
 20
-39.11103331186678
 30
0.0
 10
-1146.788655034104
 20
-68.30122649413988
 30
0.0
 10
-1144.747282940221
 20
-81.92437411037463
 30
0.0
 10
-1139.785490053913
 20
-105.6140491407332
 30
0.0
 10
-1136.871662213916
 20
-115.7473832973628
 30
0.0
 10
-1130.856315968503
 20
-131.0796939614975
 30
0.0
 10
-1127.705501743843
 20
-136.5122820550568
 30
0.0
 10
-1122.983596501723
 20
-142.0317048372835
 30
0.0
 10
-1121.590722887418
 20
-142.4640234479393
 30
0.0
 10
-1121.372025183633
 20
-142.4998219591507
 30
0.0
 10
-1121.360014237039
 20
-142.4999999999545
 30
0.0
 10
-1121.348259470818
 20
-142.4999999999536
 30
0.0
  0
LINE
  5
164E
330
160B
100
AcDbEntity
  8
Widoczne (ISO)
100
AcDbLine
 10
1260.818163848955
 20
12.50000000000546
 30
0.0
 11
1260.818163848955
 21
-12.49999999999454
 31
0.0
  0
ARC
  5
164F
330
160B
100
AcDbEntity
  8
Widoczne (ISO)
100
AcDbCircle
 10
1295.818163848955
 20
-12.49999999999454
 30
0.0
 40
35.00000000000009
100
AcDbArc
 50
180.0
 51
270.0
  0
ARC
  5
1650
330
160B
100
AcDbEntity
  8
Widoczne (ISO)
100
AcDbCircle
 10
1255.022487666061
 20
-165.6554603257045
 30
0.0
 40
125.0000000000001
100
AcDbArc
 50
31.68464929473568
 51
70.95168155679594
  0
ARC
  5
1651
330
160B
100
AcDbEntity
  8
Widoczne wąskie (ISO)
100
AcDbCircle
 10
1448.318163848955
 20
0.000000000007276
 30
0.0
 40
127.5000000000002
100
AcDbArc
 50
229.3361373191612
 51
130.6638626808388
  0
SPLINE
  5
1652
330
160B
100
AcDbEntity
  8
Widoczne (ISO)
100
AcDbSpline
210
0.0
220
0.0
230
1.0
 70
     8
 71
     3
 72
    18
 73
    14
 74
     0
 42
0.0000000001
 43
0.0000000001
 40
-0.0010193431241842
 40
-0.0010193431241842
 40
-0.0010193431241842
 40
-0.0010193431241842
 40
0.0
 40
0.0
 40
0.103301638245449
 40
0.103301638245449
 40
0.2065114955842874
 40
0.2065114955842874
 40
0.403302337171522
 40
0.403302337171522
 40
0.5977796781856713
 40
0.5977796781856713
 40
0.7910966247999527
 40
0.7910966247999527
 40
0.7910966247999527
 40
0.7910966247999527
 10
1365.236600167111
 20
-96.71454790349891
 30
0.0
 10
1365.234023452345
 20
-96.71676277519328
 30
0.0
 10
1365.231446724974
 20
-96.71897763102789
 30
0.0
 10
1364.967740004275
 20
-96.94564706333403
 30
0.0
 10
1364.707147028583
 20
-97.16936314218401
 30
0.0
 10
1364.195404224874
 20
-97.60816737113964
 30
0.0
 10
1363.945473701042
 20
-97.82221085018955
 30
0.0
 10
1363.247404739341
 20
-98.41939532793913
 30
0.0
 10
1362.831351388979
 20
-98.77446717624662
 30
0.0
 10
1362.135531419939
 20
-99.36746417668201
 30
0.0
 10
1361.860821850398
 20
-99.60111532993233
 30
0.0
 10
1361.487439612083
 20
-99.91852310846025
 30
0.0
 10
1361.391470595387
 20
-99.99999999999454
 30
0.0
 10
1361.391470595387
 20
-99.99999999999454
 30
0.0
  0
ARC
  5
1653
330
160B
100
AcDbEntity
  8
Widoczne (ISO)
100
AcDbCircle
 10
1448.318163848955
 20
0.0000000000063665
 30
0.0
 40
132.5000000000002
100
AcDbArc
 50
229.0006463498157
 51
130.9993536501842
  0
SPLINE
  5
1654
330
160B
100
AcDbEntity
  8
Widoczne (ISO)
100
AcDbSpline
210
0.0
220
0.0
230
1.0
 70
     8
 71
     3
 72
    18
 73
    14
 74
     0
 42
0.0000000001
 43
0.0000000001
 40
0.0
 40
0.0
 40
0.0
 40
0.0
 40
0.1932359001510995
 40
0.1932359001510995
 40
0.3876317082167227
 40
0.3876317082167227
 40
0.5843400469402736
 40
0.5843400469402736
 40
0.6875066344362401
 40
0.6875066344362401
 40
0.7907649643594162
 40
0.7907649643594162
 40
0.7917838801328231
 40
0.7917838801328231
 40
0.7917838801328231
 40
0.7917838801328231
 10
1361.391470595387
 20
100.0000000000054
 30
0.0
 10
1361.391470595387
 20
100.0000000000063
 30
0.0
 10
1361.487439612083
 20
99.91852310847299
 30
0.0
 10
1361.860821850398
 20
99.60111532994597
 30
0.0
 10
1362.135531419939
 20
99.36746417669565
 30
0.0
 10
1362.831351388979
 20
98.77446717626117
 30
0.0
 10
1363.247404739341
 20
98.41939532795368
 30
0.0
 10
1363.945473701042
 20
97.82221085020502
 30
0.0
 10
1364.195404224874
 20
97.60816737115419
 30
0.0
 10
1364.707147028581
 20
97.16936314220129
 30
0.0
 10
1364.96774000426
 20
96.94564706335677
 30
0.0
 10
1365.231446724974
 20
96.71897763104334
 30
0.0
 10
1365.234023452343
 20
96.71676277520873
 30
0.0
 10
1365.236600167111
 20
96.71454790351436
 30
0.0
  0
LINE
  5
1655
330
160B
100
AcDbEntity
  8
Widoczne wąskie (ISO)
100
AcDbLine
 10
1260.818163848955
 20
-12.49999999999454
 30
0.0
 11
1265.818163848955
 21
-12.49999999999272
 31
0.0
  0
SPLINE
  5
1656
330
160B
100
AcDbEntity
  8
Widoczne (ISO)
100
AcDbSpline
210
0.0
220
0.0
230
1.0
 70
     8
 71
     3
 72
    18
 73
    14
 74
     0
 42
0.0000000001
 43
0.0000000001
 40
-0.793086982181826
 40
-0.793086982181826
 40
-0.793086982181826
 40
-0.793086982181826
 40
-0.7919887633394883
 40
-0.7919887633394883
 40
-0.6878679732083045
 40
-0.6878679732083045
 40
-0.5839028266824111
 40
-0.5839028266824111
 40
-0.3869447385380962
 40
-0.3869447385380962
 40
-0.1927940926365018
 40
-0.1927940926365018
 40
0.0
 40
0.0
 40
0.0
 40
0.0
 10
1296.617098944986
 20
-42.48935982497641
 30
0.0
 10
1296.616553306949
 20
-42.49298171396185
 30
0.0
 10
1296.616007597518
 20
-42.49660359123663
 30
0.0
 10
1296.563717096285
 20
-42.84360950909376
 30
0.0
 10
1296.511455644078
 20
-43.18601886216583
 30
0.0
 10
1296.407744594402
 20
-43.85763957484232
 30
0.0
 10
1296.356541958015
 20
-44.18527210196953
 30
0.0
 10
1296.21282308931
 20
-45.09566937263389
 30
0.0
 10
1296.1256132621
 20
-45.63626858589304
 30
0.0
 10
1295.978364262877
 20
-46.53833504434442
 30
0.0
 10
1295.919406414636
 20
-46.89364281752932
 30
0.0
 10
1295.839014656514
 20
-47.37612581885332
 30
0.0
 10
1295.818163848955
 20
-47.49999999999454
 30
0.0
 10
1295.818163848955
 20
-47.49999999999454
 30
0.0
  0
ARC
  5
1657
330
160B
100
AcDbEntity
  8
Widoczne wąskie (ISO)
100
AcDbCircle
 10
1295.818163848955
 20
-12.49999999999272
 30
0.0
 40
30.0000000000001
100
AcDbArc
 50
180.0
 51
271.5260340553474
  0
LINE
  5
1658
330
160B
100
AcDbEntity
  8
Widoczne wąskie (ISO)
100
AcDbLine
 10
1260.818163848955
 20
12.50000000000546
 30
0.0
 11
1265.818163848955
 21
12.50000000000727
 31
0.0
  0
LINE
  5
1659
330
160B
100
AcDbEntity
  8
Widoczne wąskie (ISO)
100
AcDbLine
 10
1265.818163848955
 20
-12.49999999999272
 30
0.0
 11
1265.818163848955
 21
12.50000000000727
 31
0.0
  0
ARC
  5
165A
330
160B
100
AcDbEntity
  8
Widoczne (ISO)
100
AcDbCircle
 10
1295.818163848955
 20
12.50000000000546
 30
0.0
 40
35.00000000000009
100
AcDbArc
 50
90.0
 51
180.0
  0
ARC
  5
165B
330
160B
100
AcDbEntity
  8
Widoczne wąskie (ISO)
100
AcDbCircle
 10
1295.818163848955
 20
12.50000000000727
 30
0.0
 40
30.00000000000007
100
AcDbArc
 50
88.4739659446526
 51
180.0
  0
SPLINE
  5
165C
330
160B
100
AcDbEntity
  8
Widoczne (ISO)
100
AcDbSpline
210
0.0
220
0.0
230
1.0
 70
     8
 71
     3
 72
    18
 73
    14
 74
     0
 42
0.0000000001
 43
0.0000000001
 40
-0.7930870113980126
 40
-0.7930870113980126
 40
-0.7930870113980126
 40
-0.7930870113980126
 40
-0.7919887946153739
 40
-0.7919887946153739
 40
-0.6878718559847862
 40
-0.6878718559847862
 40
-0.5839078264446347
 40
-0.5839078264446347
 40
-0.3869486399446162
 40
-0.3869486399446162
 40
-0.1927949669046634
 40
-0.1927949669046634
 40
0.0
 40
0.0
 40
0.0
 40
0.0
 10
1296.617098944986
 20
42.48935982499097
 30
0.0
 10
1296.616553307964
 20
42.49298170723796
 30
0.0
 10
1296.616007599547
 20
42.49660357778066
 30
0.0
 10
1296.563719012654
 20
42.84359679206954
 30
0.0
 10
1296.511459507819
 20
43.18599355081642
 30
0.0
 10
1296.407750859629
 20
43.85759929162668
 30
0.0
 10
1296.356548684449
 20
44.18522917686914
 30
0.0
 10
1296.212829360793
 20
45.09563023039118
 30
0.0
 10
1296.125618582526
 20
45.63623574721896
 30
0.0
 10
1295.97836695411
 20
46.53831879888275
 30
0.0
 10
1295.919407752546
 20
46.89363477288043
 30
0.0
 10
1295.839014846135
 20
47.37612469571376
 30
0.0
 10
1295.818163848955
 20
47.50000000000636
 30
0.0
 10
1295.818163848955
 20
47.50000000000546
 30
0.0
  0
ARC
  5
165D
330
160B
100
AcDbEntity
  8
Widoczne wąskie (ISO)
100
AcDbCircle
 10
1255.022487666061
 20
165.6554603257173
 30
0.0
 40
130.0000000000001
100
AcDbArc
 50
288.6604180811123
 51
327.9732789565421
  0
ARC
  5
165E
330
160B
100
AcDbEntity
  8
Widoczne (ISO)
100
AcDbCircle
 10
1255.022487666061
 20
165.6554603257164
 30
0.0
 40
125.0000000000003
100
AcDbArc
 50
289.048318443204
 51
328.3153507052643
  0
ARC
  5
165F
330
160B
100
AcDbEntity
  8
Widoczne wąskie (ISO)
100
AcDbCircle
 10
1255.022487666061
 20
-165.6554603257027
 30
0.0
 40
130.0000000000003
100
AcDbArc
 50
32.0267210434579
 51
71.33958191888767
  0
LINE
  5
1660
330
160B
100
AcDbEntity
  8
Widoczne (ISO)
100
AcDbLine
 10
-1260.818163848951
 20
-12.49999999999363
 30
0.0
 11
-1260.818163848951
 21
12.50000000000637
 31
0.0
  0
ARC
  5
1661
330
160B
100
AcDbEntity
  8
Widoczne (ISO)
100
AcDbCircle
 10
-1295.818163848951
 20
12.50000000000637
 30
0.0
 40
35.00000000000009
100
AcDbArc
 50
0.0
 51
90.0
  0
ARC
  5
1662
330
160B
100
AcDbEntity
  8
Widoczne (ISO)
100
AcDbCircle
 10
-1255.022487666058
 20
165.6554603257164
 30
0.0
 40
125.0000000000001
100
AcDbArc
 50
211.6846492947356
 51
250.9516815567959
  0
ARC
  5
1663
330
160B
100
AcDbEntity
  8
Widoczne wąskie (ISO)
100
AcDbCircle
 10
-1448.318163848953
 20
0.000000000007276
 30
0.0
 40
127.5000000000002
100
AcDbArc
 50
49.3361373191612
 51
310.6638626808388
  0
SPLINE
  5
1664
330
160B
100
AcDbEntity
  8
Widoczne (ISO)
100
AcDbSpline
210
0.0
220
0.0
230
1.0
 70
     8
 71
     3
 72
    18
 73
    14
 74
     0
 42
0.0000000001
 43
0.0000000001
 40
-0.0010193431241842
 40
-0.0010193431241842
 40
-0.0010193431241842
 40
-0.0010193431241842
 40
0.0
 40
0.0
 40
0.103301638245449
 40
0.103301638245449
 40
0.2065114955842874
 40
0.2065114955842874
 40
0.403302337171522
 40
0.403302337171522
 40
0.5977796781856713
 40
0.5977796781856713
 40
0.7910966247999527
 40
0.7910966247999527
 40
0.7910966247999527
 40
0.7910966247999527
 10
-1365.236600167109
 20
96.71454790351527
 30
0.0
 10
-1365.234023452342
 20
96.71676277520873
 30
0.0
 10
-1365.231446724971
 20
96.71897763104425
 30
0.0
 10
-1364.967740004273
 20
96.94564706334858
 30
0.0
 10
-1364.707147028581
 20
97.16936314219948
 30
0.0
 10
-1364.195404224872
 20
97.60816737115511
 30
0.0
 10
-1363.945473701038
 20
97.82221085020502
 30
0.0
 10
-1363.247404739337
 20
98.41939532795368
 30
0.0
 10
-1362.831351388977
 20
98.77446717626117
 30
0.0
 10
-1362.135531419937
 20
99.36746417669565
 30
0.0
 10
-1361.860821850394
 20
99.60111532994597
 30
0.0
 10
-1361.487439612081
 20
99.9185231084739
 30
0.0
 10
-1361.391470595385
 20
100.0000000000063
 30
0.0
 10
-1361.391470595385
 20
100.0000000000063
 30
0.0
  0
ARC
  5
1665
330
160B
100
AcDbEntity
  8
Widoczne (ISO)
100
AcDbCircle
 10
-1448.318163848953
 20
0.0000000000063665
 30
0.0
 40
132.5000000000002
100
AcDbArc
 50
49.00064634981575
 51
310.9993536501843
  0
SPLINE
  5
1666
330
160B
100
AcDbEntity
  8
Widoczne (ISO)
100
AcDbSpline
210
0.0
220
0.0
230
1.0
 70
     8
 71
     3
 72
    18
 73
    14
 74
     0
 42
0.0000000001
 43
0.0000000001
 40
0.0
 40
0.0
 40
0.0
 40
0.0
 40
0.1932359001510995
 40
0.1932359001510995
 40
0.3876317082167227
 40
0.3876317082167227
 40
0.5843400469402736
 40
0.5843400469402736
 40
0.6875066344362401
 40
0.6875066344362401
 40
0.7907649643594162
 40
0.7907649643594162
 40
0.7917838801328231
 40
0.7917838801328231
 40
0.7917838801328231
 40
0.7917838801328231
 10
-1361.391470595383
 20
-99.99999999999454
 30
0.0
 10
-1361.391470595383
 20
-99.99999999999364
 30
0.0
 10
-1361.487439612081
 20
-99.91852310846025
 30
0.0
 10
-1361.860821850394
 20
-99.60111532993142
 30
0.0
 10
-1362.135531419937
 20
-99.36746417668201
 30
0.0
 10
-1362.831351388977
 20
-98.77446717624572
 30
0.0
 10
-1363.247404739337
 20
-98.41939532793823
 30
0.0
 10
-1363.945473701038
 20
-97.82221085018955
 30
0.0
 10
-1364.195404224872
 20
-97.60816737113964
 30
0.0
 10
-1364.707147028577
 20
-97.16936314218584
 30
0.0
 10
-1364.967740004256
 20
-96.94564706334132
 30
0.0
 10
-1365.231446724971
 20
-96.71897763102789
 30
0.0
 10
-1365.234023452342
 20
-96.71676277519328
 30
0.0
 10
-1365.236600167109
 20
-96.71454790349891
 30
0.0
  0
LINE
  5
1667
330
160B
100
AcDbEntity
  8
Widoczne wąskie (ISO)
100
AcDbLine
 10
-1260.818163848953
 20
12.50000000000637
 30
0.0
 11
-1265.818163848953
 21
12.50000000000818
 31
0.0
  0
SPLINE
  5
1668
330
160B
100
AcDbEntity
  8
Widoczne (ISO)
100
AcDbSpline
210
0.0
220
0.0
230
1.0
 70
     8
 71
     3
 72
    18
 73
    14
 74
     0
 42
0.0000000001
 43
0.0000000001
 40
-0.793086982181826
 40
-0.793086982181826
 40
-0.793086982181826
 40
-0.793086982181826
 40
-0.7919887633394883
 40
-0.7919887633394883
 40
-0.6878679732083045
 40
-0.6878679732083045
 40
-0.5839028266824111
 40
-0.5839028266824111
 40
-0.3869447385380962
 40
-0.3869447385380962
 40
-0.1927940926365018
 40
-0.1927940926365018
 40
0.0
 40
0.0
 40
0.0
 40
0.0
 10
-1296.617098944984
 20
42.48935982499097
 30
0.0
 10
-1296.616553306947
 20
42.4929817139764
 30
0.0
 10
-1296.616007597515
 20
42.49660359125118
 30
0.0
 10
-1296.563717096283
 20
42.84360950910922
 30
0.0
 10
-1296.511455644077
 20
43.18601886218039
 30
0.0
 10
-1296.407744594398
 20
43.85763957485687
 30
0.0
 10
-1296.356541958014
 20
44.18527210198499
 30
0.0
 10
-1296.212823089308
 20
45.09566937264844
 30
0.0
 10
-1296.125613262098
 20
45.6362685859076
 30
0.0
 10
-1295.978364262875
 20
46.53833504435806
 30
0.0
 10
-1295.919406414634
 20
46.89364281754296
 30
0.0
 10
-1295.839014656511
 20
47.37612581886605
 30
0.0
 10
-1295.818163848951
 20
47.50000000000727
 30
0.0
 10
-1295.818163848951
 20
47.50000000000636
 30
0.0
  0
ARC
  5
1669
330
160B
100
AcDbEntity
  8
Widoczne wąskie (ISO)
100
AcDbCircle
 10
-1295.818163848951
 20
12.50000000000727
 30
0.0
 40
30.00000000000009
100
AcDbArc
 50
0.0
 51
91.52603405534739
  0
LINE
  5
166A
330
160B
100
AcDbEntity
  8
Widoczne wąskie (ISO)
100
AcDbLine
 10
-1260.818163848951
 20
-12.49999999999363
 30
0.0
 11
-1265.818163848951
 21
-12.49999999999181
 31
0.0
  0
LINE
  5
166B
330
160B
100
AcDbEntity
  8
Widoczne wąskie (ISO)
100
AcDbLine
 10
-1265.818163848951
 20
12.50000000000727
 30
0.0
 11
-1265.818163848951
 21
-12.49999999999181
 31
0.0
  0
ARC
  5
166C
330
160B
100
AcDbEntity
  8
Widoczne (ISO)
100
AcDbCircle
 10
-1295.818163848951
 20
-12.49999999999363
 30
0.0
 40
35.00000000000009
100
AcDbArc
 50
270.0
 51
0.0
  0
ARC
  5
166D
330
160B
100
AcDbEntity
  8
Widoczne wąskie (ISO)
100
AcDbCircle
 10
-1295.818163848951
 20
-12.49999999999181
 30
0.0
 40
30.00000000000007
100
AcDbArc
 50
268.4739659446526
 51
0.0
  0
SPLINE
  5
166E
330
160B
100
AcDbEntity
  8
Widoczne (ISO)
100
AcDbSpline
210
0.0
220
0.0
230
1.0
 70
     8
 71
     3
 72
    18
 73
    14
 74
     0
 42
0.0000000001
 43
0.0000000001
 40
-0.7930870113980126
 40
-0.7930870113980126
 40
-0.7930870113980126
 40
-0.7930870113980126
 40
-0.7919887946153739
 40
-0.7919887946153739
 40
-0.6878718559847862
 40
-0.6878718559847862
 40
-0.5839078264446347
 40
-0.5839078264446347
 40
-0.3869486399446162
 40
-0.3869486399446162
 40
-0.1927949669046634
 40
-0.1927949669046634
 40
0.0
 40
0.0
 40
0.0
 40
0.0
 10
-1296.617098944984
 20
-42.48935982497551
 30
0.0
 10
-1296.616553307962
 20
-42.4929817072234
 30
0.0
 10
-1296.616007599545
 20
-42.49660357776519
 30
0.0
 10
-1296.563719012653
 20
-42.84359679205408
 30
0.0
 10
-1296.511459507815
 20
-43.18599355080187
 30
0.0
 10
-1296.407750859627
 20
-43.85759929161213
 30
0.0
 10
-1296.356548684447
 20
-44.18522917685459
 30
0.0
 10
-1296.212829360789
 20
-45.09563023037663
 30
0.0
 10
-1296.125618582522
 20
-45.6362357472044
 30
0.0
 10
-1295.978366954108
 20
-46.53831879886911
 30
0.0
 10
-1295.919407752542
 20
-46.89363477286678
 30
0.0
 10
-1295.839014846133
 20
-47.37612469570012
 30
0.0
 10
-1295.818163848951
 20
-47.49999999999363
 30
0.0
 10
-1295.818163848951
 20
-47.49999999999363
 30
0.0
  0
ARC
  5
166F
330
160B
100
AcDbEntity
  8
Widoczne wąskie (ISO)
100
AcDbCircle
 10
-1255.022487666058
 20
-165.6554603257027
 30
0.0
 40
130.0000000000001
100
AcDbArc
 50
108.6604180811123
 51
147.9732789565421
  0
ARC
  5
1670
330
160B
100
AcDbEntity
  8
Widoczne (ISO)
100
AcDbCircle
 10
-1255.022487666058
 20
-165.6554603257045
 30
0.0
 40
125.0000000000003
100
AcDbArc
 50
109.048318443204
 51
148.3153507052643
  0
ARC
  5
1671
330
160B
100
AcDbEntity
  8
Widoczne wąskie (ISO)
100
AcDbCircle
 10
-1255.022487666058
 20
165.6554603257182
 30
0.0
 40
130.0000000000003
100
AcDbArc
 50
212.0267210434579
 51
251.3395819188877
  0
CIRCLE
  5
1672
330
160B
100
AcDbEntity
  8
Widoczne (ISO)
100
AcDbCircle
 10
1440.818163848955
 20
50.00000000000818
 30
0.0
 40
9.999999999999989
  0
CIRCLE
  5
1673
330
160B
100
AcDbEntity
  8
Widoczne (ISO)
100
AcDbCircle
 10
1440.818163848955
 20
-49.99999999999181
 30
0.0
 40
9.999999999999989
  0
CIRCLE
  5
1674
330
160B
100
AcDbEntity
  8
Widoczne (ISO)
100
AcDbCircle
 10
-1440.818163848953
 20
-49.99999999999181
 30
0.0
 40
9.999999999999991
  0
CIRCLE
  5
1675
330
160B
100
AcDbEntity
  8
Widoczne (ISO)
100
AcDbCircle
 10
-1440.818163848953
 20
50.00000000000818
 30
0.0
 40
9.999999999999991
  0
LINE
  5
1676
330
160B
100
AcDbEntity
  8
Widoczne wąskie (ISO)
100
AcDbLine
 10
-37.99999999999818
 20
-121.0000000000118
 30
0.0
 11
38.0
 21
-121.0000000000118
 31
0.0
  0
LINE
  5
1677
330
160B
100
AcDbEntity
  8
Widoczne (ISO)
100
AcDbLine
 10
36.00000000000182
 20
-123.0000000000118
 30
0.0
 11
-35.99999999999818
 21
-123.0000000000118
 31
0.0
  0
ARC
  5
1678
330
160B
100
AcDbEntity
  8
Widoczne (ISO)
100
AcDbCircle
 10
-35.99999999999818
 20
-121.0000000000118
 30
0.0
 40
2.0
100
AcDbArc
 50
180.0
 51
270.0
  0
ARC
  5
1679
330
160B
100
AcDbEntity
  8
Widoczne (ISO)
100
AcDbCircle
 10
36.00000000000182
 20
-121.0000000000118
 30
0.0
 40
2.0
100
AcDbArc
 50
270.0
 51
0.0
  0
LINE
  5
167A
330
160B
100
AcDbEntity
  8
Widoczne (ISO)
100
AcDbLine
 10
-37.99999999999818
 20
-120.0000000000118
 30
0.0
 11
38.0
 21
-120.0000000000118
 31
0.0
  0
LINE
  5
167B
330
160B
100
AcDbEntity
  8
Widoczne (ISO)
100
AcDbLine
 10
38.00000000000182
 20
-120.0000000000118
 30
0.0
 11
38.00000000000182
 21
-121.0000000000118
 31
0.0
  0
LINE
  5
167C
330
160B
100
AcDbEntity
  8
Widoczne (ISO)
100
AcDbLine
 10
-37.99999999999818
 20
-120.0000000000118
 30
0.0
 11
-37.99999999999818
 21
-121.0000000000118
 31
0.0
  0
LINE
  5
167D
330
160B
100
AcDbEntity
  8
Widoczne wąskie (ISO)
100
AcDbLine
 10
38.0
 20
120.9999999999882
 30
0.0
 11
-38.0
 21
120.9999999999882
 31
0.0
  0
LINE
  5
167E
330
160B
100
AcDbEntity
  8
Widoczne (ISO)
100
AcDbLine
 10
-36.0
 20
122.9999999999882
 30
0.0
 11
36.0
 21
122.9999999999882
 31
0.0
  0
ARC
  5
167F
330
160B
100
AcDbEntity
  8
Widoczne (ISO)
100
AcDbCircle
 10
36.0
 20
120.9999999999882
 30
0.0
 40
2.0
100
AcDbArc
 50
0.0
 51
90.0
  0
ARC
  5
1680
330
160B
100
AcDbEntity
  8
Widoczne (ISO)
100
AcDbCircle
 10
-36.0
 20
120.9999999999882
 30
0.0
 40
2.0
100
AcDbArc
 50
90.0
 51
180.0
  0
LINE
  5
1681
330
160B
100
AcDbEntity
  8
Widoczne (ISO)
100
AcDbLine
 10
38.0
 20
119.9999999999872
 30
0.0
 11
-38.0
 21
119.9999999999872
 31
0.0
  0
LINE
  5
1682
330
160B
100
AcDbEntity
  8
Widoczne (ISO)
100
AcDbLine
 10
-38.0
 20
119.9999999999872
 30
0.0
 11
-38.0
 21
120.9999999999882
 31
0.0
  0
LINE
  5
1683
330
160B
100
AcDbEntity
  8
Widoczne (ISO)
100
AcDbLine
 10
38.0
 20
119.9999999999872
 30
0.0
 11
38.0
 21
120.9999999999882
 31
0.0
  0
LINE
  5
1684
330
160B
100
AcDbEntity
  8
Widoczne wąskie (ISO)
100
AcDbLine
 10
52.0
 20
-90.99999999999637
 30
0.0
 11
52.0
 21
-94.99999999999728
 31
0.0
  0
LINE
  5
1685
330
160B
100
AcDbEntity
  8
Widoczne wąskie (ISO)
100
AcDbLine
 10
52.0
 20
-90.99999999999544
 30
0.0
 11
-52.0
 21
-90.99999999999544
 31
0.0
  0
LINE
  5
1686
330
160B
100
AcDbEntity
  8
Widoczne wąskie (ISO)
100
AcDbLine
 10
-52.0
 20
-94.99999999999728
 30
0.0
 11
-52.0
 21
-90.99999999999637
 31
0.0
  0
LINE
  5
1687
330
160B
100
AcDbEntity
  8
Widoczne (ISO)
100
AcDbLine
 10
-52.0
 20
-94.99999999999728
 30
0.0
 11
52.0
 21
-94.99999999999728
 31
0.0
  0
LINE
  5
1688
330
160B
100
AcDbEntity
  8
Widoczne wąskie (ISO)
100
AcDbLine
 10
56.0
 20
-86.99999999999636
 30
0.0
 11
60.0
 21
-86.99999999999727
 31
0.0
  0
ARC
  5
1689
330
160B
100
AcDbEntity
  8
Widoczne wąskie (ISO)
100
AcDbCircle
 10
52.0
 20
-86.99999999999546
 30
0.0
 40
4.000000000000003
100
AcDbArc
 50
270.0
 51
0.0
  0
ARC
  5
168A
330
160B
100
AcDbEntity
  8
Widoczne (ISO)
100
AcDbCircle
 10
52.0
 20
-86.99999999999727
 30
0.0
 40
8.000000000000015
100
AcDbArc
 50
270.0
 51
0.0
  0
LINE
  5
168B
330
160B
100
AcDbEntity
  8
Widoczne wąskie (ISO)
100
AcDbLine
 10
-60.0
 20
-86.99999999999727
 30
0.0
 11
-56.0
 21
-86.99999999999636
 31
0.0
  0
ARC
  5
168C
330
160B
100
AcDbEntity
  8
Widoczne (ISO)
100
AcDbCircle
 10
-52.0
 20
-86.99999999999727
 30
0.0
 40
7.999999999999998
100
AcDbArc
 50
180.0
 51
270.0
  0
ARC
  5
168D
330
160B
100
AcDbEntity
  8
Widoczne wąskie (ISO)
100
AcDbCircle
 10
-52.0
 20
-86.99999999999546
 30
0.0
 40
4.000000000000016
100
AcDbArc
 50
180.0
 51
270.0
  0
LINE
  5
168E
330
160B
100
AcDbEntity
  8
Widoczne wąskie (ISO)
100
AcDbLine
 10
56.0
 20
-62.99999999999636
 30
0.0
 11
60.0
 21
-62.99999999999727
 31
0.0
  0
LINE
  5
168F
330
160B
100
AcDbEntity
  8
Widoczne wąskie (ISO)
100
AcDbLine
 10
56.0
 20
-62.99999999999545
 30
0.0
 11
56.0
 21
-86.99999999999546
 31
0.0
  0
LINE
  5
1690
330
160B
100
AcDbEntity
  8
Widoczne (ISO)
100
AcDbLine
 10
60.0
 20
-86.99999999999727
 30
0.0
 11
60.0
 21
-62.99999999999727
 31
0.0
  0
LINE
  5
1691
330
160B
100
AcDbEntity
  8
Widoczne wąskie (ISO)
100
AcDbLine
 10
-60.0
 20
-62.99999999999727
 30
0.0
 11
-56.0
 21
-62.99999999999636
 31
0.0
  0
LINE
  5
1692
330
160B
100
AcDbEntity
  8
Widoczne (ISO)
100
AcDbLine
 10
-60.0
 20
-62.99999999999727
 30
0.0
 11
-60.0
 21
-86.99999999999727
 31
0.0
  0
LINE
  5
1693
330
160B
100
AcDbEntity
  8
Widoczne wąskie (ISO)
100
AcDbLine
 10
-56.0
 20
-86.99999999999546
 30
0.0
 11
-56.0
 21
-62.99999999999545
 31
0.0
  0
LINE
  5
1694
330
160B
100
AcDbEntity
  8
Widoczne wąskie (ISO)
100
AcDbLine
 10
52.0
 20
-58.99999999999636
 30
0.0
 11
52.0
 21
-54.99999999999727
 31
0.0
  0
ARC
  5
1695
330
160B
100
AcDbEntity
  8
Widoczne wąskie (ISO)
100
AcDbCircle
 10
52.0
 20
-62.99999999999545
 30
0.0
 40
4.000000000000012
100
AcDbArc
 50
0.0
 51
90.0
  0
ARC
  5
1696
330
160B
100
AcDbEntity
  8
Widoczne (ISO)
100
AcDbCircle
 10
52.0
 20
-62.99999999999727
 30
0.0
 40
7.999999999999998
100
AcDbArc
 50
0.0
 51
90.0
  0
LINE
  5
1697
330
160B
100
AcDbEntity
  8
Widoczne wąskie (ISO)
100
AcDbLine
 10
-52.0
 20
-54.99999999999727
 30
0.0
 11
-52.0
 21
-58.99999999999636
 31
0.0
  0
ARC
  5
1698
330
160B
100
AcDbEntity
  8
Widoczne (ISO)
100
AcDbCircle
 10
-52.0
 20
-62.99999999999727
 30
0.0
 40
8.000000000000015
100
AcDbArc
 50
90.0
 51
180.0
  0
ARC
  5
1699
330
160B
100
AcDbEntity
  8
Widoczne wąskie (ISO)
100
AcDbCircle
 10
-52.0
 20
-62.99999999999545
 30
0.0
 40
4.000000000000003
100
AcDbArc
 50
90.0
 51
180.0
  0
LINE
  5
169A
330
160B
100
AcDbEntity
  8
Widoczne (ISO)
100
AcDbLine
 10
52.0
 20
-54.99999999999727
 30
0.0
 11
25.45584412271819
 21
-54.99999999999727
 31
0.0
  0
LINE
  5
169B
330
160B
100
AcDbEntity
  8
Widoczne (ISO)
100
AcDbLine
 10
-25.45584412271455
 20
-54.99999999999727
 30
0.0
 11
-52.0
 21
-54.99999999999727
 31
0.0
  0
LINE
  5
169C
330
160B
100
AcDbEntity
  8
Widoczne wąskie (ISO)
100
AcDbLine
 10
-52.0
 20
-58.99999999999545
 30
0.0
 11
52.0
 21
-58.99999999999545
 31
0.0
  0
LINE
  5
169D
330
160B
100
AcDbEntity
  8
Widoczne wąskie (ISO)
100
AcDbLine
 10
-52.0
 20
91.00000000000546
 30
0.0
 11
-52.0
 21
95.00000000000364
 31
0.0
  0
LINE
  5
169E
330
160B
100
AcDbEntity
  8
Widoczne wąskie (ISO)
100
AcDbLine
 10
-52.0
 20
91.00000000000454
 30
0.0
 11
52.0
 21
91.00000000000454
 31
0.0
  0
LINE
  5
169F
330
160B
100
AcDbEntity
  8
Widoczne wąskie (ISO)
100
AcDbLine
 10
52.0
 20
95.00000000000364
 30
0.0
 11
52.0
 21
91.00000000000546
 31
0.0
  0
LINE
  5
16A0
330
160B
100
AcDbEntity
  8
Widoczne (ISO)
100
AcDbLine
 10
52.0
 20
95.00000000000364
 30
0.0
 11
-52.0
 21
95.00000000000364
 31
0.0
  0
LINE
  5
16A1
330
160B
100
AcDbEntity
  8
Widoczne wąskie (ISO)
100
AcDbLine
 10
-56.0
 20
87.00000000000546
 30
0.0
 11
-60.0
 21
87.00000000000363
 31
0.0
  0
ARC
  5
16A2
330
160B
100
AcDbEntity
  8
Widoczne wąskie (ISO)
100
AcDbCircle
 10
-52.0
 20
87.00000000000455
 30
0.0
 40
4.000000000000003
100
AcDbArc
 50
90.0
 51
180.0
  0
ARC
  5
16A3
330
160B
100
AcDbEntity
  8
Widoczne (ISO)
100
AcDbCircle
 10
-52.0
 20
87.00000000000363
 30
0.0
 40
8.000000000000015
100
AcDbArc
 50
90.0
 51
180.0
  0
LINE
  5
16A4
330
160B
100
AcDbEntity
  8
Widoczne wąskie (ISO)
100
AcDbLine
 10
60.0
 20
87.00000000000363
 30
0.0
 11
56.0
 21
87.00000000000546
 31
0.0
  0
ARC
  5
16A5
330
160B
100
AcDbEntity
  8
Widoczne (ISO)
100
AcDbCircle
 10
52.0
 20
87.00000000000363
 30
0.0
 40
7.999999999999998
100
AcDbArc
 50
0.0
 51
90.0
  0
ARC
  5
16A6
330
160B
100
AcDbEntity
  8
Widoczne wąskie (ISO)
100
AcDbCircle
 10
52.0
 20
87.00000000000455
 30
0.0
 40
4.000000000000016
100
AcDbArc
 50
0.0
 51
90.0
  0
LINE
  5
16A7
330
160B
100
AcDbEntity
  8
Widoczne wąskie (ISO)
100
AcDbLine
 10
-56.0
 20
63.00000000000455
 30
0.0
 11
-60.0
 21
63.00000000000363
 31
0.0
  0
LINE
  5
16A8
330
160B
100
AcDbEntity
  8
Widoczne wąskie (ISO)
100
AcDbLine
 10
-56.0
 20
63.00000000000455
 30
0.0
 11
-56.0
 21
87.00000000000455
 31
0.0
  0
LINE
  5
16A9
330
160B
100
AcDbEntity
  8
Widoczne (ISO)
100
AcDbLine
 10
-60.0
 20
87.00000000000363
 30
0.0
 11
-60.0
 21
63.00000000000363
 31
0.0
  0
LINE
  5
16AA
330
160B
100
AcDbEntity
  8
Widoczne wąskie (ISO)
100
AcDbLine
 10
60.0
 20
63.00000000000363
 30
0.0
 11
56.0
 21
63.00000000000455
 31
0.0
  0
LINE
  5
16AB
330
160B
100
AcDbEntity
  8
Widoczne (ISO)
100
AcDbLine
 10
60.0
 20
63.00000000000363
 30
0.0
 11
60.0
 21
87.00000000000363
 31
0.0
  0
LINE
  5
16AC
330
160B
100
AcDbEntity
  8
Widoczne wąskie (ISO)
100
AcDbLine
 10
56.0
 20
87.00000000000455
 30
0.0
 11
56.0
 21
63.00000000000455
 31
0.0
  0
LINE
  5
16AD
330
160B
100
AcDbEntity
  8
Widoczne wąskie (ISO)
100
AcDbLine
 10
-52.0
 20
59.00000000000455
 30
0.0
 11
-52.0
 21
55.00000000000364
 31
0.0
  0
ARC
  5
16AE
330
160B
100
AcDbEntity
  8
Widoczne wąskie (ISO)
100
AcDbCircle
 10
-52.0
 20
63.00000000000455
 30
0.0
 40
4.000000000000012
100
AcDbArc
 50
180.0
 51
270.0
  0
ARC
  5
16AF
330
160B
100
AcDbEntity
  8
Widoczne (ISO)
100
AcDbCircle
 10
-52.0
 20
63.00000000000363
 30
0.0
 40
7.999999999999998
100
AcDbArc
 50
180.0
 51
270.0
  0
LINE
  5
16B0
330
160B
100
AcDbEntity
  8
Widoczne wąskie (ISO)
100
AcDbLine
 10
52.0
 20
55.00000000000364
 30
0.0
 11
52.0
 21
59.00000000000455
 31
0.0
  0
ARC
  5
16B1
330
160B
100
AcDbEntity
  8
Widoczne (ISO)
100
AcDbCircle
 10
52.0
 20
63.00000000000363
 30
0.0
 40
8.000000000000015
100
AcDbArc
 50
270.0
 51
0.0
  0
ARC
  5
16B2
330
160B
100
AcDbEntity
  8
Widoczne wąskie (ISO)
100
AcDbCircle
 10
52.0
 20
63.00000000000455
 30
0.0
 40
4.000000000000003
100
AcDbArc
 50
270.0
 51
0.0
  0
LINE
  5
16B3
330
160B
100
AcDbEntity
  8
Widoczne (ISO)
100
AcDbLine
 10
-52.0
 20
55.00000000000364
 30
0.0
 11
-25.45584412271637
 21
55.00000000000364
 31
0.0
  0
LINE
  5
16B4
330
160B
100
AcDbEntity
  8
Widoczne (ISO)
100
AcDbLine
 10
25.45584412271637
 20
55.00000000000364
 30
0.0
 11
52.0
 21
55.00000000000364
 31
0.0
  0
LINE
  5
16B5
330
160B
100
AcDbEntity
  8
Widoczne wąskie (ISO)
100
AcDbLine
 10
52.0
 20
59.00000000000455
 30
0.0
 11
-52.0
 21
59.00000000000455
 31
0.0
  0
ARC
  5
16B6
330
160B
100
AcDbEntity
  8
Widoczne (ISO)
100
AcDbCircle
 10
1585.0
 20
164.9999999998399
 30
0.0
 40
1000.0
100
AcDbArc
 50
0.0
 51
90.0
  0
LINE
  5
16B7
330
160B
100
AcDbEntity
  8
Widoczne (ISO)
100
AcDbLine
 10
1585.0
 20
1164.99999999984
 30
0.0
 11
-1585.0
 21
1164.999999999838
 31
0.0
  0
ARC
  5
16B8
330
160B
100
AcDbEntity
  8
Widoczne (ISO)
100
AcDbCircle
 10
-1585.0
 20
164.9999999998381
 30
0.0
 40
1000.0
100
AcDbArc
 50
90.0
 51
180.0
  0
LINE
  5
16B9
330
160B
100
AcDbEntity
  8
Widoczne (ISO)
100
AcDbLine
 10
-2585.0
 20
164.9999999998381
 30
0.0
 11
-2585.0
 21
-165.0000000001601
 31
0.0
  0
ARC
  5
16BA
330
160B
100
AcDbEntity
  8
Widoczne (ISO)
100
AcDbCircle
 10
-1585.0
 20
-165.0000000001601
 30
0.0
 40
999.9999999999998
100
AcDbArc
 50
180.0
 51
270.0
  0
LINE
  5
16BB
330
160B
100
AcDbEntity
  8
Widoczne (ISO)
100
AcDbLine
 10
-1585.0
 20
-1165.00000000016
 30
0.0
 11
1585.0
 21
-1165.000000000159
 31
0.0
  0
ARC
  5
16BC
330
160B
100
AcDbEntity
  8
Widoczne (ISO)
100
AcDbCircle
 10
1585.0
 20
-165.0000000001591
 30
0.0
 40
1000.0
100
AcDbArc
 50
270.0
 51
0.0
  0
LINE
  5
16BD
330
160B
100
AcDbEntity
  8
Widoczne (ISO)
100
AcDbLine
 10
2585.0
 20
-165.0000000001591
 30
0.0
 11
2585.0
 21
164.9999999998399
 31
0.0
  0
ENDBLK
  5
160D
330
160B
100
AcDbEntity
  8
0
100
AcDbBlockEnd
  0
ENDSEC
  0
SECTION
  2
ENTITIES
  0
DIMENSION
  5
328
330
6C
100
AcDbEntity
  8
Wymiar (ISO)
100
AcDbDimension
  2
*D6
 10
13743.8118161888
 20
5915.131339506214
 30
0.0
 11
13743.8118161888
 21
7080.131339506213
 31
0.0
 70
   160
  1
<>
 71
     2
 42
2330.0
  3
Domyślne (ISO)
100
AcDbAlignedDimension
 13
12515.87642604834
 23
8245.131339506214
 33
0.0
 14
12515.87642604834
 24
5915.131339506214
 34
0.0
 50
90.0
100
AcDbRotatedDimension
1001
ACAD
1000
DSTYLE
1002
{
1070
   172
1070
     0
1070
   289
1070
     1
1070
    74
1070
     0
1070
   271
1070
     0
1070
   272
1070
     0
1070
    48
1040
0.0
1070
    47
1040
0.0
1002
}
  0
DIMENSION
  5
411
330
6C
100
AcDbEntity
  8
Wymiar (ISO)
100
AcDbDimension
  2
*D7
 10
8345.87642604834
 20
5645.769181734909
 30
0.0
 11
10930.87642604834
 21
5645.769181734909
 31
0.0
 70
   160
  1
<>
 71
     2
 42
5170.0
  3
Domyślne (ISO)
100
AcDbAlignedDimension
 13
13515.87642604834
 23
6915.131339506214
 33
0.0
 14
8345.87642604834
 24
6915.131339506213
 34
0.0
100
AcDbRotatedDimension
1001
ACAD
1000
DSTYLE
1002
{
1070
   172
1070
     0
1070
   289
1070
     1
1070
    74
1070
     0
1070
   271
1070
     0
1070
   272
1070
     0
1070
    48
1040
0.0
1070
    47
1040
0.0
1002
}
  0
DIMENSION
  5
AA1
330
6C
100
AcDbEntity
  8
Wymiar (ISO)
100
AcDbDimension
  2
*D8
 10
7029.162976450535
 20
5611.313554052451
 30
0.0
 11
4444.162976450535
 21
5611.313554052451
 31
0.0
 70
   160
  1
<>
 71
     2
 42
5170.0
  3
Domyślne (ISO)
100
AcDbAlignedDimension
 13
1859.162976450536
 23
6915.131339506216
 33
0.0
 14
7029.162976450535
 24
6915.131339506214
 34
0.0
 50
180.0
100
AcDbRotatedDimension
1001
ACAD
1000
DSTYLE
1002
{
1070
   172
1070
     0
1070
   289
1070
     1
1070
    74
1070
     0
1070
   271
1070
     0
1070
   272
1070
     0
1070
    48
1040
0.0
1070
    47
1040
0.0
1002
}
  0
DIMENSION
  5
B83
330
6C
100
AcDbEntity
  8
Wymiar (ISO)
100
AcDbDimension
  2
*D9
 10
7272.362863333437
 20
8245.131339506212
 30
0.0
 11
7272.362863333436
 21
7080.131339506213
 31
0.0
 70
   160
  1
<>
 71
     2
 42
2329.999999999997
  3
Domyślne (ISO)
100
AcDbAlignedDimension
 13
6029.162976450535
 23
5915.131339506215
 33
0.0
 14
6029.162976450535
 24
8245.131339506212
 34
0.0
 50
270.0
100
AcDbRotatedDimension
1001
ACAD
1000
DSTYLE
1002
{
1070
   172
1070
     0
1070
   289
1070
     1
1070
    74
1070
     0
1070
   271
1070
     0
1070
   272
1070
     0
1070
    48
1040
0.0
1070
    47
1040
0.0
1002
}
  0
MTEXT
  5
141E
102
{ACAD_XDICTIONARY
360
1747
102
}
330
6C
100
AcDbEntity
  8
0
100
AcDbMText
 10
1865.445340251925
 20
5343.739615389068
 30
0.0
 40
120.0
 41
5265.995670985907
 71
     1
 72
     5
  1
Nr kat.: 2236A\PNazwa: Hu\U+015Btawka wagowa - przekr\U+00F3j okr\U+0105g\U+0142y\PData utworzenia: 23-07-2012
 73
     1
 44
1.0
1001
ACAD
1000
ACAD_MTEXT_COLUMN_INFO_BEGIN
1070
    75
1070
     2
1070
    79
1070
     0
1070
    76
1070
     1
1070
    78
1070
     0
1070
    48
1040
5265.995670985907
1070
    49
1040
1.0
1070
    50
1070
     1
1040
0.0
1000
ACAD_MTEXT_COLUMN_INFO_END
1000
MTEXTBEGIN
1070
    73
1070
     1
1070
    44
1040
1.0
1070
    74
1070
     0
1000
MTEXTEND
  0
MTEXT
  5
147F
102
{ACAD_XDICTIONARY
360
1749
102
}
330
6C
100
AcDbEntity
  8
0
100
AcDbMText
 10
8366.569740049653
 20
5344.253869933112
 30
0.0
 40
120.0
 41
5265.995670985907
 71
     1
 72
     5
  1
Nr kat.: 2236\PNazwa: Hu\U+015Btawka wagowa - przekr\U+00F3j prostok\U+0105tny\PData utworzenia: 23-07-2012
 73
     1
 44
1.0
1001
ACAD
1000
ACAD_MTEXT_COLUMN_INFO_BEGIN
1070
    75
1070
     2
1070
    79
1070
     0
1070
    76
1070
     1
1070
    78
1070
     0
1070
    48
1040
5265.995670985907
1070
    49
1040
1.0
1070
    50
1070
     1
1040
0.0
1000
ACAD_MTEXT_COLUMN_INFO_END
1000
MTEXTBEGIN
1070
    73
1070
     1
1070
    44
1040
1.0
1070
    74
1070
     0
1000
MTEXTEND
  0
INSERT
  5
160A
330
6C
100
AcDbEntity
  8
0
100
AcDbBlockReference
  2
2236A_Hustawka-wagowa
 10
4444.208959433148
 20
7077.330822966684
 30
0.0
  0
INSERT
  5
16BE
330
6C
100
AcDbEntity
  8
0
100
AcDbBlockReference
  2
2236_Hustawka-wagowa
 10
10930.87642604834
 20
7080.131339506372
 30
0.0
  0
ENDSEC
  0
SECTION
  2
OBJECTS
  0
DICTIONARY
  5
C
330
0
100
AcDbDictionary
281
     1
  3
ACAD_2007HEADERVARS_RT
350
1709
  3
ACAD_COLOR
350
63
  3
ACAD_GROUP
350
D
  3
ACAD_LAYOUT
350
62
  3
ACAD_MATERIAL
350
10
  3
ACAD_MLEADERSTYLE
350
66
  3
ACAD_MLINESTYLE
350
5F
  3
ACAD_PLOTSETTINGS
350
61
  3
ACAD_PLOTSTYLENAME
350
E
  3
ACAD_SCALELIST
350
42
  3
ACAD_TABLESTYLE
350
64
  3
ACAD_VISUALSTYLE
350
29
  3
ACDB_RECOMPOSE_DATA
350
1707
  3
AcDbVariableDictionary
350
10B0
  3
AcmDictionary
350
13A6
  3
AMG
350
1358
  3
AMGSNAPSETTINGS
350
1404
  3
DWGPROPS
350
1708
  0
DICTIONARY
  5
1248
330
8
100
AcDbDictionary
280
     1
281
     1
  0
DICTIONARY
  5
10BB
330
2
100
AcDbDictionary
280
     1
281
     1
  3
ACAD_LAYERSTATES
360
10BC
  0
DICTIONARY
  5
1483
330
6C
100
AcDbDictionary
280
     1
281
     1
  3
ACAD_SORTENTS
360
1484
  0
DICTIONARY
  5
1747
330
141E
100
AcDbDictionary
280
     1
281
     1
  3
ACAD_MTEXT_RT
360
1748
  0
DICTIONARY
  5
1749
330
147F
100
AcDbDictionary
280
     1
281
     1
  3
ACAD_MTEXT_RT
360
174A
  0
DICTIONARY
  5
1709
102
{ACAD_REACTORS
330
C
102
}
330
C
100
AcDbDictionary
281
     1
  3
DIMARCSYM
350
170A
  3
DIMLTEX1
350
170C
  3
DIMLTEX2
350
170D
  3
DIMLTYPE
350
170B
  0
DICTIONARY
  5
63
102
{ACAD_REACTORS
330
C
102
}
330
C
100
AcDbDictionary
281
     1
  0
DICTIONARY
  5
D
102
{ACAD_REACTORS
330
C
102
}
330
C
100
AcDbDictionary
281
     1
  0
DICTIONARY
  5
62
102
{ACAD_REACTORS
330
C
102
}
330
C
100
AcDbDictionary
281
     1
  3
Layout1
350
6B
  3
Layout2
350
73
  3
Model
350
6F
  0
DICTIONARY
  5
10
102
{ACAD_REACTORS
330
C
102
}
330
C
100
AcDbDictionary
281
     1
  3
ByBlock
350
19
  3
ByLayer
350
11
  3
Global
350
21
  0
DICTIONARY
  5
66
102
{ACAD_REACTORS
330
C
102
}
330
C
100
AcDbDictionary
281
     1
  3
Standard
350
67
  0
DICTIONARY
  5
5F
102
{ACAD_REACTORS
330
C
102
}
330
C
100
AcDbDictionary
281
     1
  3
Standard
350
60
  0
DICTIONARY
  5
61
102
{ACAD_REACTORS
330
C
102
}
330
C
100
AcDbDictionary
281
     1
  0
ACDBDICTIONARYWDFLT
  5
E
102
{ACAD_REACTORS
330
C
102
}
330
C
100
AcDbDictionary
281
     1
  3
Normal
350
F
100
AcDbDictionaryWithDefault
340
F
  0
DICTIONARY
  5
42
102
{ACAD_REACTORS
330
C
102
}
330
C
100
AcDbDictionary
281
     1
  3
A0
350
43
  3
A1
350
44
  3
A2
350
45
  3
A3
350
46
  3
A4
350
47
  3
A5
350
48
  3
A6
350
49
  3
A7
350
4A
  3
A8
350
4B
  3
A9
350
4C
  3
B0
350
4D
  3
B1
350
4E
  3
B2
350
4F
  3
B3
350
50
  3
B4
350
51
  3
B5
350
52
  3
B6
350
53
  0
DICTIONARY
  5
64
102
{ACAD_REACTORS
330
C
102
}
330
C
100
AcDbDictionary
281
     1
  3
Standard
350
65
  0
DICTIONARY
  5
29
102
{ACAD_REACTORS
330
C
102
}
330
C
100
AcDbDictionary
281
     1
  3
2dWireframe
350
2F
  3
Basic
350
2E
  3
Brighten
350
35
  3
ColorChange
350
39
  3
Conceptual
350
32
  3
Dim
350
34
  3
EdgeColorOff
350
41
  3
Facepattern
350
38
  3
Flat
350
2A
  3
FlatWithEdges
350
2B
  3
Gouraud
350
2C
  3
GouraudWithEdges
350
2D
  3
Hidden
350
31
  3
JitterOff
350
3F
  3
Linepattern
350
37
  3
OverhangOff
350
40
  3
Realistic
350
33
  3
Shaded
350
3E
  3
Shaded with edges
350
3D
  3
Shades of Gray
350
3A
  3
Sketchy
350
3B
  3
Thicken
350
36
  3
Wireframe
350
30
  3
X-Ray
350
3C
  0
XRECORD
  5
1707
102
{ACAD_REACTORS
330
C
102
}
330
C
100
AcDbXrecord
280
     1
 90
        1
330
65
330
141E
330
147F
  0
DICTIONARY
  5
10B0
102
{ACAD_REACTORS
330
C
102
}
330
C
100
AcDbDictionary
281
     1
  3
CANNOSCALE
350
10B3
  3
CMLEADERSTYLE
350
10B2
  3
CTABLESTYLE
350
10B1
  3
DIMASSOC
350
128D
  3
HIDETEXT
350
128C
  3
INDEXCTL
350
128B
  3
LAYEREVAL
350
1288
  3
LAYERNOTIFY
350
1289
  3
LIGHTINGUNITS
350
1287
  3
MSLTSCALE
350
1286
  3
SORTENTS
350
128A
  3
XCLIPFRAME
350
1705
  0
DICTIONARY
  5
13A6
102
{ACAD_REACTORS
330
C
102
}
330
C
100
AcDbDictionary
281
     1
  3
AcmStdDictionary
350
13B1
  0
DICTIONARY
  5
1358
102
{ACAD_REACTORS
330
C
102
}
330
C
100
AcDbDictionary
281
     1
  0
DICTIONARY
  5
1404
102
{ACAD_REACTORS
330
C
102
}
330
C
100
AcDbDictionary
281
     1
  0
XRECORD
  5
1708
102
{ACAD_REACTORS
330
C
102
}
330
C
100
AcDbXrecord
280
     1
  1
DWGPROPS COOKIE
  2
zestaw 1 - betonowanie
  3

  4
Muller
  6

  7

  8
GRAFIK
  9
01
300
Menadżer=
301
Firma=
302
Kategoria=
303
Numer części=zestaw 1 kt
304
Opis=
305
Projekt=
306
Projektant=Paweł
307
Inżynier=
308
Zatwierdził=
309
Centrum kosztów=
 40
0.0251587268518519
 41
2455793.643249352
 42
2459858.491709456
  1

 90
       16
300
Dostawca=
300
Stan użytkownika=
300
Stan projektu=PracaWToku
300
Sprawdził=Pro-Design
300
Zatwierdził konstrukcję=Muller
300
Zatwierdził do produkcji=
  0
DICTIONARY
  5
10BC
102
{ACAD_REACTORS
330
10BB
102
}
330
10BB
100
AcDbDictionary
281
     1
  0
SORTENTSTABLE
  5
1484
102
{ACAD_REACTORS
330
1483
102
}
330
1483
100
AcDbSortentsTable
330
6C
331
AA1
  5
B83
331
147F
  5
1482
331
328
  5
411
331
141E
  5
147F
331
B83
  5
141E
331
411
  5
9FF
  0
XRECORD
  5
1748
102
{ACAD_REACTORS
330
1747
102
}
330
1747
100
AcDbXrecord
280
     1
 40
470010.0
  1
Nr kat.: 2236A\PNazwa: Huśtawka wagowa - przekrój okrągły\PData utworzenia: 23-07-2012
  0
XRECORD
  5
174A
102
{ACAD_REACTORS
330
1749
102
}
330
1749
100
AcDbXrecord
280
     1
 40
466711.0
  1
Nr kat.: 2236\PNazwa: Huśtawka wagowa - przekrój prostokątny\PData utworzenia: 23-07-2012
  0
XRECORD
  5
170A
102
{ACAD_REACTORS
330
1709
102
}
330
1709
100
AcDbXrecord
280
     1
 70
     1
  0
XRECORD
  5
170C
102
{ACAD_REACTORS
330
1709
102
}
330
1709
100
AcDbXrecord
280
     1
340
5B
  0
XRECORD
  5
170D
102
{ACAD_REACTORS
330
1709
102
}
330
1709
100
AcDbXrecord
280
     1
340
5B
  0
XRECORD
  5
170B
102
{ACAD_REACTORS
330
1709
102
}
330
1709
100
AcDbXrecord
280
     1
340
5B
  0
LAYOUT
  5
6B
102
{ACAD_XDICTIONARY
360
1742
102
}
102
{ACAD_REACTORS
330
62
102
}
330
62
100
AcDbPlotSettings
  1

  2

  4

  6

 40
0.0
 41
0.0
 42
0.0
 43
0.0
 44
0.0
 45
0.0
 46
0.0
 47
0.0
 48
0.0
 49
0.0
140
0.0
141
0.0
142
1.0
143
1.0
 70
   688
 72
     0
 73
     0
 74
     5
  7

 75
    16
147
1.0
148
0.0
149
0.0
100
AcDbLayout
  1
Layout1
 70
     1
 71
     1
 10
0.0
 20
0.0
 11
14850.0
 21
10500.0
 12
0.0
 22
0.0
 32
0.0
 14
0.0
 24
0.0
 34
0.0
 15
14850.0
 25
10500.0
 35
0.0
146
0.0
 13
0.0
 23
0.0
 33
0.0
 16
1.0
 26
0.0
 36
0.0
 17
0.0
 27
1.0
 37
0.0
 76
     0
330
68
  0
LAYOUT
  5
73
102
{ACAD_XDICTIONARY
360
1745
102
}
102
{ACAD_REACTORS
330
62
102
}
330
62
100
AcDbPlotSettings
  1

  2

  4

  6

 40
0.0
 41
0.0
 42
0.0
 43
0.0
 44
0.0
 45
0.0
 46
0.0
 47
0.0
 48
0.0
 49
0.0
140
0.0
141
0.0
142
1.0
143
1.0
 70
   688
 72
     0
 73
     0
 74
     5
  7

 75
    16
147
1.0
148
0.0
149
0.0
100
AcDbLayout
  1
Layout2
 70
     1
 71
     2
 10
0.0
 20
0.0
 11
12.0
 21
9.0
 12
0.0
 22
0.0
 32
0.0
 14
0.0
 24
0.0
 34
0.0
 15
0.0
 25
0.0
 35
0.0
146
0.0
 13
0.0
 23
0.0
 33
0.0
 16
1.0
 26
0.0
 36
0.0
 17
0.0
 27
1.0
 37
0.0
 76
     0
330
70
  0
LAYOUT
  5
6F
102
{ACAD_XDICTIONARY
360
110C
102
}
102
{ACAD_REACTORS
330
62
102
}
330
62
100
AcDbPlotSettings
  1

  2

  4

  6

 40
0.0
 41
0.0
 42
0.0
 43
0.0
 44
0.0
 45
0.0
 46
0.0
 47
0.0
 48
0.0
 49
0.0
140
0.0
141
0.0
142
1.0
143
1.0
 70
  1712
 72
     0
 73
     0
 74
     0
  7

 75
     0
147
1.0
148
0.0
149
0.0
100
AcDbLayout
  1
Model
 70
     1
 71
     0
 10
0.0
 20
0.0
 11
12.0
 21
9.0
 12
0.0
 22
0.0
 32
0.0
 14
0.0
 24
0.0
 34
0.0
 15
0.0
 25
0.0
 35
0.0
146
0.0
 13
0.0
 23
0.0
 33
0.0
 16
1.0
 26
0.0
 36
0.0
 17
0.0
 27
1.0
 37
0.0
 76
     0
330
6C
331
57
  0
MATERIAL
  5
19
102
{ACAD_XDICTIONARY
360
1A
102
}
102
{ACAD_REACTORS
330
10
102
}
330
10
100
AcDbMaterial
  1
ByBlock
 72
     0
 43
0.0208333333333333
 43
0.0
 43
0.0
 43
0.0
 43
0.0
 43
0.0208333333333333
 43
0.0
 43
0.0
 43
0.0
 43
0.0
 43
1.0
 43
0.0
 43
0.0
 43
0.0
 43
0.0
 43
1.0
 77
     0
 47
0.0208333333333333
 47
0.0
 47
0.0
 47
0.0
 47
0.0
 47
0.0208333333333333
 47
0.0
 47
0.0
 47
0.0
 47
0.0
 47
1.0
 47
0.0
 47
0.0
 47
0.0
 47
0.0
 47
1.0
171
     0
 49
0.0208333333333333
 49
0.0
 49
0.0
 49
0.0
 49
0.0
 49
0.0208333333333333
 49
0.0
 49
0.0
 49
0.0
 49
0.0
 49
1.0
 49
0.0
 49
0.0
 49
0.0
 49
0.0
 49
1.0
175
     0
142
0.0208333333333333
142
0.0
142
0.0
142
0.0
142
0.0
142
0.0208333333333333
142
0.0
142
0.0
142
0.0
142
0.0
142
1.0
142
0.0
142
0.0
142
0.0
142
0.0
142
1.0
179
     0
144
0.0208333333333333
144
0.0
144
0.0
144
0.0
144
0.0
144
0.0208333333333333
144
0.0
144
0.0
144
0.0
144
0.0
144
1.0
144
0.0
144
0.0
144
0.0
144
0.0
144
1.0
147
0.0208333333333333
147
0.0
147
0.0
147
0.0
147
0.0
147
0.0208333333333333
147
0.0
147
0.0
147
0.0
147
0.0
147
1.0
147
0.0
147
0.0
147
0.0
147
0.0
147
1.0
  0
MATERIAL
  5
11
102
{ACAD_XDICTIONARY
360
12
102
}
102
{ACAD_REACTORS
330
10
102
}
330
10
100
AcDbMaterial
  1
ByLayer
 72
     0
 43
0.0208333333333333
 43
0.0
 43
0.0
 43
0.0
 43
0.0
 43
0.0208333333333333
 43
0.0
 43
0.0
 43
0.0
 43
0.0
 43
1.0
 43
0.0
 43
0.0
 43
0.0
 43
0.0
 43
1.0
 77
     0
 47
0.0208333333333333
 47
0.0
 47
0.0
 47
0.0
 47
0.0
 47
0.0208333333333333
 47
0.0
 47
0.0
 47
0.0
 47
0.0
 47
1.0
 47
0.0
 47
0.0
 47
0.0
 47
0.0
 47
1.0
171
     0
 49
0.0208333333333333
 49
0.0
 49
0.0
 49
0.0
 49
0.0
 49
0.0208333333333333
 49
0.0
 49
0.0
 49
0.0
 49
0.0
 49
1.0
 49
0.0
 49
0.0
 49
0.0
 49
0.0
 49
1.0
175
     0
142
0.0208333333333333
142
0.0
142
0.0
142
0.0
142
0.0
142
0.0208333333333333
142
0.0
142
0.0
142
0.0
142
0.0
142
1.0
142
0.0
142
0.0
142
0.0
142
0.0
142
1.0
179
     0
144
0.0208333333333333
144
0.0
144
0.0
144
0.0
144
0.0
144
0.0208333333333333
144
0.0
144
0.0
144
0.0
144
0.0
144
1.0
144
0.0
144
0.0
144
0.0
144
0.0
144
1.0
147
0.0208333333333333
147
0.0
147
0.0
147
0.0
147
0.0
147
0.0208333333333333
147
0.0
147
0.0
147
0.0
147
0.0
147
1.0
147
0.0
147
0.0
147
0.0
147
0.0
147
1.0
  0
MATERIAL
  5
21
102
{ACAD_XDICTIONARY
360
22
102
}
102
{ACAD_REACTORS
330
10
102
}
330
10
100
AcDbMaterial
  1
Global
 72
     0
 43
0.0208333333333333
 43
0.0
 43
0.0
 43
0.0
 43
0.0
 43
0.0208333333333333
 43
0.0
 43
0.0
 43
0.0
 43
0.0
 43
1.0
 43
0.0
 43
0.0
 43
0.0
 43
0.0
 43
1.0
 77
     0
 47
0.0208333333333333
 47
0.0
 47
0.0
 47
0.0
 47
0.0
 47
0.0208333333333333
 47
0.0
 47
0.0
 47
0.0
 47
0.0
 47
1.0
 47
0.0
 47
0.0
 47
0.0
 47
0.0
 47
1.0
171
     0
 49
0.0208333333333333
 49
0.0
 49
0.0
 49
0.0
 49
0.0
 49
0.0208333333333333
 49
0.0
 49
0.0
 49
0.0
 49
0.0
 49
1.0
 49
0.0
 49
0.0
 49
0.0
 49
0.0
 49
1.0
175
     0
142
0.0208333333333333
142
0.0
142
0.0
142
0.0
142
0.0
142
0.0208333333333333
142
0.0
142
0.0
142
0.0
142
0.0
142
1.0
142
0.0
142
0.0
142
0.0
142
0.0
142
1.0
179
     0
144
0.0208333333333333
144
0.0
144
0.0
144
0.0
144
0.0
144
0.0208333333333333
144
0.0
144
0.0
144
0.0
144
0.0
144
1.0
144
0.0
144
0.0
144
0.0
144
0.0
144
1.0
147
0.0208333333333333
147
0.0
147
0.0
147
0.0
147
0.0
147
0.0208333333333333
147
0.0
147
0.0
147
0.0
147
0.0
147
1.0
147
0.0
147
0.0
147
0.0
147
0.0
147
1.0
  0
MLEADERSTYLE
  5
67
102
{ACAD_REACTORS
330
66
102
}
330
66
100
AcDbMLeaderStyle
170
     2
171
     1
172
     0
 90
        2
 40
0.0
 41
0.0
173
     1
 91
-1056964608
340
5B
 92
       -2
290
     1
 42
0.09
291
     1
 43
0.36
  3
Standard
 44
0.18
300

342
55
174
     1
178
     6
175
     1
176
     0
 93
-1056964608
 45
0.18
292
     0
297
     0
 46
0.18
 94
-1056964608
 47
1.0
 49
1.0
140
1.0
293
     1
141
0.0
294
     1
177
     0
142
1.0
295
     0
296
     0
143
0.125
1001
ACAD_MLEADERVER
1070
     2
  0
MLINESTYLE
  5
60
102
{ACAD_REACTORS
330
5F
102
}
330
5F
100
AcDbMlineStyle
  2
STANDARD
 70
     0
  3

 62
   256
 51
90.0
 52
90.0
 71
     2
 49
0.5
 62
   256
  6
BYLAYER
 49
-0.5
 62
   256
  6
BYLAYER
  0
ACDBPLACEHOLDER
  5
F
102
{ACAD_REACTORS
330
E
102
}
330
E
  0
SCALE
  5
43
102
{ACAD_REACTORS
330
42
102
}
330
42
100
AcDbScale
 70
     0
300
1:1
140
1.0
141
1.0
290
     1
  0
SCALE
  5
44
102
{ACAD_REACTORS
330
42
102
}
330
42
100
AcDbScale
 70
     0
300
1/128" = 1'-0"
140
0.0078125
141
12.0
290
     0
  0
SCALE
  5
45
102
{ACAD_REACTORS
330
42
102
}
330
42
100
AcDbScale
 70
     0
300
1/64" = 1'-0"
140
0.015625
141
12.0
290
     0
  0
SCALE
  5
46
102
{ACAD_REACTORS
330
42
102
}
330
42
100
AcDbScale
 70
     0
300
1/32" = 1'-0"
140
0.03125
141
12.0
290
     0
  0
SCALE
  5
47
102
{ACAD_REACTORS
330
42
102
}
330
42
100
AcDbScale
 70
     0
300
1/16" = 1'-0"
140
0.0625
141
12.0
290
     0
  0
SCALE
  5
48
102
{ACAD_REACTORS
330
42
102
}
330
42
100
AcDbScale
 70
     0
300
3/32" = 1'-0"
140
0.09375
141
12.0
290
     0
  0
SCALE
  5
49
102
{ACAD_REACTORS
330
42
102
}
330
42
100
AcDbScale
 70
     0
300
1/8" = 1'-0"
140
0.125
141
12.0
290
     0
  0
SCALE
  5
4A
102
{ACAD_REACTORS
330
42
102
}
330
42
100
AcDbScale
 70
     0
300
3/16" = 1'-0"
140
0.1875
141
12.0
290
     0
  0
SCALE
  5
4B
102
{ACAD_REACTORS
330
42
102
}
330
42
100
AcDbScale
 70
     0
300
1/4" = 1'-0"
140
0.25
141
12.0
290
     0
  0
SCALE
  5
4C
102
{ACAD_REACTORS
330
42
102
}
330
42
100
AcDbScale
 70
     0
300
3/8" = 1'-0"
140
0.375
141
12.0
290
     0
  0
SCALE
  5
4D
102
{ACAD_REACTORS
330
42
102
}
330
42
100
AcDbScale
 70
     0
300
1/2" = 1'-0"
140
0.5
141
12.0
290
     0
  0
SCALE
  5
4E
102
{ACAD_REACTORS
330
42
102
}
330
42
100
AcDbScale
 70
     0
300
3/4" = 1'-0"
140
0.75
141
12.0
290
     0
  0
SCALE
  5
4F
102
{ACAD_REACTORS
330
42
102
}
330
42
100
AcDbScale
 70
     0
300
1" = 1'-0"
140
1.0
141
12.0
290
     0
  0
SCALE
  5
50
102
{ACAD_REACTORS
330
42
102
}
330
42
100
AcDbScale
 70
     0
300
1-1/2" = 1'-0"
140
1.5
141
12.0
290
     0
  0
SCALE
  5
51
102
{ACAD_REACTORS
330
42
102
}
330
42
100
AcDbScale
 70
     0
300
3" = 1'-0"
140
3.0
141
12.0
290
     0
  0
SCALE
  5
52
102
{ACAD_REACTORS
330
42
102
}
330
42
100
AcDbScale
 70
     0
300
6" = 1'-0"
140
6.0
141
12.0
290
     0
  0
SCALE
  5
53
102
{ACAD_REACTORS
330
42
102
}
330
42
100
AcDbScale
 70
     0
300
1'-0" = 1'-0"
140
12.0
141
12.0
290
     0
  0
TABLESTYLE
  5
65
102
{ACAD_XDICTIONARY
360
1232
102
}
102
{ACAD_REACTORS
330
64
102
}
330
64
100
AcDbTableStyle
  3
Standard
 70
     0
 71
     0
 40
0.06
 41
0.06
280
     0
281
     0
  7
Standard
140
0.18
170
     2
 62
     0
 63
     7
283
     0
274
    -2
284
     1
 64
     0
275
    -2
285
     1
 65
     0
276
    -2
286
     1
 66
     0
277
    -2
287
     1
 67
     0
278
    -2
288
     1
 68
     0
279
    -2
289
     1
 69
     0
  7
Standard
140
0.25
170
     5
 62
     0
 63
     7
283
     0
274
    -2
284
     1
 64
     0
275
    -2
285
     1
 65
     0
276
    -2
286
     1
 66
     0
277
    -2
287
     1
 67
     0
278
    -2
288
     1
 68
     0
279
    -2
289
     1
 69
     0
  7
Standard
140
0.18
170
     5
 62
     0
 63
     7
283
     0
274
    -2
284
     1
 64
     0
275
    -2
285
     1
 65
     0
276
    -2
286
     1
 66
     0
277
    -2
287
     1
 67
     0
278
    -2
288
     1
 68
     0
279
    -2
289
     1
 69
     0
  0
VISUALSTYLE
  5
2F
102
{ACAD_XDICTIONARY
360
171B
102
}
102
{ACAD_REACTORS
330
29
102
}
330
29
100
AcDbVisualStyle
  2
2dWireframe
 70
     4
 71
     0
 72
     2
 73
     0
 90
        0
 40
-0.6
 41
-30.0
 62
     5
 63
     7
 74
     1
 91
        4
 64
     7
 65
   257
 75
     1
175
     1
 42
1.0
 92
        0
 66
   257
 43
1.0
 76
     1
 77
     6
 78
     2
 67
     7
 79
     5
170
     0
171
     0
290
     0
174
     0
 93
        1
 44
0.0
173
     0
291
     0
 45
0.0
1001
ACAD
1000
AcDbSavedByObjectVersion
1070
     0
  0
VISUALSTYLE
  5
2E
102
{ACAD_XDICTIONARY
360
1719
102
}
102
{ACAD_REACTORS
330
29
102
}
330
29
100
AcDbVisualStyle
  2
Basic
 70
     7
 71
     1
 72
     0
 73
     1
 90
        0
 40
-0.6
 41
-30.0
 62
     5
 63
     7
 74
     0
 91
        4
 64
     7
 65
   257
 75
     1
175
     1
 42
1.0
 92
        8
 66
     7
 43
1.0
 76
     1
 77
     6
 78
     2
 67
     7
 79
     5
170
     0
171
     0
290
     0
174
     0
 93
        1
 44
0.0
173
     0
291
     1
 45
0.0
1001
ACAD
1000
AcDbSavedByObjectVersion
1070
     0
  0
VISUALSTYLE
  5
35
102
{ACAD_XDICTIONARY
360
1727
102
}
102
{ACAD_REACTORS
330
29
102
}
330
29
100
AcDbVisualStyle
  2
Brighten
 70
    12
 71
     2
 72
     2
 73
     0
 90
        0
 40
-0.6
 41
-30.0
 62
     5
 63
     7
 74
     1
 91
        4
 64
     7
 65
   257
 75
     1
175
     1
 42
1.0
 92
        8
 66
     7
 43
1.0
 76
     1
 77
     6
 78
     2
 67
     7
 79
     5
170
     0
171
     0
290
     0
174
     0
 93
        1
 44
50.0
173
     0
291
     1
 45
0.0
1001
ACAD
1000
AcDbSavedByObjectVersion
1070
     0
  0
VISUALSTYLE
  5
39
102
{ACAD_XDICTIONARY
360
172F
102
}
102
{ACAD_REACTORS
330
29
102
}
330
29
100
AcDbVisualStyle
  2
ColorChange
 70
    16
 71
     2
 72
     2
 73
     3
 90
        0
 40
-0.6
 41
-30.0
 62
     5
 63
     8
 74
     1
 91
        4
 64
     7
 65
   257
 75
     1
175
     1
 42
1.0
 92
        8
 66
     8
 43
1.0
 76
     1
 77
     6
 78
     2
 67
     7
 79
     5
170
     0
171
     0
290
     0
174
     0
 93
        1
 44
0.0
173
     0
291
     1
 45
0.0
1001
ACAD
1000
AcDbSavedByObjectVersion
1070
     0
  0
VISUALSTYLE
  5
32
102
{ACAD_XDICTIONARY
360
1721
102
}
102
{ACAD_REACTORS
330
29
102
}
330
29
100
AcDbVisualStyle
  2
Conceptual
 70
     9
 71
     3
 72
     2
 73
     0
 90
        0
 40
-0.6
 41
-30.0
 62
     5
 63
     7
 74
     2
 91
        2
 64
     7
 65
   257
 75
     1
175
     1
 42
179.0
 92
        8
 66
     7
 43
1.0
 76
     1
 77
     6
 78
     2
 67
     7
 79
     3
170
     0
171
     0
290
     0
174
     0
 93
        1
 44
0.0
173
     0
291
     0
 45
0.0
1001
ACAD
1000
AcDbSavedByObjectVersion
1070
     0
  0
VISUALSTYLE
  5
34
102
{ACAD_XDICTIONARY
360
1725
102
}
102
{ACAD_REACTORS
330
29
102
}
330
29
100
AcDbVisualStyle
  2
Dim
 70
    11
 71
     2
 72
     2
 73
     0
 90
        0
 40
-0.6
 41
-30.0
 62
     5
 63
     7
 74
     1
 91
        4
 64
     7
 65
   257
 75
     1
175
     1
 42
1.0
 92
        8
 66
     7
 43
1.0
 76
     1
 77
     6
 78
     2
 67
     7
 79
     5
170
     0
171
     0
290
     0
174
     0
 93
        1
 44
-50.0
173
     0
291
     1
 45
0.0
1001
ACAD
1000
AcDbSavedByObjectVersion
1070
     0
  0
VISUALSTYLE
  5
41
102
{ACAD_XDICTIONARY
360
173F
102
}
102
{ACAD_REACTORS
330
29
102
}
330
29
100
AcDbVisualStyle
  2
EdgeColorOff
 70
    22
 71
     2
 72
     2
 73
     0
 90
        0
 40
-0.6
 41
-30.0
 62
     5
 63
     7
 74
     1
 91
        4
 64
     7
 65
   257
 75
     1
175
     1
 42
1.0
 92
        8
 66
     7
 43
1.0
 76
     1
 77
     6
 78
     2
 67
     7
 79
     5
170
     0
171
     0
290
     0
174
     0
 93
        1
 44
0.0
173
     0
291
     1
 45
0.0
1001
ACAD
1000
AcDbSavedByObjectVersion
1070
     0
  0
VISUALSTYLE
  5
38
102
{ACAD_XDICTIONARY
360
172D
102
}
102
{ACAD_REACTORS
330
29
102
}
330
29
100
AcDbVisualStyle
  2
Facepattern
 70
    15
 71
     2
 72
     2
 73
     0
 90
        0
 40
-0.6
 41
-30.0
 62
     5
 63
     7
 74
     1
 91
        4
 64
     7
 65
   257
 75
     1
175
     1
 42
1.0
 92
        8
 66
     7
 43
1.0
 76
     1
 77
     6
 78
     2
 67
     7
 79
     5
170
     0
171
     0
290
     0
174
     0
 93
        1
 44
0.0
173
     0
291
     1
 45
0.0
1001
ACAD
1000
AcDbSavedByObjectVersion
1070
     0
  0
VISUALSTYLE
  5
2A
102
{ACAD_XDICTIONARY
360
1711
102
}
102
{ACAD_REACTORS
330
29
102
}
330
29
100
AcDbVisualStyle
  2
Flat
 70
     0
 71
     2
 72
     1
 73
     1
 90
        2
 40
-0.6
 41
30.0
 62
     5
 63
     7
 74
     0
 91
        0
 64
     7
 65
   257
 75
     1
175
     1
 42
1.0
 92
        8
 66
     7
 43
1.0
 76
     1
 77
     6
 78
     2
 67
     7
 79
     5
170
     0
171
     0
290
     0
174
     0
 93
       13
 44
0.0
173
     0
291
     1
 45
0.0
1001
ACAD
1000
AcDbSavedByObjectVersion
1070
     0
  0
VISUALSTYLE
  5
2B
102
{ACAD_XDICTIONARY
360
1713
102
}
102
{ACAD_REACTORS
330
29
102
}
330
29
100
AcDbVisualStyle
  2
FlatWithEdges
 70
     1
 71
     2
 72
     1
 73
     1
 90
        2
 40
-0.6
 41
30.0
 62
     5
 63
     7
 74
     1
 91
        0
 64
     7
 65
   257
 75
     1
175
     1
 42
1.0
 92
        0
 66
   257
 43
1.0
 76
     1
 77
     6
 78
     2
 67
     7
 79
     5
170
     0
171
     0
290
     0
174
     0
 93
       13
 44
0.0
173
     0
291
     1
 45
0.0
1001
ACAD
1000
AcDbSavedByObjectVersion
1070
     0
  0
VISUALSTYLE
  5
2C
102
{ACAD_XDICTIONARY
360
1715
102
}
102
{ACAD_REACTORS
330
29
102
}
330
29
100
AcDbVisualStyle
  2
Gouraud
 70
     2
 71
     2
 72
     2
 73
     1
 90
        2
 40
-0.6
 41
30.0
 62
     5
 63
     7
 74
     0
 91
        0
 64
     7
 65
   257
 75
     1
175
     1
 42
1.0
 92
        0
 66
     7
 43
1.0
 76
     1
 77
     6
 78
     2
 67
     7
 79
     5
170
     0
171
     0
290
     0
174
     0
 93
       13
 44
0.0
173
     0
291
     1
 45
0.0
1001
ACAD
1000
AcDbSavedByObjectVersion
1070
     0
  0
VISUALSTYLE
  5
2D
102
{ACAD_XDICTIONARY
360
1717
102
}
102
{ACAD_REACTORS
330
29
102
}
330
29
100
AcDbVisualStyle
  2
GouraudWithEdges
 70
     3
 71
     2
 72
     2
 73
     1
 90
        2
 40
-0.6
 41
30.0
 62
     5
 63
     7
 74
     1
 91
        0
 64
     7
 65
   257
 75
     1
175
     1
 42
1.0
 92
        0
 66
   257
 43
1.0
 76
     1
 77
     6
 78
     2
 67
     7
 79
     5
170
     0
171
     0
290
     0
174
     0
 93
       13
 44
0.0
173
     0
291
     1
 45
0.0
1001
ACAD
1000
AcDbSavedByObjectVersion
1070
     0
  0
VISUALSTYLE
  5
31
102
{ACAD_XDICTIONARY
360
171F
102
}
102
{ACAD_REACTORS
330
29
102
}
330
29
100
AcDbVisualStyle
  2
Hidden
 70
     6
 71
     1
 72
     2
 73
     2
 90
        0
 40
-0.6
 41
-30.0
 62
     5
 63
     7
 74
     2
 91
        2
 64
     7
 65
   257
 75
     2
175
     1
 42
40.0
 92
        0
 66
   257
 43
1.0
 76
     1
 77
     6
 78
     2
 67
     7
 79
     3
170
     0
171
     0
290
     0
174
     0
 93
        1
 44
0.0
173
     0
291
     0
 45
0.0
1001
ACAD
1000
AcDbSavedByObjectVersion
1070
     0
  0
VISUALSTYLE
  5
3F
102
{ACAD_XDICTIONARY
360
173B
102
}
102
{ACAD_REACTORS
330
29
102
}
330
29
100
AcDbVisualStyle
  2
JitterOff
 70
    20
 71
     2
 72
     2
 73
     0
 90
        0
 40
-0.6
 41
-30.0
 62
     5
 63
     7
 74
     1
 91
        4
 64
     7
 65
   257
 75
     1
175
     1
 42
1.0
 92
       10
 66
     7
 43
1.0
 76
     1
 77
     6
 78
     2
 67
     7
 79
     5
170
     0
171
     0
290
     0
174
     0
 93
        1
 44
0.0
173
     0
291
     1
 45
0.0
1001
ACAD
1000
AcDbSavedByObjectVersion
1070
     0
  0
VISUALSTYLE
  5
37
102
{ACAD_XDICTIONARY
360
172B
102
}
102
{ACAD_REACTORS
330
29
102
}
330
29
100
AcDbVisualStyle
  2
Linepattern
 70
    14
 71
     2
 72
     2
 73
     0
 90
        0
 40
-0.6
 41
-30.0
 62
     5
 63
     7
 74
     1
 91
        4
 64
     7
 65
   257
 75
     7
175
     7
 42
1.0
 92
        8
 66
     7
 43
1.0
 76
     1
 77
     6
 78
     2
 67
     7
 79
     5
170
     0
171
     0
290
     0
174
     0
 93
        1
 44
0.0
173
     0
291
     1
 45
0.0
1001
ACAD
1000
AcDbSavedByObjectVersion
1070
     0
  0
VISUALSTYLE
  5
40
102
{ACAD_XDICTIONARY
360
173D
102
}
102
{ACAD_REACTORS
330
29
102
}
330
29
100
AcDbVisualStyle
  2
OverhangOff
 70
    21
 71
     2
 72
     2
 73
     0
 90
        0
 40
-0.6
 41
-30.0
 62
     5
 63
     7
 74
     1
 91
        4
 64
     7
 65
   257
 75
     1
175
     1
 42
1.0
 92
        9
 66
     7
 43
1.0
 76
     1
 77
     6
 78
     2
 67
     7
 79
     5
170
     0
171
     0
290
     0
174
     0
 93
        1
 44
0.0
173
     0
291
     1
 45
0.0
1001
ACAD
1000
AcDbSavedByObjectVersion
1070
     0
  0
VISUALSTYLE
  5
33
102
{ACAD_XDICTIONARY
360
1723
102
}
102
{ACAD_REACTORS
330
29
102
}
330
29
100
AcDbVisualStyle
  2
Realistic
 70
     8
 71
     2
 72
     2
 73
     0
 90
        2
 40
-0.6
 41
30.0
 62
     5
 63
     7
 74
     0
 91
        0
 64
     7
 65
   257
 75
     1
175
     1
 42
1.0
 92
        8
 66
   257
 43
1.0
 76
     1
 77
     6
 78
     2
 67
     7
 79
     3
170
     0
171
     0
290
     0
174
     0
 93
       13
 44
0.0
173
     0
291
     0
 45
0.0
1001
ACAD
1000
AcDbSavedByObjectVersion
1070
     0
  0
VISUALSTYLE
  5
3E
102
{ACAD_XDICTIONARY
360
1739
102
}
102
{ACAD_REACTORS
330
29
102
}
330
29
100
AcDbVisualStyle
  2
Shaded
 70
    27
 71
     2
 72
     2
 73
     1
 90
        2
 40
-0.6
 41
30.0
 62
     5
 63
     7
 74
     0
 91
        4
 64
     7
 65
   257
 75
     1
175
     1
 42
1.0
 92
        8
 66
   257
 43
1.0
 76
     1
 77
     6
 78
     2
 67
     8
 79
     3
170
     0
171
     0
290
     0
174
     0
 93
        5
 44
0.0
173
     0
291
     0
 45
0.0
1001
ACAD
1000
AcDbSavedByObjectVersion
1070
     0
  0
VISUALSTYLE
  5
3D
102
{ACAD_XDICTIONARY
360
1737
102
}
102
{ACAD_REACTORS
330
29
102
}
330
29
100
AcDbVisualStyle
  2
Shaded with edges
 70
    26
 71
     2
 72
     2
 73
     1
 90
        2
 40
-0.6
 41
30.0
 62
     5
 63
     7
 74
     1
 91
       10
 64
     7
 65
   257
 75
     2
175
     1
 42
1.0
 92
        8
 66
   257
 43
1.0
 76
     1
 77
     6
 78
     2
 67
     7
 79
     3
170
     0
171
     0
290
     0
174
     0
 93
        5
 44
0.0
173
     0
291
     0
 45
0.0
1001
ACAD
1000
AcDbSavedByObjectVersion
1070
     0
  0
VISUALSTYLE
  5
3A
102
{ACAD_XDICTIONARY
360
1731
102
}
102
{ACAD_REACTORS
330
29
102
}
330
29
100
AcDbVisualStyle
  2
Shades of Gray
 70
    23
 71
     2
 72
     2
 73
     3
 90
        0
 40
-0.6
 41
-30.0
 62
     5
 63
     7
 74
     2
 91
        2
 64
     7
 65
     7
 75
     1
175
     1
 42
40.0
 92
        8
 66
     7
 43
1.0
 76
     1
 77
     6
 78
     2
 67
     7
 79
     3
170
     0
171
     0
290
     0
174
     0
 93
        1
 44
0.0
173
     0
291
     0
 45
0.0
1001
ACAD
1000
AcDbSavedByObjectVersion
1070
     0
  0
VISUALSTYLE
  5
3B
102
{ACAD_XDICTIONARY
360
1733
102
}
102
{ACAD_REACTORS
330
29
102
}
330
29
100
AcDbVisualStyle
  2
Sketchy
 70
    24
 71
     1
 72
     2
 73
     2
 90
        0
 40
-0.6
 41
-30.0
 62
     5
 63
     7
 74
     2
 91
        2
 64
     7
 65
     7
 75
     1
175
     1
 42
40.0
 92
       11
 66
     7
 43
1.0
 76
     1
 77
     6
 78
     2
 67
     7
 79
     6
170
     0
171
     0
290
     0
174
     0
 93
        1
 44
0.0
173
     0
291
     0
 45
0.0
1001
ACAD
1000
AcDbSavedByObjectVersion
1070
     0
  0
VISUALSTYLE
  5
36
102
{ACAD_XDICTIONARY
360
1729
102
}
102
{ACAD_REACTORS
330
29
102
}
330
29
100
AcDbVisualStyle
  2
Thicken
 70
    13
 71
     2
 72
     2
 73
     0
 90
        0
 40
-0.6
 41
-30.0
 62
     5
 63
     7
 74
     1
 91
        4
 64
     7
 65
   257
 75
     1
175
     1
 42
1.0
 92
       12
 66
     7
 43
1.0
 76
     1
 77
     6
 78
     2
 67
     7
 79
     5
170
     0
171
     0
290
     0
174
     0
 93
        1
 44
0.0
173
     0
291
     1
 45
0.0
1001
ACAD
1000
AcDbSavedByObjectVersion
1070
     0
  0
VISUALSTYLE
  5
30
102
{ACAD_XDICTIONARY
360
171D
102
}
102
{ACAD_REACTORS
330
29
102
}
330
29
100
AcDbVisualStyle
  2
Wireframe
 70
     5
 71
     0
 72
     2
 73
     0
 90
        0
 40
-0.6
 41
-30.0
 62
     5
 63
     7
 74
     1
 91
        4
 64
     7
 65
   257
 75
     1
175
     1
 42
1.0
 92
        0
 66
   257
 43
1.0
 76
     1
 77
     6
 78
     2
 67
     7
 79
     3
170
     0
171
     0
290
     0
174
     0
 93
        1
 44
0.0
173
     0
291
     0
 45
0.0
1001
ACAD
1000
AcDbSavedByObjectVersion
1070
     0
  0
VISUALSTYLE
  5
3C
102
{ACAD_XDICTIONARY
360
1735
102
}
102
{ACAD_REACTORS
330
29
102
}
330
29
100
AcDbVisualStyle
  2
X-Ray
 70
    25
 71
     2
 72
     2
 73
     1
 90
        1
 40
0.5
 41
-30.0
 62
     5
 63
     7
 74
     1
 91
        0
 64
     7
 65
   257
 75
     1
175
     1
 42
1.0
 92
        8
 66
     7
 43
1.0
 76
     1
 77
     6
 78
     2
 67
     7
 79
     3
170
     0
171
     0
290
     0
174
     0
 93
       13
 44
0.0
173
     0
291
     0
 45
0.0
1001
ACAD
1000
AcDbSavedByObjectVersion
1070
     0
  0
DICTIONARYVAR
  5
10B3
102
{ACAD_REACTORS
330
10B0
102
}
330
10B0
100
DictionaryVariables
280
     0
  1
1:1
  0
DICTIONARYVAR
  5
10B2
102
{ACAD_REACTORS
330
10B0
102
}
330
10B0
100
DictionaryVariables
280
     0
  1
STANDARD
  0
DICTIONARYVAR
  5
10B1
102
{ACAD_REACTORS
330
10B0
102
}
330
10B0
100
DictionaryVariables
280
     0
  1
STANDARD
  0
DICTIONARYVAR
  5
128D
102
{ACAD_REACTORS
330
10B0
102
}
330
10B0
100
DictionaryVariables
280
     0
  1
1
  0
DICTIONARYVAR
  5
128C
102
{ACAD_REACTORS
330
10B0
102
}
330
10B0
100
DictionaryVariables
280
     0
  1
1
  0
DICTIONARYVAR
  5
128B
102
{ACAD_REACTORS
330
10B0
102
}
330
10B0
100
DictionaryVariables
280
     0
  1
0
  0
DICTIONARYVAR
  5
1288
102
{ACAD_REACTORS
330
10B0
102
}
330
10B0
100
DictionaryVariables
280
     0
  1
0
  0
DICTIONARYVAR
  5
1289
102
{ACAD_REACTORS
330
10B0
102
}
330
10B0
100
DictionaryVariables
280
     0
  1
0
  0
DICTIONARYVAR
  5
1287
102
{ACAD_REACTORS
330
10B0
102
}
330
10B0
100
DictionaryVariables
280
     0
  1
2
  0
DICTIONARYVAR
  5
1286
102
{ACAD_REACTORS
330
10B0
102
}
330
10B0
100
DictionaryVariables
280
     0
  1
1
  0
DICTIONARYVAR
  5
128A
102
{ACAD_REACTORS
330
10B0
102
}
330
10B0
100
DictionaryVariables
280
     0
  1
127
  0
DICTIONARYVAR
  5
1705
102
{ACAD_REACTORS
330
10B0
102
}
330
10B0
100
DictionaryVariables
280
     0
  1
2
  0
DICTIONARY
  5
13B1
102
{ACAD_REACTORS
330
13A6
102
}
330
13A6
100
AcDbDictionary
281
     1
  0
DICTIONARY
  5
1742
330
6B
100
AcDbDictionary
280
     1
281
     1
  3
ACAD_XREC_ROUNDTRIP
360
1743
  0
DICTIONARY
  5
1745
330
73
100
AcDbDictionary
280
     1
281
     1
  3
ACAD_XREC_ROUNDTRIP
360
1746
  0
DICTIONARY
  5
110C
330
6F
100
AcDbDictionary
280
     1
281
     1
  3
ACAD_XREC_ROUNDTRIP
360
1744
  3
ADSK_XREC_LAYOUTTHUMBNAIL
360
110D
  0
DICTIONARY
  5
1A
330
19
100
AcDbDictionary
280
     1
281
     1
  3
ACAD_XREC_ROUNDTRIP
360
170F
  3
BUMPTILE
360
1C
  3
DIFFUSETILE
360
1B
  3
OPACITYTILE
360
1F
  3
REFLECTIONTILE
360
1E
  3
REFRACTIONTILE
360
20
  3
SPECULARTILE
360
1D
  0
DICTIONARY
  5
12
330
11
100
AcDbDictionary
280
     1
281
     1
  3
ACAD_XREC_ROUNDTRIP
360
170E
  3
BUMPTILE
360
14
  3
DIFFUSETILE
360
13
  3
OPACITYTILE
360
17
  3
REFLECTIONTILE
360
16
  3
REFRACTIONTILE
360
18
  3
SPECULARTILE
360
15
  0
DICTIONARY
  5
22
330
21
100
AcDbDictionary
280
     1
281
     1
  3
ACAD_XREC_ROUNDTRIP
360
1710
  3
BUMPTILE
360
24
  3
DIFFUSETILE
360
23
  3
OPACITYTILE
360
27
  3
REFLECTIONTILE
360
26
  3
REFRACTIONTILE
360
28
  3
SPECULARTILE
360
25
  0
DICTIONARY
  5
1232
330
65
100
AcDbDictionary
280
     1
281
     1
  3
ACAD_ROUNDTRIP_2008_TABLESTYLE_CELLSTYLEMAP
360
1706
  3
ACAD_XREC_ROUNDTRIP
360
1741
  0
DICTIONARY
  5
171B
330
2F
100
AcDbDictionary
280
     1
281
     1
  3
ACAD_XREC_ROUNDTRIP
360
171C
  0
DICTIONARY
  5
1719
330
2E
100
AcDbDictionary
280
     1
281
     1
  3
ACAD_XREC_ROUNDTRIP
360
171A
  0
DICTIONARY
  5
1727
330
35
100
AcDbDictionary
280
     1
281
     1
  3
ACAD_XREC_ROUNDTRIP
360
1728
  0
DICTIONARY
  5
172F
330
39
100
AcDbDictionary
280
     1
281
     1
  3
ACAD_XREC_ROUNDTRIP
360
1730
  0
DICTIONARY
  5
1721
330
32
100
AcDbDictionary
280
     1
281
     1
  3
ACAD_XREC_ROUNDTRIP
360
1722
  0
DICTIONARY
  5
1725
330
34
100
AcDbDictionary
280
     1
281
     1
  3
ACAD_XREC_ROUNDTRIP
360
1726
  0
DICTIONARY
  5
173F
330
41
100
AcDbDictionary
280
     1
281
     1
  3
ACAD_XREC_ROUNDTRIP
360
1740
  0
DICTIONARY
  5
172D
330
38
100
AcDbDictionary
280
     1
281
     1
  3
ACAD_XREC_ROUNDTRIP
360
172E
  0
DICTIONARY
  5
1711
330
2A
100
AcDbDictionary
280
     1
281
     1
  3
ACAD_XREC_ROUNDTRIP
360
1712
  0
DICTIONARY
  5
1713
330
2B
100
AcDbDictionary
280
     1
281
     1
  3
ACAD_XREC_ROUNDTRIP
360
1714
  0
DICTIONARY
  5
1715
330
2C
100
AcDbDictionary
280
     1
281
     1
  3
ACAD_XREC_ROUNDTRIP
360
1716
  0
DICTIONARY
  5
1717
330
2D
100
AcDbDictionary
280
     1
281
     1
  3
ACAD_XREC_ROUNDTRIP
360
1718
  0
DICTIONARY
  5
171F
330
31
100
AcDbDictionary
280
     1
281
     1
  3
ACAD_XREC_ROUNDTRIP
360
1720
  0
DICTIONARY
  5
173B
330
3F
100
AcDbDictionary
280
     1
281
     1
  3
ACAD_XREC_ROUNDTRIP
360
173C
  0
DICTIONARY
  5
172B
330
37
100
AcDbDictionary
280
     1
281
     1
  3
ACAD_XREC_ROUNDTRIP
360
172C
  0
DICTIONARY
  5
173D
330
40
100
AcDbDictionary
280
     1
281
     1
  3
ACAD_XREC_ROUNDTRIP
360
173E
  0
DICTIONARY
  5
1723
330
33
100
AcDbDictionary
280
     1
281
     1
  3
ACAD_XREC_ROUNDTRIP
360
1724
  0
DICTIONARY
  5
1739
330
3E
100
AcDbDictionary
280
     1
281
     1
  3
ACAD_XREC_ROUNDTRIP
360
173A
  0
DICTIONARY
  5
1737
330
3D
100
AcDbDictionary
280
     1
281
     1
  3
ACAD_XREC_ROUNDTRIP
360
1738
  0
DICTIONARY
  5
1731
330
3A
100
AcDbDictionary
280
     1
281
     1
  3
ACAD_XREC_ROUNDTRIP
360
1732
  0
DICTIONARY
  5
1733
330
3B
100
AcDbDictionary
280
     1
281
     1
  3
ACAD_XREC_ROUNDTRIP
360
1734
  0
DICTIONARY
  5
1729
330
36
100
AcDbDictionary
280
     1
281
     1
  3
ACAD_XREC_ROUNDTRIP
360
172A
  0
DICTIONARY
  5
171D
330
30
100
AcDbDictionary
280
     1
281
     1
  3
ACAD_XREC_ROUNDTRIP
360
171E
  0
DICTIONARY
  5
1735
330
3C
100
AcDbDictionary
280
     1
281
     1
  3
ACAD_XREC_ROUNDTRIP
360
1736
  0
XRECORD
  5
1743
102
{ACAD_REACTORS
330
1742
102
}
330
1742
100
AcDbXrecord
280
     1
102
SHADEPLOT
 70
     0
102
SHADEPLOTRESLEVEL
 70
     2
102
SHADEPLOTCUSTOMDPI
 70
   300
  0
XRECORD
  5
1746
102
{ACAD_REACTORS
330
1745
102
}
330
1745
100
AcDbXrecord
280
     1
102
SHADEPLOT
 70
     0
102
SHADEPLOTRESLEVEL
 70
     2
102
SHADEPLOTCUSTOMDPI
 70
   300
  0
XRECORD
  5
1744
102
{ACAD_REACTORS
330
110C
102
}
330
110C
100
AcDbXrecord
280
     1
102
SHADEPLOT
 70
     0
102
SHADEPLOTRESLEVEL
 70
     2
102
SHADEPLOTCUSTOMDPI
 70
   300
  0
XRECORD
  5
110D
102
{ACAD_REACTORS
330
110C
102
}
330
110C
100
AcDbXrecord
280
     1
310
280000000001000063000000010008000000000000630000000000000000000000010000000000003028210000000000FFFFFF000000000000000000000000000000000000000000000000000000000000000000330000006600000099000000CC000000FF00000000330000333300006633000099330000CC330000FF3300
310
0000660000336600006666000099660000CC660000FF66000000990000339900006699000099990000CC990000FF99000000CC000033CC000066CC000099CC0000CCCC0000FFCC000000FF000033FF000066FF000099FF0000CCFF0000FFFF000000003300330033006600330099003300CC003300FF003300003333003333
310
33006633330099333300CC333300FF33330000663300336633006666330099663300CC663300FF66330000993300339933006699330099993300CC993300FF99330000CC330033CC330066CC330099CC3300CCCC3300FFCC330000FF330033FF330066FF330099FF3300CCFF3300FFFF330000006600330066006600660099
310
006600CC006600FF00660000336600333366006633660099336600CC336600FF33660000666600336666006666660099666600CC666600FF66660000996600339966006699660099996600CC996600FF99660000CC660033CC660066CC660099CC6600CCCC6600FFCC660000FF660033FF660066FF660099FF6600CCFF6600
310
FFFF660000009900330099006600990099009900CC009900FF00990000339900333399006633990099339900CC339900FF33990000669900336699006666990099669900CC669900FF66990000999900339999006699990099999900CC999900FF99990000CC990033CC990066CC990099CC9900CCCC9900FFCC990000FF99
310
0033FF990066FF990099FF9900CCFF9900FFFF99000000CC003300CC006600CC009900CC00CC00CC00FF00CC000033CC003333CC006633CC009933CC00CC33CC00FF33CC000066CC003366CC006666CC009966CC00CC66CC00FF66CC000099CC003399CC006699CC009999CC00CC99CC00FF99CC0000CCCC0033CCCC0066CC
310
CC0099CCCC00CCCCCC00FFCCCC0000FFCC0033FFCC0066FFCC0099FFCC00CCFFCC00FFFFCC000000FF003300FF006600FF009900FF00CC00FF00FF00FF000033FF003333FF006633FF009933FF00CC33FF00FF33FF000066FF003366FF006666FF009966FF00CC66FF00FF66FF000099FF003399FF006699FF009999FF00CC
310
99FF00FF99FF0000CCFF0033CCFF0066CCFF0099CCFF00CCCCFF00FFCCFF0000FFFF0033FFFF0066FFFF0099FFFF00CCFFFF00FFFFFF00000000000D0D0D001A1A1A00282828003535350043434300505050005D5D5D006B6B6B00787878008686860093939300A1A1A100AEAEAE00BBBBBB00C9C9C900D6D6D600E4E4E400
310
F1F1F100FFFFFF000000000000000000000000000000000000000000000000000000000000000000000000000000000000000000000000000000000000000000000000000000000000000000000000000000000000000000000000000000000000000000000000000000000000000000000000000000000000000000000000
310
00000000000000000000000000000000000000000000000000000000000000000000000000000000000000000000000000000000000000000000000000000000000000000000000000000000000000000000000000000000000000000000000000000000000000000000000000000000000000000000000000000000000000
310
00000000000000000000000000000000000000000000000000000000000000000000000000000000000000000000000000000000000000000000000000000000000000000000000000000000000000000000000000000000000000000000000000000000000000000000000000000000000000000000000000000000000000
310
00000000000000000000000000000000000000000000000000000000000000000000000000000000000000000000000000000000000000000000000000000000000000000000000000000000000000000000000000000000000000000000000000000000000000000000000000000000000000000000000000000000000000
310
00000000000000000000000000000000000000000000000000000000000000000000000000000000000000000000000000000000000000000000000000000000000000000000000000000000000000000000000000000000000000000000000000000000000000000000000000000000000000000000000000000000000000
310
00000000000000000000000000000000000000000000000000000000000000000000000000000000000000000000000000000000000000000000000000000000000000000000000000000000000000000000000000000000000000000000000000000000000000000000000000000000000000000000000000000000000000
310
00000000000000000000000000000000000000000000000000000000000000000000000000000000000000000000000000000000000000000000000000000000000000000000000000000000000000000000000000000000000000000000000000000000000000000000000000000000000000000000000000000000000000
310
00000000000000000000000000000000000000000000000000000000000000000000000000000000000000000000000000000000000000000000000000000000000000000000000000000000000000000000000000000000000000000000000000000000000000000000000000000000000000000000000000000000000000
310
00000000000000000000000000000000000000000000000000000000000000000000000000000000000000000000000000000000000000000000000000000000000000000000000000000000000000000000000000000000000000000000000000000000000000000000000000000000000000000000000000000000000000
310
00000000000000000000000000000000000000000000000000000000000000000000000000000000000000000000000000000000000000000000000000000000000000000000000000000000000000000000000000000000000000000000000000000000000000000000000000000000000000000000000000000000000000
310
0000000000000000000000000000000000000000000000000000000000000000000000000000000000000000000000000000000000000000000000000000000000000000000000000000000000000000000000000000000000000000000000000000F5F5F5F5F5F5F5F5F5F5F5F5F500000000000000000000000000000000
310
00000000000000000000000000000000000000000000000000000000000000000000000000000000000000000000000000000000000000000000000000000000000000000000000000000000000000000000000000000000000000000000000000000000000000000000000000000000000000000000000000000000000000
310
00000000000000000000000000000000000000000000000000000000000000000000000000000000000000000000000000000000000000000000000000000000000000000000000000000000000000000000000000000000000000000000F5F5F5F5F5F5F5F50000000000000000F5F5F5F5F5F5F5F5000000000000000000
310
00000000000000000000000000000000000000000000000000000000000000000000000000000000000000000000000000000000000000000000000000000000000000000000000000000000000000000000000000000000000000000000000000000000000000000000000000000000000000000000000000000000000000
310
00000000000000000000000000000000000000000000000000000000000000000000000000000000000000000000000000000000000000000000000000000000000000000000000000000000000000000000000000000000000000F5F5F5F5F5000000000000000000000000000000000000000000000000F5F5F5F5F50000
310
00000000000000000000000000000000000000000000000000000000000000000000000000000000000000000000000000000000000000000000000000000000000000000000000000000000000000000000000000000000000000000000000000000000000000000000000000000000000000000000000000000000000000
310
00000000000000000000000000000000000000000000000000000000000000000000000000000000000000000000000000000000000000000000000000000000000000000000000000000000000000000000000000000000000000F5F500000000000000000000000000000000000000000000000000000000000000000000
310
F5F50000000000000000000000000000000000000000000000000000000000000000000000000000000000000000000000000000000000000000000000000000000000000000000000000000000000000000000000000000000000000000000000000000000000000000000000000000000000000000000000000000000000
310
00000000000000000000000000000000000000000000000000000000000000000000000000000000000000000000000000000000000000000000000000000000000000000000000000000000000000000000000000000000000000F5F500000000000000000000000000000000000000000000000000000000000000000000
310
00000000F5F500000000000000000000000000000000000000000000000000000000000000000000000000000000000000000000000000000000000000000000000000000000000000000000000000000000000000000000000000000000000000000000000000000000000000000000000000000000000000000000000000
310
00000000000000000000000000000000000000000000000000000000000000000000000000000000000000000000000000000000000000000000000000000000000000000000000000000000000000000000000000000000000000F5F500000000000000000000000000000000000000000000000000000000000000000000
310
0000000000000000F5F5000000000000000000000000000000000000000000000000000000000000000000000000000000000000000000000000000000000000000000000000000000000000000000000000000000000000000000000000000000000000000000000000000000000000000000000000000000000000000000
310
00000000000000000000000000000000000000000000000000000000000000000000000000000000000000000000000000000000000000000000000000000000000000000000000000000000000000000000000000000000000000F5F500000000000000000000000000000000000000000000000000000000000000000000
310
000000000000000000000000F5F50000000000000000000000000000000000000000000000000000000000000000000000000000000000000000000000000000000000000000000000000000000000000000000000000000000000000000000000000000000000000000000000000000000000000000000000000000000000
310
00000000000000000000000000000000000000000000000000000000000000000000000000000000000000000000000000000000000000000000000000000000000000000000000000000000000000000000000000000000000000F5F500000000000000000000000000000000000000000000000000000000000000000000
310
00000000000000000000000000000000F5F500000000000000000000000000000000000000000000000000000000000000000000000000000000000000000000000000000000000000000000000000000000000000000000000000000000000000000000000000000000000000000000000000000000000000000000000000
310
00000000000000000000000000000000000000000000000000000000000000000000000000000000000000000000000000000000000000000000000000000000000000000000000000000000000000000000000000000000000000F5F500000000000000000000000000000000000000000000000000000000000000000000
310
0000000000000000000000000000000000000000F5F5000000000000000000000000000000000000000000000000000000000000000000000000000000000000000000000000000000000000000000000000000000000000000000000000000000000000000000000000000000000000000000000000000000000000000000
310
00000000000000000000000000000000000000000000000000000000000000000000000000000000000000000000000000000000000000000000000000000000000000000000000000000000000000000000000000000000000000F5F500000000000000000000000000000000000000000000000000000000000000000000
310
000000000000000000000000000000000000000000000000F5F50000000000000000000000000000000000000000000000000000000000000000000000000000000000000000000000000000000000000000000000000000000000000000000000000000000000000000000000000000000000000000000000000000000000
310
00000000000000000000000000000000000000000000000000000000000000000000000000000000000000000000000000000000000000000000000000000000000000000000000000000000000000000000000000000000000000F5F5F5000000000000000000000000000000000000000000000000000000000000000000
310
00000000000000000000000000000000000000000000000000000000F50000000000000000000000000000000000000000000000000000000000000000000000000000000000000000000000000000000000000000000000000000000000000000000000000000000000000000000000000000000000000000000000000000
310
0000000000000000000000000000000000000000000000000000000000000000000000000000000000000000000000000000000000000000000000000000000000000000000000000000000000000000000000000000000000000000F5F5000000000000000000000000000000000000000000000000000000000000000000
310
00000000000000000000000000000000000000000000000000000000000000F5F500000000000000000000000000000000000000000000000000000000000000000000000000000000000000000000000000000000000000000000000000000000000000000000000000000000000000000000000000000000000000000000
310
000000000000000000000000000000000000000000000000000000000000000000000000000000000000000000000000000000000000000000000000000000000000000000000000000000000000000000000000000000000000000000F5F50000000000000000000000000000000000000000000000000000000000000000
310
0000000000000000000000000000000000000000000000000000000000000000000000F5F5000000000000000000000000000000000000000000000000000000000000000000000000000000000000000000000000000000000000000000000000000000000000000000000000000000000000000000000000000000000000
310
000000000000000000000000000000000000000000000000000000000000000000000000000000000000000000000000000000000000000000000000000000000000000000000000000000000000000000000000000000000000000000F5F50000000000000000000000000000000000000000000000000000000000000000
310
000000000000000000000000000000000000000000000000000000000000000000000000000000F5F50000000000000000000000000000000000000000000000000000000000000000000000000000000000000000000000000000000000000000000000000000000000000000000000000000000000000000000000000000
310
00000000000000000000000000000000000000000000000000000000000000000000000000000000000000000000000000000000000000000000000000000000000000000000000000000000000000000000000000000000000000000000F50000000000000000000000000000000000000000000000000000000000000000
310
000000000000000000000000000000000000000000000000000000000000000000000000000000000000F5F5F500000000000000000000000000000000000000000000000000000000000000000000000000000000000000000000000000000000000000000000000000000000000000000000000000000000000000000000
310
0000000000000000000000000000000000000000000000000000000000000000000000000000000000000000000000000000000000000000000000000000000000000000000000000000000000000000000000000000000000000000000000F5F5000000000000000000000000000000000000000000000000000000000000
310
00000000000000000000000000000000000000000000000000000000000000000000000000000000000000000000F5F500000000000000000000000000000000000000000000000000000000000000000000000000000000000000000000000000000000000000000000000000000000000000000000000000000000000000
310
000000000000000000000000000000000000000000000000000000000000000000000000000000000000000000000000000000000000000000000000000000000000000000000000000000000000000000000000000000000000000000000000F5F50000000000000000000000000000000000000000000000000000000000
310
0000000000000000000000000000000000000000000000000000000000000000000000000000000000000000000000000000F5F5000000000000000000000000000000000000000000000000000000000000000000000000000000000000000000000000000000000000000000000000000000000000000000000000000000
310
00000000000000000000000000000000000000000000000000000000000000000000000000000000000000000000000000000000000000000000000000000000000000000000000000000000000000000000000000000000000000000000000000F5F500000000000000000000000000000000000000000000000000000000
310
000000000000000000000000000000000000000000000000000000000000000000000000000000000000000000000000000000000000F5F50000000000000000000000000000000000000000000000000000000000000000000000000000000000000000000000000000000000000000000000000000000000000000000000
310
0000000000000000000000000000000000000000000000000000000000000000000000000000000000000000000000000000000000000000000000000000000000000000000000000000000000000000000000000000000000000000000000000000F5F5000000000000000000000000000000000000000000000000000000
310
000000000000000000000000000000000000000000000000000000000000000000000000000000000000000000000000000000000000000000F5F5F500000000000000000000000000000000000000000000000000000000000000000000000000000000000000000000000000000000000000000000000000000000000000
310
00000000000000000000000000000000000000000000000000000000000000000000000000000000000000000000000000000000000000000000000000000000000000000000000000000000000000000000000000000000000000000000000000000000F50000000000000000000000000000000000000000000000000000
310
00000000000000000000000000000000000000000000000000000000000000000000000000000000000000000000000000000000000000000000000000F5F500000000000000000000000000000000000000000000000000000000000000000000000000000000000000000000000000000000000000000000000000000000
310
000000000000000000000000000000000000000000000000000000000000000000000000000000000000000000000000000000000000000000000000000000000000000000000000000000000000000000000000000000000000000000000000000000000000F5000000000000000000000000000000000000000000000000
310
0000000000000000000000000000000000000000000000000000000000000000000000000000000000000000000000000000000000000000000000000000000000F5F5000000000000000000000000000000000000000000000000000000000000000000000000000000000000000000000000000000000000000000000000
310
00000000000000000000000000000000000000000000000000000000000000000000000000000000000000000000000000000000000000000000000000000000000000000000000000000000000000000000000000000000000000000000000000000000000000F5F500000000000000000000000000000000000000000000
310
000000000000000000000000000000000000000000000000000000000000000000000000000000000000000000000000000000000000000000000000000000000000000000F5F50000000000000000000000000000000000000000000000000000000000000000000000000000000000000000000000000000000000000000
310
000000000000000000000000000000000000000000000000000000000000000000000000000000000000000000000000000000000000000000000000000000000000000000000000000000000000000000000000000000000000000000000000000000000000000000F5000000000000000000000000000000000000000000
310
000000000000000000000000000000000000000000000000000000000000000000000000000000000000000000000000000000000000000000000000000000000000000000000000F5F5F500000000000000000000000000000000000000000000000000000000000000000000000000000000000000000000000000000000
310
0000000000000000000000000000000000000000000000000000000000000000000000000000000000000000000000000000000000000000000000000000000000000000000000000000000000000000000000000000000000000000000000000000000000000000000000F500000000000000000000000000000000000000
310
00000000000000000000000000000000000000000000000000000000000000000000000000000000000000000000000000000000000000000000000000000000000000000000000000000000F5F5F5000000000000000000000000000000000000000000000000000000000000000000000000000000000000000000000000
310
00000000000000000000000000000000000000000000000000000000000000000000000000000000000000000000000000000000000000000000000000000000000000000000000000000000000000000000000000000000000000000000000000000000000000000000000000F50000000000000000000000000000000000
310
0000000000000000000000000000000000000000000000000000000000000000000000000000000000000000000000000000000000000000000000000000000000000000000000000000000000000000F5F5000000000000000000000000000000000000000000000000000000000000000000000000000000000000000000
310
000000000000000000000000000000000000000000000000000000000000000000000000000000000000000000000000000000000000000000000000000000000000000000000000000000000000000000000000000000000000000000000000000000000000000000000000000000F5000000000000000000000000000000
310
000000000000000000000000000000000000000000000000000000000000000000000000000000000000000000000000000000000000000000000000000000000000000000000000000000000000000000000000F5F50000000000000000000000000000000000000000000000000000000000000000000000000000000000
310
0000000000000000000000000000000000000000000000000000000000000000000000000000000000000000000000000000000000000000000000000000000000000000000000000000000000000000000000000000000000000000000000000000000000000000000000000000000000F500000000000000000000000000
310
000000000000000000000000000000000000000000000000000000000000000000000000000000000000000000000000000000000000000000000000000000000000000000000000000000000000000000000000000000F5F5F500000000000000000000000000000000000000000000000000000000000000000000000000
310
00000000000000000000000000000000000000000000000000000000000000000000000000000000000000000000000000000000000000000000000000000000000000000000000000000000000000000000000000000000000000000000000000000000000000000000000000000000000000F50000000000000000000000
310
00000000000000000000000000000000000000000000000000000000000000000000000000000000000000000000000000000000000000000000000000000000000000000000000000000000000000000000000000000000000000F5F5F5000000000000000000000000000000000000000000000000000000000000000000
310
000000000000000000000000000000000000000000000000000000000000000000000000000000000000000000000000000000000000000000000000000000000000000000000000000000000000000000000000000000000000000000000000000000000000000000000000000000000000000000F5000000000000000000
310
0000000000000000000000000000000000000000000000000000000000000000000000000000000000000000000000000000000000000000000000000000000000000000000000000000000000000000000000000000000000000000000000F5F5000000000000000000000000000000000000000000000000000000000000
310
000000000000000000000000000000000000000000000000000000000000000000000000000000000000000000000000000000000000000000000000000000000000000000000000000000000000000000000000000000000000000000000000000000000000000000000000000000000000000000000000F5000000000000
310
0000000000000000000000000000000000000000000000000000000000000000000000000000000000000000000000000000000000000000000000000000000000000000000000000000000000000000000000000000000000000000000000000000F5F5F50000000000000000000000000000000000000000000000000000
310
0000000000000000000000000000000000000000000000000000000000000000000000000000000000000000000000000000000000000000000000000000000000000000000000000000000000000000000000000000000000000000000000000000000000000000000000000000000000000000000000000000F500000000
310
000000000000000000000000000000000000000000000000000000000000000000000000000000000000000000000000000000000000000000000000000000000000000000000000000000000000000000000000000000000000000000000000000000000000F5F5F500000000000000000000000000000000000000000000
310
00000000000000000000000000000000000000000000000000000000000000000000000000000000000000000000000000000000000000000000000000000000000000000000000000000000000000000000000000000000000000000000000000000000000000000000000000000000000000000000000000000000F50000
310
00000000000000000000000000000000000000000000000000000000000000000000000000000000000000000000000000000000000000000000000000000000000000000000000000000000000000000000000000000000000000000000000000000000000000000000F5F5F5000000000000000000000000000000000000
310
00000000000000000000000000000000000000000000000000000000000000000000000000000000000000000000000000000000000000000000000000000000000000000000000000000000000000000000000000000000000000000000000000000000000000000000000000000000000000000000000000000000000000
310
F500000000000000000000000000000000000000000000000000000000000000000000000000000000000000000000000000000000000000000000000000000000000000000000000000000000000000000000000000000000000000000000000000000000000000000000000000F5F5000000000000000000000000000000
310
00000000000000000000000000000000000000000000000000000000000000000000000000000000000000000000000000000000000000000000000000000000000000000000000000000000000000000000000000000000000000000000000000000000000000000000000000000000000000000000000000000000000000
310
000000F500000000000000000000000000000000000000000000000000000000000000000000000000000000000000000000000000000000000000000000000000000000000000000000000000000000000000000000000000000000000000000000000000000000000000000000000000F5F5F50000000000000000000000
310
00000000000000000000000000000000000000000000000000000000000000000000000000000000000000000000000000000000000000000000000000000000000000000000000000000000000000000000000000000000000000000000000000000000000000000000000000000000000000000000000000000000000000
310
000000000000F500000000000000000000000000000000000000000000000000000000000000000000000000F5000000000000000000000000000000000000000000000000000000000000000000000000000000000000000000000000000000000000000000000000000000000000000000000000F5F5F500000000000000
310
00000000000000000000000000000000000000000000000000000000000000000000000000000000000000000000000000000000000000000000000000000000000000000000000000000000000000000000000000000000000000000000000000000000000000000000000000000000000000000000000000000000000000
310
000000000000000000F50000000000000000000000000000000000000000000000000000000000000000000000F5F5F5F5000000000000000000000000000000000000000000000000000000000000000000000000000000000000000000000000000000000000000000000000000000000000000000000000F5F5F5000000
310
00000000000000000000000000000000000000000000000000000000000000000000000000000000000000000000000000000000000000000000000000000000000000000000000000000000000000000000000000000000000000000000000000000000000000000000000000000000000000000000000000000000000000
310
000000000000000000000000F50000000000000000000000000000000000000000000000000000000000000000F5F5F5F500F50000000000000000000000000000000000000000000000000000000000000000000000000000000000000000000000000000000000000000000000000000000000000000000000000000F5F5
310
F5000000000000000000000000000000000000000000000000000000000000000000000000000000000000000000000000000000000000000000000000000000000000000000000000000000000000000000000000000000000000000000000000000000000000000000000000000000000000000000000000000000000000
310
000000000000000000000000000000F500000000000000000000000000000000000000000000000000000000000000F5F5F5F5F5F5F500000000000000000000000000000000000000000000000000000000000000000000000000000000000000000000000000000000000000000000000000000000000000000000000000
310
00F5F5F5000000000000000000000000000000000000000000000000000000000000000000000000000000000000000000000000000000000000000000000000000000000000000000000000000000000000000000000000000000000000000000000000000000000000000000000000000000000000000000000000000000
310
000000000000000000000000000000000000F50000000000000000000000000000000000000000000000000000000000F5F5F5F5F5F5F5F5F500000000000000000000000000000000000000000000000000000000000000000000000000000000000000000000000000000000000000000000000000000000000000000000
310
0000000000F5F5F50000000000000000000000000000000000000000000000000000000000000000000000000000000000000000000000000000000000000000000000000000000000000000000000000000000000000000000000000000000000000000000000000000000000000000000000000000000000000000000000
310
000000000000000000000000000000000000000000F5F50000000000000000000000000000000000000000000000000000F5F5F50000000000F5F50000000000000000000000000000000000000000000000000000000000000000000000000000000000000000000000000000000000000000000000000000000000000000
310
000000000000000000F5F5F500000000000000000000000000000000000000000000000000000000000000000000000000000000000000000000000000000000000000000000000000000000000000000000000000000000000000000000000000000000000000000000000000000000000000000000000000000000000000
310
00000000000000000000000000000000000000000000000000F5F5000000000000000000000000000000000000000000000000F5F500000000F5F500F5F50000000000000000000000000000000000000000000000000000000000000000000000000000000000000000000000000000000000000000000000000000000000
310
00000000000000000000000000F5F5F5000000000000000000000000000000000000000000000000000000000000000000000000000000000000000000000000000000000000000000000000000000000000000000000000000000000000000000000000000000000000000000000000000000000000000000000000000000
310
0000000000000000000000000000000000000000000000000000000000F5F500000000000000000000000000000000000000000000F5F50000F500000000F5F5F50000000000000000000000000000000000000000000000000000000000000000000000000000000000000000000000000000000000000000000000000000
310
00000000000000000000000000000000F5F5F5000000000000000000000000000000000000000000000000000000000000000000000000000000000000000000000000000000000000000000000000000000000000000000000000000000000000000000000000000000000000000000000000000000000000000000000000
310
000000000000000000000000000000000000000000000000000000000000000000F5F5000000000000000000000000000000000000000000F5F500000000000000F5F5F5F500000000000000000000000000000000000000000000000000000000000000000000000000000000000000000000000000000000000000000000
310
0000000000000000000000000000000000000000F5F5F50000000000000000000000000000000000000000000000000000000000000000000000000000000000000000000000000000000000000000000000000000000000000000000000000000000000000000000000000000000000000000000000000000000000000000
310
00000000000000000000000000000000000000000000000000000000000000000000000000F500000000000000000000000000000000000000000000F5F5F5F5F5F5F5F5F5F5F5F5F500000000000000000000000000000000000000000000000000F5F5000000000000000000000000000000000000000000000000000000
310
000000000000000000000000000000000000000000000000F5F5F500000000000000000000000000000000000000000000000000000000000000000000000000000000000000000000000000000000000000000000000000000000000000000000000000000000000000000000000000000000000000000000000000000000
310
00000000000000000000000000000000000000000000000000000000000000000000000000000000F5F500000000000000000000000000000000000000000000000000000000F5F5F5F5F5F5F50000000000000000000000000000000000000000000000F5F5F5F50000000000000000000000000000000000000000000000
310
000000000000000000000000000000000000000000000000000000F5F5F5F5000000000000000000000000000000000000000000000000000000000000000000000000000000000000000000000000000000000000000000000000000000000000000000000000000000000000000000000000000000000000000000000000
310
0000000000000000000000000000000000000000000000000000000000000000000000000000000000000000F5F500000000000000000000000000000000000000000000000000F5F5F5F5F5F5F500F5F50000000000000000000000000000000000F5F5F5F5F5F500F5000000000000000000000000000000000000000000
310
00000000000000000000000000000000000000000000000000000000000000F5F5F5F50000000000000000000000000000000000000000000000000000000000000000000000000000000000000000000000000000000000000000000000000000000000000000000000000000000000000000000000000000000000000000
310
000000000000000000000000000000000000000000000000000000000000000000000000000000000000000000000000F5F50000000000000000000000000000000000000000000000F5000000F5F5F5F50000F500000000000000000000000000000000F5F5F5F5F5F500F500000000000000000000000000000000000000
310
0000000000000000000000000000000000000000000000000000000000000000000000F5F5F50000000000000000000000000000000000000000000000000000000000000000000000000000000000000000000000000000000000000000000000000000000000000000000000000000000000000000000000000000000000
310
00000000000000000000000000000000000000000000000000000000000000000000000000000000000000000000000000000000F5F50000000000000000000000000000000000000000F5F50000000000F5F5F5F500F5F50000000000000000000000000000F5F500F5F5F500F50000000000000000000000000000000000
310
000000000000000000000000000000000000000000000000000000000000000000000000000000F5F5F500000000000000000000000000000000000000000000000000000000000000000000000000000000000000000000000000000000000000000000000000000000000000000000000000000000000000000000000000
310
0000000000000000000000000000000000000000000000000000000000000000000000000000000000000000000000000000000000000000F500000000000000000000000000000000000000F5F50000000000F5F5F5F5F5F500F5F5000000000000000000000000F5F500F5F5F500F5000000000000000000000000000000
310
000000000000000000000000000000000000000000000000000000000000000000000000000000000000F5F5F5F5000000000000000000000000000000000000000000000000000000000000000000000000000000000000000000000000000000000000000000000000000000000000000000000000000000000000000000
310
0000000000000000000000000000000000000000000000000000000000000000000000000000000000000000000000000000000000000000000000F5F50000000000000000000000000000000000F5000000000000F5F50000F5F5F5F500F5F500000000000000000000F5F500F5F5F500F500000000000000000000000000
310
00000000000000000000000000000000000000000000000000000000000000000000000000000000000000000000F5F5F5F50000000000000000000000000000000000000000000000000000000000000000000000000000000000000000000000000000000000000000000000000000000000000000000000000000000000
310
000000000000000000000000000000000000000000000000000000000000000000000000000000000000000000000000000000000000000000000000000000F5F5000000000000000000000000000000F5000000000000F5F500000000F500F50000F5F50000000000000000F5F500F5F5F500F50000000000000000000000
310
0000000000000000000000000000000000000000000000000000000000000000000000000000000000000000000000000000F5F5F50000000000000000000000000000000000000000000000000000000000000000000000000000000000000000000000000000000000000000000000000000000000000000000000000000
310
00000000000000000000000000000000000000000000000000000000000000000000000000000000000000000000000000000000000000000000000000000000000000F5F500000000000000000000000000F5F50000000000F5F50000000000F5F5F5F50000F500000000000000F5F500F5F5F500F5000000000000000000
310
000000000000000000000000000000000000000000000000000000000000000000000000000000000000000000000000000000000000F5F5F500000000000000000000000000000000000000000000000000000000000000000000000000000000000000000000000000000000000000000000000000000000000000000000
310
0000000000000000000000000000000000000000000000000000000000000000000000000000000000000000000000000000000000000000000000000000000000000000000000F5000000000000000000000000F5F500000000F5F50000000000000000F5F5F5F500F5F50000000000F5F500F5F5F500F500000000000000
310
000000000000000000000000000000000000000000000000000000000000000000000000000000000000000000000000000000000000000000F5F5F500000000000000000000000000000000000000000000000000000000000000000000000000000000000000000000000000000000000000000000000000000000000000
310
0000000000000000000000000000000000000000000000000000000000000000000000000000000000000000000000000000000000000000000000000000000000000000000000000000F5F50000000000000000000000F5F5F5F5F5F50000000000000000000000F5F5F5F500F5F5000000F5F500F5F5F500F50000000000
310
00000000000000000000000000000000000000000000000000000000000000000000000000000000000000000000000000000000000000000000000000F5F500000000000000000000000000000000000000000000000000000000000000000000000000000000000000000000000000000000000000000000000000000000
310
000000000000000000000000000000000000000000000000000000000000000000000000000000000000000000000000000000000000000000000000000000000000000000000000000000000000F5F500000000000000000000F5F5F5F500000000000000000000000000F5F500F5F500F5F500F5F500F5F5F500F5000000
310
0000000000000000000000000000000000000000000000000000000000000000000000000000000000000000000000000000000000000000000000000000000000F500000000000000000000000000000000000000000000000000000000000000000000000000000000000000000000000000000000000000000000000000
310
00000000000000000000000000000000000000000000000000000000000000000000000000000000000000000000000000000000000000000000000000000000000000000000000000000000000000000000F5F5000000000000000000000000000000000000000000000000000000F5F500F50000F5F5F500F5F5F500F500
310
0000000000000000000000000000000000000000000000000000000000000000000000000000000000000000000000000000000000000000000000000000000000000000F5F5000000000000000000000000000000000000000000000000000000000000000000000000000000000000000000000000000000000000000000
310
0000000000000000000000000000000000000000000000000000000000000000000000000000000000000000000000000000000000000000000000000000000000000000000000000000000000000000000000000000F5F5000000000000000000000000000000000000000000000000000000F5F5F5F50000F5F5F5F5F5F5
310
F500000000000000000000000000000000000000000000000000000000000000000000000000000000000000000000000000000000000000000000000000000000000000000000F5F5000000000000000000000000000000000000000000000000000000000000000000000000000000000000000000000000000000000000
310
000000000000000000000000000000000000000000000000000000000000000000000000000000000000000000000000000000000000000000000000000000000000000000000000000000000000000000000000000000000000F500000000000000000000000000000000000000000000000000000000F500F5F50000F5F5
310
F5F5F50000000000000000000000000000000000000000000000000000000000000000000000000000000000000000000000000000000000000000000000000000000000000000000000F500000000000000000000000000000000000000000000000000000000000000000000000000000000000000000000000000000000
310
000000000000000000000000000000000000000000000000000000000000000000000000000000000000000000000000000000000000000000000000000000000000000000000000000000000000000000000000000000000000000000F5F5000000000000000000000000000000000000000000000000000000F5F5F5F5F5
310
F5F5F5F5F5000000000000000000000000000000000000000000000000000000000000000000000000000000000000000000000000000000000000000000000000000000000000000000000000F500000000000000000000000000000000000000000000000000000000000000000000000000000000000000000000000000
310
00000000000000000000000000000000000000000000000000000000000000000000000000000000000000000000000000000000000000000000000000000000000000000000000000000000000000000000000000000000000000000000000000F5F5000000000000000000000000000000000000000000000000000000F5
310
F500F5F5F5F5F5000000000000000000000000000000000000000000000000000000000000000000000000000000000000000000000000000000000000000000000000000000000000000000000000F50000000000000000000000000000000000000000000000000000000000000000000000000000000000000000000000
310
0000000000000000000000000000000000000000000000000000000000000000000000000000000000000000000000000000000000000000000000000000000000000000000000000000000000000000000000000000000000000000000000000000000000F5F5000000000000000000000000000000000000000000000000
310
00F5F5F500F5F5F5F5F5F500000000000000000000000000000000000000000000000000000000000000000000000000000000000000000000000000000000000000000000000000000000000000000000F5000000000000000000000000000000000000000000000000000000000000000000000000000000000000000000
310
000000000000000000000000000000000000000000000000000000000000000000000000000000000000000000000000000000000000000000000000000000000000000000000000000000000000000000000000000000000000000000000000000000000000000000F5000000000000000000000000000000000000000000
310
000000F5F5F5F5F500F5F50000F5F5000000000000000000000000000000000000000000000000000000000000000000000000000000000000000000000000000000000000000000000000000000000000000000F5000000000000000000000000000000000000000000000000000000000000000000000000000000000000
310
000000000000000000000000000000000000000000000000000000000000000000000000000000000000000000000000000000000000000000000000000000000000000000000000000000000000000000000000000000000000000000000000000000000000000000000000F5F50000000000000000000000000000000000
310
0000000000F5F5F5F5F5F5F500F5F50000F5F500000000000000000000000000000000000000000000000000000000000000000000000000000000000000000000000000000000000000000000000000000000000000F500000000000000000000000000000000000000000000000000000000000000000000000000000000
310
00000000000000000000000000000000000000000000000000000000000000000000000000000000000000000000000000000000000000000000000000000000000000000000000000000000000000000000000000000000000000000000000000000000000000000000000000000000F5F500000000000000000000000000
310
0000000000000000000000000000F5F500F5F50000F5000000000000000000000000000000000000000000000000000000000000000000000000000000000000000000000000000000000000000000000000000000000000F50000000000000000000000000000000000000000000000000000000000000000000000000000
310
0000000000000000000000000000000000000000000000000000000000000000000000000000000000000000000000000000000000000000000000000000000000000000000000000000000000000000000000000000000000000000000000000000000000000000000000000000000000000000F5F5000000000000000000
310
000000000000000000000000000000000000F5F5F5F50000F5F500000000000000000000000000000000000000000000000000000000000000000000000000000000000000000000000000000000000000000000000000000000F5000000000000000000000000000000000000000000000000000000000000000000000000
310
000000000000000000000000000000000000000000000000000000000000000000000000000000000000000000000000000000000000000000000000000000000000000000000000000000000000000000000000000000000000000000000000000000000000000000000000000000000000000000000000F5000000000000
310
00000000000000000000000000000000000000000000F5F5F5F50000F5F50000000000000000000000000000000000000000000000000000000000000000000000000000000000000000000000000000000000000000000000000000F500000000000000000000000000000000000000000000000000000000000000000000
310
000000000000000000000000000000000000000000000000000000000000000000000000000000000000000000000000000000000000000000000000000000000000000000000000000000000000000000000000000000000000000000000000000000000000000000000000000000000000000000000000000000F5F50000
310
0000000000000000000000000000000000000000000000000000F5F5F5F50000F5F5000000000000000000000000000000000000000000000000000000000000000000000000000000000000000000000000000000000000000000000000F50000000000000000000000000000000000000000000000000000000000000000
310
00000000000000000000000000000000000000000000000000000000000000000000000000000000000000000000000000000000000000000000000000000000000000000000000000000000000000000000000000000000000000000000000000000000000000000000000000000000000000000000000000000000000000
310
F5F500000000000000000000000000000000000000000000000000000000F5F5F5F50000F50000000000000000000000000000000000000000000000000000000000000000000000000000000000000000000000000000000000000000000000F5000000000000000000000000000000000000000000000000000000000000
310
00000000000000000000000000000000000000000000000000000000000000000000000000000000000000000000000000000000000000000000000000000000000000000000000000000000000000000000000000000000000000000000000000000000000000000000000000000000000000000000000000000000000000
310
00000000F5F500000000000000000000000000000000000000000000000000000000F5F5F50000F5F5000000000000000000000000000000000000000000000000000000000000000000000000000000000000000000000000000000000000000000F500000000000000000000000000000000000000000000000000000000
310
00000000000000000000000000000000000000000000000000000000000000000000000000000000000000000000000000000000000000000000000000000000000000000000000000000000000000000000000000000000000000000000000000000000000000000000000000000000000000000000000000000000000000
310
0000000000000000F5F5000000000000000000000000000000000000000000000000000000F5F5F5F50000F5F5000000000000000000000000000000000000000000000000000000000000000000000000000000000000000000000000000000000000F5000000000000000000000000000000000000000000000000000000
310
00000000000000000000000000000000000000000000000000000000000000000000000000000000000000000000000000000000000000000000000000000000000000000000000000000000000000000000000000000000000000000000000000000000000000000000000000000000000000000000000000000000000000
310
000000000000000000000000F500000000000000000000000000000000000000000000000000000000F5F5F5F50000F50000000000000000000000000000000000000000000000000000000000000000000000000000000000000000000000000000000000F500000000000000000000000000000000000000000000000000
310
00000000000000000000000000000000000000000000000000000000000000000000000000000000000000000000000000000000000000000000000000000000000000000000000000000000000000000000000000000000000000000000000000000000000000000000000000000000000000000000000000000000000000
310
000000000000000000000000000000F5F500000000000000000000000000000000000000000000000000000000F5F5F5F500F5F5000000000000000000000000000000000000000000000000000000000000000000000000000000000000000000000000000000F50000000000000000000000000000000000000000000000
310
00000000000000000000000000000000000000000000000000000000000000000000000000000000000000000000000000000000000000000000000000000000000000000000000000000000000000000000000000000000000000000000000000000000000000000000000000000000000000000000000000000000000000
310
00000000000000000000000000000000000000F5F500000000000000000000000000000000000000000000000000000000F5F5F50000F5F5000000000000000000000000000000000000000000000000000000000000000000000000000000000000000000000000F500000000000000000000000000000000000000000000
310
00000000000000000000000000000000000000000000000000000000000000000000000000000000000000000000000000000000000000000000000000000000000000000000000000000000000000000000000000000000000000000000000000000000000000000000000000000000000000000000000000000000000000
310
0000000000000000000000000000000000000000000000F5F500000000000000000000000000000000000000000000000000000000F5F5F50000F5F500000000000000000000000000000000000000000000000000000000000000000000000000000000000000000000F50000000000000000000000000000000000000000
310
00000000000000000000000000000000000000000000000000000000000000000000000000000000000000000000000000000000000000000000000000000000000000000000000000000000000000000000000000000000000000000000000000000000000000000000000000000000000000000000000000000000000000
310
000000000000000000000000000000000000000000000000000000F50000000000000000000000000000000000000000000000000000000000F5F5F50000F50000000000000000000000000000000000000000000000000000000000000000000000000000000000000000F500000000000000000000000000000000000000
310
00000000000000000000000000000000000000000000000000000000000000000000000000000000000000000000000000000000000000000000000000000000000000000000000000000000000000000000000000000000000000000000000000000000000000000000000000000000000000000000000000000000000000
310
000000000000000000000000000000000000000000000000000000000000F5F50000000000000000000000000000000000000000000000000000000000F5F5F500F5F50000F5F5F50000000000000000000000000000000000000000000000000000000000000000000000F5F5000000000000000000000000000000000000
310
00000000000000000000000000000000000000000000000000000000000000000000000000000000000000000000000000000000000000000000000000000000000000000000000000000000000000000000000000000000000000000000000000000000000000000000000000000000000000000000000000000000000000
310
00000000000000000000000000000000000000000000000000000000000000000000F5F50000000000000000000000000000000000000000000000000000000000F5F5F5F5F5F5F5F5F5F5000000000000000000000000000000000000000000000000000000000000000000F5000000000000000000000000000000000000
310
00000000000000000000000000000000000000000000000000000000000000000000000000000000000000000000000000000000000000000000000000000000000000000000000000000000000000000000000000000000000000000000000000000000000000000000000000000000000000000000000000000000000000
310
0000000000000000000000000000000000000000000000000000000000000000000000000000F5F500000000000000000000000000000000000000000000000000F5F5F5F5F5F50000F5F5F5F5F500000000000000000000000000000000000000000000000000000000000000F50000000000000000000000000000000000
310
00000000000000000000000000000000000000000000000000000000000000000000000000000000000000000000000000000000000000000000000000000000000000000000000000000000000000000000000000000000000000000000000000000000000000000000000000000000000000000000000000000000000000
310
000000000000000000000000000000000000000000000000000000000000000000000000000000000000F5F50000000000000000000000000000000000000000000000F5F500F5F5F5F5F5F5F5F5F5F5000000000000000000000000000000000000000000000000000000000000F500000000000000000000000000000000
310
00000000000000000000000000000000000000000000000000000000000000000000000000000000000000000000000000000000000000000000000000000000000000000000000000000000000000000000000000000000000000000000000000000000000000000000000000000000000000000000000000000000000000
310
00000000000000000000000000000000000000000000000000000000000000000000000000000000000000000000F5000000000000000000000000000000000000000000F5F5000000F5F50000F5F5F5F5F5F5000000000000000000000000000000000000000000000000000000F5F5000000000000000000000000000000
310
00000000000000000000000000000000000000000000000000000000000000000000000000000000000000000000000000000000000000000000000000000000000000000000000000000000000000000000000000000000000000000000000000000000000000000000000000000000000000000000000000000000000000
310
00000000000000000000000000000000000000000000000000000000000000000000000000000000000000000000000000F5F5000000000000000000000000000000000000F5F5000000F5F5F500000000F5F500F5F5000000000000000000000000000000000000000000000000F5F5000000000000000000000000000000
310
00000000000000000000000000000000000000000000000000000000000000000000000000000000000000000000000000000000000000000000000000000000000000000000000000000000000000000000000000000000000000000000000000000000000000000000000000000000000000000000000000000000000000
310
0000000000000000000000000000000000000000000000000000000000000000000000000000000000000000000000000000000000F5F5000000000000000000000000000000F5F500000000F5F5F500F5F500000000F5F500000000000000000000000000000000000000000000F5F5000000000000000000000000000000
310
00000000000000000000000000000000000000000000000000000000000000000000000000000000000000000000000000000000000000000000000000000000000000000000000000000000000000000000000000000000000000000000000000000000000000000000000000000000000000000000000000000000000000
310
000000000000000000000000000000000000000000000000000000000000000000000000000000000000000000000000000000000000000000F5F500000000000000000000000000F5F50000F5F5F500F500F5F500000000F5000000000000000000000000000000000000000000F5F5000000000000000000000000000000
310
00000000000000000000000000000000000000000000000000000000000000000000000000000000000000000000000000000000000000000000000000000000000000000000000000000000000000000000000000000000000000000000000000000000000000000000000000000000000000000000000000000000000000
310
00000000000000000000000000000000000000000000000000000000000000000000000000000000000000000000000000000000000000000000000000F5000000000000000000000000F5F500F5F5F50000F5F5F5F500F5F5F50000000000000000000000000000000000000000F5F5000000000000000000000000000000
310
00000000000000000000000000000000000000000000000000000000000000000000000000000000000000000000000000000000000000000000000000000000000000000000000000000000000000000000000000000000000000000000000000000000000000000000000000000000000000000000000000000000000000
310
00000000000000000000000000000000000000000000000000000000000000000000000000000000000000000000000000000000000000000000000000000000F5F500000000000000000000F5F5F5F5F5000000000000F5F5F50000000000000000000000000000000000000000F5F5000000000000000000000000000000
310
00000000000000000000000000000000000000000000000000000000000000000000000000000000000000000000000000000000000000000000000000000000000000000000000000000000000000000000000000000000000000000000000000000000000000000000000000000000000000000000000000000000000000
310
0000000000000000000000000000000000000000000000000000000000000000000000000000000000000000000000000000000000000000000000000000000000000000F5F5000000000000000000F5F50000000000000000000000000000000000000000000000000000000000F5F5000000000000000000000000000000
310
00000000000000000000000000000000000000000000000000000000000000000000000000000000000000000000000000000000000000000000000000000000000000000000000000000000000000000000000000000000000000000000000000000000000000000000000000000000000000000000000000000000000000
310
000000000000000000000000000000000000000000000000000000000000000000000000000000000000000000000000000000000000000000000000000000000000000000000000F5F5F500000000000000000000000000000000000000000000000000000000000000000000F5F5F5000000000000000000000000000000
310
00000000000000000000000000000000000000000000000000000000000000000000000000000000000000000000000000000000000000000000000000000000000000000000000000000000000000000000000000000000000000000000000000000000000000000000000000000000000000000000000000000000000000
310
0000000000000000000000000000000000000000000000000000000000000000000000000000000000000000000000000000000000000000000000000000000000000000000000000000000000F5F5000000000000000000000000000000000000000000000000000000000000F5F500000000000000000000000000000000
310
00000000000000000000000000000000000000000000000000000000000000000000000000000000000000000000000000000000000000000000000000000000000000000000000000000000000000000000000000000000000000000000000000000000000000000000000000000000000000000000000000000000000000
310
000000000000000000000000000000000000000000000000000000000000000000000000000000000000000000000000000000000000000000000000000000000000000000000000000000000000000000F5F5F5F5F50000000000000000000000000000000000000000F5F5F5F5F500000000000000000000000000000000
310
00000000000000000000000000000000000000000000000000000000000000000000000000000000000000000000000000000000000000000000000000000000000000000000000000000000000000000000000000000000000000000000000000000000000000000000000000000000000000000000000000000000000000
310
00000000000000000000000000000000000000000000000000000000000000000000000000000000000000000000000000000000000000000000000000000000000000000000000000000000000000000000000000000000F5F5F5F5F5F5F5F5F5F5F5F5F5F5F5F5F5F5F5F500000000000000000000000000000000000000
310
00000000000000000000000000000000000000000000000000000000000000000000000000000000000000000000000000000000000000000000000000000000000000000000000000000000000000000000000000000000000000000000000000000000000000000000000000000000000000000000000000000000000000
310
00000000000000000000000000000000000000000000000000000000000000000000000000000000000000000000000000000000000000000000000000000000000000000000000000000000000000000000000000000000000000000000000000000000000000000000000000000000000000000000000000000000000000
310
00000000000000000000000000000000000000000000000000000000000000000000000000000000000000000000000000000000000000000000000000000000000000000000000000000000000000000000000000000000000000000000000000000000000000000000000000000000000000000000000000000000000000
310
00000000000000000000000000000000000000000000000000000000000000000000000000000000000000000000000000000000000000000000000000000000000000000000000000000000000000000000000000000000000000000000000000000000000000000000000000000000000000000000000000000000000000
310
00000000000000000000000000000000000000000000000000000000000000000000000000000000000000000000000000000000000000000000000000000000000000000000000000000000000000000000000000000000000000000000000000000000000000000000000000000000000000000000000000000000000000
310
00000000000000000000000000000000000000000000000000000000000000000000000000000000000000000000000000000000000000000000000000000000000000000000000000000000000000000000000000000000000000000000000000000000000000000000000000000000000000000000000000000000000000
310
00000000000000000000000000000000000000000000000000000000000000000000000000000000000000000000000000000000000000000000000000000000000000000000000000000000000000000000000000000000000000000000000000000000000000000000000000000000000000000000000000000000000000
310
00000000000000000000000000000000000000000000000000000000000000000000000000000000000000000000000000000000000000000000000000000000000000000000000000000000000000000000000000000000000000000000000000000000000000000000000000000000000000000000000000000000000000
310
0000000000000000000000000000000000000000000000000000000000000000000000000000000000000000000000000000000000000000000000000000000000000000000000000000000000000000000000000000000000000000000000000000000000000000000000000000000000000000000000
  0
XRECORD
  5
170F
102
{ACAD_REACTORS
330
1A
102
}
330
1A
100
AcDbXrecord
280
     1
102
MATERIAL
148
0.0
149
0.0
149
0.0
 93
        0
 94
      127
282
     0
 72
     0
 77
     0
171
     0
175
     0
179
     0
273
     0
  0
XRECORD
  5
1C
102
{ACAD_REACTORS
330
1A
102
}
330
1A
100
AcDbXrecord
280
     1
270
     1
271
     1
  0
XRECORD
  5
1B
102
{ACAD_REACTORS
330
1A
102
}
330
1A
100
AcDbXrecord
280
     1
270
     1
271
     1
  0
XRECORD
  5
1F
102
{ACAD_REACTORS
330
1A
102
}
330
1A
100
AcDbXrecord
280
     1
270
     1
271
     1
  0
XRECORD
  5
1E
102
{ACAD_REACTORS
330
1A
102
}
330
1A
100
AcDbXrecord
280
     1
270
     1
271
     1
  0
XRECORD
  5
20
102
{ACAD_REACTORS
330
1A
102
}
330
1A
100
AcDbXrecord
280
     1
270
     1
271
     1
  0
XRECORD
  5
1D
102
{ACAD_REACTORS
330
1A
102
}
330
1A
100
AcDbXrecord
280
     1
270
     1
271
     1
  0
XRECORD
  5
170E
102
{ACAD_REACTORS
330
12
102
}
330
12
100
AcDbXrecord
280
     1
102
MATERIAL
148
0.0
149
0.0
149
0.0
 93
        0
 94
      127
282
     0
 72
     0
 77
     0
171
     0
175
     0
179
     0
273
     0
  0
XRECORD
  5
14
102
{ACAD_REACTORS
330
12
102
}
330
12
100
AcDbXrecord
280
     1
270
     1
271
     1
  0
XRECORD
  5
13
102
{ACAD_REACTORS
330
12
102
}
330
12
100
AcDbXrecord
280
     1
270
     1
271
     1
  0
XRECORD
  5
17
102
{ACAD_REACTORS
330
12
102
}
330
12
100
AcDbXrecord
280
     1
270
     1
271
     1
  0
XRECORD
  5
16
102
{ACAD_REACTORS
330
12
102
}
330
12
100
AcDbXrecord
280
     1
270
     1
271
     1
  0
XRECORD
  5
18
102
{ACAD_REACTORS
330
12
102
}
330
12
100
AcDbXrecord
280
     1
270
     1
271
     1
  0
XRECORD
  5
15
102
{ACAD_REACTORS
330
12
102
}
330
12
100
AcDbXrecord
280
     1
270
     1
271
     1
  0
XRECORD
  5
1710
102
{ACAD_REACTORS
330
22
102
}
330
22
100
AcDbXrecord
280
     1
102
MATERIAL
148
0.0
149
0.0
149
0.0
 93
        0
 94
      127
282
     0
 72
     0
 77
     0
171
     0
175
     0
179
     0
273
     0
  0
XRECORD
  5
24
102
{ACAD_REACTORS
330
22
102
}
330
22
100
AcDbXrecord
280
     1
270
     1
271
     1
  0
XRECORD
  5
23
102
{ACAD_REACTORS
330
22
102
}
330
22
100
AcDbXrecord
280
     1
270
     1
271
     1
  0
XRECORD
  5
27
102
{ACAD_REACTORS
330
22
102
}
330
22
100
AcDbXrecord
280
     1
270
     1
271
     1
  0
XRECORD
  5
26
102
{ACAD_REACTORS
330
22
102
}
330
22
100
AcDbXrecord
280
     1
270
     1
271
     1
  0
XRECORD
  5
28
102
{ACAD_REACTORS
330
22
102
}
330
22
100
AcDbXrecord
280
     1
270
     1
271
     1
  0
XRECORD
  5
25
102
{ACAD_REACTORS
330
22
102
}
330
22
100
AcDbXrecord
280
     1
270
     1
271
     1
  0
CELLSTYLEMAP
  5
1706
102
{ACAD_REACTORS
330
1232
102
}
330
1232
100
AcDbCellStyleMap
 90
        3
300
CELLSTYLE
  1
TABLEFORMAT_BEGIN
 90
        5
170
     1
 91
        0
 92
    32768
 62
   257
 93
        1
300
CONTENTFORMAT
  1
CONTENTFORMAT_BEGIN
 90
        0
 91
        0
 92
      512
 93
        0
300

 40
0.0
140
1.0
 94
        5
 62
     0
340
55
144
0.25
309
CONTENTFORMAT_END
171
     0
 94
        0
309
TABLEFORMAT_END
  1
CELLSTYLE_BEGIN
 90
        1
 91
        1
300
_TITLE
309
CELLSTYLE_END
300
CELLSTYLE
  1
TABLEFORMAT_BEGIN
 90
        5
170
     1
 91
        0
 92
        0
 62
   257
 93
        1
300
CONTENTFORMAT
  1
CONTENTFORMAT_BEGIN
 90
        0
 91
        0
 92
      512
 93
        0
300

 40
0.0
140
1.0
 94
        5
 62
     0
340
55
144
0.18
309
CONTENTFORMAT_END
171
     0
 94
        0
309
TABLEFORMAT_END
  1
CELLSTYLE_BEGIN
 90
        2
 91
        1
300
_HEADER
309
CELLSTYLE_END
300
CELLSTYLE
  1
TABLEFORMAT_BEGIN
 90
        5
170
     1
 91
        0
 92
        0
 62
   257
 93
        1
300
CONTENTFORMAT
  1
CONTENTFORMAT_BEGIN
 90
        0
 91
        0
 92
      512
 93
        0
300

 40
0.0
140
1.0
 94
        2
 62
     0
340
55
144
0.18
309
CONTENTFORMAT_END
171
     0
 94
        0
309
TABLEFORMAT_END
  1
CELLSTYLE_BEGIN
 90
        3
 91
        2
300
_DATA
309
CELLSTYLE_END
  0
XRECORD
  5
1741
102
{ACAD_REACTORS
330
1232
102
}
330
1232
100
AcDbXrecord
280
     1
102
ACAD_ROUNDTRIP_PRE2007_TABLESTYLE
 90
      512
 91
        0
  1

 92
      512
 93
        0
  2

 94
      512
 95
        0
  3

  0
XRECORD
  5
171C
102
{ACAD_REACTORS
330
171B
102
}
330
171B
100
AcDbXrecord
280
     1
102
RTVSPropertyOp0
 70
     1
102
RTVSPropertyOp1
 70
     1
102
RTVSPropertyOp2
 70
     1
102
RTVSPropertyOp3
 70
     1
102
RTVSPropertyOp4
 70
     1
102
RTVSPropertyOp5
 70
     1
102
RTVSPropertyOp6
 70
     1
102
RTVSPropertyOp7
 70
     1
102
RTVSPropertyOp8
 70
     1
102
RTVSPropertyOp9
 70
     1
102
RTVSPropertyOp10
 70
     1
102
RTVSPropertyOp11
 70
     1
102
RTVSPropertyOp12
 70
     1
102
RTVSPropertyOp13
 70
     1
102
RTVSPropertyOp14
 70
     1
102
RTVSPropertyOp15
 70
     1
102
RTVSPropertyOp16
 70
     1
102
RTVSPropertyOp17
 70
     1
102
RTVSPropertyOp18
 70
     1
102
RTVSPropertyOp19
 70
     1
102
RTVSPropertyOp20
 70
     1
102
RTVSPropertyOp21
 70
     1
102
RTVSPropertyOp22
 70
     1
102
RTVSPropertyOp23
 70
     1
102
RTVSPropertyOp24
 70
     1
102
RTVSPropertyOp25
 70
     1
102
RTVSPropertyOp26
 70
     1
102
RTVSPropertyOp27
 70
     1
102
RTVSPropertyOp28
 70
     1
102
RTVSPropertyOp29
 70
     1
102
RTVSPropertyOp30
 70
     1
102
RTVSPropertyOp31
 70
     1
102
RTVSPropertyOp32
 70
     1
  0
XRECORD
  5
171A
102
{ACAD_REACTORS
330
1719
102
}
330
1719
100
AcDbXrecord
280
     1
102
RTVSPropertyOp0
 70
     1
102
RTVSPropertyOp1
 70
     1
102
RTVSPropertyOp2
 70
     1
102
RTVSPropertyOp3
 70
     1
102
RTVSPropertyOp4
 70
     1
102
RTVSPropertyOp5
 70
     1
102
RTVSPropertyOp6
 70
     1
102
RTVSPropertyOp7
 70
     1
102
RTVSPropertyOp8
 70
     1
102
RTVSPropertyOp9
 70
     1
102
RTVSPropertyOp10
 70
     1
102
RTVSPropertyOp11
 70
     1
102
RTVSPropertyOp12
 70
     1
102
RTVSPropertyOp13
 70
     1
102
RTVSPropertyOp14
 70
     1
102
RTVSPropertyOp15
 70
     1
102
RTVSPropertyOp16
 70
     1
102
RTVSPropertyOp17
 70
     1
102
RTVSPropertyOp18
 70
     1
102
RTVSPropertyOp19
 70
     1
102
RTVSPropertyOp20
 70
     1
102
RTVSPropertyOp21
 70
     1
102
RTVSPropertyOp22
 70
     1
102
RTVSPropertyOp23
 70
     1
102
RTVSPropertyOp24
 70
     1
102
RTVSPropertyOp25
 70
     1
102
RTVSPropertyOp26
 70
     1
102
RTVSPropertyOp27
 70
     1
102
RTVSPropertyOp28
 70
     1
102
RTVSPropertyOp29
 70
     1
102
RTVSPropertyOp30
 70
     1
102
RTVSPropertyOp31
 70
     1
102
RTVSPropertyOp32
 70
     1
  0
XRECORD
  5
1728
102
{ACAD_REACTORS
330
1727
102
}
330
1727
100
AcDbXrecord
280
     1
102
RTVSPropertyOp0
 70
     1
102
RTVSPropertyOp1
 70
     1
102
RTVSPropertyOp2
 70
     1
102
RTVSPropertyOp3
 70
     1
102
RTVSPropertyOp4
 70
     1
102
RTVSPropertyOp5
 70
     1
102
RTVSPropertyOp6
 70
     1
102
RTVSPropertyOp7
 70
     1
102
RTVSPropertyOp8
 70
     1
102
RTVSPropertyOp9
 70
     1
102
RTVSPropertyOp10
 70
     1
102
RTVSPropertyOp11
 70
     1
102
RTVSPropertyOp12
 70
     1
102
RTVSPropertyOp13
 70
     1
102
RTVSPropertyOp14
 70
     1
102
RTVSPropertyOp15
 70
     1
102
RTVSPropertyOp16
 70
     1
102
RTVSPropertyOp17
 70
     1
102
RTVSPropertyOp18
 70
     1
102
RTVSPropertyOp19
 70
     1
102
RTVSPropertyOp20
 70
     1
102
RTVSPropertyOp21
 70
     1
102
RTVSPropertyOp22
 70
     1
102
RTVSPropertyOp23
 70
     1
102
RTVSPropertyOp24
 70
     1
102
RTVSPropertyOp25
 70
     1
102
RTVSPropertyOp26
 70
     1
102
RTVSPropertyOp27
 70
     1
102
RTVSPropertyOp28
 70
     1
102
RTVSPropertyOp29
 70
     1
102
RTVSPropertyOp30
 70
     1
102
RTVSPropertyOp31
 70
     1
102
RTVSPropertyOp32
 70
     1
  0
XRECORD
  5
1730
102
{ACAD_REACTORS
330
172F
102
}
330
172F
100
AcDbXrecord
280
     1
102
RTVSPropertyOp0
 70
     1
102
RTVSPropertyOp1
 70
     1
102
RTVSPropertyOp2
 70
     1
102
RTVSPropertyOp3
 70
     1
102
RTVSPropertyOp4
 70
     1
102
RTVSPropertyOp5
 70
     1
102
RTVSPropertyOp6
 70
     1
102
RTVSPropertyOp7
 70
     1
102
RTVSPropertyOp8
 70
     1
102
RTVSPropertyOp9
 70
     1
102
RTVSPropertyOp10
 70
     1
102
RTVSPropertyOp11
 70
     1
102
RTVSPropertyOp12
 70
     1
102
RTVSPropertyOp13
 70
     1
102
RTVSPropertyOp14
 70
     1
102
RTVSPropertyOp15
 70
     1
102
RTVSPropertyOp16
 70
     1
102
RTVSPropertyOp17
 70
     1
102
RTVSPropertyOp18
 70
     1
102
RTVSPropertyOp19
 70
     1
102
RTVSPropertyOp20
 70
     1
102
RTVSPropertyOp21
 70
     1
102
RTVSPropertyOp22
 70
     1
102
RTVSPropertyOp23
 70
     1
102
RTVSPropertyOp24
 70
     1
102
RTVSPropertyOp25
 70
     1
102
RTVSPropertyOp26
 70
     1
102
RTVSPropertyOp27
 70
     1
102
RTVSPropertyOp28
 70
     1
102
RTVSPropertyOp29
 70
     1
102
RTVSPropertyOp30
 70
     1
102
RTVSPropertyOp31
 70
     1
102
RTVSPropertyOp32
 70
     1
  0
XRECORD
  5
1722
102
{ACAD_REACTORS
330
1721
102
}
330
1721
100
AcDbXrecord
280
     1
102
RTVSPropertyOp0
 70
     1
102
RTVSPropertyOp1
 70
     1
102
RTVSPropertyOp2
 70
     1
102
RTVSPropertyOp3
 70
     1
102
RTVSPropertyOp4
 70
     1
102
RTVSPropertyOp5
 70
     1
102
RTVSPropertyOp6
 70
     1
102
RTVSPropertyOp7
 70
     1
102
RTVSPropertyOp8
 70
     1
102
RTVSPropertyOp9
 70
     1
102
RTVSPropertyOp10
 70
     1
102
RTVSPropertyOp11
 70
     1
102
RTVSPropertyOp12
 70
     1
102
RTVSPropertyOp13
 70
     1
102
RTVSPropertyOp14
 70
     1
102
RTVSPropertyOp15
 70
     1
102
RTVSPropertyOp16
 70
     1
102
RTVSPropertyOp17
 70
     1
102
RTVSPropertyOp18
 70
     1
102
RTVSPropertyOp19
 70
     1
102
RTVSPropertyOp20
 70
     1
102
RTVSPropertyOp21
 70
     1
102
RTVSPropertyOp22
 70
     1
102
RTVSPropertyOp23
 70
     1
102
RTVSPropertyOp24
 70
     1
102
RTVSPropertyOp25
 70
     1
102
RTVSPropertyOp26
 70
     1
102
RTVSPropertyOp27
 70
     1
102
RTVSPropertyOp28
 70
     1
102
RTVSPropertyOp29
 70
     1
102
RTVSPropertyOp30
 70
     1
102
RTVSPropertyOp31
 70
     1
102
RTVSPropertyOp32
 70
     1
  0
XRECORD
  5
1726
102
{ACAD_REACTORS
330
1725
102
}
330
1725
100
AcDbXrecord
280
     1
102
RTVSPropertyOp0
 70
     1
102
RTVSPropertyOp1
 70
     1
102
RTVSPropertyOp2
 70
     1
102
RTVSPropertyOp3
 70
     1
102
RTVSPropertyOp4
 70
     1
102
RTVSPropertyOp5
 70
     1
102
RTVSPropertyOp6
 70
     1
102
RTVSPropertyOp7
 70
     1
102
RTVSPropertyOp8
 70
     1
102
RTVSPropertyOp9
 70
     1
102
RTVSPropertyOp10
 70
     1
102
RTVSPropertyOp11
 70
     1
102
RTVSPropertyOp12
 70
     1
102
RTVSPropertyOp13
 70
     1
102
RTVSPropertyOp14
 70
     1
102
RTVSPropertyOp15
 70
     1
102
RTVSPropertyOp16
 70
     1
102
RTVSPropertyOp17
 70
     1
102
RTVSPropertyOp18
 70
     1
102
RTVSPropertyOp19
 70
     1
102
RTVSPropertyOp20
 70
     1
102
RTVSPropertyOp21
 70
     1
102
RTVSPropertyOp22
 70
     1
102
RTVSPropertyOp23
 70
     1
102
RTVSPropertyOp24
 70
     1
102
RTVSPropertyOp25
 70
     1
102
RTVSPropertyOp26
 70
     1
102
RTVSPropertyOp27
 70
     1
102
RTVSPropertyOp28
 70
     1
102
RTVSPropertyOp29
 70
     1
102
RTVSPropertyOp30
 70
     1
102
RTVSPropertyOp31
 70
     1
102
RTVSPropertyOp32
 70
     1
  0
XRECORD
  5
1740
102
{ACAD_REACTORS
330
173F
102
}
330
173F
100
AcDbXrecord
280
     1
102
RTVSPropertyOp0
 70
     0
102
RTVSPropertyOp1
 70
     0
102
RTVSPropertyOp2
 70
     0
102
RTVSPropertyOp3
 70
     0
102
RTVSPropertyOp4
 70
     0
102
RTVSPropertyOp5
 70
     0
102
RTVSPropertyOp6
 70
     0
102
RTVSPropertyOp7
 70
     0
102
RTVSPropertyOp8
 70
     0
102
RTVSPropertyOp9
 70
     0
102
RTVSPropertyOp10
 70
     0
102
RTVSPropertyOp11
 70
     0
102
RTVSPropertyOp12
 70
     0
102
RTVSPropertyOp13
 70
     0
102
RTVSPropertyOp14
 70
     2
102
RTVSPropertyOp15
 70
     0
102
RTVSPropertyOp16
 70
     0
102
RTVSPropertyOp17
 70
     0
102
RTVSPropertyOp18
 70
     0
102
RTVSPropertyOp19
 70
     0
102
RTVSPropertyOp20
 70
     0
102
RTVSPropertyOp21
 70
     0
102
RTVSPropertyOp22
 70
     0
102
RTVSPropertyOp23
 70
     0
102
RTVSPropertyOp24
 70
     0
102
RTVSPropertyOp25
 70
     0
102
RTVSPropertyOp26
 70
     0
102
RTVSPropertyOp27
 70
     0
102
RTVSPropertyOp28
 70
     1
102
RTVSPropertyOp29
 70
     1
102
RTVSPropertyOp30
 70
     1
102
RTVSPropertyOp31
 70
     1
102
RTVSPropertyOp32
 70
     1
  0
XRECORD
  5
172E
102
{ACAD_REACTORS
330
172D
102
}
330
172D
100
AcDbXrecord
280
     1
102
RTVSPropertyOp0
 70
     1
102
RTVSPropertyOp1
 70
     1
102
RTVSPropertyOp2
 70
     1
102
RTVSPropertyOp3
 70
     1
102
RTVSPropertyOp4
 70
     1
102
RTVSPropertyOp5
 70
     1
102
RTVSPropertyOp6
 70
     1
102
RTVSPropertyOp7
 70
     1
102
RTVSPropertyOp8
 70
     1
102
RTVSPropertyOp9
 70
     1
102
RTVSPropertyOp10
 70
     1
102
RTVSPropertyOp11
 70
     1
102
RTVSPropertyOp12
 70
     1
102
RTVSPropertyOp13
 70
     1
102
RTVSPropertyOp14
 70
     1
102
RTVSPropertyOp15
 70
     1
102
RTVSPropertyOp16
 70
     1
102
RTVSPropertyOp17
 70
     1
102
RTVSPropertyOp18
 70
     1
102
RTVSPropertyOp19
 70
     1
102
RTVSPropertyOp20
 70
     1
102
RTVSPropertyOp21
 70
     1
102
RTVSPropertyOp22
 70
     1
102
RTVSPropertyOp23
 70
     1
102
RTVSPropertyOp24
 70
     1
102
RTVSPropertyOp25
 70
     1
102
RTVSPropertyOp26
 70
     1
102
RTVSPropertyOp27
 70
     1
102
RTVSPropertyOp28
 70
     1
102
RTVSPropertyOp29
 70
     1
102
RTVSPropertyOp30
 70
     1
102
RTVSPropertyOp31
 70
     1
102
RTVSPropertyOp32
 70
     1
  0
XRECORD
  5
1712
102
{ACAD_REACTORS
330
1711
102
}
330
1711
100
AcDbXrecord
280
     1
102
RTVSPropertyOp0
 70
     1
102
RTVSPropertyOp1
 70
     1
102
RTVSPropertyOp2
 70
     1
102
RTVSPropertyOp3
 70
     1
102
RTVSPropertyOp4
 70
     1
102
RTVSPropertyOp5
 70
     1
102
RTVSPropertyOp6
 70
     1
102
RTVSPropertyOp7
 70
     1
102
RTVSPropertyOp8
 70
     1
102
RTVSPropertyOp9
 70
     1
102
RTVSPropertyOp10
 70
     1
102
RTVSPropertyOp11
 70
     1
102
RTVSPropertyOp12
 70
     1
102
RTVSPropertyOp13
 70
     1
102
RTVSPropertyOp14
 70
     1
102
RTVSPropertyOp15
 70
     1
102
RTVSPropertyOp16
 70
     1
102
RTVSPropertyOp17
 70
     1
102
RTVSPropertyOp18
 70
     1
102
RTVSPropertyOp19
 70
     1
102
RTVSPropertyOp20
 70
     1
102
RTVSPropertyOp21
 70
     1
102
RTVSPropertyOp22
 70
     1
102
RTVSPropertyOp23
 70
     1
102
RTVSPropertyOp24
 70
     1
102
RTVSPropertyOp25
 70
     1
102
RTVSPropertyOp26
 70
     1
102
RTVSPropertyOp27
 70
     1
102
RTVSPropertyOp28
 70
     1
102
RTVSPropertyOp29
 70
     1
102
RTVSPropertyOp30
 70
     1
102
RTVSPropertyOp31
 70
     1
102
RTVSPropertyOp32
 70
     1
  0
XRECORD
  5
1714
102
{ACAD_REACTORS
330
1713
102
}
330
1713
100
AcDbXrecord
280
     1
102
RTVSPropertyOp0
 70
     1
102
RTVSPropertyOp1
 70
     1
102
RTVSPropertyOp2
 70
     1
102
RTVSPropertyOp3
 70
     1
102
RTVSPropertyOp4
 70
     1
102
RTVSPropertyOp5
 70
     1
102
RTVSPropertyOp6
 70
     1
102
RTVSPropertyOp7
 70
     1
102
RTVSPropertyOp8
 70
     1
102
RTVSPropertyOp9
 70
     1
102
RTVSPropertyOp10
 70
     1
102
RTVSPropertyOp11
 70
     1
102
RTVSPropertyOp12
 70
     1
102
RTVSPropertyOp13
 70
     1
102
RTVSPropertyOp14
 70
     1
102
RTVSPropertyOp15
 70
     1
102
RTVSPropertyOp16
 70
     1
102
RTVSPropertyOp17
 70
     1
102
RTVSPropertyOp18
 70
     1
102
RTVSPropertyOp19
 70
     1
102
RTVSPropertyOp20
 70
     1
102
RTVSPropertyOp21
 70
     1
102
RTVSPropertyOp22
 70
     1
102
RTVSPropertyOp23
 70
     1
102
RTVSPropertyOp24
 70
     1
102
RTVSPropertyOp25
 70
     1
102
RTVSPropertyOp26
 70
     1
102
RTVSPropertyOp27
 70
     1
102
RTVSPropertyOp28
 70
     1
102
RTVSPropertyOp29
 70
     1
102
RTVSPropertyOp30
 70
     1
102
RTVSPropertyOp31
 70
     1
102
RTVSPropertyOp32
 70
     1
  0
XRECORD
  5
1716
102
{ACAD_REACTORS
330
1715
102
}
330
1715
100
AcDbXrecord
280
     1
102
RTVSPropertyOp0
 70
     1
102
RTVSPropertyOp1
 70
     1
102
RTVSPropertyOp2
 70
     1
102
RTVSPropertyOp3
 70
     1
102
RTVSPropertyOp4
 70
     1
102
RTVSPropertyOp5
 70
     1
102
RTVSPropertyOp6
 70
     1
102
RTVSPropertyOp7
 70
     1
102
RTVSPropertyOp8
 70
     1
102
RTVSPropertyOp9
 70
     1
102
RTVSPropertyOp10
 70
     1
102
RTVSPropertyOp11
 70
     1
102
RTVSPropertyOp12
 70
     1
102
RTVSPropertyOp13
 70
     1
102
RTVSPropertyOp14
 70
     1
102
RTVSPropertyOp15
 70
     1
102
RTVSPropertyOp16
 70
     1
102
RTVSPropertyOp17
 70
     1
102
RTVSPropertyOp18
 70
     1
102
RTVSPropertyOp19
 70
     1
102
RTVSPropertyOp20
 70
     1
102
RTVSPropertyOp21
 70
     1
102
RTVSPropertyOp22
 70
     1
102
RTVSPropertyOp23
 70
     1
102
RTVSPropertyOp24
 70
     1
102
RTVSPropertyOp25
 70
     1
102
RTVSPropertyOp26
 70
     1
102
RTVSPropertyOp27
 70
     1
102
RTVSPropertyOp28
 70
     1
102
RTVSPropertyOp29
 70
     1
102
RTVSPropertyOp30
 70
     1
102
RTVSPropertyOp31
 70
     1
102
RTVSPropertyOp32
 70
     1
  0
XRECORD
  5
1718
102
{ACAD_REACTORS
330
1717
102
}
330
1717
100
AcDbXrecord
280
     1
102
RTVSPropertyOp0
 70
     1
102
RTVSPropertyOp1
 70
     1
102
RTVSPropertyOp2
 70
     1
102
RTVSPropertyOp3
 70
     1
102
RTVSPropertyOp4
 70
     1
102
RTVSPropertyOp5
 70
     1
102
RTVSPropertyOp6
 70
     1
102
RTVSPropertyOp7
 70
     1
102
RTVSPropertyOp8
 70
     1
102
RTVSPropertyOp9
 70
     1
102
RTVSPropertyOp10
 70
     1
102
RTVSPropertyOp11
 70
     1
102
RTVSPropertyOp12
 70
     1
102
RTVSPropertyOp13
 70
     1
102
RTVSPropertyOp14
 70
     1
102
RTVSPropertyOp15
 70
     1
102
RTVSPropertyOp16
 70
     1
102
RTVSPropertyOp17
 70
     1
102
RTVSPropertyOp18
 70
     1
102
RTVSPropertyOp19
 70
     1
102
RTVSPropertyOp20
 70
     1
102
RTVSPropertyOp21
 70
     1
102
RTVSPropertyOp22
 70
     1
102
RTVSPropertyOp23
 70
     1
102
RTVSPropertyOp24
 70
     1
102
RTVSPropertyOp25
 70
     1
102
RTVSPropertyOp26
 70
     1
102
RTVSPropertyOp27
 70
     1
102
RTVSPropertyOp28
 70
     1
102
RTVSPropertyOp29
 70
     1
102
RTVSPropertyOp30
 70
     1
102
RTVSPropertyOp31
 70
     1
102
RTVSPropertyOp32
 70
     1
  0
XRECORD
  5
1720
102
{ACAD_REACTORS
330
171F
102
}
330
171F
100
AcDbXrecord
280
     1
102
RTVSPropertyOp0
 70
     1
102
RTVSPropertyOp1
 70
     1
102
RTVSPropertyOp2
 70
     1
102
RTVSPropertyOp3
 70
     1
102
RTVSPropertyOp4
 70
     1
102
RTVSPropertyOp5
 70
     1
102
RTVSPropertyOp6
 70
     1
102
RTVSPropertyOp7
 70
     1
102
RTVSPropertyOp8
 70
     1
102
RTVSPropertyOp9
 70
     1
102
RTVSPropertyOp10
 70
     1
102
RTVSPropertyOp11
 70
     1
102
RTVSPropertyOp12
 70
     1
102
RTVSPropertyOp13
 70
     1
102
RTVSPropertyOp14
 70
     1
102
RTVSPropertyOp15
 70
     1
102
RTVSPropertyOp16
 70
     1
102
RTVSPropertyOp17
 70
     1
102
RTVSPropertyOp18
 70
     1
102
RTVSPropertyOp19
 70
     1
102
RTVSPropertyOp20
 70
     1
102
RTVSPropertyOp21
 70
     1
102
RTVSPropertyOp22
 70
     1
102
RTVSPropertyOp23
 70
     1
102
RTVSPropertyOp24
 70
     1
102
RTVSPropertyOp25
 70
     1
102
RTVSPropertyOp26
 70
     1
102
RTVSPropertyOp27
 70
     1
102
RTVSPropertyOp28
 70
     1
102
RTVSPropertyOp29
 70
     1
102
RTVSPropertyOp30
 70
     1
102
RTVSPropertyOp31
 70
     1
102
RTVSPropertyOp32
 70
     1
  0
XRECORD
  5
173C
102
{ACAD_REACTORS
330
173B
102
}
330
173B
100
AcDbXrecord
280
     1
102
RTVSPropertyOp0
 70
     0
102
RTVSPropertyOp1
 70
     0
102
RTVSPropertyOp2
 70
     0
102
RTVSPropertyOp3
 70
     0
102
RTVSPropertyOp4
 70
     0
102
RTVSPropertyOp5
 70
     0
102
RTVSPropertyOp6
 70
     0
102
RTVSPropertyOp7
 70
     0
102
RTVSPropertyOp8
 70
     0
102
RTVSPropertyOp9
 70
     0
102
RTVSPropertyOp10
 70
     0
102
RTVSPropertyOp11
 70
     0
102
RTVSPropertyOp12
 70
     0
102
RTVSPropertyOp13
 70
     0
102
RTVSPropertyOp14
 70
     2
102
RTVSPropertyOp15
 70
     0
102
RTVSPropertyOp16
 70
     0
102
RTVSPropertyOp17
 70
     0
102
RTVSPropertyOp18
 70
     0
102
RTVSPropertyOp19
 70
     0
102
RTVSPropertyOp20
 70
     0
102
RTVSPropertyOp21
 70
     0
102
RTVSPropertyOp22
 70
     0
102
RTVSPropertyOp23
 70
     0
102
RTVSPropertyOp24
 70
     0
102
RTVSPropertyOp25
 70
     0
102
RTVSPropertyOp26
 70
     0
102
RTVSPropertyOp27
 70
     0
102
RTVSPropertyOp28
 70
     1
102
RTVSPropertyOp29
 70
     1
102
RTVSPropertyOp30
 70
     1
102
RTVSPropertyOp31
 70
     1
102
RTVSPropertyOp32
 70
     1
  0
XRECORD
  5
172C
102
{ACAD_REACTORS
330
172B
102
}
330
172B
100
AcDbXrecord
280
     1
102
RTVSPropertyOp0
 70
     1
102
RTVSPropertyOp1
 70
     1
102
RTVSPropertyOp2
 70
     1
102
RTVSPropertyOp3
 70
     1
102
RTVSPropertyOp4
 70
     1
102
RTVSPropertyOp5
 70
     1
102
RTVSPropertyOp6
 70
     1
102
RTVSPropertyOp7
 70
     1
102
RTVSPropertyOp8
 70
     1
102
RTVSPropertyOp9
 70
     1
102
RTVSPropertyOp10
 70
     1
102
RTVSPropertyOp11
 70
     1
102
RTVSPropertyOp12
 70
     1
102
RTVSPropertyOp13
 70
     1
102
RTVSPropertyOp14
 70
     1
102
RTVSPropertyOp15
 70
     1
102
RTVSPropertyOp16
 70
     1
102
RTVSPropertyOp17
 70
     1
102
RTVSPropertyOp18
 70
     1
102
RTVSPropertyOp19
 70
     1
102
RTVSPropertyOp20
 70
     1
102
RTVSPropertyOp21
 70
     1
102
RTVSPropertyOp22
 70
     1
102
RTVSPropertyOp23
 70
     1
102
RTVSPropertyOp24
 70
     1
102
RTVSPropertyOp25
 70
     1
102
RTVSPropertyOp26
 70
     1
102
RTVSPropertyOp27
 70
     1
102
RTVSPropertyOp28
 70
     1
102
RTVSPropertyOp29
 70
     1
102
RTVSPropertyOp30
 70
     1
102
RTVSPropertyOp31
 70
     1
102
RTVSPropertyOp32
 70
     1
  0
XRECORD
  5
173E
102
{ACAD_REACTORS
330
173D
102
}
330
173D
100
AcDbXrecord
280
     1
102
RTVSPropertyOp0
 70
     0
102
RTVSPropertyOp1
 70
     0
102
RTVSPropertyOp2
 70
     0
102
RTVSPropertyOp3
 70
     0
102
RTVSPropertyOp4
 70
     0
102
RTVSPropertyOp5
 70
     0
102
RTVSPropertyOp6
 70
     0
102
RTVSPropertyOp7
 70
     0
102
RTVSPropertyOp8
 70
     0
102
RTVSPropertyOp9
 70
     0
102
RTVSPropertyOp10
 70
     0
102
RTVSPropertyOp11
 70
     0
102
RTVSPropertyOp12
 70
     0
102
RTVSPropertyOp13
 70
     0
102
RTVSPropertyOp14
 70
     2
102
RTVSPropertyOp15
 70
     0
102
RTVSPropertyOp16
 70
     0
102
RTVSPropertyOp17
 70
     0
102
RTVSPropertyOp18
 70
     0
102
RTVSPropertyOp19
 70
     0
102
RTVSPropertyOp20
 70
     0
102
RTVSPropertyOp21
 70
     0
102
RTVSPropertyOp22
 70
     0
102
RTVSPropertyOp23
 70
     0
102
RTVSPropertyOp24
 70
     0
102
RTVSPropertyOp25
 70
     0
102
RTVSPropertyOp26
 70
     0
102
RTVSPropertyOp27
 70
     0
102
RTVSPropertyOp28
 70
     1
102
RTVSPropertyOp29
 70
     1
102
RTVSPropertyOp30
 70
     1
102
RTVSPropertyOp31
 70
     1
102
RTVSPropertyOp32
 70
     1
  0
XRECORD
  5
1724
102
{ACAD_REACTORS
330
1723
102
}
330
1723
100
AcDbXrecord
280
     1
102
RTVSPropertyOp0
 70
     1
102
RTVSPropertyOp1
 70
     1
102
RTVSPropertyOp2
 70
     1
102
RTVSPropertyOp3
 70
     1
102
RTVSPropertyOp4
 70
     1
102
RTVSPropertyOp5
 70
     1
102
RTVSPropertyOp6
 70
     1
102
RTVSPropertyOp7
 70
     1
102
RTVSPropertyOp8
 70
     1
102
RTVSPropertyOp9
 70
     1
102
RTVSPropertyOp10
 70
     1
102
RTVSPropertyOp11
 70
     1
102
RTVSPropertyOp12
 70
     1
102
RTVSPropertyOp13
 70
     1
102
RTVSPropertyOp14
 70
     1
102
RTVSPropertyOp15
 70
     1
102
RTVSPropertyOp16
 70
     1
102
RTVSPropertyOp17
 70
     1
102
RTVSPropertyOp18
 70
     1
102
RTVSPropertyOp19
 70
     1
102
RTVSPropertyOp20
 70
     1
102
RTVSPropertyOp21
 70
     1
102
RTVSPropertyOp22
 70
     1
102
RTVSPropertyOp23
 70
     1
102
RTVSPropertyOp24
 70
     1
102
RTVSPropertyOp25
 70
     1
102
RTVSPropertyOp26
 70
     1
102
RTVSPropertyOp27
 70
     1
102
RTVSPropertyOp28
 70
     1
102
RTVSPropertyOp29
 70
     1
102
RTVSPropertyOp30
 70
     1
102
RTVSPropertyOp31
 70
     1
102
RTVSPropertyOp32
 70
     1
  0
XRECORD
  5
173A
102
{ACAD_REACTORS
330
1739
102
}
330
1739
100
AcDbXrecord
280
     1
102
RTVSPropertyOp0
 70
     1
102
RTVSPropertyOp1
 70
     1
102
RTVSPropertyOp2
 70
     1
102
RTVSPropertyOp3
 70
     1
102
RTVSPropertyOp4
 70
     1
102
RTVSPropertyOp5
 70
     1
102
RTVSPropertyOp6
 70
     1
102
RTVSPropertyOp7
 70
     1
102
RTVSPropertyOp8
 70
     1
102
RTVSPropertyOp9
 70
     1
102
RTVSPropertyOp10
 70
     1
102
RTVSPropertyOp11
 70
     1
102
RTVSPropertyOp12
 70
     1
102
RTVSPropertyOp13
 70
     1
102
RTVSPropertyOp14
 70
     1
102
RTVSPropertyOp15
 70
     1
102
RTVSPropertyOp16
 70
     1
102
RTVSPropertyOp17
 70
     1
102
RTVSPropertyOp18
 70
     1
102
RTVSPropertyOp19
 70
     1
102
RTVSPropertyOp20
 70
     1
102
RTVSPropertyOp21
 70
     1
102
RTVSPropertyOp22
 70
     1
102
RTVSPropertyOp23
 70
     1
102
RTVSPropertyOp24
 70
     1
102
RTVSPropertyOp25
 70
     1
102
RTVSPropertyOp26
 70
     1
102
RTVSPropertyOp27
 70
     1
102
RTVSPropertyOp28
 70
     1
102
RTVSPropertyOp29
 70
     1
102
RTVSPropertyOp30
 70
     1
102
RTVSPropertyOp31
 70
     1
102
RTVSPropertyOp32
 70
     1
  0
XRECORD
  5
1738
102
{ACAD_REACTORS
330
1737
102
}
330
1737
100
AcDbXrecord
280
     1
102
RTVSPropertyOp0
 70
     1
102
RTVSPropertyOp1
 70
     1
102
RTVSPropertyOp2
 70
     1
102
RTVSPropertyOp3
 70
     1
102
RTVSPropertyOp4
 70
     1
102
RTVSPropertyOp5
 70
     1
102
RTVSPropertyOp6
 70
     1
102
RTVSPropertyOp7
 70
     1
102
RTVSPropertyOp8
 70
     1
102
RTVSPropertyOp9
 70
     1
102
RTVSPropertyOp10
 70
     1
102
RTVSPropertyOp11
 70
     1
102
RTVSPropertyOp12
 70
     1
102
RTVSPropertyOp13
 70
     1
102
RTVSPropertyOp14
 70
     1
102
RTVSPropertyOp15
 70
     1
102
RTVSPropertyOp16
 70
     1
102
RTVSPropertyOp17
 70
     1
102
RTVSPropertyOp18
 70
     1
102
RTVSPropertyOp19
 70
     1
102
RTVSPropertyOp20
 70
     1
102
RTVSPropertyOp21
 70
     1
102
RTVSPropertyOp22
 70
     1
102
RTVSPropertyOp23
 70
     1
102
RTVSPropertyOp24
 70
     1
102
RTVSPropertyOp25
 70
     1
102
RTVSPropertyOp26
 70
     1
102
RTVSPropertyOp27
 70
     1
102
RTVSPropertyOp28
 70
     1
102
RTVSPropertyOp29
 70
     1
102
RTVSPropertyOp30
 70
     1
102
RTVSPropertyOp31
 70
     1
102
RTVSPropertyOp32
 70
     1
  0
XRECORD
  5
1732
102
{ACAD_REACTORS
330
1731
102
}
330
1731
100
AcDbXrecord
280
     1
102
RTVSPropertyOp0
 70
     1
102
RTVSPropertyOp1
 70
     1
102
RTVSPropertyOp2
 70
     1
102
RTVSPropertyOp3
 70
     1
102
RTVSPropertyOp4
 70
     1
102
RTVSPropertyOp5
 70
     1
102
RTVSPropertyOp6
 70
     1
102
RTVSPropertyOp7
 70
     1
102
RTVSPropertyOp8
 70
     1
102
RTVSPropertyOp9
 70
     1
102
RTVSPropertyOp10
 70
     1
102
RTVSPropertyOp11
 70
     1
102
RTVSPropertyOp12
 70
     1
102
RTVSPropertyOp13
 70
     1
102
RTVSPropertyOp14
 70
     1
102
RTVSPropertyOp15
 70
     1
102
RTVSPropertyOp16
 70
     1
102
RTVSPropertyOp17
 70
     1
102
RTVSPropertyOp18
 70
     1
102
RTVSPropertyOp19
 70
     1
102
RTVSPropertyOp20
 70
     1
102
RTVSPropertyOp21
 70
     1
102
RTVSPropertyOp22
 70
     1
102
RTVSPropertyOp23
 70
     1
102
RTVSPropertyOp24
 70
     1
102
RTVSPropertyOp25
 70
     1
102
RTVSPropertyOp26
 70
     1
102
RTVSPropertyOp27
 70
     1
102
RTVSPropertyOp28
 70
     1
102
RTVSPropertyOp29
 70
     1
102
RTVSPropertyOp30
 70
     1
102
RTVSPropertyOp31
 70
     1
102
RTVSPropertyOp32
 70
     1
  0
XRECORD
  5
1734
102
{ACAD_REACTORS
330
1733
102
}
330
1733
100
AcDbXrecord
280
     1
102
RTVSPropertyOp0
 70
     1
102
RTVSPropertyOp1
 70
     1
102
RTVSPropertyOp2
 70
     1
102
RTVSPropertyOp3
 70
     1
102
RTVSPropertyOp4
 70
     1
102
RTVSPropertyOp5
 70
     1
102
RTVSPropertyOp6
 70
     1
102
RTVSPropertyOp7
 70
     1
102
RTVSPropertyOp8
 70
     1
102
RTVSPropertyOp9
 70
     1
102
RTVSPropertyOp10
 70
     1
102
RTVSPropertyOp11
 70
     1
102
RTVSPropertyOp12
 70
     1
102
RTVSPropertyOp13
 70
     1
102
RTVSPropertyOp14
 70
     1
102
RTVSPropertyOp15
 70
     1
102
RTVSPropertyOp16
 70
     1
102
RTVSPropertyOp17
 70
     1
102
RTVSPropertyOp18
 70
     1
102
RTVSPropertyOp19
 70
     1
102
RTVSPropertyOp20
 70
     1
102
RTVSPropertyOp21
 70
     1
102
RTVSPropertyOp22
 70
     1
102
RTVSPropertyOp23
 70
     1
102
RTVSPropertyOp24
 70
     1
102
RTVSPropertyOp25
 70
     1
102
RTVSPropertyOp26
 70
     1
102
RTVSPropertyOp27
 70
     1
102
RTVSPropertyOp28
 70
     1
102
RTVSPropertyOp29
 70
     1
102
RTVSPropertyOp30
 70
     1
102
RTVSPropertyOp31
 70
     1
102
RTVSPropertyOp32
 70
     1
  0
XRECORD
  5
172A
102
{ACAD_REACTORS
330
1729
102
}
330
1729
100
AcDbXrecord
280
     1
102
RTVSPropertyOp0
 70
     1
102
RTVSPropertyOp1
 70
     1
102
RTVSPropertyOp2
 70
     1
102
RTVSPropertyOp3
 70
     1
102
RTVSPropertyOp4
 70
     1
102
RTVSPropertyOp5
 70
     1
102
RTVSPropertyOp6
 70
     1
102
RTVSPropertyOp7
 70
     1
102
RTVSPropertyOp8
 70
     1
102
RTVSPropertyOp9
 70
     1
102
RTVSPropertyOp10
 70
     1
102
RTVSPropertyOp11
 70
     1
102
RTVSPropertyOp12
 70
     1
102
RTVSPropertyOp13
 70
     1
102
RTVSPropertyOp14
 70
     1
102
RTVSPropertyOp15
 70
     1
102
RTVSPropertyOp16
 70
     1
102
RTVSPropertyOp17
 70
     1
102
RTVSPropertyOp18
 70
     1
102
RTVSPropertyOp19
 70
     1
102
RTVSPropertyOp20
 70
     1
102
RTVSPropertyOp21
 70
     1
102
RTVSPropertyOp22
 70
     1
102
RTVSPropertyOp23
 70
     1
102
RTVSPropertyOp24
 70
     1
102
RTVSPropertyOp25
 70
     1
102
RTVSPropertyOp26
 70
     1
102
RTVSPropertyOp27
 70
     1
102
RTVSPropertyOp28
 70
     1
102
RTVSPropertyOp29
 70
     1
102
RTVSPropertyOp30
 70
     1
102
RTVSPropertyOp31
 70
     1
102
RTVSPropertyOp32
 70
     1
  0
XRECORD
  5
171E
102
{ACAD_REACTORS
330
171D
102
}
330
171D
100
AcDbXrecord
280
     1
102
RTVSPropertyOp0
 70
     1
102
RTVSPropertyOp1
 70
     1
102
RTVSPropertyOp2
 70
     1
102
RTVSPropertyOp3
 70
     1
102
RTVSPropertyOp4
 70
     1
102
RTVSPropertyOp5
 70
     1
102
RTVSPropertyOp6
 70
     1
102
RTVSPropertyOp7
 70
     1
102
RTVSPropertyOp8
 70
     1
102
RTVSPropertyOp9
 70
     1
102
RTVSPropertyOp10
 70
     1
102
RTVSPropertyOp11
 70
     1
102
RTVSPropertyOp12
 70
     1
102
RTVSPropertyOp13
 70
     1
102
RTVSPropertyOp14
 70
     1
102
RTVSPropertyOp15
 70
     1
102
RTVSPropertyOp16
 70
     1
102
RTVSPropertyOp17
 70
     1
102
RTVSPropertyOp18
 70
     1
102
RTVSPropertyOp19
 70
     1
102
RTVSPropertyOp20
 70
     1
102
RTVSPropertyOp21
 70
     1
102
RTVSPropertyOp22
 70
     1
102
RTVSPropertyOp23
 70
     1
102
RTVSPropertyOp24
 70
     1
102
RTVSPropertyOp25
 70
     1
102
RTVSPropertyOp26
 70
     1
102
RTVSPropertyOp27
 70
     1
102
RTVSPropertyOp28
 70
     1
102
RTVSPropertyOp29
 70
     1
102
RTVSPropertyOp30
 70
     1
102
RTVSPropertyOp31
 70
     1
102
RTVSPropertyOp32
 70
     1
  0
XRECORD
  5
1736
102
{ACAD_REACTORS
330
1735
102
}
330
1735
100
AcDbXrecord
280
     1
102
RTVSPropertyOp0
 70
     1
102
RTVSPropertyOp1
 70
     1
102
RTVSPropertyOp2
 70
     1
102
RTVSPropertyOp3
 70
     1
102
RTVSPropertyOp4
 70
     1
102
RTVSPropertyOp5
 70
     1
102
RTVSPropertyOp6
 70
     1
102
RTVSPropertyOp7
 70
     1
102
RTVSPropertyOp8
 70
     1
102
RTVSPropertyOp9
 70
     1
102
RTVSPropertyOp10
 70
     1
102
RTVSPropertyOp11
 70
     1
102
RTVSPropertyOp12
 70
     1
102
RTVSPropertyOp13
 70
     1
102
RTVSPropertyOp14
 70
     1
102
RTVSPropertyOp15
 70
     1
102
RTVSPropertyOp16
 70
     1
102
RTVSPropertyOp17
 70
     1
102
RTVSPropertyOp18
 70
     1
102
RTVSPropertyOp19
 70
     1
102
RTVSPropertyOp20
 70
     1
102
RTVSPropertyOp21
 70
     1
102
RTVSPropertyOp22
 70
     1
102
RTVSPropertyOp23
 70
     1
102
RTVSPropertyOp24
 70
     1
102
RTVSPropertyOp25
 70
     1
102
RTVSPropertyOp26
 70
     1
102
RTVSPropertyOp27
 70
     1
102
RTVSPropertyOp28
 70
     1
102
RTVSPropertyOp29
 70
     1
102
RTVSPropertyOp30
 70
     1
102
RTVSPropertyOp31
 70
     1
102
RTVSPropertyOp32
 70
     1
  0
ENDSEC
  0
EOF
