  0
SECTION
  2
HEADER
  9
$ACADVER
  1
AC1015
  9
$ACADMAINTVER
 70
    20
  9
$DWGCODEPAGE
  3
ANSI_1250
  9
$INSBASE
 10
0.0
 20
0.0
 30
0.0
  9
$EXTMIN
 10
6435.712356915897
 20
-980.0938235263128
 30
0.0
  9
$EXTMAX
 10
11393.88940603568
 20
5995.050754305299
 30
0.0
  9
$LIMMIN
 10
0.0
 20
0.0
  9
$LIMMAX
 10
7425.0
 20
5250.0
  9
$ORTHOMODE
 70
     0
  9
$REGENMODE
 70
     1
  9
$FILLMODE
 70
     1
  9
$QTEXTMODE
 70
     0
  9
$MIRRTEXT
 70
     0
  9
$LTSCALE
 40
25.0
  9
$ATTMODE
 70
     1
  9
$TEXTSIZE
 40
0.2
  9
$TRACEWID
 40
0.05
  9
$TEXTSTYLE
  7
Standard
  9
$CLAYER
  8
0
  9
$CELTYPE
  6
ByLayer
  9
$CECOLOR
 62
   256
  9
$CELTSCALE
 40
1.0
  9
$DISPSILH
 70
     0
  9
$DIMSCALE
 40
1.0
  9
$DIMASZ
 40
1.799999999999999
  9
$DIMEXO
 40
0.0625
  9
$DIMDLI
 40
0.38
  9
$DIMRND
 40
0.0
  9
$DIMDLE
 40
0.0
  9
$DIMEXE
 40
0.18
  9
$DIMTP
 40
0.0
  9
$DIMTM
 40
0.0
  9
$DIMTXT
 40
0.25
  9
$DIMCEN
 40
0.09
  9
$DIMTSZ
 40
0.0
  9
$DIMTOL
 70
     0
  9
$DIMLIM
 70
     0
  9
$DIMTIH
 70
     1
  9
$DIMTOH
 70
     1
  9
$DIMSE1
 70
     0
  9
$DIMSE2
 70
     0
  9
$DIMTAD
 70
     0
  9
$DIMZIN
 70
     0
  9
$DIMBLK
  1

  9
$DIMASO
 70
     1
  9
$DIMSHO
 70
     1
  9
$DIMPOST
  1

  9
$DIMAPOST
  1

  9
$DIMALT
 70
     0
  9
$DIMALTD
 70
     2
  9
$DIMALTF
 40
25.4
  9
$DIMLFAC
 40
1.0
  9
$DIMTOFL
 70
     0
  9
$DIMTVP
 40
0.0
  9
$DIMTIX
 70
     0
  9
$DIMSOXD
 70
     0
  9
$DIMSAH
 70
     0
  9
$DIMBLK1
  1

  9
$DIMBLK2
  1

  9
$DIMSTYLE
  2
Standard
  9
$DIMCLRD
 70
     0
  9
$DIMCLRE
 70
     0
  9
$DIMCLRT
 70
     0
  9
$DIMTFAC
 40
1.0
  9
$DIMGAP
 40
0.09
  9
$DIMJUST
 70
     0
  9
$DIMSD1
 70
     0
  9
$DIMSD2
 70
     0
  9
$DIMTOLJ
 70
     1
  9
$DIMTZIN
 70
     0
  9
$DIMALTZ
 70
     0
  9
$DIMALTTZ
 70
     0
  9
$DIMUPT
 70
     0
  9
$DIMDEC
 70
     4
  9
$DIMTDEC
 70
     4
  9
$DIMALTU
 70
     2
  9
$DIMALTTD
 70
     2
  9
$DIMTXSTY
  7
Standard
  9
$DIMAUNIT
 70
     0
  9
$DIMADEC
 70
     0
  9
$DIMALTRND
 40
0.0
  9
$DIMAZIN
 70
     0
  9
$DIMDSEP
 70
    46
  9
$DIMATFIT
 70
     3
  9
$DIMFRAC
 70
     0
  9
$DIMLDRBLK
  1

  9
$DIMLUNIT
 70
     2
  9
$DIMLWD
 70
    -2
  9
$DIMLWE
 70
    -2
  9
$DIMTMOVE
 70
     0
  9
$LUNITS
 70
     2
  9
$LUPREC
 70
     2
  9
$SKETCHINC
 40
0.1
  9
$FILLETRAD
 40
0.0
  9
$AUNITS
 70
     0
  9
$AUPREC
 70
     0
  9
$MENU
  1
.
  9
$ELEVATION
 40
0.0
  9
$PELEVATION
 40
0.0
  9
$THICKNESS
 40
0.0
  9
$LIMCHECK
 70
     0
  9
$CHAMFERA
 40
0.0
  9
$CHAMFERB
 40
0.0
  9
$CHAMFERC
 40
0.0
  9
$CHAMFERD
 40
0.0
  9
$SKPOLY
 70
     0
  9
$TDCREATE
 40
2459858.466713785
  9
$TDUCREATE
 40
2459858.425047118
  9
$TDUPDATE
 40
2460370.364260787
  9
$TDUUPDATE
 40
2460370.322594120
  9
$TDINDWG
 40
0.0017482639
  9
$TDUSRTIMER
 40
0.0017481713
  9
$USRTIMER
 70
     1
  9
$ANGBASE
 50
0.0
  9
$ANGDIR
 70
     0
  9
$PDMODE
 70
     0
  9
$PDSIZE
 40
0.0
  9
$PLINEWID
 40
0.0
  9
$SPLFRAME
 70
     0
  9
$SPLINETYPE
 70
     6
  9
$SPLINESEGS
 70
     8
  9
$HANDSEED
  5
18C5
  9
$SURFTAB1
 70
     6
  9
$SURFTAB2
 70
     6
  9
$SURFTYPE
 70
     6
  9
$SURFU
 70
     6
  9
$SURFV
 70
     6
  9
$UCSBASE
  2

  9
$UCSNAME
  2

  9
$UCSORG
 10
0.0
 20
0.0
 30
0.0
  9
$UCSXDIR
 10
1.0
 20
0.0
 30
0.0
  9
$UCSYDIR
 10
0.0
 20
1.0
 30
0.0
  9
$UCSORTHOREF
  2

  9
$UCSORTHOVIEW
 70
     0
  9
$UCSORGTOP
 10
0.0
 20
0.0
 30
0.0
  9
$UCSORGBOTTOM
 10
0.0
 20
0.0
 30
0.0
  9
$UCSORGLEFT
 10
0.0
 20
0.0
 30
0.0
  9
$UCSORGRIGHT
 10
0.0
 20
0.0
 30
0.0
  9
$UCSORGFRONT
 10
0.0
 20
0.0
 30
0.0
  9
$UCSORGBACK
 10
0.0
 20
0.0
 30
0.0
  9
$PUCSBASE
  2

  9
$PUCSNAME
  2

  9
$PUCSORG
 10
0.0
 20
0.0
 30
0.0
  9
$PUCSXDIR
 10
1.0
 20
0.0
 30
0.0
  9
$PUCSYDIR
 10
0.0
 20
1.0
 30
0.0
  9
$PUCSORTHOREF
  2

  9
$PUCSORTHOVIEW
 70
     0
  9
$PUCSORGTOP
 10
0.0
 20
0.0
 30
0.0
  9
$PUCSORGBOTTOM
 10
0.0
 20
0.0
 30
0.0
  9
$PUCSORGLEFT
 10
0.0
 20
0.0
 30
0.0
  9
$PUCSORGRIGHT
 10
0.0
 20
0.0
 30
0.0
  9
$PUCSORGFRONT
 10
0.0
 20
0.0
 30
0.0
  9
$PUCSORGBACK
 10
0.0
 20
0.0
 30
0.0
  9
$USERI1
 70
     0
  9
$USERI2
 70
     0
  9
$USERI3
 70
     0
  9
$USERI4
 70
     0
  9
$USERI5
 70
     0
  9
$USERR1
 40
0.0
  9
$USERR2
 40
0.0
  9
$USERR3
 40
0.0
  9
$USERR4
 40
0.0
  9
$USERR5
 40
0.0
  9
$WORLDVIEW
 70
     1
  9
$SHADEDGE
 70
     3
  9
$SHADEDIF
 70
    70
  9
$TILEMODE
 70
     1
  9
$MAXACTVP
 70
    64
  9
$PINSBASE
 10
0.0
 20
0.0
 30
0.0
  9
$PLIMCHECK
 70
     0
  9
$PEXTMIN
 10
0.0
 20
0.0
 30
0.0
  9
$PEXTMAX
 10
7425.0
 20
5250.0
 30
0.0
  9
$PLIMMIN
 10
0.0
 20
0.0
  9
$PLIMMAX
 10
7425.0
 20
5250.0
  9
$UNITMODE
 70
     0
  9
$VISRETAIN
 70
     1
  9
$PLINEGEN
 70
     0
  9
$PSLTSCALE
 70
     1
  9
$TREEDEPTH
 70
  3020
  9
$CMLSTYLE
  2
Standard
  9
$CMLJUST
 70
     0
  9
$CMLSCALE
 40
1.0
  9
$PROXYGRAPHICS
 70
     1
  9
$MEASUREMENT
 70
     1
  9
$CELWEIGHT
370
    -1
  9
$ENDCAPS
280
     0
  9
$JOINSTYLE
280
     0
  9
$LWDISPLAY
290
     0
  9
$INSUNITS
 70
     4
  9
$HYPERLINKBASE
  1

  9
$STYLESHEET
  1

  9
$XEDIT
290
     1
  9
$CEPSNTYPE
380
     0
  9
$PSTYLEMODE
290
     1
  9
$FINGERPRINTGUID
  2
{5B27AC11-8268-4B3D-BD41-1D83821DABDC}
  9
$VERSIONGUID
  2
{208A519F-6DA2-4B4B-8AD7-3733FEBA7386}
  9
$EXTNAMES
290
     1
  9
$PSVPSCALE
 40
0.0
  9
$OLESTARTUP
290
     0
  0
ENDSEC
  0
SECTION
  2
CLASSES
  0
CLASS
  1
ACDBDICTIONARYWDFLT
  2
AcDbDictionaryWithDefault
  3
ObjectDBX Classes
 90
        0
280
     0
281
     0
  0
CLASS
  1
MATERIAL
  2
AcDbMaterial
  3
ObjectDBX Classes
 90
     1153
280
     0
281
     0
  0
CLASS
  1
VISUALSTYLE
  2
AcDbVisualStyle
  3
ObjectDBX Classes
 90
     4095
280
     0
281
     0
  0
CLASS
  1
SCALE
  2
AcDbScale
  3
ObjectDBX Classes
 90
     1153
280
     0
281
     0
  0
CLASS
  1
TABLESTYLE
  2
AcDbTableStyle
  3
ObjectDBX Classes
 90
     4095
280
     0
281
     0
  0
CLASS
  1
MLEADERSTYLE
  2
AcDbMLeaderStyle
  3
ACDB_MLEADERSTYLE_CLASS
 90
     4095
280
     0
281
     0
  0
CLASS
  1
CELLSTYLEMAP
  2
AcDbCellStyleMap
  3
ObjectDBX Classes
 90
     1152
280
     0
281
     0
  0
CLASS
  1
DICTIONARYVAR
  2
AcDbDictionaryVar
  3
ObjectDBX Classes
 90
        0
280
     0
281
     0
  0
CLASS
  1
ACDBPLACEHOLDER
  2
AcDbPlaceHolder
  3
ObjectDBX Classes
 90
        0
280
     0
281
     0
  0
CLASS
  1
LAYOUT
  2
AcDbLayout
  3
ObjectDBX Classes
 90
        0
280
     0
281
     0
  0
CLASS
  1
ACME_DOCUMENT
  2
AcMeDbDoc
  3
AcMeServices
 90
     1024
280
     0
281
     0
  0
CLASS
  1
AMGSETTINGSOBJ
  2
AmgSettingsObj
  3
"AcadM|Product Description: AutoCAD Mechanical|Company: Autodesk, Inc."
 90
     1024
280
     0
281
     0
  0
CLASS
  1
ACMESCOPE
  2
AcMeScope
  3
AcMeServices
 90
     1024
280
     0
281
     0
  0
CLASS
  1
ACMECOMMANDHISTORY
  2
AcMeCommandHistory
  3
AcMeServices
 90
     1024
280
     0
281
     0
  0
CLASS
  1
ACIMSYSVARMAN
  2
AcImSysVarManager
  3
AcMeServices
 90
     1024
280
     0
281
     0
  0
CLASS
  1
ACIMINTSYSVAR
  2
AcImIntSysVar
  3
AcMeServices
 90
     1024
280
     0
281
     0
  0
CLASS
  1
ACMESTATEMGR
  2
AcMeStateMgr
  3
AcMeServices
 90
     1024
280
     0
281
     0
  0
CLASS
  1
ACDBENTITYCACHE
  2
AcMeEntityCache
  3
AcMeServices
 90
     1024
280
     0
281
     0
  0
CLASS
  1
ACGREFMASTER
  2
AcGrefMaster
  3
AcAttribServices
 90
     1024
280
     0
281
     0
  0
CLASS
  1
AM_DRAWING_MGR
  2
AcDmDwgMgr
  3
AcMechDwgViewMgmt
 90
     1024
280
     0
281
     0
  0
CLASS
  1
AM_DWG_DOCUMENT
  2
AcDmDwgDocument
  3
AcMechDwgViewMgmt
 90
     1024
280
     0
281
     0
  0
CLASS
  1
AM_DWG_SHEET
  2
AcDmSheet
  3
AcMechDwgViewMgmt
 90
     1024
280
     0
281
     0
  0
CLASS
  1
AM_VIEWDIMPARMAP
  2
AcDmViewDimParMap
  3
AcMechDwgViewMgmt
 90
     1024
280
     0
281
     0
  0
CLASS
  1
AMDTINTERNALREACTOR
  2
AmdtInternalReactor
  3
AcMeServices
 90
     1024
280
     0
281
     0
  0
CLASS
  1
ACIMREALSYSVAR
  2
AcImRealSysVar
  3
AcMeServices
 90
     1024
280
     0
281
     0
  0
CLASS
  1
AM_DWGMGR_NAME
  2
AcDmDwgMgrName
  3
AcMechDwgViewMgmt
 90
     1024
280
     0
281
     0
  0
CLASS
  1
ACME_DATABASE
  2
AcMeDbDatabase
  3
AcMeServices
 90
     1024
280
     0
281
     0
  0
CLASS
  1
ACRFINSADJUSTERMGR
  2
AcRfInsAdjusterMgr
  3
AcMeServices
 90
     1024
280
     0
281
     0
  0
CLASS
  1
ACGREFACADMASTER
  2
AcGrefacadMaster
  3
AcGrefServices
 90
     1024
280
     0
281
     0
  0
CLASS
  1
AMDTMENUSTATEMGR
  2
AmdtMenuStateMgr
  3
McadcomServices
 90
     1024
280
     0
281
     0
  0
CLASS
  1
AMDTMCOMMENUSTATE
  2
AmdtMcomMenuState
  3
McadcomServices
 90
     1024
280
     0
281
     0
  0
CLASS
  1
AMIMASTER
  2
AmiMaster
  3
AmiServices
 90
     1024
280
     0
281
     0
  0
CLASS
  1
MAPIAMMOUDLE
  2
MApiAmModule
  3
MApiAmServices
 90
     1024
280
     0
281
     0
  0
CLASS
  1
ACIMSTRSYSVAR
  2
AcImStrSysVar
  3
AcMeServices
 90
     1024
280
     0
281
     0
  0
CLASS
  1
AMDTDMMENUSTATE
  2
AmdtDmMenuState
  3
AcMechDwgViewMgmt
 90
     1024
280
     0
281
     0
  0
CLASS
  1
AMDTAMMENUSTATE
  2
AmdtAmMenuState
  3
DesignerAssemblies
 90
     1024
280
     0
281
     0
  0
CLASS
  1
ACAMPROJECT
  2
AcAmProject
  3
DesignerAssemblies
 90
     1024
280
     0
281
     0
  0
CLASS
  1
ACAMGRCOMPDEF
  2
AcAmGrCompDef
  3
DesignerAssemblies
 90
     1024
280
     0
281
     0
  0
CLASS
  1
ACAMCOMPDEF
  2
AcAmCompDef
  3
DesignerAssemblies
 90
     1024
280
     0
281
     0
  0
CLASS
  1
ACAMCOMPDEFMGR
  2
AcAmCompDefMgr
  3
DesignerAssemblies
 90
     1024
280
     0
281
     0
  0
CLASS
  1
AMCONTEXTMGR
  2
AcAmContextMgr
  3
DesignerAssemblies
 90
     1024
280
     0
281
     0
  0
CLASS
  1
ACAMCONTEXTMODELER
  2
AcAmContextModeler
  3
DesignerAssemblies
 90
     1024
280
     0
281
     0
  0
CLASS
  1
ACMDATADICTIONARY
  2
AcmDataDictionary
  3
"AcmSymBB|Product Description: AutoCAD Mechanical|Company: Autodesk, Inc."
 90
     1024
280
     0
281
     0
  0
CLASS
  1
ACAMGRCOMPDEFSET
  2
AcAmGrCompDefSet
  3
DesignerAssemblies
 90
     1024
280
     0
281
     0
  0
CLASS
  1
AMDTBROWSERDBTAB
  2
AmdtBrowserDbTab
  3
McadcomServices
 90
     1024
280
     0
281
     0
  0
CLASS
  1
CBROWSERAPPOBJECT
  2
CBrowserAppObject
  3
McadcomServices
 90
     1024
280
     0
281
     0
  0
CLASS
  1
DM_PLACEHOLDER
  2
AcDmSelsetPlaceholder
  3
AcMechDwgViewMgmt
 90
     1024
280
     0
281
     0
  0
CLASS
  1
ACMSTANDARDISO
  2
AcmStandardISO
  3
"Amdt_StdImp|Product Description: AutoCAD Mechanical|Company: Autodesk, Inc."
 90
     1024
280
     0
281
     0
  0
CLASS
  1
AMDTEDGESTANDARDISO13715
  2
AmdtEdgeStdISO13715
  3
"Amdt_StdImp|Product Description: AutoCAD Mechanical|Company: Autodesk, Inc."
 90
     1024
280
     0
281
     0
  0
CLASS
  1
ACMSURFSTANDARDISO2002
  2
AcmSurfTextStdISO2002
  3
"Amdt_StdImp|Product Description: AutoCAD Mechanical|Company: Autodesk, Inc."
 90
     1024
280
     0
281
     0
  0
CLASS
  1
ACMFCFSTANDARDISO
  2
AcmFCFStdISO
  3
"Amdt_StdImp|Product Description: AutoCAD Mechanical|Company: Autodesk, Inc."
 90
     1024
280
     0
281
     0
  0
CLASS
  1
ACMWELDSTANDARDISO
  2
AcmWeldingStdISO
  3
"Amdt_StdImp|Product Description: AutoCAD Mechanical|Company: Autodesk, Inc."
 90
     1024
280
     0
281
     0
  0
CLASS
  1
ACMIDSTANDARDISO
  2
AcmIdStdISO
  3
"Amdt_StdImp|Product Description: AutoCAD Mechanical|Company: Autodesk, Inc."
 90
     1024
280
     0
281
     0
  0
CLASS
  1
ACMDATUMSTANDARDISO
  2
AcmDatumStdISO
  3
"Amdt_StdImp|Product Description: AutoCAD Mechanical|Company: Autodesk, Inc."
 90
     1024
280
     0
281
     0
  0
CLASS
  1
ACMBOMSTANDARDISO
  2
AcmBOMStdISO
  3
"Amdt_StdImp|Product Description: AutoCAD Mechanical|Company: Autodesk, Inc."
 90
     1024
280
     0
281
     0
  0
CLASS
  1
ACMDETAILSTANDARDISO
  2
AmdtDetailSymStdISO
  3
"Amdt_StdImp|Product Description: AutoCAD Mechanical|Company: Autodesk, Inc."
 90
     1024
280
     0
281
     0
  0
CLASS
  1
ACMSECTIONSTANDARDISO2001
  2
AmdtSectionSymStdISO2001
  3
"Amdt_StdImp|Product Description: AutoCAD Mechanical|Company: Autodesk, Inc."
 90
     1024
280
     0
281
     0
  0
CLASS
  1
ACMCENTERLINESTANDARDISO
  2
AmdtCenterLineStdISO
  3
"Amdt_StdImp|Product Description: AutoCAD Mechanical|Company: Autodesk, Inc."
 90
     1024
280
     0
281
     0
  0
CLASS
  1
ACMTHREADLINESTANDARDISO
  2
AmdtThreadLineStdISO
  3
"Amdt_StdImp|Product Description: AutoCAD Mechanical|Company: Autodesk, Inc."
 90
     1024
280
     0
281
     0
  0
CLASS
  1
ACMNOTESTANDARDISO
  2
AmdtNoteStdISO
  3
"Amdt_StdImp|Product Description: AutoCAD Mechanical|Company: Autodesk, Inc."
 90
     1024
280
     0
281
     0
  0
CLASS
  1
ACMTAPERSTANDARDISO
  2
AcmTaperStdISO
  3
"Amdt_StdImp|Product Description: AutoCAD Mechanical|Company: Autodesk, Inc."
 90
     1024
280
     0
281
     0
  0
CLASS
  1
ACMANOOTATIONVIEWSTANDARDISO
  2
AmdtAnViewStdISO
  3
"Amdt_StdImp|Product Description: AutoCAD Mechanical|Company: Autodesk, Inc."
 90
     1024
280
     0
281
     0
  0
CLASS
  1
ACAMGLAYSTD
  2
AcAmgLayStd
  3
"AmgLay|Product Description: AutoCAD Mechanical|Company: Autodesk, Inc."
 90
     1024
280
     0
281
     0
  0
CLASS
  1
ACAMGDIMSTD
  2
AcAmgDimStd
  3
"AmgDim|Product Description: AutoCAD Mechanical|Company: Autodesk, Inc."
 90
     1024
280
     0
281
     0
  0
CLASS
  1
AMGOBJPROPCFG
  2
AmgObjPropCfg
  3
"AmgLay|Product Description: AutoCAD Mechanical|Company: Autodesk, Inc."
 90
     1025
280
     0
281
     0
  0
CLASS
  1
ACAMGHOLECHARTSTDISO
  2
AcAmgHoleChartStdISO
  3
AmgDim|Product Description: AutoCAD Mechanical|Company: Autodesk, Inc.
 90
     1024
280
     0
281
     0
  0
CLASS
  1
ACAMGTITLESTD
  2
AcAmgTitleStd
  3
"AmgTitle|Product Description: AutoCAD Mechanical|Company: Autodesk, Inc."
 90
     4095
280
     0
281
     0
  0
CLASS
  1
AMDTNOTETEMPLATEDB
  2
AmdtNoteTemplateDB
  3
AcmSymBB|Product Description: AutoCAD Mechanical|Company: Autodesk, Inc.
 90
     1024
280
     0
281
     0
  0
CLASS
  1
ACAMGFILTERDAT
  2
AcAmgFilterDat
  3
"AcadM|Product Description: AutoCAD Mechanical|Company: Autodesk, Inc."
 90
    33792
280
     0
281
     0
  0
ENDSEC
  0
SECTION
  2
TABLES
  0
TABLE
  2
VPORT
  5
8
102
{ACAD_XDICTIONARY
360
1176
102
}
330
0
100
AcDbSymbolTable
 70
     1
  0
VPORT
  5
57
330
8
100
AcDbSymbolTableRecord
100
AcDbViewportTableRecord
  2
*Active
 70
     0
 10
0.0
 20
0.0
 11
1.0
 21
1.0
 12
9040.492206737676
 22
2548.089580129349
 13
0.0
 23
0.0
 14
1.0
 24
1.0
 15
0.0
 25
0.0
 16
0.0
 26
0.0
 36
1.0
 17
0.0
 27
0.0
 37
0.0
 40
7585.046902171355
 41
2.263593380614657
 42
50.0
 43
0.0
 44
0.0
 50
0.0
 51
0.0
 71
     0
 72
   100
 73
     1
 74
     1
 75
     0
 76
     0
 77
     0
 78
     0
281
     0
 65
     0
110
0.0
120
0.0
130
0.0
111
1.0
121
0.0
131
0.0
112
0.0
122
1.0
132
0.0
 79
     0
146
0.0
  0
ENDTAB
  0
TABLE
  2
LTYPE
  5
5
330
0
100
AcDbSymbolTable
 70
    14
  0
LTYPE
  5
5B
330
5
100
AcDbSymbolTableRecord
100
AcDbLinetypeTableRecord
  2
ByBlock
 70
     0
  3

 72
    65
 73
     0
 40
0.0
  0
LTYPE
  5
5C
330
5
100
AcDbSymbolTableRecord
100
AcDbLinetypeTableRecord
  2
ByLayer
 70
     0
  3

 72
    65
 73
     0
 40
0.0
  0
LTYPE
  5
5D
330
5
100
AcDbSymbolTableRecord
100
AcDbLinetypeTableRecord
  2
Continuous
 70
     0
  3
Solid line
 72
    65
 73
     0
 40
0.0
  0
LTYPE
  5
86
330
5
100
AcDbSymbolTableRecord
100
AcDbLinetypeTableRecord
  2
CENTER
 70
     0
  3
Center ____ _ ____ _ ____ _ ____ _ ____ _ ____
 72
    65
 73
     4
 40
50.8
 49
31.75
 74
     0
 49
-6.349999999999997
 74
     0
 49
6.349999999999997
 74
     0
 49
-6.349999999999997
 74
     0
  0
LTYPE
  5
93
330
5
100
AcDbSymbolTableRecord
100
AcDbLinetypeTableRecord
  2
HIDDEN
 70
     0
  3
Hidden __ __ __ __ __ __ __ __ __ __ __ __ __ _
 72
    65
 73
     2
 40
9.524999999999996
 49
6.349999999999997
 74
     0
 49
-3.174999999999998
 74
     0
  0
LTYPE
  5
97
330
5
100
AcDbSymbolTableRecord
100
AcDbLinetypeTableRecord
  2
PHANTOM2
 70
     0
  3
Phantom (.5x) ___ _ _ ___ _ _ ___ _ _ ___ _ _
 72
    65
 73
     6
 40
31.75
 49
15.875
 74
     0
 49
-3.174999999999998
 74
     0
 49
3.174999999999998
 74
     0
 49
-3.174999999999998
 74
     0
 49
3.174999999999998
 74
     0
 49
-3.174999999999998
 74
     0
  0
LTYPE
  5
1240
330
5
100
AcDbSymbolTableRecord
100
AcDbLinetypeTableRecord
  2
AM_ISO02W050
 70
     0
  3
__ __ __ __ __ __ __ __ __ __ __ __ __ __ __
 72
    65
 73
     2
 40
7.5
 49
6.0
 74
     0
 49
-1.5
 74
     0
  0
LTYPE
  5
1241
330
5
100
AcDbSymbolTableRecord
100
AcDbLinetypeTableRecord
  2
AM_ISO08W050
 70
     0
  3
____ . ____ . ____ . ____ . ____ . ____ . ____
 72
    65
 73
     4
 40
18.0
 49
12.0
 74
     0
 49
-1.5
 74
     0
 49
3.0
 74
     0
 49
-1.5
 74
     0
  0
LTYPE
  5
1242
330
5
100
AcDbSymbolTableRecord
100
AcDbLinetypeTableRecord
  2
AM_ISO09W050
 70
     0
  3
_____ . . _____ . . _____ . . ____ .. ____
 72
    65
 73
     6
 40
22.5
 49
12.0
 74
     0
 49
-1.5
 74
     0
 49
3.0
 74
     0
 49
-1.5
 74
     0
 49
3.0
 74
     0
 49
-1.5
 74
     0
  0
LTYPE
  5
1243
330
5
100
AcDbSymbolTableRecord
100
AcDbLinetypeTableRecord
  2
Amconstr
 70
     0
  3
_______________________
 72
    65
 73
     2
 40
9999.0
 49
9999.0
 74
     0
 49
0.0
 74
     0
  0
LTYPE
  5
1244
330
5
100
AcDbSymbolTableRecord
100
AcDbLinetypeTableRecord
  2
AM_ISO08W050x2
 70
     0
  3
__ . __ . __ . __ . __ . __
 72
    65
 73
     4
 40
9.0
 49
6.0
 74
     0
 49
-0.75
 74
     0
 49
1.5
 74
     0
 49
-0.75
 74
     0
  0
LTYPE
  5
1245
330
5
100
AcDbSymbolTableRecord
100
AcDbLinetypeTableRecord
  2
AM_ISO02W050x2
 70
     0
  3
 _ _ _ _ _ _ _ _ _ _ _ _
 72
    65
 73
     2
 40
3.75
 49
3.0
 74
     0
 49
-0.75
 74
     0
  0
LTYPE
  5
1248
330
5
100
AcDbSymbolTableRecord
100
AcDbLinetypeTableRecord
  2
Amzigzag
 70
     0
  3
/\/-/\/-/\/-/\/-/\/-/\/
 72
    65
 73
     2
 40
11.0001
 49
0.0001
 74
     4
 75
   136
340
1247
 46
0.04
 50
0.0
 44
0.0
 45
0.0
 49
-11.0
 74
     0
  0
LTYPE
  5
1257
330
5
100
AcDbSymbolTableRecord
100
AcDbLinetypeTableRecord
  2
ACISOWELD
 70
     0
  3
_ _ _ _ _
 72
    65
 73
     2
 40
2.0
 49
2.0
 74
     0
 49
-1.0
 74
     0
  0
LTYPE
  5
1258
330
5
100
AcDbSymbolTableRecord
100
AcDbLinetypeTableRecord
  2
ACISOTGB
 70
     0
  3
__ . . __ . .
 72
    65
 73
     6
 40
9.0
 49
4.0
 74
     0
 49
-1.0
 74
     0
 49
1.0
 74
     0
 49
-1.0
 74
     0
 49
1.0
 74
     0
 49
-1.0
 74
     0
  0
LTYPE
  5
1259
330
5
100
AcDbSymbolTableRecord
100
AcDbLinetypeTableRecord
  2
ACISOTGL
 70
     0
  3
_ _ _ _ _
 72
    65
 73
     2
 40
3.0
 49
2.0
 74
     0
 49
-1.0
 74
     0
  0
ENDTAB
  0
TABLE
  2
LAYER
  5
2
330
0
100
AcDbSymbolTable
 70
     8
  0
LAYER
  5
54
330
2
100
AcDbSymbolTableRecord
100
AcDbLayerTableRecord
  2
0
 70
     0
 62
     7
  6
Continuous
370
    -3
390
F
  0
LAYER
  5
BA
330
2
100
AcDbSymbolTableRecord
100
AcDbLayerTableRecord
  2
Dimension (ISO)
 70
     0
 62
   161
  6
Continuous
370
    18
390
F
  0
LAYER
  5
BB
330
2
100
AcDbSymbolTableRecord
100
AcDbLayerTableRecord
  2
Hatch (ISO)
 70
     0
 62
   176
  6
Continuous
370
    18
390
F
  0
LAYER
  5
C3
330
2
100
AcDbSymbolTableRecord
100
AcDbLayerTableRecord
  2
Sketch Geometry (ISO)
 70
     0
 62
     7
  6
Continuous
370
    25
390
F
  0
LAYER
  5
C5
330
2
100
AcDbSymbolTableRecord
100
AcDbLayerTableRecord
  2
Title (ISO)
 70
     0
 62
     7
  6
Continuous
370
    30
390
F
  0
LAYER
  5
C8
330
2
100
AcDbSymbolTableRecord
100
AcDbLayerTableRecord
  2
Visible (ISO)
 70
     0
 62
     7
  6
Continuous
370
    30
390
F
  0
LAYER
  5
C9
330
2
100
AcDbSymbolTableRecord
100
AcDbLayerTableRecord
  2
Visible Narrow (ISO)
 70
     0
 62
     7
  6
Continuous
370
    15
390
F
  0
LAYER
  5
2B4
330
2
100
AcDbSymbolTableRecord
100
AcDbLayerTableRecord
  2
Defpoints
 70
     0
 62
     7
  6
Continuous
290
     0
370
    -3
390
F
  0
ENDTAB
  0
TABLE
  2
STYLE
  5
3
330
0
100
AcDbSymbolTable
 70
     6
  0
STYLE
  5
55
330
3
100
AcDbSymbolTableRecord
100
AcDbTextStyleTableRecord
  2
Standard
 70
     0
 40
0.0
 41
1.0
 50
0.0
 71
     0
 42
0.2
  3
tahoma.ttf
  4

1001
ACAD
1000
Tahoma
1071
      256
  0
STYLE
  5
CD
330
3
100
AcDbSymbolTableRecord
100
AcDbTextStyleTableRecord
  2
Label Text (ISO)
 70
     0
 40
0.0
 41
1.0
 50
0.0
 71
     0
 42
0.2
  3
tahoma.ttf
  4

1001
ACAD
1000
Tahoma
1071
      256
  0
STYLE
  5
CE
330
3
100
AcDbSymbolTableRecord
100
AcDbTextStyleTableRecord
  2
Note Text (ISO)
 70
     0
 40
0.0
 41
1.0
 50
0.0
 71
     0
 42
0.2
  3
tahoma.ttf
  4

1001
ACAD
1000
Tahoma
1071
      256
  0
STYLE
  5
1247
330
3
100
AcDbSymbolTableRecord
100
AcDbTextStyleTableRecord
  2

 70
     1
 40
0.0
 41
1.0
 50
0.0
 71
     0
 42
0.2
  3
genltshp.shx
  4

  0
STYLE
  5
1256
330
3
100
AcDbSymbolTableRecord
100
AcDbTextStyleTableRecord
  2
ACISOGDT
 70
     0
 40
0.0
 41
1.0
 50
0.0
 71
     0
 42
0.2
  3
amgdt.shx
  4

  0
ENDTAB
  0
TABLE
  2
VIEW
  5
6
330
0
100
AcDbSymbolTable
 70
     0
  0
ENDTAB
  0
TABLE
  2
UCS
  5
7
330
0
100
AcDbSymbolTable
 70
     0
  0
ENDTAB
  0
TABLE
  2
APPID
  5
9
330
0
100
AcDbSymbolTable
 70
    17
  0
APPID
  5
56
330
9
100
AcDbSymbolTableRecord
100
AcDbRegAppTableRecord
  2
ACAD
 70
     0
  0
APPID
  5
5E
330
9
100
AcDbSymbolTableRecord
100
AcDbRegAppTableRecord
  2
AcadAnnotative
 70
     0
  0
APPID
  5
2AA
330
9
100
AcDbSymbolTableRecord
100
AcDbRegAppTableRecord
  2
AcadAnnoPO
 70
     0
  0
APPID
  5
11AC
330
9
100
AcDbSymbolTableRecord
100
AcDbRegAppTableRecord
  2
ACAD_MLEADERVER
 70
     0
  0
APPID
  5
11D8
330
9
100
AcDbSymbolTableRecord
100
AcDbRegAppTableRecord
  2
MCAD_NO_VIS
 70
     0
  0
APPID
  5
11D9
330
9
100
AcDbSymbolTableRecord
100
AcDbRegAppTableRecord
  2
ACAD_TEMP_GRAPHIC
 70
     0
  0
APPID
  5
1204
330
9
100
AcDbSymbolTableRecord
100
AcDbRegAppTableRecord
  2
AD_DRAW
 70
     0
  0
APPID
  5
1207
330
9
100
AcDbSymbolTableRecord
100
AcDbRegAppTableRecord
  2
ACATTRIBSERVICES
 70
     0
  0
APPID
  5
1220
330
9
100
AcDbSymbolTableRecord
100
AcDbRegAppTableRecord
  2
DESIGNERASSEMBLIES
 70
     0
  0
APPID
  5
1225
330
9
100
AcDbSymbolTableRecord
100
AcDbRegAppTableRecord
  2
ACADM_DIM_EDIT
 70
     0
  0
APPID
  5
1226
330
9
100
AcDbSymbolTableRecord
100
AcDbRegAppTableRecord
  2
AMDT_DM_ADJ
 70
     0
  0
APPID
  5
123D
330
9
100
AcDbSymbolTableRecord
100
AcDbRegAppTableRecord
  2
ACAD_DSTYLE_DIMJAG
 70
     0
  0
APPID
  5
123E
330
9
100
AcDbSymbolTableRecord
100
AcDbRegAppTableRecord
  2
ACAD_DSTYLE_DIMBREAK
 70
     0
  0
APPID
  5
1300
330
9
100
AcDbSymbolTableRecord
100
AcDbRegAppTableRecord
  2
ACAD_DSTYLE_DIMARC_LENGTH_SYMBOL
 70
     0
  0
APPID
  5
1301
330
9
100
AcDbSymbolTableRecord
100
AcDbRegAppTableRecord
  2
ACAD_DSTYLE_DIM_LINETYPE
 70
     0
  0
APPID
  5
1302
330
9
100
AcDbSymbolTableRecord
100
AcDbRegAppTableRecord
  2
ACAD_DSTYLE_DIM_EXT1_LINETYPE
 70
     0
  0
APPID
  5
1303
330
9
100
AcDbSymbolTableRecord
100
AcDbRegAppTableRecord
  2
ACAD_DSTYLE_DIM_EXT2_LINETYPE
 70
     0
  0
ENDTAB
  0
TABLE
  2
DIMSTYLE
  5
A
330
0
100
AcDbSymbolTable
 70
     9
100
AcDbDimStyleTable
 71
     2
340
D4
340
58
  0
DIMSTYLE
105
58
330
A
100
AcDbSymbolTableRecord
100
AcDbDimStyleTableRecord
  2
Standard
 70
     0
340
55
  0
DIMSTYLE
105
D4
102
{ACAD_REACTORS
330
17A3
330
17A4
330
17A5
330
17A6
330
17A7
330
17A8
330
17A9
102
}
330
A
100
AcDbSymbolTableRecord
100
AcDbDimStyleTableRecord
  2
Default (ISO)
 70
     0
 40
25.0
 41
2.5
 42
0.5
 43
5.999999999999999
 44
1.0
 45
0.00000001
 46
10.0
 73
     0
 77
     1
 78
     8
 79
     2
140
3.5
143
0.03937
146
0.7142857313156128
147
0.762
171
     3
172
     1
176
   256
177
   256
178
   256
271
     2
272
     2
274
     3
278
    44
340
CD
371
    -1
372
    -1
  0
DIMSTYLE
105
123C
102
{ACAD_REACTORS
330
1418
102
}
330
A
100
AcDbSymbolTableRecord
100
AcDbDimStyleTableRecord
  2
AM_ISO
 70
     0
  4
"
 41
3.5
 42
1.0
 43
10.0
 44
1.0
 47
0.1
 48
0.1
 73
     0
 74
     0
 77
     1
 78
     8
 79
     2
140
3.5
141
0.0
143
0.0393701
146
0.71
147
1.5
172
     1
176
   256
177
   256
178
     2
271
     2
272
     3
274
     4
283
     0
284
     8
340
55
371
    -1
372
    -1
1001
ACAD_DSTYLE_DIMJAG
1070
   388
1040
1.5
1001
ACAD_DSTYLE_DIMBREAK
1070
   391
1040
3.75
1001
ACAD_DSTYLE_DIMARC_LENGTH_SYMBOL
1070
   379
1070
     1
1001
ACAD_DSTYLE_DIM_LINETYPE
1070
   380
1005
5B
1001
ACAD_DSTYLE_DIM_EXT1_LINETYPE
1070
   381
1005
5B
1001
ACAD_DSTYLE_DIM_EXT2_LINETYPE
1070
   382
1005
5B
  0
DIMSTYLE
105
1249
330
A
100
AcDbSymbolTableRecord
100
AcDbDimStyleTableRecord
  2
AM_ISO$3
 70
     0
  4
"
 41
3.5
 42
1.0
 43
10.0
 44
1.0
 47
0.1
 48
0.1
 73
     0
 77
     1
 78
     8
 79
     2
140
3.5
141
0.0
143
0.0393701
146
0.71
147
1.5
176
   256
177
   256
178
     2
271
     2
272
     3
274
     4
283
     0
284
     8
288
     1
289
     0
340
55
371
    -1
372
    -1
1001
ACAD_DSTYLE_DIMBREAK
1070
   391
1040
3.75
1001
ACAD_DSTYLE_DIMJAG
1070
   388
1040
1.5
1001
ACAD_DSTYLE_DIMARC_LENGTH_SYMBOL
1070
   379
1070
     1
1001
ACAD_DSTYLE_DIM_LINETYPE
1070
   380
1005
5B
1001
ACAD_DSTYLE_DIM_EXT1_LINETYPE
1070
   381
1005
5B
1001
ACAD_DSTYLE_DIM_EXT2_LINETYPE
1070
   382
1005
5B
  0
DIMSTYLE
105
124A
330
A
100
AcDbSymbolTableRecord
100
AcDbDimStyleTableRecord
  2
AM_ISO$4
 70
     0
  4
"
 41
3.5
 42
1.0
 43
10.0
 44
1.0
 47
0.1
 48
0.1
 73
     0
 77
     1
 78
     8
 79
     2
140
3.5
141
0.0
143
0.0393701
146
0.71
147
1.5
176
   256
177
   256
178
     2
271
     2
272
     3
274
     4
283
     0
284
     8
288
     1
289
     0
340
55
371
    -1
372
    -1
1001
ACAD_DSTYLE_DIMBREAK
1070
   391
1040
3.75
1001
ACAD_DSTYLE_DIMJAG
1070
   388
1040
1.5
1001
ACAD_DSTYLE_DIMARC_LENGTH_SYMBOL
1070
   379
1070
     1
1001
ACAD_DSTYLE_DIM_LINETYPE
1070
   380
1005
5B
1001
ACAD_DSTYLE_DIM_EXT1_LINETYPE
1070
   381
1005
5B
1001
ACAD_DSTYLE_DIM_EXT2_LINETYPE
1070
   382
1005
5B
  0
DIMSTYLE
105
124B
330
A
100
AcDbSymbolTableRecord
100
AcDbDimStyleTableRecord
  2
AM_ISO$6
 70
     0
  4
"
 41
3.5
 42
1.0
 43
10.0
 44
1.0
 47
0.1
 48
0.1
 73
     0
 74
     0
 78
     8
 79
     2
140
3.5
141
0.0
143
0.0393701
146
0.71
147
1.5
172
     1
176
   256
177
   256
178
     2
271
     2
272
     3
274
     4
283
     0
284
     8
340
55
371
    -1
372
    -1
1001
ACAD_DSTYLE_DIMBREAK
1070
   391
1040
3.75
1001
ACAD_DSTYLE_DIMJAG
1070
   388
1040
1.5
1001
ACAD_DSTYLE_DIMARC_LENGTH_SYMBOL
1070
   379
1070
     1
1001
ACAD_DSTYLE_DIM_LINETYPE
1070
   380
1005
5B
1001
ACAD_DSTYLE_DIM_EXT1_LINETYPE
1070
   381
1005
5B
1001
ACAD_DSTYLE_DIM_EXT2_LINETYPE
1070
   382
1005
5B
  0
DIMSTYLE
105
124C
330
A
100
AcDbSymbolTableRecord
100
AcDbDimStyleTableRecord
  2
AM_ISO$7
 70
     0
  4
"
 41
3.5
 42
1.0
 43
10.0
 44
1.0
 47
0.1
 48
0.1
 73
     0
 74
     0
 77
     1
 78
     8
 79
     2
140
3.5
141
0.0
143
0.0393701
146
0.71
147
1.5
172
     1
176
   256
177
   256
178
     2
271
     2
272
     3
274
     4
283
     0
284
     8
340
55
371
    -1
372
    -1
1001
ACAD_DSTYLE_DIMBREAK
1070
   391
1040
3.75
1001
ACAD_DSTYLE_DIMJAG
1070
   388
1040
1.5
1001
ACAD_DSTYLE_DIMARC_LENGTH_SYMBOL
1070
   379
1070
     1
1001
ACAD_DSTYLE_DIM_LINETYPE
1070
   380
1005
5B
1001
ACAD_DSTYLE_DIM_EXT1_LINETYPE
1070
   381
1005
5B
1001
ACAD_DSTYLE_DIM_EXT2_LINETYPE
1070
   382
1005
5B
  0
DIMSTYLE
105
124D
330
A
100
AcDbSymbolTableRecord
100
AcDbDimStyleTableRecord
  2
AM_ISO$SF
 70
     0
  4
"
 41
3.5
 42
1.0
 43
10.0
 44
1.0
 47
0.1
 48
0.1
 73
     0
 74
     0
 75
     1
 76
     1
 77
     1
 78
     8
 79
     2
140
3.5
141
0.0
143
0.0393701
146
0.71
147
1.5
172
     1
176
   256
177
   256
178
     2
271
     2
272
     3
274
     4
283
     0
284
     8
340
55
371
    -1
372
    -1
1001
ACAD_DSTYLE_DIMBREAK
1070
   391
1040
3.75
1001
ACAD_DSTYLE_DIMJAG
1070
   388
1040
1.5
1001
ACAD_DSTYLE_DIMARC_LENGTH_SYMBOL
1070
   379
1070
     1
1001
ACAD_DSTYLE_DIM_LINETYPE
1070
   380
1005
5B
1001
ACAD_DSTYLE_DIM_EXT1_LINETYPE
1070
   381
1005
5B
1001
ACAD_DSTYLE_DIM_EXT2_LINETYPE
1070
   382
1005
5B
  0
DIMSTYLE
105
1252
330
A
100
AcDbSymbolTableRecord
100
AcDbDimStyleTableRecord
  2
AM_ISO$SH
 70
     0
  4
"
 41
3.5
 42
1.0
 43
10.0
 44
1.0
 47
0.1
 48
0.1
 73
     0
 74
     0
 75
     1
 76
     1
 77
     1
 78
     8
 79
     2
140
3.5
141
0.0
143
0.0393701
144
2.0
146
0.71
147
1.5
172
     1
173
     1
176
   256
177
   256
178
     2
271
     2
272
     3
274
     4
283
     0
284
     8
340
55
343
124E
371
    -1
372
    -1
1001
ACAD_DSTYLE_DIMBREAK
1070
   391
1040
3.75
1001
ACAD_DSTYLE_DIMJAG
1070
   388
1040
1.5
1001
ACAD_DSTYLE_DIMARC_LENGTH_SYMBOL
1070
   379
1070
     1
1001
ACAD_DSTYLE_DIM_LINETYPE
1070
   380
1005
5B
1001
ACAD_DSTYLE_DIM_EXT1_LINETYPE
1070
   381
1005
5B
1001
ACAD_DSTYLE_DIM_EXT2_LINETYPE
1070
   382
1005
5B
  0
ENDTAB
  0
TABLE
  2
BLOCK_RECORD
  5
1
330
0
100
AcDbSymbolTable
 70
    28
  0
BLOCK_RECORD
  5
6C
330
1
100
AcDbSymbolTableRecord
100
AcDbBlockTableRecord
  2
*Model_Space
340
6F
  0
BLOCK_RECORD
  5
68
330
1
100
AcDbSymbolTableRecord
100
AcDbBlockTableRecord
  2
*Paper_Space
340
6B
  0
BLOCK_RECORD
  5
70
330
1
100
AcDbSymbolTableRecord
100
AcDbBlockTableRecord
  2
*Paper_Space0
340
73
  0
BLOCK_RECORD
  5
F9
330
1
100
AcDbSymbolTableRecord
100
AcDbBlockTableRecord
  2
Poziom gruntu
340
0
102
{BLKREFS
331
1616
331
1617
331
17AA
331
17AB
102
}
  0
BLOCK_RECORD
  5
2A2
330
1
100
AcDbSymbolTableRecord
100
AcDbBlockTableRecord
  2
Tabelki rysunkowe Rzut
340
0
102
{BLKREFS
331
1607
331
179B
102
}
  0
BLOCK_RECORD
  5
124E
330
1
100
AcDbSymbolTableRecord
100
AcDbBlockTableRecord
  2
GENAXEH
340
0
  0
BLOCK_RECORD
  5
1268
330
1
100
AcDbSymbolTableRecord
100
AcDbBlockTableRecord
  2
23040_Deska-surfingowa
340
0
310
2800000020000000200000000100080000000000000400000000000000000000000000000000000000000000000080000080000000808000800000008000800080800000C0C0C000C0DCC000F0CAA6000020400000206000002080000020A0000020C0000020E00000400000004020000040400000406000004080000040A0
310
000040C0000040E00000600000006020000060400000606000006080000060A0000060C0000060E00000800000008020000080400000806000008080000080A0000080C0000080E00000A0000000A0200000A0400000A0600000A0800000A0A00000A0C00000A0E00000C0000000C0200000C0400000C0600000C0800000C0
310
A00000C0C00000C0E00000E0000000E0200000E0400000E0600000E0800000E0A00000E0C00000E0E00040000000400020004000400040006000400080004000A0004000C0004000E00040200000402020004020400040206000402080004020A0004020C0004020E000404000004040200040404000404060004040800040
310
40A0004040C0004040E00040600000406020004060400040606000406080004060A0004060C0004060E00040800000408020004080400040806000408080004080A0004080C0004080E00040A0000040A0200040A0400040A0600040A0800040A0A00040A0C00040A0E00040C0000040C0200040C0400040C0600040C08000
310
40C0A00040C0C00040C0E00040E0000040E0200040E0400040E0600040E0800040E0A00040E0C00040E0E00080000000800020008000400080006000800080008000A0008000C0008000E00080200000802020008020400080206000802080008020A0008020C0008020E00080400000804020008040400080406000804080
310
008040A0008040C0008040E00080600000806020008060400080606000806080008060A0008060C0008060E00080800000808020008080400080806000808080008080A0008080C0008080E00080A0000080A0200080A0400080A0600080A0800080A0A00080A0C00080A0E00080C0000080C0200080C0400080C0600080C0
310
800080C0A00080C0C00080C0E00080E0000080E0200080E0400080E0600080E0800080E0A00080E0C00080E0E000C0000000C0002000C0004000C0006000C0008000C000A000C000C000C000E000C0200000C0202000C0204000C0206000C0208000C020A000C020C000C020E000C0400000C0402000C0404000C0406000C0
310
408000C040A000C040C000C040E000C0600000C0602000C0604000C0606000C0608000C060A000C060C000C060E000C0800000C0802000C0804000C0806000C0808000C080A000C080C000C080E000C0A00000C0A02000C0A04000C0A06000C0A08000C0A0A000C0A0C000C0A0E000C0C00000C0C02000C0C04000C0C06000
310
C0C08000C0C0A000F0FBFF00A4A0A000808080000000FF0000FF000000FFFF00FF000000FF00FF00FFFF0000FFFFFF004949494949494949494949494949494949494949494949494949494949494949494949494949494949494949494949FFFFFF494949494949494949494949494949494949494949494949FFFFFFFFFF
310
494949FFFF4949494949494949494949494949494949494949FFFF49494949494949494949FFFFFF49494949494949494949494949494949FF494949494949494949494949494949FFFF49494949494949494949494949FF494949494949494949494949494949494949FF4949494949494949494949FF4949494949494949
310
494949494949494949494949FF494949494949494949FF49494949494949494949494949494949494949494949FF4949494949494949FF49494949494949494949494949494949494949494949FF49494949494949FF494949494949494949494949494949494949494949494949FF494949494949FF494949494949494949
310
49494949494949494949494949494949FF49494949FF4949494949494949494949494949494949494949494949494949FF49494949FF4949494949494949494949494949494949494949494949494949FF49494949FF4949494949494949494949494949494949494949494949494949FF494949FF49494949494949494949
310
494949FFFF494949494949494949494949FF494949FF49494949494949494949FFFFFFFF49FFFFFF49494949494949494949FF4949FF49494949494949494949FFFFFF4949FFFFFF49494949494949494949FF4949FF49494949494949494949494949FFFF49494949494949494949494949FF494949FF4949494949494949
310
494949494949494949494949494949494949FF49494949FF4949494949494949494949494949494949494949494949494949FF49494949FF4949494949494949494949494949494949494949494949494949FF4949494949FF49494949494949494949494949494949494949494949494949FF4949494949FF494949494949
310
494949494949494949494949494949494949FF49494949494949FF49494949494949494949494949494949494949494949FF4949494949494949FF49494949494949494949494949494949494949494949FF494949494949494949FF4949494949494949494949494949494949494949FF4949494949494949494949FF4949
310
49494949494949494949494949494949FF49494949494949494949494949FF494949494949494949494949494949FFFF494949494949494949494949494949FFFF4949494949494949494949FFFF49494949494949494949494949494949494949FFFFFFFFFF494949FFFFFF49494949494949494949494949494949494949
310
49494949494949FFFFFF49494949494949494949494949494949494949494949494949494949494949494949494949494949494949494949
102
{BLKREFS
331
1878
102
}
1001
ACAD
1000
DesignCenter Data
1002
{
1070
     1
1070
     4
1002
}
  0
BLOCK_RECORD
  5
17AC
330
1
100
AcDbSymbolTableRecord
100
AcDbBlockTableRecord
  2
*D21
340
0
  0
BLOCK_RECORD
  5
17B8
330
1
100
AcDbSymbolTableRecord
100
AcDbBlockTableRecord
  2
*D22
340
0
  0
BLOCK_RECORD
  5
17C4
330
1
100
AcDbSymbolTableRecord
100
AcDbBlockTableRecord
  2
*D23
340
0
  0
BLOCK_RECORD
  5
17D0
330
1
100
AcDbSymbolTableRecord
100
AcDbBlockTableRecord
  2
*D24
340
0
  0
BLOCK_RECORD
  5
17DC
330
1
100
AcDbSymbolTableRecord
100
AcDbBlockTableRecord
  2
*D25
340
0
  0
BLOCK_RECORD
  5
17E7
330
1
100
AcDbSymbolTableRecord
100
AcDbBlockTableRecord
  2
*D26
340
0
  0
BLOCK_RECORD
  5
17F2
330
1
100
AcDbSymbolTableRecord
100
AcDbBlockTableRecord
  2
*D27
340
0
  0
ENDTAB
  0
ENDSEC
  0
SECTION
  2
BLOCKS
  0
BLOCK
  5
6D
330
6C
100
AcDbEntity
  8
0
100
AcDbBlockBegin
  2
*Model_Space
 70
     0
 10
0.0
 20
0.0
 30
0.0
  3
*Model_Space
  1

  0
ENDBLK
  5
6E
330
6C
100
AcDbEntity
  8
0
100
AcDbBlockEnd
  0
BLOCK
  5
69
330
68
100
AcDbEntity
 67
     1
  8
0
100
AcDbBlockBegin
  2
*Paper_Space
 70
     0
 10
0.0
 20
0.0
 30
0.0
  3
*Paper_Space
  1

  0
ENDBLK
  5
6A
330
68
100
AcDbEntity
 67
     1
  8
0
100
AcDbBlockEnd
  0
BLOCK
  5
71
330
70
100
AcDbEntity
 67
     1
  8
0
100
AcDbBlockBegin
  2
*Paper_Space0
 70
     0
 10
0.0
 20
0.0
 30
0.0
  3
*Paper_Space0
  1

  0
ENDBLK
  5
72
330
70
100
AcDbEntity
 67
     1
  8
0
100
AcDbBlockEnd
  0
BLOCK
  5
FA
330
F9
100
AcDbEntity
  8
0
100
AcDbBlockBegin
  2
Poziom gruntu
 70
     0
 10
0.0
 20
0.0
 30
0.0
  3
Poziom gruntu
  1

  0
HATCH
  5
FF
330
F9
100
AcDbEntity
  8
Hatch (ISO)
 62
     7
100
AcDbHatch
 10
0.0
 20
0.0
 30
0.0
210
0.0
220
0.0
230
1.0
  2
SOLID
 70
     1
 71
     0
 91
        1
 92
        1
 93
        3
 72
     1
 10
-1.750000000000024
 20
1.51554445662281
 11
1.750000000000024
 21
1.51554445662281
 72
     1
 10
1.750000000000024
 20
1.51554445662281
 11
0.0
 21
-1.515544456622794
 72
     1
 10
0.0
 20
-1.515544456622794
 11
-1.750000000000024
 21
1.51554445662281
 97
        0
 75
     0
 76
     1
 98
        1
 10
0.0
 20
0.0
  0
LINE
  5
100
330
F9
100
AcDbEntity
  8
Sketch Geometry (ISO)
100
AcDbLine
 10
0.0
 20
-1.515544456622794
 30
0.0
 11
-1.750000000000024
 21
1.51554445662281
 31
0.0
  0
LINE
  5
101
330
F9
100
AcDbEntity
  8
Sketch Geometry (ISO)
100
AcDbLine
 10
-1.750000000000024
 20
1.51554445662281
 30
0.0
 11
1.750000000000024
 21
1.51554445662281
 31
0.0
  0
LINE
  5
102
330
F9
100
AcDbEntity
  8
Sketch Geometry (ISO)
100
AcDbLine
 10
1.750000000000024
 20
1.51554445662281
 30
0.0
 11
0.0
 21
-1.515544456622794
 31
0.0
  0
ENDBLK
  5
FB
330
F9
100
AcDbEntity
  8
0
100
AcDbBlockEnd
  0
BLOCK
  5
2A3
330
2A2
100
AcDbEntity
  8
0
100
AcDbBlockBegin
  2
Tabelki rysunkowe Rzut
 70
     2
 10
0.0
 20
0.0
 30
0.0
  3
Tabelki rysunkowe Rzut
  1

  0
TEXT
  5
2A5
330
2A2
100
AcDbEntity
  8
Title (ISO)
100
AcDbText
 10
166.7768162971836
 20
11.24130542460445
 30
0.0
 40
2.5
  1
Obowiązuje od:
  7
Note Text (ISO)
 11
166.7768162971836
 21
13.74130542460445
 31
0.0
100
AcDbText
 73
     3
  0
TEXT
  5
2A7
330
2A2
100
AcDbEntity
  8
Title (ISO)
100
AcDbText
 10
166.7768162971836
 20
18.24130542460446
 30
0.0
 40
2.5
  1
Nr kat.:
  7
Note Text (ISO)
 11
166.7768162971836
 21
20.74130542460446
 31
0.0
100
AcDbText
 73
     3
  0
TEXT
  5
2A8
330
2A2
100
AcDbEntity
  8
Title (ISO)
100
AcDbText
 10
166.7768162971836
 20
14.74130542460445
 30
0.0
 40
2.5
  1
Nazwa:
  7
Note Text (ISO)
 11
166.7768162971836
 21
17.24130542460445
 31
0.0
100
AcDbText
 73
     3
  0
ATTDEF
  5
2A9
102
{ACAD_XDICTIONARY
360
1162
102
}
330
2A2
100
AcDbEntity
  8
Title (ISO)
100
AcDbText
 10
178.4107988369824
 20
18.13720873189256
 30
0.0
 40
2.5
  1
23040
  7
Note Text (ISO)
100
AcDbAttributeDefinition
  3
Numer katalogowy
  2
Numer_katalogowy_001
 70
     0
  0
ATTDEF
  5
2AB
102
{ACAD_XDICTIONARY
360
1165
102
}
330
2A2
100
AcDbEntity
  8
Title (ISO)
100
AcDbText
 10
190.4107988369824
 20
11.12713485684115
 30
0.0
 40
2.5
  1
2016-08-30
  7
Note Text (ISO)
100
AcDbAttributeDefinition
  3
DATA UTWORZENIA
  2
DATA_UTWORZENIA_001
 70
     0
  0
ATTDEF
  5
2AC
102
{ACAD_XDICTIONARY
360
1168
102
}
330
2A2
100
AcDbEntity
  8
Title (ISO)
100
AcDbText
 10
178.2697645862628
 20
14.48274264777102
 30
0.0
 40
2.5
  1
Deska surfingowa
  7
Note Text (ISO)
100
AcDbAttributeDefinition
  3
Nazwa
  2
Nazwa_001
 70
     0
  0
ENDBLK
  5
2A4
330
2A2
100
AcDbEntity
  8
0
100
AcDbBlockEnd
  0
BLOCK
  5
1250
330
124E
100
AcDbEntity
  8
0
100
AcDbBlockBegin
  2
GENAXEH
 70
     0
 10
0.0
 20
0.0
 30
0.0
  3
GENAXEH
  1

  0
LINE
  5
124F
330
124E
100
AcDbEntity
  8
0
100
AcDbLine
 10
-1.0
 20
0.0
 30
0.0
 11
1.0
 21
0.0
 31
0.0
  0
ENDBLK
  5
1251
330
124E
100
AcDbEntity
  8
0
100
AcDbBlockEnd
  0
BLOCK
  5
1269
330
1268
100
AcDbEntity
  8
0
100
AcDbBlockBegin
  2
23040_Deska-surfingowa
 70
     0
 10
0.0
 20
0.0
 30
0.0
  3
23040_Deska-surfingowa
  1

  0
SPLINE
  5
1839
330
1268
100
AcDbEntity
  8
Visible (ISO)
100
AcDbSpline
210
0.0
220
0.0
230
1.0
 70
     8
 71
     3
 72
     8
 73
     4
 74
     0
 42
0.0000000001
 43
0.0000000001
 40
-1.074971199412498
 40
-1.074971199412498
 40
-1.074971199412498
 40
-1.074971199412498
 40
-1.058865738415792
 40
-1.058865738415792
 40
-1.058865738415792
 40
-1.058865738415792
 10
233.1628504513974
 20
-142.9311729138858
 30
0.0
 10
235.5002378424469
 20
-142.516131930372
 30
0.0
 10
237.8273283476174
 20
-142.0949117592313
 30
0.0
 10
240.1215054994009
 20
-141.667567027619
 30
0.0
  0
SPLINE
  5
183A
330
1268
100
AcDbEntity
  8
Visible (ISO)
100
AcDbSpline
210
0.0
220
0.0
230
1.0
 70
     8
 71
     3
 72
     8
 73
     4
 74
     0
 42
0.0000000001
 43
0.0000000001
 40
1.058865738415792
 40
1.058865738415792
 40
1.058865738415792
 40
1.058865738415792
 40
1.074971199412497
 40
1.074971199412497
 40
1.074971199412497
 40
1.074971199412497
 10
240.1215054994009
 20
141.6675670276386
 30
0.0
 10
237.8273283476174
 20
142.0949117592504
 30
0.0
 10
235.5002378424469
 20
142.5161319303911
 30
0.0
 10
233.1628504513974
 20
142.9311729139049
 30
0.0
  0
LINE
  5
183B
330
1268
100
AcDbEntity
  8
Visible Narrow (ISO)
100
AcDbLine
 10
237.6163896821181
 20
122.9245199155293
 30
0.0
 11
237.6163896821181
 21
-122.9245199154989
 31
0.0
  0
LINE
  5
183C
330
1268
100
AcDbEntity
  8
Visible (ISO)
100
AcDbLine
 10
238.3122551869201
 20
-141.6675670276149
 30
0.0
 11
240.1215054994009
 21
-141.667567027619
 31
0.0
  0
LINE
  5
183D
330
1268
100
AcDbEntity
  8
Visible (ISO)
100
AcDbLine
 10
240.1215054994009
 20
141.6675670276386
 30
0.0
 11
238.3122551869201
 21
141.6675670276422
 31
0.0
  0
LINE
  5
183E
330
1268
100
AcDbEntity
  8
Visible Narrow (ISO)
100
AcDbLine
 10
233.1628504513956
 20
124.0673271614219
 30
0.0
 11
233.1628504513974
 21
-124.0673271613909
 31
0.0
  0
LINE
  5
183F
330
1268
100
AcDbEntity
  8
Visible Narrow (ISO)
100
AcDbLine
 10
-242.2906887793233
 20
-122.9245199154989
 30
0.0
 11
-242.2906887793233
 21
122.9245199155284
 31
0.0
  0
LINE
  5
1840
330
1268
100
AcDbEntity
  8
Visible Narrow (ISO)
100
AcDbLine
 10
-237.8371495485826
 20
-124.0673271613977
 30
0.0
 11
-237.8371495486008
 21
124.0673271614205
 31
0.0
  0
LINE
  5
1841
330
1268
100
AcDbEntity
  8
Visible (ISO)
100
AcDbLine
 10
-244.7958045966025
 20
-141.667567027619
 30
0.0
 11
-242.9865542841235
 21
-141.6675670276149
 31
0.0
  0
SPLINE
  5
1842
330
1268
100
AcDbEntity
  8
Visible (ISO)
100
AcDbSpline
210
0.0
220
0.0
230
1.0
 70
     8
 71
     3
 72
     8
 73
     4
 74
     0
 42
0.0000000001
 43
0.0000000001
 40
-2.082726915174001
 40
-2.082726915174001
 40
-2.082726915174001
 40
-2.082726915174001
 40
-2.066621454177295
 40
-2.066621454177295
 40
-2.066621454177295
 40
-2.066621454177295
 10
-244.7958045966025
 20
-141.667567027619
 30
0.0
 10
-242.5016274448226
 20
-142.0949117592313
 30
0.0
 10
-240.1745369396485
 20
-142.516131930372
 30
0.0
 10
-237.8371495486008
 20
-142.9311729138858
 30
0.0
  0
LINE
  5
1843
330
1268
100
AcDbEntity
  8
Visible (ISO)
100
AcDbLine
 10
-242.9865542754996
 20
141.6675670308545
 30
0.0
 11
-244.7958045966025
 21
141.6675670276381
 31
0.0
  0
ELLIPSE
  5
1844
330
1268
100
AcDbEntity
  8
Visible (ISO)
100
AcDbEllipse
 10
-4.674299097203402
 20
-0.0000000000009095
 30
0.0
 11
490.1826940270761
 21
-0.0000000000214132
 31
0.0
210
0.0
220
0.0
230
1.0
 40
0.3315090515843956
 41
2.082726915173855
 42
3.141592653589542
  0
ELLIPSE
  5
1845
330
1268
100
AcDbEntity
  8
Visible (ISO)
100
AcDbEllipse
 10
-4.674299097203402
 20
-0.0000000000009095
 30
0.0
 11
490.1826940270761
 21
-0.0000000000214132
 31
0.0
210
0.0
220
0.0
230
1.0
 40
0.3315090515843956
 41
3.141592653589542
 42
4.20045839200544
  0
SPLINE
  5
1846
330
1268
100
AcDbEntity
  8
Visible (ISO)
100
AcDbSpline
210
0.0
220
0.0
230
1.0
 70
     8
 71
     3
 72
     8
 73
     4
 74
     0
 42
0.0000000001
 43
0.0000000001
 40
2.066621454177296
 40
2.066621454177296
 40
2.066621454177296
 40
2.066621454177296
 40
2.082726915174001
 40
2.082726915174001
 40
2.082726915174001
 40
2.082726915174001
 10
-237.8371495486008
 20
142.9311729139044
 30
0.0
 10
-240.1745369396485
 20
142.5161319303911
 30
0.0
 10
-242.5016274448207
 20
142.0949117592504
 30
0.0
 10
-244.7958045966025
 20
141.6675670276386
 30
0.0
  0
ELLIPSE
  5
1847
330
1268
100
AcDbEntity
  8
Visible (ISO)
100
AcDbEllipse
 10
0.0
 20
0.0
 30
0.0
 11
490.1826940270758
 21
0.0000000000204396
 31
0.0
210
0.0
220
0.0
230
1.0
 40
0.3315090515843957
 41
5.224319568763938
 42
7.342051045595523
  0
SPLINE
  5
1848
330
1268
100
AcDbEntity
  8
Visible Narrow (ISO)
100
AcDbSpline
210
0.0
220
0.0
230
1.0
 70
     8
 71
     3
 72
    50
 73
    46
 74
     0
 42
0.0000000001
 43
0.0000000001
 40
-0.7784621183540022
 40
-0.7784621183540022
 40
-0.7784621183540022
 40
-0.7784621183540022
 40
-0.589054785240724
 40
-0.589054785240724
 40
-0.4264193005453431
 40
-0.4264193005453431
 40
-0.3451016308930657
 40
-0.3451016308930657
 40
-0.2637839612407884
 40
-0.2637839612407884
 40
-0.1924169425876265
 40
-0.1924169425876265
 40
-0.1210499239344647
 40
-0.1210499239344647
 40
-0.0428023250221248
 40
-0.0428023250221248
 40
-0.014212249387473
 40
-0.014212249387473
 40
0.0143778262471788
 40
0.0143778262471788
 40
0.0434078559815276
 40
0.0434078559815276
 40
0.0724378857158765
 40
0.0724378857158765
 40
0.1156408772393698
 40
0.1156408772393698
 40
0.1567181889483762
 40
0.1567181889483762
 40
0.2197116719518198
 40
0.2197116719518198
 40
0.2716400471812692
 40
0.2716400471812692
 40
0.3235682775692861
 40
0.3235682775692861
 40
0.3499484596651783
 40
0.3499484596651783
 40
0.4124460135310483
 40
0.4124460135310483
 40
0.4936928335566793
 40
0.4936928335566793
 40
0.5934190442445019
 40
0.5934190442445019
 40
0.7241951824643325
 40
0.7241951824643325
 40
0.778843766092318
 40
0.778843766092318
 40
0.778843766092318
 40
0.778843766092318
 10
266.5587825607763
 20
130.7184521425661
 30
0.0
 10
287.6037276770148
 20
126.1171163419603
 30
0.0
 10
308.4685251340143
 20
120.7800200896949
 30
0.0
 10
346.7051972678382
 20
109.04634362369
 30
0.0
 10
364.3053192521839
 20
102.8560997442091
 30
0.0
 10
389.9633418374778
 20
92.00173638133765
 30
0.0
 10
398.3935719260789
 20
88.11932568089195
 30
0.0
 10
414.8857066959044
 20
79.68099925711749
 30
0.0
 10
422.9513665281774
 20
75.12716564036782
 30
0.0
 10
437.5616319349301
 20
65.71060945165664
 30
0.0
 10
444.246784778068
 20
60.9030237654083
 30
0.0
 10
456.7673730486712
 20
50.34676683650605
 30
0.0
 10
462.6160221507744
 20
44.60220203993276
 30
0.0
 10
473.2372053622238
 20
31.21885020894297
 30
0.0
 10
477.9523468773804
 20
23.22663793636957
 30
0.0
 10
481.4710202202459
 20
11.50623448477472
 30
0.0
 10
482.1405286687823
 20
8.248163733305773
 30
0.0
 10
482.8090640295358
 20
1.661481038583133
 30
0.0
 10
482.8068283632001
 20
-1.662421401968003
 30
0.0
 10
482.1441556766877
 20
-8.233633026643929
 30
0.0
 10
481.4704812063137
 20
-11.52874248832586
 30
0.0
 10
479.5307026074715
 20
-17.94792899570211
 30
0.0
 10
478.2665669027119
 20
-21.06979913349005
 30
0.0
 10
474.6041428615826
 20
-28.47827672544554
 30
0.0
 10
471.9212728887432
 20
-32.6721390553007
 30
0.0
 10
466.0602323800012
 20
-40.39015160886719
 30
0.0
 10
462.9119159423626
 20
-43.93704241022442
 30
0.0
 10
454.5474884343985
 20
-52.36197340901208
 30
0.0
 10
449.0558612910936
 20
-57.02358434231655
 30
0.0
 10
438.5653970810198
 20
-64.93858464366212
 30
0.0
 10
433.6453927066795
 20
-68.29363604322407
 30
0.0
 10
423.5806465750629
 20
-74.63081612061978
 30
0.0
 10
418.4353445932465
 20
-77.61228405635756
 30
0.0
 10
410.6015840709005
 20
-81.85521939669525
 30
0.0
 10
407.9420007759926
 20
-83.24532424136714
 30
0.0
 10
398.9211698233376
 20
-87.80858289844218
 30
0.0
 10
392.4779647562864
 20
-90.81814568926757
 30
0.0
 10
377.4856396876148
 20
-97.3653025266617
 30
0.0
 10
368.8842586317478
 20
-100.7907308461363
 30
0.0
 10
349.5219778921564
 20
-107.9246222880288
 30
0.0
 10
338.7139988015788
 20
-111.5200727207466
 30
0.0
 10
313.5421594252566
 20
-119.1919748101822
 30
0.0
 10
299.1180583940877
 20
-123.0692860772706
 30
0.0
 10
278.6445866810918
 20
-128.0059654133747
 30
0.0
 10
272.5937966337879
 20
-129.3952344922782
 30
0.0
 10
266.5281877644593
 20
-130.7229732478963
 30
0.0
  0
SPLINE
  5
1849
330
1268
100
AcDbEntity
  8
Visible Narrow (ISO)
100
AcDbSpline
210
0.0
220
0.0
230
1.0
 70
     8
 71
     3
 72
     8
 73
     4
 74
     0
 42
0.0000000001
 43
0.0000000001
 40
-0.887518540018344
 40
-0.887518540018344
 40
-0.887518540018344
 40
-0.887518540018344
 40
-0.8690646215420549
 40
-0.8690646215420549
 40
-0.8690646215420549
 40
-0.8690646215420549
 10
233.4213153392247
 20
-142.8690931406126
 30
0.0
 10
234.9720293661867
 20
-142.4962693802003
 30
0.0
 10
236.5211617611931
 20
-142.1172311602722
 30
0.0
 10
238.0564960021802
 20
-141.7318550794712
 30
0.0
  0
SPLINE
  5
184A
330
1268
100
AcDbEntity
  8
Visible Narrow (ISO)
100
AcDbSpline
210
0.0
220
0.0
230
1.0
 70
     8
 71
     3
 72
     8
 73
     4
 74
     0
 42
0.0000000001
 43
0.0000000001
 40
0.8686786532164035
 40
0.8686786532164035
 40
0.8686786532164035
 40
0.8686786532164035
 40
0.8871105322978285
 40
0.8871105322978285
 40
0.8871105322978285
 40
0.8871105322978285
 10
238.0565042880371
 20
141.7318529987547
 30
0.0
 10
236.5212172033753
 20
142.1172172675278
 30
0.0
 10
234.972085851241
 20
142.4962557646317
 30
0.0
 10
233.4213237983877
 20
142.8690911059575
 30
0.0
  0
SPLINE
  5
184B
330
1268
100
AcDbEntity
  8
Visible (ISO)
100
AcDbSpline
210
0.0
220
0.0
230
1.0
 70
     8
 71
     3
 72
    16
 73
    12
 74
     0
 42
0.0000000001
 43
0.0000000001
 40
-0.7938607556741224
 40
-0.7938607556741224
 40
-0.7938607556741224
 40
-0.7938607556741224
 40
-0.6886437988554436
 40
-0.6886437988554436
 40
-0.5835694601217906
 40
-0.5835694601217906
 40
-0.3862410727767158
 40
-0.3862410727767158
 40
-0.1922831373445979
 40
-0.1922831373445979
 40
0.0
 40
0.0
 40
0.0
 40
0.0
 10
237.6163896821181
 20
-136.5827999061116
 30
0.0
 10
237.6163896821181
 20
-136.9337385328417
 30
0.0
 10
237.6213609321748
 20
-137.2838578805886
 30
0.0
 10
237.6410948180619
 20
-137.9707714722826
 30
0.0
 10
237.6557975770538
 20
-138.305959200241
 30
0.0
 10
237.7114529040846
 20
-139.2318884464212
 30
0.0
 10
237.7636265495239
 20
-139.7804216576955
 30
0.0
 10
237.8932118421762
 20
-140.6943886191416
 30
0.0
 10
237.9689626216186
 20
-141.0541674304118
 30
0.0
 10
238.1347868810426
 20
-141.5422607430719
 30
0.0
 10
238.2230530519646
 20
-141.6675670276149
 30
0.0
 10
238.3122551869201
 20
-141.6675670276149
 30
0.0
  0
SPLINE
  5
184C
330
1268
100
AcDbEntity
  8
Visible Narrow (ISO)
100
AcDbSpline
210
0.0
220
0.0
230
1.0
 70
     8
 71
     3
 72
     8
 73
     4
 74
     0
 42
0.0000000001
 43
0.0000000001
 40
0.8663910103153058
 40
0.8663910103153058
 40
0.8663910103153058
 40
0.8663910103153058
 40
0.884935521882743
 40
0.884935521882743
 40
0.884935521882743
 40
0.884935521882743
 10
237.3952058139457
 20
-136.647402354281
 30
0.0
 10
236.0674245240862
 20
-137.0346631095453
 30
0.0
 10
234.7276334843609
 20
-137.4155553410969
 30
0.0
 10
233.3864007732991
 20
-137.7902023684701
 30
0.0
  0
SPLINE
  5
184D
330
1268
100
AcDbEntity
  8
Visible (ISO)
100
AcDbSpline
210
0.0
220
0.0
230
1.0
 70
    24
 71
     3
 72
    16
 73
    12
 74
     0
 42
0.0000000001
 43
0.0000000001
 40
-0.793389393801172
 40
-0.793389393801172
 40
-0.793389393801172
 40
-0.793389393801172
 40
-0.6885023663127564
 40
-0.6885023663127564
 40
-0.5837467981682378
 40
-0.5837467981682378
 40
-0.386559578751207
 40
-0.386559578751207
 40
-0.1925012971639766
 40
-0.1925012971639766
 40
0.0
 40
0.0
 40
0.0
 40
0.0
 10
233.1628504513974
 20
-137.8525857348804
 30
0.0
 10
233.1628504513974
 20
-138.2024086488413
 30
0.0
 10
233.1628504513974
 20
-138.5514094850782
 30
0.0
 10
233.1628504513974
 20
-139.2361976410739
 30
0.0
 10
233.1628504513974
 20
-139.570373003206
 30
0.0
 10
233.1628504513974
 20
-140.4950029751312
 30
0.0
 10
233.1628504513974
 20
-141.0431812293623
 30
0.0
 10
233.1628504513974
 20
-141.9572120454991
 30
0.0
 10
233.1628504513974
 20
-142.3171875172247
 30
0.0
 10
233.1628504513974
 20
-142.8057327281835
 30
0.0
 10
233.1628504513974
 20
-142.9311729138817
 30
0.0
 10
233.1628504513974
 20
-142.9311729138817
 30
0.0
  0
SPLINE
  5
184E
330
1268
100
AcDbEntity
  8
Visible (ISO)
100
AcDbSpline
210
0.0
220
0.0
230
1.0
 70
     8
 71
     3
 72
    14
 73
    10
 74
     0
 42
0.0000000001
 43
0.0000000001
 40
-0.794911077969822
 40
-0.794911077969822
 40
-0.794911077969822
 40
-0.794911077969822
 40
-0.5982642184035523
 40
-0.5982642184035523
 40
-0.4017920323261947
 40
-0.4017920323261947
 40
-0.2018145237636634
 40
-0.2018145237636634
 40
0.0
 40
0.0
 40
0.0
 40
0.0
 10
238.3122551869201
 20
141.6675670276422
 30
0.0
 10
238.2210938072312
 20
141.6675670276422
 30
0.0
 10
238.1309313862967
 20
141.5366971960666
 30
0.0
 10
237.9628625042406
 20
141.0300512015333
 30
0.0
 10
237.8867159243673
 20
140.6598752370705
 30
0.0
 10
237.7571930626928
 20
139.7223436513854
 30
0.0
 10
237.7055312999746
 20
139.1609436688154
 30
0.0
 10
237.6346566131724
 20
137.9223900608931
 30
0.0
 10
237.6163896821181
 20
137.2555149853537
 30
0.0
 10
237.6163896821181
 20
136.5827999061412
 30
0.0
  0
SPLINE
  5
184F
330
1268
100
AcDbEntity
  8
Visible Narrow (ISO)
100
AcDbSpline
210
0.0
220
0.0
230
1.0
 70
     8
 71
     3
 72
    50
 73
    46
 74
     0
 42
0.0000000001
 43
0.0000000001
 40
-0.7812547006597823
 40
-0.7812547006597823
 40
-0.7812547006597823
 40
-0.7812547006597823
 40
-0.7241951824643325
 40
-0.7241951824643325
 40
-0.5934190442445019
 40
-0.5934190442445019
 40
-0.4936928335566793
 40
-0.4936928335566793
 40
-0.4124460135310483
 40
-0.4124460135310483
 40
-0.3499484596651783
 40
-0.3499484596651783
 40
-0.3235682775692861
 40
-0.3235682775692861
 40
-0.2716400471812692
 40
-0.2716400471812692
 40
-0.2197116719518198
 40
-0.2197116719518198
 40
-0.1567181889483762
 40
-0.1567181889483762
 40
-0.1156408772393698
 40
-0.1156408772393698
 40
-0.0724378857158765
 40
-0.0724378857158765
 40
-0.0434078559815276
 40
-0.0434078559815276
 40
-0.0143778262471788
 40
-0.0143778262471788
 40
0.014212249387473
 40
0.014212249387473
 40
0.0428023250221248
 40
0.0428023250221248
 40
0.1210499239344647
 40
0.1210499239344647
 40
0.1924169425876265
 40
0.1924169425876265
 40
0.2637839612407884
 40
0.2637839612407884
 40
0.3451016308930657
 40
0.3451016308930657
 40
0.4264193005453431
 40
0.4264193005453431
 40
0.589054785240724
 40
0.589054785240724
 40
0.7808699567449526
 40
0.7808699567449526
 40
0.7808699567449526
 40
0.7808699567449526
 10
267.4656879686972
 20
-135.7858670383102
 30
0.0
 10
273.8340641993727
 20
-134.3978275108998
 30
0.0
 10
280.1876412711808
 20
-132.9422491725208
 30
0.0
 10
301.0476614666714
 20
-127.9123630792687
 30
0.0
 10
315.5637551344189
 20
-124.0106854624018
 30
0.0
 10
340.9205203332076
 20
-116.2824214685952
 30
0.0
 10
351.8160099494453
 20
-112.6581965127475
 30
0.0
 10
371.3578252559309
 20
-105.4581568661315
 30
0.0
 10
380.0473703103162
 20
-101.99798573212
 30
0.0
 10
395.2156395950096
 20
-95.37399395607371
 30
0.0
 10
401.742026053107
 20
-92.32590161753297
 30
0.0
 10
410.8945810927034
 20
-87.69600928965429
 30
0.0
 10
413.5949593927071
 20
-86.28462013720854
 30
0.0
 10
421.5557006432227
 20
-81.97290926849655
 30
0.0
 10
426.7933249027318
 20
-78.93842964743135
 30
0.0
 10
437.0638717315141
 20
-72.47166894664587
 30
0.0
 10
442.097347502171
 20
-69.04024003816084
 30
0.0
 10
452.8699461233282
 20
-60.91237080136806
 30
0.0
 10
458.5371559816557
 20
-56.10633711143646
 30
0.0
 10
467.2366577165449
 20
-47.34390815016058
 30
0.0
 10
470.5304985298989
 20
-43.63643768791826
 30
0.0
 10
476.7088346372784
 20
-35.50059976532248
 30
0.0
 10
479.5655108474748
 20
-31.04429337714328
 30
0.0
 10
483.5029742078168
 20
-23.07945676984628
 30
0.0
 10
484.8742481529061
 20
-19.69872027729889
 30
0.0
 10
486.9901725516247
 20
-12.69662562641952
 30
0.0
 10
487.7318780196801
 20
-9.077417919857452
 30
0.0
 10
488.4620501805111
 20
-1.836866303783153
 30
0.0
 10
488.4645069135458
 20
1.835895742691263
 30
0.0
 10
487.7278882883456
 20
9.093362491708376
 30
0.0
 10
486.9908993995377
 20
12.67161112696249
 30
0.0
 10
483.1521941105529
 20
25.45801393696184
 30
0.0
 10
478.0844326979495
 20
33.98319227867205
 30
0.0
 10
466.9131954965232
 20
48.05964636835961
 30
0.0
 10
460.834225012757
 20
54.01822876057849
 30
0.0
 10
447.9182615783411
 20
64.90783119388561
 30
0.0
 10
441.0660785419568
 20
69.83203344442381
 30
0.0
 10
426.1461434143257
 20
79.44817685796625
 30
0.0
 10
417.9419605796302
 20
84.0784709839213
 30
0.0
 10
401.2047931712731
 20
92.64217022432967
 30
0.0
 10
392.6682341222586
 20
96.57285349582117
 30
0.0
 10
366.7225424077515
 20
107.5489123341103
 30
0.0
 10
348.9714714563561
 20
113.7901983679098
 30
0.0
 10
310.1882448086981
 20
125.6915958587469
 30
0.0
 10
288.92705783161
 20
131.1156736106914
 30
0.0
 10
267.4965151428842
 20
135.7811330375816
 30
0.0
  0
SPLINE
  5
1850
330
1268
100
AcDbEntity
  8
Visible Narrow (ISO)
100
AcDbSpline
210
0.0
220
0.0
230
1.0
 70
     8
 71
     3
 72
     8
 73
     4
 74
     0
 42
0.0000000001
 43
0.0000000001
 40
-0.8845306675570942
 40
-0.8845306675570942
 40
-0.8845306675570942
 40
-0.8845306675570942
 40
-0.8660081411776481
 40
-0.8660081411776481
 40
-0.8660081411776481
 40
-0.8660081411776481
 10
233.3864080938856
 20
137.7902003227132
 30
0.0
 10
234.7276823645134
 20
137.4155416517828
 30
0.0
 10
236.0674724618821
 20
137.0346491517548
 30
0.0
 10
237.3952129779354
 20
136.6474002639061
 30
0.0
  0
SPLINE
  5
1851
330
1268
100
AcDbEntity
  8
Visible (ISO)
100
AcDbSpline
210
0.0
220
0.0
230
1.0
 70
     8
 71
     3
 72
    22
 73
    18
 74
     0
 42
0.0000000001
 43
0.0000000001
 40
-2.253614639312836
 40
-2.253614639312836
 40
-2.253614639312836
 40
-2.253614639312836
 40
-2.168077120220137
 40
-2.168077120220137
 40
-1.925962057713547
 40
-1.925962057713547
 40
-1.794455792765849
 40
-1.794455792765849
 40
-1.634404278440455
 40
-1.634404278440455
 40
-1.474352619443852
 40
-1.474352619443852
 40
-1.2397806795232
 40
-1.2397806795232
 40
-1.040096997680896
 40
-1.040096997680896
 40
-0.8885437577114586
 40
-0.8885437577114586
 40
-0.8885437577114586
 40
-0.8885437577114586
 10
-237.8371495485826
 20
-142.9311729138853
 30
0.0
 10
-228.0848250722756
 20
-144.6628560562221
 30
0.0
 10
-218.303143128338
 20
-146.2609459054997
 30
0.0
 10
-180.7521347617294
 20
-151.9082899384939
 30
0.0
 10
-152.8278514042595
 20
-155.0965474423646
 30
0.0
 10
-109.7675104074933
 20
-158.709873512078
 30
0.0
 10
-94.61805580626061
 20
-159.7301347831917
 30
0.0
 10
-61.12575544335959
 20
-161.4655528689763
 30
0.0
 10
-42.68227861150262
 20
-162.0730284674396
 30
0.0
 10
-5.74237810467639
 20
-162.609460817564
 30
0.0
 10
12.75408225129104
 20
-162.5384366339863
 30
0.0
 10
58.357032191283
 20
-161.5202957252627
 30
0.0
 10
85.46228771053211
 20
-160.1833154418682
 30
0.0
 10
135.5007785714933
 20
-156.2658120922497
 30
0.0
 10
158.4557210249913
 20
-153.9000536774629
 30
0.0
 10
198.6601246922819
 20
-148.6269714122577
 30
0.0
 10
215.9515625269833
 20
-145.9873158087402
 30
0.0
 10
233.1628504513974
 20
-142.9311729138817
 30
0.0
  0
SPLINE
  5
1852
330
1268
100
AcDbEntity
  8
Visible (ISO)
100
AcDbSpline
210
0.0
220
0.0
230
1.0
 70
     8
 71
     3
 72
    18
 73
    14
 74
     0
 42
0.0000000001
 43
0.0000000001
 40
0.8881345255801276
 40
0.8881345255801276
 40
0.8881345255801276
 40
0.8881345255801276
 40
1.062089453010675
 40
1.062089453010675
 40
1.365836024022951
 40
1.365836024022951
 40
1.625472376256305
 40
1.625472376256305
 40
1.895279739864128
 40
1.895279739864128
 40
2.093215513534994
 40
2.093215513534994
 40
2.253116723973191
 40
2.253116723973191
 40
2.253116723973191
 40
2.253116723973191
 10
233.1628504513974
 20
142.9311729139085
 30
0.0
 10
213.3830704066804
 20
146.443393179527
 30
0.0
 10
193.491424051519
 20
149.4074225253721
 30
0.0
 10
138.662826970989
 20
156.2484851666017
 30
0.0
 10
103.5692618473786
 20
159.1637440769514
 30
0.0
 10
38.45125767919126
 20
162.2530035581831
 30
0.0
 10
8.431537043912612
 20
162.7574400321236
 30
0.0
 10
-52.45791600758639
 20
161.9859311703712
 30
0.0
 10
-83.62527104909531
 20
160.6365531685333
 30
0.0
 10
-137.5568960178734
 20
156.5085739960773
 30
0.0
 10
-160.3489013429425
 20
154.206176823186
 30
0.0
 10
-201.3818654484312
 20
148.9239769038099
 30
0.0
 10
-219.656281271482
 20
146.1594805020154
 30
0.0
 10
-237.8371495486008
 20
142.9311729139085
 30
0.0
  0
SPLINE
  5
1853
330
1268
100
AcDbEntity
  8
Visible Narrow (ISO)
100
AcDbSpline
210
0.0
220
0.0
230
1.0
 70
     8
 71
     3
 72
    22
 73
    18
 74
     0
 42
0.0000000001
 43
0.0000000001
 40
0.9544766102845738
 40
0.9544766102845738
 40
0.9544766102845738
 40
0.9544766102845738
 40
1.040096997680896
 40
1.040096997680896
 40
1.2397806795232
 40
1.2397806795232
 40
1.474352619443852
 40
1.474352619443852
 40
1.634404278440455
 40
1.634404278440455
 40
1.794455792765849
 40
1.794455792765849
 40
1.925962057713547
 40
1.925962057713547
 40
2.168077120220137
 40
2.168077120220137
 40
2.187671689950033
 40
2.187671689950033
 40
2.187671689950033
 40
2.187671689950033
 10
209.8831627974196
 20
-141.7478165134248
 30
0.0
 10
200.1652018446857
 20
-143.268582865056
 30
0.0
 10
190.4233349872356
 20
-144.6644607500197
 30
0.0
 10
157.8977608487203
 20
-148.9304120516413
 30
0.0
 10
135.0283811453864
 20
-151.2874961686075
 30
0.0
 10
85.16852724689488
 20
-155.1910140664908
 30
0.0
 10
58.15498483337797
 20
-156.5235606828673
 30
0.0
 10
12.70419030214725
 20
-157.5383045384096
 30
0.0
 10
-5.731183556727046
 20
-157.6090962061416
 30
0.0
 10
-42.54827092965934
 20
-157.0744473188078
 30
0.0
 10
-60.93003062043317
 20
-156.4689868367932
 30
0.0
 10
-94.30755748202136
 20
-154.7395157898145
 30
0.0
 10
-109.404098998013
 20
-153.7227958497142
 30
0.0
 10
-152.3090760226914
 20
-150.1225068502526
 30
0.0
 10
-180.1269483894157
 20
-146.9460848303665
 30
0.0
 10
-209.9924969760869
 20
-142.4545668941123
 30
0.0
 10
-212.2273627667746
 20
-142.1118266749058
 30
0.0
 10
-214.4609208058191
 20
-141.7625163417133
 30
0.0
  0
SPLINE
  5
1854
330
1268
100
AcDbEntity
  8
Visible (ISO)
100
AcDbSpline
210
0.0
220
0.0
230
1.0
 70
    24
 71
     3
 72
    14
 73
    10
 74
     0
 42
0.0000000001
 43
0.0000000001
 40
-0.7944003897081656
 40
-0.7944003897081656
 40
-0.7944003897081656
 40
-0.7944003897081656
 40
-0.5973704290292865
 40
-0.5973704290292865
 40
-0.4009768335207845
 40
-0.4009768335207845
 40
-0.2013373658909538
 40
-0.2013373658909538
 40
0.0
 40
0.0
 40
0.0
 40
0.0
 10
-237.8371495486008
 20
-142.9311729138817
 30
0.0
 10
-237.8371495486008
 20
-142.9311729138817
 30
0.0
 10
-237.8371495486008
 20
-142.7999365688656
 30
0.0
 10
-237.8371495486008
 20
-142.2924066868381
 30
0.0
 10
-237.8371495486008
 20
-141.9222588745688
 30
0.0
 10
-237.8371495486008
 20
-140.985489399568
 30
0.0
 10
-237.8371495486008
 20
-140.4250417225444
 30
0.0
 10
-237.8371495486008
 20
-139.1889651994752
 30
0.0
 10
-237.8371495486008
 20
-138.5237102878504
 30
0.0
 10
-237.8371495486008
 20
-137.8525857348804
 30
0.0
  0
SPLINE
  5
1855
330
1268
100
AcDbEntity
  8
Visible (ISO)
100
AcDbSpline
210
0.0
220
0.0
230
1.0
 70
    24
 71
     3
 72
    14
 73
    10
 74
     0
 42
0.0000000001
 43
0.0000000001
 40
-0.7944003897081609
 40
-0.7944003897081609
 40
-0.7944003897081609
 40
-0.7944003897081609
 40
-0.5973704291187109
 40
-0.5973704291187109
 40
-0.4009768335697335
 40
-0.4009768335697335
 40
-0.2013373659024325
 40
-0.2013373659024325
 40
0.0
 40
0.0
 40
0.0
 40
0.0
 10
233.1628504513974
 20
142.9311729139085
 30
0.0
 10
233.1628504513974
 20
142.9311729139085
 30
0.0
 10
233.1628504513974
 20
142.7999365690125
 30
0.0
 10
233.1628504513974
 20
142.2924066872642
 30
0.0
 10
233.1628504513974
 20
141.9222588749917
 30
0.0
 10
233.1628504513974
 20
140.9854893998972
 30
0.0
 10
233.1628504513974
 20
140.4250417227886
 30
0.0
 10
233.1628504513974
 20
139.1889651995802
 30
0.0
 10
233.1628504513974
 20
138.5237102879182
 30
0.0
 10
233.1628504513974
 20
137.85258573491
 30
0.0
  0
SPLINE
  5
1856
330
1268
100
AcDbEntity
  8
Visible (ISO)
100
AcDbSpline
210
0.0
220
0.0
230
1.0
 70
     8
 71
     3
 72
    16
 73
    12
 74
     0
 42
0.0000000001
 43
0.0000000001
 40
-0.793860755674319
 40
-0.793860755674319
 40
-0.793860755674319
 40
-0.793860755674319
 40
-0.6886437988715102
 40
-0.6886437988715102
 40
-0.5835694601581361
 40
-0.5835694601581361
 40
-0.3862410727947373
 40
-0.3862410727947373
 40
-0.192283137347954
 40
-0.192283137347954
 40
0.0
 40
0.0
 40
0.0
 40
0.0
 10
-242.2906887793215
 20
136.5827999061412
 30
0.0
 10
-242.2906887793215
 20
136.9337385328185
 30
0.0
 10
-242.2956600293746
 20
137.2838578805122
 30
0.0
 10
-242.3153939152562
 20
137.9707714720934
 30
0.0
 10
-242.3300966742427
 20
138.3059591999922
 30
0.0
 10
-242.3857520012662
 20
139.2318884461942
 30
0.0
 10
-242.4379256467037
 20
139.78042165754
 30
0.0
 10
-242.5675109393633
 20
140.6943886190947
 30
0.0
 10
-242.6432617188093
 20
141.0541674304049
 30
0.0
 10
-242.8090859782424
 20
141.5422607430951
 30
0.0
 10
-242.8973521491644
 20
141.6675670276422
 30
0.0
 10
-242.9865542841235
 20
141.6675670276422
 30
0.0
  0
SPLINE
  5
1857
330
1268
100
AcDbEntity
  8
Visible Narrow (ISO)
100
AcDbSpline
210
0.0
220
0.0
230
1.0
 70
     8
 71
     3
 72
    32
 73
    28
 74
     0
 42
0.0000000001
 43
0.0000000001
 40
2.316997246704692
 40
2.316997246704692
 40
2.316997246704692
 40
2.316997246704692
 40
2.411017298478419
 40
2.411017298478419
 40
2.546634261246885
 40
2.546634261246885
 40
2.644422769662171
 40
2.644422769662171
 40
2.737328151961714
 40
2.737328151961714
 40
2.807250081284021
 40
2.807250081284021
 40
2.875522329232395
 40
2.875522329232395
 40
2.92345234185055
 40
2.92345234185055
 40
2.969495784702628
 40
2.969495784702628
 40
3.000297809351752
 40
3.000297809351752
 40
3.02547642480208
 40
3.02547642480208
 40
3.050655040252407
 40
3.050655040252407
 40
3.08561050416666
 40
3.08561050416666
 40
3.098192895332686
 40
3.098192895332686
 40
3.098192895332686
 40
3.098192895332686
 10
-257.6042040390039
 20
138.8338487228593
 30
0.0
 10
-268.1433749404441
 20
136.708970701175
 30
0.0
 10
-278.6452982457886
 20
134.4105598351298
 30
0.0
 10
-304.1836796620901
 20
128.3206955283922
 30
0.0
 10
-319.1718655738423
 20
124.3202101606175
 30
0.0
 10
-344.7302100629495
 20
116.5565357281789
 30
0.0
 10
-355.4238461895857
 20
113.0197883948135
 30
0.0
 10
-376.0765899904491
 20
105.4681500124907
 30
0.0
 10
-386.0461536283583
 20
101.4874439862369
 30
0.0
 10
-403.2281601109953
 20
93.84741693356
 30
0.0
 10
-410.5132003141516
 20
90.352083145518
 30
0.0
 10
-424.6529061167603
 20
82.90772259419965
 30
0.0
 10
-431.5153458308832
 20
78.97247698941737
 30
0.0
 10
-442.8884282908239
 20
71.6877555655633
 30
0.0
 10
-447.5204484789137
 20
68.49229910768918
 30
0.0
 10
-456.3369798015592
 20
61.80542945385969
 30
0.0
 10
-460.5327460610023
 20
58.331321954558
 30
0.0
 10
-467.2054249064294
 20
52.13280246019213
 30
0.0
 10
-469.7916444512466
 20
49.54043735948244
 30
0.0
 10
-474.2790577174728
 20
44.59625632382357
 30
0.0
 10
-476.2192220007782
 20
42.28751896269431
 30
0.0
 10
-479.9178496543045
 20
37.4422189574293
 30
0.0
 10
-481.6697571727509
 20
34.9122608190196
 30
0.0
 10
-485.5160041151411
 20
28.62100731956434
 30
0.0
 10
-487.4792883704012
 20
24.76231086974622
 30
0.0
 10
-489.6122458377504
 20
19.26135608205595
 30
0.0
 10
-490.1281489633693
 20
17.772504490556
 30
0.0
 10
-490.5874387680305
 20
16.25795877757946
 30
0.0
  0
LINE
  5
1858
330
1268
100
AcDbEntity
  8
Visible Narrow (ISO)
100
AcDbLine
 10
-487.7911597704168
 20
0.0000000000254659
 30
0.0
 11
-492.9778825036901
 21
0.0000000000241016
 31
0.0
  0
SPLINE
  5
1859
330
1268
100
AcDbEntity
  8
Visible Narrow (ISO)
100
AcDbSpline
210
0.0
220
0.0
230
1.0
 70
     8
 71
     3
 72
    32
 73
    28
 74
     0
 42
0.0000000001
 43
0.0000000001
 40
-3.098326677628902
 40
-3.098326677628902
 40
-3.098326677628902
 40
-3.098326677628902
 40
-3.08561050416666
 40
-3.08561050416666
 40
-3.050655040252407
 40
-3.050655040252407
 40
-3.02547642480208
 40
-3.02547642480208
 40
-3.000297809351752
 40
-3.000297809351752
 40
-2.969495784702628
 40
-2.969495784702628
 40
-2.92345234185055
 40
-2.92345234185055
 40
-2.875522329232395
 40
-2.875522329232395
 40
-2.807250081284021
 40
-2.807250081284021
 40
-2.737328151961714
 40
-2.737328151961714
 40
-2.644422769662171
 40
-2.644422769662171
 40
-2.546634261246885
 40
-2.546634261246885
 40
-2.411017298478419
 40
-2.411017298478419
 40
-2.319539110332867
 40
-2.319539110332867
 40
-2.319539110332867
 40
-2.319539110332867
 10
-485.1707812073946
 20
14.74952251907916
 30
0.0
 10
-484.7463584845445
 20
16.15325038406081
 30
0.0
 10
-484.2676224162732
 20
17.53699574785833
 30
0.0
 10
-482.2945542333727
 20
22.6255917622284
 30
0.0
 10
-480.4698911690884
 20
26.21870638713699
 30
0.0
 10
-476.8595664208551
 20
32.12406518148692
 30
0.0
 10
-475.2059799590879
 20
34.51346686797388
 30
0.0
 10
-471.696381552465
 20
39.11113356250417
 30
0.0
 10
-469.8467384086543
 20
41.31299602255376
 30
0.0
 10
-465.5512281243991
 20
46.04574052944417
 30
0.0
 10
-463.0643050794024
 20
48.53946173193799
 30
0.0
 10
-456.6239306953957
 20
54.52218427786738
 30
0.0
 10
-452.5536226986077
 20
57.89392917596387
 30
0.0
 10
-443.9697379750978
 20
64.4043487694571
 30
0.0
 10
-439.4440263392771
 20
67.52727010905392
 30
0.0
 10
-428.304799756057
 20
74.66220145433863
 30
0.0
 10
-421.5612620532865
 20
78.53031968518917
 30
0.0
 10
-407.6376491487081
 20
85.86091029900126
 30
0.0
 10
-400.4491312670288
 20
89.31044563168644
 30
0.0
 10
-383.4716590149565
 20
96.85952596889956
 30
0.0
 10
-373.6034702005873
 20
100.8003194792609
 30
0.0
 10
-353.1385955142777
 20
108.2832638599543
 30
0.0
 10
-342.530278555434
 20
111.7921014696708
 30
0.0
 10
-317.1576313590013
 20
119.4993679714648
 30
0.0
 10
-302.2637309418151
 20
123.475076895375
 30
0.0
 10
-277.1523395266468
 20
129.4631214694986
 30
0.0
 10
-266.9899175974879
 20
131.692596553471
 30
0.0
 10
-256.7892013530291
 20
133.758736430912
 30
0.0
  0
SPLINE
  5
185A
330
1268
100
AcDbEntity
  8
Visible Narrow (ISO)
100
AcDbSpline
210
0.0
220
0.0
230
1.0
 70
     8
 71
     3
 72
     8
 73
     4
 74
     0
 42
0.0000000001
 43
0.0000000001
 40
2.25720883699988
 40
2.25720883699988
 40
2.25720883699988
 40
2.25720883699988
 40
2.275682404231701
 40
2.275682404231701
 40
2.275682404231701
 40
2.275682404231701
 10
-238.0607172337641
 20
-137.7901975155391
 30
0.0
 10
-239.4020488175756
 20
-137.4155227802348
 30
0.0
 10
-240.7418430386151
 20
-137.0346283313379
 30
0.0
 10
-242.0695228031
 20
-136.6473971328655
 30
0.0
  0
SPLINE
  5
185B
330
1268
100
AcDbEntity
  8
Visible Narrow (ISO)
100
AcDbSpline
210
0.0
220
0.0
230
1.0
 70
     8
 71
     3
 72
     8
 73
     4
 74
     0
 42
0.0000000001
 43
0.0000000001
 40
-2.275244061734068
 40
-2.275244061734068
 40
-2.275244061734068
 40
-2.275244061734068
 40
-2.256720754251981
 40
-2.256720754251981
 40
-2.256720754251981
 40
-2.256720754251981
 10
-242.0695107367355
 20
136.6474006543735
 30
0.0
 10
-240.7417625711787
 20
137.0346517678822
 30
0.0
 10
-239.4019717196006
 20
137.4155443793297
 30
0.0
 10
-238.060705727361
 20
137.7902007316947
 30
0.0
  0
SPLINE
  5
185C
330
1268
100
AcDbEntity
  8
Visible (ISO)
100
AcDbSpline
210
0.0
220
0.0
230
1.0
 70
     8
 71
     3
 72
    14
 73
    10
 74
     0
 42
0.0000000001
 43
0.0000000001
 40
-0.7949110779697382
 40
-0.7949110779697382
 40
-0.7949110779697382
 40
-0.7949110779697382
 40
-0.5982642183103815
 40
-0.5982642183103815
 40
-0.4017920322751483
 40
-0.4017920322751483
 40
-0.2018145237517155
 40
-0.2018145237517155
 40
0.0
 40
0.0
 40
0.0
 40
0.0
 10
-242.9865542841235
 20
-141.6675670276149
 30
0.0
 10
-242.895392904391
 20
-141.6675670276149
 30
0.0
 10
-242.8052304834146
 20
-141.5366971959147
 30
0.0
 10
-242.6371616013494
 20
-141.0300512010908
 30
0.0
 10
-242.5610150214998
 20
-140.6598752366299
 30
0.0
 10
-242.4314921598671
 20
-139.722343651043
 30
0.0
 10
-242.3798303971635
 20
-139.1609436685621
 30
0.0
 10
-242.3089557103758
 20
-137.9223900607844
 30
0.0
 10
-242.2906887793233
 20
-137.2555149852837
 30
0.0
 10
-242.2906887793233
 20
-136.5827999061116
 30
0.0
  0
SPLINE
  5
185D
330
1268
100
AcDbEntity
  8
Visible Narrow (ISO)
100
AcDbSpline
210
0.0
220
0.0
230
1.0
 70
     8
 71
     3
 72
     8
 73
     4
 74
     0
 42
0.0000000001
 43
0.0000000001
 40
-2.273018845769635
 40
-2.273018845769635
 40
-2.273018845769635
 40
-2.273018845769635
 40
-2.254635913336879
 40
-2.254635913336879
 40
-2.254635913336879
 40
-2.254635913336879
 10
-242.7308153461436
 20
-141.731849994454
 30
0.0
 10
-241.1955959821298
 20
-142.1171972929055
 30
0.0
 10
-239.646459798103
 20
-142.496237714513
 30
0.0
 10
-238.0956340535176
 20
-142.8690884214747
 30
0.0
  0
SPLINE
  5
185E
330
1268
100
AcDbEntity
  8
Visible Narrow (ISO)
100
AcDbSpline
210
0.0
220
0.0
230
1.0
 70
     8
 71
     3
 72
    28
 73
    24
 74
     0
 42
0.0000000001
 43
0.0000000001
 40
-3.098215026899987
 40
-3.098215026899987
 40
-3.098215026899987
 40
-3.098215026899987
 40
-3.089218998675754
 40
-3.089218998675754
 40
-3.062059401285369
 40
-3.062059401285369
 40
-2.991106228631764
 40
-2.991106228631764
 40
-2.96257156324915
 40
-2.96257156324915
 40
-2.928930092382982
 40
-2.928930092382982
 40
-2.8667539561342
 40
-2.8667539561342
 40
-2.770936205068447
 40
-2.770936205068447
 40
-2.674294432448891
 40
-2.674294432448891
 40
-2.544109408398831
 40
-2.544109408398831
 40
-2.413924239300002
 40
-2.413924239300002
 40
-2.317417746483476
 40
-2.317417746483476
 40
-2.317417746483476
 40
-2.317417746483476
 10
-490.6084869988244
 20
-16.19088091366711
 30
0.0
 10
-490.2830585293177
 20
-17.2683396890252
 30
0.0
 10
-489.9281742063704
 20
-18.33474562566834
 30
0.0
 10
-488.3913205003263
 20
-22.57409875750955
 30
0.0
 10
-486.9869878938188
 20
-25.64778836106689
 30
0.0
 10
-481.2835831836856
 20
-36.23145027189776
 30
0.0
 10
-475.9317778277455
 20
-43.05081249954901
 30
0.0
 10
-467.6851831290386
 20
-51.65839754953322
 30
0.0
 10
-465.2313056223083
 20
-54.01543771791693
 30
0.0
 10
-459.7757669873263
 20
-58.91574314714808
 30
0.0
 10
-456.7330528167622
 20
-61.43717807889152
 30
0.0
 10
-447.8682869530675
 20
-68.31460196298621
 30
0.0
 10
-441.8795324174607
 20
-72.41560989688605
 30
0.0
 10
-426.2555830092187
 20
-82.16295661341701
 30
0.0
 10
-416.3959918190848
 20
-87.44847614091986
 30
0.0
 10
-396.2013399991392
 20
-97.15223834725476
 30
0.0
 10
-385.8606300224783
 20
-101.5559539916621
 30
0.0
 10
-361.5855358840872
 20
-110.9731783295337
 30
0.0
 10
-347.4498359963491
 20
-115.7499412392949
 30
0.0
 10
-318.9177304218592
 20
-124.3766966477301
 30
0.0
 10
-304.5185952207666
 20
-128.2233752083275
 30
0.0
 10
-279.2764214948111
 20
-134.2720681034288
 30
0.0
 10
-268.4764315935481
 20
-136.64150259514
 30
0.0
 10
-257.6331994595766
 20
-138.8280109567217
 30
0.0
  0
SPLINE
  5
185F
330
1268
100
AcDbEntity
  8
Visible Narrow (ISO)
100
AcDbSpline
210
0.0
220
0.0
230
1.0
 70
     8
 71
     3
 72
    18
 73
    14
 74
     0
 42
0.0000000001
 43
0.0000000001
 40
-2.187185082373397
 40
-2.187185082373397
 40
-2.187185082373397
 40
-2.187185082373397
 40
-2.093215513534994
 40
-2.093215513534994
 40
-1.895279739864128
 40
-1.895279739864128
 40
-1.625472376256305
 40
-1.625472376256305
 40
-1.365836024022951
 40
-1.365836024022951
 40
-1.062089453010675
 40
-1.062089453010675
 40
-0.9540662960410799
 40
-0.9540662960410799
 40
-0.9540662960410799
 40
-0.9540662960410799
 10
-214.5294348894113
 20
141.7522715938616
 30
0.0
 10
-203.8495466599979
 20
143.4233421704657
 30
0.0
 10
-193.1399325489947
 20
144.9437075197893
 30
0.0
 10
-159.8015189815105
 20
149.2353829884578
 30
0.0
 10
-137.0940892759463
 20
151.5293727620383
 30
0.0
 10
-83.35439103299359
 20
155.6426616757203
 30
0.0
 10
-52.29146890872289
 20
156.9876388158382
 30
0.0
 10
8.395672813552664
 20
157.7565842618351
 30
0.0
 10
38.316619500054
 20
157.2537674750661
 30
0.0
 10
103.2126435751524
 20
154.1750389386311
 30
0.0
 10
138.1820643112987
 20
151.2697010930442
 30
0.0
 10
185.2558069195183
 20
145.39622558779
 30
0.0
 10
197.5747035187705
 20
143.6740172085519
 30
0.0
 10
209.8533058725334
 20
141.7527131685897
 30
0.0
  0
SPLINE
  5
1860
330
1268
100
AcDbEntity
  8
Visible Narrow (ISO)
100
AcDbSpline
210
0.0
220
0.0
230
1.0
 70
     8
 71
     3
 72
    28
 73
    24
 74
     0
 42
0.0000000001
 43
0.0000000001
 40
2.319952910525734
 40
2.319952910525734
 40
2.319952910525734
 40
2.319952910525734
 40
2.413924239300002
 40
2.413924239300002
 40
2.544109408398831
 40
2.544109408398831
 40
2.674294432448891
 40
2.674294432448891
 40
2.770936205068447
 40
2.770936205068447
 40
2.8667539561342
 40
2.8667539561342
 40
2.928930092382982
 40
2.928930092382982
 40
2.96257156324915
 40
2.96257156324915
 40
2.991106228631764
 40
2.991106228631764
 40
3.062059401285369
 40
3.062059401285369
 40
3.089218998675754
 40
3.089218998675754
 40
3.098348456586419
 40
3.098348456586419
 40
3.098348456586419
 40
3.098348456586419
 10
-256.8178386261443
 20
-133.7529445053537
 30
0.0
 10
-267.3209132027277
 20
-131.6252474737998
 30
0.0
 10
-277.7797069972239
 20
-129.3251288536503
 30
0.0
 10
-302.5963703354446
 20
-123.378399509193
 30
0.0
 10
-316.9047890337369
 20
-119.5556114459732
 30
0.0
 10
-345.2306666712102
 20
-110.9912095840145
 30
0.0
 10
-359.2511318767592
 20
-106.2525695641306
 30
0.0
 10
-383.2874123791898
 20
-96.92799004040399
 30
0.0
 10
-393.5132166854819
 20
-92.57235066496923
 30
0.0
 10
-413.4386318500819
 20
-82.99795976466112
 30
0.0
 10
-423.1446015998881
 20
-77.79244087781035
 30
0.0
 10
-438.4598002313723
 20
-68.23771516838815
 30
0.0
 10
-444.3127039880273
 20
-64.22799581347999
 30
0.0
 10
-452.9358517093787
 20
-57.53802305991121
 30
0.0
 10
-455.887547327773
 20
-55.0914449360539
 30
0.0
 10
-461.1612829279056
 20
-50.3544396790603
 30
0.0
 10
-463.5258607080741
 20
-48.08256299499999
 30
0.0
 10
-471.4410287346908
 20
-39.82091264558949
 30
0.0
 10
-476.5132605223097
 20
-33.3318796201329
 30
0.0
 10
-481.8369199051922
 20
-23.45290137810798
 30
0.0
 10
-483.1374335019045
 20
-20.60270087644085
 30
0.0
 10
-484.5576345316276
 20
-16.68512976376996
 30
0.0
 10
-484.8880274008279
 20
-15.69088105057335
 30
0.0
 10
-485.1899554075044
 20
-14.68827339277641
 30
0.0
  0
SPLINE
  5
1861
330
1268
100
AcDbEntity
  8
Visible (ISO)
100
AcDbSpline
210
0.0
220
0.0
230
1.0
 70
    24
 71
     3
 72
    16
 73
    12
 74
     0
 42
0.0000000001
 43
0.0000000001
 40
-0.7933893938014965
 40
-0.7933893938014965
 40
-0.7933893938014965
 40
-0.7933893938014965
 40
-0.6885023663284741
 40
-0.6885023663284741
 40
-0.5837467982036128
 40
-0.5837467982036128
 40
-0.3865595787688136
 40
-0.3865595787688136
 40
-0.1925012971672721
 40
-0.1925012971672721
 40
0.0
 40
0.0
 40
0.0
 40
0.0
 10
-237.8371495486008
 20
137.85258573491
 30
0.0
 10
-237.8371495486008
 20
138.202408648819
 30
0.0
 10
-237.8371495486008
 20
138.551409485005
 30
0.0
 10
-237.8371495486008
 20
139.2361976408911
 30
0.0
 10
-237.8371495486008
 20
139.5703730029649
 30
0.0
 10
-237.8371495486008
 20
140.4950029749111
 30
0.0
 10
-237.8371495486008
 20
141.0431812292113
 30
0.0
 10
-237.8371495486008
 20
141.9572120454549
 30
0.0
 10
-237.8371495486008
 20
142.3171875172184
 30
0.0
 10
-237.8371495486008
 20
142.8057327282063
 30
0.0
 10
-237.8371495486008
 20
142.9311729139085
 30
0.0
 10
-237.8371495486008
 20
142.9311729139085
 30
0.0
  0
SPLINE
  5
1862
330
1268
100
AcDbEntity
  8
Visible Narrow (ISO)
100
AcDbSpline
210
0.0
220
0.0
230
1.0
 70
     8
 71
     3
 72
     8
 73
     4
 74
     0
 42
0.0000000001
 43
0.0000000001
 40
2.254140762196465
 40
2.254140762196465
 40
2.254140762196465
 40
2.254140762196465
 40
2.272573450215207
 40
2.272573450215207
 40
2.272573450215207
 40
2.272573450215207
 10
-238.0956211555004
 20
142.8690915244328
 30
0.0
 10
-239.6463733657238
 20
142.4962585557919
 30
0.0
 10
-241.1955055921244
 20
142.1172199499906
 30
0.0
 10
-242.7308017828945
 20
141.7318534010646
 30
0.0
  0
CIRCLE
  5
1863
330
1268
100
AcDbEntity
  8
Visible (ISO)
100
AcDbCircle
 10
170.1628504513974
 20
-99.99999999996635
 30
0.0
 40
12.325
  0
CIRCLE
  5
1864
330
1268
100
AcDbEntity
  8
Visible (ISO)
100
AcDbCircle
 10
170.1628504513974
 20
100.0000000000345
 30
0.0
 40
12.325
  0
ELLIPSE
  5
1865
330
1268
100
AcDbEntity
  8
Visible (ISO)
100
AcDbEllipse
 10
309.7536597464077
 20
100.0000000000332
 30
0.0
 11
0.000000000028766
 21
12.32500000000001
 31
0.0
210
0.0
220
0.0
230
1.0
 40
0.9902680687416046
 41
0.0
 42
6.283185307179586
  0
ELLIPSE
  5
1866
330
1268
100
AcDbEntity
  8
Visible (ISO)
100
AcDbEllipse
 10
309.8791801334428
 20
100.0000000000332
 30
0.0
 11
0.0000000000023765
 21
12.32500000000002
 31
0.0
210
0.0
220
0.0
230
1.0
 40
0.9902680687416044
 41
3.141592653589741
 42
6.283185307179534
  0
LINE
  5
1867
330
1268
100
AcDbEntity
  8
Visible (ISO)
100
AcDbLine
 10
309.7536597464095
 20
112.325000000033
 30
0.0
 11
309.8791801334464
 21
112.325000000033
 31
0.0
  0
LINE
  5
1868
330
1268
100
AcDbEntity
  8
Visible (ISO)
100
AcDbLine
 10
309.7536597464059
 20
87.67500000003384
 30
0.0
 11
309.879180133441
 21
87.67500000003293
 31
0.0
  0
ELLIPSE
  5
1869
330
1268
100
AcDbEntity
  8
Visible (ISO)
100
AcDbEllipse
 10
309.7536597464059
 20
-99.99999999996681
 30
0.0
 11
0.0000000000271458
 21
12.32499999999993
 31
0.0
210
0.0
220
0.0
230
1.0
 40
0.9902680687416197
 41
0.0
 42
6.283185307179586
  0
ELLIPSE
  5
186A
330
1268
100
AcDbEntity
  8
Visible (ISO)
100
AcDbEllipse
 10
309.879180133441
 20
-99.99999999996681
 30
0.0
 11
0.0000000000023535
 21
12.32499999999993
 31
0.0
210
0.0
220
0.0
230
1.0
 40
0.9902680687416197
 41
3.141592653589742
 42
6.283185307179535
  0
LINE
  5
186B
330
1268
100
AcDbEntity
  8
Visible (ISO)
100
AcDbLine
 10
309.7536597464077
 20
-87.67499999996653
 30
0.0
 11
309.8791801334428
 21
-87.67499999996653
 31
0.0
  0
LINE
  5
186C
330
1268
100
AcDbEntity
  8
Visible (ISO)
100
AcDbLine
 10
309.7536597464022
 20
-112.3249999999661
 30
0.0
 11
309.8791801334392
 21
-112.3249999999666
 31
0.0
  0
CIRCLE
  5
186D
330
1268
100
AcDbEntity
  8
Visible (ISO)
100
AcDbCircle
 10
-174.8371495486008
 20
99.99999999999591
 30
0.0
 40
12.325
  0
CIRCLE
  5
186E
330
1268
100
AcDbEntity
  8
Visible (ISO)
100
AcDbCircle
 10
-174.8371495486008
 20
-100.0000000000041
 30
0.0
 40
12.325
  0
ELLIPSE
  5
186F
330
1268
100
AcDbEntity
  8
Visible (ISO)
100
AcDbEllipse
 10
-314.4279588436111
 20
-99.99999999999682
 30
0.0
 11
0.0000000000232285
 21
-12.32500000000002
 31
0.0
210
0.0
220
0.0
230
1.0
 40
0.9902680687416044
 41
0.0
 42
6.283185307179586
  0
ELLIPSE
  5
1870
330
1268
100
AcDbEntity
  8
Visible (ISO)
100
AcDbEllipse
 10
-314.5534792306462
 20
-99.99999999999682
 30
0.0
 11
-0.0000000000023007
 21
-12.32500000000001
 31
0.0
210
0.0
220
0.0
230
1.0
 40
0.9902680687416046
 41
3.141592653589818
 42
6.283185307179611
  0
LINE
  5
1871
330
1268
100
AcDbEntity
  8
Visible (ISO)
100
AcDbLine
 10
-314.427958843613
 20
-112.3249999999966
 30
0.0
 11
-314.553479230648
 21
-112.3249999999966
 31
0.0
  0
LINE
  5
1872
330
1268
100
AcDbEntity
  8
Visible (ISO)
100
AcDbLine
 10
-314.4279588436075
 20
-87.67499999999655
 30
0.0
 11
-314.5534792306425
 21
-87.67499999999655
 31
0.0
  0
ELLIPSE
  5
1873
330
1268
100
AcDbEntity
  8
Visible (ISO)
100
AcDbEllipse
 10
-314.4279588436075
 20
100.0000000000041
 30
0.0
 11
0.000000000024818
 21
-12.32499999999992
 31
0.0
210
0.0
220
0.0
230
1.0
 40
0.9902680687416189
 41
0.0
 42
6.283185307179586
  0
ELLIPSE
  5
1874
330
1268
100
AcDbEntity
  8
Visible (ISO)
100
AcDbEllipse
 10
-314.5534792306425
 20
100.0000000000041
 30
0.0
 11
-0.0000000000022876
 21
-12.32499999999993
 31
0.0
210
0.0
220
0.0
230
1.0
 40
0.9902680687416191
 41
3.14159265358982
 42
6.283185307179613
  0
LINE
  5
1875
330
1268
100
AcDbEntity
  8
Visible (ISO)
100
AcDbLine
 10
-314.4279588436111
 20
87.67500000000428
 30
0.0
 11
-314.5534792306462
 21
87.67500000000381
 31
0.0
  0
LINE
  5
1876
330
1268
100
AcDbEntity
  8
Visible (ISO)
100
AcDbLine
 10
-314.4279588436057
 20
112.3250000000039
 30
0.0
 11
-314.5534792306407
 21
112.3250000000039
 31
0.0
  0
CIRCLE
  5
1877
330
1268
100
AcDbEntity
  8
Visible (ISO)
100
AcDbCircle
 10
-2.337149548600791
 20
-0.0000000000977707
 30
0.0
 40
2145.138340646584
  0
ENDBLK
  5
126A
330
1268
100
AcDbEntity
  8
0
100
AcDbBlockEnd
  0
BLOCK
  5
17AD
330
17AC
100
AcDbEntity
  8
0
100
AcDbBlockBegin
  2
*D21
 70
     1
 10
0.0
 20
0.0
 30
0.0
  3
*D21
  1

  0
LINE
  5
17FD
330
17AC
100
AcDbEntity
  8
Dimension (ISO)
100
AcDbLine
 10
7103.612724741656
 20
2609.565672877387
 30
0.0
 11
7103.612724741656
 21
207.4318334521372
 31
0.0
  0
LINE
  5
17FE
330
17AC
100
AcDbEntity
  8
Dimension (ISO)
100
AcDbLine
 10
11393.88940603482
 20
2609.565672877388
 30
0.0
 11
11393.88940603482
 21
207.4318334521372
 31
0.0
  0
LINE
  5
17FF
330
17AC
100
AcDbEntity
  8
Dimension (ISO)
100
AcDbLine
 10
7166.112724741656
 20
232.4318334521372
 30
0.0
 11
11331.38940603482
 21
232.4318334521372
 31
0.0
  0
SOLID
  5
1800
330
17AC
100
AcDbEntity
  8
Dimension (ISO)
100
AcDbTrace
 10
7166.112724741656
 20
242.8485001188039
 30
0.0
 11
7166.112724741656
 21
222.0151667854705
 31
0.0
 12
7103.612724741656
 22
232.4318334521372
 32
0.0
 13
7103.612724741656
 23
232.4318334521372
 33
0.0
  0
SOLID
  5
1801
330
17AC
100
AcDbEntity
  8
Dimension (ISO)
100
AcDbTrace
 10
11331.38940603482
 20
242.8485001188039
 30
0.0
 11
11331.38940603482
 21
222.0151667854705
 31
0.0
 12
11393.88940603482
 22
232.4318334521372
 32
0.0
 13
11393.88940603482
 23
232.4318334521372
 33
0.0
  0
MTEXT
  5
1802
330
17AC
100
AcDbEntity
  8
Dimension (ISO)
100
AcDbMText
 10
9248.751065388237
 20
342.6252182741654
 30
0.0
 40
87.5
 41
0.0
 71
     2
 72
     1
  1
\A1;4290
  7
Label Text (ISO)
 73
     1
 44
1.0
1001
ACAD
1000
MTEXTBEGIN
1070
    73
1070
     1
1070
    44
1040
1.0
1070
    74
1070
     0
1000
MTEXTEND
  0
POINT
  5
1803
330
17AC
100
AcDbEntity
  8
Defpoints
 62
     0
100
AcDbPoint
 10
7103.612724741656
 20
2622.065672877388
 30
0.0
  0
POINT
  5
1804
330
17AC
100
AcDbEntity
  8
Defpoints
 62
     0
100
AcDbPoint
 10
11393.88940603482
 20
2622.065672877388
 30
0.0
  0
POINT
  5
1805
330
17AC
100
AcDbEntity
  8
Defpoints
 62
     0
100
AcDbPoint
 10
11393.88940603482
 20
232.4318334521372
 30
0.0
  0
ENDBLK
  5
17AE
330
17AC
100
AcDbEntity
  8
0
100
AcDbBlockEnd
  0
BLOCK
  5
17B9
330
17B8
100
AcDbEntity
  8
0
100
AcDbBlockBegin
  2
*D22
 70
     1
 10
0.0
 20
0.0
 30
0.0
  3
*D22
  1

  0
LINE
  5
1806
330
17B8
100
AcDbEntity
  8
Dimension (ISO)
100
AcDbLine
 10
9236.251065388239
 20
476.9273322308036
 30
0.0
 11
6873.75106538824
 21
476.9273322308042
 31
0.0
  0
LINE
  5
1807
330
17B8
100
AcDbEntity
  8
Dimension (ISO)
100
AcDbLine
 10
9236.251065388239
 20
4767.204013523972
 30
0.0
 11
6873.75106538824
 21
4767.204013523972
 31
0.0
  0
LINE
  5
1808
330
17B8
100
AcDbEntity
  8
Dimension (ISO)
100
AcDbLine
 10
6898.751065388239
 20
539.4273322308044
 30
0.0
 11
6898.751065388241
 21
4704.704013523972
 31
0.0
  0
SOLID
  5
1809
330
17B8
100
AcDbEntity
  8
Dimension (ISO)
100
AcDbTrace
 10
6888.334398721574
 20
539.4273322308044
 30
0.0
 11
6909.167732054907
 21
539.4273322308044
 31
0.0
 12
6898.751065388239
 22
476.9273322308042
 32
0.0
 13
6898.751065388239
 23
476.9273322308042
 33
0.0
  0
SOLID
  5
180A
330
17B8
100
AcDbEntity
  8
Dimension (ISO)
100
AcDbTrace
 10
6888.334398721574
 20
4704.704013523972
 30
0.0
 11
6909.167732054908
 21
4704.704013523972
 31
0.0
 12
6898.751065388241
 22
4767.204013523972
 32
0.0
 13
6898.751065388241
 23
4767.204013523972
 33
0.0
  0
MTEXT
  5
180B
330
17B8
100
AcDbEntity
  8
Dimension (ISO)
100
AcDbMText
 10
6788.557680566213
 20
2622.065672877389
 30
0.0
 40
87.5
 41
0.0
 71
     2
 72
     1
  1
\A1;4290
  7
Label Text (ISO)
 11
0.0000000000000001
 21
1.0
 31
0.0
 73
     1
 44
1.0
1001
ACAD
1000
MTEXTBEGIN
1070
    73
1070
     1
1070
    44
1040
1.0
1070
    74
1070
     0
1000
MTEXTEND
  0
POINT
  5
180C
330
17B8
100
AcDbEntity
  8
Defpoints
 62
     0
100
AcDbPoint
 10
9248.751065388239
 20
476.9273322308036
 30
0.0
  0
POINT
  5
180D
330
17B8
100
AcDbEntity
  8
Defpoints
 62
     0
100
AcDbPoint
 10
9248.751065388239
 20
4767.204013523972
 30
0.0
  0
POINT
  5
180E
330
17B8
100
AcDbEntity
  8
Defpoints
 62
     0
100
AcDbPoint
 10
6898.751065388241
 20
4767.204013523972
 30
0.0
  0
ENDBLK
  5
17BA
330
17B8
100
AcDbEntity
  8
0
100
AcDbBlockEnd
  0
BLOCK
  5
17C5
330
17C4
100
AcDbEntity
  8
0
100
AcDbBlockBegin
  2
*D23
 70
     1
 10
0.0
 20
0.0
 30
0.0
  3
*D23
  1

  0
LINE
  5
180F
330
17C4
100
AcDbEntity
  8
Dimension (ISO)
100
AcDbLine
 10
9261.251065388362
 20
2784.568209111192
 30
0.0
 11
10072.57458003436
 21
2784.568209111192
 31
0.0
  0
LINE
  5
1810
330
17C4
100
AcDbEntity
  8
Dimension (ISO)
100
AcDbLine
 10
9261.251065388149
 20
2459.563644225359
 30
0.0
 11
10072.57458003436
 21
2459.563644225359
 31
0.0
  0
LINE
  5
1811
330
17C4
100
AcDbEntity
  8
Dimension (ISO)
100
AcDbLine
 10
10047.57458003436
 20
2722.068209111192
 30
0.0
 11
10047.57458003436
 21
2522.063644225359
 31
0.0
  0
SOLID
  5
1812
330
17C4
100
AcDbEntity
  8
Dimension (ISO)
100
AcDbTrace
 10
10037.1579133677
 20
2722.068209111192
 30
0.0
 11
10057.99124670103
 21
2722.068209111192
 31
0.0
 12
10047.57458003436
 22
2784.568209111192
 32
0.0
 13
10047.57458003436
 23
2784.568209111192
 33
0.0
  0
SOLID
  5
1813
330
17C4
100
AcDbEntity
  8
Dimension (ISO)
100
AcDbTrace
 10
10037.1579133677
 20
2522.063644225359
 30
0.0
 11
10057.99124670103
 21
2522.063644225359
 31
0.0
 12
10047.57458003436
 22
2459.563644225359
 32
0.0
 13
10047.57458003436
 23
2459.563644225359
 33
0.0
  0
MTEXT
  5
1814
330
17C4
100
AcDbEntity
  8
Dimension (ISO)
100
AcDbMText
 10
9937.381195212335
 20
2622.065926668275
 30
0.0
 40
87.5
 41
0.0
 71
     2
 72
     1
  1
\A1;325
  7
Label Text (ISO)
 11
0.0000000000000001
 21
1.0
 31
0.0
 73
     1
 44
1.0
1001
ACAD
1000
MTEXTBEGIN
1070
    73
1070
     1
1070
    44
1040
1.0
1070
    74
1070
     0
1000
MTEXTEND
  0
POINT
  5
1815
330
17C4
100
AcDbEntity
  8
Defpoints
 62
     0
100
AcDbPoint
 10
9248.751065388361
 20
2784.568209111192
 30
0.0
  0
POINT
  5
1816
330
17C4
100
AcDbEntity
  8
Defpoints
 62
     0
100
AcDbPoint
 10
9248.751065388148
 20
2459.563644225359
 30
0.0
  0
POINT
  5
1817
330
17C4
100
AcDbEntity
  8
Defpoints
 62
     0
100
AcDbPoint
 10
10047.57458003436
 20
2459.563644225359
 30
0.0
  0
ENDBLK
  5
17C6
330
17C4
100
AcDbEntity
  8
0
100
AcDbBlockEnd
  0
BLOCK
  5
17D1
330
17D0
100
AcDbEntity
  8
0
100
AcDbBlockBegin
  2
*D24
 70
     1
 10
0.0
 20
0.0
 30
0.0
  3
*D24
  1

  0
LINE
  5
1818
330
17D0
100
AcDbEntity
  8
Dimension (ISO)
100
AcDbLine
 10
8756.23122181256
 20
2634.565672877506
 30
0.0
 11
8756.23122181256
 21
2945.857105458794
 31
0.0
  0
LINE
  5
1819
330
17D0
100
AcDbEntity
  8
Dimension (ISO)
100
AcDbLine
 10
9741.270908963914
 20
2634.565672877506
 30
0.0
 11
9741.270908963914
 21
2945.857105458794
 31
0.0
  0
LINE
  5
181A
330
17D0
100
AcDbEntity
  8
Dimension (ISO)
100
AcDbLine
 10
8818.73122181256
 20
2920.857105458794
 30
0.0
 11
9678.770908963914
 21
2920.857105458794
 31
0.0
  0
SOLID
  5
181B
330
17D0
100
AcDbEntity
  8
Dimension (ISO)
100
AcDbTrace
 10
8818.73122181256
 20
2931.273772125461
 30
0.0
 11
8818.73122181256
 21
2910.440438792128
 31
0.0
 12
8756.23122181256
 22
2920.857105458794
 32
0.0
 13
8756.23122181256
 23
2920.857105458794
 33
0.0
  0
SOLID
  5
181C
330
17D0
100
AcDbEntity
  8
Dimension (ISO)
100
AcDbTrace
 10
9678.770908963914
 20
2931.273772125461
 30
0.0
 11
9678.770908963914
 21
2910.440438792128
 31
0.0
 12
9741.270908963914
 22
2920.857105458794
 32
0.0
 13
9741.270908963914
 23
2920.857105458794
 33
0.0
  0
MTEXT
  5
181D
330
17D0
100
AcDbEntity
  8
Dimension (ISO)
100
AcDbMText
 10
9248.751065388242
 20
3031.403075908761
 30
0.0
 40
87.5
 41
0.0
 71
     2
 72
     1
  1
\A1;985
  7
Label Text (ISO)
 73
     1
 44
1.0
1001
ACAD
1000
MTEXTBEGIN
1070
    73
1070
     1
1070
    44
1040
1.0
1070
    74
1070
     0
1000
MTEXTEND
  0
POINT
  5
181E
330
17D0
100
AcDbEntity
  8
Defpoints
 62
     0
100
AcDbPoint
 10
8756.23122181256
 20
2622.065672877506
 30
0.0
  0
POINT
  5
181F
330
17D0
100
AcDbEntity
  8
Defpoints
 62
     0
100
AcDbPoint
 10
9741.270908963914
 20
2622.065672877506
 30
0.0
  0
POINT
  5
1820
330
17D0
100
AcDbEntity
  8
Defpoints
 62
     0
100
AcDbPoint
 10
9741.270908963914
 20
2920.857105458794
 30
0.0
  0
ENDBLK
  5
17D2
330
17D0
100
AcDbEntity
  8
0
100
AcDbBlockEnd
  0
BLOCK
  5
17DD
330
17DC
100
AcDbEntity
  8
0
100
AcDbBlockBegin
  2
*D25
 70
     1
 10
0.0
 20
0.0
 30
0.0
  3
*D25
  1

  0
LINE
  5
1821
330
17DC
100
AcDbEntity
  8
Dimension (ISO)
100
AcDbLine
 10
9061.2510653891
 20
5380.242730191182
 30
0.0
 11
8652.336214654949
 21
5380.242730191182
 31
0.0
  0
LINE
  5
1822
330
17DC
100
AcDbEntity
  8
Dimension (ISO)
100
AcDbLine
 10
8677.33621465495
 20
5517.742730191181
 30
0.0
 11
8677.33621465495
 21
5442.742730191182
 31
0.0
  0
SOLID
  5
1823
330
17DC
100
AcDbEntity
  8
Dimension (ISO)
100
AcDbTrace
 10
8666.919547988284
 20
5517.742730191181
 30
0.0
 11
8687.752881321616
 21
5517.742730191181
 31
0.0
 12
8677.33621465495
 22
5580.242730191181
 32
0.0
 13
8677.33621465495
 23
5580.242730191181
 33
0.0
  0
SOLID
  5
1824
330
17DC
100
AcDbEntity
  8
Dimension (ISO)
100
AcDbTrace
 10
8666.919547988284
 20
5442.742730191182
 30
0.0
 11
8687.752881321616
 21
5442.742730191182
 31
0.0
 12
8677.33621465495
 22
5380.242730191182
 32
0.0
 13
8677.33621465495
 23
5380.242730191182
 33
0.0
  0
MTEXT
  5
1825
330
17DC
100
AcDbEntity
  8
Dimension (ISO)
100
AcDbMText
 10
8567.142829832919
 20
5480.242730191182
 30
0.0
 40
87.5
 41
0.0
 71
     2
 72
     1
  1
\A1;200
  7
Label Text (ISO)
 11
0.0000000000000001
 21
1.0
 31
0.0
 73
     1
 44
1.0
1001
ACAD
1000
MTEXTBEGIN
1070
    73
1070
     1
1070
    44
1040
1.0
1070
    74
1070
     0
1000
MTEXTEND
  0
POINT
  5
1826
330
17DC
100
AcDbEntity
  8
Defpoints
 62
     0
100
AcDbPoint
 10
7103.612724742513
 20
5580.242730191181
 30
0.0
  0
POINT
  5
1827
330
17DC
100
AcDbEntity
  8
Defpoints
 62
     0
100
AcDbPoint
 10
9073.751065389101
 20
5380.242730191182
 30
0.0
  0
POINT
  5
1828
330
17DC
100
AcDbEntity
  8
Defpoints
 62
     0
100
AcDbPoint
 10
8677.33621465495
 20
5380.242730191182
 30
0.0
  0
ENDBLK
  5
17DE
330
17DC
100
AcDbEntity
  8
0
100
AcDbBlockEnd
  0
BLOCK
  5
17E8
330
17E7
100
AcDbEntity
  8
0
100
AcDbBlockBegin
  2
*D26
 70
     1
 10
0.0
 20
0.0
 30
0.0
  3
*D26
  1

  0
LINE
  5
1829
330
17E7
100
AcDbEntity
  8
Dimension (ISO)
100
AcDbLine
 10
9747.010318308587
 20
5995.050754305299
 30
0.0
 11
9993.830300153389
 21
5995.050754305299
 31
0.0
  0
LINE
  5
182A
330
17E7
100
AcDbEntity
  8
Dimension (ISO)
100
AcDbLine
 10
9968.830300153388
 20
5932.550754305299
 30
0.0
 11
9968.830300153388
 21
5642.742730191182
 31
0.0
  0
SOLID
  5
182B
330
17E7
100
AcDbEntity
  8
Dimension (ISO)
100
AcDbTrace
 10
9958.413633486722
 20
5932.550754305299
 30
0.0
 11
9979.246966820054
 21
5932.550754305299
 31
0.0
 12
9968.830300153388
 22
5995.050754305299
 32
0.0
 13
9968.830300153388
 23
5995.050754305299
 33
0.0
  0
SOLID
  5
182C
330
17E7
100
AcDbEntity
  8
Dimension (ISO)
100
AcDbTrace
 10
9958.413633486722
 20
5642.742730191182
 30
0.0
 11
9979.246966820054
 21
5642.742730191182
 31
0.0
 12
9968.830300153388
 22
5580.242730191182
 32
0.0
 13
9968.830300153388
 23
5580.242730191182
 33
0.0
  0
MTEXT
  5
182D
330
17E7
100
AcDbEntity
  8
Dimension (ISO)
100
AcDbMText
 10
9860.164786385757
 20
5787.646742248242
 30
0.0
 40
87.5
 41
0.0
 71
     2
 72
     1
  1
\A1;415
  7
Label Text (ISO)
 11
0.0000000000000001
 21
1.0
 31
0.0
 73
     1
 44
1.0
1001
ACAD
1000
MTEXTBEGIN
1070
    73
1070
     1
1070
    44
1040
1.0
1070
    74
1070
     0
1000
MTEXTEND
  0
POINT
  5
182E
330
17E7
100
AcDbEntity
  8
Defpoints
 62
     0
100
AcDbPoint
 10
9734.510318308586
 20
5995.050754305299
 30
0.0
  0
POINT
  5
182F
330
17E7
100
AcDbEntity
  8
Defpoints
 62
     0
100
AcDbPoint
 10
11393.88940603568
 20
5580.242730191181
 30
0.0
  0
POINT
  5
1830
330
17E7
100
AcDbEntity
  8
Defpoints
 62
     0
100
AcDbPoint
 10
9968.830300153388
 20
5580.242730191182
 30
0.0
  0
ENDBLK
  5
17E9
330
17E7
100
AcDbEntity
  8
0
100
AcDbBlockEnd
  0
BLOCK
  5
17F3
330
17F2
100
AcDbEntity
  8
0
100
AcDbBlockBegin
  2
*D27
 70
     1
 10
0.0
 20
0.0
 30
0.0
  3
*D27
  1

  0
LINE
  5
1831
330
17F2
100
AcDbEntity
  8
Dimension (ISO)
100
AcDbLine
 10
9526.251065389098
 20
5030.24273019118
 30
0.0
 11
9993.830300153389
 21
5030.24273019118
 31
0.0
  0
LINE
  5
1832
330
17F2
100
AcDbEntity
  8
Dimension (ISO)
100
AcDbLine
 10
9968.830300153388
 20
5517.742730191182
 30
0.0
 11
9968.830300153388
 21
5092.74273019118
 31
0.0
  0
SOLID
  5
1833
330
17F2
100
AcDbEntity
  8
Dimension (ISO)
100
AcDbTrace
 10
9958.413633486722
 20
5517.742730191182
 30
0.0
 11
9979.246966820054
 21
5517.742730191182
 31
0.0
 12
9968.830300153388
 22
5580.242730191182
 32
0.0
 13
9968.830300153388
 23
5580.242730191182
 33
0.0
  0
SOLID
  5
1834
330
17F2
100
AcDbEntity
  8
Dimension (ISO)
100
AcDbTrace
 10
9958.413633486722
 20
5092.74273019118
 30
0.0
 11
9979.246966820054
 21
5092.74273019118
 31
0.0
 12
9968.830300153388
 22
5030.24273019118
 32
0.0
 13
9968.830300153388
 23
5030.24273019118
 33
0.0
  0
MTEXT
  5
1835
330
17F2
100
AcDbEntity
  8
Dimension (ISO)
100
AcDbMText
 10
9858.695679602682
 20
5305.242730191181
 30
0.0
 40
87.5
 41
0.0
 71
     2
 72
     1
  1
\A1;550
  7
Label Text (ISO)
 11
0.0000000000000001
 21
1.0
 31
0.0
 73
     1
 44
1.0
1001
ACAD
1000
MTEXTBEGIN
1070
    73
1070
     1
1070
    44
1040
1.0
1070
    74
1070
     0
1000
MTEXTEND
  0
POINT
  5
1836
330
17F2
100
AcDbEntity
  8
Defpoints
 62
     0
100
AcDbPoint
 10
11393.88940603568
 20
5580.242730191181
 30
0.0
  0
POINT
  5
1837
330
17F2
100
AcDbEntity
  8
Defpoints
 62
     0
100
AcDbPoint
 10
9513.751065389099
 20
5030.24273019118
 30
0.0
  0
POINT
  5
1838
330
17F2
100
AcDbEntity
  8
Defpoints
 62
     0
100
AcDbPoint
 10
9968.830300153388
 20
5030.24273019118
 30
0.0
  0
ENDBLK
  5
17F4
330
17F2
100
AcDbEntity
  8
0
100
AcDbBlockEnd
  0
ENDSEC
  0
SECTION
  2
ENTITIES
  0
LINE
  5
161C
330
6C
100
AcDbEntity
  8
Visible (ISO)
100
AcDbLine
 10
9448.7510653891
 20
5380.242730191182
 30
0.0
 11
9448.7510653891
 21
5388.242730191181
 31
0.0
  0
LINE
  5
161D
330
6C
100
AcDbEntity
  8
Visible (ISO)
100
AcDbLine
 10
9423.751065389096
 20
5388.242730191181
 30
0.0
 11
9448.751065389096
 21
5388.242730191181
 31
0.0
  0
LINE
  5
161E
330
6C
100
AcDbEntity
  8
Visible Narrow (ISO)
100
AcDbLine
 10
9423.751065389096
 20
5380.642730191182
 30
0.0
 11
9423.751065389096
 21
5387.842730191181
 31
0.0
  0
LINE
  5
161F
330
6C
100
AcDbEntity
  8
Visible (ISO)
100
AcDbLine
 10
9423.751065389096
 20
5388.242730191181
 30
0.0
 11
9073.751065389096
 21
5388.242730191181
 31
0.0
  0
LINE
  5
1620
330
6C
100
AcDbEntity
  8
Visible Narrow (ISO)
100
AcDbLine
 10
9073.751065389096
 20
5380.642730191182
 30
0.0
 11
9073.751065389096
 21
5387.842730191181
 31
0.0
  0
LINE
  5
1621
330
6C
100
AcDbEntity
  8
Visible (ISO)
100
AcDbLine
 10
9423.751065389096
 20
5380.242730191182
 30
0.0
 11
9073.751065389096
 21
5380.242730191182
 31
0.0
  0
LINE
  5
1622
330
6C
100
AcDbEntity
  8
Visible (ISO)
100
AcDbLine
 10
9048.751065389099
 20
5388.242730191181
 30
0.0
 11
9073.751065389096
 21
5388.242730191181
 31
0.0
  0
LINE
  5
1623
330
6C
100
AcDbEntity
  8
Visible (ISO)
100
AcDbLine
 10
9048.751065389099
 20
5380.242730191182
 30
0.0
 11
9048.751065389099
 21
5388.242730191181
 31
0.0
  0
LINE
  5
1624
330
6C
100
AcDbEntity
  8
Visible (ISO)
100
AcDbLine
 10
9298.751065389099
 20
5388.242730191181
 30
0.0
 11
9298.751065389099
 21
5575.242730191182
 31
0.0
  0
LINE
  5
1625
330
6C
100
AcDbEntity
  8
Visible (ISO)
100
AcDbLine
 10
9298.751065389099
 20
5580.242730191181
 30
0.0
 11
9298.751065389099
 21
5593.242730191182
 31
0.0
  0
LINE
  5
1626
330
6C
100
AcDbEntity
  8
Visible Narrow (ISO)
100
AcDbLine
 10
9293.751065389098
 20
5397.592730191181
 30
0.0
 11
9293.751065389098
 21
5565.892730191181
 31
0.0
  0
LINE
  5
1627
330
6C
100
AcDbEntity
  8
Visible Narrow (ISO)
100
AcDbLine
 10
9293.751065389098
 20
5580.892730191181
 30
0.0
 11
9293.751065389098
 21
5592.592730191181
 31
0.0
  0
LINE
  5
1628
330
6C
100
AcDbEntity
  8
Visible Narrow (ISO)
100
AcDbLine
 10
9203.751065389099
 20
5397.592730191181
 30
0.0
 11
9203.751065389099
 21
5565.892730191181
 31
0.0
  0
LINE
  5
1629
330
6C
100
AcDbEntity
  8
Visible Narrow (ISO)
100
AcDbLine
 10
9203.751065389099
 20
5580.892730191181
 30
0.0
 11
9203.751065389099
 21
5592.592730191181
 31
0.0
  0
LINE
  5
162A
330
6C
100
AcDbEntity
  8
Visible (ISO)
100
AcDbLine
 10
9198.7510653891
 20
5388.242730191181
 30
0.0
 11
9198.7510653891
 21
5575.242730191182
 31
0.0
  0
LINE
  5
162B
330
6C
100
AcDbEntity
  8
Visible (ISO)
100
AcDbLine
 10
9198.7510653891
 20
5580.242730191181
 30
0.0
 11
9198.7510653891
 21
5593.242730191182
 31
0.0
  0
LINE
  5
162C
330
6C
100
AcDbEntity
  8
Visible (ISO)
100
AcDbLine
 10
9158.751065389097
 20
5600.242730191181
 30
0.0
 11
9158.751065389097
 21
5603.242730191181
 31
0.0
  0
LINE
  5
162D
330
6C
100
AcDbEntity
  8
Visible (ISO)
100
AcDbLine
 10
9159.211673374928
 20
5600.242730191181
 30
0.0
 11
9158.751065389097
 21
5600.242730191181
 31
0.0
  0
LINE
  5
162E
330
6C
100
AcDbEntity
  8
Visible (ISO)
100
AcDbLine
 10
9338.751065389098
 20
5600.242730191181
 30
0.0
 11
9338.751065389098
 21
5603.242730191181
 31
0.0
  0
LINE
  5
162F
330
6C
100
AcDbEntity
  8
Visible (ISO)
100
AcDbLine
 10
9338.751065389098
 20
5600.242730191181
 30
0.0
 11
9338.290457403267
 21
5600.242730191181
 31
0.0
  0
LINE
  5
1630
330
6C
100
AcDbEntity
  8
Visible (ISO)
100
AcDbLine
 10
9203.751065389099
 20
5677.242730191181
 30
0.0
 11
9293.751065389097
 21
5677.242730191181
 31
0.0
  0
LINE
  5
1631
330
6C
100
AcDbEntity
  8
Visible (ISO)
100
AcDbLine
 10
9203.751065389099
 20
5613.242730191182
 30
0.0
 11
9203.751065389099
 21
5677.242730191181
 31
0.0
  0
LINE
  5
1632
330
6C
100
AcDbEntity
  8
Visible (ISO)
100
AcDbLine
 10
9293.751065389097
 20
5613.242730191182
 30
0.0
 11
9293.751065389097
 21
5677.242730191181
 31
0.0
  0
SPLINE
  5
1633
330
6C
100
AcDbEntity
  8
Visible (ISO)
100
AcDbSpline
210
0.0
220
0.0
230
1.0
 70
     8
 71
     3
 72
    14
 73
    10
 74
     0
 42
0.0000000001
 43
0.0000000001
 40
9.653247082087586
 40
9.653247082087586
 40
9.653247082087586
 40
9.653247082087586
 40
9.66233769907401
 40
9.66233769907401
 40
10.11181770830244
 40
10.11181770830244
 40
10.56129771753087
 40
10.56129771753087
 40
10.57038833451729
 40
10.57038833451729
 40
10.57038833451729
 40
10.57038833451729
 10
9253.5010653891
 20
5613.242730191181
 30
0.0
 10
9253.468909872397
 20
5613.242730191181
 30
0.0
 10
9253.436763331773
 20
5613.242728463306
 30
0.0
 10
9251.815622089699
 20
5613.242559593602
 30
0.0
 10
9250.249332086527
 20
5613.239604702748
 30
0.0
 10
9247.252798691668
 20
5613.239604702748
 30
0.0
 10
9245.686508688498
 20
5613.242559593602
 30
0.0
 10
9244.065367446422
 20
5613.242728463306
 30
0.0
 10
9244.033220905798
 20
5613.242730191181
 30
0.0
 10
9244.001065389097
 20
5613.242730191181
 30
0.0
  0
LINE
  5
1634
330
6C
100
AcDbEntity
  8
Visible (ISO)
100
AcDbLine
 10
9338.751065389098
 20
5613.242730191181
 30
0.0
 11
9253.5010653891
 21
5613.242730191181
 31
0.0
  0
LINE
  5
1635
330
6C
100
AcDbEntity
  8
Visible (ISO)
100
AcDbLine
 10
9244.001065389097
 20
5613.242730191181
 30
0.0
 11
9158.751065389097
 21
5613.242730191181
 31
0.0
  0
LINE
  5
1636
330
6C
100
AcDbEntity
  8
Visible Narrow (ISO)
100
AcDbLine
 10
9329.751065389098
 20
5603.242730191181
 30
0.0
 11
9167.751065389095
 21
5603.242730191181
 31
0.0
  0
LINE
  5
1637
330
6C
100
AcDbEntity
  8
Visible (ISO)
100
AcDbLine
 10
9158.751065389097
 20
5613.242730191181
 30
0.0
 11
9158.751065389097
 21
5603.242730191181
 31
0.0
  0
LINE
  5
1638
330
6C
100
AcDbEntity
  8
Visible (ISO)
100
AcDbLine
 10
9338.751065389098
 20
5603.242730191181
 30
0.0
 11
9338.751065389098
 21
5613.242730191181
 31
0.0
  0
ARC
  5
1639
330
6C
100
AcDbEntity
  8
Visible (ISO)
100
AcDbCircle
 10
9168.751065389098
 20
5603.242730191181
 30
0.0
 40
10.00000000000001
100
AcDbArc
 50
180.0
 51
270.0
  0
ARC
  5
163A
330
6C
100
AcDbEntity
  8
Visible (ISO)
100
AcDbCircle
 10
9328.751065389097
 20
5603.242730191181
 30
0.0
 40
10.00000000000001
100
AcDbArc
 50
270.0
 51
0.0
  0
LINE
  5
163B
330
6C
100
AcDbEntity
  8
Visible (ISO)
100
AcDbLine
 10
9328.751065389097
 20
5593.242730191182
 30
0.0
 11
9168.751065389098
 21
5593.242730191182
 31
0.0
  0
LINE
  5
163C
330
6C
100
AcDbEntity
  8
Visible (ISO)
100
AcDbLine
 10
9203.751065389099
 20
5677.742730191181
 30
0.0
 11
9293.751065389097
 21
5677.742730191181
 31
0.0
  0
LINE
  5
163D
330
6C
100
AcDbEntity
  8
Visible (ISO)
100
AcDbLine
 10
9293.751065389097
 20
5681.742730191182
 30
0.0
 11
9203.751065389099
 21
5681.742730191182
 31
0.0
  0
LINE
  5
163E
330
6C
100
AcDbEntity
  8
Visible (ISO)
100
AcDbLine
 10
9204.251065389097
 20
5682.242730191181
 30
0.0
 11
9293.251065389098
 21
5682.242730191181
 31
0.0
  0
LINE
  5
163F
330
6C
100
AcDbEntity
  8
Visible (ISO)
100
AcDbLine
 10
9204.251065389097
 20
5677.242730191181
 30
0.0
 11
9203.751065389099
 21
5677.742730191181
 31
0.0
  0
LINE
  5
1640
330
6C
100
AcDbEntity
  8
Visible (ISO)
100
AcDbLine
 10
9293.251065389098
 20
5677.242730191181
 30
0.0
 11
9293.751065389097
 21
5677.742730191181
 31
0.0
  0
LINE
  5
1641
330
6C
100
AcDbEntity
  8
Visible (ISO)
100
AcDbLine
 10
9293.251065389098
 20
5682.242730191181
 30
0.0
 11
9293.751065389097
 21
5681.742730191182
 31
0.0
  0
LINE
  5
1642
330
6C
100
AcDbEntity
  8
Visible (ISO)
100
AcDbLine
 10
9204.251065389097
 20
5682.242730191181
 30
0.0
 11
9203.751065389099
 21
5681.742730191182
 31
0.0
  0
LINE
  5
1643
330
6C
100
AcDbEntity
  8
Visible (ISO)
100
AcDbLine
 10
9203.751065389099
 20
5677.742730191181
 30
0.0
 11
9203.751065389099
 21
5681.742730191182
 31
0.0
  0
LINE
  5
1644
330
6C
100
AcDbEntity
  8
Visible (ISO)
100
AcDbLine
 10
9293.751065389097
 20
5677.742730191181
 30
0.0
 11
9293.751065389097
 21
5681.742730191182
 31
0.0
  0
CIRCLE
  5
1645
330
6C
100
AcDbEntity
  8
Visible (ISO)
100
AcDbCircle
 10
9248.751065389097
 20
5761.242730191181
 30
0.0
 40
30.14999999999998
  0
LINE
  5
1646
330
6C
100
AcDbEntity
  8
Visible (ISO)
100
AcDbLine
 10
9332.251065389097
 20
5881.392730191183
 30
0.0
 11
9332.251065389097
 21
5821.092730191184
 31
0.0
  0
LINE
  5
1647
330
6C
100
AcDbEntity
  8
Visible (ISO)
100
AcDbLine
 10
9307.251065389097
 20
5881.392730191183
 30
0.0
 11
9332.251065389097
 21
5881.392730191183
 31
0.0
  0
LINE
  5
1648
330
6C
100
AcDbEntity
  8
Visible (ISO)
100
AcDbLine
 10
9307.251065389097
 20
5821.092730191184
 30
0.0
 11
9332.251065389097
 21
5821.092730191184
 31
0.0
  0
LINE
  5
1649
330
6C
100
AcDbEntity
  8
Visible (ISO)
100
AcDbLine
 10
9165.251065389098
 20
5821.092730191184
 30
0.0
 11
9165.251065389098
 21
5881.392730191183
 31
0.0
  0
LINE
  5
164A
330
6C
100
AcDbEntity
  8
Visible (ISO)
100
AcDbLine
 10
9190.251065389098
 20
5821.092730191184
 30
0.0
 11
9165.251065389098
 21
5821.092730191184
 31
0.0
  0
LINE
  5
164B
330
6C
100
AcDbEntity
  8
Visible (ISO)
100
AcDbLine
 10
9190.251065389098
 20
5881.392730191183
 30
0.0
 11
9165.251065389098
 21
5881.392730191183
 31
0.0
  0
CIRCLE
  5
164C
330
6C
100
AcDbEntity
  8
Visible (ISO)
100
AcDbCircle
 10
9248.751065389097
 20
5761.242730191181
 30
0.0
 40
34.99999999999972
  0
LINE
  5
164D
330
6C
100
AcDbEntity
  8
Visible (ISO)
100
AcDbLine
 10
9198.751065389096
 20
5684.242730191182
 30
0.0
 11
9298.751065389099
 21
5684.242730191182
 31
0.0
  0
LINE
  5
164E
330
6C
100
AcDbEntity
  8
Visible (ISO)
100
AcDbLine
 10
9298.751065389099
 20
5692.242730191181
 30
0.0
 11
9298.751065389099
 21
5684.242730191182
 31
0.0
  0
LINE
  5
164F
330
6C
100
AcDbEntity
  8
Visible (ISO)
100
AcDbLine
 10
9198.751065389096
 20
5684.242730191182
 30
0.0
 11
9198.751065389096
 21
5692.242730191181
 31
0.0
  0
ARC
  5
1650
330
6C
100
AcDbEntity
  8
Visible (ISO)
100
AcDbCircle
 10
9248.751065389097
 20
5761.242730191181
 30
0.0
 40
57.00000000000008
100
AcDbArc
 50
0.0
 51
180.0
  0
LINE
  5
1651
330
6C
100
AcDbEntity
  8
Visible (ISO)
100
AcDbLine
 10
9191.751065389098
 20
5702.242730191181
 30
0.0
 11
9191.751065389098
 21
5761.242730191181
 31
0.0
  0
LINE
  5
1652
330
6C
100
AcDbEntity
  8
Visible (ISO)
100
AcDbLine
 10
9305.751065389097
 20
5761.242730191181
 30
0.0
 11
9305.751065389097
 21
5702.242730191182
 31
0.0
  0
LINE
  5
1653
330
6C
100
AcDbEntity
  8
Visible Narrow (ISO)
100
AcDbLine
 10
9300.051065389096
 20
5702.242730191182
 30
0.0
 11
9197.451065389097
 21
5702.242730191181
 31
0.0
  0
LINE
  5
1654
330
6C
100
AcDbEntity
  8
Visible (ISO)
100
AcDbLine
 10
9305.751065389097
 20
5692.242730191182
 30
0.0
 11
9191.751065389098
 21
5692.242730191181
 31
0.0
  0
LINE
  5
1655
330
6C
100
AcDbEntity
  8
Visible (ISO)
100
AcDbLine
 10
9191.751065389098
 20
5702.242730191181
 30
0.0
 11
9191.751065389098
 21
5692.242730191181
 31
0.0
  0
LINE
  5
1656
330
6C
100
AcDbEntity
  8
Visible (ISO)
100
AcDbLine
 10
9305.751065389097
 20
5692.242730191182
 30
0.0
 11
9305.751065389097
 21
5702.242730191182
 31
0.0
  0
LINE
  5
1657
330
6C
100
AcDbEntity
  8
Visible (ISO)
100
AcDbLine
 10
9294.751065389098
 20
5896.242730191186
 30
0.0
 11
9294.751065389098
 21
5806.242730191183
 31
0.0
  0
LINE
  5
1658
330
6C
100
AcDbEntity
  8
Visible (ISO)
100
AcDbLine
 10
9202.751065389097
 20
5806.242730191183
 30
0.0
 11
9202.751065389097
 21
5896.242730191186
 31
0.0
  0
LINE
  5
1659
330
6C
100
AcDbEntity
  8
Visible (ISO)
100
AcDbLine
 10
9294.751065389098
 20
5806.242730191183
 30
0.0
 11
9283.736776758169
 21
5806.242730191183
 31
0.0
  0
LINE
  5
165A
330
6C
100
AcDbEntity
  8
Visible (ISO)
100
AcDbLine
 10
9213.765354020027
 20
5806.242730191183
 30
0.0
 11
9202.751065389097
 21
5806.242730191183
 31
0.0
  0
LINE
  5
165B
330
6C
100
AcDbEntity
  8
Visible (ISO)
100
AcDbLine
 10
9294.751065389098
 20
5896.242730191186
 30
0.0
 11
9202.751065389097
 21
5896.242730191186
 31
0.0
  0
LINE
  5
165C
330
6C
100
AcDbEntity
  8
Visible (ISO)
100
AcDbLine
 10
9298.751065389099
 20
5896.242730121807
 30
0.0
 11
9298.751065389099
 21
5806.242730121809
 31
0.0
  0
LINE
  5
165D
330
6C
100
AcDbEntity
  8
Visible (ISO)
100
AcDbLine
 10
9295.751065389099
 20
5896.242730121807
 30
0.0
 11
9295.751065389099
 21
5806.242730121809
 31
0.0
  0
LINE
  5
165E
330
6C
100
AcDbEntity
  8
Visible (ISO)
100
AcDbLine
 10
9295.751065389099
 20
5896.242730121807
 30
0.0
 11
9298.751065389099
 21
5896.242730121807
 31
0.0
  0
LINE
  5
165F
330
6C
100
AcDbEntity
  8
Visible (ISO)
100
AcDbLine
 10
9295.751065389099
 20
5806.242730121809
 30
0.0
 11
9298.751065389099
 21
5806.242730121809
 31
0.0
  0
LINE
  5
1660
330
6C
100
AcDbEntity
  8
Visible (ISO)
100
AcDbLine
 10
9198.751065389096
 20
5806.242730121809
 30
0.0
 11
9198.751065389096
 21
5896.242730121807
 31
0.0
  0
LINE
  5
1661
330
6C
100
AcDbEntity
  8
Visible (ISO)
100
AcDbLine
 10
9201.751065389096
 20
5806.242730121809
 30
0.0
 11
9201.751065389096
 21
5896.242730121807
 31
0.0
  0
LINE
  5
1662
330
6C
100
AcDbEntity
  8
Visible (ISO)
100
AcDbLine
 10
9201.751065389096
 20
5806.242730121809
 30
0.0
 11
9198.751065389096
 21
5806.242730121809
 31
0.0
  0
LINE
  5
1663
330
6C
100
AcDbEntity
  8
Visible (ISO)
100
AcDbLine
 10
9201.751065389096
 20
5896.242730121807
 30
0.0
 11
9198.751065389096
 21
5896.242730121807
 31
0.0
  0
LINE
  5
1664
330
6C
100
AcDbEntity
  8
Visible (ISO)
100
AcDbLine
 10
9301.751065389099
 20
5894.422179662952
 30
0.0
 11
9301.751065389099
 21
5806.242730121808
 31
0.0
  0
LINE
  5
1665
330
6C
100
AcDbEntity
  8
Visible (ISO)
100
AcDbLine
 10
9298.751065389099
 20
5896.242730121809
 30
0.0
 11
9298.751065389099
 21
5806.242730121808
 31
0.0
  0
LINE
  5
1666
330
6C
100
AcDbEntity
  8
Visible (ISO)
100
AcDbLine
 10
9298.751065389099
 20
5896.242730121809
 30
0.0
 11
9300.251065481599
 21
5896.242730121809
 31
0.0
  0
LINE
  5
1667
330
6C
100
AcDbEntity
  8
Visible (ISO)
100
AcDbLine
 10
9298.751065389099
 20
5806.242730121808
 30
0.0
 11
9301.751065389099
 21
5806.242730121808
 31
0.0
  0
LINE
  5
1668
330
6C
100
AcDbEntity
  8
Visible (ISO)
100
AcDbLine
 10
9195.751065389096
 20
5806.242730121808
 30
0.0
 11
9195.751065389096
 21
5894.422179662953
 31
0.0
  0
LINE
  5
1669
330
6C
100
AcDbEntity
  8
Visible (ISO)
100
AcDbLine
 10
9198.751065389096
 20
5806.242730121808
 30
0.0
 11
9198.751065389096
 21
5896.242730121809
 31
0.0
  0
LINE
  5
166A
330
6C
100
AcDbEntity
  8
Visible (ISO)
100
AcDbLine
 10
9198.751065389096
 20
5806.242730121808
 30
0.0
 11
9195.751065389096
 21
5806.242730121808
 31
0.0
  0
LINE
  5
166B
330
6C
100
AcDbEntity
  8
Visible (ISO)
100
AcDbLine
 10
9198.751065389096
 20
5896.242730121809
 30
0.0
 11
9197.251065296596
 21
5896.242730121809
 31
0.0
  0
LINE
  5
166C
330
6C
100
AcDbEntity
  8
Visible (ISO)
100
AcDbLine
 10
9013.251065389097
 20
5937.242730191182
 30
0.0
 11
9013.251065389097
 21
5942.242730191183
 31
0.0
  0
LINE
  5
166D
330
6C
100
AcDbEntity
  8
Visible Narrow (ISO)
100
AcDbLine
 10
9482.101065389095
 20
5937.242730191184
 30
0.0
 11
9443.401065389096
 21
5937.242730191184
 31
0.0
  0
LINE
  5
166E
330
6C
100
AcDbEntity
  8
Visible Narrow (ISO)
100
AcDbLine
 10
9386.001065389095
 20
5937.242730191184
 30
0.0
 11
9111.501065389097
 21
5937.242730191182
 31
0.0
  0
LINE
  5
166F
330
6C
100
AcDbEntity
  8
Visible Narrow (ISO)
100
AcDbLine
 10
9054.101065389097
 20
5937.242730191182
 30
0.0
 11
9015.401065389095
 21
5937.242730191182
 31
0.0
  0
LINE
  5
1670
330
6C
100
AcDbEntity
  8
Visible (ISO)
100
AcDbLine
 10
9484.251065389097
 20
5942.242730191184
 30
0.0
 11
9484.251065389097
 21
5937.242730191184
 31
0.0
  0
LINE
  5
1671
330
6C
100
AcDbEntity
  8
Visible (ISO)
100
AcDbLine
 10
9013.251065389097
 20
5937.242730191182
 30
0.0
 11
9013.251065389097
 21
5907.242730191182
 31
0.0
  0
LINE
  5
1672
330
6C
100
AcDbEntity
  8
Visible Narrow (ISO)
100
AcDbLine
 10
9460.701065389095
 20
5907.242730191184
 30
0.0
 11
9036.801065389097
 21
5907.242730191182
 31
0.0
  0
LINE
  5
1673
330
6C
100
AcDbEntity
  8
Visible (ISO)
100
AcDbLine
 10
9484.251065389097
 20
5907.242730191184
 30
0.0
 11
9484.251065389097
 21
5937.242730191184
 31
0.0
  0
LINE
  5
1674
330
6C
100
AcDbEntity
  8
Visible (ISO)
100
AcDbLine
 10
9484.251065389097
 20
5902.242730191183
 30
0.0
 11
9013.251065389097
 21
5902.242730191183
 31
0.0
  0
LINE
  5
1675
330
6C
100
AcDbEntity
  8
Visible (ISO)
100
AcDbLine
 10
9190.251065389098
 20
5805.242730191184
 30
0.0
 11
9190.251065389098
 21
5850.242730191183
 31
0.0
  0
LINE
  5
1676
330
6C
100
AcDbEntity
  8
Visible (ISO)
100
AcDbLine
 10
9195.251065389097
 20
5850.242730191183
 30
0.0
 11
9195.251065389097
 21
5805.242730191184
 31
0.0
  0
LINE
  5
1677
330
6C
100
AcDbEntity
  8
Visible Narrow (ISO)
100
AcDbLine
 10
9195.001065389098
 20
5850.242730191183
 30
0.0
 11
9190.501065389097
 21
5850.242730191183
 31
0.0
  0
LINE
  5
1678
330
6C
100
AcDbEntity
  8
Visible (ISO)
100
AcDbLine
 10
9307.251065389097
 20
5850.242730191183
 30
0.0
 11
9307.251065389097
 21
5805.242730191184
 31
0.0
  0
LINE
  5
1679
330
6C
100
AcDbEntity
  8
Visible Narrow (ISO)
100
AcDbLine
 10
9307.001065389098
 20
5850.242730191183
 30
0.0
 11
9302.501065389098
 21
5850.242730191183
 31
0.0
  0
LINE
  5
167A
330
6C
100
AcDbEntity
  8
Visible (ISO)
100
AcDbLine
 10
9302.251065389098
 20
5805.242730191184
 30
0.0
 11
9302.251065389098
 21
5850.242730191183
 31
0.0
  0
LINE
  5
167B
330
6C
100
AcDbEntity
  8
Visible (ISO)
100
AcDbLine
 10
9195.251065389097
 20
5805.242730191184
 30
0.0
 11
9190.251065389098
 21
5805.242730191184
 31
0.0
  0
LINE
  5
167C
330
6C
100
AcDbEntity
  8
Visible (ISO)
100
AcDbLine
 10
9302.251065389098
 20
5805.242730191184
 30
0.0
 11
9307.251065389097
 21
5805.242730191184
 31
0.0
  0
LINE
  5
167D
330
6C
100
AcDbEntity
  8
Visible (ISO)
100
AcDbLine
 10
9190.251065389098
 20
5892.242730191183
 30
0.0
 11
9190.251065389098
 21
5850.242730191183
 31
0.0
  0
LINE
  5
167E
330
6C
100
AcDbEntity
  8
Visible (ISO)
100
AcDbLine
 10
9307.251065389097
 20
5850.242730191183
 30
0.0
 11
9307.251065389097
 21
5892.242730191183
 31
0.0
  0
LINE
  5
167F
330
6C
100
AcDbEntity
  8
Visible Narrow (ISO)
100
AcDbLine
 10
9307.001065389098
 20
5892.242730191183
 30
0.0
 11
9302.501065389098
 21
5892.242730191183
 31
0.0
  0
LINE
  5
1680
330
6C
100
AcDbEntity
  8
Visible (ISO)
100
AcDbLine
 10
9302.251065389098
 20
5892.242730191183
 30
0.0
 11
9302.251065389098
 21
5850.242730191183
 31
0.0
  0
LINE
  5
1681
330
6C
100
AcDbEntity
  8
Visible Narrow (ISO)
100
AcDbLine
 10
9297.251065389099
 20
5901.992730191182
 30
0.0
 11
9297.251065389099
 21
5897.492730191183
 31
0.0
  0
LINE
  5
1682
330
6C
100
AcDbEntity
  8
Visible Narrow (ISO)
100
AcDbLine
 10
9200.251065389096
 20
5901.992730191182
 30
0.0
 11
9200.251065389096
 21
5897.492730191183
 31
0.0
  0
LINE
  5
1683
330
6C
100
AcDbEntity
  8
Visible Narrow (ISO)
100
AcDbLine
 10
9190.501065389097
 20
5892.242730191183
 30
0.0
 11
9195.001065389098
 21
5892.242730191183
 31
0.0
  0
LINE
  5
1684
330
6C
100
AcDbEntity
  8
Visible (ISO)
100
AcDbLine
 10
9200.251065389096
 20
5897.242730191184
 30
0.0
 11
9297.251065389099
 21
5897.242730191184
 31
0.0
  0
LINE
  5
1685
330
6C
100
AcDbEntity
  8
Visible (ISO)
100
AcDbLine
 10
9195.251065389097
 20
5850.242730191183
 30
0.0
 11
9195.251065389097
 21
5892.242730191183
 31
0.0
  0
ARC
  5
1686
330
6C
100
AcDbEntity
  8
Visible (ISO)
100
AcDbCircle
 10
9297.251065389099
 20
5892.242730191183
 30
0.0
 40
5.000000000000014
100
AcDbArc
 50
0.0
 51
90.0
  0
ARC
  5
1687
330
6C
100
AcDbEntity
  8
Visible (ISO)
100
AcDbCircle
 10
9297.251065389099
 20
5892.242730191183
 30
0.0
 40
10.00000000000001
100
AcDbArc
 50
0.0
 51
90.0
  0
ARC
  5
1688
330
6C
100
AcDbEntity
  8
Visible (ISO)
100
AcDbCircle
 10
9200.251065389096
 20
5892.242730191183
 30
0.0
 40
5.000000000000008
100
AcDbArc
 50
90.0
 51
180.0
  0
ARC
  5
1689
330
6C
100
AcDbEntity
  8
Visible (ISO)
100
AcDbCircle
 10
9200.251065389096
 20
5892.242730191183
 30
0.0
 40
10.0
100
AcDbArc
 50
90.0
 51
180.0
  0
LINE
  5
168A
330
6C
100
AcDbEntity
  8
Visible (ISO)
100
AcDbLine
 10
9441.251065389097
 20
5937.242730191184
 30
0.0
 11
9441.251065389097
 21
5942.242730191183
 31
0.0
  0
LINE
  5
168B
330
6C
100
AcDbEntity
  8
Visible (ISO)
100
AcDbLine
 10
9401.251065389097
 20
5937.242730191184
 30
0.0
 11
9401.251065389097
 21
5942.242730191183
 31
0.0
  0
LINE
  5
168C
330
6C
100
AcDbEntity
  8
Visible (ISO)
100
AcDbLine
 10
9441.251065389097
 20
5937.242730191184
 30
0.0
 11
9401.251065389097
 21
5937.242730191184
 31
0.0
  0
LINE
  5
168D
330
6C
100
AcDbEntity
  8
Visible (ISO)
100
AcDbLine
 10
9583.973737768053
 20
5951.208699943482
 30
0.0
 11
9583.345593415831
 21
5955.678179248571
 31
0.0
  0
LINE
  5
168E
330
6C
100
AcDbEntity
  8
Visible (ISO)
100
AcDbLine
 10
9544.363015018388
 20
5945.64177590508
 30
0.0
 11
9543.734870666167
 21
5950.111255210169
 31
0.0
  0
LINE
  5
168F
330
6C
100
AcDbEntity
  8
Visible (ISO)
100
AcDbLine
 10
9583.973737768053
 20
5951.208699943483
 30
0.0
 11
9544.363015018388
 21
5945.64177590508
 31
0.0
  0
LINE
  5
1690
330
6C
100
AcDbEntity
  8
Visible (ISO)
100
AcDbLine
 10
9096.251065389095
 20
5937.242730191182
 30
0.0
 11
9096.251065389095
 21
5942.242730191182
 31
0.0
  0
LINE
  5
1691
330
6C
100
AcDbEntity
  8
Visible (ISO)
100
AcDbLine
 10
9056.251065389096
 20
5937.242730191182
 30
0.0
 11
9056.251065389096
 21
5942.242730191182
 31
0.0
  0
LINE
  5
1692
330
6C
100
AcDbEntity
  8
Visible (ISO)
100
AcDbLine
 10
9096.251065389095
 20
5937.242730191182
 30
0.0
 11
9056.251065389096
 21
5937.242730191182
 31
0.0
  0
LINE
  5
1693
330
6C
100
AcDbEntity
  8
Visible (ISO)
100
AcDbLine
 10
8953.139115759801
 20
5945.641775905079
 30
0.0
 11
8953.767260112023
 21
5950.111255210167
 31
0.0
  0
LINE
  5
1694
330
6C
100
AcDbEntity
  8
Visible (ISO)
100
AcDbLine
 10
8913.528393010137
 20
5951.208699943482
 30
0.0
 11
8914.156537362361
 21
5955.67817924857
 31
0.0
  0
LINE
  5
1695
330
6C
100
AcDbEntity
  8
Visible (ISO)
100
AcDbLine
 10
8953.139115759801
 20
5945.64177590508
 30
0.0
 11
8913.528393010137
 21
5951.208699943482
 31
0.0
  0
LINE
  5
1696
330
6C
100
AcDbEntity
  8
Visible (ISO)
100
AcDbLine
 10
9484.251065389097
 20
5901.849627290438
 30
0.0
 11
9484.251065389097
 21
5906.898765153033
 31
0.0
  0
LINE
  5
1697
330
6C
100
AcDbEntity
  8
Visible (ISO)
100
AcDbLine
 10
9484.251065389097
 20
5937.193592328591
 30
0.0
 11
9484.251065389097
 21
5906.898765153033
 31
0.0
  0
LINE
  5
1698
330
6C
100
AcDbEntity
  8
Visible (ISO)
100
AcDbLine
 10
9588.844796301655
 20
5916.549317537527
 30
0.0
 11
9484.251065389097
 21
5901.849627290438
 31
0.0
  0
LINE
  5
1699
330
6C
100
AcDbEntity
  8
Visible Narrow (ISO)
100
AcDbLine
 10
9582.954037526468
 20
5920.770563244825
 30
0.0
 11
9489.445958659484
 21
5907.628859789442
 31
0.0
  0
LINE
  5
169A
330
6C
100
AcDbEntity
  8
Visible Narrow (ISO)
100
AcDbLine
 10
9541.357417536925
 20
5945.219366726256
 30
0.0
 11
9487.256662870562
 21
5937.616001507414
 31
0.0
  0
LINE
  5
169B
330
6C
100
AcDbEntity
  8
Visible (ISO)
100
AcDbLine
 10
9588.148930796855
 20
5921.500657881234
 30
0.0
 11
9583.973737768053
 21
5951.208699943482
 31
0.0
  0
LINE
  5
169C
330
6C
100
AcDbEntity
  8
Visible (ISO)
100
AcDbLine
 10
9013.251065389097
 20
5906.89876515303
 30
0.0
 11
9013.251065389097
 21
5937.193592328589
 31
0.0
  0
LINE
  5
169D
330
6C
100
AcDbEntity
  8
Visible (ISO)
100
AcDbLine
 10
9013.251065389097
 20
5906.89876515303
 30
0.0
 11
9013.251065389097
 21
5901.849627290438
 31
0.0
  0
LINE
  5
169E
330
6C
100
AcDbEntity
  8
Visible (ISO)
100
AcDbLine
 10
8908.657334476536
 20
5916.549317537526
 30
0.0
 11
9013.251065389097
 21
5901.849627290438
 31
0.0
  0
LINE
  5
169F
330
6C
100
AcDbEntity
  8
Visible Narrow (ISO)
100
AcDbLine
 10
8914.548093251726
 20
5920.770563244825
 30
0.0
 11
9008.056172118708
 21
5907.628859789441
 31
0.0
  0
LINE
  5
16A0
330
6C
100
AcDbEntity
  8
Visible Narrow (ISO)
100
AcDbLine
 10
8956.144713241267
 20
5945.219366726255
 30
0.0
 11
9010.245467907632
 21
5937.616001507414
 31
0.0
  0
LINE
  5
16A1
330
6C
100
AcDbEntity
  8
Visible (ISO)
100
AcDbLine
 10
8913.528393010139
 20
5951.208699943482
 30
0.0
 11
8909.353199981337
 21
5921.500657881233
 31
0.0
  0
ARC
  5
16A2
330
6C
100
AcDbEntity
  8
Visible (ISO)
100
AcDbCircle
 10
9332.251065389097
 20
5851.242730191184
 30
0.0
 40
30.1
100
AcDbArc
 50
270.0
 51
90.0
  0
CIRCLE
  5
16A3
330
6C
100
AcDbEntity
  8
Visible (ISO)
100
AcDbCircle
 10
9248.751065389097
 20
5761.242730191181
 30
0.0
 40
30.10000000000007
  0
ARC
  5
16A4
330
6C
100
AcDbEntity
  8
Visible (ISO)
100
AcDbCircle
 10
9165.251065389098
 20
5851.242730191184
 30
0.0
 40
30.1
100
AcDbArc
 50
90.0
 51
270.0
  0
LINE
  5
16A5
330
6C
100
AcDbEntity
  8
Visible (ISO)
100
AcDbLine
 10
9168.751065389095
 20
5613.242730191181
 30
0.0
 11
9168.751065389095
 21
5615.242730191182
 31
0.0
  0
LINE
  5
16A6
330
6C
100
AcDbEntity
  8
Visible (ISO)
100
AcDbLine
 10
9188.751065389096
 20
5613.242730191181
 30
0.0
 11
9188.751065389096
 21
5615.242730191182
 31
0.0
  0
LINE
  5
16A7
330
6C
100
AcDbEntity
  8
Visible (ISO)
100
AcDbLine
 10
9308.751065389097
 20
5613.242730191182
 30
0.0
 11
9308.751065389097
 21
5615.242730191183
 31
0.0
  0
LINE
  5
16A8
330
6C
100
AcDbEntity
  8
Visible (ISO)
100
AcDbLine
 10
9328.7510653891
 20
5613.242730191182
 30
0.0
 11
9328.7510653891
 21
5615.242730191183
 31
0.0
  0
LINE
  5
16A9
330
6C
100
AcDbEntity
  8
Visible (ISO)
100
AcDbLine
 10
9173.751065389096
 20
5591.163005191181
 30
0.0
 11
9183.751065389094
 21
5591.163005191181
 31
0.0
  0
LINE
  5
16AA
330
6C
100
AcDbEntity
  8
Visible (ISO)
100
AcDbLine
 10
9182.830890389096
 20
5590.242730191182
 30
0.0
 11
9174.671240389098
 21
5590.242730191182
 31
0.0
  0
LINE
  5
16AB
330
6C
100
AcDbEntity
  8
Visible (ISO)
100
AcDbLine
 10
9174.671240389098
 20
5590.242730191182
 30
0.0
 11
9173.751065389096
 21
5591.163005191181
 31
0.0
  0
LINE
  5
16AC
330
6C
100
AcDbEntity
  8
Visible (ISO)
100
AcDbLine
 10
9182.830890389096
 20
5590.242730191182
 30
0.0
 11
9183.751065389094
 21
5591.163005191181
 31
0.0
  0
LINE
  5
16AD
330
6C
100
AcDbEntity
  8
Visible (ISO)
100
AcDbLine
 10
9183.751065389094
 20
5593.242730191182
 30
0.0
 11
9183.751065389094
 21
5591.163005191181
 31
0.0
  0
LINE
  5
16AE
330
6C
100
AcDbEntity
  8
Visible (ISO)
100
AcDbLine
 10
9173.751065389096
 20
5593.242730191182
 30
0.0
 11
9173.751065389096
 21
5591.163005191181
 31
0.0
  0
LINE
  5
16AF
330
6C
100
AcDbEntity
  8
Visible (ISO)
100
AcDbLine
 10
9313.751065389098
 20
5591.163005191181
 30
0.0
 11
9323.7510653891
 21
5591.163005191181
 31
0.0
  0
LINE
  5
16B0
330
6C
100
AcDbEntity
  8
Visible (ISO)
100
AcDbLine
 10
9322.830890389097
 20
5590.242730191182
 30
0.0
 11
9314.671240389101
 21
5590.242730191182
 31
0.0
  0
LINE
  5
16B1
330
6C
100
AcDbEntity
  8
Visible (ISO)
100
AcDbLine
 10
9314.671240389101
 20
5590.242730191182
 30
0.0
 11
9313.751065389098
 21
5591.163005191181
 31
0.0
  0
LINE
  5
16B2
330
6C
100
AcDbEntity
  8
Visible (ISO)
100
AcDbLine
 10
9322.830890389097
 20
5590.242730191182
 30
0.0
 11
9323.7510653891
 21
5591.163005191181
 31
0.0
  0
LINE
  5
16B3
330
6C
100
AcDbEntity
  8
Visible (ISO)
100
AcDbLine
 10
9323.7510653891
 20
5593.242730191182
 30
0.0
 11
9323.7510653891
 21
5591.163005191181
 31
0.0
  0
LINE
  5
16B4
330
6C
100
AcDbEntity
  8
Visible (ISO)
100
AcDbLine
 10
9313.751065389098
 20
5593.242730191182
 30
0.0
 11
9313.751065389098
 21
5591.163005191181
 31
0.0
  0
LINE
  5
16B5
330
6C
100
AcDbEntity
  8
Visible Narrow (ISO)
100
AcDbLine
 10
9189.418099467523
 20
5624.842756683317
 30
0.0
 11
9168.084031310669
 21
5624.842756683317
 31
0.0
  0
LINE
  5
16B6
330
6C
100
AcDbEntity
  8
Visible Narrow (ISO)
100
AcDbLine
 10
9168.574280798448
 20
5625.342743437249
 30
0.0
 11
9188.927849979746
 21
5625.342743437249
 31
0.0
  0
LINE
  5
16B7
330
6C
100
AcDbEntity
  8
Visible Narrow (ISO)
100
AcDbLine
 10
9169.06450325777
 20
5625.837499070771
 30
0.0
 11
9188.437627520425
 21
5625.837499070771
 31
0.0
  0
ARC
  5
16B8
330
6C
100
AcDbEntity
  8
Visible (ISO)
100
AcDbCircle
 10
9189.051065389099
 20
5624.842756683317
 30
0.0
 40
0.5
100
AcDbArc
 50
0.0
 51
89.58294140471968
  0
ARC
  5
16B9
330
6C
100
AcDbEntity
  8
Visible (ISO)
100
AcDbCircle
 10
9168.451065389096
 20
5624.842756683317
 30
0.0
 40
0.5
100
AcDbArc
 50
90.41705859528031
 51
180.0
  0
ARC
  5
16BA
330
6C
100
AcDbEntity
  8
Visible (ISO)
100
AcDbCircle
 10
9189.058344370478
 20
5625.842730191181
 30
0.0
 40
0.5
100
AcDbArc
 50
180.5994531794572
 51
269.5829414047197
  0
ARC
  5
16BB
330
6C
100
AcDbEntity
  8
Visible (ISO)
100
AcDbCircle
 10
9168.443786407717
 20
5625.842730191181
 30
0.0
 40
0.5
100
AcDbArc
 50
270.4170585949675
 51
359.4005468203995
  0
LINE
  5
16BC
330
6C
100
AcDbEntity
  8
Visible (ISO)
100
AcDbLine
 10
9189.551065389096
 20
5615.242730191182
 30
0.0
 11
9167.951065389095
 21
5615.242730191182
 31
0.0
  0
LINE
  5
16BD
330
6C
100
AcDbEntity
  8
Visible (ISO)
100
AcDbLine
 10
9189.551065389096
 20
5624.842756683317
 30
0.0
 11
9189.551065389096
 21
5615.242730191182
 31
0.0
  0
LINE
  5
16BE
330
6C
100
AcDbEntity
  8
Visible (ISO)
100
AcDbLine
 10
9167.951065389095
 20
5624.842756683317
 30
0.0
 11
9167.951065389095
 21
5615.242730191182
 31
0.0
  0
ARC
  5
16BF
330
6C
100
AcDbEntity
  8
Visible (ISO)
100
AcDbCircle
 10
9178.751065389098
 20
5625.734887053926
 30
0.0
 40
9.807843137254902
100
AcDbArc
 50
0.5994531795483901
 51
179.4005468204516
  0
LINE
  5
16C0
330
6C
100
AcDbEntity
  8
Visible Narrow (ISO)
100
AcDbLine
 10
9329.418099467526
 20
5624.842756683318
 30
0.0
 11
9308.08403131067
 21
5624.842756683318
 31
0.0
  0
LINE
  5
16C1
330
6C
100
AcDbEntity
  8
Visible Narrow (ISO)
100
AcDbLine
 10
9308.574280798451
 20
5625.342743437251
 30
0.0
 11
9328.927849979747
 21
5625.342743437251
 31
0.0
  0
LINE
  5
16C2
330
6C
100
AcDbEntity
  8
Visible Narrow (ISO)
100
AcDbLine
 10
9309.064503279488
 20
5625.837499070772
 30
0.0
 11
9328.437627521571
 21
5625.837499070772
 31
0.0
  0
ARC
  5
16C3
330
6C
100
AcDbEntity
  8
Visible (ISO)
100
AcDbCircle
 10
9329.0510653891
 20
5624.842756683318
 30
0.0
 40
0.4999999999999998
100
AcDbArc
 50
0.0
 51
89.58294140471968
  0
ARC
  5
16C4
330
6C
100
AcDbEntity
  8
Visible (ISO)
100
AcDbCircle
 10
9308.451065389098
 20
5624.842756683318
 30
0.0
 40
0.4999999999999998
100
AcDbArc
 50
90.41705859528031
 51
180.0
  0
ARC
  5
16C5
330
6C
100
AcDbEntity
  8
Visible (ISO)
100
AcDbCircle
 10
9329.058344370478
 20
5625.842730191184
 30
0.0
 40
0.4999999999999998
100
AcDbArc
 50
180.5994531794572
 51
269.5829414047197
  0
ARC
  5
16C6
330
6C
100
AcDbEntity
  8
Visible (ISO)
100
AcDbCircle
 10
9308.443786407719
 20
5625.842730191184
 30
0.0
 40
0.4999999999999998
100
AcDbArc
 50
270.4170585949675
 51
359.4005468203995
  0
LINE
  5
16C7
330
6C
100
AcDbEntity
  8
Visible (ISO)
100
AcDbLine
 10
9329.5510653891
 20
5615.242730191183
 30
0.0
 11
9307.951065389097
 21
5615.242730191183
 31
0.0
  0
LINE
  5
16C8
330
6C
100
AcDbEntity
  8
Visible (ISO)
100
AcDbLine
 10
9329.5510653891
 20
5624.842756683318
 30
0.0
 11
9329.5510653891
 21
5615.242730191183
 31
0.0
  0
LINE
  5
16C9
330
6C
100
AcDbEntity
  8
Visible (ISO)
100
AcDbLine
 10
9307.951065389097
 20
5624.842756683318
 30
0.0
 11
9307.951065389097
 21
5615.242730191183
 31
0.0
  0
ARC
  5
16CA
330
6C
100
AcDbEntity
  8
Visible (ISO)
100
AcDbCircle
 10
9318.751065389099
 20
5625.734887053927
 30
0.0
 40
9.807843137254895
100
AcDbArc
 50
0.5994531795483901
 51
179.4005468204516
  0
SPLINE
  5
16CB
330
6C
100
AcDbEntity
  8
Visible (ISO)
100
AcDbSpline
210
0.0
220
0.0
230
1.0
 70
     8
 71
     3
 72
     8
 73
     4
 74
     0
 42
0.0000000001
 43
0.0000000001
 40
-1.074971199412498
 40
-1.074971199412498
 40
-1.074971199412498
 40
-1.074971199412498
 40
-1.058865738415792
 40
-1.058865738415792
 40
-1.058865738415792
 40
-1.058865738415792
 10
9484.251065389097
 20
5942.242730191184
 30
0.0
 10
9486.588452780146
 20
5942.242730191184
 30
0.0
 10
9488.915543285317
 20
5942.406901182238
 30
0.0
 10
9491.209720437097
 20
5942.729326754105
 30
0.0
  0
LINE
  5
16CC
330
6C
100
AcDbEntity
  8
Visible (ISO)
100
AcDbLine
 10
9489.400470124619
 20
5955.602811647747
 30
0.0
 11
9491.209720437097
 21
5942.729326754105
 31
0.0
  0
LINE
  5
16CD
330
6C
100
AcDbEntity
  8
Visible (ISO)
100
AcDbLine
 10
9484.251065389097
 20
5955.242730191184
 30
0.0
 11
9484.251065389097
 21
5942.242730191184
 31
0.0
  0
LINE
  5
16CE
330
6C
100
AcDbEntity
  8
Visible (ISO)
100
AcDbLine
 10
9484.251065389097
 20
5942.242730191184
 30
0.0
 11
9013.251065389098
 21
5942.242730191184
 31
0.0
  0
LINE
  5
16CF
330
6C
100
AcDbEntity
  8
Visible (ISO)
100
AcDbLine
 10
9013.251065389098
 20
5942.242730191183
 30
0.0
 11
9013.251065389118
 21
5955.242730191184
 31
0.0
  0
LINE
  5
16D0
330
6C
100
AcDbEntity
  8
Visible (ISO)
100
AcDbLine
 10
9006.292410341094
 20
5942.729326754105
 30
0.0
 11
9008.101660653576
 21
5955.602811647746
 31
0.0
  0
SPLINE
  5
16D1
330
6C
100
AcDbEntity
  8
Visible (ISO)
100
AcDbSpline
210
0.0
220
0.0
230
1.0
 70
     8
 71
     3
 72
     8
 73
     4
 74
     0
 42
0.0000000001
 43
0.0000000001
 40
-2.082726915174001
 40
-2.082726915174001
 40
-2.082726915174001
 40
-2.082726915174001
 40
-2.066621454177295
 40
-2.066621454177295
 40
-2.066621454177295
 40
-2.066621454177295
 10
9006.292410341094
 20
5942.729326754105
 30
0.0
 10
9008.586587492876
 20
5942.406901182238
 30
0.0
 10
9010.913677998049
 20
5942.242730191183
 30
0.0
 10
9013.251065389098
 20
5942.242730191183
 30
0.0
  0
LINE
  5
16D2
330
6C
100
AcDbEntity
  8
Visible (ISO)
100
AcDbLine
 10
9006.292410341094
 20
5942.729326754104
 30
0.0
 11
8756.231221813418
 21
5977.873134916456
 31
0.0
  0
LINE
  5
16D3
330
6C
100
AcDbEntity
  8
Visible (ISO)
100
AcDbLine
 10
9741.270908964775
 20
5977.873134916457
 30
0.0
 11
9491.209720437097
 21
5942.729326754105
 31
0.0
  0
LINE
  5
16D4
330
6C
100
AcDbEntity
  8
Visible (ISO)
100
AcDbLine
 10
8758.0404721259
 20
5990.746619810096
 30
0.0
 11
8756.23122181342
 21
5977.873134916456
 31
0.0
  0
LINE
  5
16D5
330
6C
100
AcDbEntity
  8
Visible (ISO)
100
AcDbLine
 10
9739.461658652295
 20
5990.746619810098
 30
0.0
 11
9741.270908964775
 21
5977.873134916457
 31
0.0
  0
SPLINE
  5
16D6
330
6C
100
AcDbEntity
  8
Visible (ISO)
100
AcDbSpline
210
0.0
220
0.0
230
1.0
 70
    24
 71
     3
 72
    34
 73
    30
 74
     0
 42
0.0000000001
 43
0.0000000001
 40
0.0000919121070098
 40
0.0000919121070098
 40
0.0000919121070098
 40
0.0000919121070098
 40
0.0143778262471788
 40
0.0143778262471788
 40
0.0434078559815276
 40
0.0434078559815276
 40
0.0724378857158765
 40
0.0724378857158765
 40
0.1156408772393698
 40
0.1156408772393698
 40
0.1567181889483762
 40
0.1567181889483762
 40
0.2197116719518198
 40
0.2197116719518198
 40
0.2716400471812692
 40
0.2716400471812692
 40
0.3235682775692861
 40
0.3235682775692861
 40
0.3499484596651783
 40
0.3499484596651783
 40
0.4124460135310483
 40
0.4124460135310483
 40
0.4936928335566793
 40
0.4936928335566793
 40
0.5934190442445019
 40
0.5934190442445019
 40
0.7241951824643325
 40
0.7241951824643325
 40
0.8653607596726702
 40
0.8653607596726702
 40
0.8653607596726702
 40
0.8653607596726702
 10
9733.81327700355
 20
5995.001929401059
 30
0.0
 10
9733.813294929715
 20
5995.001931920417
 30
0.0
 10
9733.730535147623
 20
5994.990300791561
 30
0.0
 10
9733.232370614386
 20
5994.920288332242
 30
0.0
 10
9732.558696144014
 20
5994.825609559858
 30
0.0
 10
9730.61891754517
 20
5994.552991456439
 30
0.0
 10
9729.35478184041
 20
5994.375328769314
 30
0.0
 10
9725.692357799282
 20
5993.86060863754
 30
0.0
 10
9723.009487826443
 20
5993.48355585216
 30
0.0
 10
9717.148447317699
 20
5992.659840326837
 30
0.0
 10
9714.00013088006
 20
5992.217373306782
 30
0.0
 10
9705.635703372099
 20
5991.041829683006
 30
0.0
 10
9700.144076228793
 20
5990.270031820411
 30
0.0
 10
9689.653612018719
 20
5988.795693223912
 30
0.0
 10
9684.73360764438
 20
5988.104231702403
 30
0.0
 10
9674.668861512762
 20
5986.689723879997
 30
0.0
 10
9669.523559530945
 20
5985.966598844679
 30
0.0
 10
9661.6897990086
 20
5984.865635602009
 30
0.0
 10
9659.030215713691
 20
5984.491855545782
 30
0.0
 10
9650.009384761037
 20
5983.224060433986
 30
0.0
 10
9643.566179693985
 20
5982.318527015705
 30
0.0
 10
9628.573854625315
 20
5980.211493136424
 30
0.0
 10
9619.972473569447
 20
5979.002647863238
 30
0.0
 10
9600.610192829854
 20
5976.281456766354
 30
0.0
 10
9589.802213739277
 20
5974.762494363518
 30
0.0
 10
9564.630374362955
 20
5971.224823046576
 30
0.0
 10
9550.206273331786
 20
5969.197647847824
 30
0.0
 10
9520.180120600267
 20
5964.977747280035
 30
0.0
 10
9504.481205003868
 20
5962.771408578194
 30
0.0
 10
9488.704604619817
 20
5960.554151991454
 30
0.0
  0
SPLINE
  5
16D7
330
6C
100
AcDbEntity
  8
Visible Narrow (ISO)
100
AcDbSpline
210
0.0
220
0.0
230
1.0
 70
     8
 71
     3
 72
     8
 73
     4
 74
     0
 42
0.0000000001
 43
0.0000000001
 40
-0.887518540018344
 40
-0.887518540018344
 40
-0.887518540018344
 40
-0.887518540018344
 40
-0.8690646215420587
 40
-0.8690646215420587
 40
-0.8690646215420587
 40
-0.8690646215420587
 10
9484.509530276923
 20
5955.243634293661
 30
0.0
 10
9486.060244303883
 20
5955.254482292167
 30
0.0
 10
9487.609376698888
 20
5955.362929034523
 30
0.0
 10
9489.14471093988
 20
5955.567777783596
 30
0.0
  0
SPLINE
  5
16D8
330
6C
100
AcDbEntity
  8
Visible (ISO)
100
AcDbSpline
210
0.0
220
0.0
230
1.0
 70
    24
 71
     3
 72
    16
 73
    12
 74
     0
 42
0.0000000001
 43
0.0000000001
 40
-0.7938607556741224
 40
-0.7938607556741224
 40
-0.7938607556741224
 40
-0.7938607556741224
 40
-0.6886437988554436
 40
-0.6886437988554436
 40
-0.5835694601217906
 40
-0.5835694601217906
 40
-0.3862410727767158
 40
-0.3862410727767158
 40
-0.1922831373445979
 40
-0.1922831373445979
 40
0.0
 40
0.0
 40
0.0
 40
0.0
 10
9488.704604619817
 20
5960.554151991454
 30
0.0
 10
9488.704604619817
 20
5960.554151991454
 30
0.0
 10
9488.709575869874
 20
5960.518779709332
 30
0.0
 10
9488.729309755761
 20
5960.378365815176
 30
0.0
 10
9488.744012514752
 20
5960.273750249016
 30
0.0
 10
9488.799667841783
 20
5959.877742020172
 30
0.0
 10
9488.851841487223
 20
5959.506507243111
 30
0.0
 10
9488.981426779874
 20
5958.584459975304
 30
0.0
 10
9489.057177559319
 20
5958.045465172816
 30
0.0
 10
9489.223001818741
 20
5956.865564258063
 30
0.0
 10
9489.311267989664
 20
5956.237517817979
 30
0.0
 10
9489.400470124619
 20
5955.602811647747
 30
0.0
  0
SPLINE
  5
16D9
330
6C
100
AcDbEntity
  8
Visible (ISO)
100
AcDbSpline
210
0.0
220
0.0
230
1.0
 70
     8
 71
     3
 72
     8
 73
     4
 74
     0
 42
0.0000000001
 43
0.0000000001
 40
0.8653607596726702
 40
0.8653607596726702
 40
0.8653607596726702
 40
0.8653607596726702
 40
0.8859657725253796
 40
0.8859657725253796
 40
0.8859657725253796
 40
0.8859657725253796
 10
9488.704604619817
 20
5960.554151991454
 30
0.0
 10
9487.230811002394
 20
5960.347023806281
 30
0.0
 10
9485.741465699364
 20
5960.242730191184
 30
0.0
 10
9484.251065389097
 20
5960.242730191184
 30
0.0
  0
SPLINE
  5
16DA
330
6C
100
AcDbEntity
  8
Visible (ISO)
100
AcDbSpline
210
0.0
220
0.0
230
1.0
 70
    24
 71
     3
 72
    16
 73
    12
 74
     0
 42
0.0000000001
 43
0.0000000001
 40
-0.793389393801172
 40
-0.793389393801172
 40
-0.793389393801172
 40
-0.793389393801172
 40
-0.6885023663127564
 40
-0.6885023663127564
 40
-0.5837467981682378
 40
-0.5837467981682378
 40
-0.386559578751207
 40
-0.386559578751207
 40
-0.1925012971639766
 40
-0.1925012971639766
 40
0.0
 40
0.0
 40
0.0
 40
0.0
 10
9484.251065389097
 20
5960.242730191184
 30
0.0
 10
9484.251065389097
 20
5960.242730191184
 30
0.0
 10
9484.251065389097
 20
5960.207150061719
 30
0.0
 10
9484.251065389097
 20
5960.065911033122
 30
0.0
 10
9484.251065389097
 20
5959.960675418357
 30
0.0
 10
9484.251065389097
 20
5959.561740605892
 30
0.0
 10
9484.251065389097
 20
5959.187229041588
 30
0.0
 10
9484.251065389097
 20
5958.256416003354
 30
0.0
 10
9484.251065389097
 20
5957.711831173749
 30
0.0
 10
9484.251065389097
 20
5956.519381633841
 30
0.0
 10
9484.251065389097
 20
5955.88440118173
 30
0.0
 10
9484.251065389097
 20
5955.242730191184
 30
0.0
  0
SPLINE
  5
16DB
330
6C
100
AcDbEntity
  8
Visible Narrow (ISO)
100
AcDbSpline
210
0.0
220
0.0
230
1.0
 70
    24
 71
     3
 72
    30
 73
    26
 74
     0
 42
0.0000000001
 43
0.0000000001
 40
-0.8246420292618381
 40
-0.8246420292618381
 40
-0.8246420292618381
 40
-0.8246420292618381
 40
-0.7241951824643325
 40
-0.7241951824643325
 40
-0.5934190442445019
 40
-0.5934190442445019
 40
-0.4936928335566793
 40
-0.4936928335566793
 40
-0.4124460135310483
 40
-0.4124460135310483
 40
-0.3499484596651783
 40
-0.3499484596651783
 40
-0.3235682775692861
 40
-0.3235682775692861
 40
-0.2716400471812692
 40
-0.2716400471812692
 40
-0.2197116719518198
 40
-0.2197116719518198
 40
-0.1567181889483762
 40
-0.1567181889483762
 40
-0.1156408772393698
 40
-0.1156408772393698
 40
-0.0724378857158765
 40
-0.0724378857158765
 40
-0.0434892866940871
 40
-0.0434892866940871
 40
-0.0434892866940871
 40
-0.0434892866940871
 10
9504.001840050488
 20
5957.654900364926
 30
0.0
 10
9515.250177194626
 20
5959.235751056176
 30
0.0
 10
9526.457492282991
 20
5960.810836473468
 30
0.0
 10
9552.135876404371
 20
5964.419698011695
 30
0.0
 10
9566.651970072118
 20
5966.45980193238
 30
0.0
 10
9592.008735270907
 20
5970.023462878771
 30
0.0
 10
9602.904224887145
 20
5971.554724083927
 30
0.0
 10
9622.446040193631
 20
5974.301147118701
 30
0.0
 10
9631.135585248017
 20
5975.522383033827
 30
0.0
 10
9646.30385453271
 20
5977.654144260089
 30
0.0
 10
9652.830240990807
 20
5978.5713680605
 30
0.0
 10
9661.982796030404
 20
5979.857675785425
 30
0.0
 10
9664.683174330406
 20
5980.23718920572
 30
0.0
 10
9672.643915580922
 20
5981.355998425917
 30
0.0
 10
9677.881539840432
 20
5982.092098511206
 30
0.0
 10
9688.152086669214
 20
5983.535529735373
 30
0.0
 10
9693.18556243987
 20
5984.242938621635
 30
0.0
 10
9703.958161061029
 20
5985.756928623768
 30
0.0
 10
9709.625370919354
 20
5986.55340302769
 30
0.0
 10
9718.324872654243
 20
5987.776038263007
 30
0.0
 10
9721.618713467599
 20
5988.238957400291
 30
0.0
 10
9727.797049574979
 20
5989.107265913895
 30
0.0
 10
9730.653725785174
 20
5989.50874557295
 30
0.0
 10
9734.586750310734
 20
5990.061496122677
 30
0.0
 10
9735.954768442486
 20
5990.253758532801
 30
0.0
 10
9737.01151498289
 20
5990.40227457366
 30
0.0
  0
SPLINE
  5
16DC
330
6C
100
AcDbEntity
  8
Visible Narrow (ISO)
100
AcDbSpline
210
0.0
220
0.0
230
1.0
 70
    24
 71
     3
 72
    22
 73
    18
 74
     0
 42
0.0000000001
 43
0.0000000001
 40
-2.185361095232767
 40
-2.185361095232767
 40
-2.185361095232767
 40
-2.185361095232767
 40
-2.168077120220137
 40
-2.168077120220137
 40
-1.925962057713547
 40
-1.925962057713547
 40
-1.794455792765849
 40
-1.794455792765849
 40
-1.634404278440455
 40
-1.634404278440455
 40
-1.474352619443852
 40
-1.474352619443852
 40
-1.2397806795232
 40
-1.2397806795232
 40
-1.040096997680896
 40
-1.040096997680896
 40
-0.9567973017915287
 40
-0.9567973017915287
 40
-0.9567973017915287
 40
-0.9567973017915287
 10
9036.648340949886
 20
5955.242730191184
 30
0.0
 10
9038.627374665416
 20
5955.242730191184
 30
0.0
 10
9040.607349272555
 20
5955.242730191184
 30
0.0
 10
9070.33608017597
 20
5955.242730191184
 30
0.0
 10
9098.260363533439
 20
5955.242730191184
 30
0.0
 10
9141.320704530206
 20
5955.242730191184
 30
0.0
 10
9156.470159131439
 20
5955.242730191184
 30
0.0
 10
9189.96245949434
 20
5955.242730191184
 30
0.0
 10
9208.405936326196
 20
5955.242730191184
 30
0.0
 10
9245.345836833022
 20
5955.242730191184
 30
0.0
 10
9263.842297188991
 20
5955.242730191184
 30
0.0
 10
9309.445247128982
 20
5955.242730191184
 30
0.0
 10
9336.550502648231
 20
5955.242730191184
 30
0.0
 10
9386.588993509192
 20
5955.242730191184
 30
0.0
 10
9409.543935962691
 20
5955.242730191184
 30
0.0
 10
9441.935684218462
 20
5955.242730191184
 30
0.0
 10
9451.453642150012
 20
5955.242730191184
 30
0.0
 10
9460.950654013895
 20
5955.242730191184
 30
0.0
  0
SPLINE
  5
16DD
330
6C
100
AcDbEntity
  8
Visible (ISO)
100
AcDbSpline
210
0.0
220
0.0
230
1.0
 70
    24
 71
     3
 72
    22
 73
    18
 74
     0
 42
0.0000000001
 43
0.0000000001
 40
0.8859657725253796
 40
0.8859657725253796
 40
0.8859657725253796
 40
0.8859657725253796
 40
1.040096997680896
 40
1.040096997680896
 40
1.2397806795232
 40
1.2397806795232
 40
1.474352619443852
 40
1.474352619443852
 40
1.634404278440455
 40
1.634404278440455
 40
1.794455792765849
 40
1.794455792765849
 40
1.925962057713547
 40
1.925962057713547
 40
2.168077120220137
 40
2.168077120220137
 40
2.256182527709223
 40
2.256182527709223
 40
2.256182527709223
 40
2.256182527709223
 10
9484.251065389097
 20
5960.242730191184
 30
0.0
 10
9466.831461006504
 20
5960.242730191184
 30
0.0
 10
9449.322004009149
 20
5960.242730191184
 30
0.0
 10
9408.98597578642
 20
5960.242730191184
 30
0.0
 10
9386.116596083086
 20
5960.242730191184
 30
0.0
 10
9336.256742184593
 20
5960.242730191184
 30
0.0
 10
9309.243199771078
 20
5960.242730191184
 30
0.0
 10
9263.792405239847
 20
5960.242730191184
 30
0.0
 10
9245.357031380972
 20
5960.242730191184
 30
0.0
 10
9208.539944008041
 20
5960.242730191184
 30
0.0
 10
9190.158184317265
 20
5960.242730191184
 30
0.0
 10
9156.780657455676
 20
5960.242730191184
 30
0.0
 10
9141.684115939687
 20
5960.242730191184
 30
0.0
 10
9098.779138915007
 20
5960.242730191184
 30
0.0
 10
9070.961266548284
 20
5960.242730191184
 30
0.0
 10
9033.277458708694
 20
5960.242730191184
 30
0.0
 10
9023.247587297978
 20
5960.242730191184
 30
0.0
 10
9013.251065389118
 20
5960.242730191184
 30
0.0
  0
SPLINE
  5
16DE
330
6C
100
AcDbEntity
  8
Visible (ISO)
100
AcDbSpline
210
0.0
220
0.0
230
1.0
 70
    24
 71
     3
 72
    14
 73
    10
 74
     0
 42
0.0000000001
 43
0.0000000001
 40
-0.7944003897081656
 40
-0.7944003897081656
 40
-0.7944003897081656
 40
-0.7944003897081656
 40
-0.5973704290292865
 40
-0.5973704290292865
 40
-0.4009768335207845
 40
-0.4009768335207845
 40
-0.2013373658909538
 40
-0.2013373658909538
 40
0.0
 40
0.0
 40
0.0
 40
0.0
 10
9013.251065389098
 20
5955.242730191184
 30
0.0
 10
9013.251065389098
 20
5955.89906184584
 30
0.0
 10
9013.251065389098
 20
5956.548234050202
 30
0.0
 10
9013.251065389098
 20
5957.756651827145
 30
0.0
 10
9013.251065389098
 20
5958.303534805493
 30
0.0
 10
9013.251065389098
 20
5959.233043025003
 30
0.0
 10
9013.251065389098
 20
5959.603612639808
 30
0.0
 10
9013.251065389098
 20
5960.111776642044
 30
0.0
 10
9013.251065389098
 20
5960.242730191184
 30
0.0
 10
9013.251065389098
 20
5960.242730191184
 30
0.0
  0
ARC
  5
16DF
330
6C
100
AcDbEntity
  8
Visible (ISO)
100
AcDbCircle
 10
8762.991812469609
 20
5990.050754305297
 30
0.0
 40
4.999999999999991
100
AcDbArc
 50
81.9999999999595
 51
171.9999999999954
  0
SPLINE
  5
16E0
330
6C
100
AcDbEntity
  8
Visible (ISO)
100
AcDbSpline
210
0.0
220
0.0
230
1.0
 70
     8
 71
     3
 72
     8
 73
     4
 74
     0
 42
0.0000000001
 43
0.0000000001
 40
2.256182527709223
 40
2.256182527709223
 40
2.256182527709223
 40
2.256182527709223
 40
2.276708713522362
 40
2.276708713522362
 40
2.276708713522362
 40
2.276708713522362
 10
9013.251065389111
 20
5960.242730191184
 30
0.0
 10
9011.760543437395
 20
5960.242730191183
 30
0.0
 10
9010.27119401216
 20
5960.347041481208
 30
0.0
 10
9008.797526158375
 20
5960.554151991453
 30
0.0
  0
SPLINE
  5
16E1
330
6C
100
AcDbEntity
  8
Visible (ISO)
100
AcDbSpline
210
0.0
220
0.0
230
1.0
 70
    24
 71
     3
 72
    14
 73
    10
 74
     0
 42
0.0000000001
 43
0.0000000001
 40
-0.7949110779697382
 40
-0.7949110779697382
 40
-0.7949110779697382
 40
-0.7949110779697382
 40
-0.5982642183103815
 40
-0.5982642183103815
 40
-0.4017920322751483
 40
-0.4017920322751483
 40
-0.2018145237517155
 40
-0.2018145237517155
 40
0.0
 40
0.0
 40
0.0
 40
0.0
 10
9008.101660653576
 20
5955.602811647746
 30
0.0
 10
9008.192822033306
 20
5956.251458568934
 30
0.0
 10
9008.282984454282
 20
5956.892997529244
 30
0.0
 10
9008.451053336349
 20
5958.088869763974
 30
0.0
 10
9008.527199916198
 20
5958.630680832697
 30
0.0
 10
9008.656722777834
 20
5959.552283880726
 30
0.0
 10
9008.708384540536
 20
5959.919876422866
 30
0.0
 10
9008.779259227322
 20
5960.424176023328
 30
0.0
 10
9008.797526158375
 20
5960.554151991453
 30
0.0
 10
9008.797526158375
 20
5960.554151991453
 30
0.0
  0
SPLINE
  5
16E2
330
6C
100
AcDbEntity
  8
Visible Narrow (ISO)
100
AcDbSpline
210
0.0
220
0.0
230
1.0
 70
     8
 71
     3
 72
     8
 73
     4
 74
     0
 42
0.0000000001
 43
0.0000000001
 40
-2.273018845769635
 40
-2.273018845769635
 40
-2.273018845769635
 40
-2.273018845769635
 40
-2.254635913336879
 40
-2.254635913336879
 40
-2.254635913336879
 40
-2.254635913336879
 10
9008.357399591554
 20
5955.567780491486
 30
0.0
 10
9009.89261895557
 20
5955.362946279521
 30
0.0
 10
9011.441755139596
 20
5955.254484099928
 30
0.0
 10
9012.99258088418
 20
5955.243634436182
 30
0.0
  0
SPLINE
  5
16E3
330
6C
100
AcDbEntity
  8
Visible Narrow (ISO)
100
AcDbSpline
210
0.0
220
0.0
230
1.0
 70
    24
 71
     3
 72
    28
 73
    24
 74
     0
 42
0.0000000001
 43
0.0000000001
 40
-3.098215026899987
 40
-3.098215026899987
 40
-3.098215026899987
 40
-3.098215026899987
 40
-3.089218998675754
 40
-3.089218998675754
 40
-3.062059401285369
 40
-3.062059401285369
 40
-2.991106228631764
 40
-2.991106228631764
 40
-2.96257156324915
 40
-2.96257156324915
 40
-2.928930092382982
 40
-2.928930092382982
 40
-2.8667539561342
 40
-2.8667539561342
 40
-2.770936205068447
 40
-2.770936205068447
 40
-2.674294432448891
 40
-2.674294432448891
 40
-2.544109408398831
 40
-2.544109408398831
 40
-2.413924239300002
 40
-2.413924239300002
 40
-2.317417746483483
 40
-2.317417746483483
 40
-2.317417746483483
 40
-2.317417746483483
 10
8760.479727938873
 20
5990.403804762088
 30
0.0
 10
8760.805156408382
 20
5990.358068773349
 30
0.0
 10
8761.160040731329
 20
5990.308193034379
 30
0.0
 10
8762.696894437373
 20
5990.092202331715
 30
0.0
 10
8764.10122704388
 20
5989.894836254997
 30
0.0
 10
8769.804631754011
 20
5989.093274996389
 30
0.0
 10
8775.156437109954
 20
5988.3411278045
 30
0.0
 10
8783.403031808658
 20
5987.182144502093
 30
0.0
 10
8785.856909315389
 20
5986.837274509039
 30
0.0
 10
8791.312447950371
 20
5986.070548555528
 30
0.0
 10
8794.355162120934
 20
5985.642922966236
 30
0.0
 10
8803.219927984633
 20
5984.397061372311
 30
0.0
 10
8809.208682520239
 20
5983.555396811048
 30
0.0
 10
8824.832631928481
 20
5981.359593919867
 30
0.0
 10
8834.692223118613
 20
5979.973918744181
 30
0.0
 10
8854.886874938561
 20
5977.135745520881
 30
0.0
 10
8865.227584915222
 20
5975.682453509346
 30
0.0
 10
8889.502679053611
 20
5972.270811516658
 30
0.0
 10
8903.63837894135
 20
5970.284168455332
 30
0.0
 10
8932.170484515841
 20
5966.274242522075
 30
0.0
 10
8946.569619716932
 20
5964.250576041923
 30
0.0
 10
8971.811793442888
 20
5960.703019876774
 30
0.0
 10
8982.61178334415
 20
5959.185180281274
 30
0.0
 10
8993.455015478119
 20
5957.661263386294
 30
0.0
  0
SPLINE
  5
16E4
330
6C
100
AcDbEntity
  8
Visible (ISO)
100
AcDbSpline
210
0.0
220
0.0
230
1.0
 70
    24
 71
     3
 72
    30
 73
    26
 74
     0
 42
0.0000000001
 43
0.0000000001
 40
2.276708713522362
 40
2.276708713522362
 40
2.276708713522362
 40
2.276708713522362
 40
2.413924239300002
 40
2.413924239300002
 40
2.544109408398831
 40
2.544109408398831
 40
2.674294432448891
 40
2.674294432448891
 40
2.770936205068447
 40
2.770936205068447
 40
2.8667539561342
 40
2.8667539561342
 40
2.928930092382982
 40
2.928930092382982
 40
2.96257156324915
 40
2.96257156324915
 40
2.991106228631764
 40
2.991106228631764
 40
3.062059401285369
 40
3.062059401285369
 40
3.089218998675754
 40
3.089218998675754
 40
3.116378596066139
 40
3.116378596066139
 40
3.141592653589793
 40
3.141592653589793
 40
3.141592653589793
 40
3.141592653589793
 10
9008.797526158375
 20
5960.554151991453
 30
0.0
 10
8993.404931254183
 20
5962.717440127526
 30
0.0
 10
8978.096130376348
 20
5964.868951781188
 30
0.0
 10
8948.491844602253
 20
5969.029562814647
 30
0.0
 10
8934.18342590396
 20
5971.040479921776
 30
0.0
 10
8905.857548266489
 20
5975.021422408625
 30
0.0
 10
8891.83708306094
 20
5976.991870291528
 30
0.0
 10
8867.800802558511
 20
5980.369949216481
 30
0.0
 10
8857.574998252218
 20
5981.807092289191
 30
0.0
 10
8837.649583087618
 20
5984.607426768214
 30
0.0
 10
8827.943613337811
 20
5985.971511858449
 30
0.0
 10
8812.628414706328
 20
5988.123922657751
 30
0.0
 10
8806.775510949671
 20
5988.946494637144
 30
0.0
 10
8798.152363228318
 20
5990.158399015665
 30
0.0
 10
8795.200667609924
 20
5990.57323278166
 30
0.0
 10
8789.926932009795
 20
5991.314407984902
 30
0.0
 10
8787.562354229624
 20
5991.646727719846
 30
0.0
 10
8779.647186203009
 20
5992.759132041117
 30
0.0
 10
8774.57495441539
 20
5993.471987730352
 30
0.0
 10
8769.251295032507
 20
5994.220179263694
 30
0.0
 10
8767.950781435795
 20
5994.402954530118
 30
0.0
 10
8765.824956563216
 20
5994.701719732141
 30
0.0
 10
8765.000078632553
 20
5994.817648765044
 30
0.0
 10
8763.948097835813
 20
5994.965495024309
 30
0.0
 10
8763.687677974411
 20
5995.002094649004
 30
0.0
 10
8763.687677974411
 20
5995.002094649004
 30
0.0
  0
ARC
  5
16E5
330
6C
100
AcDbEntity
  8
Visible (ISO)
100
AcDbCircle
 10
9734.510318308586
 20
5990.050754305297
 30
0.0
 40
5.000000000000377
100
AcDbArc
 50
7.999999999991703
 51
98.00000000004049
  0
LINE
  5
16E6
330
6C
100
AcDbEntity
  8
Visible (ISO)
100
AcDbLine
 10
9408.926065389097
 20
5961.144631393134
 30
0.0
 11
9433.576065389095
 21
5961.144631393134
 31
0.0
  0
ARC
  5
16E7
330
6C
100
AcDbEntity
  8
Visible (ISO)
100
AcDbCircle
 10
9421.251065389098
 20
5946.422730191184
 30
0.0
 40
19.20000000000001
100
AcDbArc
 50
50.06433219875118
 51
129.9356678012488
  0
LINE
  5
16E8
330
6C
100
AcDbEntity
  8
Visible (ISO)
100
AcDbLine
 10
9433.576065389095
 20
5961.144631393134
 30
0.0
 11
9433.576065389095
 21
5960.242730191184
 31
0.0
  0
LINE
  5
16E9
330
6C
100
AcDbEntity
  8
Visible (ISO)
100
AcDbLine
 10
9408.926065389097
 20
5961.144631393134
 30
0.0
 11
9408.926065389097
 21
5960.242730191184
 31
0.0
  0
LINE
  5
16EA
330
6C
100
AcDbEntity
  8
Visible (ISO)
100
AcDbLine
 10
9565.181455921445
 20
5971.793651134727
 30
0.0
 11
9565.24917707402
 21
5971.311790096105
 31
0.0
  0
LINE
  5
16EB
330
6C
100
AcDbEntity
  8
Visible (ISO)
100
AcDbLine
 10
9555.37514744175
 20
5970.415464355641
 30
0.0
 11
9555.44286859433
 21
5969.93360331702
 31
0.0
  0
LINE
  5
16EC
330
6C
100
AcDbEntity
  8
Visible (ISO)
100
AcDbLine
 10
9566.559642700529
 20
5971.987342655035
 30
0.0
 11
9566.627363853106
 21
5971.505481616413
 31
0.0
  0
LINE
  5
16ED
330
6C
100
AcDbEntity
  8
Visible (ISO)
100
AcDbLine
 10
9548.636820736863
 20
5970.379218997456
 30
0.0
 11
9573.046928631345
 21
5973.809835936123
 31
0.0
  0
LINE
  5
16EE
330
6C
100
AcDbEntity
  8
Visible (ISO)
100
AcDbLine
 10
9548.762341123898
 20
5969.486095036005
 30
0.0
 11
9573.172449018381
 21
5972.91671197467
 31
0.0
  0
ARC
  5
16EF
330
6C
100
AcDbEntity
  8
Visible (ISO)
100
AcDbCircle
 10
9562.890767326408
 20
5957.515898795328
 30
0.0
 40
19.20000000000091
100
AcDbArc
 50
58.06433219883088
 51
137.9356678011951
  0
LINE
  5
16F0
330
6C
100
AcDbEntity
  8
Visible (ISO)
100
AcDbLine
 10
9573.046928631345
 20
5973.809835936123
 30
0.0
 11
9573.172449018381
 21
5972.91671197467
 31
0.0
  0
LINE
  5
16F1
330
6C
100
AcDbEntity
  8
Visible (ISO)
100
AcDbLine
 10
9548.636820736863
 20
5970.379218997456
 30
0.0
 11
9548.762341123898
 21
5969.486095036005
 31
0.0
  0
LINE
  5
16F2
330
6C
100
AcDbEntity
  8
Visible (ISO)
100
AcDbLine
 10
9063.9260653891
 20
5961.144631393135
 30
0.0
 11
9088.576065389098
 21
5961.144631393135
 31
0.0
  0
ARC
  5
16F3
330
6C
100
AcDbEntity
  8
Visible (ISO)
100
AcDbCircle
 10
9076.251065389099
 20
5946.422730191185
 30
0.0
 40
19.2
100
AcDbArc
 50
50.06433219875118
 51
129.9356678012488
  0
LINE
  5
16F4
330
6C
100
AcDbEntity
  8
Visible (ISO)
100
AcDbLine
 10
9088.576065389098
 20
5961.144631393135
 30
0.0
 11
9088.576065389098
 21
5960.242730191185
 31
0.0
  0
LINE
  5
16F5
330
6C
100
AcDbEntity
  8
Visible (ISO)
100
AcDbLine
 10
9063.9260653891
 20
5961.144631393135
 30
0.0
 11
9063.9260653891
 21
5960.242730191185
 31
0.0
  0
LINE
  5
16F6
330
6C
100
AcDbEntity
  8
Visible (ISO)
100
AcDbLine
 10
8942.126983336441
 20
5970.415464355642
 30
0.0
 11
8942.059262183862
 21
5969.93360331702
 31
0.0
  0
LINE
  5
16F7
330
6C
100
AcDbEntity
  8
Visible (ISO)
100
AcDbLine
 10
8930.942488077665
 20
5971.987342655036
 30
0.0
 11
8930.874766925086
 21
5971.505481616413
 31
0.0
  0
LINE
  5
16F8
330
6C
100
AcDbEntity
  8
Visible (ISO)
100
AcDbLine
 10
8940.748796557356
 20
5970.609155875951
 30
0.0
 11
8940.681075404778
 21
5970.127294837328
 31
0.0
  0
LINE
  5
16F9
330
6C
100
AcDbEntity
  8
Visible (ISO)
100
AcDbLine
 10
8924.455202146848
 20
5973.809835936124
 30
0.0
 11
8948.865310041329
 21
5970.379218997458
 31
0.0
  0
LINE
  5
16FA
330
6C
100
AcDbEntity
  8
Visible (ISO)
100
AcDbLine
 10
8924.329681759813
 20
5972.916711974672
 30
0.0
 11
8948.739789654293
 21
5969.486095036007
 31
0.0
  0
ARC
  5
16FB
330
6C
100
AcDbEntity
  8
Visible (ISO)
100
AcDbCircle
 10
8934.611363451784
 20
5957.515898795329
 30
0.0
 40
19.20000000000078
100
AcDbArc
 50
42.06433219880487
 51
121.9356678011691
  0
LINE
  5
16FC
330
6C
100
AcDbEntity
  8
Visible (ISO)
100
AcDbLine
 10
8948.865310041329
 20
5970.379218997458
 30
0.0
 11
8948.739789654293
 21
5969.486095036007
 31
0.0
  0
LINE
  5
16FD
330
6C
100
AcDbEntity
  8
Visible (ISO)
100
AcDbLine
 10
8924.455202146848
 20
5973.809835936124
 30
0.0
 11
8924.329681759813
 21
5972.916711974672
 31
0.0
  0
LINE
  5
16FE
330
6C
100
AcDbEntity
  8
Visible (ISO)
100
AcDbLine
 10
9407.751065389097
 20
5920.242730191183
 30
0.0
 11
9434.751065389097
 21
5920.242730191183
 31
0.0
  0
ARC
  5
16FF
330
6C
100
AcDbEntity
  8
Visible (ISO)
100
AcDbCircle
 10
9421.251065389098
 20
5935.967730191183
 30
0.0
 40
20.72500000000002
100
AcDbArc
 50
229.353726340626
 51
310.646273659374
  0
LINE
  5
1700
330
6C
100
AcDbEntity
  8
Visible (ISO)
100
AcDbLine
 10
9553.165700181533
 20
5929.711843892712
 30
0.0
 11
9579.902938037553
 21
5933.469517618634
 31
0.0
  0
ARC
  5
1701
330
6C
100
AcDbEntity
  8
Visible (ISO)
100
AcDbCircle
 10
9564.345822096948
 20
5947.162646136635
 30
0.0
 40
20.725000000001
100
AcDbArc
 50
237.3537263406856
 51
318.6462736592799
  0
LINE
  5
1702
330
6C
100
AcDbEntity
  8
Visible (ISO)
100
AcDbLine
 10
9062.751065389099
 20
5920.242730191184
 30
0.0
 11
9089.7510653891
 21
5920.242730191184
 31
0.0
  0
ARC
  5
1703
330
6C
100
AcDbEntity
  8
Visible (ISO)
100
AcDbCircle
 10
9076.251065389099
 20
5935.967730191185
 30
0.0
 40
20.72500000000002
100
AcDbArc
 50
229.353726340626
 51
310.646273659374
  0
LINE
  5
1704
330
6C
100
AcDbEntity
  8
Visible (ISO)
100
AcDbLine
 10
8917.59919274064
 20
5933.469517618635
 30
0.0
 11
8944.336430596662
 21
5929.711843892714
 31
0.0
  0
ARC
  5
1705
330
6C
100
AcDbEntity
  8
Visible (ISO)
100
AcDbCircle
 10
8933.156308681247
 20
5947.162646136636
 30
0.0
 40
20.72500000000085
100
AcDbArc
 50
221.3537263407201
 51
302.6462736593144
  0
LINE
  5
1706
330
6C
100
AcDbEntity
  8
Visible (ISO)
100
AcDbLine
 10
9407.751065389097
 20
5920.242730191183
 30
0.0
 11
9434.751065389097
 21
5920.242730191183
 31
0.0
  0
LINE
  5
1707
330
6C
100
AcDbEntity
  8
Visible (ISO)
100
AcDbLine
 10
9401.251065389097
 20
5937.242730191184
 30
0.0
 11
9441.251065389097
 21
5937.242730191184
 31
0.0
  0
ARC
  5
1708
330
6C
100
AcDbEntity
  8
Visible (ISO)
100
AcDbCircle
 10
9415.770296158326
 20
5937.242730191184
 30
0.0
 40
25.48076923076925
100
AcDbArc
 50
318.1509965101715
 51
0.0
  0
ARC
  5
1709
330
6C
100
AcDbEntity
  8
Visible (ISO)
100
AcDbCircle
 10
9426.731834619866
 20
5937.242730191184
 30
0.0
 40
25.48076923076924
100
AcDbArc
 50
180.0
 51
221.8490034898285
  0
LINE
  5
170A
330
6C
100
AcDbEntity
  8
Visible (ISO)
100
AcDbLine
 10
9553.165700181535
 20
5929.711843892714
 30
0.0
 11
9579.902938037559
 21
5933.469517618635
 31
0.0
  0
LINE
  5
170B
330
6C
100
AcDbEntity
  8
Visible (ISO)
100
AcDbLine
 10
9544.36301501839
 20
5945.64177590508
 30
0.0
 11
9583.973737768056
 21
5951.208699943483
 31
0.0
  0
ARC
  5
170C
330
6C
100
AcDbEntity
  8
Visible (ISO)
100
AcDbCircle
 10
9558.740945631852
 20
5947.66246227479
 30
0.0
 40
25.48076923077055
100
AcDbArc
 50
326.150996510142
 51
8.000000000004606
  0
ARC
  5
170D
330
6C
100
AcDbEntity
  8
Visible (ISO)
100
AcDbCircle
 10
9569.595807154597
 20
5949.188013573774
 30
0.0
 40
25.48076923077045
100
AcDbArc
 50
188.0000000000046
 51
229.8490034898737
  0
LINE
  5
170E
330
6C
100
AcDbEntity
  8
Visible (ISO)
100
AcDbLine
 10
9062.751065389099
 20
5920.242730191184
 30
0.0
 11
9089.7510653891
 21
5920.242730191184
 31
0.0
  0
LINE
  5
170F
330
6C
100
AcDbEntity
  8
Visible (ISO)
100
AcDbLine
 10
9056.251065389098
 20
5937.242730191185
 30
0.0
 11
9096.251065389099
 21
5937.242730191185
 31
0.0
  0
ARC
  5
1710
330
6C
100
AcDbEntity
  8
Visible (ISO)
100
AcDbCircle
 10
9070.770296158329
 20
5937.242730191185
 30
0.0
 40
25.48076923076925
100
AcDbArc
 50
318.1509965101715
 51
0.0
  0
ARC
  5
1711
330
6C
100
AcDbEntity
  8
Visible (ISO)
100
AcDbCircle
 10
9081.731834619869
 20
5937.242730191185
 30
0.0
 40
25.48076923076924
100
AcDbArc
 50
180.0
 51
221.8490034898285
  0
LINE
  5
1712
330
6C
100
AcDbEntity
  8
Visible (ISO)
100
AcDbLine
 10
8917.599192740636
 20
5933.469517618635
 30
0.0
 11
8944.336430596662
 21
5929.711843892714
 31
0.0
  0
LINE
  5
1713
330
6C
100
AcDbEntity
  8
Visible (ISO)
100
AcDbLine
 10
8913.528393010139
 20
5951.208699943483
 30
0.0
 11
8953.139115759805
 21
5945.64177590508
 31
0.0
  0
ARC
  5
1714
330
6C
100
AcDbEntity
  8
Visible (ISO)
100
AcDbCircle
 10
8927.9063236236
 20
5949.188013573774
 30
0.0
 40
25.48076923077034
100
AcDbArc
 50
310.1509965101222
 51
351.9999999999954
  0
ARC
  5
1715
330
6C
100
AcDbEntity
  8
Visible (ISO)
100
AcDbCircle
 10
8938.761185146345
 20
5947.66246227479
 30
0.0
 40
25.48076923077026
100
AcDbArc
 50
171.9999999999954
 51
213.849003489858
  0
LINE
  5
1716
330
6C
100
AcDbEntity
  8
Visible Narrow (ISO)
100
AcDbLine
 10
9590.640899747866
 20
5919.831226132624
 30
0.0
 11
9593.369459344572
 21
5920.214700175882
 31
0.0
  0
LINE
  5
1717
330
6C
100
AcDbEntity
  8
Visible Narrow (ISO)
100
AcDbLine
 10
9590.824045366467
 20
5916.836821737359
 30
0.0
 11
9590.440571323211
 21
5919.565381334066
 31
0.0
  0
ARC
  5
1718
330
6C
100
AcDbEntity
  8
Visible (ISO)
100
AcDbCircle
 10
9590.407813136261
 20
5919.798467945671
 30
0.0
 40
3.000000000000052
100
AcDbArc
 50
278.0000000000405
 51
8.000000000011056
  0
LINE
  5
1719
330
6C
100
AcDbEntity
  8
Visible (ISO)
100
AcDbLine
 10
9588.844796301655
 20
5916.549317537526
 30
0.0
 11
9588.427276998775
 21
5919.520121743751
 31
0.0
  0
LINE
  5
171A
330
6C
100
AcDbEntity
  8
Visible (ISO)
100
AcDbLine
 10
9588.844796301655
 20
5916.549317537526
 30
0.0
 11
9590.825332439136
 21
5916.827663739447
 31
0.0
  0
LINE
  5
171B
330
6C
100
AcDbEntity
  8
Visible Narrow (ISO)
100
AcDbLine
 10
9590.308786329385
 20
5919.784550635576
 30
0.0
 11
9588.526303805648
 21
5919.534039053847
 31
0.0
  0
ARC
  5
171C
330
6C
100
AcDbEntity
  8
Visible (ISO)
100
AcDbCircle
 10
9585.675927703617
 20
5953.467582282885
 30
0.0
 40
3.000000000000052
100
AcDbArc
 50
8.000000000011056
 51
64.90864927287162
  0
LINE
  5
171D
330
6C
100
AcDbEntity
  8
Visible Narrow (ISO)
100
AcDbLine
 10
9585.655201313192
 20
5953.615058213771
 30
0.0
 11
9585.337876924873
 21
5955.872938558604
 31
0.0
  0
LINE
  5
171E
330
6C
100
AcDbEntity
  8
Visible Narrow (ISO)
100
AcDbLine
 10
9588.637573911929
 20
5953.883814513095
 30
0.0
 11
9585.909014315223
 21
5953.500340469839
 31
0.0
  0
LINE
  5
171F
330
6C
100
AcDbEntity
  8
Visible Narrow (ISO)
100
AcDbLine
 10
9583.794418373008
 20
5953.203153391061
 30
0.0
 11
9585.576900896741
 21
5953.45366497279
 31
0.0
  0
LINE
  5
1720
330
6C
100
AcDbEntity
  8
Visible Narrow (ISO)
100
AcDbLine
 10
9585.912521975249
 20
5951.784126566025
 30
0.0
 11
9590.171218864627
 21
5921.481923662532
 31
0.0
  0
LINE
  5
1721
330
6C
100
AcDbEntity
  8
Visible (ISO)
100
AcDbLine
 10
9593.378617342485
 20
5920.215987248552
 30
0.0
 11
9588.646731909843
 21
5953.885101585765
 31
0.0
  0
LINE
  5
1722
330
6C
100
AcDbEntity
  8
Visible (ISO)
100
AcDbLine
 10
9588.427276998775
 20
5919.520121743751
 30
0.0
 11
9583.973737768053
 21
5951.208699943482
 31
0.0
  0
ARC
  5
1723
330
6C
100
AcDbEntity
  8
Visible (ISO)
100
AcDbCircle
 10
8907.094317641934
 20
5919.798467945672
 30
0.0
 40
3.000000000000051
100
AcDbArc
 50
171.9999999999889
 51
261.9999999999595
  0
LINE
  5
1724
330
6C
100
AcDbEntity
  8
Visible Narrow (ISO)
100
AcDbLine
 10
8907.061559454982
 20
5919.565381334066
 30
0.0
 11
8906.678085411725
 21
5916.836821737359
 31
0.0
  0
LINE
  5
1725
330
6C
100
AcDbEntity
  8
Visible Narrow (ISO)
100
AcDbLine
 10
8904.132671433623
 20
5920.214700175883
 30
0.0
 11
8906.861231030331
 21
5919.831226132625
 31
0.0
  0
LINE
  5
1726
330
6C
100
AcDbEntity
  8
Visible (ISO)
100
AcDbLine
 10
8909.074853779419
 20
5919.520121743753
 30
0.0
 11
8908.657334476536
 21
5916.549317537527
 31
0.0
  0
LINE
  5
1727
330
6C
100
AcDbEntity
  8
Visible Narrow (ISO)
100
AcDbLine
 10
8908.975826972547
 20
5919.534039053849
 30
0.0
 11
8907.19334444881
 21
5919.784550635576
 31
0.0
  0
LINE
  5
1728
330
6C
100
AcDbEntity
  8
Visible (ISO)
100
AcDbLine
 10
8906.676798339054
 20
5916.827663739447
 30
0.0
 11
8908.65733447654
 21
5916.549317537527
 31
0.0
  0
LINE
  5
1729
330
6C
100
AcDbEntity
  8
Visible Narrow (ISO)
100
AcDbLine
 10
8911.593116462972
 20
5953.500340469839
 30
0.0
 11
8908.864556866266
 21
5953.883814513096
 31
0.0
  0
LINE
  5
172A
330
6C
100
AcDbEntity
  8
Visible Narrow (ISO)
100
AcDbLine
 10
8912.164253853324
 20
5955.872938558604
 30
0.0
 11
8911.846929465003
 21
5953.615058213774
 31
0.0
  0
ARC
  5
172B
330
6C
100
AcDbEntity
  8
Visible (ISO)
100
AcDbCircle
 10
8911.826203074577
 20
5953.467582282886
 30
0.0
 40
3.000000000000047
100
AcDbArc
 50
115.0913507272421
 51
171.9999999999889
  0
LINE
  5
172C
330
6C
100
AcDbEntity
  8
Visible Narrow (ISO)
100
AcDbLine
 10
8911.925229881452
 20
5953.45366497279
 30
0.0
 11
8913.707712405189
 21
5953.203153391062
 31
0.0
  0
LINE
  5
172D
330
6C
100
AcDbEntity
  8
Visible Narrow (ISO)
100
AcDbLine
 10
8907.330911913568
 20
5921.481923662534
 30
0.0
 11
8911.589608802946
 21
5951.784126566025
 31
0.0
  0
LINE
  5
172E
330
6C
100
AcDbEntity
  8
Visible (ISO)
100
AcDbLine
 10
8908.855398868352
 20
5953.885101585767
 30
0.0
 11
8904.123513435711
 21
5920.215987248552
 31
0.0
  0
LINE
  5
172F
330
6C
100
AcDbEntity
  8
Visible (ISO)
100
AcDbLine
 10
8913.528393010141
 20
5951.20869994348
 30
0.0
 11
8909.074853779419
 21
5919.520121743753
 31
0.0
  0
LINE
  5
1730
330
6C
100
AcDbEntity
  8
Visible (ISO)
100
AcDbLine
 10
9448.751065389096
 20
5380.242730191181
 30
0.0
 11
9048.751065389099
 21
5380.242730191181
 31
0.0
  0
LINE
  5
1731
330
6C
100
AcDbEntity
  8
Visible (ISO)
100
AcDbLine
 10
9513.751065389099
 20
5030.24273019118
 30
0.0
 11
8983.751065389098
 21
5030.24273019118
 31
0.0
  0
LINE
  5
1732
330
6C
100
AcDbEntity
  8
Visible (ISO)
100
AcDbLine
 10
9513.751065389099
 20
5030.24273019118
 30
0.0
 11
9448.751065389096
 21
5380.242730191181
 31
0.0
  0
LINE
  5
1733
330
6C
100
AcDbEntity
  8
Visible (ISO)
100
AcDbLine
 10
8983.751065389098
 20
5030.24273019118
 30
0.0
 11
9048.751065389099
 21
5380.242730191181
 31
0.0
  0
LINE
  5
1734
330
6C
100
AcDbEntity
  8
Visible (ISO)
100
AcDbLine
 10
9080.251065389097
 20
5388.242730191181
 30
0.0
 11
9080.251065389097
 21
5391.242730191181
 31
0.0
  0
LINE
  5
1735
330
6C
100
AcDbEntity
  8
Visible (ISO)
100
AcDbLine
 10
9117.251065389096
 20
5388.242730191181
 30
0.0
 11
9117.251065389096
 21
5391.242730191181
 31
0.0
  0
LINE
  5
1736
330
6C
100
AcDbEntity
  8
Visible (ISO)
100
AcDbLine
 10
9380.251065389099
 20
5388.242730191181
 30
0.0
 11
9380.251065389099
 21
5391.242730191181
 31
0.0
  0
LINE
  5
1737
330
6C
100
AcDbEntity
  8
Visible (ISO)
100
AcDbLine
 10
9417.251065389098
 20
5388.242730191181
 30
0.0
 11
9417.251065389098
 21
5391.242730191181
 31
0.0
  0
LINE
  5
1738
330
6C
100
AcDbEntity
  8
Visible (ISO)
100
AcDbLine
 10
9096.751065389097
 20
5456.242730191182
 30
0.0
 11
9100.751065389097
 21
5456.242730191182
 31
0.0
  0
LINE
  5
1739
330
6C
100
AcDbEntity
  8
Visible Narrow (ISO)
100
AcDbLine
 10
9112.578702157428
 20
5444.242730191181
 30
0.0
 11
9084.923428620765
 21
5444.242730191181
 31
0.0
  0
ARC
  5
173A
330
6C
100
AcDbEntity
  8
Visible (ISO)
100
AcDbCircle
 10
9096.751065389097
 20
5444.242730191181
 30
0.0
 40
12.0
100
AcDbArc
 50
90.0
 51
180.0
  0
ARC
  5
173B
330
6C
100
AcDbEntity
  8
Visible (ISO)
100
AcDbCircle
 10
9100.751065389097
 20
5444.242730191181
 30
0.0
 40
12.0
100
AcDbArc
 50
0.0
 51
90.0
  0
LINE
  5
173C
330
6C
100
AcDbEntity
  8
Visible Narrow (ISO)
100
AcDbLine
 10
9084.923428620765
 20
5415.24203062558
 30
0.0
 11
9112.578702157428
 21
5415.24203062558
 31
0.0
  0
LINE
  5
173D
330
6C
100
AcDbEntity
  8
Visible Narrow (ISO)
100
AcDbLine
 10
9082.495511469826
 20
5410.936318323709
 30
0.0
 11
9115.006619308367
 21
5410.936318323709
 31
0.0
  0
LINE
  5
173E
330
6C
100
AcDbEntity
  8
Visible Narrow (ISO)
100
AcDbLine
 10
9117.434536459306
 20
5406.630606021838
 30
0.0
 11
9080.067594318888
 21
5406.630606021838
 31
0.0
  0
ARC
  5
173F
330
6C
100
AcDbEntity
  8
Visible (ISO)
100
AcDbCircle
 10
9084.834702501842
 20
5406.630606021838
 30
0.0
 40
5.0
100
AcDbArc
 50
120.5548987118603
 51
180.0
  0
ARC
  5
1740
330
6C
100
AcDbEntity
  8
Visible (ISO)
100
AcDbCircle
 10
9112.667428276353
 20
5406.630606021838
 30
0.0
 40
5.0
100
AcDbArc
 50
0.0
 51
59.44510128813969
  0
ARC
  5
1741
330
6C
100
AcDbEntity
  8
Visible (ISO)
100
AcDbCircle
 10
9079.751065389098
 20
5415.24203062558
 30
0.0
 40
5.0
100
AcDbArc
 50
300.5548987118603
 51
0.0
  0
ARC
  5
1742
330
6C
100
AcDbEntity
  8
Visible (ISO)
100
AcDbCircle
 10
9117.751065389095
 20
5415.24203062558
 30
0.0
 40
5.0
100
AcDbArc
 50
180.0
 51
239.4451012881397
  0
LINE
  5
1743
330
6C
100
AcDbEntity
  8
Visible (ISO)
100
AcDbLine
 10
9079.834702501839
 20
5391.242730191181
 30
0.0
 11
9117.667428276353
 21
5391.242730191181
 31
0.0
  0
LINE
  5
1744
330
6C
100
AcDbEntity
  8
Visible (ISO)
100
AcDbLine
 10
9079.834702501839
 20
5391.242730191181
 30
0.0
 11
9079.834702501839
 21
5406.630606021838
 31
0.0
  0
LINE
  5
1745
330
6C
100
AcDbEntity
  8
Visible (ISO)
100
AcDbLine
 10
9117.667428276353
 20
5391.242730191181
 30
0.0
 11
9117.667428276353
 21
5406.630606021838
 31
0.0
  0
LINE
  5
1746
330
6C
100
AcDbEntity
  8
Visible (ISO)
100
AcDbLine
 10
9084.751065389097
 20
5415.24203062558
 30
0.0
 11
9084.751065389097
 21
5444.242730191181
 31
0.0
  0
LINE
  5
1747
330
6C
100
AcDbEntity
  8
Visible (ISO)
100
AcDbLine
 10
9112.751065389096
 20
5415.24203062558
 30
0.0
 11
9112.751065389096
 21
5444.242730191181
 31
0.0
  0
LINE
  5
1748
330
6C
100
AcDbEntity
  8
Visible (ISO)
100
AcDbLine
 10
9396.751065389098
 20
5456.242730191182
 30
0.0
 11
9400.751065389098
 21
5456.242730191182
 31
0.0
  0
LINE
  5
1749
330
6C
100
AcDbEntity
  8
Visible Narrow (ISO)
100
AcDbLine
 10
9412.57870215743
 20
5444.242730191181
 30
0.0
 11
9384.923428620766
 21
5444.242730191181
 31
0.0
  0
ARC
  5
174A
330
6C
100
AcDbEntity
  8
Visible (ISO)
100
AcDbCircle
 10
9396.751065389098
 20
5444.242730191181
 30
0.0
 40
12.0
100
AcDbArc
 50
90.0
 51
180.0
  0
ARC
  5
174B
330
6C
100
AcDbEntity
  8
Visible (ISO)
100
AcDbCircle
 10
9400.751065389098
 20
5444.242730191181
 30
0.0
 40
12.0
100
AcDbArc
 50
0.0
 51
90.0
  0
LINE
  5
174C
330
6C
100
AcDbEntity
  8
Visible Narrow (ISO)
100
AcDbLine
 10
9384.923428620766
 20
5415.24203062558
 30
0.0
 11
9412.57870215743
 21
5415.24203062558
 31
0.0
  0
LINE
  5
174D
330
6C
100
AcDbEntity
  8
Visible Narrow (ISO)
100
AcDbLine
 10
9382.495511469828
 20
5410.936318323709
 30
0.0
 11
9415.006619308369
 21
5410.936318323709
 31
0.0
  0
LINE
  5
174E
330
6C
100
AcDbEntity
  8
Visible Narrow (ISO)
100
AcDbLine
 10
9417.434536459309
 20
5406.630606021838
 30
0.0
 11
9380.067594318889
 21
5406.630606021838
 31
0.0
  0
ARC
  5
174F
330
6C
100
AcDbEntity
  8
Visible (ISO)
100
AcDbCircle
 10
9384.834702501843
 20
5406.630606021838
 30
0.0
 40
5.0
100
AcDbArc
 50
120.5548987118603
 51
180.0
  0
ARC
  5
1750
330
6C
100
AcDbEntity
  8
Visible (ISO)
100
AcDbCircle
 10
9412.667428276353
 20
5406.630606021838
 30
0.0
 40
5.0
100
AcDbArc
 50
0.0
 51
59.44510128813969
  0
ARC
  5
1751
330
6C
100
AcDbEntity
  8
Visible (ISO)
100
AcDbCircle
 10
9379.751065389099
 20
5415.24203062558
 30
0.0
 40
5.0
100
AcDbArc
 50
300.5548987118603
 51
0.0
  0
ARC
  5
1752
330
6C
100
AcDbEntity
  8
Visible (ISO)
100
AcDbCircle
 10
9417.751065389095
 20
5415.24203062558
 30
0.0
 40
5.0
100
AcDbArc
 50
180.0
 51
239.4451012881397
  0
LINE
  5
1753
330
6C
100
AcDbEntity
  8
Visible (ISO)
100
AcDbLine
 10
9379.834702501842
 20
5391.242730191181
 30
0.0
 11
9417.667428276354
 21
5391.242730191181
 31
0.0
  0
LINE
  5
1754
330
6C
100
AcDbEntity
  8
Visible (ISO)
100
AcDbLine
 10
9379.834702501842
 20
5391.242730191181
 30
0.0
 11
9379.834702501842
 21
5406.630606021838
 31
0.0
  0
LINE
  5
1755
330
6C
100
AcDbEntity
  8
Visible (ISO)
100
AcDbLine
 10
9417.667428276354
 20
5391.242730191181
 30
0.0
 11
9417.667428276354
 21
5406.630606021838
 31
0.0
  0
LINE
  5
1756
330
6C
100
AcDbEntity
  8
Visible (ISO)
100
AcDbLine
 10
9384.751065389099
 20
5415.24203062558
 30
0.0
 11
9384.751065389099
 21
5444.242730191181
 31
0.0
  0
LINE
  5
1757
330
6C
100
AcDbEntity
  8
Visible (ISO)
100
AcDbLine
 10
9412.7510653891
 20
5415.24203062558
 30
0.0
 11
9412.7510653891
 21
5444.242730191181
 31
0.0
  0
LINE
  5
1758
330
6C
100
AcDbEntity
  8
Visible (ISO)
100
AcDbLine
 10
11393.88940603568
 20
5575.24273019118
 30
0.0
 11
7103.612724742514
 21
5575.24273019118
 31
0.0
  0
LINE
  5
1759
330
6C
100
AcDbEntity
  8
Visible (ISO)
100
AcDbLine
 10
7103.612724742513
 20
5580.242730191181
 30
0.0
 11
11393.88940603568
 21
5580.242730191181
 31
0.0
  0
LINE
  5
175A
330
6C
100
AcDbEntity
  8
Visible (ISO)
100
AcDbLine
 10
11393.88940603568
 20
5580.242730191181
 30
0.0
 11
11393.88940603568
 21
5575.24273019118
 31
0.0
  0
LINE
  5
175B
330
6C
100
AcDbEntity
  8
Visible (ISO)
100
AcDbLine
 10
7103.612724742513
 20
5580.242730191181
 30
0.0
 11
7103.612724742513
 21
5575.24273019118
 31
0.0
  0
INSERT
  5
179B
330
6C
100
AcDbEntity
  8
0
100
AcDbBlockReference
 66
     1
  2
Tabelki rysunkowe Rzut
 10
598.5237865144718
 20
-1344.686256746109
 30
0.0
 41
35.0
 42
35.0
 43
35.0
  0
ATTRIB
  5
179C
102
{ACAD_XDICTIONARY
360
179D
102
}
330
179B
100
AcDbEntity
  8
Title (ISO)
100
AcDbText
 10
6842.901745808861
 20
-709.8839511298694
 30
0.0
 40
87.5
  1
23040
  7
Note Text (ISO)
100
AcDbAttribute
  2
Numer_katalogowy_001
 70
     0
  0
ATTRIB
  5
179E
102
{ACAD_XDICTIONARY
360
179F
102
}
330
179B
100
AcDbEntity
  8
Title (ISO)
100
AcDbText
 10
7262.901745808861
 20
-955.2365367566688
 30
0.0
 40
87.5
  1
2016-08-30
  7
Note Text (ISO)
100
AcDbAttribute
  2
DATA_UTWORZENIA_001
 70
     0
  0
ATTRIB
  5
17A0
102
{ACAD_XDICTIONARY
360
17A1
102
}
330
179B
100
AcDbEntity
  8
Title (ISO)
100
AcDbText
 10
6837.965547033672
 20
-837.7902640741236
 30
0.0
 40
87.5
  1
Deska surfingowa
  7
Note Text (ISO)
100
AcDbAttribute
  2
Nazwa_001
 70
     0
  0
SEQEND
  5
17A2
330
179B
100
AcDbEntity
  8
0
  0
DIMENSION
  5
17A3
330
6C
100
AcDbEntity
  8
Dimension (ISO)
100
AcDbDimension
  2
*D21
 10
11393.88940603482
 20
232.4318334521372
 30
0.0
 11
9248.751065388237
 21
232.4318334521372
 31
0.0
 70
   160
  1
<>
 71
     2
 42
4290.276681293169
  3
Default (ISO)
100
AcDbAlignedDimension
 13
7103.612724741656
 23
2622.065672877388
 33
0.0
 14
11393.88940603482
 24
2622.065672877388
 34
0.0
 50
180.0
100
AcDbRotatedDimension
1001
ACAD
1000
DSTYLE
1002
{
1070
   172
1070
     0
1070
   289
1070
     1
1070
    74
1070
     0
1070
   271
1070
     0
1070
   272
1070
     2
1070
    48
1040
0.0
1070
    47
1040
0.0
1002
}
  0
DIMENSION
  5
17A4
330
6C
100
AcDbEntity
  8
Dimension (ISO)
100
AcDbDimension
  2
*D22
 10
6898.751065388241
 20
4767.204013523972
 30
0.0
 11
6898.751065388239
 21
2622.065672877389
 31
0.0
 70
   160
  1
<>
 71
     2
 42
4290.276681293168
  3
Default (ISO)
100
AcDbAlignedDimension
 13
9248.751065388239
 23
476.9273322308036
 33
0.0
 14
9248.751065388239
 24
4767.204013523972
 34
0.0
 50
90.0
100
AcDbRotatedDimension
1001
ACAD
1000
DSTYLE
1002
{
1070
   172
1070
     0
1070
   289
1070
     1
1070
    74
1070
     0
1070
   271
1070
     0
1070
   272
1070
     2
1070
    48
1040
0.0
1070
    47
1040
0.0
1002
}
  0
DIMENSION
  5
17A5
330
6C
100
AcDbEntity
  8
Dimension (ISO)
100
AcDbDimension
  2
*D23
 10
10047.57458003436
 20
2459.563644225359
 30
0.0
 11
10047.57458003436
 21
2622.065926668275
 31
0.0
 70
   160
  1
<>
 71
     2
 42
325.004564885834
  3
Default (ISO)
100
AcDbAlignedDimension
 13
9248.751065388361
 23
2784.568209111192
 33
0.0
 14
9248.751065388148
 24
2459.563644225359
 34
0.0
 50
90.0
100
AcDbRotatedDimension
1001
ACAD
1000
DSTYLE
1002
{
1070
   172
1070
     0
1070
   289
1070
     1
1070
    74
1070
     0
1070
   271
1070
     2
1070
   272
1070
     2
1070
    48
1040
0.0
1070
    47
1040
0.0
1002
}
  0
DIMENSION
  5
17A6
330
6C
100
AcDbEntity
  8
Dimension (ISO)
100
AcDbDimension
  2
*D24
 10
9741.270908963914
 20
2920.857105458794
 30
0.0
 11
9248.751065388242
 21
2920.857105458794
 31
0.0
 70
   160
  1
<>
 71
     2
 42
985.0396871513531
  3
Default (ISO)
100
AcDbAlignedDimension
 13
8756.23122181256
 23
2622.065672877506
 33
0.0
 14
9741.270908963914
 24
2622.065672877506
 34
0.0
 50
180.0
100
AcDbRotatedDimension
1001
ACAD
1000
DSTYLE
1002
{
1070
   172
1070
     0
1070
   289
1070
     1
1070
    74
1070
     0
1070
   271
1070
     0
1070
   272
1070
     2
1070
    48
1040
0.0
1070
    47
1040
0.0
1002
}
  0
DIMENSION
  5
17A7
330
6C
100
AcDbEntity
  8
Dimension (ISO)
100
AcDbDimension
  2
*D25
 10
8677.33621465495
 20
5380.242730191182
 30
0.0
 11
8677.336214654948
 21
5480.242730191182
 31
0.0
 70
   160
  1
<>
 71
     2
 42
199.9999999999991
  3
Default (ISO)
100
AcDbAlignedDimension
 13
7103.612724742513
 23
5580.242730191181
 33
0.0
 14
9073.751065389101
 24
5380.242730191182
 34
0.0
 50
90.0
100
AcDbRotatedDimension
1001
ACAD
1000
DSTYLE
1002
{
1070
   172
1070
     1
1070
   289
1070
     1
1070
    74
1070
     0
1070
   271
1070
     2
1070
    75
1070
     1
1070
   272
1070
     2
1070
    48
1040
0.0
1070
    47
1040
0.0
1002
}
  0
DIMENSION
  5
17A8
330
6C
100
AcDbEntity
  8
Dimension (ISO)
100
AcDbDimension
  2
*D26
 10
9968.830300153388
 20
5580.242730191182
 30
0.0
 11
9968.830300153387
 21
5787.646742248242
 31
0.0
 70
   160
  1
<>
 71
     2
 42
414.808024114116
  3
Default (ISO)
100
AcDbAlignedDimension
 13
9734.510318308586
 23
5995.050754305299
 33
0.0
 14
11393.88940603568
 24
5580.242730191181
 34
0.0
 50
90.0
100
AcDbRotatedDimension
1001
ACAD
1000
DSTYLE
1002
{
1070
   172
1070
     0
1070
   289
1070
     1
1070
    74
1070
     0
1070
   271
1070
     0
1070
    76
1070
     1
1070
   272
1070
     2
1070
    48
1040
0.0
1070
    47
1040
0.0
1002
}
  0
DIMENSION
  5
17A9
330
6C
100
AcDbEntity
  8
Dimension (ISO)
100
AcDbDimension
  2
*D27
 10
9968.830300153388
 20
5030.24273019118
 30
0.0
 11
9968.830300153387
 21
5305.242730191181
 31
0.0
 70
   160
  1
<>
 71
     2
 42
550.0000000000018
  3
Default (ISO)
100
AcDbAlignedDimension
 13
11393.88940603568
 23
5580.242730191181
 33
0.0
 14
9513.751065389099
 24
5030.24273019118
 34
0.0
 50
90.0
100
AcDbRotatedDimension
1001
ACAD
1000
DSTYLE
1002
{
1070
   172
1070
     0
1070
   289
1070
     1
1070
    74
1070
     0
1070
   271
1070
     2
1070
    75
1070
     1
1070
   272
1070
     2
1070
    48
1040
0.0
1070
    47
1040
0.0
1002
}
  0
INSERT
  5
17AA
330
6C
100
AcDbEntity
  8
0
100
AcDbBlockReference
  2
Poziom gruntu
 10
10835.14824558904
 20
5621.491679828519
 30
0.0
 41
35.0
 42
35.0
 43
35.0
  0
INSERT
  5
17AB
330
6C
100
AcDbEntity
  8
0
100
AcDbBlockReference
  2
Poziom gruntu
 10
7683.149060281381
 20
5618.529398021348
 30
0.0
 41
35.0
 42
35.0
 43
35.0
  0
INSERT
  5
1878
330
6C
100
AcDbEntity
  8
0
100
AcDbBlockReference
  2
23040_Deska-surfingowa
 10
9251.08821493684
 20
2622.065672877486
 30
0.0
  0
ENDSEC
  0
SECTION
  2
OBJECTS
  0
DICTIONARY
  5
C
330
0
100
AcDbDictionary
281
     1
  3
ACAD_2007HEADERVARS_RT
350
1889
  3
ACAD_COLOR
350
63
  3
ACAD_GROUP
350
D
  3
ACAD_LAYOUT
350
62
  3
ACAD_MATERIAL
350
10
  3
ACAD_MLEADERSTYLE
350
66
  3
ACAD_MLINESTYLE
350
5F
  3
ACAD_PLOTSETTINGS
350
61
  3
ACAD_PLOTSTYLENAME
350
E
  3
ACAD_SCALELIST
350
42
  3
ACAD_TABLESTYLE
350
64
  3
ACAD_VISUALSTYLE
350
29
  3
ACDB_RECOMPOSE_DATA
350
1887
  3
AcDbVariableDictionary
350
11BD
  3
AcmDictionary
350
1221
  3
AMG
350
11D3
  3
AMGSNAPSETTINGS
350
1260
  3
DWGPROPS
350
1888
  0
DICTIONARY
  5
1176
330
8
100
AcDbDictionary
280
     1
281
     1
  0
DICTIONARY
  5
1162
330
2A9
100
AcDbDictionary
280
     1
281
     1
  3
ACAD_MLATT
360
187C
  3
ACAD_XREC_ROUNDTRIP
360
187B
  0
DICTIONARY
  5
1165
330
2AB
100
AcDbDictionary
280
     1
281
     1
  3
ACAD_MLATT
360
187E
  3
ACAD_XREC_ROUNDTRIP
360
187D
  0
DICTIONARY
  5
1168
330
2AC
100
AcDbDictionary
280
     1
281
     1
  3
ACAD_MLATT
360
1880
  3
ACAD_XREC_ROUNDTRIP
360
187F
  0
DICTIONARY
  5
179D
330
179C
100
AcDbDictionary
280
     1
281
     1
  3
ACAD_MLATT
360
1882
  3
ACAD_XREC_ROUNDTRIP
360
1881
  0
DICTIONARY
  5
179F
330
179E
100
AcDbDictionary
280
     1
281
     1
  3
ACAD_MLATT
360
1884
  3
ACAD_XREC_ROUNDTRIP
360
1883
  0
DICTIONARY
  5
17A1
330
17A0
100
AcDbDictionary
280
     1
281
     1
  3
ACAD_MLATT
360
1886
  3
ACAD_XREC_ROUNDTRIP
360
1885
  0
DICTIONARY
  5
1889
102
{ACAD_REACTORS
330
C
102
}
330
C
100
AcDbDictionary
281
     1
  3
DIMARCSYM
350
188A
  3
DIMLTEX1
350
188C
  3
DIMLTEX2
350
188D
  3
DIMLTYPE
350
188B
  0
DICTIONARY
  5
63
102
{ACAD_REACTORS
330
C
102
}
330
C
100
AcDbDictionary
281
     1
  0
DICTIONARY
  5
D
102
{ACAD_REACTORS
330
C
102
}
330
C
100
AcDbDictionary
281
     1
  0
DICTIONARY
  5
62
102
{ACAD_REACTORS
330
C
102
}
330
C
100
AcDbDictionary
281
     1
  3
Layout1
350
6B
  3
Layout2
350
73
  3
Model
350
6F
  0
DICTIONARY
  5
10
102
{ACAD_REACTORS
330
C
102
}
330
C
100
AcDbDictionary
281
     1
  3
ByBlock
350
19
  3
ByLayer
350
11
  3
Global
350
21
  0
DICTIONARY
  5
66
102
{ACAD_REACTORS
330
C
102
}
330
C
100
AcDbDictionary
281
     1
  3
Standard
350
67
  0
DICTIONARY
  5
5F
102
{ACAD_REACTORS
330
C
102
}
330
C
100
AcDbDictionary
281
     1
  3
Standard
350
60
  0
DICTIONARY
  5
61
102
{ACAD_REACTORS
330
C
102
}
330
C
100
AcDbDictionary
281
     1
  0
ACDBDICTIONARYWDFLT
  5
E
102
{ACAD_REACTORS
330
C
102
}
330
C
100
AcDbDictionary
281
     1
  3
Normal
350
F
100
AcDbDictionaryWithDefault
340
F
  0
DICTIONARY
  5
42
102
{ACAD_REACTORS
330
C
102
}
330
C
100
AcDbDictionary
281
     1
  3
A0
350
43
  3
A1
350
44
  3
A2
350
45
  3
A3
350
46
  3
A4
350
47
  3
A5
350
48
  3
A6
350
49
  3
A7
350
4A
  3
A8
350
4B
  3
A9
350
4C
  3
B0
350
4D
  3
B1
350
4E
  3
B2
350
4F
  3
B3
350
50
  3
B4
350
51
  3
B5
350
52
  3
B6
350
53
  0
DICTIONARY
  5
64
102
{ACAD_REACTORS
330
C
102
}
330
C
100
AcDbDictionary
281
     1
  3
Standard
350
65
  0
DICTIONARY
  5
29
102
{ACAD_REACTORS
330
C
102
}
330
C
100
AcDbDictionary
281
     1
  3
2dWireframe
350
2F
  3
Basic
350
2E
  3
Brighten
350
35
  3
ColorChange
350
39
  3
Conceptual
350
32
  3
Dim
350
34
  3
EdgeColorOff
350
41
  3
Facepattern
350
38
  3
Flat
350
2A
  3
FlatWithEdges
350
2B
  3
Gouraud
350
2C
  3
GouraudWithEdges
350
2D
  3
Hidden
350
31
  3
JitterOff
350
3F
  3
Linepattern
350
37
  3
OverhangOff
350
40
  3
Realistic
350
33
  3
Shaded
350
3E
  3
Shaded with edges
350
3D
  3
Shades of Gray
350
3A
  3
Sketchy
350
3B
  3
Thicken
350
36
  3
Wireframe
350
30
  3
X-Ray
350
3C
  0
XRECORD
  5
1887
102
{ACAD_REACTORS
330
C
102
}
330
C
100
AcDbXrecord
280
     1
 90
        1
330
65
330
2A9
330
2AB
330
2AC
330
179C
330
179E
330
17A0
  0
DICTIONARY
  5
11BD
102
{ACAD_REACTORS
330
C
102
}
330
C
100
AcDbDictionary
281
     1
  3
CANNOSCALE
350
11C1
  3
CMLEADERSTYLE
350
11BF
  3
CTABLESTYLE
350
11BE
  3
DIMASSOC
350
11C8
  3
HIDETEXT
350
11C7
  3
INDEXCTL
350
11C6
  3
LAYEREVAL
350
11C3
  3
LAYERNOTIFY
350
11C4
  3
LIGHTINGUNITS
350
11C2
  3
MSLTSCALE
350
11C0
  3
SORTENTS
350
11C5
  3
XCLIPFRAME
350
1879
  0
DICTIONARY
  5
1221
102
{ACAD_REACTORS
330
C
102
}
330
C
100
AcDbDictionary
281
     1
  3
AcmStdDictionary
350
122A
  0
DICTIONARY
  5
11D3
102
{ACAD_REACTORS
330
C
102
}
330
C
100
AcDbDictionary
281
     1
  0
DICTIONARY
  5
1260
102
{ACAD_REACTORS
330
C
102
}
330
C
100
AcDbDictionary
281
     1
  0
XRECORD
  5
1888
102
{ACAD_REACTORS
330
C
102
}
330
C
100
AcDbXrecord
280
     1
  1
DWGPROPS COOKIE
  2

  3

  4
Maruszak Marcin
  6

  7

  8
Natalia
  9
v1
300
Menadżer=
301
Firma=Muller
302
Kategoria=
303
Numer części=23040.000 Deska surfingowa+strefa+fundamentowanie
304
Opis=
305
Projekt=23040 Deska surfingowa
306
Projektant=Maruszak Marcin
307
Inżynier=
308
Zatwierdził=
309
Centrum kosztów=
 40
0.0017480787037037
 41
2459858.466713785
 42
2460370.364260787
  1

 90
       18
300
Dostawca=
300
Stan użytkownika=
300
Stan projektu=PracaWToku
300
Sprawdził=
300
Zatwierdził konstrukcję=Muller
300
Zatwierdził do produkcji=
300
Kolor=Biały
300
Stanowisko=Giętarka
  0
XRECORD
  5
187C
102
{ACAD_REACTORS
330
1162
102
}
330
1162
100
AcDbXrecord
280
     1
 70
     4
 70
     0
 70
     0
 40
1.0
  2
Numer_katalogowy
  1
Embedded Object
 10
178.5938075676742
 20
20.68925708649297
 30
0.0
 40
2.5
 41
39.63119806127143
 46
0.0
 71
     1
 72
     5
  1
23040
  7
Note Text (ISO)
 73
     1
 44
1.0
  0
XRECORD
  5
187B
102
{ACAD_REACTORS
330
1162
102
}
330
1162
100
AcDbXrecord
280
     1
102
ACAD_MATT_HEIGHT
140
2.5
  0
XRECORD
  5
187E
102
{ACAD_REACTORS
330
1165
102
}
330
1165
100
AcDbXrecord
280
     1
 70
     4
 70
     0
 70
     0
 40
1.0
  2
DATA_UTWORZENIA
  1
Embedded Object
 10
190.5938075676742
 20
13.68422014898353
 30
0.0
 40
2.5
 41
40.52963831958745
 46
0.0
 71
     1
 72
     5
  1
2016-08-30
  7
Note Text (ISO)
 73
     1
 44
1.0
  0
XRECORD
  5
187D
102
{ACAD_REACTORS
330
1165
102
}
330
1165
100
AcDbXrecord
280
     1
102
ACAD_MATT_HEIGHT
140
2.5
  0
XRECORD
  5
1880
102
{ACAD_REACTORS
330
1168
102
}
330
1168
100
AcDbXrecord
280
     1
 70
     4
 70
     0
 70
     0
 40
1.0
  2
Nazwa
  1
Embedded Object
 10
178.5232904425422
 20
17.1120240446817
 30
0.0
 40
2.5
 41
38.632931107587
 46
0.0
 71
     1
 72
     5
  1
Deska surfingowa
  7
Note Text (ISO)
 73
     1
 44
1.0
  0
XRECORD
  5
187F
102
{ACAD_REACTORS
330
1168
102
}
330
1168
100
AcDbXrecord
280
     1
102
ACAD_MATT_HEIGHT
140
2.5
  0
XRECORD
  5
1882
102
{ACAD_REACTORS
330
179D
102
}
330
179D
100
AcDbXrecord
280
     1
 70
     2
 70
     0
 70
     0
 40
1.0
  2
Numer_katalogowy
  1
Embedded Object
 10
6849.307051383071
 20
-620.5622587188554
 30
0.0
 40
87.5
 41
1387.0919321445
 46
0.0
 71
     1
 72
     5
  1
23040
  7
Note Text (ISO)
 73
     1
 44
1.0
  0
XRECORD
  5
1881
102
{ACAD_REACTORS
330
179D
102
}
330
179D
100
AcDbXrecord
280
     1
102
ACAD_MATT_HEIGHT
140
87.5
  0
XRECORD
  5
1884
102
{ACAD_REACTORS
330
179F
102
}
330
179F
100
AcDbXrecord
280
     1
 70
     2
 70
     0
 70
     0
 40
1.0
  2
DATA_UTWORZENIA
  1
Embedded Object
 10
7269.307051383072
 20
-865.7385515316857
 30
0.0
 40
87.5
 41
1418.537341185561
 46
0.0
 71
     1
 72
     5
  1
2016-08-30
  7
Note Text (ISO)
 73
     1
 44
1.0
  0
XRECORD
  5
1883
102
{ACAD_REACTORS
330
179F
102
}
330
179F
100
AcDbXrecord
280
     1
102
ACAD_MATT_HEIGHT
140
87.5
  0
XRECORD
  5
1886
102
{ACAD_REACTORS
330
17A1
102
}
330
17A1
100
AcDbXrecord
280
     1
 70
     2
 70
     0
 70
     0
 40
1.0
  2
Nazwa
  1
Embedded Object
 10
6846.838952003451
 20
-745.7654151822498
 30
0.0
 40
87.5
 41
1352.152588765545
 46
0.0
 71
     1
 72
     5
  1
Deska surfingowa
  7
Note Text (ISO)
 73
     1
 44
1.0
  0
XRECORD
  5
1885
102
{ACAD_REACTORS
330
17A1
102
}
330
17A1
100
AcDbXrecord
280
     1
102
ACAD_MATT_HEIGHT
140
87.5
  0
XRECORD
  5
188A
102
{ACAD_REACTORS
330
1889
102
}
330
1889
100
AcDbXrecord
280
     1
 70
     1
  0
XRECORD
  5
188C
102
{ACAD_REACTORS
330
1889
102
}
330
1889
100
AcDbXrecord
280
     1
340
5B
  0
XRECORD
  5
188D
102
{ACAD_REACTORS
330
1889
102
}
330
1889
100
AcDbXrecord
280
     1
340
5B
  0
XRECORD
  5
188B
102
{ACAD_REACTORS
330
1889
102
}
330
1889
100
AcDbXrecord
280
     1
340
5B
  0
LAYOUT
  5
6B
102
{ACAD_XDICTIONARY
360
18BF
102
}
102
{ACAD_REACTORS
330
62
102
}
330
62
100
AcDbPlotSettings
  1

  2

  4

  6

 40
0.0
 41
0.0
 42
0.0
 43
0.0
 44
0.0
 45
0.0
 46
0.0
 47
0.0
 48
0.0
 49
0.0
140
0.0
141
0.0
142
1.0
143
1.0
 70
   688
 72
     0
 73
     0
 74
     5
  7

 75
    16
147
1.0
148
0.0
149
0.0
100
AcDbLayout
  1
Layout1
 70
     1
 71
     1
 10
0.0
 20
0.0
 11
7425.0
 21
5250.0
 12
0.0
 22
0.0
 32
0.0
 14
0.0
 24
0.0
 34
0.0
 15
7425.0
 25
5250.0
 35
0.0
146
0.0
 13
0.0
 23
0.0
 33
0.0
 16
1.0
 26
0.0
 36
0.0
 17
0.0
 27
1.0
 37
0.0
 76
     0
330
68
  0
LAYOUT
  5
73
102
{ACAD_XDICTIONARY
360
18C3
102
}
102
{ACAD_REACTORS
330
62
102
}
330
62
100
AcDbPlotSettings
  1

  2

  4

  6

 40
0.0
 41
0.0
 42
0.0
 43
0.0
 44
0.0
 45
0.0
 46
0.0
 47
0.0
 48
0.0
 49
0.0
140
0.0
141
0.0
142
1.0
143
1.0
 70
   688
 72
     0
 73
     0
 74
     5
  7

 75
    16
147
1.0
148
0.0
149
0.0
100
AcDbLayout
  1
Layout2
 70
     1
 71
     2
 10
0.0
 20
0.0
 11
12.0
 21
9.0
 12
0.0
 22
0.0
 32
0.0
 14
0.0
 24
0.0
 34
0.0
 15
0.0
 25
0.0
 35
0.0
146
0.0
 13
0.0
 23
0.0
 33
0.0
 16
1.0
 26
0.0
 36
0.0
 17
0.0
 27
1.0
 37
0.0
 76
     0
330
70
  0
LAYOUT
  5
6F
102
{ACAD_XDICTIONARY
360
18C1
102
}
102
{ACAD_REACTORS
330
62
102
}
330
62
100
AcDbPlotSettings
  1

  2

  4

  6

 40
0.0
 41
0.0
 42
0.0
 43
0.0
 44
0.0
 45
0.0
 46
0.0
 47
0.0
 48
0.0
 49
0.0
140
0.0
141
0.0
142
1.0
143
1.0
 70
  1712
 72
     0
 73
     0
 74
     0
  7

 75
     0
147
1.0
148
0.0
149
0.0
100
AcDbLayout
  1
Model
 70
     1
 71
     0
 10
0.0
 20
0.0
 11
12.0
 21
9.0
 12
0.0
 22
0.0
 32
0.0
 14
0.0
 24
0.0
 34
0.0
 15
0.0
 25
0.0
 35
0.0
146
0.0
 13
0.0
 23
0.0
 33
0.0
 16
1.0
 26
0.0
 36
0.0
 17
0.0
 27
1.0
 37
0.0
 76
     0
330
6C
331
57
  0
MATERIAL
  5
19
102
{ACAD_XDICTIONARY
360
1A
102
}
102
{ACAD_REACTORS
330
10
102
}
330
10
100
AcDbMaterial
  1
ByBlock
 72
     0
 43
0.0208333333333333
 43
0.0
 43
0.0
 43
0.0
 43
0.0
 43
0.0208333333333333
 43
0.0
 43
0.0
 43
0.0
 43
0.0
 43
1.0
 43
0.0
 43
0.0
 43
0.0
 43
0.0
 43
1.0
 77
     0
 47
0.0208333333333333
 47
0.0
 47
0.0
 47
0.0
 47
0.0
 47
0.0208333333333333
 47
0.0
 47
0.0
 47
0.0
 47
0.0
 47
1.0
 47
0.0
 47
0.0
 47
0.0
 47
0.0
 47
1.0
171
     0
 49
0.0208333333333333
 49
0.0
 49
0.0
 49
0.0
 49
0.0
 49
0.0208333333333333
 49
0.0
 49
0.0
 49
0.0
 49
0.0
 49
1.0
 49
0.0
 49
0.0
 49
0.0
 49
0.0
 49
1.0
175
     0
142
0.0208333333333333
142
0.0
142
0.0
142
0.0
142
0.0
142
0.0208333333333333
142
0.0
142
0.0
142
0.0
142
0.0
142
1.0
142
0.0
142
0.0
142
0.0
142
0.0
142
1.0
179
     0
144
0.0208333333333333
144
0.0
144
0.0
144
0.0
144
0.0
144
0.0208333333333333
144
0.0
144
0.0
144
0.0
144
0.0
144
1.0
144
0.0
144
0.0
144
0.0
144
0.0
144
1.0
147
0.0208333333333333
147
0.0
147
0.0
147
0.0
147
0.0
147
0.0208333333333333
147
0.0
147
0.0
147
0.0
147
0.0
147
1.0
147
0.0
147
0.0
147
0.0
147
0.0
147
1.0
  0
MATERIAL
  5
11
102
{ACAD_XDICTIONARY
360
12
102
}
102
{ACAD_REACTORS
330
10
102
}
330
10
100
AcDbMaterial
  1
ByLayer
 72
     0
 43
0.0208333333333333
 43
0.0
 43
0.0
 43
0.0
 43
0.0
 43
0.0208333333333333
 43
0.0
 43
0.0
 43
0.0
 43
0.0
 43
1.0
 43
0.0
 43
0.0
 43
0.0
 43
0.0
 43
1.0
 77
     0
 47
0.0208333333333333
 47
0.0
 47
0.0
 47
0.0
 47
0.0
 47
0.0208333333333333
 47
0.0
 47
0.0
 47
0.0
 47
0.0
 47
1.0
 47
0.0
 47
0.0
 47
0.0
 47
0.0
 47
1.0
171
     0
 49
0.0208333333333333
 49
0.0
 49
0.0
 49
0.0
 49
0.0
 49
0.0208333333333333
 49
0.0
 49
0.0
 49
0.0
 49
0.0
 49
1.0
 49
0.0
 49
0.0
 49
0.0
 49
0.0
 49
1.0
175
     0
142
0.0208333333333333
142
0.0
142
0.0
142
0.0
142
0.0
142
0.0208333333333333
142
0.0
142
0.0
142
0.0
142
0.0
142
1.0
142
0.0
142
0.0
142
0.0
142
0.0
142
1.0
179
     0
144
0.0208333333333333
144
0.0
144
0.0
144
0.0
144
0.0
144
0.0208333333333333
144
0.0
144
0.0
144
0.0
144
0.0
144
1.0
144
0.0
144
0.0
144
0.0
144
0.0
144
1.0
147
0.0208333333333333
147
0.0
147
0.0
147
0.0
147
0.0
147
0.0208333333333333
147
0.0
147
0.0
147
0.0
147
0.0
147
1.0
147
0.0
147
0.0
147
0.0
147
0.0
147
1.0
  0
MATERIAL
  5
21
102
{ACAD_XDICTIONARY
360
22
102
}
102
{ACAD_REACTORS
330
10
102
}
330
10
100
AcDbMaterial
  1
Global
 72
     0
 43
0.0208333333333333
 43
0.0
 43
0.0
 43
0.0
 43
0.0
 43
0.0208333333333333
 43
0.0
 43
0.0
 43
0.0
 43
0.0
 43
1.0
 43
0.0
 43
0.0
 43
0.0
 43
0.0
 43
1.0
 77
     0
 47
0.0208333333333333
 47
0.0
 47
0.0
 47
0.0
 47
0.0
 47
0.0208333333333333
 47
0.0
 47
0.0
 47
0.0
 47
0.0
 47
1.0
 47
0.0
 47
0.0
 47
0.0
 47
0.0
 47
1.0
171
     0
 49
0.0208333333333333
 49
0.0
 49
0.0
 49
0.0
 49
0.0
 49
0.0208333333333333
 49
0.0
 49
0.0
 49
0.0
 49
0.0
 49
1.0
 49
0.0
 49
0.0
 49
0.0
 49
0.0
 49
1.0
175
     0
142
0.0208333333333333
142
0.0
142
0.0
142
0.0
142
0.0
142
0.0208333333333333
142
0.0
142
0.0
142
0.0
142
0.0
142
1.0
142
0.0
142
0.0
142
0.0
142
0.0
142
1.0
179
     0
144
0.0208333333333333
144
0.0
144
0.0
144
0.0
144
0.0
144
0.0208333333333333
144
0.0
144
0.0
144
0.0
144
0.0
144
1.0
144
0.0
144
0.0
144
0.0
144
0.0
144
1.0
147
0.0208333333333333
147
0.0
147
0.0
147
0.0
147
0.0
147
0.0208333333333333
147
0.0
147
0.0
147
0.0
147
0.0
147
1.0
147
0.0
147
0.0
147
0.0
147
0.0
147
1.0
  0
MLEADERSTYLE
  5
67
102
{ACAD_REACTORS
330
66
102
}
330
66
100
AcDbMLeaderStyle
170
     2
171
     1
172
     0
 90
        2
 40
0.0
 41
0.0
173
     1
 91
-1056964608
340
5B
 92
       -2
290
     1
 42
0.09
291
     1
 43
0.36
  3
Standard
 44
0.18
300

342
55
174
     1
178
     6
175
     1
176
     0
 93
-1056964608
 45
0.18
292
     0
297
     0
 46
0.18
 94
-1056964608
 47
1.0
 49
1.0
140
1.0
293
     1
141
0.0
294
     1
177
     0
142
1.0
295
     0
296
     0
143
0.125
1001
ACAD_MLEADERVER
1070
     2
  0
MLINESTYLE
  5
60
102
{ACAD_REACTORS
330
5F
102
}
330
5F
100
AcDbMlineStyle
  2
STANDARD
 70
     0
  3

 62
   256
 51
90.0
 52
90.0
 71
     2
 49
0.5
 62
   256
  6
BYLAYER
 49
-0.5
 62
   256
  6
BYLAYER
  0
ACDBPLACEHOLDER
  5
F
102
{ACAD_REACTORS
330
E
102
}
330
E
  0
SCALE
  5
43
102
{ACAD_REACTORS
330
42
102
}
330
42
100
AcDbScale
 70
     0
300
1:1
140
1.0
141
1.0
290
     1
  0
SCALE
  5
44
102
{ACAD_REACTORS
330
42
102
}
330
42
100
AcDbScale
 70
     0
300
1/128" = 1'-0"
140
0.0078125
141
12.0
290
     0
  0
SCALE
  5
45
102
{ACAD_REACTORS
330
42
102
}
330
42
100
AcDbScale
 70
     0
300
1/64" = 1'-0"
140
0.015625
141
12.0
290
     0
  0
SCALE
  5
46
102
{ACAD_REACTORS
330
42
102
}
330
42
100
AcDbScale
 70
     0
300
1/32" = 1'-0"
140
0.03125
141
12.0
290
     0
  0
SCALE
  5
47
102
{ACAD_REACTORS
330
42
102
}
330
42
100
AcDbScale
 70
     0
300
1/16" = 1'-0"
140
0.0625
141
12.0
290
     0
  0
SCALE
  5
48
102
{ACAD_REACTORS
330
42
102
}
330
42
100
AcDbScale
 70
     0
300
3/32" = 1'-0"
140
0.09375
141
12.0
290
     0
  0
SCALE
  5
49
102
{ACAD_REACTORS
330
42
102
}
330
42
100
AcDbScale
 70
     0
300
1/8" = 1'-0"
140
0.125
141
12.0
290
     0
  0
SCALE
  5
4A
102
{ACAD_REACTORS
330
42
102
}
330
42
100
AcDbScale
 70
     0
300
3/16" = 1'-0"
140
0.1875
141
12.0
290
     0
  0
SCALE
  5
4B
102
{ACAD_REACTORS
330
42
102
}
330
42
100
AcDbScale
 70
     0
300
1/4" = 1'-0"
140
0.25
141
12.0
290
     0
  0
SCALE
  5
4C
102
{ACAD_REACTORS
330
42
102
}
330
42
100
AcDbScale
 70
     0
300
3/8" = 1'-0"
140
0.375
141
12.0
290
     0
  0
SCALE
  5
4D
102
{ACAD_REACTORS
330
42
102
}
330
42
100
AcDbScale
 70
     0
300
1/2" = 1'-0"
140
0.5
141
12.0
290
     0
  0
SCALE
  5
4E
102
{ACAD_REACTORS
330
42
102
}
330
42
100
AcDbScale
 70
     0
300
3/4" = 1'-0"
140
0.75
141
12.0
290
     0
  0
SCALE
  5
4F
102
{ACAD_REACTORS
330
42
102
}
330
42
100
AcDbScale
 70
     0
300
1" = 1'-0"
140
1.0
141
12.0
290
     0
  0
SCALE
  5
50
102
{ACAD_REACTORS
330
42
102
}
330
42
100
AcDbScale
 70
     0
300
1-1/2" = 1'-0"
140
1.5
141
12.0
290
     0
  0
SCALE
  5
51
102
{ACAD_REACTORS
330
42
102
}
330
42
100
AcDbScale
 70
     0
300
3" = 1'-0"
140
3.0
141
12.0
290
     0
  0
SCALE
  5
52
102
{ACAD_REACTORS
330
42
102
}
330
42
100
AcDbScale
 70
     0
300
6" = 1'-0"
140
6.0
141
12.0
290
     0
  0
SCALE
  5
53
102
{ACAD_REACTORS
330
42
102
}
330
42
100
AcDbScale
 70
     0
300
1'-0" = 1'-0"
140
12.0
141
12.0
290
     0
  0
TABLESTYLE
  5
65
102
{ACAD_XDICTIONARY
360
1160
102
}
102
{ACAD_REACTORS
330
64
102
}
330
64
100
AcDbTableStyle
  3
Standard
 70
     0
 71
     0
 40
0.06
 41
0.06
280
     0
281
     0
  7
Standard
140
0.18
170
     2
 62
     0
 63
     7
283
     0
274
    -2
284
     1
 64
     0
275
    -2
285
     1
 65
     0
276
    -2
286
     1
 66
     0
277
    -2
287
     1
 67
     0
278
    -2
288
     1
 68
     0
279
    -2
289
     1
 69
     0
  7
Standard
140
0.25
170
     5
 62
     0
 63
     7
283
     0
274
    -2
284
     1
 64
     0
275
    -2
285
     1
 65
     0
276
    -2
286
     1
 66
     0
277
    -2
287
     1
 67
     0
278
    -2
288
     1
 68
     0
279
    -2
289
     1
 69
     0
  7
Standard
140
0.18
170
     5
 62
     0
 63
     7
283
     0
274
    -2
284
     1
 64
     0
275
    -2
285
     1
 65
     0
276
    -2
286
     1
 66
     0
277
    -2
287
     1
 67
     0
278
    -2
288
     1
 68
     0
279
    -2
289
     1
 69
     0
  0
VISUALSTYLE
  5
2F
102
{ACAD_XDICTIONARY
360
1898
102
}
102
{ACAD_REACTORS
330
29
102
}
330
29
100
AcDbVisualStyle
  2

 70
     4
 71
     0
 72
     2
 73
     0
 90
        0
 40
-0.6
 41
-30.0
 62
     5
 63
     7
 74
     1
 91
        4
 64
     7
 65
   257
 75
     1
175
     1
 42
1.0
 92
        0
 66
   257
 43
1.0
 76
     1
 77
     6
 78
     2
 67
     7
 79
     5
170
     0
171
     0
290
     0
174
     0
 93
        1
 44
0.0
173
     0
291
     0
 45
0.0
1001
ACAD
1000
AcDbSavedByObjectVersion
1070
     0
  0
VISUALSTYLE
  5
2E
102
{ACAD_XDICTIONARY
360
1896
102
}
102
{ACAD_REACTORS
330
29
102
}
330
29
100
AcDbVisualStyle
  2

 70
     7
 71
     1
 72
     0
 73
     1
 90
        0
 40
-0.6
 41
-30.0
 62
     5
 63
     7
 74
     0
 91
        4
 64
     7
 65
   257
 75
     1
175
     1
 42
1.0
 92
        8
 66
     7
 43
1.0
 76
     1
 77
     6
 78
     2
 67
     7
 79
     5
170
     0
171
     0
290
     0
174
     0
 93
        1
 44
0.0
173
     0
291
     1
 45
0.0
1001
ACAD
1000
AcDbSavedByObjectVersion
1070
     0
  0
VISUALSTYLE
  5
35
102
{ACAD_XDICTIONARY
360
18A4
102
}
102
{ACAD_REACTORS
330
29
102
}
330
29
100
AcDbVisualStyle
  2

 70
    12
 71
     2
 72
     2
 73
     0
 90
        0
 40
-0.6
 41
-30.0
 62
     5
 63
     7
 74
     1
 91
        4
 64
     7
 65
   257
 75
     1
175
     1
 42
1.0
 92
        8
 66
     7
 43
1.0
 76
     1
 77
     6
 78
     2
 67
     7
 79
     5
170
     0
171
     0
290
     0
174
     0
 93
        1
 44
50.0
173
     0
291
     1
 45
0.0
1001
ACAD
1000
AcDbSavedByObjectVersion
1070
     0
  0
VISUALSTYLE
  5
39
102
{ACAD_XDICTIONARY
360
18AC
102
}
102
{ACAD_REACTORS
330
29
102
}
330
29
100
AcDbVisualStyle
  2

 70
    16
 71
     2
 72
     2
 73
     3
 90
        0
 40
-0.6
 41
-30.0
 62
     5
 63
     8
 74
     1
 91
        4
 64
     7
 65
   257
 75
     1
175
     1
 42
1.0
 92
        8
 66
     8
 43
1.0
 76
     1
 77
     6
 78
     2
 67
     7
 79
     5
170
     0
171
     0
290
     0
174
     0
 93
        1
 44
0.0
173
     0
291
     1
 45
0.0
1001
ACAD
1000
AcDbSavedByObjectVersion
1070
     0
  0
VISUALSTYLE
  5
32
102
{ACAD_XDICTIONARY
360
189E
102
}
102
{ACAD_REACTORS
330
29
102
}
330
29
100
AcDbVisualStyle
  2

 70
     9
 71
     3
 72
     2
 73
     0
 90
        0
 40
-0.6
 41
-30.0
 62
     5
 63
     7
 74
     2
 91
        2
 64
     7
 65
   257
 75
     1
175
     1
 42
179.0
 92
        8
 66
     7
 43
1.0
 76
     1
 77
     6
 78
     2
 67
     7
 79
     3
170
     0
171
     0
290
     0
174
     0
 93
        1
 44
0.0
173
     0
291
     0
 45
0.0
1001
ACAD
1000
AcDbSavedByObjectVersion
1070
     0
  0
VISUALSTYLE
  5
34
102
{ACAD_XDICTIONARY
360
18A2
102
}
102
{ACAD_REACTORS
330
29
102
}
330
29
100
AcDbVisualStyle
  2

 70
    11
 71
     2
 72
     2
 73
     0
 90
        0
 40
-0.6
 41
-30.0
 62
     5
 63
     7
 74
     1
 91
        4
 64
     7
 65
   257
 75
     1
175
     1
 42
1.0
 92
        8
 66
     7
 43
1.0
 76
     1
 77
     6
 78
     2
 67
     7
 79
     5
170
     0
171
     0
290
     0
174
     0
 93
        1
 44
-50.0
173
     0
291
     1
 45
0.0
1001
ACAD
1000
AcDbSavedByObjectVersion
1070
     0
  0
VISUALSTYLE
  5
41
102
{ACAD_XDICTIONARY
360
18BC
102
}
102
{ACAD_REACTORS
330
29
102
}
330
29
100
AcDbVisualStyle
  2

 70
    22
 71
     2
 72
     2
 73
     0
 90
        0
 40
-0.6
 41
-30.0
 62
     5
 63
     7
 74
     1
 91
        4
 64
     7
 65
   257
 75
     1
175
     1
 42
1.0
 92
        8
 66
     7
 43
1.0
 76
     1
 77
     6
 78
     2
 67
     7
 79
     5
170
     0
171
     0
290
     0
174
     0
 93
        1
 44
0.0
173
     0
291
     1
 45
0.0
1001
ACAD
1000
AcDbSavedByObjectVersion
1070
     0
  0
VISUALSTYLE
  5
38
102
{ACAD_XDICTIONARY
360
18AA
102
}
102
{ACAD_REACTORS
330
29
102
}
330
29
100
AcDbVisualStyle
  2

 70
    15
 71
     2
 72
     2
 73
     0
 90
        0
 40
-0.6
 41
-30.0
 62
     5
 63
     7
 74
     1
 91
        4
 64
     7
 65
   257
 75
     1
175
     1
 42
1.0
 92
        8
 66
     7
 43
1.0
 76
     1
 77
     6
 78
     2
 67
     7
 79
     5
170
     0
171
     0
290
     0
174
     0
 93
        1
 44
0.0
173
     0
291
     1
 45
0.0
1001
ACAD
1000
AcDbSavedByObjectVersion
1070
     0
  0
VISUALSTYLE
  5
2A
102
{ACAD_XDICTIONARY
360
188E
102
}
102
{ACAD_REACTORS
330
29
102
}
330
29
100
AcDbVisualStyle
  2

 70
     0
 71
     2
 72
     1
 73
     1
 90
        2
 40
-0.6
 41
30.0
 62
     5
 63
     7
 74
     0
 91
        0
 64
     7
 65
   257
 75
     1
175
     1
 42
1.0
 92
        8
 66
     7
 43
1.0
 76
     1
 77
     6
 78
     2
 67
     7
 79
     5
170
     0
171
     0
290
     0
174
     0
 93
       13
 44
0.0
173
     0
291
     1
 45
0.0
1001
ACAD
1000
AcDbSavedByObjectVersion
1070
     0
  0
VISUALSTYLE
  5
2B
102
{ACAD_XDICTIONARY
360
1890
102
}
102
{ACAD_REACTORS
330
29
102
}
330
29
100
AcDbVisualStyle
  2

 70
     1
 71
     2
 72
     1
 73
     1
 90
        2
 40
-0.6
 41
30.0
 62
     5
 63
     7
 74
     1
 91
        0
 64
     7
 65
   257
 75
     1
175
     1
 42
1.0
 92
        0
 66
   257
 43
1.0
 76
     1
 77
     6
 78
     2
 67
     7
 79
     5
170
     0
171
     0
290
     0
174
     0
 93
       13
 44
0.0
173
     0
291
     1
 45
0.0
1001
ACAD
1000
AcDbSavedByObjectVersion
1070
     0
  0
VISUALSTYLE
  5
2C
102
{ACAD_XDICTIONARY
360
1892
102
}
102
{ACAD_REACTORS
330
29
102
}
330
29
100
AcDbVisualStyle
  2

 70
     2
 71
     2
 72
     2
 73
     1
 90
        2
 40
-0.6
 41
30.0
 62
     5
 63
     7
 74
     0
 91
        0
 64
     7
 65
   257
 75
     1
175
     1
 42
1.0
 92
        0
 66
     7
 43
1.0
 76
     1
 77
     6
 78
     2
 67
     7
 79
     5
170
     0
171
     0
290
     0
174
     0
 93
       13
 44
0.0
173
     0
291
     1
 45
0.0
1001
ACAD
1000
AcDbSavedByObjectVersion
1070
     0
  0
VISUALSTYLE
  5
2D
102
{ACAD_XDICTIONARY
360
1894
102
}
102
{ACAD_REACTORS
330
29
102
}
330
29
100
AcDbVisualStyle
  2

 70
     3
 71
     2
 72
     2
 73
     1
 90
        2
 40
-0.6
 41
30.0
 62
     5
 63
     7
 74
     1
 91
        0
 64
     7
 65
   257
 75
     1
175
     1
 42
1.0
 92
        0
 66
   257
 43
1.0
 76
     1
 77
     6
 78
     2
 67
     7
 79
     5
170
     0
171
     0
290
     0
174
     0
 93
       13
 44
0.0
173
     0
291
     1
 45
0.0
1001
ACAD
1000
AcDbSavedByObjectVersion
1070
     0
  0
VISUALSTYLE
  5
31
102
{ACAD_XDICTIONARY
360
189C
102
}
102
{ACAD_REACTORS
330
29
102
}
330
29
100
AcDbVisualStyle
  2

 70
     6
 71
     1
 72
     2
 73
     2
 90
        0
 40
-0.6
 41
-30.0
 62
     5
 63
     7
 74
     2
 91
        2
 64
     7
 65
   257
 75
     2
175
     1
 42
40.0
 92
        0
 66
   257
 43
1.0
 76
     1
 77
     6
 78
     2
 67
     7
 79
     3
170
     0
171
     0
290
     0
174
     0
 93
        1
 44
0.0
173
     0
291
     0
 45
0.0
1001
ACAD
1000
AcDbSavedByObjectVersion
1070
     0
  0
VISUALSTYLE
  5
3F
102
{ACAD_XDICTIONARY
360
18B8
102
}
102
{ACAD_REACTORS
330
29
102
}
330
29
100
AcDbVisualStyle
  2

 70
    20
 71
     2
 72
     2
 73
     0
 90
        0
 40
-0.6
 41
-30.0
 62
     5
 63
     7
 74
     1
 91
        4
 64
     7
 65
   257
 75
     1
175
     1
 42
1.0
 92
       10
 66
     7
 43
1.0
 76
     1
 77
     6
 78
     2
 67
     7
 79
     5
170
     0
171
     0
290
     0
174
     0
 93
        1
 44
0.0
173
     0
291
     1
 45
0.0
1001
ACAD
1000
AcDbSavedByObjectVersion
1070
     0
  0
VISUALSTYLE
  5
37
102
{ACAD_XDICTIONARY
360
18A8
102
}
102
{ACAD_REACTORS
330
29
102
}
330
29
100
AcDbVisualStyle
  2

 70
    14
 71
     2
 72
     2
 73
     0
 90
        0
 40
-0.6
 41
-30.0
 62
     5
 63
     7
 74
     1
 91
        4
 64
     7
 65
   257
 75
     7
175
     7
 42
1.0
 92
        8
 66
     7
 43
1.0
 76
     1
 77
     6
 78
     2
 67
     7
 79
     5
170
     0
171
     0
290
     0
174
     0
 93
        1
 44
0.0
173
     0
291
     1
 45
0.0
1001
ACAD
1000
AcDbSavedByObjectVersion
1070
     0
  0
VISUALSTYLE
  5
40
102
{ACAD_XDICTIONARY
360
18BA
102
}
102
{ACAD_REACTORS
330
29
102
}
330
29
100
AcDbVisualStyle
  2

 70
    21
 71
     2
 72
     2
 73
     0
 90
        0
 40
-0.6
 41
-30.0
 62
     5
 63
     7
 74
     1
 91
        4
 64
     7
 65
   257
 75
     1
175
     1
 42
1.0
 92
        9
 66
     7
 43
1.0
 76
     1
 77
     6
 78
     2
 67
     7
 79
     5
170
     0
171
     0
290
     0
174
     0
 93
        1
 44
0.0
173
     0
291
     1
 45
0.0
1001
ACAD
1000
AcDbSavedByObjectVersion
1070
     0
  0
VISUALSTYLE
  5
33
102
{ACAD_XDICTIONARY
360
18A0
102
}
102
{ACAD_REACTORS
330
29
102
}
330
29
100
AcDbVisualStyle
  2

 70
     8
 71
     2
 72
     2
 73
     0
 90
        2
 40
-0.6
 41
30.0
 62
     5
 63
     7
 74
     0
 91
        0
 64
     7
 65
   257
 75
     1
175
     1
 42
1.0
 92
        8
 66
   257
 43
1.0
 76
     1
 77
     6
 78
     2
 67
     7
 79
     3
170
     0
171
     0
290
     0
174
     0
 93
       13
 44
0.0
173
     0
291
     0
 45
0.0
1001
ACAD
1000
AcDbSavedByObjectVersion
1070
     0
  0
VISUALSTYLE
  5
3E
102
{ACAD_XDICTIONARY
360
18B6
102
}
102
{ACAD_REACTORS
330
29
102
}
330
29
100
AcDbVisualStyle
  2

 70
    27
 71
     2
 72
     2
 73
     1
 90
        2
 40
-0.6
 41
30.0
 62
     5
 63
     7
 74
     0
 91
        4
 64
     7
 65
   257
 75
     1
175
     1
 42
1.0
 92
        8
 66
   257
 43
1.0
 76
     1
 77
     6
 78
     2
 67
     8
 79
     3
170
     0
171
     0
290
     0
174
     0
 93
        5
 44
0.0
173
     0
291
     0
 45
0.0
1001
ACAD
1000
AcDbSavedByObjectVersion
1070
     0
  0
VISUALSTYLE
  5
3D
102
{ACAD_XDICTIONARY
360
18B4
102
}
102
{ACAD_REACTORS
330
29
102
}
330
29
100
AcDbVisualStyle
  2

 70
    26
 71
     2
 72
     2
 73
     1
 90
        2
 40
-0.6
 41
30.0
 62
     5
 63
     7
 74
     1
 91
       10
 64
     7
 65
   257
 75
     2
175
     1
 42
1.0
 92
        8
 66
   257
 43
1.0
 76
     1
 77
     6
 78
     2
 67
     7
 79
     3
170
     0
171
     0
290
     0
174
     0
 93
        5
 44
0.0
173
     0
291
     0
 45
0.0
1001
ACAD
1000
AcDbSavedByObjectVersion
1070
     0
  0
VISUALSTYLE
  5
3A
102
{ACAD_XDICTIONARY
360
18AE
102
}
102
{ACAD_REACTORS
330
29
102
}
330
29
100
AcDbVisualStyle
  2

 70
    23
 71
     2
 72
     2
 73
     3
 90
        0
 40
-0.6
 41
-30.0
 62
     5
 63
     7
 74
     2
 91
        2
 64
     7
 65
     7
 75
     1
175
     1
 42
40.0
 92
        8
 66
     7
 43
1.0
 76
     1
 77
     6
 78
     2
 67
     7
 79
     3
170
     0
171
     0
290
     0
174
     0
 93
        1
 44
0.0
173
     0
291
     0
 45
0.0
1001
ACAD
1000
AcDbSavedByObjectVersion
1070
     0
  0
VISUALSTYLE
  5
3B
102
{ACAD_XDICTIONARY
360
18B0
102
}
102
{ACAD_REACTORS
330
29
102
}
330
29
100
AcDbVisualStyle
  2

 70
    24
 71
     1
 72
     2
 73
     2
 90
        0
 40
-0.6
 41
-30.0
 62
     5
 63
     7
 74
     2
 91
        2
 64
     7
 65
     7
 75
     1
175
     1
 42
40.0
 92
       11
 66
     7
 43
1.0
 76
     1
 77
     6
 78
     2
 67
     7
 79
     6
170
     0
171
     0
290
     0
174
     0
 93
        1
 44
0.0
173
     0
291
     0
 45
0.0
1001
ACAD
1000
AcDbSavedByObjectVersion
1070
     0
  0
VISUALSTYLE
  5
36
102
{ACAD_XDICTIONARY
360
18A6
102
}
102
{ACAD_REACTORS
330
29
102
}
330
29
100
AcDbVisualStyle
  2

 70
    13
 71
     2
 72
     2
 73
     0
 90
        0
 40
-0.6
 41
-30.0
 62
     5
 63
     7
 74
     1
 91
        4
 64
     7
 65
   257
 75
     1
175
     1
 42
1.0
 92
       12
 66
     7
 43
1.0
 76
     1
 77
     6
 78
     2
 67
     7
 79
     5
170
     0
171
     0
290
     0
174
     0
 93
        1
 44
0.0
173
     0
291
     1
 45
0.0
1001
ACAD
1000
AcDbSavedByObjectVersion
1070
     0
  0
VISUALSTYLE
  5
30
102
{ACAD_XDICTIONARY
360
189A
102
}
102
{ACAD_REACTORS
330
29
102
}
330
29
100
AcDbVisualStyle
  2

 70
     5
 71
     0
 72
     2
 73
     0
 90
        0
 40
-0.6
 41
-30.0
 62
     5
 63
     7
 74
     1
 91
        4
 64
     7
 65
   257
 75
     1
175
     1
 42
1.0
 92
        0
 66
   257
 43
1.0
 76
     1
 77
     6
 78
     2
 67
     7
 79
     3
170
     0
171
     0
290
     0
174
     0
 93
        1
 44
0.0
173
     0
291
     0
 45
0.0
1001
ACAD
1000
AcDbSavedByObjectVersion
1070
     0
  0
VISUALSTYLE
  5
3C
102
{ACAD_XDICTIONARY
360
18B2
102
}
102
{ACAD_REACTORS
330
29
102
}
330
29
100
AcDbVisualStyle
  2

 70
    25
 71
     2
 72
     2
 73
     1
 90
        1
 40
0.5
 41
-30.0
 62
     5
 63
     7
 74
     1
 91
        0
 64
     7
 65
   257
 75
     1
175
     1
 42
1.0
 92
        8
 66
     7
 43
1.0
 76
     1
 77
     6
 78
     2
 67
     7
 79
     3
170
     0
171
     0
290
     0
174
     0
 93
       13
 44
0.0
173
     0
291
     0
 45
0.0
1001
ACAD
1000
AcDbSavedByObjectVersion
1070
     0
  0
DICTIONARYVAR
  5
11C1
102
{ACAD_REACTORS
330
11BD
102
}
330
11BD
100
DictionaryVariables
280
     0
  1
1:1
  0
DICTIONARYVAR
  5
11BF
102
{ACAD_REACTORS
330
11BD
102
}
330
11BD
100
DictionaryVariables
280
     0
  1
STANDARD
  0
DICTIONARYVAR
  5
11BE
102
{ACAD_REACTORS
330
11BD
102
}
330
11BD
100
DictionaryVariables
280
     0
  1
STANDARD
  0
DICTIONARYVAR
  5
11C8
102
{ACAD_REACTORS
330
11BD
102
}
330
11BD
100
DictionaryVariables
280
     0
  1
1
  0
DICTIONARYVAR
  5
11C7
102
{ACAD_REACTORS
330
11BD
102
}
330
11BD
100
DictionaryVariables
280
     0
  1
1
  0
DICTIONARYVAR
  5
11C6
102
{ACAD_REACTORS
330
11BD
102
}
330
11BD
100
DictionaryVariables
280
     0
  1
0
  0
DICTIONARYVAR
  5
11C3
102
{ACAD_REACTORS
330
11BD
102
}
330
11BD
100
DictionaryVariables
280
     0
  1
0
  0
DICTIONARYVAR
  5
11C4
102
{ACAD_REACTORS
330
11BD
102
}
330
11BD
100
DictionaryVariables
280
     0
  1
0
  0
DICTIONARYVAR
  5
11C2
102
{ACAD_REACTORS
330
11BD
102
}
330
11BD
100
DictionaryVariables
280
     0
  1
2
  0
DICTIONARYVAR
  5
11C0
102
{ACAD_REACTORS
330
11BD
102
}
330
11BD
100
DictionaryVariables
280
     0
  1
1
  0
DICTIONARYVAR
  5
11C5
102
{ACAD_REACTORS
330
11BD
102
}
330
11BD
100
DictionaryVariables
280
     0
  1
127
  0
DICTIONARYVAR
  5
1879
102
{ACAD_REACTORS
330
11BD
102
}
330
11BD
100
DictionaryVariables
280
     0
  1
2
  0
DICTIONARY
  5
122A
102
{ACAD_REACTORS
330
1221
102
}
330
1221
100
AcDbDictionary
281
     1
  0
DICTIONARY
  5
18BF
330
6B
100
AcDbDictionary
280
     1
281
     1
  3
ACAD_XREC_ROUNDTRIP
360
18C0
  0
DICTIONARY
  5
18C3
330
73
100
AcDbDictionary
280
     1
281
     1
  3
ACAD_XREC_ROUNDTRIP
360
18C4
  0
DICTIONARY
  5
18C1
330
6F
100
AcDbDictionary
280
     1
281
     1
  3
ACAD_XREC_ROUNDTRIP
360
18C2
  0
DICTIONARY
  5
1A
330
19
100
AcDbDictionary
280
     1
281
     1
  3
ACAD_XREC_ROUNDTRIP
360
12C1
  3
BUMPTILE
360
1C
  3
DIFFUSETILE
360
1B
  3
OPACITYTILE
360
1F
  3
REFLECTIONTILE
360
1E
  3
REFRACTIONTILE
360
20
  3
SPECULARTILE
360
1D
  0
DICTIONARY
  5
12
330
11
100
AcDbDictionary
280
     1
281
     1
  3
ACAD_XREC_ROUNDTRIP
360
12C0
  3
BUMPTILE
360
14
  3
DIFFUSETILE
360
13
  3
OPACITYTILE
360
17
  3
REFLECTIONTILE
360
16
  3
REFRACTIONTILE
360
18
  3
SPECULARTILE
360
15
  0
DICTIONARY
  5
22
330
21
100
AcDbDictionary
280
     1
281
     1
  3
ACAD_XREC_ROUNDTRIP
360
12C2
  3
BUMPTILE
360
24
  3
DIFFUSETILE
360
23
  3
OPACITYTILE
360
27
  3
REFLECTIONTILE
360
26
  3
REFRACTIONTILE
360
28
  3
SPECULARTILE
360
25
  0
DICTIONARY
  5
1160
330
65
100
AcDbDictionary
280
     1
281
     1
  3
ACAD_ROUNDTRIP_2008_TABLESTYLE_CELLSTYLEMAP
360
187A
  3
ACAD_XREC_ROUNDTRIP
360
18BE
  0
DICTIONARY
  5
1898
330
2F
100
AcDbDictionary
280
     1
281
     1
  3
ACAD_XREC_ROUNDTRIP
360
1899
  0
DICTIONARY
  5
1896
330
2E
100
AcDbDictionary
280
     1
281
     1
  3
ACAD_XREC_ROUNDTRIP
360
1897
  0
DICTIONARY
  5
18A4
330
35
100
AcDbDictionary
280
     1
281
     1
  3
ACAD_XREC_ROUNDTRIP
360
18A5
  0
DICTIONARY
  5
18AC
330
39
100
AcDbDictionary
280
     1
281
     1
  3
ACAD_XREC_ROUNDTRIP
360
18AD
  0
DICTIONARY
  5
189E
330
32
100
AcDbDictionary
280
     1
281
     1
  3
ACAD_XREC_ROUNDTRIP
360
189F
  0
DICTIONARY
  5
18A2
330
34
100
AcDbDictionary
280
     1
281
     1
  3
ACAD_XREC_ROUNDTRIP
360
18A3
  0
DICTIONARY
  5
18BC
330
41
100
AcDbDictionary
280
     1
281
     1
  3
ACAD_XREC_ROUNDTRIP
360
18BD
  0
DICTIONARY
  5
18AA
330
38
100
AcDbDictionary
280
     1
281
     1
  3
ACAD_XREC_ROUNDTRIP
360
18AB
  0
DICTIONARY
  5
188E
330
2A
100
AcDbDictionary
280
     1
281
     1
  3
ACAD_XREC_ROUNDTRIP
360
188F
  0
DICTIONARY
  5
1890
330
2B
100
AcDbDictionary
280
     1
281
     1
  3
ACAD_XREC_ROUNDTRIP
360
1891
  0
DICTIONARY
  5
1892
330
2C
100
AcDbDictionary
280
     1
281
     1
  3
ACAD_XREC_ROUNDTRIP
360
1893
  0
DICTIONARY
  5
1894
330
2D
100
AcDbDictionary
280
     1
281
     1
  3
ACAD_XREC_ROUNDTRIP
360
1895
  0
DICTIONARY
  5
189C
330
31
100
AcDbDictionary
280
     1
281
     1
  3
ACAD_XREC_ROUNDTRIP
360
189D
  0
DICTIONARY
  5
18B8
330
3F
100
AcDbDictionary
280
     1
281
     1
  3
ACAD_XREC_ROUNDTRIP
360
18B9
  0
DICTIONARY
  5
18A8
330
37
100
AcDbDictionary
280
     1
281
     1
  3
ACAD_XREC_ROUNDTRIP
360
18A9
  0
DICTIONARY
  5
18BA
330
40
100
AcDbDictionary
280
     1
281
     1
  3
ACAD_XREC_ROUNDTRIP
360
18BB
  0
DICTIONARY
  5
18A0
330
33
100
AcDbDictionary
280
     1
281
     1
  3
ACAD_XREC_ROUNDTRIP
360
18A1
  0
DICTIONARY
  5
18B6
330
3E
100
AcDbDictionary
280
     1
281
     1
  3
ACAD_XREC_ROUNDTRIP
360
18B7
  0
DICTIONARY
  5
18B4
330
3D
100
AcDbDictionary
280
     1
281
     1
  3
ACAD_XREC_ROUNDTRIP
360
18B5
  0
DICTIONARY
  5
18AE
330
3A
100
AcDbDictionary
280
     1
281
     1
  3
ACAD_XREC_ROUNDTRIP
360
18AF
  0
DICTIONARY
  5
18B0
330
3B
100
AcDbDictionary
280
     1
281
     1
  3
ACAD_XREC_ROUNDTRIP
360
18B1
  0
DICTIONARY
  5
18A6
330
36
100
AcDbDictionary
280
     1
281
     1
  3
ACAD_XREC_ROUNDTRIP
360
18A7
  0
DICTIONARY
  5
189A
330
30
100
AcDbDictionary
280
     1
281
     1
  3
ACAD_XREC_ROUNDTRIP
360
189B
  0
DICTIONARY
  5
18B2
330
3C
100
AcDbDictionary
280
     1
281
     1
  3
ACAD_XREC_ROUNDTRIP
360
18B3
  0
XRECORD
  5
18C0
102
{ACAD_REACTORS
330
18BF
102
}
330
18BF
100
AcDbXrecord
280
     1
102
SHADEPLOT
 70
     0
102
SHADEPLOTRESLEVEL
 70
     2
102
SHADEPLOTCUSTOMDPI
 70
   300
  0
XRECORD
  5
18C4
102
{ACAD_REACTORS
330
18C3
102
}
330
18C3
100
AcDbXrecord
280
     1
102
SHADEPLOT
 70
     0
102
SHADEPLOTRESLEVEL
 70
     2
102
SHADEPLOTCUSTOMDPI
 70
   300
  0
XRECORD
  5
18C2
102
{ACAD_REACTORS
330
18C1
102
}
330
18C1
100
AcDbXrecord
280
     1
102
SHADEPLOT
 70
     0
102
SHADEPLOTRESLEVEL
 70
     2
102
SHADEPLOTCUSTOMDPI
 70
   300
  0
XRECORD
  5
12C1
102
{ACAD_REACTORS
330
1A
102
}
330
1A
100
AcDbXrecord
280
     1
102
MATERIAL
148
0.0
149
0.0
149
0.0
 93
        0
 94
      127
282
     0
 72
     0
 77
     0
171
     0
175
     0
179
     0
273
     0
  0
XRECORD
  5
1C
102
{ACAD_REACTORS
330
1A
102
}
330
1A
100
AcDbXrecord
280
     1
270
     1
271
     1
  0
XRECORD
  5
1B
102
{ACAD_REACTORS
330
1A
102
}
330
1A
100
AcDbXrecord
280
     1
270
     1
271
     1
  0
XRECORD
  5
1F
102
{ACAD_REACTORS
330
1A
102
}
330
1A
100
AcDbXrecord
280
     1
270
     1
271
     1
  0
XRECORD
  5
1E
102
{ACAD_REACTORS
330
1A
102
}
330
1A
100
AcDbXrecord
280
     1
270
     1
271
     1
  0
XRECORD
  5
20
102
{ACAD_REACTORS
330
1A
102
}
330
1A
100
AcDbXrecord
280
     1
270
     1
271
     1
  0
XRECORD
  5
1D
102
{ACAD_REACTORS
330
1A
102
}
330
1A
100
AcDbXrecord
280
     1
270
     1
271
     1
  0
XRECORD
  5
12C0
102
{ACAD_REACTORS
330
12
102
}
330
12
100
AcDbXrecord
280
     1
102
MATERIAL
148
0.0
149
0.0
149
0.0
 93
        0
 94
      127
282
     0
 72
     0
 77
     0
171
     0
175
     0
179
     0
273
     0
  0
XRECORD
  5
14
102
{ACAD_REACTORS
330
12
102
}
330
12
100
AcDbXrecord
280
     1
270
     1
271
     1
  0
XRECORD
  5
13
102
{ACAD_REACTORS
330
12
102
}
330
12
100
AcDbXrecord
280
     1
270
     1
271
     1
  0
XRECORD
  5
17
102
{ACAD_REACTORS
330
12
102
}
330
12
100
AcDbXrecord
280
     1
270
     1
271
     1
  0
XRECORD
  5
16
102
{ACAD_REACTORS
330
12
102
}
330
12
100
AcDbXrecord
280
     1
270
     1
271
     1
  0
XRECORD
  5
18
102
{ACAD_REACTORS
330
12
102
}
330
12
100
AcDbXrecord
280
     1
270
     1
271
     1
  0
XRECORD
  5
15
102
{ACAD_REACTORS
330
12
102
}
330
12
100
AcDbXrecord
280
     1
270
     1
271
     1
  0
XRECORD
  5
12C2
102
{ACAD_REACTORS
330
22
102
}
330
22
100
AcDbXrecord
280
     1
102
MATERIAL
148
0.0
149
0.0
149
0.0
 93
        0
 94
      127
282
     0
 72
     0
 77
     0
171
     0
175
     0
179
     0
273
     0
  0
XRECORD
  5
24
102
{ACAD_REACTORS
330
22
102
}
330
22
100
AcDbXrecord
280
     1
270
     1
271
     1
  0
XRECORD
  5
23
102
{ACAD_REACTORS
330
22
102
}
330
22
100
AcDbXrecord
280
     1
270
     1
271
     1
  0
XRECORD
  5
27
102
{ACAD_REACTORS
330
22
102
}
330
22
100
AcDbXrecord
280
     1
270
     1
271
     1
  0
XRECORD
  5
26
102
{ACAD_REACTORS
330
22
102
}
330
22
100
AcDbXrecord
280
     1
270
     1
271
     1
  0
XRECORD
  5
28
102
{ACAD_REACTORS
330
22
102
}
330
22
100
AcDbXrecord
280
     1
270
     1
271
     1
  0
XRECORD
  5
25
102
{ACAD_REACTORS
330
22
102
}
330
22
100
AcDbXrecord
280
     1
270
     1
271
     1
  0
CELLSTYLEMAP
  5
187A
102
{ACAD_REACTORS
330
1160
102
}
330
1160
100
AcDbCellStyleMap
 90
        3
300
CELLSTYLE
  1
TABLEFORMAT_BEGIN
 90
        5
170
     1
 91
        0
 92
    32768
 62
   257
 93
        1
300
CONTENTFORMAT
  1
CONTENTFORMAT_BEGIN
 90
        0
 91
        0
 92
      512
 93
        0
300

 40
0.0
140
1.0
 94
        5
 62
     0
340
55
144
0.25
309
CONTENTFORMAT_END
171
     1
301
MARGIN
  1
CELLMARGIN_BEGIN
 40
0.06
 40
0.06
 40
0.06
 40
0.06
 40
0.18
 40
0.18
309
CELLMARGIN_END
 94
        6
 95
        1
302
GRIDFORMAT
  1
GRIDFORMAT_BEGIN
 90
        0
 91
        1
 62
     0
 92
       -2
340
0
 93
        0
 40
0.045
309
GRIDFORMAT_END
 95
        2
302
GRIDFORMAT
  1
GRIDFORMAT_BEGIN
 90
        0
 91
        1
 62
     0
 92
       -2
340
0
 93
        0
 40
0.045
309
GRIDFORMAT_END
 95
        4
302
GRIDFORMAT
  1
GRIDFORMAT_BEGIN
 90
        0
 91
        1
 62
     0
 92
       -2
340
0
 93
        0
 40
0.045
309
GRIDFORMAT_END
 95
        8
302
GRIDFORMAT
  1
GRIDFORMAT_BEGIN
 90
        0
 91
        1
 62
     0
 92
       -2
340
0
 93
        0
 40
0.045
309
GRIDFORMAT_END
 95
       16
302
GRIDFORMAT
  1
GRIDFORMAT_BEGIN
 90
        0
 91
        1
 62
     0
 92
       -2
340
0
 93
        0
 40
0.045
309
GRIDFORMAT_END
 95
       32
302
GRIDFORMAT
  1
GRIDFORMAT_BEGIN
 90
        0
 91
        1
 62
     0
 92
       -2
340
0
 93
        0
 40
0.045
309
GRIDFORMAT_END
309
TABLEFORMAT_END
  1
CELLSTYLE_BEGIN
 90
        1
 91
        1
300
_TITLE
309
CELLSTYLE_END
300
CELLSTYLE
  1
TABLEFORMAT_BEGIN
 90
        5
170
     1
 91
        0
 92
        0
 62
   257
 93
        1
300
CONTENTFORMAT
  1
CONTENTFORMAT_BEGIN
 90
        0
 91
        0
 92
      512
 93
        0
300

 40
0.0
140
1.0
 94
        5
 62
     0
340
55
144
0.18
309
CONTENTFORMAT_END
171
     1
301
MARGIN
  1
CELLMARGIN_BEGIN
 40
0.06
 40
0.06
 40
0.06
 40
0.06
 40
0.18
 40
0.18
309
CELLMARGIN_END
 94
        6
 95
        1
302
GRIDFORMAT
  1
GRIDFORMAT_BEGIN
 90
        0
 91
        1
 62
     0
 92
       -2
340
0
 93
        0
 40
0.045
309
GRIDFORMAT_END
 95
        2
302
GRIDFORMAT
  1
GRIDFORMAT_BEGIN
 90
        0
 91
        1
 62
     0
 92
       -2
340
0
 93
        0
 40
0.045
309
GRIDFORMAT_END
 95
        4
302
GRIDFORMAT
  1
GRIDFORMAT_BEGIN
 90
        0
 91
        1
 62
     0
 92
       -2
340
0
 93
        0
 40
0.045
309
GRIDFORMAT_END
 95
        8
302
GRIDFORMAT
  1
GRIDFORMAT_BEGIN
 90
        0
 91
        1
 62
     0
 92
       -2
340
0
 93
        0
 40
0.045
309
GRIDFORMAT_END
 95
       16
302
GRIDFORMAT
  1
GRIDFORMAT_BEGIN
 90
        0
 91
        1
 62
     0
 92
       -2
340
0
 93
        0
 40
0.045
309
GRIDFORMAT_END
 95
       32
302
GRIDFORMAT
  1
GRIDFORMAT_BEGIN
 90
        0
 91
        1
 62
     0
 92
       -2
340
0
 93
        0
 40
0.045
309
GRIDFORMAT_END
309
TABLEFORMAT_END
  1
CELLSTYLE_BEGIN
 90
        2
 91
        1
300
_HEADER
309
CELLSTYLE_END
300
CELLSTYLE
  1
TABLEFORMAT_BEGIN
 90
        5
170
     1
 91
        0
 92
        0
 62
   257
 93
        1
300
CONTENTFORMAT
  1
CONTENTFORMAT_BEGIN
 90
        0
 91
        0
 92
      512
 93
        0
300

 40
0.0
140
1.0
 94
        2
 62
     0
340
55
144
0.18
309
CONTENTFORMAT_END
171
     1
301
MARGIN
  1
CELLMARGIN_BEGIN
 40
0.06
 40
0.06
 40
0.06
 40
0.06
 40
0.18
 40
0.18
309
CELLMARGIN_END
 94
        6
 95
        1
302
GRIDFORMAT
  1
GRIDFORMAT_BEGIN
 90
        0
 91
        1
 62
     0
 92
       -2
340
0
 93
        0
 40
0.045
309
GRIDFORMAT_END
 95
        2
302
GRIDFORMAT
  1
GRIDFORMAT_BEGIN
 90
        0
 91
        1
 62
     0
 92
       -2
340
0
 93
        0
 40
0.045
309
GRIDFORMAT_END
 95
        4
302
GRIDFORMAT
  1
GRIDFORMAT_BEGIN
 90
        0
 91
        1
 62
     0
 92
       -2
340
0
 93
        0
 40
0.045
309
GRIDFORMAT_END
 95
        8
302
GRIDFORMAT
  1
GRIDFORMAT_BEGIN
 90
        0
 91
        1
 62
     0
 92
       -2
340
0
 93
        0
 40
0.045
309
GRIDFORMAT_END
 95
       16
302
GRIDFORMAT
  1
GRIDFORMAT_BEGIN
 90
        0
 91
        1
 62
     0
 92
       -2
340
0
 93
        0
 40
0.045
309
GRIDFORMAT_END
 95
       32
302
GRIDFORMAT
  1
GRIDFORMAT_BEGIN
 90
        0
 91
        1
 62
     0
 92
       -2
340
0
 93
        0
 40
0.045
309
GRIDFORMAT_END
309
TABLEFORMAT_END
  1
CELLSTYLE_BEGIN
 90
        3
 91
        2
300
_DATA
309
CELLSTYLE_END
  0
XRECORD
  5
18BE
102
{ACAD_REACTORS
330
1160
102
}
330
1160
100
AcDbXrecord
280
     1
102
ACAD_ROUNDTRIP_PRE2007_TABLESTYLE
 90
      512
 91
        0
  1

 92
      512
 93
        0
  2

 94
      512
 95
        0
  3

  0
XRECORD
  5
1899
102
{ACAD_REACTORS
330
1898
102
}
330
1898
100
AcDbXrecord
280
     1
102
RTVSPropertyOp0
 70
     1
102
RTVSPropertyOp1
 70
     1
102
RTVSPropertyOp2
 70
     1
102
RTVSPropertyOp3
 70
     1
102
RTVSPropertyOp4
 70
     1
102
RTVSPropertyOp5
 70
     1
102
RTVSPropertyOp6
 70
     1
102
RTVSPropertyOp7
 70
     1
102
RTVSPropertyOp8
 70
     1
102
RTVSPropertyOp9
 70
     1
102
RTVSPropertyOp10
 70
     1
102
RTVSPropertyOp11
 70
     1
102
RTVSPropertyOp12
 70
     1
102
RTVSPropertyOp13
 70
     1
102
RTVSPropertyOp14
 70
     1
102
RTVSPropertyOp15
 70
     1
102
RTVSPropertyOp16
 70
     1
102
RTVSPropertyOp17
 70
     1
102
RTVSPropertyOp18
 70
     1
102
RTVSPropertyOp19
 70
     1
102
RTVSPropertyOp20
 70
     1
102
RTVSPropertyOp21
 70
     1
102
RTVSPropertyOp22
 70
     1
102
RTVSPropertyOp23
 70
     1
102
RTVSPropertyOp24
 70
     1
102
RTVSPropertyOp25
 70
     1
102
RTVSPropertyOp26
 70
     1
102
RTVSPropertyOp27
 70
     1
102
RTVSPropertyOp28
 70
     1
102
RTVSPropertyOp29
 70
     1
102
RTVSPropertyOp30
 70
     1
102
RTVSPropertyOp31
 70
     1
102
RTVSPropertyOp32
 70
     1
  0
XRECORD
  5
1897
102
{ACAD_REACTORS
330
1896
102
}
330
1896
100
AcDbXrecord
280
     1
102
RTVSPropertyOp0
 70
     1
102
RTVSPropertyOp1
 70
     1
102
RTVSPropertyOp2
 70
     1
102
RTVSPropertyOp3
 70
     1
102
RTVSPropertyOp4
 70
     1
102
RTVSPropertyOp5
 70
     1
102
RTVSPropertyOp6
 70
     1
102
RTVSPropertyOp7
 70
     1
102
RTVSPropertyOp8
 70
     1
102
RTVSPropertyOp9
 70
     1
102
RTVSPropertyOp10
 70
     1
102
RTVSPropertyOp11
 70
     1
102
RTVSPropertyOp12
 70
     1
102
RTVSPropertyOp13
 70
     1
102
RTVSPropertyOp14
 70
     1
102
RTVSPropertyOp15
 70
     1
102
RTVSPropertyOp16
 70
     1
102
RTVSPropertyOp17
 70
     1
102
RTVSPropertyOp18
 70
     1
102
RTVSPropertyOp19
 70
     1
102
RTVSPropertyOp20
 70
     1
102
RTVSPropertyOp21
 70
     1
102
RTVSPropertyOp22
 70
     1
102
RTVSPropertyOp23
 70
     1
102
RTVSPropertyOp24
 70
     1
102
RTVSPropertyOp25
 70
     1
102
RTVSPropertyOp26
 70
     1
102
RTVSPropertyOp27
 70
     1
102
RTVSPropertyOp28
 70
     1
102
RTVSPropertyOp29
 70
     1
102
RTVSPropertyOp30
 70
     1
102
RTVSPropertyOp31
 70
     1
102
RTVSPropertyOp32
 70
     1
  0
XRECORD
  5
18A5
102
{ACAD_REACTORS
330
18A4
102
}
330
18A4
100
AcDbXrecord
280
     1
102
RTVSPropertyOp0
 70
     1
102
RTVSPropertyOp1
 70
     1
102
RTVSPropertyOp2
 70
     1
102
RTVSPropertyOp3
 70
     1
102
RTVSPropertyOp4
 70
     1
102
RTVSPropertyOp5
 70
     1
102
RTVSPropertyOp6
 70
     1
102
RTVSPropertyOp7
 70
     1
102
RTVSPropertyOp8
 70
     1
102
RTVSPropertyOp9
 70
     1
102
RTVSPropertyOp10
 70
     1
102
RTVSPropertyOp11
 70
     1
102
RTVSPropertyOp12
 70
     1
102
RTVSPropertyOp13
 70
     1
102
RTVSPropertyOp14
 70
     1
102
RTVSPropertyOp15
 70
     1
102
RTVSPropertyOp16
 70
     1
102
RTVSPropertyOp17
 70
     1
102
RTVSPropertyOp18
 70
     1
102
RTVSPropertyOp19
 70
     1
102
RTVSPropertyOp20
 70
     1
102
RTVSPropertyOp21
 70
     1
102
RTVSPropertyOp22
 70
     1
102
RTVSPropertyOp23
 70
     1
102
RTVSPropertyOp24
 70
     1
102
RTVSPropertyOp25
 70
     1
102
RTVSPropertyOp26
 70
     1
102
RTVSPropertyOp27
 70
     1
102
RTVSPropertyOp28
 70
     1
102
RTVSPropertyOp29
 70
     1
102
RTVSPropertyOp30
 70
     1
102
RTVSPropertyOp31
 70
     1
102
RTVSPropertyOp32
 70
     1
  0
XRECORD
  5
18AD
102
{ACAD_REACTORS
330
18AC
102
}
330
18AC
100
AcDbXrecord
280
     1
102
RTVSPropertyOp0
 70
     1
102
RTVSPropertyOp1
 70
     1
102
RTVSPropertyOp2
 70
     1
102
RTVSPropertyOp3
 70
     1
102
RTVSPropertyOp4
 70
     1
102
RTVSPropertyOp5
 70
     1
102
RTVSPropertyOp6
 70
     1
102
RTVSPropertyOp7
 70
     1
102
RTVSPropertyOp8
 70
     1
102
RTVSPropertyOp9
 70
     1
102
RTVSPropertyOp10
 70
     1
102
RTVSPropertyOp11
 70
     1
102
RTVSPropertyOp12
 70
     1
102
RTVSPropertyOp13
 70
     1
102
RTVSPropertyOp14
 70
     1
102
RTVSPropertyOp15
 70
     1
102
RTVSPropertyOp16
 70
     1
102
RTVSPropertyOp17
 70
     1
102
RTVSPropertyOp18
 70
     1
102
RTVSPropertyOp19
 70
     1
102
RTVSPropertyOp20
 70
     1
102
RTVSPropertyOp21
 70
     1
102
RTVSPropertyOp22
 70
     1
102
RTVSPropertyOp23
 70
     1
102
RTVSPropertyOp24
 70
     1
102
RTVSPropertyOp25
 70
     1
102
RTVSPropertyOp26
 70
     1
102
RTVSPropertyOp27
 70
     1
102
RTVSPropertyOp28
 70
     1
102
RTVSPropertyOp29
 70
     1
102
RTVSPropertyOp30
 70
     1
102
RTVSPropertyOp31
 70
     1
102
RTVSPropertyOp32
 70
     1
  0
XRECORD
  5
189F
102
{ACAD_REACTORS
330
189E
102
}
330
189E
100
AcDbXrecord
280
     1
102
RTVSPropertyOp0
 70
     1
102
RTVSPropertyOp1
 70
     1
102
RTVSPropertyOp2
 70
     1
102
RTVSPropertyOp3
 70
     1
102
RTVSPropertyOp4
 70
     1
102
RTVSPropertyOp5
 70
     1
102
RTVSPropertyOp6
 70
     1
102
RTVSPropertyOp7
 70
     1
102
RTVSPropertyOp8
 70
     1
102
RTVSPropertyOp9
 70
     1
102
RTVSPropertyOp10
 70
     1
102
RTVSPropertyOp11
 70
     1
102
RTVSPropertyOp12
 70
     1
102
RTVSPropertyOp13
 70
     1
102
RTVSPropertyOp14
 70
     1
102
RTVSPropertyOp15
 70
     1
102
RTVSPropertyOp16
 70
     1
102
RTVSPropertyOp17
 70
     1
102
RTVSPropertyOp18
 70
     1
102
RTVSPropertyOp19
 70
     1
102
RTVSPropertyOp20
 70
     1
102
RTVSPropertyOp21
 70
     1
102
RTVSPropertyOp22
 70
     1
102
RTVSPropertyOp23
 70
     1
102
RTVSPropertyOp24
 70
     1
102
RTVSPropertyOp25
 70
     1
102
RTVSPropertyOp26
 70
     1
102
RTVSPropertyOp27
 70
     1
102
RTVSPropertyOp28
 70
     1
102
RTVSPropertyOp29
 70
     1
102
RTVSPropertyOp30
 70
     1
102
RTVSPropertyOp31
 70
     1
102
RTVSPropertyOp32
 70
     1
  0
XRECORD
  5
18A3
102
{ACAD_REACTORS
330
18A2
102
}
330
18A2
100
AcDbXrecord
280
     1
102
RTVSPropertyOp0
 70
     1
102
RTVSPropertyOp1
 70
     1
102
RTVSPropertyOp2
 70
     1
102
RTVSPropertyOp3
 70
     1
102
RTVSPropertyOp4
 70
     1
102
RTVSPropertyOp5
 70
     1
102
RTVSPropertyOp6
 70
     1
102
RTVSPropertyOp7
 70
     1
102
RTVSPropertyOp8
 70
     1
102
RTVSPropertyOp9
 70
     1
102
RTVSPropertyOp10
 70
     1
102
RTVSPropertyOp11
 70
     1
102
RTVSPropertyOp12
 70
     1
102
RTVSPropertyOp13
 70
     1
102
RTVSPropertyOp14
 70
     1
102
RTVSPropertyOp15
 70
     1
102
RTVSPropertyOp16
 70
     1
102
RTVSPropertyOp17
 70
     1
102
RTVSPropertyOp18
 70
     1
102
RTVSPropertyOp19
 70
     1
102
RTVSPropertyOp20
 70
     1
102
RTVSPropertyOp21
 70
     1
102
RTVSPropertyOp22
 70
     1
102
RTVSPropertyOp23
 70
     1
102
RTVSPropertyOp24
 70
     1
102
RTVSPropertyOp25
 70
     1
102
RTVSPropertyOp26
 70
     1
102
RTVSPropertyOp27
 70
     1
102
RTVSPropertyOp28
 70
     1
102
RTVSPropertyOp29
 70
     1
102
RTVSPropertyOp30
 70
     1
102
RTVSPropertyOp31
 70
     1
102
RTVSPropertyOp32
 70
     1
  0
XRECORD
  5
18BD
102
{ACAD_REACTORS
330
18BC
102
}
330
18BC
100
AcDbXrecord
280
     1
102
RTVSPropertyOp0
 70
     0
102
RTVSPropertyOp1
 70
     0
102
RTVSPropertyOp2
 70
     0
102
RTVSPropertyOp3
 70
     0
102
RTVSPropertyOp4
 70
     0
102
RTVSPropertyOp5
 70
     0
102
RTVSPropertyOp6
 70
     0
102
RTVSPropertyOp7
 70
     0
102
RTVSPropertyOp8
 70
     0
102
RTVSPropertyOp9
 70
     0
102
RTVSPropertyOp10
 70
     0
102
RTVSPropertyOp11
 70
     0
102
RTVSPropertyOp12
 70
     0
102
RTVSPropertyOp13
 70
     0
102
RTVSPropertyOp14
 70
     2
102
RTVSPropertyOp15
 70
     0
102
RTVSPropertyOp16
 70
     0
102
RTVSPropertyOp17
 70
     0
102
RTVSPropertyOp18
 70
     0
102
RTVSPropertyOp19
 70
     0
102
RTVSPropertyOp20
 70
     0
102
RTVSPropertyOp21
 70
     0
102
RTVSPropertyOp22
 70
     0
102
RTVSPropertyOp23
 70
     0
102
RTVSPropertyOp24
 70
     0
102
RTVSPropertyOp25
 70
     0
102
RTVSPropertyOp26
 70
     0
102
RTVSPropertyOp27
 70
     0
102
RTVSPropertyOp28
 70
     0
102
RTVSPropertyOp29
 70
     0
102
RTVSPropertyOp30
 70
     0
102
RTVSPropertyOp31
 70
     0
102
RTVSPropertyOp32
 70
     0
  0
XRECORD
  5
18AB
102
{ACAD_REACTORS
330
18AA
102
}
330
18AA
100
AcDbXrecord
280
     1
102
RTVSPropertyOp0
 70
     1
102
RTVSPropertyOp1
 70
     1
102
RTVSPropertyOp2
 70
     1
102
RTVSPropertyOp3
 70
     1
102
RTVSPropertyOp4
 70
     1
102
RTVSPropertyOp5
 70
     1
102
RTVSPropertyOp6
 70
     1
102
RTVSPropertyOp7
 70
     1
102
RTVSPropertyOp8
 70
     1
102
RTVSPropertyOp9
 70
     1
102
RTVSPropertyOp10
 70
     1
102
RTVSPropertyOp11
 70
     1
102
RTVSPropertyOp12
 70
     1
102
RTVSPropertyOp13
 70
     1
102
RTVSPropertyOp14
 70
     1
102
RTVSPropertyOp15
 70
     1
102
RTVSPropertyOp16
 70
     1
102
RTVSPropertyOp17
 70
     1
102
RTVSPropertyOp18
 70
     1
102
RTVSPropertyOp19
 70
     1
102
RTVSPropertyOp20
 70
     1
102
RTVSPropertyOp21
 70
     1
102
RTVSPropertyOp22
 70
     1
102
RTVSPropertyOp23
 70
     1
102
RTVSPropertyOp24
 70
     1
102
RTVSPropertyOp25
 70
     1
102
RTVSPropertyOp26
 70
     1
102
RTVSPropertyOp27
 70
     1
102
RTVSPropertyOp28
 70
     1
102
RTVSPropertyOp29
 70
     1
102
RTVSPropertyOp30
 70
     1
102
RTVSPropertyOp31
 70
     1
102
RTVSPropertyOp32
 70
     1
  0
XRECORD
  5
188F
102
{ACAD_REACTORS
330
188E
102
}
330
188E
100
AcDbXrecord
280
     1
102
RTVSPropertyOp0
 70
     1
102
RTVSPropertyOp1
 70
     1
102
RTVSPropertyOp2
 70
     1
102
RTVSPropertyOp3
 70
     1
102
RTVSPropertyOp4
 70
     1
102
RTVSPropertyOp5
 70
     1
102
RTVSPropertyOp6
 70
     1
102
RTVSPropertyOp7
 70
     1
102
RTVSPropertyOp8
 70
     1
102
RTVSPropertyOp9
 70
     1
102
RTVSPropertyOp10
 70
     1
102
RTVSPropertyOp11
 70
     1
102
RTVSPropertyOp12
 70
     1
102
RTVSPropertyOp13
 70
     1
102
RTVSPropertyOp14
 70
     1
102
RTVSPropertyOp15
 70
     1
102
RTVSPropertyOp16
 70
     1
102
RTVSPropertyOp17
 70
     1
102
RTVSPropertyOp18
 70
     1
102
RTVSPropertyOp19
 70
     1
102
RTVSPropertyOp20
 70
     1
102
RTVSPropertyOp21
 70
     1
102
RTVSPropertyOp22
 70
     1
102
RTVSPropertyOp23
 70
     1
102
RTVSPropertyOp24
 70
     1
102
RTVSPropertyOp25
 70
     1
102
RTVSPropertyOp26
 70
     1
102
RTVSPropertyOp27
 70
     1
102
RTVSPropertyOp28
 70
     1
102
RTVSPropertyOp29
 70
     1
102
RTVSPropertyOp30
 70
     1
102
RTVSPropertyOp31
 70
     1
102
RTVSPropertyOp32
 70
     1
  0
XRECORD
  5
1891
102
{ACAD_REACTORS
330
1890
102
}
330
1890
100
AcDbXrecord
280
     1
102
RTVSPropertyOp0
 70
     1
102
RTVSPropertyOp1
 70
     1
102
RTVSPropertyOp2
 70
     1
102
RTVSPropertyOp3
 70
     1
102
RTVSPropertyOp4
 70
     1
102
RTVSPropertyOp5
 70
     1
102
RTVSPropertyOp6
 70
     1
102
RTVSPropertyOp7
 70
     1
102
RTVSPropertyOp8
 70
     1
102
RTVSPropertyOp9
 70
     1
102
RTVSPropertyOp10
 70
     1
102
RTVSPropertyOp11
 70
     1
102
RTVSPropertyOp12
 70
     1
102
RTVSPropertyOp13
 70
     1
102
RTVSPropertyOp14
 70
     1
102
RTVSPropertyOp15
 70
     1
102
RTVSPropertyOp16
 70
     1
102
RTVSPropertyOp17
 70
     1
102
RTVSPropertyOp18
 70
     1
102
RTVSPropertyOp19
 70
     1
102
RTVSPropertyOp20
 70
     1
102
RTVSPropertyOp21
 70
     1
102
RTVSPropertyOp22
 70
     1
102
RTVSPropertyOp23
 70
     1
102
RTVSPropertyOp24
 70
     1
102
RTVSPropertyOp25
 70
     1
102
RTVSPropertyOp26
 70
     1
102
RTVSPropertyOp27
 70
     1
102
RTVSPropertyOp28
 70
     1
102
RTVSPropertyOp29
 70
     1
102
RTVSPropertyOp30
 70
     1
102
RTVSPropertyOp31
 70
     1
102
RTVSPropertyOp32
 70
     1
  0
XRECORD
  5
1893
102
{ACAD_REACTORS
330
1892
102
}
330
1892
100
AcDbXrecord
280
     1
102
RTVSPropertyOp0
 70
     1
102
RTVSPropertyOp1
 70
     1
102
RTVSPropertyOp2
 70
     1
102
RTVSPropertyOp3
 70
     1
102
RTVSPropertyOp4
 70
     1
102
RTVSPropertyOp5
 70
     1
102
RTVSPropertyOp6
 70
     1
102
RTVSPropertyOp7
 70
     1
102
RTVSPropertyOp8
 70
     1
102
RTVSPropertyOp9
 70
     1
102
RTVSPropertyOp10
 70
     1
102
RTVSPropertyOp11
 70
     1
102
RTVSPropertyOp12
 70
     1
102
RTVSPropertyOp13
 70
     1
102
RTVSPropertyOp14
 70
     1
102
RTVSPropertyOp15
 70
     1
102
RTVSPropertyOp16
 70
     1
102
RTVSPropertyOp17
 70
     1
102
RTVSPropertyOp18
 70
     1
102
RTVSPropertyOp19
 70
     1
102
RTVSPropertyOp20
 70
     1
102
RTVSPropertyOp21
 70
     1
102
RTVSPropertyOp22
 70
     1
102
RTVSPropertyOp23
 70
     1
102
RTVSPropertyOp24
 70
     1
102
RTVSPropertyOp25
 70
     1
102
RTVSPropertyOp26
 70
     1
102
RTVSPropertyOp27
 70
     1
102
RTVSPropertyOp28
 70
     1
102
RTVSPropertyOp29
 70
     1
102
RTVSPropertyOp30
 70
     1
102
RTVSPropertyOp31
 70
     1
102
RTVSPropertyOp32
 70
     1
  0
XRECORD
  5
1895
102
{ACAD_REACTORS
330
1894
102
}
330
1894
100
AcDbXrecord
280
     1
102
RTVSPropertyOp0
 70
     1
102
RTVSPropertyOp1
 70
     1
102
RTVSPropertyOp2
 70
     1
102
RTVSPropertyOp3
 70
     1
102
RTVSPropertyOp4
 70
     1
102
RTVSPropertyOp5
 70
     1
102
RTVSPropertyOp6
 70
     1
102
RTVSPropertyOp7
 70
     1
102
RTVSPropertyOp8
 70
     1
102
RTVSPropertyOp9
 70
     1
102
RTVSPropertyOp10
 70
     1
102
RTVSPropertyOp11
 70
     1
102
RTVSPropertyOp12
 70
     1
102
RTVSPropertyOp13
 70
     1
102
RTVSPropertyOp14
 70
     1
102
RTVSPropertyOp15
 70
     1
102
RTVSPropertyOp16
 70
     1
102
RTVSPropertyOp17
 70
     1
102
RTVSPropertyOp18
 70
     1
102
RTVSPropertyOp19
 70
     1
102
RTVSPropertyOp20
 70
     1
102
RTVSPropertyOp21
 70
     1
102
RTVSPropertyOp22
 70
     1
102
RTVSPropertyOp23
 70
     1
102
RTVSPropertyOp24
 70
     1
102
RTVSPropertyOp25
 70
     1
102
RTVSPropertyOp26
 70
     1
102
RTVSPropertyOp27
 70
     1
102
RTVSPropertyOp28
 70
     1
102
RTVSPropertyOp29
 70
     1
102
RTVSPropertyOp30
 70
     1
102
RTVSPropertyOp31
 70
     1
102
RTVSPropertyOp32
 70
     1
  0
XRECORD
  5
189D
102
{ACAD_REACTORS
330
189C
102
}
330
189C
100
AcDbXrecord
280
     1
102
RTVSPropertyOp0
 70
     1
102
RTVSPropertyOp1
 70
     1
102
RTVSPropertyOp2
 70
     1
102
RTVSPropertyOp3
 70
     1
102
RTVSPropertyOp4
 70
     1
102
RTVSPropertyOp5
 70
     1
102
RTVSPropertyOp6
 70
     1
102
RTVSPropertyOp7
 70
     1
102
RTVSPropertyOp8
 70
     1
102
RTVSPropertyOp9
 70
     1
102
RTVSPropertyOp10
 70
     1
102
RTVSPropertyOp11
 70
     1
102
RTVSPropertyOp12
 70
     1
102
RTVSPropertyOp13
 70
     1
102
RTVSPropertyOp14
 70
     1
102
RTVSPropertyOp15
 70
     1
102
RTVSPropertyOp16
 70
     1
102
RTVSPropertyOp17
 70
     1
102
RTVSPropertyOp18
 70
     1
102
RTVSPropertyOp19
 70
     1
102
RTVSPropertyOp20
 70
     1
102
RTVSPropertyOp21
 70
     1
102
RTVSPropertyOp22
 70
     1
102
RTVSPropertyOp23
 70
     1
102
RTVSPropertyOp24
 70
     1
102
RTVSPropertyOp25
 70
     1
102
RTVSPropertyOp26
 70
     1
102
RTVSPropertyOp27
 70
     1
102
RTVSPropertyOp28
 70
     1
102
RTVSPropertyOp29
 70
     1
102
RTVSPropertyOp30
 70
     1
102
RTVSPropertyOp31
 70
     1
102
RTVSPropertyOp32
 70
     1
  0
XRECORD
  5
18B9
102
{ACAD_REACTORS
330
18B8
102
}
330
18B8
100
AcDbXrecord
280
     1
102
RTVSPropertyOp0
 70
     0
102
RTVSPropertyOp1
 70
     0
102
RTVSPropertyOp2
 70
     0
102
RTVSPropertyOp3
 70
     0
102
RTVSPropertyOp4
 70
     0
102
RTVSPropertyOp5
 70
     0
102
RTVSPropertyOp6
 70
     0
102
RTVSPropertyOp7
 70
     0
102
RTVSPropertyOp8
 70
     0
102
RTVSPropertyOp9
 70
     0
102
RTVSPropertyOp10
 70
     0
102
RTVSPropertyOp11
 70
     0
102
RTVSPropertyOp12
 70
     0
102
RTVSPropertyOp13
 70
     0
102
RTVSPropertyOp14
 70
     2
102
RTVSPropertyOp15
 70
     0
102
RTVSPropertyOp16
 70
     0
102
RTVSPropertyOp17
 70
     0
102
RTVSPropertyOp18
 70
     0
102
RTVSPropertyOp19
 70
     0
102
RTVSPropertyOp20
 70
     0
102
RTVSPropertyOp21
 70
     0
102
RTVSPropertyOp22
 70
     0
102
RTVSPropertyOp23
 70
     0
102
RTVSPropertyOp24
 70
     0
102
RTVSPropertyOp25
 70
     0
102
RTVSPropertyOp26
 70
     0
102
RTVSPropertyOp27
 70
     0
102
RTVSPropertyOp28
 70
     0
102
RTVSPropertyOp29
 70
     0
102
RTVSPropertyOp30
 70
     0
102
RTVSPropertyOp31
 70
     0
102
RTVSPropertyOp32
 70
     0
  0
XRECORD
  5
18A9
102
{ACAD_REACTORS
330
18A8
102
}
330
18A8
100
AcDbXrecord
280
     1
102
RTVSPropertyOp0
 70
     1
102
RTVSPropertyOp1
 70
     1
102
RTVSPropertyOp2
 70
     1
102
RTVSPropertyOp3
 70
     1
102
RTVSPropertyOp4
 70
     1
102
RTVSPropertyOp5
 70
     1
102
RTVSPropertyOp6
 70
     1
102
RTVSPropertyOp7
 70
     1
102
RTVSPropertyOp8
 70
     1
102
RTVSPropertyOp9
 70
     1
102
RTVSPropertyOp10
 70
     1
102
RTVSPropertyOp11
 70
     1
102
RTVSPropertyOp12
 70
     1
102
RTVSPropertyOp13
 70
     1
102
RTVSPropertyOp14
 70
     1
102
RTVSPropertyOp15
 70
     1
102
RTVSPropertyOp16
 70
     1
102
RTVSPropertyOp17
 70
     1
102
RTVSPropertyOp18
 70
     1
102
RTVSPropertyOp19
 70
     1
102
RTVSPropertyOp20
 70
     1
102
RTVSPropertyOp21
 70
     1
102
RTVSPropertyOp22
 70
     1
102
RTVSPropertyOp23
 70
     1
102
RTVSPropertyOp24
 70
     1
102
RTVSPropertyOp25
 70
     1
102
RTVSPropertyOp26
 70
     1
102
RTVSPropertyOp27
 70
     1
102
RTVSPropertyOp28
 70
     1
102
RTVSPropertyOp29
 70
     1
102
RTVSPropertyOp30
 70
     1
102
RTVSPropertyOp31
 70
     1
102
RTVSPropertyOp32
 70
     1
  0
XRECORD
  5
18BB
102
{ACAD_REACTORS
330
18BA
102
}
330
18BA
100
AcDbXrecord
280
     1
102
RTVSPropertyOp0
 70
     0
102
RTVSPropertyOp1
 70
     0
102
RTVSPropertyOp2
 70
     0
102
RTVSPropertyOp3
 70
     0
102
RTVSPropertyOp4
 70
     0
102
RTVSPropertyOp5
 70
     0
102
RTVSPropertyOp6
 70
     0
102
RTVSPropertyOp7
 70
     0
102
RTVSPropertyOp8
 70
     0
102
RTVSPropertyOp9
 70
     0
102
RTVSPropertyOp10
 70
     0
102
RTVSPropertyOp11
 70
     0
102
RTVSPropertyOp12
 70
     0
102
RTVSPropertyOp13
 70
     0
102
RTVSPropertyOp14
 70
     2
102
RTVSPropertyOp15
 70
     0
102
RTVSPropertyOp16
 70
     0
102
RTVSPropertyOp17
 70
     0
102
RTVSPropertyOp18
 70
     0
102
RTVSPropertyOp19
 70
     0
102
RTVSPropertyOp20
 70
     0
102
RTVSPropertyOp21
 70
     0
102
RTVSPropertyOp22
 70
     0
102
RTVSPropertyOp23
 70
     0
102
RTVSPropertyOp24
 70
     0
102
RTVSPropertyOp25
 70
     0
102
RTVSPropertyOp26
 70
     0
102
RTVSPropertyOp27
 70
     0
102
RTVSPropertyOp28
 70
     0
102
RTVSPropertyOp29
 70
     0
102
RTVSPropertyOp30
 70
     0
102
RTVSPropertyOp31
 70
     0
102
RTVSPropertyOp32
 70
     0
  0
XRECORD
  5
18A1
102
{ACAD_REACTORS
330
18A0
102
}
330
18A0
100
AcDbXrecord
280
     1
102
RTVSPropertyOp0
 70
     1
102
RTVSPropertyOp1
 70
     1
102
RTVSPropertyOp2
 70
     1
102
RTVSPropertyOp3
 70
     1
102
RTVSPropertyOp4
 70
     1
102
RTVSPropertyOp5
 70
     1
102
RTVSPropertyOp6
 70
     1
102
RTVSPropertyOp7
 70
     1
102
RTVSPropertyOp8
 70
     1
102
RTVSPropertyOp9
 70
     1
102
RTVSPropertyOp10
 70
     1
102
RTVSPropertyOp11
 70
     1
102
RTVSPropertyOp12
 70
     1
102
RTVSPropertyOp13
 70
     1
102
RTVSPropertyOp14
 70
     1
102
RTVSPropertyOp15
 70
     1
102
RTVSPropertyOp16
 70
     1
102
RTVSPropertyOp17
 70
     1
102
RTVSPropertyOp18
 70
     1
102
RTVSPropertyOp19
 70
     1
102
RTVSPropertyOp20
 70
     1
102
RTVSPropertyOp21
 70
     1
102
RTVSPropertyOp22
 70
     1
102
RTVSPropertyOp23
 70
     1
102
RTVSPropertyOp24
 70
     1
102
RTVSPropertyOp25
 70
     1
102
RTVSPropertyOp26
 70
     1
102
RTVSPropertyOp27
 70
     1
102
RTVSPropertyOp28
 70
     1
102
RTVSPropertyOp29
 70
     1
102
RTVSPropertyOp30
 70
     1
102
RTVSPropertyOp31
 70
     1
102
RTVSPropertyOp32
 70
     1
  0
XRECORD
  5
18B7
102
{ACAD_REACTORS
330
18B6
102
}
330
18B6
100
AcDbXrecord
280
     1
102
RTVSPropertyOp0
 70
     1
102
RTVSPropertyOp1
 70
     1
102
RTVSPropertyOp2
 70
     1
102
RTVSPropertyOp3
 70
     1
102
RTVSPropertyOp4
 70
     1
102
RTVSPropertyOp5
 70
     1
102
RTVSPropertyOp6
 70
     1
102
RTVSPropertyOp7
 70
     1
102
RTVSPropertyOp8
 70
     1
102
RTVSPropertyOp9
 70
     1
102
RTVSPropertyOp10
 70
     1
102
RTVSPropertyOp11
 70
     1
102
RTVSPropertyOp12
 70
     1
102
RTVSPropertyOp13
 70
     1
102
RTVSPropertyOp14
 70
     1
102
RTVSPropertyOp15
 70
     1
102
RTVSPropertyOp16
 70
     1
102
RTVSPropertyOp17
 70
     1
102
RTVSPropertyOp18
 70
     1
102
RTVSPropertyOp19
 70
     1
102
RTVSPropertyOp20
 70
     1
102
RTVSPropertyOp21
 70
     1
102
RTVSPropertyOp22
 70
     1
102
RTVSPropertyOp23
 70
     1
102
RTVSPropertyOp24
 70
     1
102
RTVSPropertyOp25
 70
     1
102
RTVSPropertyOp26
 70
     1
102
RTVSPropertyOp27
 70
     1
102
RTVSPropertyOp28
 70
     1
102
RTVSPropertyOp29
 70
     1
102
RTVSPropertyOp30
 70
     1
102
RTVSPropertyOp31
 70
     1
102
RTVSPropertyOp32
 70
     1
  0
XRECORD
  5
18B5
102
{ACAD_REACTORS
330
18B4
102
}
330
18B4
100
AcDbXrecord
280
     1
102
RTVSPropertyOp0
 70
     1
102
RTVSPropertyOp1
 70
     1
102
RTVSPropertyOp2
 70
     1
102
RTVSPropertyOp3
 70
     1
102
RTVSPropertyOp4
 70
     1
102
RTVSPropertyOp5
 70
     1
102
RTVSPropertyOp6
 70
     1
102
RTVSPropertyOp7
 70
     1
102
RTVSPropertyOp8
 70
     1
102
RTVSPropertyOp9
 70
     1
102
RTVSPropertyOp10
 70
     1
102
RTVSPropertyOp11
 70
     1
102
RTVSPropertyOp12
 70
     1
102
RTVSPropertyOp13
 70
     1
102
RTVSPropertyOp14
 70
     1
102
RTVSPropertyOp15
 70
     1
102
RTVSPropertyOp16
 70
     1
102
RTVSPropertyOp17
 70
     1
102
RTVSPropertyOp18
 70
     1
102
RTVSPropertyOp19
 70
     1
102
RTVSPropertyOp20
 70
     1
102
RTVSPropertyOp21
 70
     1
102
RTVSPropertyOp22
 70
     1
102
RTVSPropertyOp23
 70
     1
102
RTVSPropertyOp24
 70
     1
102
RTVSPropertyOp25
 70
     1
102
RTVSPropertyOp26
 70
     1
102
RTVSPropertyOp27
 70
     1
102
RTVSPropertyOp28
 70
     1
102
RTVSPropertyOp29
 70
     1
102
RTVSPropertyOp30
 70
     1
102
RTVSPropertyOp31
 70
     1
102
RTVSPropertyOp32
 70
     1
  0
XRECORD
  5
18AF
102
{ACAD_REACTORS
330
18AE
102
}
330
18AE
100
AcDbXrecord
280
     1
102
RTVSPropertyOp0
 70
     1
102
RTVSPropertyOp1
 70
     1
102
RTVSPropertyOp2
 70
     1
102
RTVSPropertyOp3
 70
     1
102
RTVSPropertyOp4
 70
     1
102
RTVSPropertyOp5
 70
     1
102
RTVSPropertyOp6
 70
     1
102
RTVSPropertyOp7
 70
     1
102
RTVSPropertyOp8
 70
     1
102
RTVSPropertyOp9
 70
     1
102
RTVSPropertyOp10
 70
     1
102
RTVSPropertyOp11
 70
     1
102
RTVSPropertyOp12
 70
     1
102
RTVSPropertyOp13
 70
     1
102
RTVSPropertyOp14
 70
     1
102
RTVSPropertyOp15
 70
     1
102
RTVSPropertyOp16
 70
     1
102
RTVSPropertyOp17
 70
     1
102
RTVSPropertyOp18
 70
     1
102
RTVSPropertyOp19
 70
     1
102
RTVSPropertyOp20
 70
     1
102
RTVSPropertyOp21
 70
     1
102
RTVSPropertyOp22
 70
     1
102
RTVSPropertyOp23
 70
     1
102
RTVSPropertyOp24
 70
     1
102
RTVSPropertyOp25
 70
     1
102
RTVSPropertyOp26
 70
     1
102
RTVSPropertyOp27
 70
     1
102
RTVSPropertyOp28
 70
     1
102
RTVSPropertyOp29
 70
     1
102
RTVSPropertyOp30
 70
     1
102
RTVSPropertyOp31
 70
     1
102
RTVSPropertyOp32
 70
     1
  0
XRECORD
  5
18B1
102
{ACAD_REACTORS
330
18B0
102
}
330
18B0
100
AcDbXrecord
280
     1
102
RTVSPropertyOp0
 70
     1
102
RTVSPropertyOp1
 70
     1
102
RTVSPropertyOp2
 70
     1
102
RTVSPropertyOp3
 70
     1
102
RTVSPropertyOp4
 70
     1
102
RTVSPropertyOp5
 70
     1
102
RTVSPropertyOp6
 70
     1
102
RTVSPropertyOp7
 70
     1
102
RTVSPropertyOp8
 70
     1
102
RTVSPropertyOp9
 70
     1
102
RTVSPropertyOp10
 70
     1
102
RTVSPropertyOp11
 70
     1
102
RTVSPropertyOp12
 70
     1
102
RTVSPropertyOp13
 70
     1
102
RTVSPropertyOp14
 70
     1
102
RTVSPropertyOp15
 70
     1
102
RTVSPropertyOp16
 70
     1
102
RTVSPropertyOp17
 70
     1
102
RTVSPropertyOp18
 70
     1
102
RTVSPropertyOp19
 70
     1
102
RTVSPropertyOp20
 70
     1
102
RTVSPropertyOp21
 70
     1
102
RTVSPropertyOp22
 70
     1
102
RTVSPropertyOp23
 70
     1
102
RTVSPropertyOp24
 70
     1
102
RTVSPropertyOp25
 70
     1
102
RTVSPropertyOp26
 70
     1
102
RTVSPropertyOp27
 70
     1
102
RTVSPropertyOp28
 70
     1
102
RTVSPropertyOp29
 70
     1
102
RTVSPropertyOp30
 70
     1
102
RTVSPropertyOp31
 70
     1
102
RTVSPropertyOp32
 70
     1
  0
XRECORD
  5
18A7
102
{ACAD_REACTORS
330
18A6
102
}
330
18A6
100
AcDbXrecord
280
     1
102
RTVSPropertyOp0
 70
     1
102
RTVSPropertyOp1
 70
     1
102
RTVSPropertyOp2
 70
     1
102
RTVSPropertyOp3
 70
     1
102
RTVSPropertyOp4
 70
     1
102
RTVSPropertyOp5
 70
     1
102
RTVSPropertyOp6
 70
     1
102
RTVSPropertyOp7
 70
     1
102
RTVSPropertyOp8
 70
     1
102
RTVSPropertyOp9
 70
     1
102
RTVSPropertyOp10
 70
     1
102
RTVSPropertyOp11
 70
     1
102
RTVSPropertyOp12
 70
     1
102
RTVSPropertyOp13
 70
     1
102
RTVSPropertyOp14
 70
     1
102
RTVSPropertyOp15
 70
     1
102
RTVSPropertyOp16
 70
     1
102
RTVSPropertyOp17
 70
     1
102
RTVSPropertyOp18
 70
     1
102
RTVSPropertyOp19
 70
     1
102
RTVSPropertyOp20
 70
     1
102
RTVSPropertyOp21
 70
     1
102
RTVSPropertyOp22
 70
     1
102
RTVSPropertyOp23
 70
     1
102
RTVSPropertyOp24
 70
     1
102
RTVSPropertyOp25
 70
     1
102
RTVSPropertyOp26
 70
     1
102
RTVSPropertyOp27
 70
     1
102
RTVSPropertyOp28
 70
     1
102
RTVSPropertyOp29
 70
     1
102
RTVSPropertyOp30
 70
     1
102
RTVSPropertyOp31
 70
     1
102
RTVSPropertyOp32
 70
     1
  0
XRECORD
  5
189B
102
{ACAD_REACTORS
330
189A
102
}
330
189A
100
AcDbXrecord
280
     1
102
RTVSPropertyOp0
 70
     1
102
RTVSPropertyOp1
 70
     1
102
RTVSPropertyOp2
 70
     1
102
RTVSPropertyOp3
 70
     1
102
RTVSPropertyOp4
 70
     1
102
RTVSPropertyOp5
 70
     1
102
RTVSPropertyOp6
 70
     1
102
RTVSPropertyOp7
 70
     1
102
RTVSPropertyOp8
 70
     1
102
RTVSPropertyOp9
 70
     1
102
RTVSPropertyOp10
 70
     1
102
RTVSPropertyOp11
 70
     1
102
RTVSPropertyOp12
 70
     1
102
RTVSPropertyOp13
 70
     1
102
RTVSPropertyOp14
 70
     1
102
RTVSPropertyOp15
 70
     1
102
RTVSPropertyOp16
 70
     1
102
RTVSPropertyOp17
 70
     1
102
RTVSPropertyOp18
 70
     1
102
RTVSPropertyOp19
 70
     1
102
RTVSPropertyOp20
 70
     1
102
RTVSPropertyOp21
 70
     1
102
RTVSPropertyOp22
 70
     1
102
RTVSPropertyOp23
 70
     1
102
RTVSPropertyOp24
 70
     1
102
RTVSPropertyOp25
 70
     1
102
RTVSPropertyOp26
 70
     1
102
RTVSPropertyOp27
 70
     1
102
RTVSPropertyOp28
 70
     1
102
RTVSPropertyOp29
 70
     1
102
RTVSPropertyOp30
 70
     1
102
RTVSPropertyOp31
 70
     1
102
RTVSPropertyOp32
 70
     1
  0
XRECORD
  5
18B3
102
{ACAD_REACTORS
330
18B2
102
}
330
18B2
100
AcDbXrecord
280
     1
102
RTVSPropertyOp0
 70
     1
102
RTVSPropertyOp1
 70
     1
102
RTVSPropertyOp2
 70
     1
102
RTVSPropertyOp3
 70
     1
102
RTVSPropertyOp4
 70
     1
102
RTVSPropertyOp5
 70
     1
102
RTVSPropertyOp6
 70
     1
102
RTVSPropertyOp7
 70
     1
102
RTVSPropertyOp8
 70
     1
102
RTVSPropertyOp9
 70
     1
102
RTVSPropertyOp10
 70
     1
102
RTVSPropertyOp11
 70
     1
102
RTVSPropertyOp12
 70
     1
102
RTVSPropertyOp13
 70
     1
102
RTVSPropertyOp14
 70
     1
102
RTVSPropertyOp15
 70
     1
102
RTVSPropertyOp16
 70
     1
102
RTVSPropertyOp17
 70
     1
102
RTVSPropertyOp18
 70
     1
102
RTVSPropertyOp19
 70
     1
102
RTVSPropertyOp20
 70
     1
102
RTVSPropertyOp21
 70
     1
102
RTVSPropertyOp22
 70
     1
102
RTVSPropertyOp23
 70
     1
102
RTVSPropertyOp24
 70
     1
102
RTVSPropertyOp25
 70
     1
102
RTVSPropertyOp26
 70
     1
102
RTVSPropertyOp27
 70
     1
102
RTVSPropertyOp28
 70
     1
102
RTVSPropertyOp29
 70
     1
102
RTVSPropertyOp30
 70
     1
102
RTVSPropertyOp31
 70
     1
102
RTVSPropertyOp32
 70
     1
  0
ENDSEC
  0
EOF
