  0
SECTION
  2
HEADER
  9
$ACADVER
  1
AC1015
  9
$ACADMAINTVER
 70
    20
  9
$DWGCODEPAGE
  3
ANSI_1250
  9
$INSBASE
 10
0.0
 20
0.0
 30
0.0
  9
$EXTMIN
 10
-3214.137101165889
 20
987.2774542768015
 30
0.0
  9
$EXTMAX
 10
-474.8105988098712
 20
5104.42529138065
 30
0.0
  9
$LIMMIN
 10
0.0
 20
0.0
  9
$LIMMAX
 10
4200.0
 20
5940.0
  9
$ORTHOMODE
 70
     0
  9
$REGENMODE
 70
     1
  9
$FILLMODE
 70
     1
  9
$QTEXTMODE
 70
     0
  9
$MIRRTEXT
 70
     0
  9
$LTSCALE
 40
20.0
  9
$ATTMODE
 70
     1
  9
$TEXTSIZE
 40
0.2
  9
$TRACEWID
 40
0.05
  9
$TEXTSTYLE
  7
Standard
  9
$CLAYER
  8
0
  9
$CELTYPE
  6
ByLayer
  9
$CECOLOR
 62
   256
  9
$CELTSCALE
 40
1.0
  9
$DISPSILH
 70
     0
  9
$DIMSCALE
 40
1.0
  9
$DIMASZ
 40
1.799999999999999
  9
$DIMEXO
 40
0.0625
  9
$DIMDLI
 40
0.38
  9
$DIMRND
 40
0.0
  9
$DIMDLE
 40
0.0
  9
$DIMEXE
 40
0.18
  9
$DIMTP
 40
0.0
  9
$DIMTM
 40
0.0
  9
$DIMTXT
 40
0.25
  9
$DIMCEN
 40
0.09
  9
$DIMTSZ
 40
0.0
  9
$DIMTOL
 70
     0
  9
$DIMLIM
 70
     0
  9
$DIMTIH
 70
     1
  9
$DIMTOH
 70
     1
  9
$DIMSE1
 70
     0
  9
$DIMSE2
 70
     0
  9
$DIMTAD
 70
     0
  9
$DIMZIN
 70
     0
  9
$DIMBLK
  1

  9
$DIMASO
 70
     1
  9
$DIMSHO
 70
     1
  9
$DIMPOST
  1

  9
$DIMAPOST
  1

  9
$DIMALT
 70
     0
  9
$DIMALTD
 70
     2
  9
$DIMALTF
 40
25.4
  9
$DIMLFAC
 40
1.0
  9
$DIMTOFL
 70
     0
  9
$DIMTVP
 40
0.0
  9
$DIMTIX
 70
     0
  9
$DIMSOXD
 70
     0
  9
$DIMSAH
 70
     0
  9
$DIMBLK1
  1

  9
$DIMBLK2
  1

  9
$DIMSTYLE
  2
Standard
  9
$DIMCLRD
 70
     0
  9
$DIMCLRE
 70
     0
  9
$DIMCLRT
 70
     0
  9
$DIMTFAC
 40
1.0
  9
$DIMGAP
 40
0.09
  9
$DIMJUST
 70
     0
  9
$DIMSD1
 70
     0
  9
$DIMSD2
 70
     0
  9
$DIMTOLJ
 70
     1
  9
$DIMTZIN
 70
     0
  9
$DIMALTZ
 70
     0
  9
$DIMALTTZ
 70
     0
  9
$DIMUPT
 70
     0
  9
$DIMDEC
 70
     4
  9
$DIMTDEC
 70
     4
  9
$DIMALTU
 70
     2
  9
$DIMALTTD
 70
     2
  9
$DIMTXSTY
  7
Standard
  9
$DIMAUNIT
 70
     0
  9
$DIMADEC
 70
     0
  9
$DIMALTRND
 40
0.0
  9
$DIMAZIN
 70
     0
  9
$DIMDSEP
 70
    46
  9
$DIMATFIT
 70
     3
  9
$DIMFRAC
 70
     0
  9
$DIMLDRBLK
  1

  9
$DIMLUNIT
 70
     2
  9
$DIMLWD
 70
    -2
  9
$DIMLWE
 70
    -2
  9
$DIMTMOVE
 70
     0
  9
$LUNITS
 70
     2
  9
$LUPREC
 70
     4
  9
$SKETCHINC
 40
0.1
  9
$FILLETRAD
 40
0.0
  9
$AUNITS
 70
     0
  9
$AUPREC
 70
     0
  9
$MENU
  1
.
  9
$ELEVATION
 40
0.0
  9
$PELEVATION
 40
0.0
  9
$THICKNESS
 40
0.0
  9
$LIMCHECK
 70
     0
  9
$CHAMFERA
 40
0.0
  9
$CHAMFERB
 40
0.0
  9
$CHAMFERC
 40
0.0
  9
$CHAMFERD
 40
0.0
  9
$SKPOLY
 70
     0
  9
$TDCREATE
 40
2456903.373557859
  9
$TDUCREATE
 40
2456903.331891192
  9
$TDUPDATE
 40
2458893.510868819
  9
$TDUUPDATE
 40
2458893.469202153
  9
$TDINDWG
 40
0.0110166667
  9
$TDUSRTIMER
 40
0.0110166667
  9
$USRTIMER
 70
     1
  9
$ANGBASE
 50
0.0
  9
$ANGDIR
 70
     0
  9
$PDMODE
 70
     0
  9
$PDSIZE
 40
0.0
  9
$PLINEWID
 40
0.0
  9
$SPLFRAME
 70
     0
  9
$SPLINETYPE
 70
     6
  9
$SPLINESEGS
 70
     8
  9
$HANDSEED
  5
A6F
  9
$SURFTAB1
 70
     6
  9
$SURFTAB2
 70
     6
  9
$SURFTYPE
 70
     6
  9
$SURFU
 70
     6
  9
$SURFV
 70
     6
  9
$UCSBASE
  2

  9
$UCSNAME
  2

  9
$UCSORG
 10
0.0
 20
0.0
 30
0.0
  9
$UCSXDIR
 10
1.0
 20
0.0
 30
0.0
  9
$UCSYDIR
 10
0.0
 20
1.0
 30
0.0
  9
$UCSORTHOREF
  2

  9
$UCSORTHOVIEW
 70
     0
  9
$UCSORGTOP
 10
0.0
 20
0.0
 30
0.0
  9
$UCSORGBOTTOM
 10
0.0
 20
0.0
 30
0.0
  9
$UCSORGLEFT
 10
0.0
 20
0.0
 30
0.0
  9
$UCSORGRIGHT
 10
0.0
 20
0.0
 30
0.0
  9
$UCSORGFRONT
 10
0.0
 20
0.0
 30
0.0
  9
$UCSORGBACK
 10
0.0
 20
0.0
 30
0.0
  9
$PUCSBASE
  2

  9
$PUCSNAME
  2

  9
$PUCSORG
 10
0.0
 20
0.0
 30
0.0
  9
$PUCSXDIR
 10
1.0
 20
0.0
 30
0.0
  9
$PUCSYDIR
 10
0.0
 20
1.0
 30
0.0
  9
$PUCSORTHOREF
  2

  9
$PUCSORTHOVIEW
 70
     0
  9
$PUCSORGTOP
 10
0.0
 20
0.0
 30
0.0
  9
$PUCSORGBOTTOM
 10
0.0
 20
0.0
 30
0.0
  9
$PUCSORGLEFT
 10
0.0
 20
0.0
 30
0.0
  9
$PUCSORGRIGHT
 10
0.0
 20
0.0
 30
0.0
  9
$PUCSORGFRONT
 10
0.0
 20
0.0
 30
0.0
  9
$PUCSORGBACK
 10
0.0
 20
0.0
 30
0.0
  9
$USERI1
 70
     0
  9
$USERI2
 70
     0
  9
$USERI3
 70
     0
  9
$USERI4
 70
     0
  9
$USERI5
 70
     0
  9
$USERR1
 40
0.0
  9
$USERR2
 40
0.0
  9
$USERR3
 40
0.0
  9
$USERR4
 40
0.0
  9
$USERR5
 40
0.0
  9
$WORLDVIEW
 70
     1
  9
$SHADEDGE
 70
     3
  9
$SHADEDIF
 70
    70
  9
$TILEMODE
 70
     1
  9
$MAXACTVP
 70
    64
  9
$PINSBASE
 10
0.0
 20
0.0
 30
0.0
  9
$PLIMCHECK
 70
     0
  9
$PEXTMIN
 10
0.0
 20
0.0
 30
0.0
  9
$PEXTMAX
 10
4200.0
 20
5940.0
 30
0.0
  9
$PLIMMIN
 10
0.0
 20
0.0
  9
$PLIMMAX
 10
4200.0
 20
5940.0
  9
$UNITMODE
 70
     0
  9
$VISRETAIN
 70
     1
  9
$PLINEGEN
 70
     0
  9
$PSLTSCALE
 70
     1
  9
$TREEDEPTH
 70
  3020
  9
$CMLSTYLE
  2
Standard
  9
$CMLJUST
 70
     0
  9
$CMLSCALE
 40
1.0
  9
$PROXYGRAPHICS
 70
     1
  9
$MEASUREMENT
 70
     1
  9
$CELWEIGHT
370
    -1
  9
$ENDCAPS
280
     0
  9
$JOINSTYLE
280
     0
  9
$LWDISPLAY
290
     0
  9
$INSUNITS
 70
     4
  9
$HYPERLINKBASE
  1

  9
$STYLESHEET
  1

  9
$XEDIT
290
     1
  9
$CEPSNTYPE
380
     0
  9
$PSTYLEMODE
290
     1
  9
$FINGERPRINTGUID
  2
{6B98FB6F-8AC5-4B1C-8D77-3BE4121EB6C0}
  9
$VERSIONGUID
  2
{F7CBF124-0B38-493E-8E58-4427E7F471D3}
  9
$EXTNAMES
290
     1
  9
$PSVPSCALE
 40
0.0
  9
$OLESTARTUP
290
     0
  0
ENDSEC
  0
SECTION
  2
CLASSES
  0
CLASS
  1
ACDBDICTIONARYWDFLT
  2
AcDbDictionaryWithDefault
  3
ObjectDBX Classes
 90
        0
280
     0
281
     0
  0
CLASS
  1
MATERIAL
  2
AcDbMaterial
  3
ObjectDBX Classes
 90
     1153
280
     0
281
     0
  0
CLASS
  1
VISUALSTYLE
  2
AcDbVisualStyle
  3
ObjectDBX Classes
 90
     4095
280
     0
281
     0
  0
CLASS
  1
SCALE
  2
AcDbScale
  3
ObjectDBX Classes
 90
     1153
280
     0
281
     0
  0
CLASS
  1
TABLESTYLE
  2
AcDbTableStyle
  3
ObjectDBX Classes
 90
     4095
280
     0
281
     0
  0
CLASS
  1
MLEADERSTYLE
  2
AcDbMLeaderStyle
  3
ACDB_MLEADERSTYLE_CLASS
 90
     4095
280
     0
281
     0
  0
CLASS
  1
DICTIONARYVAR
  2
AcDbDictionaryVar
  3
ObjectDBX Classes
 90
        0
280
     0
281
     0
  0
CLASS
  1
ACME_DOCUMENT
  2
AcMeDbDoc
  3
AcMeServices
 90
    33792
280
     0
281
     0
  0
CLASS
  1
AMGSETTINGSOBJ
  2
AmgSettingsObj
  3
"AcadM|Product Description: AutoCAD Mechanical|Company: Autodesk, Inc."
 90
     1024
280
     0
281
     0
  0
CLASS
  1
ACMESCOPE
  2
AcMeScope
  3
AcMeServices
 90
     1024
280
     0
281
     0
  0
CLASS
  1
ACMECOMMANDHISTORY
  2
AcMeCommandHistory
  3
AcMeServices
 90
     1024
280
     0
281
     0
  0
CLASS
  1
ACIMSYSVARMAN
  2
AcImSysVarManager
  3
AcMeServices
 90
     1024
280
     0
281
     0
  0
CLASS
  1
ACIMINTSYSVAR
  2
AcImIntSysVar
  3
AcMeServices
 90
     1024
280
     0
281
     0
  0
CLASS
  1
ACMESTATEMGR
  2
AcMeStateMgr
  3
AcMeServices
 90
     1024
280
     0
281
     0
  0
CLASS
  1
ACDBENTITYCACHE
  2
AcMeEntityCache
  3
AcMeServices
 90
    33792
280
     0
281
     0
  0
CLASS
  1
ACGREFMASTER
  2
AcGrefMaster
  3
AcAttribServices
 90
     1024
280
     0
281
     0
  0
CLASS
  1
AM_DRAWING_MGR
  2
AcDmDwgMgr
  3
AcMechDwgViewMgmt
 90
     1024
280
     0
281
     0
  0
CLASS
  1
AM_DWG_DOCUMENT
  2
AcDmDwgDocument
  3
AcMechDwgViewMgmt
 90
     1024
280
     0
281
     0
  0
CLASS
  1
AM_DWG_SHEET
  2
AcDmSheet
  3
AcMechDwgViewMgmt
 90
     1024
280
     0
281
     0
  0
CLASS
  1
AM_VIEWDIMPARMAP
  2
AcDmViewDimParMap
  3
AcMechDwgViewMgmt
 90
     1024
280
     0
281
     0
  0
CLASS
  1
AMDTINTERNALREACTOR
  2
AmdtInternalReactor
  3
AcMeServices
 90
    33792
280
     0
281
     0
  0
CLASS
  1
ACIMREALSYSVAR
  2
AcImRealSysVar
  3
AcMeServices
 90
     1024
280
     0
281
     0
  0
CLASS
  1
AM_DWGMGR_NAME
  2
AcDmDwgMgrName
  3
AcMechDwgViewMgmt
 90
     1024
280
     0
281
     0
  0
CLASS
  1
ACME_DATABASE
  2
AcMeDbDatabase
  3
AcMeServices
 90
    33792
280
     0
281
     0
  0
CLASS
  1
ACRFINSADJUSTERMGR
  2
AcRfInsAdjusterMgr
  3
AcMeServices
 90
    33792
280
     0
281
     0
  0
CLASS
  1
ACGREFACADMASTER
  2
AcGrefacadMaster
  3
AcGrefServices
 90
     1024
280
     0
281
     0
  0
CLASS
  1
AMDTMENUSTATEMGR
  2
AmdtMenuStateMgr
  3
McadcomServices
 90
    33792
280
     0
281
     0
  0
CLASS
  1
AMDTMCOMMENUSTATE
  2
AmdtMcomMenuState
  3
McadcomServices
 90
    33792
280
     0
281
     0
  0
CLASS
  1
AMIMASTER
  2
AmiMaster
  3
AmiServices
 90
     1024
280
     0
281
     0
  0
CLASS
  1
MAPIAMMOUDLE
  2
MApiAmModule
  3
MApiAmServices
 90
     1024
280
     0
281
     0
  0
CLASS
  1
ACIMSTRSYSVAR
  2
AcImStrSysVar
  3
AcMeServices
 90
     1024
280
     0
281
     0
  0
CLASS
  1
AMDTDMMENUSTATE
  2
AmdtDmMenuState
  3
AcMechDwgViewMgmt
 90
    33792
280
     0
281
     0
  0
CLASS
  1
AMDTAMMENUSTATE
  2
AmdtAmMenuState
  3
DesignerAssemblies
 90
    33792
280
     0
281
     0
  0
CLASS
  1
ACAMPROJECT
  2
AcAmProject
  3
DesignerAssemblies
 90
     1024
280
     0
281
     0
  0
CLASS
  1
ACAMGRCOMPDEF
  2
AcAmGrCompDef
  3
DesignerAssemblies
 90
     1024
280
     0
281
     0
  0
CLASS
  1
ACAMCOMPDEF
  2
AcAmCompDef
  3
DesignerAssemblies
 90
     1024
280
     0
281
     0
  0
CLASS
  1
ACAMCOMPDEFMGR
  2
AcAmCompDefMgr
  3
DesignerAssemblies
 90
     1024
280
     0
281
     0
  0
CLASS
  1
AMCONTEXTMGR
  2
AcAmContextMgr
  3
DesignerAssemblies
 90
     1024
280
     0
281
     0
  0
CLASS
  1
ACAMCONTEXTMODELER
  2
AcAmContextModeler
  3
DesignerAssemblies
 90
     1024
280
     0
281
     0
  0
CLASS
  1
ACMDATADICTIONARY
  2
AcmDataDictionary
  3
"AcmSymBB|Product Description: AutoCAD Mechanical|Company: Autodesk, Inc."
 90
     1024
280
     0
281
     0
  0
CLASS
  1
ACAMGRCOMPDEFSET
  2
AcAmGrCompDefSet
  3
DesignerAssemblies
 90
    33792
280
     0
281
     0
  0
CLASS
  1
AMDTBROWSERDBTAB
  2
AmdtBrowserDbTab
  3
McadcomServices
 90
    33792
280
     0
281
     0
  0
CLASS
  1
CBROWSERAPPOBJECT
  2
CBrowserAppObject
  3
McadcomServices
 90
    33792
280
     0
281
     0
  0
CLASS
  1
DM_PLACEHOLDER
  2
AcDmSelsetPlaceholder
  3
AcMechDwgViewMgmt
 90
    33792
280
     0
281
     0
  0
CLASS
  1
EXACXREFPANELOBJECT
  2
ExAcXREFPanelObject
  3
EXAC_ESW
 90
     1025
280
     0
281
     0
  0
CLASS
  1
NPOCOLLECTION
  2
AcDbImpNonPersistentObjectsCollection
  3
ObjectDBX Classes
 90
     1153
280
     0
281
     0
  0
CLASS
  1
ACMSTANDARDISO
  2
AcmStandardISO
  3
"Amdt_StdImp|Product Description: AutoCAD Mechanical|Company: Autodesk, Inc."
 90
     1024
280
     0
281
     0
  0
CLASS
  1
AMDTEDGESTANDARDISO13715
  2
AmdtEdgeStdISO13715
  3
"Amdt_StdImp|Product Description: AutoCAD Mechanical|Company: Autodesk, Inc."
 90
     1024
280
     0
281
     0
  0
CLASS
  1
ACMSURFSTANDARDISO2002
  2
AcmSurfTextStdISO2002
  3
"Amdt_StdImp|Product Description: AutoCAD Mechanical|Company: Autodesk, Inc."
 90
     1024
280
     0
281
     0
  0
CLASS
  1
ACMFCFSTANDARDISO
  2
AcmFCFStdISO
  3
"Amdt_StdImp|Product Description: AutoCAD Mechanical|Company: Autodesk, Inc."
 90
     1024
280
     0
281
     0
  0
CLASS
  1
ACMWELDSTANDARDISO
  2
AcmWeldingStdISO
  3
"Amdt_StdImp|Product Description: AutoCAD Mechanical|Company: Autodesk, Inc."
 90
     1024
280
     0
281
     0
  0
CLASS
  1
ACMIDSTANDARDISO
  2
AcmIdStdISO
  3
"Amdt_StdImp|Product Description: AutoCAD Mechanical|Company: Autodesk, Inc."
 90
     1024
280
     0
281
     0
  0
CLASS
  1
ACMDATUMSTANDARDISO
  2
AcmDatumStdISO
  3
"Amdt_StdImp|Product Description: AutoCAD Mechanical|Company: Autodesk, Inc."
 90
     1024
280
     0
281
     0
  0
CLASS
  1
ACMBOMSTANDARDISO
  2
AcmBOMStdISO
  3
"Amdt_StdImp|Product Description: AutoCAD Mechanical|Company: Autodesk, Inc."
 90
     1024
280
     0
281
     0
  0
CLASS
  1
ACMDETAILSTANDARDISO
  2
AmdtDetailSymStdISO
  3
"Amdt_StdImp|Product Description: AutoCAD Mechanical|Company: Autodesk, Inc."
 90
     1024
280
     0
281
     0
  0
CLASS
  1
ACMSECTIONSTANDARDISO2001
  2
AmdtSectionSymStdISO2001
  3
"Amdt_StdImp|Product Description: AutoCAD Mechanical|Company: Autodesk, Inc."
 90
     1024
280
     0
281
     0
  0
CLASS
  1
ACMCENTERLINESTANDARDISO
  2
AmdtCenterLineStdISO
  3
"Amdt_StdImp|Product Description: AutoCAD Mechanical|Company: Autodesk, Inc."
 90
     1024
280
     0
281
     0
  0
CLASS
  1
ACMTHREADLINESTANDARDISO
  2
AmdtThreadLineStdISO
  3
"Amdt_StdImp|Product Description: AutoCAD Mechanical|Company: Autodesk, Inc."
 90
     1024
280
     0
281
     0
  0
CLASS
  1
ACMNOTESTANDARDISO
  2
AmdtNoteStdISO
  3
"Amdt_StdImp|Product Description: AutoCAD Mechanical|Company: Autodesk, Inc."
 90
     1024
280
     0
281
     0
  0
CLASS
  1
ACMTAPERSTANDARDISO
  2
AcmTaperStdISO
  3
"Amdt_StdImp|Product Description: AutoCAD Mechanical|Company: Autodesk, Inc."
 90
     1024
280
     0
281
     0
  0
CLASS
  1
ACMANOOTATIONVIEWSTANDARDISO
  2
AmdtAnViewStdISO
  3
"Amdt_StdImp|Product Description: AutoCAD Mechanical|Company: Autodesk, Inc."
 90
     1024
280
     0
281
     0
  0
CLASS
  1
ACAMGLAYSTD
  2
AcAmgLayStd
  3
"AmgLay|Product Description: AutoCAD Mechanical|Company: Autodesk, Inc."
 90
     1024
280
     0
281
     0
  0
CLASS
  1
ACAMGDIMSTD
  2
AcAmgDimStd
  3
"AmgDim|Product Description: AutoCAD Mechanical|Company: Autodesk, Inc."
 90
     1024
280
     0
281
     0
  0
CLASS
  1
AMGOBJPROPCFG
  2
AmgObjPropCfg
  3
"AmgLay|Product Description: AutoCAD Mechanical|Company: Autodesk, Inc."
 90
     1025
280
     0
281
     0
  0
CLASS
  1
ACAMGHOLECHARTSTDISO
  2
AcAmgHoleChartStdISO
  3
AmgDim|Product Description: AutoCAD Mechanical|Company: Autodesk, Inc.
 90
     1024
280
     0
281
     0
  0
CLASS
  1
ACAMGTITLESTD
  2
AcAmgTitleStd
  3
"AmgTitle|Product Description: AutoCAD Mechanical|Company: Autodesk, Inc."
 90
     4095
280
     0
281
     0
  0
CLASS
  1
AMDTNOTETEMPLATEDB
  2
AmdtNoteTemplateDB
  3
AcmSymBB|Product Description: AutoCAD Mechanical|Company: Autodesk, Inc.
 90
     1024
280
     0
281
     0
  0
CLASS
  1
ACAMGFILTERDAT
  2
AcAmgFilterDat
  3
"AcadM|Product Description: AutoCAD Mechanical|Company: Autodesk, Inc."
 90
     1024
280
     0
281
     0
  0
CLASS
  1
SORTENTSTABLE
  2
AcDbSortentsTable
  3
ObjectDBX Classes
 90
        0
280
     0
281
     0
  0
CLASS
  1
CAMSSTRUCTBTNSTATE
  2
StructBtnState
  3
DesignerAssemblies
 90
     1024
280
     0
281
     0
  0
CLASS
  1
CELLSTYLEMAP
  2
AcDbCellStyleMap
  3
ObjectDBX Classes
 90
     1152
280
     0
281
     0
  0
CLASS
  1
ACDBPLACEHOLDER
  2
AcDbPlaceHolder
  3
ObjectDBX Classes
 90
        0
280
     0
281
     0
  0
CLASS
  1
LAYOUT
  2
AcDbLayout
  3
ObjectDBX Classes
 90
        0
280
     0
281
     0
  0
ENDSEC
  0
SECTION
  2
TABLES
  0
TABLE
  2
VPORT
  5
8
330
0
100
AcDbSymbolTable
 70
     1
  0
VPORT
  5
57
330
8
100
AcDbSymbolTableRecord
100
AcDbViewportTableRecord
  2
*Active
 70
     0
 10
0.0
 20
0.0
 11
1.0
 21
1.0
 12
-1273.504327739329
 22
3186.737845437511
 13
0.0
 23
0.0
 14
1.0
 24
1.0
 15
0.0
 25
0.0
 16
0.0
 26
0.0
 36
1.0
 17
0.0
 27
0.0
 37
0.0
 40
4408.258680067048
 41
2.430203045685279
 42
50.0
 43
0.0
 44
0.0
 50
0.0
 51
0.0
 71
     0
 72
   100
 73
     1
 74
     1
 75
     0
 76
     0
 77
     0
 78
     0
281
     0
 65
     1
110
0.0
120
0.0
130
0.0
111
1.0
121
0.0
131
0.0
112
0.0
122
1.0
132
0.0
 79
     0
146
0.0
  0
ENDTAB
  0
TABLE
  2
LTYPE
  5
5
330
0
100
AcDbSymbolTable
 70
    70
  0
LTYPE
  5
5B
330
5
100
AcDbSymbolTableRecord
100
AcDbLinetypeTableRecord
  2
ByBlock
 70
     0
  3

 72
    65
 73
     0
 40
0.0
  0
LTYPE
  5
5C
330
5
100
AcDbSymbolTableRecord
100
AcDbLinetypeTableRecord
  2
ByLayer
 70
     0
  3

 72
    65
 73
     0
 40
0.0
  0
LTYPE
  5
5D
330
5
100
AcDbSymbolTableRecord
100
AcDbLinetypeTableRecord
  2
Continuous
 70
     0
  3
Solid line
 72
    65
 73
     0
 40
0.0
  0
LTYPE
  5
88E
330
5
100
AcDbSymbolTableRecord
100
AcDbLinetypeTableRecord
  2
AM_ISO02W050
 70
     0
  3
__ __ __ __ __ __ __ __ __ __ __ __ __ __ __
 72
    65
 73
     2
 40
7.5
 49
6.0
 74
     0
 49
-1.5
 74
     0
  0
LTYPE
  5
88F
330
5
100
AcDbSymbolTableRecord
100
AcDbLinetypeTableRecord
  2
AM_ISO08W050
 70
     0
  3
____ . ____ . ____ . ____ . ____ . ____ . ____
 72
    65
 73
     4
 40
18.0
 49
12.0
 74
     0
 49
-1.5
 74
     0
 49
3.0
 74
     0
 49
-1.5
 74
     0
  0
LTYPE
  5
890
330
5
100
AcDbSymbolTableRecord
100
AcDbLinetypeTableRecord
  2
AM_ISO09W050
 70
     0
  3
_____ . . _____ . . _____ . . ____ .. ____
 72
    65
 73
     6
 40
22.5
 49
12.0
 74
     0
 49
-1.5
 74
     0
 49
3.0
 74
     0
 49
-1.5
 74
     0
 49
3.0
 74
     0
 49
-1.5
 74
     0
  0
LTYPE
  5
891
330
5
100
AcDbSymbolTableRecord
100
AcDbLinetypeTableRecord
  2
Amconstr
 70
     0
  3
_______________________
 72
    65
 73
     2
 40
9999.0
 49
9999.0
 74
     0
 49
0.0
 74
     0
  0
LTYPE
  5
892
330
5
100
AcDbSymbolTableRecord
100
AcDbLinetypeTableRecord
  2
AM_ISO08W050x2
 70
     0
  3
__ . __ . __ . __ . __ . __
 72
    65
 73
     4
 40
9.0
 49
6.0
 74
     0
 49
-0.75
 74
     0
 49
1.5
 74
     0
 49
-0.75
 74
     0
  0
LTYPE
  5
893
330
5
100
AcDbSymbolTableRecord
100
AcDbLinetypeTableRecord
  2
AM_ISO02W050x2
 70
     0
  3
 _ _ _ _ _ _ _ _ _ _ _ _
 72
    65
 73
     2
 40
3.75
 49
3.0
 74
     0
 49
-0.75
 74
     0
  0
LTYPE
  5
896
330
5
100
AcDbSymbolTableRecord
100
AcDbLinetypeTableRecord
  2
Amzigzag
 70
     0
  3
/\/-/\/-/\/-/\/-/\/-/\/
 72
    65
 73
     2
 40
11.0001
 49
0.0001
 74
     4
 75
   136
340
895
 46
0.04
 50
0.0
 44
0.0
 45
0.0
 49
-11.0
 74
     0
  0
LTYPE
  5
8A5
330
5
100
AcDbSymbolTableRecord
100
AcDbLinetypeTableRecord
  2
ACISOWELD
 70
     0
  3
_ _ _ _ _
 72
    65
 73
     2
 40
2.0
 49
2.0
 74
     0
 49
-1.0
 74
     0
  0
LTYPE
  5
8A6
330
5
100
AcDbSymbolTableRecord
100
AcDbLinetypeTableRecord
  2
ACISOTGB
 70
     0
  3
__ . . __ . .
 72
    65
 73
     6
 40
9.0
 49
4.0
 74
     0
 49
-1.0
 74
     0
 49
1.0
 74
     0
 49
-1.0
 74
     0
 49
1.0
 74
     0
 49
-1.0
 74
     0
  0
LTYPE
  5
8A7
330
5
100
AcDbSymbolTableRecord
100
AcDbLinetypeTableRecord
  2
ACISOTGL
 70
     0
  3
_ _ _ _ _
 72
    65
 73
     2
 40
3.0
 49
2.0
 74
     0
 49
-1.0
 74
     0
  0
ENDTAB
  0
TABLE
  2
LAYER
  5
2
102
{ACAD_XDICTIONARY
360
8E0
102
}
330
0
100
AcDbSymbolTable
 70
     8
  0
LAYER
  5
54
330
2
100
AcDbSymbolTableRecord
100
AcDbLayerTableRecord
  2
0
 70
     0
 62
     7
  6
Continuous
370
    -3
390
F
  0
LAYER
  5
B9
330
2
100
AcDbSymbolTableRecord
100
AcDbLayerTableRecord
  2
Dimension (ISO)
 70
     0
 62
   161
  6
Continuous
370
    18
390
F
  0
LAYER
  5
C6
330
2
100
AcDbSymbolTableRecord
100
AcDbLayerTableRecord
  2
Visible (ISO)
 70
     0
 62
     7
  6
Continuous
370
    30
390
F
  0
LAYER
  5
C7
330
2
100
AcDbSymbolTableRecord
100
AcDbLayerTableRecord
  2
Visible Narrow (ISO)
 70
     0
 62
     7
  6
Continuous
370
    15
390
F
  0
LAYER
  5
33D
330
2
100
AcDbSymbolTableRecord
100
AcDbLayerTableRecord
  2
Defpoints
 70
     0
 62
     7
  6
Continuous
290
     0
370
    -3
390
F
  0
ENDTAB
  0
TABLE
  2
STYLE
  5
3
330
0
100
AcDbSymbolTable
 70
    10
  0
STYLE
  5
55
330
3
100
AcDbSymbolTableRecord
100
AcDbTextStyleTableRecord
  2
Standard
 70
     0
 40
0.0
 41
1.0
 50
0.0
 71
     0
 42
0.2
  3
tahoma.ttf
  4

1001
ACAD
1000
Tahoma
1071
      256
  0
STYLE
  5
CB
330
3
100
AcDbSymbolTableRecord
100
AcDbTextStyleTableRecord
  2
Label Text (ISO)
 70
     0
 40
0.0
 41
1.0
 50
0.0
 71
     0
 42
0.2
  3
tahoma.ttf
  4

1001
ACAD
1000
Tahoma
1071
      256
  0
STYLE
  5
895
330
3
100
AcDbSymbolTableRecord
100
AcDbTextStyleTableRecord
  2

 70
     1
 40
0.0
 41
1.0
 50
0.0
 71
     0
 42
0.2
  3
genltshp.shx
  4

  0
STYLE
  5
8A4
330
3
100
AcDbSymbolTableRecord
100
AcDbTextStyleTableRecord
  2
ACISOGDT
 70
     0
 40
0.0
 41
1.0
 50
0.0
 71
     0
 42
0.2
  3
amgdt.shx
  4

  0
ENDTAB
  0
TABLE
  2
VIEW
  5
6
330
0
100
AcDbSymbolTable
 70
     0
  0
ENDTAB
  0
TABLE
  2
UCS
  5
7
330
0
100
AcDbSymbolTable
 70
     0
  0
ENDTAB
  0
TABLE
  2
APPID
  5
9
330
0
100
AcDbSymbolTable
 70
    21
  0
APPID
  5
56
330
9
100
AcDbSymbolTableRecord
100
AcDbRegAppTableRecord
  2
ACAD
 70
     0
  0
APPID
  5
5E
330
9
100
AcDbSymbolTableRecord
100
AcDbRegAppTableRecord
  2
AcadAnnotative
 70
     0
  0
APPID
  5
13C
330
9
100
AcDbSymbolTableRecord
100
AcDbRegAppTableRecord
  2
AcadAnnoPO
 70
     0
  0
APPID
  5
824
330
9
100
AcDbSymbolTableRecord
100
AcDbRegAppTableRecord
  2
MCAD_NO_VIS
 70
     0
  0
APPID
  5
825
330
9
100
AcDbSymbolTableRecord
100
AcDbRegAppTableRecord
  2
ACAD_TEMP_GRAPHIC
 70
     0
  0
APPID
  5
850
330
9
100
AcDbSymbolTableRecord
100
AcDbRegAppTableRecord
  2
AD_DRAW
 70
     0
  0
APPID
  5
853
330
9
100
AcDbSymbolTableRecord
100
AcDbRegAppTableRecord
  2
ACATTRIBSERVICES
 70
     0
  0
APPID
  5
86C
330
9
100
AcDbSymbolTableRecord
100
AcDbRegAppTableRecord
  2
DESIGNERASSEMBLIES
 70
     0
  0
APPID
  5
871
330
9
100
AcDbSymbolTableRecord
100
AcDbRegAppTableRecord
  2
ACADM_DIM_EDIT
 70
     0
  0
APPID
  5
872
330
9
100
AcDbSymbolTableRecord
100
AcDbRegAppTableRecord
  2
AMDT_DM_ADJ
 70
     0
  0
APPID
  5
88B
330
9
100
AcDbSymbolTableRecord
100
AcDbRegAppTableRecord
  2
ACAD_DSTYLE_DIMJAG
 70
     0
  0
APPID
  5
88C
330
9
100
AcDbSymbolTableRecord
100
AcDbRegAppTableRecord
  2
ACAD_DSTYLE_DIMBREAK
 70
     0
  0
APPID
  5
8B7
330
9
100
AcDbSymbolTableRecord
100
AcDbRegAppTableRecord
  2
AcAecLayerStandard
 70
     0
  0
APPID
  5
8D6
330
9
100
AcDbSymbolTableRecord
100
AcDbRegAppTableRecord
  2
ACAD_PSEXT
 70
     0
  0
APPID
  5
8DE
330
9
100
AcDbSymbolTableRecord
100
AcDbRegAppTableRecord
  2
ACAD_DSTYLE_DIMJOGGED_JOGANGLE_SYMBOL
 70
     0
  0
APPID
  5
8EC
330
9
100
AcDbSymbolTableRecord
100
AcDbRegAppTableRecord
  2
ACAD_EXEMPT_FROM_CAD_STANDARDS
 70
     0
  0
APPID
  5
A63
330
9
100
AcDbSymbolTableRecord
100
AcDbRegAppTableRecord
  2
ACAD_MLEADERVER
 70
     0
  0
APPID
  5
A69
330
9
100
AcDbSymbolTableRecord
100
AcDbRegAppTableRecord
  2
ACAD_DSTYLE_DIMARC_LENGTH_SYMBOL
 70
     0
  0
APPID
  5
A6A
330
9
100
AcDbSymbolTableRecord
100
AcDbRegAppTableRecord
  2
ACAD_DSTYLE_DIM_LINETYPE
 70
     0
  0
APPID
  5
A6B
330
9
100
AcDbSymbolTableRecord
100
AcDbRegAppTableRecord
  2
ACAD_DSTYLE_DIM_EXT1_LINETYPE
 70
     0
  0
APPID
  5
A6C
330
9
100
AcDbSymbolTableRecord
100
AcDbRegAppTableRecord
  2
ACAD_DSTYLE_DIM_EXT2_LINETYPE
 70
     0
  0
ENDTAB
  0
TABLE
  2
DIMSTYLE
  5
A
330
0
100
AcDbSymbolTable
 70
    24
100
AcDbDimStyleTable
 71
     2
340
D6
340
58
  0
DIMSTYLE
105
58
330
A
100
AcDbSymbolTableRecord
100
AcDbDimStyleTableRecord
  2
Standard
 70
     0
340
55
  0
DIMSTYLE
105
D6
102
{ACAD_REACTORS
330
33C
330
425
330
507
330
5EF
330
6D7
102
}
330
A
100
AcDbSymbolTableRecord
100
AcDbDimStyleTableRecord
  2
Default (ISO)
 70
     0
 40
20.0
 41
2.5
 42
0.5
 43
5.999999999999999
 44
1.0
 45
0.00000001
 46
10.0
 73
     0
 77
     1
 78
     8
140
3.5
143
0.03937
146
0.7142857313156128
147
0.762
171
     3
172
     1
176
   256
177
   256
178
   256
271
     2
272
     3
274
     3
278
    44
340
CB
371
    -1
372
    -1
  0
DIMSTYLE
105
88A
102
{ACAD_REACTORS
330
879
102
}
330
A
100
AcDbSymbolTableRecord
100
AcDbDimStyleTableRecord
  2
AM_ISO
 70
     0
  4
"
 41
3.5
 42
1.0
 43
10.0
 44
1.0
 47
0.1
 48
0.1
 73
     0
 74
     0
 77
     1
 78
     8
 79
     2
140
3.5
141
0.0
143
0.0393701
146
0.71
147
1.5
172
     1
176
   256
177
   256
178
     2
271
     2
272
     3
274
     4
283
     0
284
     8
340
55
371
    -1
372
    -1
1001
ACAD_DSTYLE_DIMJAG
1070
   388
1040
1.5
1001
ACAD_DSTYLE_DIMBREAK
1070
   391
1040
3.75
1001
ACAD_DSTYLE_DIMARC_LENGTH_SYMBOL
1070
   379
1070
     1
1001
ACAD_DSTYLE_DIM_LINETYPE
1070
   380
1005
5B
1001
ACAD_DSTYLE_DIM_EXT1_LINETYPE
1070
   381
1005
5B
1001
ACAD_DSTYLE_DIM_EXT2_LINETYPE
1070
   382
1005
5B
  0
DIMSTYLE
105
897
330
A
100
AcDbSymbolTableRecord
100
AcDbDimStyleTableRecord
  2
AM_ISO$3
 70
     0
  4
"
 41
3.5
 42
1.0
 43
10.0
 44
1.0
 47
0.1
 48
0.1
 73
     0
 77
     1
 78
     8
 79
     2
140
3.5
141
0.0
143
0.0393701
146
0.71
147
1.5
176
   256
177
   256
178
     2
271
     2
272
     3
274
     4
283
     0
284
     8
288
     1
289
     0
340
55
371
    -1
372
    -1
1001
ACAD_DSTYLE_DIMBREAK
1070
   391
1040
3.75
1001
ACAD_DSTYLE_DIMJAG
1070
   388
1040
1.5
1001
ACAD_DSTYLE_DIMARC_LENGTH_SYMBOL
1070
   379
1070
     1
1001
ACAD_DSTYLE_DIM_LINETYPE
1070
   380
1005
5B
1001
ACAD_DSTYLE_DIM_EXT1_LINETYPE
1070
   381
1005
5B
1001
ACAD_DSTYLE_DIM_EXT2_LINETYPE
1070
   382
1005
5B
  0
DIMSTYLE
105
898
330
A
100
AcDbSymbolTableRecord
100
AcDbDimStyleTableRecord
  2
AM_ISO$4
 70
     0
  4
"
 41
3.5
 42
1.0
 43
10.0
 44
1.0
 47
0.1
 48
0.1
 73
     0
 77
     1
 78
     8
 79
     2
140
3.5
141
0.0
143
0.0393701
146
0.71
147
1.5
176
   256
177
   256
178
     2
271
     2
272
     3
274
     4
283
     0
284
     8
288
     1
289
     0
340
55
371
    -1
372
    -1
1001
ACAD_DSTYLE_DIMBREAK
1070
   391
1040
3.75
1001
ACAD_DSTYLE_DIMJAG
1070
   388
1040
1.5
1001
ACAD_DSTYLE_DIMARC_LENGTH_SYMBOL
1070
   379
1070
     1
1001
ACAD_DSTYLE_DIM_LINETYPE
1070
   380
1005
5B
1001
ACAD_DSTYLE_DIM_EXT1_LINETYPE
1070
   381
1005
5B
1001
ACAD_DSTYLE_DIM_EXT2_LINETYPE
1070
   382
1005
5B
  0
DIMSTYLE
105
899
330
A
100
AcDbSymbolTableRecord
100
AcDbDimStyleTableRecord
  2
AM_ISO$6
 70
     0
  4
"
 41
3.5
 42
1.0
 43
10.0
 44
1.0
 47
0.1
 48
0.1
 73
     0
 74
     0
 78
     8
 79
     2
140
3.5
141
0.0
143
0.0393701
146
0.71
147
1.5
172
     1
176
   256
177
   256
178
     2
271
     2
272
     3
274
     4
283
     0
284
     8
340
55
371
    -1
372
    -1
1001
ACAD_DSTYLE_DIMBREAK
1070
   391
1040
3.75
1001
ACAD_DSTYLE_DIMJAG
1070
   388
1040
1.5
1001
ACAD_DSTYLE_DIMARC_LENGTH_SYMBOL
1070
   379
1070
     1
1001
ACAD_DSTYLE_DIM_LINETYPE
1070
   380
1005
5B
1001
ACAD_DSTYLE_DIM_EXT1_LINETYPE
1070
   381
1005
5B
1001
ACAD_DSTYLE_DIM_EXT2_LINETYPE
1070
   382
1005
5B
  0
DIMSTYLE
105
89A
330
A
100
AcDbSymbolTableRecord
100
AcDbDimStyleTableRecord
  2
AM_ISO$7
 70
     0
  4
"
 41
3.5
 42
1.0
 43
10.0
 44
1.0
 47
0.1
 48
0.1
 73
     0
 74
     0
 77
     1
 78
     8
 79
     2
140
3.5
141
0.0
143
0.0393701
146
0.71
147
1.5
172
     1
176
   256
177
   256
178
     2
271
     2
272
     3
274
     4
283
     0
284
     8
340
55
371
    -1
372
    -1
1001
ACAD_DSTYLE_DIMBREAK
1070
   391
1040
3.75
1001
ACAD_DSTYLE_DIMJAG
1070
   388
1040
1.5
1001
ACAD_DSTYLE_DIMARC_LENGTH_SYMBOL
1070
   379
1070
     1
1001
ACAD_DSTYLE_DIM_LINETYPE
1070
   380
1005
5B
1001
ACAD_DSTYLE_DIM_EXT1_LINETYPE
1070
   381
1005
5B
1001
ACAD_DSTYLE_DIM_EXT2_LINETYPE
1070
   382
1005
5B
  0
DIMSTYLE
105
89B
330
A
100
AcDbSymbolTableRecord
100
AcDbDimStyleTableRecord
  2
AM_ISO$SF
 70
     0
  4
"
 41
3.5
 42
1.0
 43
10.0
 44
1.0
 47
0.1
 48
0.1
 73
     0
 74
     0
 75
     1
 76
     1
 77
     1
 78
     8
 79
     2
140
3.5
141
0.0
143
0.0393701
146
0.71
147
1.5
172
     1
176
   256
177
   256
178
     2
271
     2
272
     3
274
     4
283
     0
284
     8
340
55
371
    -1
372
    -1
1001
ACAD_DSTYLE_DIMBREAK
1070
   391
1040
3.75
1001
ACAD_DSTYLE_DIMJAG
1070
   388
1040
1.5
1001
ACAD_DSTYLE_DIMARC_LENGTH_SYMBOL
1070
   379
1070
     1
1001
ACAD_DSTYLE_DIM_LINETYPE
1070
   380
1005
5B
1001
ACAD_DSTYLE_DIM_EXT1_LINETYPE
1070
   381
1005
5B
1001
ACAD_DSTYLE_DIM_EXT2_LINETYPE
1070
   382
1005
5B
  0
DIMSTYLE
105
8A0
330
A
100
AcDbSymbolTableRecord
100
AcDbDimStyleTableRecord
  2
AM_ISO$SH
 70
     0
  4
"
 41
3.5
 42
1.0
 43
10.0
 44
1.0
 47
0.1
 48
0.1
 73
     0
 74
     0
 75
     1
 76
     1
 77
     1
 78
     8
 79
     2
140
3.5
141
0.0
143
0.0393701
144
2.0
146
0.71
147
1.5
172
     1
173
     1
176
   256
177
   256
178
     2
271
     2
272
     3
274
     4
283
     0
284
     8
340
55
343
89C
371
    -1
372
    -1
1001
ACAD_DSTYLE_DIMBREAK
1070
   391
1040
3.75
1001
ACAD_DSTYLE_DIMJAG
1070
   388
1040
1.5
1001
ACAD_DSTYLE_DIMARC_LENGTH_SYMBOL
1070
   379
1070
     1
1001
ACAD_DSTYLE_DIM_LINETYPE
1070
   380
1005
5B
1001
ACAD_DSTYLE_DIM_EXT1_LINETYPE
1070
   381
1005
5B
1001
ACAD_DSTYLE_DIM_EXT2_LINETYPE
1070
   382
1005
5B
  0
ENDTAB
  0
TABLE
  2
BLOCK_RECORD
  5
1
330
0
100
AcDbSymbolTable
 70
    15
  0
BLOCK_RECORD
  5
6C
102
{ACAD_XDICTIONARY
360
8B9
102
}
330
1
100
AcDbSymbolTableRecord
100
AcDbBlockTableRecord
  2
*Model_Space
340
6F
  0
BLOCK_RECORD
  5
68
330
1
100
AcDbSymbolTableRecord
100
AcDbBlockTableRecord
  2
*Paper_Space
340
6B
  0
BLOCK_RECORD
  5
70
330
1
100
AcDbSymbolTableRecord
100
AcDbBlockTableRecord
  2
*Paper_Space0
340
73
  0
BLOCK_RECORD
  5
33E
330
1
100
AcDbSymbolTableRecord
100
AcDbBlockTableRecord
  2
*D6
340
0
  0
BLOCK_RECORD
  5
426
330
1
100
AcDbSymbolTableRecord
100
AcDbBlockTableRecord
  2
*D7
340
0
  0
BLOCK_RECORD
  5
508
330
1
100
AcDbSymbolTableRecord
100
AcDbBlockTableRecord
  2
*D8
340
0
  0
BLOCK_RECORD
  5
5F0
330
1
100
AcDbSymbolTableRecord
100
AcDbBlockTableRecord
  2
*D9
340
0
  0
BLOCK_RECORD
  5
6D8
330
1
100
AcDbSymbolTableRecord
100
AcDbBlockTableRecord
  2
*D10
340
0
  0
BLOCK_RECORD
  5
864
330
1
100
AcDbSymbolTableRecord
100
AcDbBlockTableRecord
  2
*U11
340
0
  0
BLOCK_RECORD
  5
89C
330
1
100
AcDbSymbolTableRecord
100
AcDbBlockTableRecord
  2
GENAXEH
340
0
  0
BLOCK_RECORD
  5
950
330
1
100
AcDbSymbolTableRecord
100
AcDbBlockTableRecord
  2
25150-25159_Klucznik-H
340
0
310
2800000020000000200000000100080000000000000400000000000000000000000000000000000000000000000080000080000000808000800000008000800080800000C0C0C000C0DCC000F0CAA6000020400000206000002080000020A0000020C0000020E00000400000004020000040400000406000004080000040A0
310
000040C0000040E00000600000006020000060400000606000006080000060A0000060C0000060E00000800000008020000080400000806000008080000080A0000080C0000080E00000A0000000A0200000A0400000A0600000A0800000A0A00000A0C00000A0E00000C0000000C0200000C0400000C0600000C0800000C0
310
A00000C0C00000C0E00000E0000000E0200000E0400000E0600000E0800000E0A00000E0C00000E0E00040000000400020004000400040006000400080004000A0004000C0004000E00040200000402020004020400040206000402080004020A0004020C0004020E000404000004040200040404000404060004040800040
310
40A0004040C0004040E00040600000406020004060400040606000406080004060A0004060C0004060E00040800000408020004080400040806000408080004080A0004080C0004080E00040A0000040A0200040A0400040A0600040A0800040A0A00040A0C00040A0E00040C0000040C0200040C0400040C0600040C08000
310
40C0A00040C0C00040C0E00040E0000040E0200040E0400040E0600040E0800040E0A00040E0C00040E0E00080000000800020008000400080006000800080008000A0008000C0008000E00080200000802020008020400080206000802080008020A0008020C0008020E00080400000804020008040400080406000804080
310
008040A0008040C0008040E00080600000806020008060400080606000806080008060A0008060C0008060E00080800000808020008080400080806000808080008080A0008080C0008080E00080A0000080A0200080A0400080A0600080A0800080A0A00080A0C00080A0E00080C0000080C0200080C0400080C0600080C0
310
800080C0A00080C0C00080C0E00080E0000080E0200080E0400080E0600080E0800080E0A00080E0C00080E0E000C0000000C0002000C0004000C0006000C0008000C000A000C000C000C000E000C0200000C0202000C0204000C0206000C0208000C020A000C020C000C020E000C0400000C0402000C0404000C0406000C0
310
408000C040A000C040C000C040E000C0600000C0602000C0604000C0606000C0608000C060A000C060C000C060E000C0800000C0802000C0804000C0806000C0808000C080A000C080C000C080E000C0A00000C0A02000C0A04000C0A06000C0A08000C0A0A000C0A0C000C0A0E000C0C00000C0C02000C0C04000C0C06000
310
C0C08000C0C0A000F0FBFF00A4A0A000808080000000FF0000FF000000FFFF00FF000000FF00FF00FFFF0000FFFFFF0049494949494949494949494949494949494949494949494949494949494949494949494949494949494949494949494949494949494949494949494949494949494949494949494949494949494949
310
49494949494949494949494949494949494949494949494949494949494949494949494949494949494949494949494949494949494949494949494949494949494949494949494949494949494949494949494949494949494949494949494949494949494949494949494949494949494949494949494949494949494949
310
49494949494949494949494949494949494949494949494949494949494949494949494949494949494949494949494949494949494949494949494949494949494949494949494949494949494949494949494949494949494949494949494949494949494949494949494949494949494949494949494949494949494949
310
494949494949494949494949494949494949494949494949494949494949494949494949494949494949494949494949494949494949494949494949494949494949494949FF494949494949494949494949494949FFFFFFFFFFFFFFFFFFFFFFFFFFFFFFFFFFFFFFFFFFFFFFFFFFFFFFFF49494949FF494949494949494949
310
494949494949FF49494949494949494949FF494949FFFFFF494949494949494949494949494949494949494949494949FFFFFF4949FFFFFF494949494949494949494949494949494949494949494949FFFFFF494949FF4949494949494949494949FF4949494949494949494949494949FF49494949FFFFFFFFFFFFFFFFFF
310
FFFFFFFFFFFFFFFFFFFFFFFFFFFFFFFFFFFFFF49494949494949494949494949494949FF49494949494949494949494949494949494949494949494949494949494949494949494949494949494949494949494949494949494949494949494949494949494949494949494949494949494949494949494949494949494949
310
49494949494949494949494949494949494949494949494949494949494949494949494949494949494949494949494949494949494949494949494949494949494949494949494949494949494949494949494949494949494949494949494949494949494949494949494949494949494949494949494949494949494949
310
49494949494949494949494949494949494949494949494949494949494949494949494949494949494949494949494949494949494949494949494949494949494949494949494949494949494949494949494949494949494949494949494949494949494949494949494949494949494949494949494949494949494949
310
4949494949494949494949494949494949494949494949494949494949494949494949494949494949494949494949494949494949494949
102
{BLKREFS
331
A21
102
}
1001
ACAD
1000
DesignCenter Data
1002
{
1070
     1
1070
     4
1002
}
  0
ENDTAB
  0
ENDSEC
  0
SECTION
  2
BLOCKS
  0
BLOCK
  5
6D
330
6C
100
AcDbEntity
  8
0
100
AcDbBlockBegin
  2
*Model_Space
 70
     0
 10
0.0
 20
0.0
 30
0.0
  3
*Model_Space
  1

  0
ENDBLK
  5
6E
330
6C
100
AcDbEntity
  8
0
100
AcDbBlockEnd
  0
BLOCK
  5
69
330
68
100
AcDbEntity
 67
     1
  8
0
100
AcDbBlockBegin
  2
*Paper_Space
 70
     0
 10
0.0
 20
0.0
 30
0.0
  3
*Paper_Space
  1

  0
ENDBLK
  5
6A
330
68
100
AcDbEntity
 67
     1
  8
0
100
AcDbBlockEnd
  0
BLOCK
  5
71
330
70
100
AcDbEntity
 67
     1
  8
0
100
AcDbBlockBegin
  2
*Paper_Space0
 70
     0
 10
0.0
 20
0.0
 30
0.0
  3
*Paper_Space0
  1

  0
ENDBLK
  5
72
330
70
100
AcDbEntity
 67
     1
  8
0
100
AcDbBlockEnd
  0
BLOCK
  5
33F
330
33E
100
AcDbEntity
  8
0
100
AcDbBlockBegin
  2
*D6
 70
     1
 10
0.0
 20
0.0
 30
0.0
  3
*D6
  1

  0
LINE
  5
41C
330
33E
100
AcDbEntity
  8
Dimension (ISO)
100
AcDbLine
 10
-768.0061115313119
 20
2464.337890920326
 30
0.0
 11
-503.3019630560339
 21
2464.337890920326
 31
0.0
  0
LINE
  5
41D
330
33E
100
AcDbEntity
  8
Dimension (ISO)
100
AcDbLine
 10
-768.0061115313113
 20
2064.337890920327
 30
0.0
 11
-503.3019630560341
 21
2064.337890920327
 31
0.0
  0
LINE
  5
41E
330
33E
100
AcDbEntity
  8
Dimension (ISO)
100
AcDbLine
 10
-523.3019630560339
 20
2414.337890920326
 30
0.0
 11
-523.3019630560341
 21
2114.337890920327
 31
0.0
  0
SOLID
  5
41F
330
33E
100
AcDbEntity
  8
Dimension (ISO)
100
AcDbTrace
 10
-531.6352963893673
 20
2414.337890920326
 30
0.0
 11
-514.9686297227005
 21
2414.337890920326
 31
0.0
 12
-523.3019630560339
 22
2464.337890920326
 32
0.0
 13
-523.3019630560339
 23
2464.337890920326
 33
0.0
  0
SOLID
  5
420
330
33E
100
AcDbEntity
  8
Dimension (ISO)
100
AcDbTrace
 10
-531.6352963893674
 20
2114.337890920327
 30
0.0
 11
-514.9686297227007
 21
2114.337890920327
 31
0.0
 12
-523.3019630560341
 22
2064.337890920327
 32
0.0
 13
-523.3019630560341
 23
2064.337890920327
 33
0.0
  0
MTEXT
  5
421
330
33E
100
AcDbEntity
  8
Dimension (ISO)
100
AcDbMText
 10
-611.4096590257966
 20
2264.337890920326
 30
0.0
 40
70.0
 41
0.0
 71
     2
 72
     1
  1
\A1;400
  7
Label Text (ISO)
 11
0.0000000000000001
 21
1.0
 31
0.0
 73
     1
 44
1.0
1001
ACAD
1000
MTEXTBEGIN
1070
    73
1070
     1
1070
    44
1040
1.0
1070
    74
1070
     0
1000
MTEXTEND
  0
POINT
  5
422
330
33E
100
AcDbEntity
  8
Defpoints
 62
     0
100
AcDbPoint
 10
-778.0061115313119
 20
2464.337890920326
 30
0.0
  0
POINT
  5
423
330
33E
100
AcDbEntity
  8
Defpoints
 62
     0
100
AcDbPoint
 10
-778.0061115313113
 20
2064.337890920327
 30
0.0
  0
POINT
  5
424
330
33E
100
AcDbEntity
  8
Defpoints
 62
     0
100
AcDbPoint
 10
-523.3019630560341
 20
2064.337890920327
 30
0.0
  0
ENDBLK
  5
340
330
33E
100
AcDbEntity
  8
0
100
AcDbBlockEnd
  0
BLOCK
  5
427
330
426
100
AcDbEntity
  8
0
100
AcDbBlockBegin
  2
*D7
 70
     1
 10
0.0
 20
0.0
 30
0.0
  3
*D7
  1

  0
LINE
  5
4FE
330
426
100
AcDbEntity
  8
Dimension (ISO)
100
AcDbLine
 10
-2700.690603629924
 20
2207.337890920544
 30
0.0
 11
-2700.690603629924
 21
1838.036240094833
 31
0.0
  0
LINE
  5
4FF
330
426
100
AcDbEntity
  8
Dimension (ISO)
100
AcDbLine
 10
-745.0061115313111
 20
2207.337890920352
 30
0.0
 11
-745.0061115313111
 21
1838.036240094833
 31
0.0
  0
LINE
  5
500
330
426
100
AcDbEntity
  8
Dimension (ISO)
100
AcDbLine
 10
-2650.690603629924
 20
1858.036240094833
 30
0.0
 11
-795.0061115313111
 21
1858.036240094833
 31
0.0
  0
SOLID
  5
501
330
426
100
AcDbEntity
  8
Dimension (ISO)
100
AcDbTrace
 10
-2650.690603629924
 20
1866.369573428167
 30
0.0
 11
-2650.690603629924
 21
1849.7029067615
 31
0.0
 12
-2700.690603629924
 22
1858.036240094833
 32
0.0
 13
-2700.690603629924
 23
1858.036240094833
 33
0.0
  0
SOLID
  5
502
330
426
100
AcDbEntity
  8
Dimension (ISO)
100
AcDbTrace
 10
-795.0061115313111
 20
1866.369573428167
 30
0.0
 11
-795.0061115313111
 21
1849.7029067615
 31
0.0
 12
-745.0061115313111
 22
1858.036240094833
 32
0.0
 13
-745.0061115313111
 23
1858.036240094833
 33
0.0
  0
MTEXT
  5
503
330
426
100
AcDbEntity
  8
Dimension (ISO)
100
AcDbMText
 10
-1765.716198483502
 20
1946.143936064595
 30
0.0
 40
70.0
 41
0.0
 71
     2
 72
     1
  1
\A1;1956
  7
Label Text (ISO)
 73
     1
 44
1.0
1001
ACAD
1000
MTEXTBEGIN
1070
    73
1070
     1
1070
    44
1040
1.0
1070
    74
1070
     0
1000
MTEXTEND
  0
POINT
  5
504
330
426
100
AcDbEntity
  8
Defpoints
 62
     0
100
AcDbPoint
 10
-2700.690603629924
 20
2217.337890920544
 30
0.0
  0
POINT
  5
505
330
426
100
AcDbEntity
  8
Defpoints
 62
     0
100
AcDbPoint
 10
-745.0061115313111
 20
2217.337890920352
 30
0.0
  0
POINT
  5
506
330
426
100
AcDbEntity
  8
Defpoints
 62
     0
100
AcDbPoint
 10
-745.0061115313111
 20
1858.036240094833
 30
0.0
  0
ENDBLK
  5
428
330
426
100
AcDbEntity
  8
0
100
AcDbBlockEnd
  0
BLOCK
  5
509
330
508
100
AcDbEntity
  8
0
100
AcDbBlockBegin
  2
*D8
 70
     1
 10
0.0
 20
0.0
 30
0.0
  3
*D8
  1

  0
LINE
  5
8C4
330
508
100
AcDbEntity
  8
Dimension (ISO)
100
AcDbLine
 10
-2790.690603629375
 20
3062.006649495793
 30
0.0
 11
-2939.188874632993
 21
3062.006649495793
 31
0.0
  0
LINE
  5
8C5
330
508
100
AcDbEntity
  8
Dimension (ISO)
100
AcDbLine
 10
-2750.690603629375
 20
3292.006649495794
 30
0.0
 11
-2939.188874632993
 21
3292.006649495794
 31
0.0
  0
LINE
  5
8C6
330
508
100
AcDbEntity
  8
Dimension (ISO)
100
AcDbLine
 10
-2919.188874632992
 20
3112.006649495793
 30
0.0
 11
-2919.188874632992
 21
3242.006649495794
 31
0.0
  0
SOLID
  5
8C7
330
508
100
AcDbEntity
  8
Dimension (ISO)
100
AcDbTrace
 10
-2927.522207966326
 20
3112.006649495793
 30
0.0
 11
-2910.855541299659
 21
3112.006649495793
 31
0.0
 12
-2919.188874632993
 22
3062.006649495793
 32
0.0
 13
-2919.188874632993
 23
3062.006649495793
 33
0.0
  0
SOLID
  5
8C8
330
508
100
AcDbEntity
  8
Dimension (ISO)
100
AcDbTrace
 10
-2927.522207966326
 20
3242.006649495794
 30
0.0
 11
-2910.855541299659
 21
3242.006649495794
 31
0.0
 12
-2919.188874632992
 22
3292.006649495794
 32
0.0
 13
-2919.188874632992
 23
3292.006649495794
 33
0.0
  0
MTEXT
  5
8C9
330
508
100
AcDbEntity
  8
Dimension (ISO)
100
AcDbMText
 10
-3007.343582490616
 20
3177.006649495794
 30
0.0
 40
70.0
 41
0.0
 71
     2
 72
     1
  1
\A1;230
  7
Label Text (ISO)
 11
0.0000000000000001
 21
1.0
 31
0.0
 73
     1
 44
1.0
1001
ACAD
1000
MTEXTBEGIN
1070
    73
1070
     1
1070
    44
1040
1.0
1070
    74
1070
     0
1000
MTEXTEND
  0
POINT
  5
8CA
330
508
100
AcDbEntity
  8
Defpoints
 62
     0
100
AcDbPoint
 10
-2780.690603629375
 20
3062.006649495793
 30
0.0
  0
POINT
  5
8CB
330
508
100
AcDbEntity
  8
Defpoints
 62
     0
100
AcDbPoint
 10
-2740.690603629375
 20
3292.006649495794
 30
0.0
  0
POINT
  5
8CC
330
508
100
AcDbEntity
  8
Defpoints
 62
     0
100
AcDbPoint
 10
-2919.188874632992
 20
3292.006649495794
 30
0.0
  0
ENDBLK
  5
50A
330
508
100
AcDbEntity
  8
0
100
AcDbBlockEnd
  0
BLOCK
  5
5F1
330
5F0
100
AcDbEntity
  8
0
100
AcDbBlockBegin
  2
*D9
 70
     1
 10
0.0
 20
0.0
 30
0.0
  3
*D9
  1

  0
LINE
  5
8CD
330
5F0
100
AcDbEntity
  8
Dimension (ISO)
100
AcDbLine
 10
-2984.810598809866
 20
3512.006649495794
 30
0.0
 11
-3120.40818242848
 21
3512.006649495794
 31
0.0
  0
LINE
  5
8CE
330
5F0
100
AcDbEntity
  8
Dimension (ISO)
100
AcDbLine
 10
-2790.690603629375
 20
3062.006649495793
 30
0.0
 11
-3120.40818242848
 21
3062.006649495794
 31
0.0
  0
LINE
  5
8CF
330
5F0
100
AcDbEntity
  8
Dimension (ISO)
100
AcDbLine
 10
-3100.40818242848
 20
3462.006649495794
 30
0.0
 11
-3100.40818242848
 21
3112.006649495794
 31
0.0
  0
SOLID
  5
8D0
330
5F0
100
AcDbEntity
  8
Dimension (ISO)
100
AcDbTrace
 10
-3108.741515761813
 20
3462.006649495794
 30
0.0
 11
-3092.074849095146
 21
3462.006649495794
 31
0.0
 12
-3100.40818242848
 22
3512.006649495794
 32
0.0
 13
-3100.40818242848
 23
3512.006649495794
 33
0.0
  0
SOLID
  5
8D1
330
5F0
100
AcDbEntity
  8
Dimension (ISO)
100
AcDbTrace
 10
-3108.741515761813
 20
3112.006649495794
 30
0.0
 11
-3092.074849095146
 21
3112.006649495794
 31
0.0
 12
-3100.40818242848
 22
3062.006649495794
 32
0.0
 13
-3100.40818242848
 23
3062.006649495794
 33
0.0
  0
MTEXT
  5
8D2
330
5F0
100
AcDbEntity
  8
Dimension (ISO)
100
AcDbMText
 10
-3188.515878869045
 20
3282.427286885148
 30
0.0
 40
70.0
 41
0.0
 71
     2
 72
     1
  1
\A1;450
  7
Label Text (ISO)
 11
0.0000000000000001
 21
1.0
 31
0.0
 73
     1
 44
1.0
1001
ACAD
1000
MTEXTBEGIN
1070
    73
1070
     1
1070
    44
1040
1.0
1070
    74
1070
     0
1000
MTEXTEND
  0
POINT
  5
8D3
330
5F0
100
AcDbEntity
  8
Defpoints
 62
     0
100
AcDbPoint
 10
-2974.810598809865
 20
3512.006649495794
 30
0.0
  0
POINT
  5
8D4
330
5F0
100
AcDbEntity
  8
Defpoints
 62
     0
100
AcDbPoint
 10
-2780.690603629375
 20
3062.006649495793
 30
0.0
  0
POINT
  5
8D5
330
5F0
100
AcDbEntity
  8
Defpoints
 62
     0
100
AcDbPoint
 10
-3100.40818242848
 20
3062.006649495794
 30
0.0
  0
ENDBLK
  5
5F2
330
5F0
100
AcDbEntity
  8
0
100
AcDbBlockEnd
  0
BLOCK
  5
6D9
330
6D8
100
AcDbEntity
  8
0
100
AcDbBlockBegin
  2
*D10
 70
     1
 10
0.0
 20
0.0
 30
0.0
  3
*D10
  1

  0
LINE
  5
8EF
330
6D8
100
AcDbEntity
  8
Dimension (ISO)
100
AcDbLine
 10
-2544.101385625879
 20
5104.42529138065
 30
0.0
 11
-3120.291391357052
 21
5104.42529138065
 31
0.0
  0
LINE
  5
8F0
330
6D8
100
AcDbEntity
  8
Dimension (ISO)
100
AcDbLine
 10
-2984.810598809866
 20
3512.006649495794
 30
0.0
 11
-3120.291391357052
 21
3512.006649495794
 31
0.0
  0
LINE
  5
8F1
330
6D8
100
AcDbEntity
  8
Dimension (ISO)
100
AcDbLine
 10
-3100.291391357052
 20
5054.42529138065
 30
0.0
 11
-3100.291391357052
 21
3562.006649495794
 31
0.0
  0
SOLID
  5
8F2
330
6D8
100
AcDbEntity
  8
Dimension (ISO)
100
AcDbTrace
 10
-3108.624724690385
 20
5054.42529138065
 30
0.0
 11
-3091.958058023718
 21
5054.42529138065
 31
0.0
 12
-3100.291391357052
 22
5104.42529138065
 32
0.0
 13
-3100.291391357052
 23
5104.42529138065
 33
0.0
  0
SOLID
  5
8F3
330
6D8
100
AcDbEntity
  8
Dimension (ISO)
100
AcDbTrace
 10
-3108.624724690385
 20
3562.006649495794
 30
0.0
 11
-3091.958058023718
 21
3562.006649495794
 31
0.0
 12
-3100.291391357052
 22
3512.006649495794
 32
0.0
 13
-3100.291391357052
 23
3512.006649495794
 33
0.0
  0
MTEXT
  5
8F4
330
6D8
100
AcDbEntity
  8
Dimension (ISO)
100
AcDbMText
 10
-3188.446099214675
 20
4308.215970438221
 30
0.0
 40
70.0
 41
0.0
 71
     2
 72
     1
  1
\A1;1592
  7
Label Text (ISO)
 11
0.0000000000000001
 21
1.0
 31
0.0
 73
     1
 44
1.0
1001
ACAD
1000
MTEXTBEGIN
1070
    73
1070
     1
1070
    44
1040
1.0
1070
    74
1070
     0
1000
MTEXTEND
  0
POINT
  5
8F5
330
6D8
100
AcDbEntity
  8
Defpoints
 62
     0
100
AcDbPoint
 10
-2534.101385625878
 20
5104.42529138065
 30
0.0
  0
POINT
  5
8F6
330
6D8
100
AcDbEntity
  8
Defpoints
 62
     0
100
AcDbPoint
 10
-2974.810598809865
 20
3512.006649495794
 30
0.0
  0
POINT
  5
8F7
330
6D8
100
AcDbEntity
  8
Defpoints
 62
     0
100
AcDbPoint
 10
-3100.291391357052
 20
3512.006649495794
 30
0.0
  0
ENDBLK
  5
6DA
330
6D8
100
AcDbEntity
  8
0
100
AcDbBlockEnd
  0
BLOCK
  5
865
330
864
100
AcDbEntity
  8
0
100
AcDbBlockBegin
  2
*U11
 70
     1
 10
0.0
 20
0.0
 30
0.0
  3
*U11
  1

  0
ENDBLK
  5
866
330
864
100
AcDbEntity
  8
0
100
AcDbBlockEnd
  0
BLOCK
  5
89E
330
89C
100
AcDbEntity
  8
0
100
AcDbBlockBegin
  2
GENAXEH
 70
     0
 10
0.0
 20
0.0
 30
0.0
  3
GENAXEH
  1

  0
LINE
  5
89D
330
89C
100
AcDbEntity
  8
0
100
AcDbLine
 10
-1.0
 20
0.0
 30
0.0
 11
1.0
 21
0.0
 31
0.0
  0
ENDBLK
  5
89F
330
89C
100
AcDbEntity
  8
0
100
AcDbBlockEnd
  0
BLOCK
  5
951
330
950
100
AcDbEntity
  8
0
100
AcDbBlockBegin
  2
25150-25159_Klucznik-H
 70
     0
 10
0.0
 20
0.0
 30
0.0
  3
25150-25159_Klucznik-H
  1

  0
LINE
  5
953
330
950
100
AcDbEntity
  8
Visible (ISO)
100
AcDbLine
 10
-1016.81579281484
 20
-43.75932070643739
 30
0.0
 11
-1016.81579281484
 21
-33.75932070643285
 31
0.0
  0
LINE
  5
954
330
950
100
AcDbEntity
  8
Visible (ISO)
100
AcDbLine
 10
-1021.815792814841
 20
-33.75932070643285
 30
0.0
 11
-1021.815792814841
 21
-43.75932070643739
 31
0.0
  0
LINE
  5
955
330
950
100
AcDbEntity
  8
Visible (ISO)
100
AcDbLine
 10
-1021.815792814841
 20
-33.75932070643285
 30
0.0
 11
-1018.815792814841
 21
-33.75932070643285
 31
0.0
  0
LINE
  5
956
330
950
100
AcDbEntity
  8
Visible (ISO)
100
AcDbLine
 10
-921.8157928148407
 20
-43.75932070643739
 30
0.0
 11
-921.8157928148407
 21
-33.75932070643285
 31
0.0
  0
LINE
  5
957
330
950
100
AcDbEntity
  8
Visible (ISO)
100
AcDbLine
 10
-926.8157928148408
 20
-33.75932070643285
 30
0.0
 11
-926.8157928148408
 21
-43.75932070643739
 31
0.0
  0
LINE
  5
958
330
950
100
AcDbEntity
  8
Visible (ISO)
100
AcDbLine
 10
-924.8157928148406
 20
-33.75932070643285
 30
0.0
 11
-921.8157928148407
 21
-33.75932070643285
 31
0.0
  0
LINE
  5
959
330
950
100
AcDbEntity
  8
Visible (ISO)
100
AcDbLine
 10
-926.8157928148403
 20
76.24067929356215
 30
0.0
 11
-926.8157928148403
 21
66.24067929356716
 31
0.0
  0
LINE
  5
95A
330
950
100
AcDbEntity
  8
Visible (ISO)
100
AcDbLine
 10
-921.8157928148407
 20
66.24067929356716
 30
0.0
 11
-921.8157928148407
 21
76.24067929356261
 31
0.0
  0
LINE
  5
95B
330
950
100
AcDbEntity
  8
Visible (ISO)
100
AcDbLine
 10
-921.8157928148407
 20
66.24067929356716
 30
0.0
 11
-924.8157928148406
 21
66.24067929356716
 31
0.0
  0
LINE
  5
95C
330
950
100
AcDbEntity
  8
Visible (ISO)
100
AcDbLine
 10
-1021.81579281484
 20
76.24067929356261
 30
0.0
 11
-1021.81579281484
 21
66.24067929356716
 31
0.0
  0
LINE
  5
95D
330
950
100
AcDbEntity
  8
Visible (ISO)
100
AcDbLine
 10
-1016.81579281484
 20
66.24067929356716
 30
0.0
 11
-1016.81579281484
 21
76.24067929356261
 31
0.0
  0
LINE
  5
95E
330
950
100
AcDbEntity
  8
Visible (ISO)
100
AcDbLine
 10
-1018.815792814841
 20
66.24067929356716
 30
0.0
 11
-1021.815792814841
 21
66.24067929356716
 31
0.0
  0
LINE
  5
95F
330
950
100
AcDbEntity
  8
Visible (ISO)
100
AcDbLine
 10
838.8686992837717
 20
-43.75932070643694
 30
0.0
 11
838.8686992837717
 21
-33.75932070643285
 31
0.0
  0
LINE
  5
960
330
950
100
AcDbEntity
  8
Visible (ISO)
100
AcDbLine
 10
833.8686992837716
 20
-33.75932070643285
 30
0.0
 11
833.8686992837716
 21
-43.75932070643694
 31
0.0
  0
LINE
  5
961
330
950
100
AcDbEntity
  8
Visible (ISO)
100
AcDbLine
 10
833.8686992837716
 20
-33.75932070643285
 30
0.0
 11
836.8686992837718
 21
-33.75932070643285
 31
0.0
  0
LINE
  5
962
330
950
100
AcDbEntity
  8
Visible (ISO)
100
AcDbLine
 10
933.8686992837718
 20
-43.75932070643694
 30
0.0
 11
933.8686992837718
 21
-33.75932070643285
 31
0.0
  0
LINE
  5
963
330
950
100
AcDbEntity
  8
Visible (ISO)
100
AcDbLine
 10
928.8686992837718
 20
-33.75932070643285
 30
0.0
 11
928.8686992837718
 21
-43.75932070643694
 31
0.0
  0
LINE
  5
964
330
950
100
AcDbEntity
  8
Visible (ISO)
100
AcDbLine
 10
930.8686992837717
 20
-33.75932070643285
 30
0.0
 11
933.8686992837718
 21
-33.75932070643285
 31
0.0
  0
LINE
  5
965
330
950
100
AcDbEntity
  8
Visible (ISO)
100
AcDbLine
 10
833.8686992837716
 20
76.24067929356261
 30
0.0
 11
833.8686992837716
 21
66.24067929356716
 31
0.0
  0
LINE
  5
966
330
950
100
AcDbEntity
  8
Visible (ISO)
100
AcDbLine
 10
838.8686992837717
 20
66.24067929356716
 30
0.0
 11
838.8686992837717
 21
76.24067929356261
 31
0.0
  0
LINE
  5
967
330
950
100
AcDbEntity
  8
Visible (ISO)
100
AcDbLine
 10
836.8686992837718
 20
66.24067929356716
 30
0.0
 11
833.8686992837716
 21
66.24067929356716
 31
0.0
  0
LINE
  5
968
330
950
100
AcDbEntity
  8
Visible (ISO)
100
AcDbLine
 10
928.8686992837718
 20
76.24067929356261
 30
0.0
 11
928.8686992837718
 21
66.24067929356716
 31
0.0
  0
LINE
  5
969
330
950
100
AcDbEntity
  8
Visible (ISO)
100
AcDbLine
 10
933.8686992837718
 20
66.24067929356716
 30
0.0
 11
933.8686992837718
 21
76.24067929356261
 31
0.0
  0
LINE
  5
96A
330
950
100
AcDbEntity
  8
Visible (ISO)
100
AcDbLine
 10
933.8686992837718
 20
66.24067929356716
 30
0.0
 11
930.8686992837717
 21
66.24067929356716
 31
0.0
  0
ELLIPSE
  5
96B
330
950
100
AcDbEntity
  8
Visible (ISO)
100
AcDbEllipse
 10
-969.9386401598594
 20
-159.7593207060376
 30
0.0
 11
15.14831681243242
 21
-15.14831681245048
 31
0.0
210
0.0
220
0.0
230
1.0
 40
0.7570865843917525
 41
0.6480211168369312
 42
0.9227752099593855
  0
ELLIPSE
  5
96C
330
950
100
AcDbEntity
  8
Visible (ISO)
100
AcDbEllipse
 10
-969.9386401598594
 20
-159.7593207060376
 30
0.0
 11
-15.14831681244615
 21
-15.14831681242994
 31
0.0
210
0.0
220
0.0
230
1.0
 40
0.7570865843916259
 41
2.218817443631631
 42
2.493571536754112
  0
ELLIPSE
  5
96D
330
950
100
AcDbEntity
  8
Visible (ISO)
100
AcDbEllipse
 10
883.8686992837715
 20
-159.75932070623
 30
0.0
 11
-15.14831681243362
 21
15.14831681244927
 31
0.0
210
0.0
220
0.0
230
1.0
 40
0.7570865843917524
 41
4.064367863549037
 42
5.635164190343949
  0
ELLIPSE
  5
96E
330
950
100
AcDbEntity
  8
Visible (ISO)
100
AcDbEllipse
 10
883.8686992837715
 20
-159.75932070623
 30
0.0
 11
15.14831681244498
 21
15.14831681243111
 31
0.0
210
0.0
220
0.0
230
1.0
 40
0.757086584391626
 41
3.78961377042636
 42
5.360410097221302
  0
ELLIPSE
  5
96F
330
950
100
AcDbEntity
  8
Visible Narrow (ISO)
100
AcDbEllipse
 10
794.110089738309
 20
-159.7593207061354
 30
0.0
 11
-0.0000000000001578
 21
-19.00000000000002
 31
0.0
210
0.0
220
0.0
230
1.0
 40
0.9624919437879045
 41
0.0
 42
3.141592653589619
  0
ELLIPSE
  5
970
330
950
100
AcDbEntity
  8
Visible Narrow (ISO)
100
AcDbEllipse
 10
688.9391254830163
 20
-159.7593207061245
 30
0.0
 11
0.0000000000001222
 21
-19.00000000000002
 31
0.0
210
0.0
220
0.0
230
1.0
 40
0.584139883495813
 41
3.141592653591197
 42
6.283185307180991
  0
ELLIPSE
  5
971
330
950
100
AcDbEntity
  8
Visible Narrow (ISO)
100
AcDbEllipse
 10
151.8946033627123
 20
-159.7593207062391
 30
0.0
 11
-0.0000000000000556
 21
-19.00000000000002
 31
0.0
210
0.0
220
0.0
230
1.0
 40
0.5841398834958122
 41
3.141592653591231
 42
6.283185307181024
  0
ELLIPSE
  5
972
330
950
100
AcDbEntity
  8
Visible Narrow (ISO)
100
AcDbEllipse
 10
46.72363910741887
 20
-159.7593207062286
 30
0.0
 11
-0.0000000000001695
 21
-19.00000000000002
 31
0.0
210
0.0
220
0.0
230
1.0
 40
0.9624919437879036
 41
0.0
 42
3.141592653589638
  0
ELLIPSE
  5
973
330
950
100
AcDbEntity
  8
Visible Narrow (ISO)
100
AcDbEllipse
 10
-132.7935799835063
 20
-159.7593207060395
 30
0.0
 11
-0.0000000000000086
 21
-19.00000000000002
 31
0.0
210
0.0
220
0.0
230
1.0
 40
0.9624919437879039
 41
0.0
 42
3.141592653589629
  0
ELLIPSE
  5
974
330
950
100
AcDbEntity
  8
Visible Narrow (ISO)
100
AcDbEllipse
 10
-237.9645442387994
 20
-159.7593207060286
 30
0.0
 11
0.0000000000000384
 21
-19.00000000000001
 31
0.0
210
0.0
220
0.0
230
1.0
 40
0.5841398834958196
 41
3.141592653591192
 42
6.283185307180986
  0
ELLIPSE
  5
975
330
950
100
AcDbEntity
  8
Visible Narrow (ISO)
100
AcDbEllipse
 10
-775.0090663591036
 20
-159.7593207061431
 30
0.0
 11
0.0000000000001659
 21
-19.00000000000001
 31
0.0
210
0.0
220
0.0
230
1.0
 40
0.5841398834958193
 41
3.141592653591134
 42
6.283185307180927
  0
ELLIPSE
  5
976
330
950
100
AcDbEntity
  8
Visible Narrow (ISO)
100
AcDbEllipse
 10
-880.1800306143968
 20
-159.7593207061322
 30
0.0
 11
-0.000000000000079
 21
-19.00000000000001
 31
0.0
210
0.0
220
0.0
230
1.0
 40
0.9624919437879022
 41
0.0
 42
3.141592653589633
  0
LINE
  5
977
330
950
100
AcDbEntity
  8
Visible (ISO)
100
AcDbLine
 10
794.110089738309
 20
-140.7593207061354
 30
0.0
 11
878.7138043100828
 21
-140.7593207062245
 31
0.0
  0
LINE
  5
978
330
950
100
AcDbEntity
  8
Visible (ISO)
100
AcDbLine
 10
794.110089738309
 20
-178.7593207061354
 30
0.0
 11
878.7138043100828
 21
-178.7593207062245
 31
0.0
  0
LINE
  5
979
330
950
100
AcDbEntity
  8
Visible (ISO)
100
AcDbLine
 10
794.1100897383092
 20
-140.7593207061359
 30
0.0
 11
688.9391254830165
 21
-140.7593207061245
 31
0.0
  0
LINE
  5
97A
330
950
100
AcDbEntity
  8
Visible (ISO)
100
AcDbLine
 10
688.9391254830165
 20
-178.7593207061245
 30
0.0
 11
794.1100897383094
 21
-178.7593207061354
 31
0.0
  0
LINE
  5
97B
330
950
100
AcDbEntity
  8
Visible (ISO)
100
AcDbLine
 10
151.8946033627121
 20
-140.7593207062391
 30
0.0
 11
688.9391254830161
 21
-140.7593207061245
 31
0.0
  0
LINE
  5
97C
330
950
100
AcDbEntity
  8
Visible (ISO)
100
AcDbLine
 10
151.8946033627121
 20
-178.7593207062396
 30
0.0
 11
688.9391254830161
 21
-178.7593207061245
 31
0.0
  0
LINE
  5
97D
330
950
100
AcDbEntity
  8
Visible (ISO)
100
AcDbLine
 10
46.7236391074191
 20
-178.7593207062282
 30
0.0
 11
108.0605510003383
 21
-178.7593207062432
 31
0.0
  0
LINE
  5
97E
330
950
100
AcDbEntity
  8
Visible (ISO)
100
AcDbLine
 10
120.0605510003379
 20
-178.7593207062427
 30
0.0
 11
151.8946033627123
 21
-178.7593207062396
 31
0.0
  0
LINE
  5
97F
330
950
100
AcDbEntity
  8
Visible (ISO)
100
AcDbLine
 10
151.8946033627123
 20
-140.7593207062391
 30
0.0
 11
120.0605510003381
 21
-140.7593207062427
 31
0.0
  0
LINE
  5
980
330
950
100
AcDbEntity
  8
Visible (ISO)
100
AcDbLine
 10
108.0605510003381
 20
-140.7593207062432
 30
0.0
 11
46.72363910741887
 21
-140.7593207062286
 31
0.0
  0
LINE
  5
981
330
950
100
AcDbEntity
  8
Visible (ISO)
100
AcDbLine
 10
-132.7935799835063
 20
-140.7593207060395
 30
0.0
 11
46.72363910741887
 21
-140.7593207062286
 31
0.0
  0
LINE
  5
982
330
950
100
AcDbEntity
  8
Visible (ISO)
100
AcDbLine
 10
-132.7935799835063
 20
-178.7593207060394
 30
0.0
 11
46.72363910741887
 21
-178.7593207062282
 31
0.0
  0
LINE
  5
983
330
950
100
AcDbEntity
  8
Visible (ISO)
100
AcDbLine
 10
-132.7935799835061
 20
-140.7593207060395
 30
0.0
 11
-237.9645442387989
 21
-140.7593207060285
 31
0.0
  0
LINE
  5
984
330
950
100
AcDbEntity
  8
Visible (ISO)
100
AcDbLine
 10
-237.9645442387994
 20
-178.7593207060286
 30
0.0
 11
-132.7935799835063
 21
-178.7593207060394
 31
0.0
  0
LINE
  5
985
330
950
100
AcDbEntity
  8
Visible (ISO)
100
AcDbLine
 10
-775.0090663591036
 20
-140.7593207061431
 30
0.0
 11
-237.9645442387989
 21
-140.7593207060285
 31
0.0
  0
LINE
  5
986
330
950
100
AcDbEntity
  8
Visible (ISO)
100
AcDbLine
 10
-775.0090663591036
 20
-178.7593207061432
 30
0.0
 11
-237.9645442387989
 21
-178.7593207060286
 31
0.0
  0
LINE
  5
987
330
950
100
AcDbEntity
  8
Visible (ISO)
100
AcDbLine
 10
-880.1800306143968
 20
-178.7593207061322
 30
0.0
 11
-775.0090663591036
 21
-178.7593207061432
 31
0.0
  0
LINE
  5
988
330
950
100
AcDbEntity
  8
Visible (ISO)
100
AcDbLine
 10
-775.0090663591036
 20
-140.7593207061431
 30
0.0
 11
-880.1800306143968
 21
-140.7593207061322
 31
0.0
  0
LINE
  5
989
330
950
100
AcDbEntity
  8
Visible (ISO)
100
AcDbLine
 10
-950.9386401598613
 20
-140.7593207060581
 30
0.0
 11
-880.1800306143968
 21
-140.7593207061322
 31
0.0
  0
LINE
  5
98A
330
950
100
AcDbEntity
  8
Visible (ISO)
100
AcDbLine
 10
-950.9386401598613
 20
-178.7593207060577
 30
0.0
 11
-880.1800306143968
 21
-178.7593207061322
 31
0.0
  0
LINE
  5
98B
330
950
100
AcDbEntity
  8
Visible (ISO)
100
AcDbLine
 10
-950.938640159859
 20
-178.7593207060381
 30
0.0
 11
-988.9386401598594
 21
-178.7593207060381
 31
0.0
  0
LINE
  5
98C
330
950
100
AcDbEntity
  8
Visible (ISO)
100
AcDbLine
 10
-950.938640159859
 20
-33.75932070603813
 30
0.0
 11
-950.938640159859
 21
-154.6044257323433
 31
0.0
  0
LINE
  5
98D
330
950
100
AcDbEntity
  8
Visible (ISO)
100
AcDbLine
 10
-950.938640159859
 20
-164.9142156797329
 30
0.0
 11
-950.938640159859
 21
-178.7593207060381
 31
0.0
  0
LINE
  5
98E
330
950
100
AcDbEntity
  8
Visible (ISO)
100
AcDbLine
 10
-988.938640159859
 20
-33.75932070603813
 30
0.0
 11
-988.938640159859
 21
-178.7593207060381
 31
0.0
  0
LINE
  5
98F
330
950
100
AcDbEntity
  8
Visible (ISO)
100
AcDbLine
 10
902.8686992837718
 20
-178.7593207062305
 30
0.0
 11
878.7138043100794
 21
-178.759320706225
 31
0.0
  0
LINE
  5
990
330
950
100
AcDbEntity
  8
Visible (ISO)
100
AcDbLine
 10
902.8686992837721
 20
-33.75932070623003
 30
0.0
 11
902.8686992837721
 21
-178.7593207062305
 31
0.0
  0
LINE
  5
991
330
950
100
AcDbEntity
  8
Visible (ISO)
100
AcDbLine
 10
864.8686992837721
 20
-33.75932070623003
 30
0.0
 11
864.8686992837721
 21
-140.75932070623
 31
0.0
  0
LINE
  5
992
330
950
100
AcDbEntity
  8
Visible (ISO)
100
AcDbLine
 10
864.8686992837712
 20
211.2406792937695
 30
0.0
 11
902.8686992837712
 21
211.2406792937695
 31
0.0
  0
LINE
  5
993
330
950
100
AcDbEntity
  8
Visible (ISO)
100
AcDbLine
 10
864.868699283771
 20
66.24067929376952
 30
0.0
 11
864.868699283771
 21
186.8797428059879
 31
0.0
  0
LINE
  5
994
330
950
100
AcDbEntity
  8
Visible (ISO)
100
AcDbLine
 10
864.868699283771
 20
197.6016157815511
 30
0.0
 11
864.868699283771
 21
211.2406792937695
 31
0.0
  0
LINE
  5
995
330
950
100
AcDbEntity
  8
Visible (ISO)
100
AcDbLine
 10
902.8686992837712
 20
66.24067929376952
 30
0.0
 11
902.8686992837712
 21
211.2406792937695
 31
0.0
  0
LINE
  5
996
330
950
100
AcDbEntity
  8
Visible (ISO)
100
AcDbLine
 10
-990.8157928148412
 20
211.2406792939628
 30
0.0
 11
-966.4548563270578
 21
211.2406792939682
 31
0.0
  0
LINE
  5
997
330
950
100
AcDbEntity
  8
Visible (ISO)
100
AcDbLine
 10
-990.8157928148412
 20
66.24067929396279
 30
0.0
 11
-990.8157928148407
 21
211.2406792939628
 31
0.0
  0
LINE
  5
998
330
950
100
AcDbEntity
  8
Visible (ISO)
100
AcDbLine
 10
-952.8157928148411
 20
66.24067929396279
 30
0.0
 11
-952.8157928148411
 21
173.2406792939632
 31
0.0
  0
ELLIPSE
  5
999
330
950
100
AcDbEntity
  8
Visible (ISO)
100
AcDbEllipse
 10
-971.8157928148412
 20
192.2406792939628
 30
0.0
 11
15.2127872736631
 21
15.21278727368081
 31
0.0
210
0.0
220
0.0
230
1.0
 40
0.7482475200503064
 41
0.642378577833588
 42
2.213174904628532
  0
ELLIPSE
  5
99A
330
950
100
AcDbEntity
  8
Visible (ISO)
100
AcDbEllipse
 10
-971.8157928148412
 20
192.2406792939628
 30
0.0
 11
-15.21278727367622
 21
15.21278727366092
 31
0.0
210
0.0
220
0.0
230
1.0
 40
0.7482475200501757
 41
0.9284177489600867
 42
2.499214075754974
  0
ELLIPSE
  5
99B
330
950
100
AcDbEntity
  8
Visible (ISO)
100
AcDbEllipse
 10
883.8686992837713
 20
192.2406792937695
 30
0.0
 11
-15.21278727366427
 21
-15.21278727367964
 31
0.0
210
0.0
220
0.0
230
1.0
 40
0.7482475200503065
 41
5.354767558218448
 42
5.640806729344769
  0
ELLIPSE
  5
99C
330
950
100
AcDbEntity
  8
Visible (ISO)
100
AcDbEllipse
 10
883.8686992837713
 20
192.2406792937695
 30
0.0
 11
15.21278727367505
 21
-15.21278727366211
 31
0.0
210
0.0
220
0.0
230
1.0
 40
0.748247520050176
 41
3.783971231423738
 42
4.070010402550021
  0
ELLIPSE
  5
99D
330
950
100
AcDbEntity
  8
Visible Narrow (ISO)
100
AcDbEllipse
 10
832.5165708218445
 20
192.2406792937177
 30
0.0
 11
0.0000000000002663
 21
-19.0
 31
0.0
210
0.0
220
0.0
230
1.0
 40
0.9593689638466042
 41
3.141592653589965
 42
6.283185307179758
  0
ELLIPSE
  5
99E
330
950
100
AcDbEntity
  8
Visible Narrow (ISO)
100
AcDbEllipse
 10
748.09297174505
 20
192.240679293704
 30
0.0
 11
0.0000000000000738
 21
-19.0
 31
0.0
210
0.0
220
0.0
230
1.0
 40
0.2821545519886086
 41
0.0
 42
3.141592653582289
  0
ELLIPSE
  5
99F
330
950
100
AcDbEntity
  8
Visible Narrow (ISO)
100
AcDbEllipse
 10
446.4107161138468
 20
192.2406792939159
 30
0.0
 11
0.0000000000000237
 21
-19.0
 31
0.0
210
0.0
220
0.0
230
1.0
 40
0.2821545519886086
 41
0.0
 42
3.141592653582506
  0
ELLIPSE
  5
9A0
330
950
100
AcDbEntity
  8
Visible Narrow (ISO)
100
AcDbEllipse
 10
105.9099083726166
 20
192.240679293946
 30
0.0
 11
0.0000000000000638
 21
-19.0
 31
0.0
210
0.0
220
0.0
230
1.0
 40
0.2821545519886086
 41
0.0
 42
3.141592653582312
  0
ELLIPSE
  5
9A1
330
950
100
AcDbEntity
  8
Visible Narrow (ISO)
100
AcDbEllipse
 10
21.48630929582214
 20
192.2406792939323
 30
0.0
 11
-0.0000000000000745
 21
-19.0
 31
0.0
210
0.0
220
0.0
230
1.0
 40
0.9593689638466042
 41
3.141592653589985
 42
6.283185307179778
  0
ELLIPSE
  5
9A2
330
950
100
AcDbEntity
  8
Visible Narrow (ISO)
100
AcDbEllipse
 10
-109.4334028268924
 20
192.2406792938
 30
0.0
 11
-0.0000000000000745
 21
-19.0
 31
0.0
210
0.0
220
0.0
230
1.0
 40
0.9593689638466042
 41
3.141592653589985
 42
6.283185307179778
  0
ELLIPSE
  5
9A3
330
950
100
AcDbEntity
  8
Visible Narrow (ISO)
100
AcDbEllipse
 10
-193.857001903687
 20
192.2406792937868
 30
0.0
 11
0.0000000000000237
 21
-19.0
 31
0.0
210
0.0
220
0.0
230
1.0
 40
0.2821545519886086
 41
0.0
 42
3.141592653582506
  0
ELLIPSE
  5
9A4
330
950
100
AcDbEntity
  8
Visible Narrow (ISO)
100
AcDbEllipse
 10
-495.5392575348896
 20
192.2406792939982
 30
0.0
 11
-0.0000000000000064
 21
-19.0
 31
0.0
210
0.0
220
0.0
230
1.0
 40
0.2821545519886086
 41
0.0
 42
3.141592653582643
  0
ELLIPSE
  5
9A5
330
950
100
AcDbEntity
  8
Visible Narrow (ISO)
100
AcDbEllipse
 10
-836.0400652761196
 20
192.2406792940283
 30
0.0
 11
0.0000000000000137
 21
-19.0
 31
0.0
210
0.0
220
0.0
230
1.0
 40
0.2821545519886086
 41
0.0
 42
3.141592653582529
  0
ELLIPSE
  5
9A6
330
950
100
AcDbEntity
  8
Visible Narrow (ISO)
100
AcDbEllipse
 10
-920.4636643529143
 20
192.2406792940146
 30
0.0
 11
-0.0000000000001427
 21
-19.0
 31
0.0
210
0.0
220
0.0
230
1.0
 40
0.9593689638466042
 41
3.141592653589989
 42
6.283185307179783
  0
LINE
  5
9A7
330
950
100
AcDbEntity
  8
Visible (ISO)
100
AcDbLine
 10
832.5165708218447
 20
211.2406792937177
 30
0.0
 11
864.8686992837712
 21
211.2406792937504
 31
0.0
  0
LINE
  5
9A8
330
950
100
AcDbEntity
  8
Visible (ISO)
100
AcDbLine
 10
832.5165708218447
 20
173.2406792937181
 30
0.0
 11
864.8686992837708
 21
173.2406792937504
 31
0.0
  0
LINE
  5
9A9
330
950
100
AcDbEntity
  8
Visible (ISO)
100
AcDbLine
 10
748.0929717450504
 20
173.2406792937045
 30
0.0
 11
832.5165708218445
 21
173.2406792937181
 31
0.0
  0
LINE
  5
9AA
330
950
100
AcDbEntity
  8
Visible (ISO)
100
AcDbLine
 10
832.5165708218445
 20
211.2406792937177
 30
0.0
 11
748.0929717450505
 21
211.2406792937045
 31
0.0
  0
LINE
  5
9AB
330
950
100
AcDbEntity
  8
Visible (ISO)
100
AcDbLine
 10
495.2242065786217
 20
211.2406792937263
 30
0.0
 11
748.0929717450505
 21
211.240679293704
 31
0.0
  0
LINE
  5
9AC
330
950
100
AcDbEntity
  8
Visible (ISO)
100
AcDbLine
 10
495.2242065786217
 20
173.2406792937263
 30
0.0
 11
748.0929717450505
 21
173.240679293704
 31
0.0
  0
ARC
  5
9AD
330
950
100
AcDbEntity
  8
Visible (ISO)
100
AcDbCircle
 10
495.2242065786217
 20
192.2406792938968
 30
0.0
 40
19.0
100
AcDbArc
 50
270.0
 51
90.0
  0
LINE
  5
9AE
330
950
100
AcDbEntity
  8
Visible (ISO)
100
AcDbLine
 10
495.2242065786217
 20
211.2406792938964
 30
0.0
 11
446.4107161138468
 21
211.240679293916
 31
0.0
  0
LINE
  5
9AF
330
950
100
AcDbEntity
  8
Visible (ISO)
100
AcDbLine
 10
446.4107161138468
 20
173.2406792939159
 30
0.0
 11
495.2242065786217
 21
173.2406792938968
 31
0.0
  0
LINE
  5
9B0
330
950
100
AcDbEntity
  8
Visible (ISO)
100
AcDbLine
 10
105.9099083726166
 20
211.2406792939459
 30
0.0
 11
446.4107161138468
 21
211.240679293916
 31
0.0
  0
LINE
  5
9B1
330
950
100
AcDbEntity
  8
Visible (ISO)
100
AcDbLine
 10
105.9099083726166
 20
173.2406792939455
 30
0.0
 11
446.4107161138468
 21
173.2406792939159
 31
0.0
  0
LINE
  5
9B2
330
950
100
AcDbEntity
  8
Visible (ISO)
100
AcDbLine
 10
105.9099083726169
 20
211.2406792939455
 30
0.0
 11
21.48630929582214
 21
211.2406792939319
 31
0.0
  0
LINE
  5
9B3
330
950
100
AcDbEntity
  8
Visible (ISO)
100
AcDbLine
 10
21.48630929582214
 20
173.2406792939323
 30
0.0
 11
105.9099083726169
 21
173.2406792939455
 31
0.0
  0
LINE
  5
9B4
330
950
100
AcDbEntity
  8
Visible (ISO)
100
AcDbLine
 10
-109.4334028268924
 20
211.2406792938005
 30
0.0
 11
21.48630929582214
 21
211.2406792939319
 31
0.0
  0
LINE
  5
9B5
330
950
100
AcDbEntity
  8
Visible (ISO)
100
AcDbLine
 10
-109.4334028268924
 20
173.2406792938004
 30
0.0
 11
21.48630929582214
 21
173.2406792939323
 31
0.0
  0
LINE
  5
9B6
330
950
100
AcDbEntity
  8
Visible (ISO)
100
AcDbLine
 10
-193.857001903687
 20
173.2406792937868
 30
0.0
 11
-171.3293825735509
 21
173.2406792937863
 31
0.0
  0
LINE
  5
9B7
330
950
100
AcDbEntity
  8
Visible (ISO)
100
AcDbLine
 10
-159.3293825735511
 20
173.2406792937863
 30
0.0
 11
-109.4334028268924
 21
173.2406792938004
 31
0.0
  0
LINE
  5
9B8
330
950
100
AcDbEntity
  8
Visible (ISO)
100
AcDbLine
 10
-109.4334028268924
 20
211.2406792938005
 30
0.0
 11
-159.3293825735511
 21
211.2406792937863
 31
0.0
  0
LINE
  5
9B9
330
950
100
AcDbEntity
  8
Visible (ISO)
100
AcDbLine
 10
-171.3293825735509
 20
211.2406792937859
 30
0.0
 11
-193.8570019036867
 21
211.2406792937863
 31
0.0
  0
LINE
  5
9BA
330
950
100
AcDbEntity
  8
Visible (ISO)
100
AcDbLine
 10
-446.7257670701147
 20
211.2406792938086
 30
0.0
 11
-193.8570019036867
 21
211.2406792937868
 31
0.0
  0
LINE
  5
9BB
330
950
100
AcDbEntity
  8
Visible (ISO)
100
AcDbLine
 10
-446.7257670701147
 20
173.2406792938091
 30
0.0
 11
-193.8570019036867
 21
173.2406792937863
 31
0.0
  0
ARC
  5
9BC
330
950
100
AcDbEntity
  8
Visible (ISO)
100
AcDbCircle
 10
-446.7257670701147
 20
192.2406792939791
 30
0.0
 40
19.0
100
AcDbArc
 50
270.0
 51
90.0
  0
LINE
  5
9BD
330
950
100
AcDbEntity
  8
Visible (ISO)
100
AcDbLine
 10
-446.7257670701147
 20
211.2406792939792
 30
0.0
 11
-495.5392575348896
 21
211.2406792939983
 31
0.0
  0
LINE
  5
9BE
330
950
100
AcDbEntity
  8
Visible (ISO)
100
AcDbLine
 10
-495.5392575348896
 20
173.2406792939982
 30
0.0
 11
-446.7257670701147
 21
173.2406792939791
 31
0.0
  0
LINE
  5
9BF
330
950
100
AcDbEntity
  8
Visible (ISO)
100
AcDbLine
 10
-836.0400652761196
 20
211.2406792940283
 30
0.0
 11
-495.5392575348896
 21
211.2406792939987
 31
0.0
  0
LINE
  5
9C0
330
950
100
AcDbEntity
  8
Visible (ISO)
100
AcDbLine
 10
-836.0400652761196
 20
173.2406792940282
 30
0.0
 11
-495.5392575348896
 21
173.2406792939987
 31
0.0
  0
LINE
  5
9C1
330
950
100
AcDbEntity
  8
Visible (ISO)
100
AcDbLine
 10
-836.0400652761196
 20
211.2406792940278
 30
0.0
 11
-920.4636643529143
 21
211.2406792940146
 31
0.0
  0
LINE
  5
9C2
330
950
100
AcDbEntity
  8
Visible (ISO)
100
AcDbLine
 10
-920.4636643529143
 20
173.2406792940146
 30
0.0
 11
-836.0400652761196
 21
173.2406792940282
 31
0.0
  0
LINE
  5
9C3
330
950
100
AcDbEntity
  8
Visible (ISO)
100
AcDbLine
 10
-966.4548563270573
 20
211.2406792939682
 30
0.0
 11
-920.4636643529147
 21
211.2406792940146
 31
0.0
  0
LINE
  5
9C4
330
950
100
AcDbEntity
  8
Visible (ISO)
100
AcDbLine
 10
-966.4548563270573
 20
173.2406792939682
 30
0.0
 11
-920.4636643529147
 21
173.2406792940146
 31
0.0
  0
LINE
  5
9C5
330
950
100
AcDbEntity
  8
Visible Narrow (ISO)
100
AcDbLine
 10
836.8686992837716
 20
66.24067929379453
 30
0.0
 11
836.8686992837716
 21
63.24067929379544
 31
0.0
  0
ARC
  5
9C6
330
950
100
AcDbEntity
  8
Visible (ISO)
100
AcDbCircle
 10
836.8686992837716
 20
63.24067929379452
 30
0.0
 40
3.000000000000007
100
AcDbArc
 50
90.0
 51
180.0
  0
LINE
  5
9C7
330
950
100
AcDbEntity
  8
Visible Narrow (ISO)
100
AcDbLine
 10
836.8686992837716
 20
63.24067929379544
 30
0.0
 11
833.8686992837716
 21
63.24067929379452
 31
0.0
  0
LINE
  5
9C8
330
950
100
AcDbEntity
  8
Visible Narrow (ISO)
100
AcDbLine
 10
933.8686992837716
 20
63.24067929379452
 30
0.0
 11
930.8686992837717
 21
63.24067929379544
 31
0.0
  0
ARC
  5
9C9
330
950
100
AcDbEntity
  8
Visible (ISO)
100
AcDbCircle
 10
930.8686992837717
 20
63.24067929379452
 30
0.0
 40
3.000000000000007
100
AcDbArc
 50
0.0
 51
90.0
  0
LINE
  5
9CA
330
950
100
AcDbEntity
  8
Visible Narrow (ISO)
100
AcDbLine
 10
930.8686992837717
 20
63.24067929379544
 30
0.0
 11
930.8686992837717
 21
66.24067929379453
 31
0.0
  0
LINE
  5
9CB
330
950
100
AcDbEntity
  8
Visible (ISO)
100
AcDbLine
 10
930.8686992837715
 20
66.24067929379453
 30
0.0
 11
836.8686992837718
 21
66.24067929379453
 31
0.0
  0
LINE
  5
9CC
330
950
100
AcDbEntity
  8
Visible Narrow (ISO)
100
AcDbLine
 10
836.8686992837718
 20
63.24067929379544
 30
0.0
 11
930.8686992837715
 21
63.24067929379544
 31
0.0
  0
LINE
  5
9CD
330
950
100
AcDbEntity
  8
Visible Narrow (ISO)
100
AcDbLine
 10
833.8686992837716
 20
-30.75932070620547
 30
0.0
 11
836.8686992837716
 21
-30.75932070620456
 31
0.0
  0
ARC
  5
9CE
330
950
100
AcDbEntity
  8
Visible (ISO)
100
AcDbCircle
 10
836.8686992837716
 20
-30.75932070620547
 30
0.0
 40
2.999999999999989
100
AcDbArc
 50
180.0
 51
270.0
  0
LINE
  5
9CF
330
950
100
AcDbEntity
  8
Visible Narrow (ISO)
100
AcDbLine
 10
836.8686992837716
 20
-30.75932070620502
 30
0.0
 11
836.8686992837716
 21
-33.75932070620547
 31
0.0
  0
LINE
  5
9D0
330
950
100
AcDbEntity
  8
Visible Narrow (ISO)
100
AcDbLine
 10
930.8686992837717
 20
-33.75932070620547
 30
0.0
 11
930.8686992837717
 21
-30.75932070620502
 31
0.0
  0
ARC
  5
9D1
330
950
100
AcDbEntity
  8
Visible (ISO)
100
AcDbCircle
 10
930.8686992837717
 20
-30.75932070620547
 30
0.0
 40
3.000000000000007
100
AcDbArc
 50
270.0
 51
0.0
  0
LINE
  5
9D2
330
950
100
AcDbEntity
  8
Visible Narrow (ISO)
100
AcDbLine
 10
930.8686992837717
 20
-30.75932070620456
 30
0.0
 11
933.8686992837716
 21
-30.75932070620547
 31
0.0
  0
LINE
  5
9D3
330
950
100
AcDbEntity
  8
Visible (ISO)
100
AcDbLine
 10
933.8686992837716
 20
-30.75932070620547
 30
0.0
 11
933.8686992837716
 21
63.24067929379452
 31
0.0
  0
LINE
  5
9D4
330
950
100
AcDbEntity
  8
Visible Narrow (ISO)
100
AcDbLine
 10
930.8686992837715
 20
63.24067929379544
 30
0.0
 11
930.8686992837715
 21
-30.75932070620456
 31
0.0
  0
LINE
  5
9D5
330
950
100
AcDbEntity
  8
Visible (ISO)
100
AcDbLine
 10
836.8686992837718
 20
-33.75932070620547
 30
0.0
 11
930.8686992837715
 21
-33.75932070620547
 31
0.0
  0
LINE
  5
9D6
330
950
100
AcDbEntity
  8
Visible Narrow (ISO)
100
AcDbLine
 10
930.8686992837715
 20
-30.75932070620456
 30
0.0
 11
836.8686992837718
 21
-30.75932070620456
 31
0.0
  0
LINE
  5
9D7
330
950
100
AcDbEntity
  8
Visible (ISO)
100
AcDbLine
 10
833.8686992837716
 20
63.24067929379452
 30
0.0
 11
833.8686992837716
 21
-30.75932070620547
 31
0.0
  0
LINE
  5
9D8
330
950
100
AcDbEntity
  8
Visible Narrow (ISO)
100
AcDbLine
 10
836.8686992837718
 20
-30.75932070620456
 30
0.0
 11
836.8686992837718
 21
63.24067929379544
 31
0.0
  0
LINE
  5
9D9
330
950
100
AcDbEntity
  8
Visible Narrow (ISO)
100
AcDbLine
 10
-1018.815792814841
 20
66.24067929398734
 30
0.0
 11
-1018.815792814841
 21
63.24067929398779
 31
0.0
  0
ARC
  5
9DA
330
950
100
AcDbEntity
  8
Visible (ISO)
100
AcDbCircle
 10
-1018.815792814841
 20
63.24067929398734
 30
0.0
 40
3.000000000000007
100
AcDbArc
 50
90.0
 51
180.0
  0
LINE
  5
9DB
330
950
100
AcDbEntity
  8
Visible Narrow (ISO)
100
AcDbLine
 10
-1018.815792814841
 20
63.24067929398825
 30
0.0
 11
-1021.815792814841
 21
63.24067929398734
 31
0.0
  0
LINE
  5
9DC
330
950
100
AcDbEntity
  8
Visible Narrow (ISO)
100
AcDbLine
 10
-921.8157928148412
 20
63.24067929398734
 30
0.0
 11
-924.8157928148412
 21
63.24067929398825
 31
0.0
  0
ARC
  5
9DD
330
950
100
AcDbEntity
  8
Visible (ISO)
100
AcDbCircle
 10
-924.8157928148412
 20
63.24067929398734
 30
0.0
 40
3.000000000000007
100
AcDbArc
 50
0.0
 51
90.0
  0
LINE
  5
9DE
330
950
100
AcDbEntity
  8
Visible Narrow (ISO)
100
AcDbLine
 10
-924.8157928148412
 20
63.24067929398825
 30
0.0
 11
-924.8157928148412
 21
66.24067929398734
 31
0.0
  0
LINE
  5
9DF
330
950
100
AcDbEntity
  8
Visible (ISO)
100
AcDbLine
 10
-924.8157928148412
 20
66.24067929398734
 30
0.0
 11
-1018.815792814841
 21
66.24067929398734
 31
0.0
  0
LINE
  5
9E0
330
950
100
AcDbEntity
  8
Visible Narrow (ISO)
100
AcDbLine
 10
-1018.815792814841
 20
63.24067929398825
 30
0.0
 11
-924.8157928148412
 21
63.24067929398779
 31
0.0
  0
LINE
  5
9E1
330
950
100
AcDbEntity
  8
Visible Narrow (ISO)
100
AcDbLine
 10
-1021.815792814841
 20
-30.75932070601311
 30
0.0
 11
-1018.815792814841
 21
-30.75932070601175
 31
0.0
  0
ARC
  5
9E2
330
950
100
AcDbEntity
  8
Visible (ISO)
100
AcDbCircle
 10
-1018.815792814841
 20
-30.75932070601311
 30
0.0
 40
2.999999999999989
100
AcDbArc
 50
180.0
 51
270.0
  0
LINE
  5
9E3
330
950
100
AcDbEntity
  8
Visible Narrow (ISO)
100
AcDbLine
 10
-1018.815792814841
 20
-30.75932070601221
 30
0.0
 11
-1018.815792814841
 21
-33.75932070601312
 31
0.0
  0
LINE
  5
9E4
330
950
100
AcDbEntity
  8
Visible Narrow (ISO)
100
AcDbLine
 10
-924.8157928148412
 20
-33.75932070601312
 30
0.0
 11
-924.8157928148412
 21
-30.75932070601221
 31
0.0
  0
ARC
  5
9E5
330
950
100
AcDbEntity
  8
Visible (ISO)
100
AcDbCircle
 10
-924.8157928148412
 20
-30.75932070601311
 30
0.0
 40
3.000000000000007
100
AcDbArc
 50
270.0
 51
0.0
  0
LINE
  5
9E6
330
950
100
AcDbEntity
  8
Visible Narrow (ISO)
100
AcDbLine
 10
-924.8157928148412
 20
-30.75932070601175
 30
0.0
 11
-921.8157928148412
 21
-30.75932070601311
 31
0.0
  0
LINE
  5
9E7
330
950
100
AcDbEntity
  8
Visible (ISO)
100
AcDbLine
 10
-921.8157928148412
 20
-30.75932070601311
 30
0.0
 11
-921.8157928148412
 21
63.24067929398734
 31
0.0
  0
LINE
  5
9E8
330
950
100
AcDbEntity
  8
Visible Narrow (ISO)
100
AcDbLine
 10
-924.8157928148412
 20
63.24067929398779
 30
0.0
 11
-924.8157928148412
 21
-30.75932070601175
 31
0.0
  0
LINE
  5
9E9
330
950
100
AcDbEntity
  8
Visible (ISO)
100
AcDbLine
 10
-1018.815792814841
 20
-33.75932070601266
 30
0.0
 11
-924.8157928148412
 21
-33.75932070601266
 31
0.0
  0
LINE
  5
9EA
330
950
100
AcDbEntity
  8
Visible Narrow (ISO)
100
AcDbLine
 10
-924.8157928148412
 20
-30.75932070601175
 30
0.0
 11
-1018.815792814841
 21
-30.75932070601175
 31
0.0
  0
LINE
  5
9EB
330
950
100
AcDbEntity
  8
Visible (ISO)
100
AcDbLine
 10
-1021.815792814841
 20
63.24067929398734
 30
0.0
 11
-1021.815792814841
 21
-30.75932070601311
 31
0.0
  0
LINE
  5
9EC
330
950
100
AcDbEntity
  8
Visible Narrow (ISO)
100
AcDbLine
 10
-1018.815792814841
 20
-30.75932070601175
 30
0.0
 11
-1018.815792814841
 21
63.24067929398825
 31
0.0
  0
LINE
  5
9ED
330
950
100
AcDbEntity
  8
Visible Narrow (ISO)
100
AcDbLine
 10
-988.9386401598599
 20
-181.7593207060376
 30
0.0
 11
-950.9386401598598
 21
-181.7593207060376
 31
0.0
  0
LINE
  5
9EE
330
950
100
AcDbEntity
  8
Visible (ISO)
100
AcDbLine
 10
-952.9386401598594
 20
-183.7593207060381
 30
0.0
 11
-986.93864015986
 21
-183.7593207060381
 31
0.0
  0
ARC
  5
9EF
330
950
100
AcDbEntity
  8
Visible (ISO)
100
AcDbCircle
 10
-986.93864015986
 20
-181.7593207060376
 30
0.0
 40
2.0
100
AcDbArc
 50
180.0
 51
270.0
  0
ARC
  5
9F0
330
950
100
AcDbEntity
  8
Visible (ISO)
100
AcDbCircle
 10
-952.9386401598594
 20
-181.7593207060376
 30
0.0
 40
2.0
100
AcDbArc
 50
270.0
 51
0.0
  0
LINE
  5
9F1
330
950
100
AcDbEntity
  8
Visible (ISO)
100
AcDbLine
 10
-988.9386401598599
 20
-178.7593207060381
 30
0.0
 11
-950.9386401598598
 21
-178.7593207060381
 31
0.0
  0
LINE
  5
9F2
330
950
100
AcDbEntity
  8
Visible (ISO)
100
AcDbLine
 10
-950.9386401598598
 20
-178.7593207060381
 30
0.0
 11
-950.9386401598598
 21
-181.7593207060376
 31
0.0
  0
LINE
  5
9F3
330
950
100
AcDbEntity
  8
Visible (ISO)
100
AcDbLine
 10
-988.9386401598599
 20
-178.7593207060381
 30
0.0
 11
-988.9386401598599
 21
-181.7593207060376
 31
0.0
  0
LINE
  5
9F4
330
950
100
AcDbEntity
  8
Visible Narrow (ISO)
100
AcDbLine
 10
-952.8157928148411
 20
214.2406792939628
 30
0.0
 11
-990.8157928148412
 21
214.2406792939628
 31
0.0
  0
LINE
  5
9F5
330
950
100
AcDbEntity
  8
Visible (ISO)
100
AcDbLine
 10
-988.8157928148412
 20
216.2406792939632
 30
0.0
 11
-954.8157928148411
 21
216.2406792939632
 31
0.0
  0
ARC
  5
9F6
330
950
100
AcDbEntity
  8
Visible (ISO)
100
AcDbCircle
 10
-954.8157928148411
 20
214.2406792939628
 30
0.0
 40
2.0
100
AcDbArc
 50
0.0
 51
90.0
  0
ARC
  5
9F7
330
950
100
AcDbEntity
  8
Visible (ISO)
100
AcDbCircle
 10
-988.8157928148412
 20
214.2406792939628
 30
0.0
 40
2.0
100
AcDbArc
 50
90.0
 51
180.0
  0
LINE
  5
9F8
330
950
100
AcDbEntity
  8
Visible (ISO)
100
AcDbLine
 10
-966.4548563270578
 20
211.2406792939682
 30
0.0
 11
-990.8157928148412
 21
211.2406792939628
 31
0.0
  0
LINE
  5
9F9
330
950
100
AcDbEntity
  8
Visible (ISO)
100
AcDbLine
 10
-990.8157928148412
 20
211.2406792939628
 30
0.0
 11
-990.8157928148412
 21
214.2406792939632
 31
0.0
  0
LINE
  5
9FA
330
950
100
AcDbEntity
  8
Visible (ISO)
100
AcDbLine
 10
-952.8157928148411
 20
211.2406792939628
 30
0.0
 11
-952.8157928148411
 21
214.2406792939628
 31
0.0
  0
LINE
  5
9FB
330
950
100
AcDbEntity
  8
Visible Narrow (ISO)
100
AcDbLine
 10
902.8686992837712
 20
214.2406792937695
 30
0.0
 11
864.8686992837712
 21
214.2406792937695
 31
0.0
  0
LINE
  5
9FC
330
950
100
AcDbEntity
  8
Visible (ISO)
100
AcDbLine
 10
866.8686992837711
 20
216.24067929377
 30
0.0
 11
900.8686992837711
 21
216.24067929377
 31
0.0
  0
ARC
  5
9FD
330
950
100
AcDbEntity
  8
Visible (ISO)
100
AcDbCircle
 10
900.8686992837711
 20
214.2406792937695
 30
0.0
 40
2.0
100
AcDbArc
 50
0.0
 51
90.0
  0
ARC
  5
9FE
330
950
100
AcDbEntity
  8
Visible (ISO)
100
AcDbCircle
 10
866.8686992837709
 20
214.2406792937695
 30
0.0
 40
2.0
100
AcDbArc
 50
90.0
 51
180.0
  0
LINE
  5
9FF
330
950
100
AcDbEntity
  8
Visible (ISO)
100
AcDbLine
 10
902.8686992837712
 20
211.2406792937695
 30
0.0
 11
864.8686992837712
 21
211.2406792937695
 31
0.0
  0
LINE
  5
A00
330
950
100
AcDbEntity
  8
Visible (ISO)
100
AcDbLine
 10
864.868699283771
 20
211.2406792937695
 30
0.0
 11
864.868699283771
 21
214.2406792937695
 31
0.0
  0
LINE
  5
A01
330
950
100
AcDbEntity
  8
Visible (ISO)
100
AcDbLine
 10
902.8686992837712
 20
211.2406792937695
 30
0.0
 11
902.8686992837712
 21
214.2406792937695
 31
0.0
  0
LINE
  5
A02
330
950
100
AcDbEntity
  8
Visible Narrow (ISO)
100
AcDbLine
 10
864.8686992837717
 20
-181.75932070623
 30
0.0
 11
902.8686992837718
 21
-181.75932070623
 31
0.0
  0
LINE
  5
A03
330
950
100
AcDbEntity
  8
Visible (ISO)
100
AcDbLine
 10
900.8686992837716
 20
-183.75932070623
 30
0.0
 11
866.8686992837717
 21
-183.75932070623
 31
0.0
  0
ARC
  5
A04
330
950
100
AcDbEntity
  8
Visible (ISO)
100
AcDbCircle
 10
866.8686992837718
 20
-181.75932070623
 30
0.0
 40
2.0
100
AcDbArc
 50
180.0
 51
270.0
  0
ARC
  5
A05
330
950
100
AcDbEntity
  8
Visible (ISO)
100
AcDbCircle
 10
900.8686992837715
 20
-181.75932070623
 30
0.0
 40
2.0
100
AcDbArc
 50
270.0
 51
0.0
  0
LINE
  5
A06
330
950
100
AcDbEntity
  8
Visible (ISO)
100
AcDbLine
 10
878.7138043100796
 20
-178.7593207062245
 30
0.0
 11
902.8686992837718
 21
-178.75932070623
 31
0.0
  0
LINE
  5
A07
330
950
100
AcDbEntity
  8
Visible (ISO)
100
AcDbLine
 10
902.8686992837718
 20
-178.75932070623
 30
0.0
 11
902.8686992837718
 21
-181.75932070623
 31
0.0
  0
LINE
  5
A08
330
950
100
AcDbEntity
  8
Visible (ISO)
100
AcDbLine
 10
864.8686992837715
 20
-178.75932070623
 30
0.0
 11
864.8686992837715
 21
-181.75932070623
 31
0.0
  0
ARC
  5
A09
330
950
100
AcDbEntity
  8
Visible (ISO)
100
AcDbCircle
 10
114.0605510003372
 20
-109.7593207062505
 30
0.0
 40
5.999999999999995
100
AcDbArc
 50
0.0
 51
180.0
  0
ARC
  5
A0A
330
950
100
AcDbEntity
  8
Visible (ISO)
100
AcDbCircle
 10
114.0605510003372
 20
-209.7593207062505
 30
0.0
 40
5.999999999999995
100
AcDbArc
 50
180.0
 51
0.0
  0
LINE
  5
A0B
330
950
100
AcDbEntity
  8
Visible (ISO)
100
AcDbLine
 10
108.0605510003372
 20
-109.7593207062505
 30
0.0
 11
108.0605510003372
 21
-209.7593207062505
 31
0.0
  0
LINE
  5
A0C
330
950
100
AcDbEntity
  8
Visible (ISO)
100
AcDbLine
 10
120.060551000337
 20
-209.7593207062505
 30
0.0
 11
120.060551000337
 21
-109.7593207062505
 31
0.0
  0
ARC
  5
A0D
330
950
100
AcDbEntity
  8
Visible (ISO)
100
AcDbCircle
 10
-165.3293825735509
 20
242.2406792937782
 30
0.0
 40
5.999999999999995
100
AcDbArc
 50
0.0
 51
180.0
  0
ARC
  5
A0E
330
950
100
AcDbEntity
  8
Visible (ISO)
100
AcDbCircle
 10
-165.3293825735509
 20
142.2406792937781
 30
0.0
 40
5.999999999999995
100
AcDbArc
 50
180.0
 51
0.0
  0
LINE
  5
A0F
330
950
100
AcDbEntity
  8
Visible (ISO)
100
AcDbLine
 10
-171.3293825735509
 20
242.2406792937782
 30
0.0
 11
-171.3293825735509
 21
142.2406792937781
 31
0.0
  0
LINE
  5
A10
330
950
100
AcDbEntity
  8
Visible (ISO)
100
AcDbLine
 10
-159.3293825735511
 20
142.2406792937781
 30
0.0
 11
-159.3293825735511
 21
242.2406792937782
 31
0.0
  0
ARC
  5
A11
330
950
100
AcDbEntity
  8
Visible (ISO)
100
AcDbCircle
 10
114.0605510003372
 20
-159.7593207062691
 30
0.0
 40
23.00000000000006
100
AcDbArc
 50
105.1216653149163
 51
124.3011527568024
  0
ARC
  5
A12
330
950
100
AcDbEntity
  8
Visible (ISO)
100
AcDbCircle
 10
114.0605510003372
 20
-159.7593207062691
 30
0.0
 40
22.99999999999988
100
AcDbArc
 50
235.6988472431976
 51
254.8783346850837
  0
ARC
  5
A13
330
950
100
AcDbEntity
  8
Visible (ISO)
100
AcDbCircle
 10
114.0605510003372
 20
-159.7593207062691
 30
0.0
 40
22.99999999999997
100
AcDbArc
 50
285.1216653149163
 51
304.3011527568024
  0
ARC
  5
A14
330
950
100
AcDbEntity
  8
Visible (ISO)
100
AcDbCircle
 10
114.0605510003372
 20
-159.7593207062691
 30
0.0
 40
23.00000000000002
100
AcDbArc
 50
55.69884724319757
 51
74.8783346850837
  0
ARC
  5
A15
330
950
100
AcDbEntity
  8
Visible (ISO)
100
AcDbCircle
 10
-165.3293825735507
 20
192.2406792937599
 30
0.0
 40
23.00000000000005
100
AcDbArc
 50
105.1216653149163
 51
124.3011527568024
  0
ARC
  5
A16
330
950
100
AcDbEntity
  8
Visible (ISO)
100
AcDbCircle
 10
-165.3293825735507
 20
192.2406792937599
 30
0.0
 40
23.0
100
AcDbArc
 50
235.6988472431976
 51
254.8783346850837
  0
ARC
  5
A17
330
950
100
AcDbEntity
  8
Visible (ISO)
100
AcDbCircle
 10
-165.3293825735507
 20
192.2406792937599
 30
0.0
 40
22.99999999999983
100
AcDbArc
 50
285.1216653149037
 51
304.3011527568024
  0
ARC
  5
A18
330
950
100
AcDbEntity
  8
Visible (ISO)
100
AcDbCircle
 10
-165.3293825735507
 20
192.2406792937599
 30
0.0
 40
22.99999999999988
100
AcDbArc
 50
55.69884724319757
 51
74.87833468509627
  0
LINE
  5
A19
330
950
100
AcDbEntity
  8
Visible Narrow (ISO)
100
AcDbLine
 10
-1021.81579281484
 20
-43.75932070643739
 30
0.0
 11
-1016.81579281484
 21
-43.75932070643739
 31
0.0
  0
LINE
  5
A1A
330
950
100
AcDbEntity
  8
Visible Narrow (ISO)
100
AcDbLine
 10
-926.8157928148403
 20
-43.75932070643739
 30
0.0
 11
-921.8157928148402
 21
-43.75932070643739
 31
0.0
  0
LINE
  5
A1B
330
950
100
AcDbEntity
  8
Visible Narrow (ISO)
100
AcDbLine
 10
-921.8157928148402
 20
76.24067929356215
 30
0.0
 11
-926.8157928148403
 21
76.24067929356215
 31
0.0
  0
LINE
  5
A1C
330
950
100
AcDbEntity
  8
Visible Narrow (ISO)
100
AcDbLine
 10
-1016.81579281484
 20
76.24067929356215
 30
0.0
 11
-1021.81579281484
 21
76.24067929356215
 31
0.0
  0
LINE
  5
A1D
330
950
100
AcDbEntity
  8
Visible Narrow (ISO)
100
AcDbLine
 10
833.8686992837718
 20
-43.75932070643739
 30
0.0
 11
838.8686992837719
 21
-43.75932070643739
 31
0.0
  0
LINE
  5
A1E
330
950
100
AcDbEntity
  8
Visible Narrow (ISO)
100
AcDbLine
 10
928.8686992837718
 20
-43.75932070643739
 30
0.0
 11
933.8686992837718
 21
-43.75932070643739
 31
0.0
  0
LINE
  5
A1F
330
950
100
AcDbEntity
  8
Visible Narrow (ISO)
100
AcDbLine
 10
838.8686992837719
 20
76.24067929356261
 30
0.0
 11
833.8686992837718
 21
76.24067929356261
 31
0.0
  0
LINE
  5
A20
330
950
100
AcDbEntity
  8
Visible Narrow (ISO)
100
AcDbLine
 10
933.8686992837718
 20
76.24067929356261
 30
0.0
 11
928.8686992837718
 21
76.24067929356261
 31
0.0
  0
ENDBLK
  5
952
330
950
100
AcDbEntity
  8
0
100
AcDbBlockEnd
  0
ENDSEC
  0
SECTION
  2
ENTITIES
  0
ARC
  5
14D
330
6C
100
AcDbEntity
  8
Visible (ISO)
100
AcDbCircle
 10
-2705.690603629375
 20
3327.006649495793
 30
0.0
 40
1.999999999999993
100
AcDbArc
 50
90.0
 51
180.0
  0
LINE
  5
14E
330
6C
100
AcDbEntity
  8
Visible (ISO)
100
AcDbLine
 10
-2707.690603629375
 20
3297.006649495794
 30
0.0
 11
-2707.690603629375
 21
3327.006649495793
 31
0.0
  0
ARC
  5
14F
330
6C
100
AcDbEntity
  8
Visible (ISO)
100
AcDbCircle
 10
-2705.690603629375
 20
3297.006649495794
 30
0.0
 40
1.99999999999999
100
AcDbArc
 50
180.0
 51
270.0
  0
LINE
  5
150
330
6C
100
AcDbEntity
  8
Visible (ISO)
100
AcDbLine
 10
-2595.690603629375
 20
3295.006649495793
 30
0.0
 11
-2705.690603629375
 21
3295.006649495793
 31
0.0
  0
ARC
  5
151
330
6C
100
AcDbEntity
  8
Visible (ISO)
100
AcDbCircle
 10
-2595.690603629375
 20
3327.006649495793
 30
0.0
 40
1.999999999999988
100
AcDbArc
 50
0.0
 51
90.0
  0
LINE
  5
152
330
6C
100
AcDbEntity
  8
Visible (ISO)
100
AcDbLine
 10
-2593.690603629375
 20
3327.006649495793
 30
0.0
 11
-2593.690603629375
 21
3297.006649495794
 31
0.0
  0
ARC
  5
153
330
6C
100
AcDbEntity
  8
Visible (ISO)
100
AcDbCircle
 10
-2595.690603629375
 20
3297.006649495794
 30
0.0
 40
1.999999999999993
100
AcDbArc
 50
270.0
 51
0.0
  0
LINE
  5
154
330
6C
100
AcDbEntity
  8
Visible (ISO)
100
AcDbLine
 10
-2705.690603629375
 20
3329.006649495794
 30
0.0
 11
-2595.690603629375
 21
3329.006649495794
 31
0.0
  0
ARC
  5
155
330
6C
100
AcDbEntity
  8
Visible (ISO)
100
AcDbCircle
 10
-2705.690603629375
 20
3327.006649495793
 30
0.0
 40
5.0
100
AcDbArc
 50
90.0
 51
180.0
  0
ARC
  5
156
330
6C
100
AcDbEntity
  8
Visible (ISO)
100
AcDbCircle
 10
-2705.690603629375
 20
3297.006649495794
 30
0.0
 40
4.999999999999996
100
AcDbArc
 50
180.0
 51
270.0
  0
ARC
  5
157
330
6C
100
AcDbEntity
  8
Visible (ISO)
100
AcDbCircle
 10
-2595.690603629375
 20
3327.006649495793
 30
0.0
 40
5.000000000000002
100
AcDbArc
 50
0.0
 51
90.0
  0
ARC
  5
158
330
6C
100
AcDbEntity
  8
Visible (ISO)
100
AcDbCircle
 10
-2595.690603629375
 20
3297.006649495794
 30
0.0
 40
5.0
100
AcDbArc
 50
270.0
 51
0.0
  0
LINE
  5
159
330
6C
100
AcDbEntity
  8
Visible (ISO)
100
AcDbLine
 10
-2710.690603629375
 20
3297.006649495794
 30
0.0
 11
-2710.690603629375
 21
3327.006649495793
 31
0.0
  0
LINE
  5
15A
330
6C
100
AcDbEntity
  8
Visible (ISO)
100
AcDbLine
 10
-2590.690603629375
 20
3327.006649495793
 30
0.0
 11
-2590.690603629375
 21
3297.006649495794
 31
0.0
  0
LINE
  5
15B
330
6C
100
AcDbEntity
  8
Visible (ISO)
100
AcDbLine
 10
-2705.690603629375
 20
3332.006649495794
 30
0.0
 11
-2595.690603629375
 21
3332.006649495794
 31
0.0
  0
ARC
  5
15C
330
6C
100
AcDbEntity
  8
Visible (ISO)
100
AcDbCircle
 10
-850.0061115307625
 20
3327.006649495793
 30
0.0
 40
1.999999999999993
100
AcDbArc
 50
90.0
 51
180.0
  0
LINE
  5
15D
330
6C
100
AcDbEntity
  8
Visible (ISO)
100
AcDbLine
 10
-852.0061115307623
 20
3297.006649495794
 30
0.0
 11
-852.0061115307623
 21
3327.006649495793
 31
0.0
  0
ARC
  5
15E
330
6C
100
AcDbEntity
  8
Visible (ISO)
100
AcDbCircle
 10
-850.0061115307625
 20
3297.006649495794
 30
0.0
 40
1.99999999999999
100
AcDbArc
 50
180.0
 51
270.0
  0
LINE
  5
15F
330
6C
100
AcDbEntity
  8
Visible (ISO)
100
AcDbLine
 10
-740.0061115307624
 20
3295.006649495793
 30
0.0
 11
-850.0061115307625
 21
3295.006649495793
 31
0.0
  0
ARC
  5
160
330
6C
100
AcDbEntity
  8
Visible (ISO)
100
AcDbCircle
 10
-740.0061115307624
 20
3327.006649495793
 30
0.0
 40
1.999999999999988
100
AcDbArc
 50
0.0
 51
90.0
  0
LINE
  5
161
330
6C
100
AcDbEntity
  8
Visible (ISO)
100
AcDbLine
 10
-738.0061115307626
 20
3327.006649495793
 30
0.0
 11
-738.0061115307626
 21
3297.006649495794
 31
0.0
  0
ARC
  5
162
330
6C
100
AcDbEntity
  8
Visible (ISO)
100
AcDbCircle
 10
-740.0061115307624
 20
3297.006649495794
 30
0.0
 40
1.999999999999993
100
AcDbArc
 50
270.0
 51
0.0
  0
LINE
  5
163
330
6C
100
AcDbEntity
  8
Visible (ISO)
100
AcDbLine
 10
-850.0061115307625
 20
3329.006649495794
 30
0.0
 11
-740.0061115307624
 21
3329.006649495794
 31
0.0
  0
ARC
  5
164
330
6C
100
AcDbEntity
  8
Visible (ISO)
100
AcDbCircle
 10
-850.0061115307625
 20
3327.006649495793
 30
0.0
 40
5.0
100
AcDbArc
 50
90.0
 51
180.0
  0
ARC
  5
165
330
6C
100
AcDbEntity
  8
Visible (ISO)
100
AcDbCircle
 10
-850.0061115307625
 20
3297.006649495794
 30
0.0
 40
4.999999999999996
100
AcDbArc
 50
180.0
 51
270.0
  0
ARC
  5
166
330
6C
100
AcDbEntity
  8
Visible (ISO)
100
AcDbCircle
 10
-740.0061115307624
 20
3327.006649495793
 30
0.0
 40
5.000000000000002
100
AcDbArc
 50
0.0
 51
90.0
  0
ARC
  5
167
330
6C
100
AcDbEntity
  8
Visible (ISO)
100
AcDbCircle
 10
-740.0061115307624
 20
3297.006649495794
 30
0.0
 40
5.0
100
AcDbArc
 50
270.0
 51
0.0
  0
LINE
  5
168
330
6C
100
AcDbEntity
  8
Visible (ISO)
100
AcDbLine
 10
-855.0061115307624
 20
3297.006649495794
 30
0.0
 11
-855.0061115307624
 21
3327.006649495793
 31
0.0
  0
LINE
  5
169
330
6C
100
AcDbEntity
  8
Visible (ISO)
100
AcDbLine
 10
-735.0061115307624
 20
3327.006649495793
 30
0.0
 11
-735.0061115307624
 21
3297.006649495794
 31
0.0
  0
LINE
  5
16A
330
6C
100
AcDbEntity
  8
Visible (ISO)
100
AcDbLine
 10
-850.0061115307625
 20
3332.006649495794
 30
0.0
 11
-740.0061115307624
 21
3332.006649495794
 31
0.0
  0
LINE
  5
16B
330
6C
100
AcDbEntity
  8
Visible (ISO)
100
AcDbLine
 10
-2600.690603629375
 20
3527.006649495793
 30
0.0
 11
-2600.690603629375
 21
4618.916841829191
 31
0.0
  0
LINE
  5
16C
330
6C
100
AcDbEntity
  8
Visible (ISO)
100
AcDbLine
 10
-2600.690603629375
 20
4758.977891314225
 30
0.0
 11
-2600.690603629375
 21
4942.006649495794
 31
0.0
  0
LINE
  5
16D
330
6C
100
AcDbEntity
  8
Visible Narrow (ISO)
100
AcDbLine
 10
-2605.690603629375
 20
4942.006649495794
 30
0.0
 11
-2605.690603629375
 21
4776.715737599466
 31
0.0
  0
LINE
  5
16E
330
6C
100
AcDbEntity
  8
Visible Narrow (ISO)
100
AcDbLine
 10
-2605.690603629375
 20
4636.654688114432
 30
0.0
 11
-2605.690603629375
 21
3527.006649495793
 31
0.0
  0
LINE
  5
16F
330
6C
100
AcDbEntity
  8
Visible Narrow (ISO)
100
AcDbLine
 10
-2695.690603629375
 20
3527.006649495793
 30
0.0
 11
-2695.690603629376
 21
4942.006649495794
 31
0.0
  0
LINE
  5
170
330
6C
100
AcDbEntity
  8
Visible (ISO)
100
AcDbLine
 10
-2700.690603629375
 20
4942.006649495794
 30
0.0
 11
-2700.690603629375
 21
3527.006649495793
 31
0.0
  0
LINE
  5
171
330
6C
100
AcDbEntity
  8
Visible (ISO)
100
AcDbLine
 10
-2605.690603629375
 20
4942.006649495794
 30
0.0
 11
-2695.690603629376
 21
4942.006649495794
 31
0.0
  0
LINE
  5
172
330
6C
100
AcDbEntity
  8
Visible (ISO)
100
AcDbLine
 10
-2695.690603629375
 20
3332.006649495794
 30
0.0
 11
-2695.690603629375
 21
3502.006649495794
 31
0.0
  0
LINE
  5
173
330
6C
100
AcDbEntity
  8
Visible (ISO)
100
AcDbLine
 10
-2695.690603629375
 20
3512.006649495794
 30
0.0
 11
-2695.690603629375
 21
3527.006649495794
 31
0.0
  0
LINE
  5
174
330
6C
100
AcDbEntity
  8
Visible (ISO)
100
AcDbLine
 10
-2700.690603629375
 20
3527.006649495794
 30
0.0
 11
-2700.690603629375
 21
3512.006649495794
 31
0.0
  0
LINE
  5
175
330
6C
100
AcDbEntity
  8
Visible (ISO)
100
AcDbLine
 10
-2700.690603629375
 20
3502.006649495794
 30
0.0
 11
-2700.690603629375
 21
3332.006649495794
 31
0.0
  0
LINE
  5
176
330
6C
100
AcDbEntity
  8
Visible (ISO)
100
AcDbLine
 10
-2700.690603629375
 20
3527.006649495794
 30
0.0
 11
-2695.690603629375
 21
3527.006649495794
 31
0.0
  0
LINE
  5
177
330
6C
100
AcDbEntity
  8
Visible (ISO)
100
AcDbLine
 10
-2600.690603629375
 20
3332.006649495794
 30
0.0
 11
-2600.690603629375
 21
3502.006649495794
 31
0.0
  0
LINE
  5
178
330
6C
100
AcDbEntity
  8
Visible (ISO)
100
AcDbLine
 10
-2600.690603629375
 20
3512.006649495793
 30
0.0
 11
-2600.690603629375
 21
3527.006649495794
 31
0.0
  0
LINE
  5
179
330
6C
100
AcDbEntity
  8
Visible (ISO)
100
AcDbLine
 10
-2605.690603629375
 20
3527.006649495794
 30
0.0
 11
-2605.690603629375
 21
3512.006649495793
 31
0.0
  0
LINE
  5
17A
330
6C
100
AcDbEntity
  8
Visible (ISO)
100
AcDbLine
 10
-2605.690603629375
 20
3502.006649495794
 30
0.0
 11
-2605.690603629375
 21
3332.006649495794
 31
0.0
  0
LINE
  5
17B
330
6C
100
AcDbEntity
  8
Visible (ISO)
100
AcDbLine
 10
-2605.690603629375
 20
3527.006649495794
 30
0.0
 11
-2600.690603629375
 21
3527.006649495794
 31
0.0
  0
LINE
  5
17C
330
6C
100
AcDbEntity
  8
Visible (ISO)
100
AcDbLine
 10
-840.0061115307623
 20
3332.006649495793
 30
0.0
 11
-840.0061115307623
 21
3502.006649495793
 31
0.0
  0
LINE
  5
17D
330
6C
100
AcDbEntity
  8
Visible (ISO)
100
AcDbLine
 10
-840.0061115307623
 20
3512.006649495793
 30
0.0
 11
-840.0061115307623
 21
3527.006649495793
 31
0.0
  0
LINE
  5
17E
330
6C
100
AcDbEntity
  8
Visible (ISO)
100
AcDbLine
 10
-845.0061115307624
 20
3527.006649495793
 30
0.0
 11
-845.0061115307624
 21
3512.006649495793
 31
0.0
  0
LINE
  5
17F
330
6C
100
AcDbEntity
  8
Visible (ISO)
100
AcDbLine
 10
-845.0061115307624
 20
3502.006649495793
 30
0.0
 11
-845.0061115307624
 21
3332.006649495793
 31
0.0
  0
LINE
  5
180
330
6C
100
AcDbEntity
  8
Visible (ISO)
100
AcDbLine
 10
-845.0061115307624
 20
3527.006649495793
 30
0.0
 11
-840.0061115307623
 21
3527.006649495793
 31
0.0
  0
LINE
  5
181
330
6C
100
AcDbEntity
  8
Visible (ISO)
100
AcDbLine
 10
-745.0061115307622
 20
3332.006649495793
 30
0.0
 11
-745.0061115307622
 21
3502.006649495793
 31
0.0
  0
LINE
  5
182
330
6C
100
AcDbEntity
  8
Visible (ISO)
100
AcDbLine
 10
-745.0061115307623
 20
3512.006649495793
 30
0.0
 11
-745.0061115307623
 21
3527.006649495793
 31
0.0
  0
LINE
  5
183
330
6C
100
AcDbEntity
  8
Visible (ISO)
100
AcDbLine
 10
-750.0061115307623
 20
3527.006649495793
 30
0.0
 11
-750.0061115307623
 21
3512.006649495793
 31
0.0
  0
LINE
  5
184
330
6C
100
AcDbEntity
  8
Visible (ISO)
100
AcDbLine
 10
-750.0061115307623
 20
3502.006649495793
 30
0.0
 11
-750.0061115307623
 21
3332.006649495793
 31
0.0
  0
LINE
  5
185
330
6C
100
AcDbEntity
  8
Visible (ISO)
100
AcDbLine
 10
-750.0061115307623
 20
3527.006649495793
 30
0.0
 11
-745.0061115307623
 21
3527.006649495793
 31
0.0
  0
LINE
  5
186
330
6C
100
AcDbEntity
  8
Visible (ISO)
100
AcDbLine
 10
-2635.690603629375
 20
3329.006649495794
 30
0.0
 11
-2635.690603629375
 21
3295.006649495793
 31
0.0
  0
LINE
  5
187
330
6C
100
AcDbEntity
  8
Visible (ISO)
100
AcDbLine
 10
-2665.690603629375
 20
3329.006649495794
 30
0.0
 11
-2665.690603629375
 21
3295.006649495793
 31
0.0
  0
LINE
  5
188
330
6C
100
AcDbEntity
  8
Visible (ISO)
100
AcDbLine
 10
-780.0061115307624
 20
3329.006649495794
 30
0.0
 11
-780.0061115307624
 21
3295.006649495793
 31
0.0
  0
LINE
  5
189
330
6C
100
AcDbEntity
  8
Visible (ISO)
100
AcDbLine
 10
-810.0061115307624
 20
3329.006649495794
 30
0.0
 11
-810.0061115307624
 21
3295.006649495793
 31
0.0
  0
LINE
  5
18A
330
6C
100
AcDbEntity
  8
Visible (ISO)
100
AcDbLine
 10
-750.0061115307622
 20
4292.006649495793
 30
0.0
 11
-797.8163386285662
 21
4292.006649495793
 31
0.0
  0
LINE
  5
18B
330
6C
100
AcDbEntity
  8
Visible (ISO)
100
AcDbLine
 10
-837.2971885673724
 20
4292.006649495793
 30
0.0
 11
-840.0061115307622
 21
4292.006649495793
 31
0.0
  0
LINE
  5
18C
330
6C
100
AcDbEntity
  8
Visible Narrow (ISO)
100
AcDbLine
 10
-750.0061115307622
 20
4292.006649495793
 30
0.0
 11
-750.0061115307622
 21
3527.006649495793
 31
0.0
  0
LINE
  5
18D
330
6C
100
AcDbEntity
  8
Visible (ISO)
100
AcDbLine
 10
-745.0061115307623
 20
3527.006649495793
 30
0.0
 11
-745.0061115307623
 21
4292.006649495793
 31
0.0
  0
LINE
  5
18E
330
6C
100
AcDbEntity
  8
Visible Narrow (ISO)
100
AcDbLine
 10
-840.0061115307623
 20
3527.006649495793
 30
0.0
 11
-840.0061115307623
 21
4292.006649495793
 31
0.0
  0
LINE
  5
18F
330
6C
100
AcDbEntity
  8
Visible (ISO)
100
AcDbLine
 10
-845.0061115307622
 20
4292.006649495793
 30
0.0
 11
-845.0061115307622
 21
3527.006649495793
 31
0.0
  0
LINE
  5
190
330
6C
100
AcDbEntity
  8
Visible Narrow (ISO)
100
AcDbLine
 10
-866.4773741442548
 20
4535.586428248342
 30
0.0
 11
-903.0520680081952
 21
4525.276638300964
 31
0.0
  0
LINE
  5
191
330
6C
100
AcDbEntity
  8
Visible Narrow (ISO)
100
AcDbLine
 10
-1001.034343117938
 20
4582.596246693845
 30
0.0
 11
-978.8370275450972
 21
4551.753432597855
 31
0.0
  0
LINE
  5
192
330
6C
100
AcDbEntity
  8
Visible Narrow (ISO)
100
AcDbLine
 10
-1538.078865238242
 20
4196.089791833086
 30
0.0
 11
-1515.881549665401
 21
4165.246977737097
 31
0.0
  0
LINE
  5
193
330
6C
100
AcDbEntity
  8
Visible Narrow (ISO)
100
AcDbLine
 10
-1613.863824775145
 20
4222.566586129979
 30
0.0
 11
-1650.438518639085
 21
4212.256796182601
 31
0.0
  0
LINE
  5
194
330
6C
100
AcDbEntity
  8
Visible Narrow (ISO)
100
AcDbLine
 10
-1793.38104386607
 20
4859.416353687696
 30
0.0
 11
-1829.955737730011
 21
4849.106563740318
 31
0.0
  0
LINE
  5
195
330
6C
100
AcDbEntity
  8
Visible Narrow (ISO)
100
AcDbLine
 10
-1927.938012839754
 20
4906.4261721332
 30
0.0
 11
-1905.740697266913
 21
4875.583358037211
 31
0.0
  0
LINE
  5
196
330
6C
100
AcDbEntity
  8
Visible Narrow (ISO)
100
AcDbLine
 10
-2464.982534960058
 20
4519.919717272442
 30
0.0
 11
-2442.785219387217
 21
4489.076903176452
 31
0.0
  0
LINE
  5
197
330
6C
100
AcDbEntity
  8
Visible Narrow (ISO)
100
AcDbLine
 10
-2540.767494496961
 20
4546.396511569334
 30
0.0
 11
-2577.342188360902
 21
4536.086721621956
 31
0.0
  0
LINE
  5
198
330
6C
100
AcDbEntity
  8
Visible (ISO)
100
AcDbLine
 10
-866.4773741442544
 20
4535.586428248341
 30
0.0
 11
-776.7187645987923
 21
4217.161544469482
 31
0.0
  0
LINE
  5
199
330
6C
100
AcDbEntity
  8
Visible (ISO)
100
AcDbLine
 10
-903.0520680081949
 20
4525.276638300963
 30
0.0
 11
-813.2934584627328
 21
4206.851754522104
 31
0.0
  0
ARC
  5
19A
330
6C
100
AcDbEntity
  8
Visible (ISO)
100
AcDbCircle
 10
-950.2141732538021
 20
4511.982435474081
 30
0.0
 40
87.00000000000011
100
AcDbArc
 50
15.74224993986507
 51
125.7422499398651
  0
ARC
  5
19B
330
6C
100
AcDbEntity
  8
Visible (ISO)
100
AcDbCircle
 10
-950.2141732538021
 20
4511.982435474081
 30
0.0
 40
48.99999999999997
100
AcDbArc
 50
15.7422499398646
 51
125.7422499398644
  0
LINE
  5
19C
330
6C
100
AcDbEntity
  8
Visible (ISO)
100
AcDbLine
 10
-1538.078865238242
 20
4196.089791833086
 30
0.0
 11
-1001.034343117938
 21
4582.596246693845
 31
0.0
  0
LINE
  5
19D
330
6C
100
AcDbEntity
  8
Visible (ISO)
100
AcDbLine
 10
-1515.881549665401
 20
4165.246977737097
 30
0.0
 11
-978.8370275450969
 21
4551.753432597856
 31
0.0
  0
ARC
  5
19E
330
6C
100
AcDbEntity
  8
Visible (ISO)
100
AcDbCircle
 10
-1566.701719529537
 20
4235.860788956862
 30
0.0
 40
87.00000000000049
100
AcDbArc
 50
275.2016037969851
 51
305.7422499398654
  0
ARC
  5
19F
330
6C
100
AcDbEntity
  8
Visible (ISO)
100
AcDbCircle
 10
-1566.701719529537
 20
4235.860788956862
 30
0.0
 40
87.00000000000049
100
AcDbArc
 50
195.7422499398649
 51
267.2905857123307
  0
ARC
  5
1A0
330
6C
100
AcDbEntity
  8
Visible (ISO)
100
AcDbCircle
 10
-1566.701719529537
 20
4235.860788956862
 30
0.0
 40
49.00000000000035
100
AcDbArc
 50
195.7422499398654
 51
265.1855363544078
  0
ARC
  5
1A1
330
6C
100
AcDbEntity
  8
Visible (ISO)
100
AcDbCircle
 10
-1566.701719529537
 20
4235.860788956862
 30
0.0
 40
49.00000000000034
100
AcDbArc
 50
279.2631196922832
 51
305.7422499398652
  0
LINE
  5
1A2
330
6C
100
AcDbEntity
  8
Visible (ISO)
100
AcDbLine
 10
-1793.38104386607
 20
4859.416353687696
 30
0.0
 11
-1613.863824775145
 21
4222.566586129978
 31
0.0
  0
LINE
  5
1A3
330
6C
100
AcDbEntity
  8
Visible (ISO)
100
AcDbLine
 10
-1829.955737730011
 20
4849.106563740318
 30
0.0
 11
-1650.438518639085
 21
4212.256796182601
 31
0.0
  0
ARC
  5
1A4
330
6C
100
AcDbEntity
  8
Visible (ISO)
100
AcDbCircle
 10
-1877.117842975617
 20
4835.812360913437
 30
0.0
 40
86.99999999999988
100
AcDbArc
 50
15.7422499398651
 51
125.7422499398655
  0
ARC
  5
1A5
330
6C
100
AcDbEntity
  8
Visible (ISO)
100
AcDbCircle
 10
-1877.117842975617
 20
4835.812360913437
 30
0.0
 40
48.99999999999977
100
AcDbArc
 50
15.74224993986479
 51
125.7422499398652
  0
LINE
  5
1A6
330
6C
100
AcDbEntity
  8
Visible (ISO)
100
AcDbLine
 10
-2464.982534960058
 20
4519.919717272442
 30
0.0
 11
-1927.938012839754
 21
4906.4261721332
 31
0.0
  0
LINE
  5
1A7
330
6C
100
AcDbEntity
  8
Visible (ISO)
100
AcDbLine
 10
-2442.785219387217
 20
4489.076903176452
 30
0.0
 11
-1905.740697266912
 21
4875.583358037211
 31
0.0
  0
ARC
  5
1A8
330
6C
100
AcDbEntity
  8
Visible (ISO)
100
AcDbCircle
 10
-2493.605389251353
 20
4559.690714396216
 30
0.0
 40
87.00000000000054
100
AcDbArc
 50
195.7422499398654
 51
305.7422499398656
  0
ARC
  5
1A9
330
6C
100
AcDbEntity
  8
Visible (ISO)
100
AcDbCircle
 10
-2493.605389251353
 20
4559.690714396216
 30
0.0
 40
49.00000000000044
100
AcDbArc
 50
195.7422499398645
 51
305.7422499398648
  0
LINE
  5
1AA
330
6C
100
AcDbEntity
  8
Visible (ISO)
100
AcDbLine
 10
-2630.526104042424
 20
4864.821395348194
 30
0.0
 11
-2540.767494496961
 21
4546.396511569334
 31
0.0
  0
LINE
  5
1AB
330
6C
100
AcDbEntity
  8
Visible (ISO)
100
AcDbLine
 10
-2667.100797906364
 20
4854.511605400816
 30
0.0
 11
-2577.342188360902
 21
4536.086721621956
 31
0.0
  0
LINE
  5
1AC
330
6C
100
AcDbEntity
  8
Visible Narrow (ISO)
100
AcDbLine
 10
-864.5862503057751
 20
4042.762434563494
 30
0.0
 11
-845.0061115307626
 21
4037.003831260561
 31
0.0
  0
LINE
  5
1AD
330
6C
100
AcDbEntity
  8
Visible Narrow (ISO)
100
AcDbLine
 10
-925.4209025817004
 20
4009.578928382453
 30
0.0
 11
-936.1427755572677
 21
3973.122907756282
 31
0.0
  0
LINE
  5
1AE
330
6C
100
AcDbEntity
  8
Visible Narrow (ISO)
100
AcDbLine
 10
-1265.921710322931
 20
4109.721685215837
 30
0.0
 11
-1276.643583298498
 21
4073.265664589666
 31
0.0
  0
LINE
  5
1AF
330
6C
100
AcDbEntity
  8
Visible Narrow (ISO)
100
AcDbLine
 10
-1299.105216503972
 20
4170.556337491762
 30
0.0
 11
-1335.561237130143
 21
4181.278210467329
 31
0.0
  0
LINE
  5
1B0
330
6C
100
AcDbEntity
  8
Visible Narrow (ISO)
100
AcDbLine
 10
-1168.185504381257
 20
4615.703536716587
 30
0.0
 11
-1204.641525007429
 21
4626.425409692154
 31
0.0
  0
LINE
  5
1B1
330
6C
100
AcDbEntity
  8
Visible Narrow (ISO)
100
AcDbLine
 10
-1227.103158212903
 20
4723.716082594251
 30
0.0
 11
-1237.825031188471
 21
4687.260061968079
 31
0.0
  0
LINE
  5
1B2
330
6C
100
AcDbEntity
  8
Visible Narrow (ISO)
100
AcDbLine
 10
-1567.603965954134
 20
4823.858839427635
 30
0.0
 11
-1578.325838929701
 21
4787.402818801463
 31
0.0
  0
LINE
  5
1B3
330
6C
100
AcDbEntity
  8
Visible Narrow (ISO)
100
AcDbLine
 10
-1675.616511831798
 20
4764.941185595989
 30
0.0
 11
-1639.160491205627
 21
4754.219312620421
 31
0.0
  0
LINE
  5
1B4
330
6C
100
AcDbEntity
  8
Visible Narrow (ISO)
100
AcDbLine
 10
-1806.536223954512
 20
4319.793986371164
 30
0.0
 11
-1770.080203328341
 21
4309.072113395597
 31
0.0
  0
LINE
  5
1B5
330
6C
100
AcDbEntity
  8
Visible Narrow (ISO)
100
AcDbLine
 10
-1867.370876230437
 20
4286.610480190122
 30
0.0
 11
-1878.092749206005
 21
4250.154459563951
 31
0.0
  0
LINE
  5
1B6
330
6C
100
AcDbEntity
  8
Visible Narrow (ISO)
100
AcDbLine
 10
-2207.871683971667
 20
4386.753237023508
 30
0.0
 11
-2218.593556947235
 21
4350.297216397335
 31
0.0
  0
LINE
  5
1B7
330
6C
100
AcDbEntity
  8
Visible Narrow (ISO)
100
AcDbLine
 10
-2241.055190152709
 20
4447.587889299432
 30
0.0
 11
-2277.51121077888
 21
4458.309762274999
 31
0.0
  0
LINE
  5
1B8
330
6C
100
AcDbEntity
  8
Visible Narrow (ISO)
100
AcDbLine
 10
-2110.135478029994
 20
4892.735088524257
 30
0.0
 11
-2146.591498656166
 21
4903.456961499824
 31
0.0
  0
LINE
  5
1B9
330
6C
100
AcDbEntity
  8
Visible Narrow (ISO)
100
AcDbLine
 10
-2169.05313186164
 20
5000.747634401921
 30
0.0
 11
-2179.775004837207
 21
4964.291613775749
 31
0.0
  0
LINE
  5
1BA
330
6C
100
AcDbEntity
  8
Visible Narrow (ISO)
100
AcDbLine
 10
-2509.553939602871
 20
5100.890391235306
 30
0.0
 11
-2520.275812578438
 21
5064.434370609133
 31
0.0
  0
LINE
  5
1BB
330
6C
100
AcDbEntity
  8
Visible Narrow (ISO)
100
AcDbLine
 10
-2617.566485480534
 20
5041.97273740366
 30
0.0
 11
-2581.110464854363
 21
5031.250864428091
 31
0.0
  0
LINE
  5
1BC
330
6C
100
AcDbEntity
  8
Visible (ISO)
100
AcDbLine
 10
-864.5862503057749
 20
4042.762434563494
 30
0.0
 11
-845.0061115307622
 21
4109.337924188467
 31
0.0
  0
ARC
  5
1BD
330
6C
100
AcDbEntity
  8
Visible (ISO)
100
AcDbCircle
 10
-911.5953295342583
 20
4056.588007610936
 30
0.0
 40
86.99999999999967
100
AcDbArc
 50
253.611162719042
 51
319.9419953474154
  0
ARC
  5
1BE
330
6C
100
AcDbEntity
  8
Visible (ISO)
100
AcDbCircle
 10
-911.5953295342583
 20
4056.588007610936
 30
0.0
 40
48.99999999999968
100
AcDbArc
 50
253.6111627190415
 51
343.6111627190419
  0
LINE
  5
1BF
330
6C
100
AcDbEntity
  8
Visible (ISO)
100
AcDbLine
 10
-1265.921710322931
 20
4109.721685215837
 30
0.0
 11
-925.4209025817006
 21
4009.578928382453
 31
0.0
  0
LINE
  5
1C0
330
6C
100
AcDbEntity
  8
Visible (ISO)
100
AcDbLine
 10
-1276.643583298498
 20
4073.265664589666
 30
0.0
 11
-936.1427755572671
 21
3973.122907756282
 31
0.0
  0
ARC
  5
1C1
330
6C
100
AcDbEntity
  8
Visible (ISO)
100
AcDbCircle
 10
-1252.096137275489
 20
4156.730764444321
 30
0.0
 40
86.99999999999983
100
AcDbArc
 50
163.6111627190425
 51
253.6111627190423
  0
ARC
  5
1C2
330
6C
100
AcDbEntity
  8
Visible (ISO)
100
AcDbCircle
 10
-1252.096137275489
 20
4156.730764444321
 30
0.0
 40
48.99999999999982
100
AcDbArc
 50
163.611162719042
 51
253.6111627190423
  0
LINE
  5
1C3
330
6C
100
AcDbEntity
  8
Visible (ISO)
100
AcDbLine
 10
-1168.185504381257
 20
4615.703536716587
 30
0.0
 11
-1225.416144647317
 21
4421.110539136507
 31
0.0
  0
LINE
  5
1C4
330
6C
100
AcDbEntity
  8
Visible (ISO)
100
AcDbLine
 10
-1242.882547162452
 20
4361.722078574831
 30
0.0
 11
-1299.105216503972
 21
4170.556337491762
 31
0.0
  0
LINE
  5
1C5
330
6C
100
AcDbEntity
  8
Visible (ISO)
100
AcDbLine
 10
-1204.641525007428
 20
4626.425409692154
 30
0.0
 11
-1275.660444960111
 21
4384.950136058218
 31
0.0
  0
LINE
  5
1C6
330
6C
100
AcDbEntity
  8
Visible (ISO)
100
AcDbLine
 10
-1293.126847475246
 20
4325.561675496543
 30
0.0
 11
-1335.561237130143
 21
4181.278210467329
 31
0.0
  0
ARC
  5
1C7
330
6C
100
AcDbEntity
  8
Visible (ISO)
100
AcDbCircle
 10
-1251.650604235912
 20
4640.250982739596
 30
0.0
 40
87.00000000000022
100
AcDbArc
 50
343.6111627190426
 51
73.61116271904238
  0
ARC
  5
1C8
330
6C
100
AcDbEntity
  8
Visible (ISO)
100
AcDbCircle
 10
-1251.650604235912
 20
4640.250982739596
 30
0.0
 40
49.00000000000021
100
AcDbArc
 50
343.6111627190422
 51
73.6111627190419
  0
LINE
  5
1C9
330
6C
100
AcDbEntity
  8
Visible (ISO)
100
AcDbLine
 10
-1567.603965954133
 20
4823.858839427635
 30
0.0
 11
-1227.103158212903
 21
4723.716082594251
 31
0.0
  0
LINE
  5
1CA
330
6C
100
AcDbEntity
  8
Visible (ISO)
100
AcDbLine
 10
-1578.325838929701
 20
4787.402818801465
 30
0.0
 11
-1237.825031188471
 21
4687.260061968079
 31
0.0
  0
ARC
  5
1CB
330
6C
100
AcDbEntity
  8
Visible (ISO)
100
AcDbCircle
 10
-1592.151411977143
 20
4740.393739572979
 30
0.0
 40
87.00000000000022
100
AcDbArc
 50
73.6111627190425
 51
163.6111627190426
  0
ARC
  5
1CC
330
6C
100
AcDbEntity
  8
Visible (ISO)
100
AcDbCircle
 10
-1592.151411977143
 20
4740.393739572979
 30
0.0
 40
49.00000000000022
100
AcDbArc
 50
73.61116271904188
 51
163.6111627190422
  0
LINE
  5
1CD
330
6C
100
AcDbEntity
  8
Visible (ISO)
100
AcDbLine
 10
-1806.536223954512
 20
4319.793986371164
 30
0.0
 11
-1742.309396583439
 21
4538.175098395998
 31
0.0
  0
LINE
  5
1CE
330
6C
100
AcDbEntity
  8
Visible (ISO)
100
AcDbLine
 10
-1722.150124001306
 20
4606.719732224208
 30
0.0
 11
-1675.616511831797
 21
4764.941185595989
 31
0.0
  0
LINE
  5
1CF
330
6C
100
AcDbEntity
  8
Visible (ISO)
100
AcDbLine
 10
-1770.080203328341
 20
4309.072113395597
 30
0.0
 11
-1722.924922780462
 21
4469.407335068507
 31
0.0
  0
LINE
  5
1D0
330
6C
100
AcDbEntity
  8
Visible (ISO)
100
AcDbLine
 10
-1702.76565019833
 20
4537.951968896718
 30
0.0
 11
-1639.160491205626
 21
4754.219312620421
 31
0.0
  0
ARC
  5
1D1
330
6C
100
AcDbEntity
  8
Visible (ISO)
100
AcDbCircle
 10
-1853.545303182995
 20
4333.619559418607
 30
0.0
 40
86.99999999999981
100
AcDbArc
 50
280.1563326657751
 51
343.6111627190421
  0
ARC
  5
1D2
330
6C
100
AcDbEntity
  8
Visible (ISO)
100
AcDbCircle
 10
-1853.545303182995
 20
4333.619559418607
 30
0.0
 40
86.99999999999985
100
AcDbArc
 50
253.6111627190423
 51
272.2009031761322
  0
ARC
  5
1D3
330
6C
100
AcDbEntity
  8
Visible (ISO)
100
AcDbCircle
 10
-1853.545303182995
 20
4333.619559418607
 30
0.0
 40
48.99999999999983
100
AcDbArc
 50
253.611162719042
 51
273.9097987556099
  0
ARC
  5
1D4
330
6C
100
AcDbEntity
  8
Visible (ISO)
100
AcDbCircle
 10
-1853.545303182995
 20
4333.619559418607
 30
0.0
 40
48.99999999999982
100
AcDbArc
 50
288.245177665595
 51
343.6111627190421
  0
LINE
  5
1D5
330
6C
100
AcDbEntity
  8
Visible (ISO)
100
AcDbLine
 10
-2207.871683971667
 20
4386.753237023508
 30
0.0
 11
-1867.370876230437
 21
4286.610480190122
 31
0.0
  0
LINE
  5
1D6
330
6C
100
AcDbEntity
  8
Visible (ISO)
100
AcDbLine
 10
-2218.593556947235
 20
4350.297216397337
 30
0.0
 11
-1878.092749206005
 21
4250.154459563952
 31
0.0
  0
ARC
  5
1D7
330
6C
100
AcDbEntity
  8
Visible (ISO)
100
AcDbCircle
 10
-2194.046110924226
 20
4433.76231625199
 30
0.0
 40
86.99999999999992
100
AcDbArc
 50
163.611162719042
 51
253.611162719042
  0
ARC
  5
1D8
330
6C
100
AcDbEntity
  8
Visible (ISO)
100
AcDbCircle
 10
-2194.046110924226
 20
4433.76231625199
 30
0.0
 40
48.99999999999989
100
AcDbArc
 50
163.6111627190421
 51
253.6111627190417
  0
LINE
  5
1D9
330
6C
100
AcDbEntity
  8
Visible (ISO)
100
AcDbLine
 10
-2110.135478029994
 20
4892.735088524258
 30
0.0
 11
-2153.94691370836
 21
4743.769454777961
 31
0.0
  0
LINE
  5
1DA
330
6C
100
AcDbEntity
  8
Visible (ISO)
100
AcDbLine
 10
-2171.413316223494
 20
4684.380994216286
 30
0.0
 11
-2241.055190152709
 21
4447.587889299432
 31
0.0
  0
LINE
  5
1DB
330
6C
100
AcDbEntity
  8
Visible (ISO)
100
AcDbLine
 10
-2146.591498656166
 20
4903.456961499824
 30
0.0
 11
-2204.191214021152
 21
4707.609051699672
 31
0.0
  0
LINE
  5
1DC
330
6C
100
AcDbEntity
  8
Visible (ISO)
100
AcDbLine
 10
-2221.657616536288
 20
4648.220591137996
 30
0.0
 11
-2277.51121077888
 21
4458.309762274999
 31
0.0
  0
ARC
  5
1DD
330
6C
100
AcDbEntity
  8
Visible (ISO)
100
AcDbCircle
 10
-2193.600577884649
 20
4917.282534547266
 30
0.0
 40
87.00000000000015
100
AcDbArc
 50
343.6111627190421
 51
73.61116271904238
  0
ARC
  5
1DE
330
6C
100
AcDbEntity
  8
Visible (ISO)
100
AcDbCircle
 10
-2193.600577884649
 20
4917.282534547266
 30
0.0
 40
49.00000000000014
100
AcDbArc
 50
343.611162719043
 51
73.61116271904247
  0
LINE
  5
1DF
330
6C
100
AcDbEntity
  8
Visible (ISO)
100
AcDbLine
 10
-2509.553939602871
 20
5100.890391235306
 30
0.0
 11
-2169.05313186164
 21
5000.747634401921
 31
0.0
  0
LINE
  5
1E0
330
6C
100
AcDbEntity
  8
Visible (ISO)
100
AcDbLine
 10
-2520.275812578438
 20
5064.434370609134
 30
0.0
 11
-2179.775004837207
 21
4964.291613775749
 31
0.0
  0
ARC
  5
1E1
330
6C
100
AcDbEntity
  8
Visible (ISO)
100
AcDbCircle
 10
-2534.101385625879
 20
5017.42529138065
 30
0.0
 40
87.00000000000013
100
AcDbArc
 50
73.61116271904238
 51
163.6111627190425
  0
ARC
  5
1E2
330
6C
100
AcDbEntity
  8
Visible (ISO)
100
AcDbCircle
 10
-2534.101385625879
 20
5017.42529138065
 30
0.0
 40
49.00000000000011
100
AcDbArc
 50
73.61116271904248
 51
163.6111627190421
  0
LINE
  5
1E3
330
6C
100
AcDbEntity
  8
Visible (ISO)
100
AcDbLine
 10
-2645.496421717286
 20
4947.006649495794
 30
0.0
 11
-2617.566485480534
 21
5041.97273740366
 31
0.0
  0
LINE
  5
1E4
330
6C
100
AcDbEntity
  8
Visible (ISO)
100
AcDbLine
 10
-2605.887051983625
 20
4947.006649495794
 30
0.0
 11
-2581.110464854363
 21
5031.250864428092
 31
0.0
  0
LINE
  5
1E5
330
6C
100
AcDbEntity
  8
Visible (ISO)
100
AcDbLine
 10
-745.0061115307625
 20
4292.006649495792
 30
0.0
 11
-748.0061115307624
 21
4292.006649495792
 31
0.0
  0
LINE
  5
1E6
330
6C
100
AcDbEntity
  8
Visible (ISO)
100
AcDbLine
 10
-842.0061115307625
 20
4292.006649495792
 30
0.0
 11
-845.0061115307624
 21
4292.006649495792
 31
0.0
  0
ARC
  5
1E7
330
6C
100
AcDbEntity
  8
Visible (ISO)
100
AcDbCircle
 10
-842.0061115307625
 20
4294.006649495794
 30
0.0
 40
3.000000000000001
100
AcDbArc
 50
90.0
 51
180.0
  0
LINE
  5
1E8
330
6C
100
AcDbEntity
  8
Visible Narrow (ISO)
100
AcDbLine
 10
-842.0061115307625
 20
4294.006649495794
 30
0.0
 11
-845.0061115307624
 21
4294.006649495794
 31
0.0
  0
LINE
  5
1E9
330
6C
100
AcDbEntity
  8
Visible Narrow (ISO)
100
AcDbLine
 10
-842.0061115307625
 20
4297.006649495794
 30
0.0
 11
-842.0061115307625
 21
4294.006649495794
 31
0.0
  0
LINE
  5
1EA
330
6C
100
AcDbEntity
  8
Visible Narrow (ISO)
100
AcDbLine
 10
-842.0061115307623
 20
4292.006649495792
 30
0.0
 11
-842.0061115307623
 21
4294.006649495794
 31
0.0
  0
LINE
  5
1EB
330
6C
100
AcDbEntity
  8
Visible (ISO)
100
AcDbLine
 10
-845.0061115307624
 20
4294.006649495794
 30
0.0
 11
-845.0061115307624
 21
4292.006649495792
 31
0.0
  0
LINE
  5
1EC
330
6C
100
AcDbEntity
  8
Visible Narrow (ISO)
100
AcDbLine
 10
-748.0061115307624
 20
4294.006649495794
 30
0.0
 11
-748.0061115307624
 21
4297.006649495794
 31
0.0
  0
LINE
  5
1ED
330
6C
100
AcDbEntity
  8
Visible Narrow (ISO)
100
AcDbLine
 10
-745.0061115307625
 20
4294.006649495794
 30
0.0
 11
-748.0061115307624
 21
4294.006649495794
 31
0.0
  0
ARC
  5
1EE
330
6C
100
AcDbEntity
  8
Visible (ISO)
100
AcDbCircle
 10
-748.0061115307624
 20
4294.006649495794
 30
0.0
 40
3.000000000000007
100
AcDbArc
 50
0.0
 51
90.0
  0
LINE
  5
1EF
330
6C
100
AcDbEntity
  8
Visible (ISO)
100
AcDbLine
 10
-745.0061115307625
 20
4292.006649495792
 30
0.0
 11
-745.0061115307625
 21
4294.006649495794
 31
0.0
  0
LINE
  5
1F0
330
6C
100
AcDbEntity
  8
Visible Narrow (ISO)
100
AcDbLine
 10
-748.0061115307626
 20
4294.006649495794
 30
0.0
 11
-748.0061115307626
 21
4292.006649495792
 31
0.0
  0
LINE
  5
1F1
330
6C
100
AcDbEntity
  8
Visible Narrow (ISO)
100
AcDbLine
 10
-842.0061115307623
 20
4294.006649495794
 30
0.0
 11
-837.860954869053
 21
4294.006649495794
 31
0.0
  0
LINE
  5
1F2
330
6C
100
AcDbEntity
  8
Visible Narrow (ISO)
100
AcDbLine
 10
-798.3801049302464
 20
4294.006649495794
 30
0.0
 11
-748.0061115307626
 21
4294.006649495794
 31
0.0
  0
LINE
  5
1F3
330
6C
100
AcDbEntity
  8
Visible (ISO)
100
AcDbLine
 10
-748.0061115307626
 20
4297.006649495792
 30
0.0
 11
-799.2257543827665
 21
4297.006649495792
 31
0.0
  0
LINE
  5
1F4
330
6C
100
AcDbEntity
  8
Visible (ISO)
100
AcDbLine
 10
-838.706604321573
 20
4297.006649495792
 30
0.0
 11
-842.0061115307623
 21
4297.006649495792
 31
0.0
  0
LINE
  5
1F5
330
6C
100
AcDbEntity
  8
Visible (ISO)
100
AcDbLine
 10
-748.0061115307626
 20
4292.006649495792
 30
0.0
 11
-797.8163386285663
 21
4292.006649495792
 31
0.0
  0
LINE
  5
1F6
330
6C
100
AcDbEntity
  8
Visible (ISO)
100
AcDbLine
 10
-837.2971885673729
 20
4292.006649495792
 30
0.0
 11
-842.0061115307623
 21
4292.006649495792
 31
0.0
  0
LINE
  5
1F7
330
6C
100
AcDbEntity
  8
Visible (ISO)
100
AcDbLine
 10
-2600.690603629375
 20
4942.006649495794
 30
0.0
 11
-2603.690603629375
 21
4942.006649495794
 31
0.0
  0
LINE
  5
1F8
330
6C
100
AcDbEntity
  8
Visible (ISO)
100
AcDbLine
 10
-2697.690603629375
 20
4942.006649495794
 30
0.0
 11
-2700.690603629375
 21
4942.006649495794
 31
0.0
  0
ARC
  5
1F9
330
6C
100
AcDbEntity
  8
Visible (ISO)
100
AcDbCircle
 10
-2697.690603629375
 20
4944.006649495793
 30
0.0
 40
3.000000000000001
100
AcDbArc
 50
90.0
 51
180.0
  0
LINE
  5
1FA
330
6C
100
AcDbEntity
  8
Visible Narrow (ISO)
100
AcDbLine
 10
-2697.690603629375
 20
4944.006649495793
 30
0.0
 11
-2700.690603629375
 21
4944.006649495793
 31
0.0
  0
LINE
  5
1FB
330
6C
100
AcDbEntity
  8
Visible Narrow (ISO)
100
AcDbLine
 10
-2697.690603629375
 20
4947.006649495794
 30
0.0
 11
-2697.690603629375
 21
4944.006649495793
 31
0.0
  0
LINE
  5
1FC
330
6C
100
AcDbEntity
  8
Visible Narrow (ISO)
100
AcDbLine
 10
-2697.690603629375
 20
4942.006649495794
 30
0.0
 11
-2697.690603629375
 21
4944.006649495793
 31
0.0
  0
LINE
  5
1FD
330
6C
100
AcDbEntity
  8
Visible (ISO)
100
AcDbLine
 10
-2700.690603629375
 20
4944.006649495793
 30
0.0
 11
-2700.690603629375
 21
4942.006649495794
 31
0.0
  0
LINE
  5
1FE
330
6C
100
AcDbEntity
  8
Visible Narrow (ISO)
100
AcDbLine
 10
-2603.690603629375
 20
4944.006649495793
 30
0.0
 11
-2603.690603629375
 21
4947.006649495794
 31
0.0
  0
LINE
  5
1FF
330
6C
100
AcDbEntity
  8
Visible Narrow (ISO)
100
AcDbLine
 10
-2600.690603629375
 20
4944.006649495793
 30
0.0
 11
-2603.690603629375
 21
4944.006649495793
 31
0.0
  0
ARC
  5
200
330
6C
100
AcDbEntity
  8
Visible (ISO)
100
AcDbCircle
 10
-2603.690603629375
 20
4944.006649495793
 30
0.0
 40
3.000000000000007
100
AcDbArc
 50
0.0
 51
90.0
  0
LINE
  5
201
330
6C
100
AcDbEntity
  8
Visible (ISO)
100
AcDbLine
 10
-2600.690603629375
 20
4942.006649495794
 30
0.0
 11
-2600.690603629375
 21
4944.006649495793
 31
0.0
  0
LINE
  5
202
330
6C
100
AcDbEntity
  8
Visible Narrow (ISO)
100
AcDbLine
 10
-2603.690603629375
 20
4944.006649495793
 30
0.0
 11
-2603.690603629375
 21
4942.006649495794
 31
0.0
  0
LINE
  5
203
330
6C
100
AcDbEntity
  8
Visible Narrow (ISO)
100
AcDbLine
 10
-2697.690603629375
 20
4944.006649495793
 30
0.0
 11
-2603.690603629375
 21
4944.006649495793
 31
0.0
  0
LINE
  5
204
330
6C
100
AcDbEntity
  8
Visible (ISO)
100
AcDbLine
 10
-2603.690603629375
 20
4947.006649495794
 30
0.0
 11
-2697.690603629375
 21
4947.006649495794
 31
0.0
  0
LINE
  5
205
330
6C
100
AcDbEntity
  8
Visible (ISO)
100
AcDbLine
 10
-2603.690603629375
 20
4942.006649495794
 30
0.0
 11
-2697.690603629375
 21
4942.006649495794
 31
0.0
  0
CIRCLE
  5
206
330
6C
100
AcDbEntity
  8
Visible (ISO)
100
AcDbCircle
 10
-2648.813450974394
 20
4859.666500374505
 30
0.0
 40
19.0
  0
CIRCLE
  5
207
330
6C
100
AcDbEntity
  8
Visible Narrow (ISO)
100
AcDbCircle
 10
-2648.813450974394
 20
4859.666500374505
 30
0.0
 40
17.0
  0
CIRCLE
  5
208
330
6C
100
AcDbEntity
  8
Visible (ISO)
100
AcDbCircle
 10
-795.0061115307625
 20
4212.006649495793
 30
0.0
 40
19.0
  0
CIRCLE
  5
209
330
6C
100
AcDbEntity
  8
Visible Narrow (ISO)
100
AcDbCircle
 10
-795.0061115307625
 20
4212.006649495793
 30
0.0
 40
17.0
  0
ARC
  5
20A
330
6C
100
AcDbEntity
  8
Visible (ISO)
100
AcDbCircle
 10
-1564.814259814197
 20
4192.589737975071
 30
0.0
 40
5.999999999999965
100
AcDbArc
 50
0.0
 51
180.0
  0
ARC
  5
20B
330
6C
100
AcDbEntity
  8
Visible (ISO)
100
AcDbCircle
 10
-1564.814259814197
 20
4092.58973797507
 30
0.0
 40
5.999999999999965
100
AcDbArc
 50
180.0
 51
0.0
  0
LINE
  5
20C
330
6C
100
AcDbEntity
  8
Visible (ISO)
100
AcDbLine
 10
-1570.814259814197
 20
4192.589737975071
 30
0.0
 11
-1570.814259814197
 21
4092.58973797507
 31
0.0
  0
LINE
  5
20D
330
6C
100
AcDbEntity
  8
Visible (ISO)
100
AcDbLine
 10
-1558.814259814197
 20
4092.58973797507
 30
0.0
 11
-1558.814259814197
 21
4192.589737975071
 31
0.0
  0
ARC
  5
20E
330
6C
100
AcDbEntity
  8
Visible (ISO)
100
AcDbCircle
 10
-1844.204193388085
 20
4289.949103636355
 30
0.0
 40
5.999999999999968
100
AcDbArc
 50
0.0
 51
180.0
  0
ARC
  5
20F
330
6C
100
AcDbEntity
  8
Visible (ISO)
100
AcDbCircle
 10
-1844.204193388085
 20
4189.949103636354
 30
0.0
 40
5.999999999999968
100
AcDbArc
 50
180.0
 51
0.0
  0
LINE
  5
210
330
6C
100
AcDbEntity
  8
Visible (ISO)
100
AcDbLine
 10
-1850.204193388085
 20
4289.949103636355
 30
0.0
 11
-1850.204193388085
 21
4189.949103636354
 31
0.0
  0
LINE
  5
211
330
6C
100
AcDbEntity
  8
Visible (ISO)
100
AcDbLine
 10
-1838.204193388085
 20
4189.949103636354
 30
0.0
 11
-1838.204193388085
 21
4289.949103636355
 31
0.0
  0
LINE
  5
212
330
6C
100
AcDbEntity
  8
Visible (ISO)
100
AcDbLine
 10
-1570.814259814197
 20
4086.58973797507
 30
0.0
 11
-1558.814259814197
 21
4086.58973797507
 31
0.0
  0
LINE
  5
213
330
6C
100
AcDbEntity
  8
Visible (ISO)
100
AcDbLine
 10
-1570.814259814197
 20
4081.58973797507
 30
0.0
 11
-1570.814259814197
 21
4086.58973797507
 31
0.0
  0
LINE
  5
214
330
6C
100
AcDbEntity
  8
Visible (ISO)
100
AcDbLine
 10
-1558.814259814197
 20
4081.58973797507
 30
0.0
 11
-1558.814259814197
 21
4086.58973797507
 31
0.0
  0
LINE
  5
215
330
6C
100
AcDbEntity
  8
Visible (ISO)
100
AcDbLine
 10
-1850.204193388085
 20
4183.949103636355
 30
0.0
 11
-1838.204193388085
 21
4183.949103636355
 31
0.0
  0
LINE
  5
216
330
6C
100
AcDbEntity
  8
Visible (ISO)
100
AcDbLine
 10
-1850.204193388085
 20
4178.949103636354
 30
0.0
 11
-1850.204193388085
 21
4183.949103636355
 31
0.0
  0
LINE
  5
217
330
6C
100
AcDbEntity
  8
Visible (ISO)
100
AcDbLine
 10
-1838.204193388085
 20
4178.949103636354
 30
0.0
 11
-1838.204193388085
 21
4183.949103636355
 31
0.0
  0
LINE
  5
218
330
6C
100
AcDbEntity
  8
Visible Narrow (ISO)
100
AcDbLine
 10
-1547.814259814197
 20
4071.589737975069
 30
0.0
 11
-1581.814259814197
 21
4071.589737975069
 31
0.0
  0
LINE
  5
219
330
6C
100
AcDbEntity
  8
Visible (ISO)
100
AcDbLine
 10
-1543.814259814197
 20
4073.589737975069
 30
0.0
 11
-1585.814259814197
 21
4073.589737975069
 31
0.0
  0
LINE
  5
21A
330
6C
100
AcDbEntity
  8
Visible Narrow (ISO)
100
AcDbLine
 10
-1587.814259814197
 20
4075.58973797507
 30
0.0
 11
-1541.814259814197
 21
4075.58973797507
 31
0.0
  0
ARC
  5
21B
330
6C
100
AcDbEntity
  8
Visible (ISO)
100
AcDbCircle
 10
-1545.814259814197
 20
4071.589737975069
 30
0.0
 40
1.999999999999987
100
AcDbArc
 50
90.0
 51
180.0
  0
ARC
  5
21C
330
6C
100
AcDbEntity
  8
Visible (ISO)
100
AcDbCircle
 10
-1583.814259814197
 20
4071.589737975069
 30
0.0
 40
1.999999999999987
100
AcDbArc
 50
0.0
 51
90.0
  0
ARC
  5
21D
330
6C
100
AcDbEntity
  8
Visible (ISO)
100
AcDbCircle
 10
-1543.814259814197
 20
4075.58973797507
 30
0.0
 40
1.999999999999987
100
AcDbArc
 50
270.0
 51
0.0
  0
ARC
  5
21E
330
6C
100
AcDbEntity
  8
Visible (ISO)
100
AcDbCircle
 10
-1585.814259814197
 20
4075.58973797507
 30
0.0
 40
1.999999999999987
100
AcDbArc
 50
180.0
 51
270.0
  0
LINE
  5
21F
330
6C
100
AcDbEntity
  8
Visible (ISO)
100
AcDbLine
 10
-1547.814259814197
 20
3990.289737975071
 30
0.0
 11
-1581.814259814197
 21
3990.289737975071
 31
0.0
  0
LINE
  5
220
330
6C
100
AcDbEntity
  8
Visible (ISO)
100
AcDbLine
 10
-1541.814259814197
 20
4081.58973797507
 30
0.0
 11
-1587.814259814197
 21
4081.58973797507
 31
0.0
  0
LINE
  5
221
330
6C
100
AcDbEntity
  8
Visible (ISO)
100
AcDbLine
 10
-1581.814259814197
 20
3990.289737975071
 30
0.0
 11
-1581.814259814197
 21
4071.589737975069
 31
0.0
  0
LINE
  5
222
330
6C
100
AcDbEntity
  8
Visible (ISO)
100
AcDbLine
 10
-1547.814259814197
 20
3990.289737975071
 30
0.0
 11
-1547.814259814197
 21
4071.589737975069
 31
0.0
  0
LINE
  5
223
330
6C
100
AcDbEntity
  8
Visible (ISO)
100
AcDbLine
 10
-1587.814259814197
 20
4075.58973797507
 30
0.0
 11
-1587.814259814197
 21
4081.589737975069
 31
0.0
  0
LINE
  5
224
330
6C
100
AcDbEntity
  8
Visible (ISO)
100
AcDbLine
 10
-1541.814259814197
 20
4075.58973797507
 30
0.0
 11
-1541.814259814197
 21
4081.58973797507
 31
0.0
  0
LINE
  5
225
330
6C
100
AcDbEntity
  8
Visible Narrow (ISO)
100
AcDbLine
 10
-1827.204193388085
 20
4168.949103636355
 30
0.0
 11
-1861.204193388084
 21
4168.949103636355
 31
0.0
  0
LINE
  5
226
330
6C
100
AcDbEntity
  8
Visible (ISO)
100
AcDbLine
 10
-1823.204193388085
 20
4170.949103636355
 30
0.0
 11
-1865.204193388084
 21
4170.949103636355
 31
0.0
  0
LINE
  5
227
330
6C
100
AcDbEntity
  8
Visible Narrow (ISO)
100
AcDbLine
 10
-1867.204193388085
 20
4172.949103636355
 30
0.0
 11
-1821.204193388085
 21
4172.949103636355
 31
0.0
  0
ARC
  5
228
330
6C
100
AcDbEntity
  8
Visible (ISO)
100
AcDbCircle
 10
-1825.204193388085
 20
4168.949103636355
 30
0.0
 40
1.999999999999988
100
AcDbArc
 50
90.0
 51
180.0
  0
ARC
  5
229
330
6C
100
AcDbEntity
  8
Visible (ISO)
100
AcDbCircle
 10
-1863.204193388085
 20
4168.949103636355
 30
0.0
 40
1.999999999999988
100
AcDbArc
 50
0.0
 51
90.0
  0
ARC
  5
22A
330
6C
100
AcDbEntity
  8
Visible (ISO)
100
AcDbCircle
 10
-1823.204193388084
 20
4172.949103636355
 30
0.0
 40
1.999999999999988
100
AcDbArc
 50
270.0
 51
0.0
  0
ARC
  5
22B
330
6C
100
AcDbEntity
  8
Visible (ISO)
100
AcDbCircle
 10
-1865.204193388085
 20
4172.949103636355
 30
0.0
 40
1.999999999999988
100
AcDbArc
 50
180.0
 51
270.0
  0
LINE
  5
22C
330
6C
100
AcDbEntity
  8
Visible (ISO)
100
AcDbLine
 10
-1827.204193388085
 20
4087.649103636355
 30
0.0
 11
-1861.204193388084
 21
4087.649103636355
 31
0.0
  0
LINE
  5
22D
330
6C
100
AcDbEntity
  8
Visible (ISO)
100
AcDbLine
 10
-1821.204193388085
 20
4178.949103636354
 30
0.0
 11
-1867.204193388085
 21
4178.949103636354
 31
0.0
  0
LINE
  5
22E
330
6C
100
AcDbEntity
  8
Visible (ISO)
100
AcDbLine
 10
-1861.204193388084
 20
4087.649103636355
 30
0.0
 11
-1861.204193388084
 21
4168.949103636355
 31
0.0
  0
LINE
  5
22F
330
6C
100
AcDbEntity
  8
Visible (ISO)
100
AcDbLine
 10
-1827.204193388085
 20
4087.649103636355
 30
0.0
 11
-1827.204193388085
 21
4168.949103636355
 31
0.0
  0
LINE
  5
230
330
6C
100
AcDbEntity
  8
Visible (ISO)
100
AcDbLine
 10
-1867.204193388085
 20
4172.949103636355
 30
0.0
 11
-1867.204193388085
 21
4178.949103636354
 31
0.0
  0
LINE
  5
231
330
6C
100
AcDbEntity
  8
Visible (ISO)
100
AcDbLine
 10
-1821.204193388085
 20
4172.949103636355
 30
0.0
 11
-1821.204193388085
 21
4178.949103636354
 31
0.0
  0
LINE
  5
232
330
6C
100
AcDbEntity
  8
Visible (ISO)
100
AcDbLine
 10
-2560.690603629375
 20
3292.006649495793
 30
0.0
 11
-2740.690603629375
 21
3292.006649495793
 31
0.0
  0
LINE
  5
233
330
6C
100
AcDbEntity
  8
Visible (ISO)
100
AcDbLine
 10
-2520.690603629375
 20
3062.006649495793
 30
0.0
 11
-2780.690603629375
 21
3062.006649495793
 31
0.0
  0
LINE
  5
234
330
6C
100
AcDbEntity
  8
Visible (ISO)
100
AcDbLine
 10
-2520.690603629375
 20
3062.006649495793
 30
0.0
 11
-2560.690603629375
 21
3292.006649495793
 31
0.0
  0
LINE
  5
235
330
6C
100
AcDbEntity
  8
Visible (ISO)
100
AcDbLine
 10
-2780.690603629375
 20
3062.006649495793
 30
0.0
 11
-2740.690603629375
 21
3292.006649495793
 31
0.0
  0
LINE
  5
236
330
6C
100
AcDbEntity
  8
Visible (ISO)
100
AcDbLine
 10
-705.0061115307629
 20
3292.006649495793
 30
0.0
 11
-885.0061115307626
 21
3292.006649495793
 31
0.0
  0
LINE
  5
237
330
6C
100
AcDbEntity
  8
Visible (ISO)
100
AcDbLine
 10
-665.0061115307634
 20
3062.006649495793
 30
0.0
 11
-925.0061115307623
 21
3062.006649495793
 31
0.0
  0
LINE
  5
238
330
6C
100
AcDbEntity
  8
Visible (ISO)
100
AcDbLine
 10
-925.0061115307623
 20
3062.006649495793
 30
0.0
 11
-885.0061115307628
 21
3292.006649495793
 31
0.0
  0
LINE
  5
239
330
6C
100
AcDbEntity
  8
Visible (ISO)
100
AcDbLine
 10
-665.0061115307634
 20
3062.006649495793
 30
0.0
 11
-705.006111530763
 21
3292.006649495793
 31
0.0
  0
LINE
  5
23A
330
6C
100
AcDbEntity
  8
Visible (ISO)
100
AcDbLine
 10
-810.0061115307626
 20
3335.006649495793
 30
0.0
 11
-780.0061115307626
 21
3335.006649495793
 31
0.0
  0
LINE
  5
23B
330
6C
100
AcDbEntity
  8
Visible (ISO)
100
AcDbLine
 10
-810.0061115307626
 20
3332.006649495793
 30
0.0
 11
-810.0061115307626
 21
3335.006649495793
 31
0.0
  0
LINE
  5
23C
330
6C
100
AcDbEntity
  8
Visible (ISO)
100
AcDbLine
 10
-780.0061115307626
 20
3332.006649495793
 30
0.0
 11
-780.0061115307626
 21
3335.006649495793
 31
0.0
  0
LINE
  5
23D
330
6C
100
AcDbEntity
  8
Visible (ISO)
100
AcDbLine
 10
-2665.690603629375
 20
3335.006649495794
 30
0.0
 11
-2635.690603629375
 21
3335.006649495794
 31
0.0
  0
LINE
  5
23E
330
6C
100
AcDbEntity
  8
Visible (ISO)
100
AcDbLine
 10
-2665.690603629375
 20
3332.006649495794
 30
0.0
 11
-2665.690603629375
 21
3335.006649495794
 31
0.0
  0
LINE
  5
23F
330
6C
100
AcDbEntity
  8
Visible (ISO)
100
AcDbLine
 10
-2635.690603629375
 20
3332.006649495794
 30
0.0
 11
-2635.690603629375
 21
3335.006649495794
 31
0.0
  0
SPLINE
  5
240
330
6C
100
AcDbEntity
  8
Visible (ISO)
100
AcDbSpline
210
0.0
220
0.0
230
1.0
 70
    12
 71
     2
 72
     6
 73
     3
 74
     0
 42
0.0000000001
 43
0.0000000001
 40
0.702851662530288
 40
0.702851662530288
 40
0.702851662530288
 40
1.405703325060575
 40
1.405703325060575
 40
1.405703325060575
 10
-2640.298298783962
 20
3345.006749495794
 30
0.0
 41
1.0
 10
-2641.905993938549
 20
3345.006749495794
 30
0.0
 41
1.037954849302044
 10
-2643.7624003991
 20
3343.934952726069
 30
0.0
 41
1.0
  0
LINE
  5
241
330
6C
100
AcDbEntity
  8
Visible (ISO)
100
AcDbLine
 10
-2640.298298783962
 20
3345.006749495794
 30
0.0
 11
-2650.690603629375
 21
3345.006749495794
 31
0.0
  0
SPLINE
  5
242
330
6C
100
AcDbEntity
  8
Visible (ISO)
100
AcDbSpline
210
0.0
220
0.0
230
1.0
 70
    12
 71
     2
 72
     6
 73
     3
 74
     0
 42
0.0000000001
 43
0.0000000001
 40
0.0
 40
0.0
 40
0.0
 40
0.7028516625302875
 40
0.7028516625302875
 40
0.7028516625302875
 10
-2643.7624003991
 20
3343.934952726069
 30
0.0
 41
1.0
 10
-2647.475213320201
 20
3345.006749495794
 30
0.0
 41
1.037954849302029
 10
-2650.690603629375
 20
3345.006749495794
 30
0.0
 41
1.0
  0
SPLINE
  5
243
330
6C
100
AcDbEntity
  8
Visible (ISO)
100
AcDbSpline
210
0.0
220
0.0
230
1.0
 70
    12
 71
     2
 72
     6
 73
     3
 74
     0
 42
0.0000000001
 43
0.0000000001
 40
0.0
 40
0.0
 40
0.0
 40
0.7028516625302875
 40
0.7028516625302875
 40
0.7028516625302875
 10
-2657.61880685965
 20
3343.934952726069
 30
0.0
 41
1.0
 10
-2659.475213320201
 20
3345.006749495794
 30
0.0
 41
1.037954849302054
 10
-2661.082908474788
 20
3345.006749495794
 30
0.0
 41
1.0
  0
SPLINE
  5
244
330
6C
100
AcDbEntity
  8
Visible (ISO)
100
AcDbSpline
210
0.0
220
0.0
230
1.0
 70
    12
 71
     2
 72
     6
 73
     3
 74
     0
 42
0.0000000001
 43
0.0000000001
 40
0.7028516625302875
 40
0.7028516625302875
 40
0.7028516625302875
 40
1.405703325060575
 40
1.405703325060575
 40
1.405703325060575
 10
-2650.690603629375
 20
3345.006749495794
 30
0.0
 41
1.0
 10
-2653.905993938549
 20
3345.006749495794
 30
0.0
 41
1.037954849302052
 10
-2657.61880685965
 20
3343.934952726069
 30
0.0
 41
1.0
  0
LINE
  5
245
330
6C
100
AcDbEntity
  8
Visible (ISO)
100
AcDbLine
 10
-2650.690603629375
 20
3345.006749495794
 30
0.0
 11
-2661.082908474788
 21
3345.006749495794
 31
0.0
  0
LINE
  5
246
330
6C
100
AcDbEntity
  8
Visible (ISO)
100
AcDbLine
 10
-2638.690603629375
 20
3345.006749495794
 30
0.0
 11
-2640.298298783962
 21
3345.006749495794
 31
0.0
  0
SPLINE
  5
247
330
6C
100
AcDbEntity
  8
Visible (ISO)
100
AcDbSpline
210
0.0
220
0.0
230
1.0
 70
    12
 71
     2
 72
     6
 73
     3
 74
     0
 42
0.0000000001
 43
0.0000000001
 40
0.0
 40
0.0
 40
0.0
 40
0.702851662530288
 40
0.702851662530288
 40
0.702851662530288
 10
-2636.834197168824
 20
3343.934952726069
 30
0.0
 41
1.0
 10
-2638.690603629375
 20
3345.006749495794
 30
0.0
 41
1.037954849302047
 10
-2640.298298783962
 20
3345.006749495794
 30
0.0
 41
1.0
  0
SPLINE
  5
248
330
6C
100
AcDbEntity
  8
Visible (ISO)
100
AcDbSpline
210
0.0
220
0.0
230
1.0
 70
    12
 71
     2
 72
     6
 73
     3
 74
     0
 42
0.0000000001
 43
0.0000000001
 40
0.7028516625302875
 40
0.7028516625302875
 40
0.7028516625302875
 40
1.405703325060574
 40
1.405703325060574
 40
1.405703325060574
 10
-2661.082908474788
 20
3345.006749495794
 30
0.0
 41
1.0
 10
-2662.690603629375
 20
3345.006749495794
 30
0.0
 41
1.03795484930206
 10
-2664.547010089926
 20
3343.934952726069
 30
0.0
 41
1.0
  0
LINE
  5
249
330
6C
100
AcDbEntity
  8
Visible (ISO)
100
AcDbLine
 10
-2661.082908474789
 20
3345.006749495794
 30
0.0
 11
-2662.690603629375
 21
3345.006749495794
 31
0.0
  0
LINE
  5
24A
330
6C
100
AcDbEntity
  8
Visible (ISO)
100
AcDbLine
 10
-2638.690603629375
 20
3345.006749495794
 30
0.0
 11
-2636.834197168824
 21
3343.934952726069
 31
0.0
  0
LINE
  5
24B
330
6C
100
AcDbEntity
  8
Visible (ISO)
100
AcDbLine
 10
-2662.690603629375
 20
3345.006749495794
 30
0.0
 11
-2664.547010089926
 21
3343.934952726069
 31
0.0
  0
LINE
  5
24C
330
6C
100
AcDbEntity
  8
Visible (ISO)
100
AcDbLine
 10
-2636.834197168824
 20
3335.806749495794
 30
0.0
 11
-2636.834197168824
 21
3343.934952726069
 31
0.0
  0
LINE
  5
24D
330
6C
100
AcDbEntity
  8
Visible (ISO)
100
AcDbLine
 10
-2643.7624003991
 20
3335.806749495794
 30
0.0
 11
-2643.7624003991
 21
3343.934952726069
 31
0.0
  0
LINE
  5
24E
330
6C
100
AcDbEntity
  8
Visible (ISO)
100
AcDbLine
 10
-2636.834197168824
 20
3335.806749495794
 30
0.0
 11
-2643.7624003991
 21
3335.806749495794
 31
0.0
  0
LINE
  5
24F
330
6C
100
AcDbEntity
  8
Visible (ISO)
100
AcDbLine
 10
-2643.7624003991
 20
3335.806749495794
 30
0.0
 11
-2657.61880685965
 21
3335.806749495794
 31
0.0
  0
LINE
  5
250
330
6C
100
AcDbEntity
  8
Visible (ISO)
100
AcDbLine
 10
-2657.61880685965
 20
3335.806749495794
 30
0.0
 11
-2664.547010089926
 21
3335.806749495794
 31
0.0
  0
LINE
  5
251
330
6C
100
AcDbEntity
  8
Visible (ISO)
100
AcDbLine
 10
-2657.61880685965
 20
3335.806749495794
 30
0.0
 11
-2657.61880685965
 21
3343.934952726069
 31
0.0
  0
LINE
  5
252
330
6C
100
AcDbEntity
  8
Visible (ISO)
100
AcDbLine
 10
-2664.547010089926
 20
3335.806749495794
 30
0.0
 11
-2664.547010089926
 21
3343.934952726069
 31
0.0
  0
LINE
  5
253
330
6C
100
AcDbEntity
  8
Visible (ISO)
100
AcDbLine
 10
-2639.690603629375
 20
3335.806749495794
 30
0.0
 11
-2639.690603629375
 21
3335.006649495794
 31
0.0
  0
LINE
  5
254
330
6C
100
AcDbEntity
  8
Visible (ISO)
100
AcDbLine
 10
-2661.690603629375
 20
3335.806749495794
 30
0.0
 11
-2661.690603629375
 21
3335.006649495794
 31
0.0
  0
SPLINE
  5
255
330
6C
100
AcDbEntity
  8
Visible (ISO)
100
AcDbSpline
210
0.0
220
0.0
230
1.0
 70
    12
 71
     2
 72
     6
 73
     3
 74
     0
 42
0.0000000001
 43
0.0000000001
 40
0.702851662530288
 40
0.702851662530288
 40
0.702851662530288
 40
1.405703325060575
 40
1.405703325060575
 40
1.405703325060575
 10
-784.6138066853495
 20
3345.006749495793
 30
0.0
 41
1.0
 10
-786.2215018399361
 20
3345.006749495793
 30
0.0
 41
1.037954849302044
 10
-788.0779083004871
 20
3343.934952726068
 30
0.0
 41
1.0
  0
LINE
  5
256
330
6C
100
AcDbEntity
  8
Visible (ISO)
100
AcDbLine
 10
-784.6138066853493
 20
3345.006749495793
 30
0.0
 11
-795.0061115307626
 21
3345.006749495793
 31
0.0
  0
SPLINE
  5
257
330
6C
100
AcDbEntity
  8
Visible (ISO)
100
AcDbSpline
210
0.0
220
0.0
230
1.0
 70
    12
 71
     2
 72
     6
 73
     3
 74
     0
 42
0.0000000001
 43
0.0000000001
 40
0.0
 40
0.0
 40
0.0
 40
0.7028516625302875
 40
0.7028516625302875
 40
0.7028516625302875
 10
-788.0779083004871
 20
3343.934952726068
 30
0.0
 41
1.0
 10
-791.7907212215891
 20
3345.006749495793
 30
0.0
 41
1.037954849302029
 10
-795.0061115307626
 20
3345.006749495793
 30
0.0
 41
1.0
  0
SPLINE
  5
258
330
6C
100
AcDbEntity
  8
Visible (ISO)
100
AcDbSpline
210
0.0
220
0.0
230
1.0
 70
    12
 71
     2
 72
     6
 73
     3
 74
     0
 42
0.0000000001
 43
0.0000000001
 40
0.0
 40
0.0
 40
0.0
 40
0.7028516625302875
 40
0.7028516625302875
 40
0.7028516625302875
 10
-801.9343147610381
 20
3343.934952726068
 30
0.0
 41
1.0
 10
-803.7907212215891
 20
3345.006749495793
 30
0.0
 41
1.037954849302054
 10
-805.3984163761759
 20
3345.006749495793
 30
0.0
 41
1.0
  0
SPLINE
  5
259
330
6C
100
AcDbEntity
  8
Visible (ISO)
100
AcDbSpline
210
0.0
220
0.0
230
1.0
 70
    12
 71
     2
 72
     6
 73
     3
 74
     0
 42
0.0000000001
 43
0.0000000001
 40
0.7028516625302875
 40
0.7028516625302875
 40
0.7028516625302875
 40
1.405703325060575
 40
1.405703325060575
 40
1.405703325060575
 10
-795.0061115307626
 20
3345.006749495793
 30
0.0
 41
1.0
 10
-798.2215018399361
 20
3345.006749495793
 30
0.0
 41
1.037954849302052
 10
-801.9343147610381
 20
3343.934952726068
 30
0.0
 41
1.0
  0
LINE
  5
25A
330
6C
100
AcDbEntity
  8
Visible (ISO)
100
AcDbLine
 10
-795.0061115307625
 20
3345.006749495793
 30
0.0
 11
-805.3984163761759
 21
3345.006749495793
 31
0.0
  0
LINE
  5
25B
330
6C
100
AcDbEntity
  8
Visible (ISO)
100
AcDbLine
 10
-783.0061115307625
 20
3345.006749495793
 30
0.0
 11
-784.6138066853493
 21
3345.006749495793
 31
0.0
  0
SPLINE
  5
25C
330
6C
100
AcDbEntity
  8
Visible (ISO)
100
AcDbSpline
210
0.0
220
0.0
230
1.0
 70
    12
 71
     2
 72
     6
 73
     3
 74
     0
 42
0.0000000001
 43
0.0000000001
 40
0.0
 40
0.0
 40
0.0
 40
0.702851662530288
 40
0.702851662530288
 40
0.702851662530288
 10
-781.1497050702116
 20
3343.934952726068
 30
0.0
 41
1.0
 10
-783.0061115307626
 20
3345.006749495793
 30
0.0
 41
1.037954849302047
 10
-784.6138066853495
 20
3345.006749495793
 30
0.0
 41
1.0
  0
SPLINE
  5
25D
330
6C
100
AcDbEntity
  8
Visible (ISO)
100
AcDbSpline
210
0.0
220
0.0
230
1.0
 70
    12
 71
     2
 72
     6
 73
     3
 74
     0
 42
0.0000000001
 43
0.0000000001
 40
0.7028516625302875
 40
0.7028516625302875
 40
0.7028516625302875
 40
1.405703325060574
 40
1.405703325060574
 40
1.405703325060574
 10
-805.3984163761759
 20
3345.006749495793
 30
0.0
 41
1.0
 10
-807.0061115307625
 20
3345.006749495793
 30
0.0
 41
1.03795484930206
 10
-808.8625179913135
 20
3343.934952726068
 30
0.0
 41
1.0
  0
LINE
  5
25E
330
6C
100
AcDbEntity
  8
Visible (ISO)
100
AcDbLine
 10
-805.3984163761759
 20
3345.006749495793
 30
0.0
 11
-807.0061115307627
 21
3345.006749495793
 31
0.0
  0
LINE
  5
25F
330
6C
100
AcDbEntity
  8
Visible (ISO)
100
AcDbLine
 10
-783.0061115307625
 20
3345.006749495793
 30
0.0
 11
-781.1497050702118
 21
3343.934952726068
 31
0.0
  0
LINE
  5
260
330
6C
100
AcDbEntity
  8
Visible (ISO)
100
AcDbLine
 10
-807.0061115307627
 20
3345.006749495793
 30
0.0
 11
-808.8625179913135
 21
3343.934952726068
 31
0.0
  0
LINE
  5
261
330
6C
100
AcDbEntity
  8
Visible (ISO)
100
AcDbLine
 10
-781.1497050702118
 20
3335.806749495793
 30
0.0
 11
-781.1497050702118
 21
3343.934952726068
 31
0.0
  0
LINE
  5
262
330
6C
100
AcDbEntity
  8
Visible (ISO)
100
AcDbLine
 10
-788.0779083004871
 20
3335.806749495793
 30
0.0
 11
-788.0779083004871
 21
3343.934952726068
 31
0.0
  0
LINE
  5
263
330
6C
100
AcDbEntity
  8
Visible (ISO)
100
AcDbLine
 10
-781.1497050702118
 20
3335.806749495793
 30
0.0
 11
-788.0779083004871
 21
3335.806749495793
 31
0.0
  0
LINE
  5
264
330
6C
100
AcDbEntity
  8
Visible (ISO)
100
AcDbLine
 10
-788.0779083004871
 20
3335.806749495793
 30
0.0
 11
-801.9343147610381
 21
3335.806749495793
 31
0.0
  0
LINE
  5
265
330
6C
100
AcDbEntity
  8
Visible (ISO)
100
AcDbLine
 10
-801.9343147610381
 20
3335.806749495793
 30
0.0
 11
-808.8625179913135
 21
3335.806749495793
 31
0.0
  0
LINE
  5
266
330
6C
100
AcDbEntity
  8
Visible (ISO)
100
AcDbLine
 10
-801.9343147610381
 20
3335.806749495793
 30
0.0
 11
-801.9343147610381
 21
3343.934952726068
 31
0.0
  0
LINE
  5
267
330
6C
100
AcDbEntity
  8
Visible (ISO)
100
AcDbLine
 10
-808.8625179913135
 20
3335.806749495793
 30
0.0
 11
-808.8625179913135
 21
3343.934952726068
 31
0.0
  0
LINE
  5
268
330
6C
100
AcDbEntity
  8
Visible (ISO)
100
AcDbLine
 10
-784.0061115307627
 20
3335.806749495793
 30
0.0
 11
-784.0061115307627
 21
3335.006649495793
 31
0.0
  0
LINE
  5
269
330
6C
100
AcDbEntity
  8
Visible (ISO)
100
AcDbLine
 10
-806.0061115307625
 20
3335.806749495793
 30
0.0
 11
-806.0061115307625
 21
3335.006649495793
 31
0.0
  0
LINE
  5
26A
330
6C
100
AcDbEntity
  8
Visible (ISO)
100
AcDbLine
 10
-474.8105988098712
 20
3512.006649495793
 30
0.0
 11
-474.8105988098712
 21
3502.006649495793
 31
0.0
  0
LINE
  5
26B
330
6C
100
AcDbEntity
  8
Visible (ISO)
100
AcDbLine
 10
-2974.810598809865
 20
3512.006649495793
 30
0.0
 11
-2974.810598809865
 21
3502.006649495793
 31
0.0
  0
LINE
  5
26C
330
6C
100
AcDbEntity
  8
Visible (ISO)
100
AcDbLine
 10
-2974.810598809865
 20
3502.006649495793
 30
0.0
 11
-474.8105988098718
 21
3502.006649495793
 31
0.0
  0
LINE
  5
26D
330
6C
100
AcDbEntity
  8
Visible (ISO)
100
AcDbLine
 10
-2974.810598809865
 20
3512.006649495793
 30
0.0
 11
-474.8105988098718
 21
3512.006649495793
 31
0.0
  0
DIMENSION
  5
33C
330
6C
100
AcDbEntity
  8
Dimension (ISO)
100
AcDbDimension
  2
*D6
 10
-523.3019630560341
 20
2064.337890920327
 30
0.0
 11
-523.3019630560344
 21
2264.337890920326
 31
0.0
 70
   160
  1
<>
 71
     2
 42
399.9999999999996
  3
Default (ISO)
100
AcDbAlignedDimension
 13
-778.0061115313119
 23
2464.337890920326
 33
0.0
 14
-778.0061115313113
 24
2064.337890920327
 34
0.0
 50
90.0
100
AcDbRotatedDimension
1001
ACAD
1000
DSTYLE
1002
{
1070
   172
1070
     0
1070
   289
1070
     1
1070
    74
1070
     0
1070
   271
1070
     2
1070
   272
1070
     3
1070
    48
1040
0.0
1070
    47
1040
0.0
1002
}
  0
DIMENSION
  5
425
330
6C
100
AcDbEntity
  8
Dimension (ISO)
100
AcDbDimension
  2
*D7
 10
-745.0061115313111
 20
1858.036240094833
 30
0.0
 11
-1765.716198483502
 21
1858.036240094833
 31
0.0
 70
   160
  1
<>
 71
     2
 42
1955.684492098613
  3
Default (ISO)
100
AcDbAlignedDimension
 13
-2700.690603629924
 23
2217.337890920544
 33
0.0
 14
-745.0061115313111
 24
2217.337890920352
 34
0.0
 50
180.0
100
AcDbRotatedDimension
1001
ACAD
1000
DSTYLE
1002
{
1070
   172
1070
     0
1070
   289
1070
     1
1070
    74
1070
     0
1070
   271
1070
     0
1070
   272
1070
     3
1070
    48
1040
0.0
1070
    47
1040
0.0
1002
}
  0
DIMENSION
  5
507
330
6C
100
AcDbEntity
  8
Dimension (ISO)
100
AcDbDimension
  2
*D8
 10
-2919.188874632992
 20
3292.006649495794
 30
0.0
 11
-2919.188874632994
 21
3177.006649495794
 31
0.0
 70
   160
  1
<>
 71
     2
 42
230.0000000000005
  3
Default (ISO)
100
AcDbAlignedDimension
 13
-2780.690603629375
 23
3062.006649495793
 33
0.0
 14
-2740.690603629375
 24
3292.006649495794
 34
0.0
 50
90.0
100
AcDbRotatedDimension
1001
ACAD
1000
DSTYLE
1002
{
1070
   172
1070
     0
1070
   289
1070
     1
1070
    74
1070
     0
1070
   271
1070
     2
1070
   272
1070
     3
1070
    48
1040
0.0
1070
    47
1040
0.0
1002
}
  0
DIMENSION
  5
5EF
330
6C
100
AcDbEntity
  8
Dimension (ISO)
100
AcDbDimension
  2
*D9
 10
-3100.40818242848
 20
3062.006649495794
 30
0.0
 11
-3100.408182428481
 21
3282.427286885148
 31
0.0
 70
   160
  1
<>
 71
     2
 42
450.0000000000004
  3
Default (ISO)
100
AcDbAlignedDimension
 13
-2974.810598809865
 23
3512.006649495794
 33
0.0
 14
-2780.690603629375
 24
3062.006649495793
 34
0.0
 50
270.0
100
AcDbRotatedDimension
1001
ACAD
1000
DSTYLE
1002
{
1070
   172
1070
     0
1070
   289
1070
     1
1070
    74
1070
     0
1070
   271
1070
     2
1070
   272
1070
     3
1070
    48
1040
0.0
1070
    47
1040
0.0
1002
}
  0
DIMENSION
  5
6D7
330
6C
100
AcDbEntity
  8
Dimension (ISO)
100
AcDbDimension
  2
*D10
 10
-3100.291391357052
 20
3512.006649495794
 30
0.0
 11
-3100.291391357052
 21
4308.215970438221
 31
0.0
 70
   160
  1
<>
 71
     2
 42
1592.418641884856
  3
Default (ISO)
100
AcDbAlignedDimension
 13
-2534.101385625878
 23
5104.42529138065
 33
0.0
 14
-2974.810598809865
 24
3512.006649495794
 34
0.0
 50
270.0
100
AcDbRotatedDimension
1001
ACAD
1000
DSTYLE
1002
{
1070
   172
1070
     0
1070
   289
1070
     1
1070
    74
1070
     0
1070
   271
1070
     0
1070
   272
1070
     3
1070
    48
1040
0.0
1070
    47
1040
0.0
1002
}
  0
MTEXT
  5
8EB
330
6C
100
AcDbEntity
  8
0
100
AcDbMText
 10
-2695.300836791201
 20
1478.188580312172
 30
0.0
 40
50.0
 41
1240.689551428531
 71
     1
 72
     5
  1
Nr kat.: 25150, 25159\PNazwa: Klucznik H\PData utworzenia: 02-09-2014
 73
     1
 44
1.0
1001
ACAD
1000
ACAD_MTEXT_COLUMN_INFO_BEGIN
1070
    75
1070
     2
1070
    79
1070
     0
1070
    76
1070
     1
1070
    78
1070
     0
1070
    48
1040
1240.689551428531
1070
    49
1040
1.0
1070
    50
1070
     1
1040
0.0
1000
ACAD_MTEXT_COLUMN_INFO_END
1000
MTEXTBEGIN
1070
    73
1070
     1
1070
    44
1040
1.0
1070
    74
1070
     0
1000
MTEXTEND
  0
INSERT
  5
A21
330
6C
100
AcDbEntity
  8
0
100
AcDbBlockReference
  2
25150-25159_Klucznik-H
 10
-1678.874810815083
 20
2248.097211626557
 30
0.0
  0
ENDSEC
  0
SECTION
  2
OBJECTS
  0
DICTIONARY
  5
C
330
0
100
AcDbDictionary
281
     1
  3
ACAD_COLOR
350
63
  3
ACAD_GROUP
350
D
  3
ACAD_LAYOUT
350
62
  3
ACAD_MATERIAL
350
10
  3
ACAD_MLEADERSTYLE
350
66
  3
ACAD_MLINESTYLE
350
5F
  3
ACAD_PLOTSETTINGS
350
61
  3
ACAD_PLOTSTYLENAME
350
E
  3
ACAD_SCALELIST
350
42
  3
ACAD_TABLESTYLE
350
64
  3
ACAD_VISUALSTYLE
350
29
  3
ACDB_RECOMPOSE_DATA
350
A2D
  3
AcDbVariableDictionary
350
7EE
  3
ACDMSYSVARMGR
350
834
  3
ACGREF_MASTER
350
82C
  3
ACGREFACAD_MASTER
350
854
  3
AcmDictionary
350
86D
  3
ACME_COMMAND_HISTORY
350
827
  3
ACME_SCOPE_NAME
350
826
  3
ACMESTATEMGR
350
82A
  3
AcmeSysVarManager
350
828
  3
AcmSystemVariableManager
350
859
  3
AmdtNamedDwgMgr
350
84F
  3
AMG
350
81F
  3
AMGSNAPSETTINGS
350
8AE
  3
AMI_MASTER
350
857
  3
AUTOCAD_ASSEMBLIES_PROJECT
350
863
  3
Designer_Assemblies_SysVars
350
85D
  3
DWGPROPS
350
A2E
  3
GREFAM_MODULE
350
858
  3
StructToggleButtonState
350
8F8
  0
DICTIONARY
  5
8E0
330
2
100
AcDbDictionary
280
     1
281
     1
  3
ACAD_LAYERSTATES
360
8E1
  0
DICTIONARY
  5
8B9
330
6C
100
AcDbDictionary
280
     1
281
     1
  3
ACAD_SORTENTS
360
8BA
  0
DICTIONARY
  5
63
102
{ACAD_REACTORS
330
C
102
}
330
C
100
AcDbDictionary
281
     1
  0
DICTIONARY
  5
D
102
{ACAD_REACTORS
330
C
102
}
330
C
100
AcDbDictionary
281
     1
  0
DICTIONARY
  5
62
102
{ACAD_REACTORS
330
C
102
}
330
C
100
AcDbDictionary
281
     1
  3
Layout1
350
6B
  3
Layout2
350
73
  3
Model
350
6F
  0
DICTIONARY
  5
10
102
{ACAD_REACTORS
330
C
102
}
330
C
100
AcDbDictionary
281
     1
  3
ByBlock
350
19
  3
ByLayer
350
11
  3
Global
350
21
  0
DICTIONARY
  5
66
102
{ACAD_REACTORS
330
C
102
}
330
C
100
AcDbDictionary
281
     1
  3
Standard
350
67
  0
DICTIONARY
  5
5F
102
{ACAD_REACTORS
330
C
102
}
330
C
100
AcDbDictionary
281
     1
  3
Standard
350
60
  0
DICTIONARY
  5
61
102
{ACAD_REACTORS
330
C
102
}
330
C
100
AcDbDictionary
281
     1
  0
ACDBDICTIONARYWDFLT
  5
E
102
{ACAD_REACTORS
330
C
102
}
330
C
100
AcDbDictionary
281
     1
  3
Normal
350
F
100
AcDbDictionaryWithDefault
340
F
  0
DICTIONARY
  5
42
102
{ACAD_REACTORS
330
C
102
}
330
C
100
AcDbDictionary
281
     1
  3
A0
350
43
  3
A1
350
44
  3
A2
350
45
  3
A3
350
46
  3
A4
350
47
  3
A5
350
48
  3
A6
350
49
  3
A7
350
4A
  3
A8
350
4B
  3
A9
350
4C
  3
B0
350
4D
  3
B1
350
4E
  3
B2
350
4F
  3
B3
350
50
  3
B4
350
51
  3
B5
350
52
  3
B6
350
53
  0
DICTIONARY
  5
64
102
{ACAD_REACTORS
330
C
102
}
330
C
100
AcDbDictionary
281
     1
  3
Standard
350
65
  0
DICTIONARY
  5
29
102
{ACAD_REACTORS
330
C
102
}
330
C
100
AcDbDictionary
281
     1
  3
2dWireframe
350
2F
  3
3dWireframe
350
8DF
  3
Basic
350
2E
  3
Brighten
350
35
  3
ColorChange
350
39
  3
Conceptual
350
32
  3
Dim
350
34
  3
EdgeColorOff
350
41
  3
Facepattern
350
38
  3
Flat
350
2A
  3
FlatWithEdges
350
2B
  3
Gouraud
350
2C
  3
GouraudWithEdges
350
2D
  3
Hidden
350
31
  3
JitterOff
350
3F
  3
Linepattern
350
37
  3
OverhangOff
350
40
  3
Realistic
350
33
  3
Shaded
350
3E
  3
Shaded with edges
350
3D
  3
Shades of Gray
350
3A
  3
Sketchy
350
3B
  3
Thicken
350
36
  3
Wireframe
350
30
  3
X-Ray
350
3C
  0
XRECORD
  5
A2D
102
{ACAD_REACTORS
330
C
102
}
330
C
100
AcDbXrecord
280
     1
 90
        1
330
65
330
8EB
  0
DICTIONARY
  5
7EE
102
{ACAD_REACTORS
330
C
102
}
330
C
100
AcDbDictionary
281
     1
  3
CANNOSCALE
350
7F1
  3
CMLEADERSTYLE
350
7F0
  3
CTABLESTYLE
350
7EF
  3
DIMASSOC
350
A29
  3
HIDETEXT
350
A28
  3
INDEXCTL
350
A27
  3
LAYEREVAL
350
A24
  3
LAYERNOTIFY
350
A25
  3
LIGHTINGUNITS
350
A23
  3
MSLTSCALE
350
A22
  3
SORTENTS
350
A26
  3
XCLIPFRAME
350
A2A
  0
ACAD_PROXY_OBJECT
  5
834
102
{ACAD_REACTORS
330
C
102
}
330
C
100
AcDbProxyObject
 90
      499
 91
      511
 95
  2424861
 70
     0
 93
      241
310
4C51A48200000000000000000000000000000000000000000000000000004C
330
835
330
836
330
837
330
838
330
839
330
83A
330
83B
330
83C
330
83D
330
83E
330
83F
330
840
330
841
330
842
330
843
330
844
330
845
330
846
330
847
330
848
330
849
330
84A
330
84B
330
84C
330
84D
330
84E
 94
        0
1001
ACAD
1000
AcRTDxfName
1000
ACIMSYSVARMAN
  0
ACAD_PROXY_OBJECT
  5
82C
102
{ACAD_REACTORS
330
C
102
}
330
C
100
AcDbProxyObject
 90
      499
 91
      515
 95
  2424861
 70
     0
 93
       35
310
0C000042CC
 94
        0
1001
ACAD
1000
AcRTDxfName
1000
ACGREFMASTER
  0
ACAD_PROXY_OBJECT
  5
854
102
{ACAD_REACTORS
330
C
102
}
330
C
100
AcDbProxyObject
 90
      499
 91
      525
 95
  2424861
 70
     0
 93
      115
310
04000041C00000000000000000000C
 94
        0
1001
ACAD
1000
AcRTDxfName
1000
ACGREFACADMASTER
  0
DICTIONARY
  5
86D
102
{ACAD_REACTORS
330
C
102
}
330
C
100
AcDbDictionary
281
     1
  3
AcmBOMDATA
350
86E
  3
AcmStdDictionary
350
878
  0
ACAD_PROXY_OBJECT
  5
827
102
{ACAD_REACTORS
330
C
102
}
330
C
100
AcDbProxyObject
 90
      499
 91
      510
 95
  2424861
 70
     0
 93
     6459
310
47806018060180601806018060180601806018060140404060180601806014040406018060140404060180601404050C47005200490050005F0053005400520045005400430048004151401480104014C011401095000410053005400450043004C00490050004151401480104014C01140109500041005300540045004300
310
4C00490050004115401380110013C010455004E0044004F004193401500114011001240150010455004E0044004F004115401380110013C01064D00540045004400490054004115401380110013C010455004E0044004F004193401500114011001240150010552004500470045004E004311C014801240140017C014C0150
310
014801140150010C012001184D005300470020002D00200043006F006D006D0061006E0064002000430041004E00430045004C004C00450044002E004115401380110013C010558004C0049004E0045004251001480104015C013C0148011001140148010C47005200490050005F0053005400520045005400430048004151
310
401480104014C01140105510053004100560045004C534014C011C008000B4008001400140010400E80080008000800190019401CC01AC01D001BC01C000B8018401C801E00080011801A401B001940158019401C801CC01A401BC01B800E8008000C400D400B800C000B800D000D800B800C000B800C0010455004E004400
310
4F004115401380110013C01064D005400450044004900540041544014C01040158011401314D005300470020002D0020005000500041003A002000200020006400650073006B0074006F0070002E006100720078002000460069006C006500560065007200730069006F006E003A002000310035002E0030002E0034003600
310
2E0030002E0030004210C013C01400164010C013001240140010843004F005000590043004C00490050004210C013C01400164010C0130012401400105510053004100560045004C534014C011C008000B4008001400140010400E80080008000800190019401CC01AC01D001BC01C000B8018401C801E00080011801A401B
310
001940158019401C801CC01A401BC01B800E8008000C400D400B800C000B800D000D800B800C000B800C002D05EC
 94
        0
1001
ACAD
1000
AcRTDxfName
1000
ACMECOMMANDHISTORY
  0
ACAD_PROXY_OBJECT
  5
826
102
{ACAD_REACTORS
330
C
102
}
330
C
100
AcDbProxyObject
 90
      499
 91
      509
 95
  2424861
 70
     0
 93
      515
310
0F00004DC000000000000000000012C5020000000000000000000000000000000000000000000000000000000000000000000000000000000000000000AAAAAA8C
360
829
360
82D
360
82E
360
82F
360
830
360
831
360
832
360
835
360
836
360
837
360
838
360
839
360
83A
360
83B
360
83C
360
83D
360
83E
360
83F
360
840
360
841
360
842
360
843
360
844
360
845
360
846
360
847
360
848
360
849
360
84A
360
84B
360
84C
360
84D
360
84E
360
85A
360
85E
360
85F
360
860
360
861
360
862
360
867
360
868
360
869
360
86A
360
86B
 94
        0
1001
ACAD
1000
AcRTDxfName
1000
ACMESCOPE
  0
ACAD_PROXY_OBJECT
  5
82A
102
{ACAD_REACTORS
330
C
102
}
330
C
100
AcDbProxyObject
 90
      499
 91
      513
 95
  2424861
 70
     0
 93
       51
310
0F000043E4128C
 94
        0
1001
ACAD
1000
AcRTDxfName
1000
ACMESTATEMGR
  0
ACAD_PROXY_OBJECT
  5
828
102
{ACAD_REACTORS
330
C
102
}
330
C
100
AcDbProxyObject
 90
      499
 91
      511
 95
  2424861
 70
     0
 93
       33
310
901422004C
330
829
 94
        0
1001
ACAD
1000
AcRTDxfName
1000
ACIMSYSVARMAN
  0
ACAD_PROXY_OBJECT
  5
859
102
{ACAD_REACTORS
330
C
102
}
330
C
100
AcDbProxyObject
 90
      499
 91
      511
 95
  2424861
 70
     0
 93
       33
310
901422004C
330
85A
 94
        0
1001
ACAD
1000
AcRTDxfName
1000
ACIMSYSVARMAN
  0
ACAD_PROXY_OBJECT
  5
84F
102
{ACAD_REACTORS
330
C
102
}
330
C
100
AcDbProxyObject
 90
      499
 91
      522
 95
  2424861
 70
     0
 93
       43
310
000100005E8C
330
82D
 94
        0
1001
ACAD
1000
AcRTDxfName
1000
AM_DWGMGR_NAME
  0
DICTIONARY
  5
81F
102
{ACAD_REACTORS
330
C
102
}
330
C
100
AcDbDictionary
281
     1
  3
AcMgSettings
350
820
  3
AMGLAYCFG
350
88D
  0
DICTIONARY
  5
8AE
102
{ACAD_REACTORS
330
C
102
}
330
C
100
AcDbDictionary
281
     1
  3
KRESKOWANIE (1)
350
8AF
  3
KRESKOWANIE (2)
350
8B0
  3
MES
350
8B2
  3
SPOINA PROSTA
350
8B4
  3
SYMBOLE
350
8B1
  3
WYMIAR
350
8B3
  0
ACAD_PROXY_OBJECT
  5
857
102
{ACAD_REACTORS
330
C
102
}
330
C
100
AcDbProxyObject
 90
      499
 91
      528
 95
  2424861
 70
     0
 93
       35
310
050000428C
 94
        0
1001
ACAD
1000
AcRTDxfName
1000
AMIMASTER
  0
ACAD_PROXY_OBJECT
  5
863
102
{ACAD_REACTORS
330
C
102
}
330
C
100
AcDbProxyObject
 90
      499
 91
      533
 95
  2424861
 70
     0
 93
       99
310
0E000053C0000000000000000C
330
869
330
0
330
86A
330
0
330
0
330
0
330
0
330
0
 94
        0
1001
ACAD
1000
AcRTDxfName
1000
ACAMPROJECT
  0
ACAD_PROXY_OBJECT
  5
85D
102
{ACAD_REACTORS
330
C
102
}
330
C
100
AcDbProxyObject
 90
      499
 91
      511
 95
  2424861
 70
     0
 93
       65
310
90542200000000004C
330
85E
330
85F
330
860
330
861
330
862
 94
        0
1001
ACAD
1000
AcRTDxfName
1000
ACIMSYSVARMAN
  0
XRECORD
  5
A2E
102
{ACAD_REACTORS
330
C
102
}
330
C
100
AcDbXrecord
280
     1
  1
DWGPROPS COOKIE
  2

  3

  4
Maruszak Marcin
  6

  7

  8
Natalia
  9
01
300
Menadżer=
301
Firma=Muller
302
Kategoria=
303
Numer części=
304
Opis=
305
Projekt=
306
Projektant=Maruszak Marcin
307
Inżynier=
308
Zatwierdził=
309
Centrum kosztów=
 40
0.0110165393518519
 41
2456903.373557859
 42
2458893.510868819
  1

 90
       16
300
Dostawca=
300
Stan użytkownika=
300
Stan projektu=PracaWToku
300
Sprawdził=
300
Zatwierdził konstrukcję=Muller
300
Zatwierdził do produkcji=
  0
ACAD_PROXY_OBJECT
  5
858
102
{ACAD_REACTORS
330
C
102
}
330
C
100
AcDbProxyObject
 90
      499
 91
      529
 95
  2424861
 70
     0
 93
        9
310
054C
 94
        0
1001
ACAD
1000
AcRTDxfName
1000
MAPIAMMOUDLE
  0
ACAD_PROXY_OBJECT
  5
8F8
102
{ACAD_REACTORS
330
C
102
}
330
C
100
AcDbProxyObject
 90
      499
 91
      569
 95
  2424861
 70
     0
 93
        2
310
0C
 94
        0
1001
ACAD
1000
AcRTDxfName
1000
CAMSSTRUCTBTNSTATE
  0
DICTIONARY
  5
8E1
102
{ACAD_REACTORS
330
8E0
102
}
330
8E0
100
AcDbDictionary
281
     1
  0
SORTENTSTABLE
  5
8BA
102
{ACAD_REACTORS
330
8B9
102
}
330
8B9
100
AcDbSortentsTable
330
6C
331
1A6
  5
1A8
331
167
  5
169
331
1A2
  5
1A4
331
21C
  5
21E
331
163
  5
165
331
218
  5
21A
331
257
  5
259
331
19E
  5
1A0
331
1DD
  5
1DF
331
1D9
  5
1DB
331
214
  5
216
331
253
  5
255
331
19A
  5
19C
331
210
  5
212
331
15F
  5
161
331
196
  5
198
331
1D5
  5
1D7
331
24F
  5
251
331
15B
  5
15D
331
157
  5
159
331
24B
  5
24D
331
192
  5
194
331
1D1
  5
1D3
331
20C
  5
20E
331
153
  5
155
331
247
  5
249
331
18E
  5
190
331
1CD
  5
1CF
331
208
  5
20A
331
1C9
  5
1CB
331
204
  5
206
331
243
  5
245
331
18A
  5
18C
331
200
  5
202
331
14F
  5
151
331
186
  5
188
331
1C5
  5
1C7
331
23F
  5
241
331
182
  5
184
331
1C1
  5
1C3
331
1FC
  5
1FE
331
23B
  5
23D
331
237
  5
239
331
17E
  5
180
331
1BD
  5
1BF
331
1F8
  5
1FA
331
1B9
  5
1BB
331
1F4
  5
1F6
331
233
  5
235
331
17A
  5
17C
331
1F0
  5
1F2
331
26A
  5
26C
331
1B5
  5
1B7
331
22F
  5
231
331
176
  5
178
331
172
  5
174
331
1B1
  5
1B3
331
266
  5
268
331
1EC
  5
1EE
331
22B
  5
22D
331
227
  5
229
331
16E
  5
170
331
1AD
  5
1AF
331
262
  5
264
331
1E8
  5
1EA
331
1E4
  5
1E6
331
223
  5
225
331
16A
  5
16C
331
25E
  5
260
331
1A9
  5
1AB
331
1E0
  5
1E2
331
25A
  5
25C
331
1A5
  5
1A7
331
21F
  5
221
331
166
  5
168
331
1A1
  5
1A3
331
21B
  5
21D
331
162
  5
164
331
217
  5
219
331
256
  5
258
331
19D
  5
19F
331
1DC
  5
1DE
331
1D8
  5
1DA
331
213
  5
215
331
252
  5
254
331
199
  5
19B
331
15E
  5
160
331
15A
  5
15C
331
195
  5
197
331
1D4
  5
1D6
331
20F
  5
211
331
24E
  5
250
331
156
  5
158
331
24A
  5
24C
331
191
  5
193
331
1D0
  5
1D2
331
20B
  5
20D
331
152
  5
154
331
207
  5
209
331
246
  5
248
331
18D
  5
18F
331
1CC
  5
1CE
331
1C8
  5
1CA
331
203
  5
205
331
242
  5
244
331
189
  5
18B
331
14E
  5
150
331
185
  5
187
331
1C4
  5
1C6
331
1FF
  5
201
331
23E
  5
240
331
23A
  5
23C
331
181
  5
183
331
1C0
  5
1C2
331
1FB
  5
1FD
331
236
  5
238
331
17D
  5
17F
331
1BC
  5
1BE
331
1F7
  5
1F9
331
1B8
  5
1BA
331
1F3
  5
1F5
331
232
  5
234
331
179
  5
17B
331
26D
  5
26F
331
269
  5
26B
331
175
  5
177
331
1B4
  5
1B6
331
1EF
  5
1F1
331
22E
  5
230
331
171
  5
173
331
1B0
  5
1B2
331
265
  5
267
331
1EB
  5
1ED
331
22A
  5
22C
331
226
  5
228
331
16D
  5
16F
331
1AC
  5
1AE
331
261
  5
263
331
1E7
  5
1E9
331
1A8
  5
1AA
331
1E3
  5
1E5
331
222
  5
224
331
169
  5
16B
331
25D
  5
25F
331
425
  5
5EF
331
259
  5
25B
331
1A4
  5
1A6
331
21E
  5
220
331
165
  5
167
331
1A0
  5
1A2
331
1DF
  5
1E1
331
21A
  5
21C
331
1DB
  5
1DD
331
161
  5
163
331
216
  5
218
331
255
  5
257
331
19C
  5
19E
331
212
  5
214
331
251
  5
253
331
198
  5
19A
331
1D7
  5
1D9
331
15D
  5
15F
331
159
  5
15B
331
194
  5
196
331
1D3
  5
1D5
331
20E
  5
210
331
24D
  5
24F
331
155
  5
157
331
249
  5
24B
331
190
  5
192
331
1CF
  5
1D1
331
20A
  5
20C
331
151
  5
153
331
206
  5
208
331
245
  5
247
331
18C
  5
18E
331
1CB
  5
1CD
331
202
  5
204
331
241
  5
243
331
188
  5
18A
331
8EB
  5
8EE
331
1C7
  5
1C9
331
14D
  5
14F
331
184
  5
186
331
1C3
  5
1C5
331
1FE
  5
200
331
23D
  5
23F
331
239
  5
23B
331
180
  5
182
331
1BF
  5
1C1
331
1FA
  5
1FC
331
1F6
  5
1F8
331
235
  5
237
331
17C
  5
17E
331
1BB
  5
1BD
331
1F2
  5
1F4
331
231
  5
233
331
178
  5
17A
331
26C
  5
26E
331
268
  5
26A
331
1B7
  5
1B9
331
174
  5
176
331
1B3
  5
1B5
331
1EE
  5
1F0
331
22D
  5
22F
331
229
  5
22B
331
170
  5
172
331
1AF
  5
1B1
331
264
  5
266
331
1EA
  5
1EC
331
225
  5
227
331
16C
  5
16E
331
1AB
  5
1AD
331
260
  5
262
331
1E6
  5
1E8
331
1E2
  5
1E4
331
221
  5
223
331
168
  5
16A
331
25C
  5
25E
331
258
  5
25A
331
6D7
  5
8EB
331
1A7
  5
1A9
331
1A3
  5
1A5
331
21D
  5
21F
331
164
  5
166
331
19F
  5
1A1
331
1DE
  5
1E0
331
219
  5
21B
331
1DA
  5
1DC
331
160
  5
162
331
215
  5
217
331
254
  5
256
331
19B
  5
19D
331
211
  5
213
331
250
  5
252
331
5EF
  5
8B8
331
197
  5
199
331
1D6
  5
1D8
331
15C
  5
15E
331
158
  5
15A
331
193
  5
195
331
1D2
  5
1D4
331
20D
  5
20F
331
24C
  5
24E
331
154
  5
156
331
248
  5
24A
331
18F
  5
191
331
1CE
  5
1D0
331
33C
  5
507
331
209
  5
20B
331
1CA
  5
1CC
331
150
  5
152
331
205
  5
207
331
244
  5
246
331
18B
  5
18D
331
201
  5
203
331
240
  5
242
331
507
  5
6D7
331
1C6
  5
1C8
331
187
  5
189
331
183
  5
185
331
1C2
  5
1C4
331
1FD
  5
1FF
331
23C
  5
23E
331
238
  5
23A
331
17F
  5
181
331
1BE
  5
1C0
331
1F9
  5
1FB
331
1F5
  5
1F7
331
234
  5
236
331
17B
  5
17D
331
1BA
  5
1BC
331
1F1
  5
1F3
331
230
  5
232
331
26B
  5
26D
331
1B6
  5
1B8
331
177
  5
179
331
173
  5
175
331
1B2
  5
1B4
331
1ED
  5
1EF
331
22C
  5
22E
331
267
  5
269
331
228
  5
22A
331
16F
  5
171
331
1AE
  5
1B0
331
263
  5
265
331
1E9
  5
1EB
331
1E5
  5
1E7
331
224
  5
226
331
16B
  5
16D
331
25F
  5
261
331
1AA
  5
1AC
331
1E1
  5
1E3
331
220
  5
222
331
25B
  5
25D
  0
LAYOUT
  5
6B
102
{ACAD_XDICTIONARY
360
A64
102
}
102
{ACAD_REACTORS
330
62
102
}
330
62
100
AcDbPlotSettings
  1

  2

  4

  6

 40
0.0
 41
0.0
 42
0.0
 43
0.0
 44
0.0
 45
0.0
 46
0.0
 47
0.0
 48
0.0
 49
0.0
140
0.0
141
0.0
142
1.0
143
1.0
 70
   688
 72
     0
 73
     0
 74
     5
  7

 75
    16
147
1.0
148
0.0
149
0.0
100
AcDbLayout
  1
Layout1
 70
     1
 71
     1
 10
0.0
 20
0.0
 11
4200.0
 21
5940.0
 12
0.0
 22
0.0
 32
0.0
 14
0.0
 24
0.0
 34
0.0
 15
4200.0
 25
5940.0
 35
0.0
146
0.0
 13
0.0
 23
0.0
 33
0.0
 16
1.0
 26
0.0
 36
0.0
 17
0.0
 27
1.0
 37
0.0
 76
     0
330
68
  0
LAYOUT
  5
73
102
{ACAD_XDICTIONARY
360
A67
102
}
102
{ACAD_REACTORS
330
62
102
}
330
62
100
AcDbPlotSettings
  1

  2

  4

  6

 40
0.0
 41
0.0
 42
0.0
 43
0.0
 44
0.0
 45
0.0
 46
0.0
 47
0.0
 48
0.0
 49
0.0
140
0.0
141
0.0
142
1.0
143
1.0
 70
   688
 72
     0
 73
     0
 74
     5
  7

 75
    16
147
1.0
148
0.0
149
0.0
100
AcDbLayout
  1
Layout2
 70
     1
 71
     2
 10
0.0
 20
0.0
 11
12.0
 21
9.0
 12
0.0
 22
0.0
 32
0.0
 14
0.0
 24
0.0
 34
0.0
 15
0.0
 25
0.0
 35
0.0
146
0.0
 13
0.0
 23
0.0
 33
0.0
 16
1.0
 26
0.0
 36
0.0
 17
0.0
 27
1.0
 37
0.0
 76
     0
330
70
  0
LAYOUT
  5
6F
102
{ACAD_XDICTIONARY
360
900
102
}
102
{ACAD_REACTORS
330
62
102
}
330
62
100
AcDbPlotSettings
  1

  2
KONICA MINOLTA C353 Series PS
  4
A4
  6

 40
5.027082920074462
 41
5.027099609375
 42
5.027069091796875
 43
5.027069091796875
 44
209.8886566162109
 45
297.0530090332031
 46
0.0
 47
0.0
 48
0.0
 49
0.0
140
0.0
141
0.0
142
1.0
143
36.24530462551194
 70
 11952
 72
     1
 73
     1
 74
     0
  7

 75
     0
147
0.0275897805338386
148
5627.182280410608
149
-80.03116437701647
100
AcDbLayout
  1
Model
 70
     1
 71
     0
 10
0.0
 20
0.0
 11
12.0
 21
9.0
 12
0.0
 22
0.0
 32
0.0
 14
0.0
 24
0.0
 34
0.0
 15
0.0
 25
0.0
 35
0.0
146
0.0
 13
0.0
 23
0.0
 33
0.0
 16
1.0
 26
0.0
 36
0.0
 17
0.0
 27
1.0
 37
0.0
 76
     0
330
6C
331
57
1001
ACAD_PSEXT
1000
KONICA MINOLTA C353 Series PS
1000
KONICA MINOLTA C353 Series PS
1000
IP_10.1.1.15
1000

1070
     0
  0
MATERIAL
  5
19
102
{ACAD_XDICTIONARY
360
1A
102
}
102
{ACAD_REACTORS
330
10
102
}
330
10
100
AcDbMaterial
  1
ByBlock
 72
     0
 43
0.0208333333333333
 43
0.0
 43
0.0
 43
0.0
 43
0.0
 43
0.0208333333333333
 43
0.0
 43
0.0
 43
0.0
 43
0.0
 43
1.0
 43
0.0
 43
0.0
 43
0.0
 43
0.0
 43
1.0
 77
     0
 47
0.0208333333333333
 47
0.0
 47
0.0
 47
0.0
 47
0.0
 47
0.0208333333333333
 47
0.0
 47
0.0
 47
0.0
 47
0.0
 47
1.0
 47
0.0
 47
0.0
 47
0.0
 47
0.0
 47
1.0
171
     0
 49
0.0208333333333333
 49
0.0
 49
0.0
 49
0.0
 49
0.0
 49
0.0208333333333333
 49
0.0
 49
0.0
 49
0.0
 49
0.0
 49
1.0
 49
0.0
 49
0.0
 49
0.0
 49
0.0
 49
1.0
175
     0
142
0.0208333333333333
142
0.0
142
0.0
142
0.0
142
0.0
142
0.0208333333333333
142
0.0
142
0.0
142
0.0
142
0.0
142
1.0
142
0.0
142
0.0
142
0.0
142
0.0
142
1.0
179
     0
144
0.0208333333333333
144
0.0
144
0.0
144
0.0
144
0.0
144
0.0208333333333333
144
0.0
144
0.0
144
0.0
144
0.0
144
1.0
144
0.0
144
0.0
144
0.0
144
0.0
144
1.0
147
0.0208333333333333
147
0.0
147
0.0
147
0.0
147
0.0
147
0.0208333333333333
147
0.0
147
0.0
147
0.0
147
0.0
147
1.0
147
0.0
147
0.0
147
0.0
147
0.0
147
1.0
  0
MATERIAL
  5
11
102
{ACAD_XDICTIONARY
360
12
102
}
102
{ACAD_REACTORS
330
10
102
}
330
10
100
AcDbMaterial
  1
ByLayer
 72
     0
 43
0.0208333333333333
 43
0.0
 43
0.0
 43
0.0
 43
0.0
 43
0.0208333333333333
 43
0.0
 43
0.0
 43
0.0
 43
0.0
 43
1.0
 43
0.0
 43
0.0
 43
0.0
 43
0.0
 43
1.0
 77
     0
 47
0.0208333333333333
 47
0.0
 47
0.0
 47
0.0
 47
0.0
 47
0.0208333333333333
 47
0.0
 47
0.0
 47
0.0
 47
0.0
 47
1.0
 47
0.0
 47
0.0
 47
0.0
 47
0.0
 47
1.0
171
     0
 49
0.0208333333333333
 49
0.0
 49
0.0
 49
0.0
 49
0.0
 49
0.0208333333333333
 49
0.0
 49
0.0
 49
0.0
 49
0.0
 49
1.0
 49
0.0
 49
0.0
 49
0.0
 49
0.0
 49
1.0
175
     0
142
0.0208333333333333
142
0.0
142
0.0
142
0.0
142
0.0
142
0.0208333333333333
142
0.0
142
0.0
142
0.0
142
0.0
142
1.0
142
0.0
142
0.0
142
0.0
142
0.0
142
1.0
179
     0
144
0.0208333333333333
144
0.0
144
0.0
144
0.0
144
0.0
144
0.0208333333333333
144
0.0
144
0.0
144
0.0
144
0.0
144
1.0
144
0.0
144
0.0
144
0.0
144
0.0
144
1.0
147
0.0208333333333333
147
0.0
147
0.0
147
0.0
147
0.0
147
0.0208333333333333
147
0.0
147
0.0
147
0.0
147
0.0
147
1.0
147
0.0
147
0.0
147
0.0
147
0.0
147
1.0
  0
MATERIAL
  5
21
102
{ACAD_XDICTIONARY
360
22
102
}
102
{ACAD_REACTORS
330
10
102
}
330
10
100
AcDbMaterial
  1
Global
 72
     0
 43
0.0208333333333333
 43
0.0
 43
0.0
 43
0.0
 43
0.0
 43
0.0208333333333333
 43
0.0
 43
0.0
 43
0.0
 43
0.0
 43
1.0
 43
0.0
 43
0.0
 43
0.0
 43
0.0
 43
1.0
 77
     0
 47
0.0208333333333333
 47
0.0
 47
0.0
 47
0.0
 47
0.0
 47
0.0208333333333333
 47
0.0
 47
0.0
 47
0.0
 47
0.0
 47
1.0
 47
0.0
 47
0.0
 47
0.0
 47
0.0
 47
1.0
171
     0
 49
0.0208333333333333
 49
0.0
 49
0.0
 49
0.0
 49
0.0
 49
0.0208333333333333
 49
0.0
 49
0.0
 49
0.0
 49
0.0
 49
1.0
 49
0.0
 49
0.0
 49
0.0
 49
0.0
 49
1.0
175
     0
142
0.0208333333333333
142
0.0
142
0.0
142
0.0
142
0.0
142
0.0208333333333333
142
0.0
142
0.0
142
0.0
142
0.0
142
1.0
142
0.0
142
0.0
142
0.0
142
0.0
142
1.0
179
     0
144
0.0208333333333333
144
0.0
144
0.0
144
0.0
144
0.0
144
0.0208333333333333
144
0.0
144
0.0
144
0.0
144
0.0
144
1.0
144
0.0
144
0.0
144
0.0
144
0.0
144
1.0
147
0.0208333333333333
147
0.0
147
0.0
147
0.0
147
0.0
147
0.0208333333333333
147
0.0
147
0.0
147
0.0
147
0.0
147
1.0
147
0.0
147
0.0
147
0.0
147
0.0
147
1.0
  0
MLEADERSTYLE
  5
67
102
{ACAD_REACTORS
330
66
102
}
330
66
100
AcDbMLeaderStyle
170
     2
171
     1
172
     0
 90
        2
 40
0.0
 41
0.0
173
     1
 91
-1056964608
340
5B
 92
       -2
290
     1
 42
0.09
291
     1
 43
0.36
  3
Standard
 44
0.18
300

342
55
174
     1
178
     6
175
     1
176
     0
 93
-1056964608
 45
0.18
292
     0
297
     0
 46
0.18
 94
-1056964608
 47
1.0
 49
1.0
140
1.0
293
     1
141
0.0
294
     1
177
     0
142
1.0
295
     0
296
     0
143
0.125
1001
ACAD_MLEADERVER
1070
     2
  0
MLINESTYLE
  5
60
102
{ACAD_REACTORS
330
5F
102
}
330
5F
100
AcDbMlineStyle
  2
STANDARD
 70
     0
  3

 62
   256
 51
90.0
 52
90.0
 71
     2
 49
0.5
 62
   256
  6
BYLAYER
 49
-0.5
 62
   256
  6
BYLAYER
  0
ACDBPLACEHOLDER
  5
F
102
{ACAD_REACTORS
330
E
102
}
330
E
  0
SCALE
  5
43
102
{ACAD_REACTORS
330
42
102
}
330
42
100
AcDbScale
 70
     0
300
1:1
140
1.0
141
1.0
290
     1
  0
SCALE
  5
44
102
{ACAD_REACTORS
330
42
102
}
330
42
100
AcDbScale
 70
     0
300
1/128" = 1'-0"
140
0.0078125
141
12.0
290
     0
  0
SCALE
  5
45
102
{ACAD_REACTORS
330
42
102
}
330
42
100
AcDbScale
 70
     0
300
1/64" = 1'-0"
140
0.015625
141
12.0
290
     0
  0
SCALE
  5
46
102
{ACAD_REACTORS
330
42
102
}
330
42
100
AcDbScale
 70
     0
300
1/32" = 1'-0"
140
0.03125
141
12.0
290
     0
  0
SCALE
  5
47
102
{ACAD_REACTORS
330
42
102
}
330
42
100
AcDbScale
 70
     0
300
1/16" = 1'-0"
140
0.0625
141
12.0
290
     0
  0
SCALE
  5
48
102
{ACAD_REACTORS
330
42
102
}
330
42
100
AcDbScale
 70
     0
300
3/32" = 1'-0"
140
0.09375
141
12.0
290
     0
  0
SCALE
  5
49
102
{ACAD_REACTORS
330
42
102
}
330
42
100
AcDbScale
 70
     0
300
1/8" = 1'-0"
140
0.125
141
12.0
290
     0
  0
SCALE
  5
4A
102
{ACAD_REACTORS
330
42
102
}
330
42
100
AcDbScale
 70
     0
300
3/16" = 1'-0"
140
0.1875
141
12.0
290
     0
  0
SCALE
  5
4B
102
{ACAD_REACTORS
330
42
102
}
330
42
100
AcDbScale
 70
     0
300
1/4" = 1'-0"
140
0.25
141
12.0
290
     0
  0
SCALE
  5
4C
102
{ACAD_REACTORS
330
42
102
}
330
42
100
AcDbScale
 70
     0
300
3/8" = 1'-0"
140
0.375
141
12.0
290
     0
  0
SCALE
  5
4D
102
{ACAD_REACTORS
330
42
102
}
330
42
100
AcDbScale
 70
     0
300
1/2" = 1'-0"
140
0.5
141
12.0
290
     0
  0
SCALE
  5
4E
102
{ACAD_REACTORS
330
42
102
}
330
42
100
AcDbScale
 70
     0
300
3/4" = 1'-0"
140
0.75
141
12.0
290
     0
  0
SCALE
  5
4F
102
{ACAD_REACTORS
330
42
102
}
330
42
100
AcDbScale
 70
     0
300
1" = 1'-0"
140
1.0
141
12.0
290
     0
  0
SCALE
  5
50
102
{ACAD_REACTORS
330
42
102
}
330
42
100
AcDbScale
 70
     0
300
1-1/2" = 1'-0"
140
1.5
141
12.0
290
     0
  0
SCALE
  5
51
102
{ACAD_REACTORS
330
42
102
}
330
42
100
AcDbScale
 70
     0
300
3" = 1'-0"
140
3.0
141
12.0
290
     0
  0
SCALE
  5
52
102
{ACAD_REACTORS
330
42
102
}
330
42
100
AcDbScale
 70
     0
300
6" = 1'-0"
140
6.0
141
12.0
290
     0
  0
SCALE
  5
53
102
{ACAD_REACTORS
330
42
102
}
330
42
100
AcDbScale
 70
     0
300
1'-0" = 1'-0"
140
12.0
141
12.0
290
     0
  0
TABLESTYLE
  5
65
102
{ACAD_XDICTIONARY
360
A2B
102
}
102
{ACAD_REACTORS
330
64
102
}
330
64
100
AcDbTableStyle
  3
Standard
 70
     0
 71
     0
 40
0.06
 41
0.06
280
     0
281
     0
  7
Standard
140
0.18
170
     2
 62
     0
 63
     7
283
     0
274
    -2
284
     1
 64
     0
275
    -2
285
     1
 65
     0
276
    -2
286
     1
 66
     0
277
    -2
287
     1
 67
     0
278
    -2
288
     1
 68
     0
279
    -2
289
     1
 69
     0
  7
Standard
140
0.25
170
     5
 62
     0
 63
     7
283
     0
274
    -2
284
     1
 64
     0
275
    -2
285
     1
 65
     0
276
    -2
286
     1
 66
     0
277
    -2
287
     1
 67
     0
278
    -2
288
     1
 68
     0
279
    -2
289
     1
 69
     0
  7
Standard
140
0.18
170
     5
 62
     0
 63
     7
283
     0
274
    -2
284
     1
 64
     0
275
    -2
285
     1
 65
     0
276
    -2
286
     1
 66
     0
277
    -2
287
     1
 67
     0
278
    -2
288
     1
 68
     0
279
    -2
289
     1
 69
     0
  0
VISUALSTYLE
  5
2F
102
{ACAD_XDICTIONARY
360
A3C
102
}
102
{ACAD_REACTORS
330
29
102
}
330
29
100
AcDbVisualStyle
  2
2dWireframe
 70
     4
 71
     0
 72
     2
 73
     0
 90
        0
 40
-0.6
 41
-30.0
 62
     5
 63
     7
 74
     1
 91
        4
 64
     7
 65
   257
 75
     1
175
     1
 42
1.0
 92
        0
 66
   257
 43
1.0
 76
     1
 77
     6
 78
     2
 67
     7
 79
     5
170
     0
171
     0
290
     0
174
     0
 93
        1
 44
0.0
173
     0
291
     0
 45
0.0
1001
ACAD
1000
AcDbSavedByObjectVersion
1070
     0
  0
VISUALSTYLE
  5
8DF
102
{ACAD_XDICTIONARY
360
A6D
102
}
102
{ACAD_REACTORS
330
29
102
}
330
29
100
AcDbVisualStyle
  2

 70
     5
 71
     0
 72
     2
 73
     0
 90
        0
 40
-0.6
 41
-30.0
 62
     5
 63
     7
 74
     1
 91
        4
 64
     7
 65
   257
 75
     1
175
     1
 42
1.0
 92
        0
 66
   257
 43
1.0
 76
     1
 77
     6
 78
     2
 67
     7
 79
     5
170
     0
171
     0
290
     0
174
     0
 93
        1
 44
0.0
173
     0
291
     0
 45
0.0
1001
ACAD
1000
AcDbSavedByObjectVersion
1070
     0
  0
VISUALSTYLE
  5
2E
102
{ACAD_XDICTIONARY
360
A3A
102
}
102
{ACAD_REACTORS
330
29
102
}
330
29
100
AcDbVisualStyle
  2
Basic
 70
     7
 71
     1
 72
     0
 73
     1
 90
        0
 40
-0.6
 41
-30.0
 62
     5
 63
     7
 74
     0
 91
        4
 64
     7
 65
   257
 75
     1
175
     1
 42
1.0
 92
        8
 66
     7
 43
1.0
 76
     1
 77
     6
 78
     2
 67
     7
 79
     5
170
     0
171
     0
290
     0
174
     0
 93
        1
 44
0.0
173
     0
291
     1
 45
0.0
1001
ACAD
1000
AcDbSavedByObjectVersion
1070
     0
  0
VISUALSTYLE
  5
35
102
{ACAD_XDICTIONARY
360
A48
102
}
102
{ACAD_REACTORS
330
29
102
}
330
29
100
AcDbVisualStyle
  2
Brighten
 70
    12
 71
     2
 72
     2
 73
     0
 90
        0
 40
-0.6
 41
-30.0
 62
     5
 63
     7
 74
     1
 91
        4
 64
     7
 65
   257
 75
     1
175
     1
 42
1.0
 92
        8
 66
     7
 43
1.0
 76
     1
 77
     6
 78
     2
 67
     7
 79
     5
170
     0
171
     0
290
     0
174
     0
 93
        1
 44
50.0
173
     0
291
     1
 45
0.0
1001
ACAD
1000
AcDbSavedByObjectVersion
1070
     0
  0
VISUALSTYLE
  5
39
102
{ACAD_XDICTIONARY
360
A50
102
}
102
{ACAD_REACTORS
330
29
102
}
330
29
100
AcDbVisualStyle
  2
ColorChange
 70
    16
 71
     2
 72
     2
 73
     3
 90
        0
 40
-0.6
 41
-30.0
 62
     5
 63
     8
 74
     1
 91
        4
 64
     7
 65
   257
 75
     1
175
     1
 42
1.0
 92
        8
 66
     8
 43
1.0
 76
     1
 77
     6
 78
     2
 67
     7
 79
     5
170
     0
171
     0
290
     0
174
     0
 93
        1
 44
0.0
173
     0
291
     1
 45
0.0
1001
ACAD
1000
AcDbSavedByObjectVersion
1070
     0
  0
VISUALSTYLE
  5
32
102
{ACAD_XDICTIONARY
360
A42
102
}
102
{ACAD_REACTORS
330
29
102
}
330
29
100
AcDbVisualStyle
  2
Conceptual
 70
     9
 71
     3
 72
     2
 73
     0
 90
        0
 40
-0.6
 41
-30.0
 62
     5
 63
     7
 74
     2
 91
        2
 64
     7
 65
   257
 75
     1
175
     1
 42
179.0
 92
        8
 66
     7
 43
1.0
 76
     1
 77
     6
 78
     2
 67
     7
 79
     3
170
     0
171
     0
290
     0
174
     0
 93
        1
 44
0.0
173
     0
291
     0
 45
0.0
1001
ACAD
1000
AcDbSavedByObjectVersion
1070
     0
  0
VISUALSTYLE
  5
34
102
{ACAD_XDICTIONARY
360
A46
102
}
102
{ACAD_REACTORS
330
29
102
}
330
29
100
AcDbVisualStyle
  2
Dim
 70
    11
 71
     2
 72
     2
 73
     0
 90
        0
 40
-0.6
 41
-30.0
 62
     5
 63
     7
 74
     1
 91
        4
 64
     7
 65
   257
 75
     1
175
     1
 42
1.0
 92
        8
 66
     7
 43
1.0
 76
     1
 77
     6
 78
     2
 67
     7
 79
     5
170
     0
171
     0
290
     0
174
     0
 93
        1
 44
-50.0
173
     0
291
     1
 45
0.0
1001
ACAD
1000
AcDbSavedByObjectVersion
1070
     0
  0
VISUALSTYLE
  5
41
102
{ACAD_XDICTIONARY
360
A60
102
}
102
{ACAD_REACTORS
330
29
102
}
330
29
100
AcDbVisualStyle
  2
EdgeColorOff
 70
    22
 71
     2
 72
     2
 73
     0
 90
        0
 40
-0.6
 41
-30.0
 62
     5
 63
     7
 74
     1
 91
        4
 64
     7
 65
   257
 75
     1
175
     1
 42
1.0
 92
        8
 66
     7
 43
1.0
 76
     1
 77
     6
 78
     2
 67
     7
 79
     5
170
     0
171
     0
290
     0
174
     0
 93
        1
 44
0.0
173
     0
291
     1
 45
0.0
1001
ACAD
1000
AcDbSavedByObjectVersion
1070
     0
  0
VISUALSTYLE
  5
38
102
{ACAD_XDICTIONARY
360
A4E
102
}
102
{ACAD_REACTORS
330
29
102
}
330
29
100
AcDbVisualStyle
  2
Facepattern
 70
    15
 71
     2
 72
     2
 73
     0
 90
        0
 40
-0.6
 41
-30.0
 62
     5
 63
     7
 74
     1
 91
        4
 64
     7
 65
   257
 75
     1
175
     1
 42
1.0
 92
        8
 66
     7
 43
1.0
 76
     1
 77
     6
 78
     2
 67
     7
 79
     5
170
     0
171
     0
290
     0
174
     0
 93
        1
 44
0.0
173
     0
291
     1
 45
0.0
1001
ACAD
1000
AcDbSavedByObjectVersion
1070
     0
  0
VISUALSTYLE
  5
2A
102
{ACAD_XDICTIONARY
360
A32
102
}
102
{ACAD_REACTORS
330
29
102
}
330
29
100
AcDbVisualStyle
  2
Flat
 70
     0
 71
     2
 72
     1
 73
     1
 90
        2
 40
-0.6
 41
30.0
 62
     5
 63
     7
 74
     0
 91
        0
 64
     7
 65
   257
 75
     1
175
     1
 42
1.0
 92
        8
 66
     7
 43
1.0
 76
     1
 77
     6
 78
     2
 67
     7
 79
     5
170
     0
171
     0
290
     0
174
     0
 93
       13
 44
0.0
173
     0
291
     1
 45
0.0
1001
ACAD
1000
AcDbSavedByObjectVersion
1070
     0
  0
VISUALSTYLE
  5
2B
102
{ACAD_XDICTIONARY
360
A34
102
}
102
{ACAD_REACTORS
330
29
102
}
330
29
100
AcDbVisualStyle
  2
FlatWithEdges
 70
     1
 71
     2
 72
     1
 73
     1
 90
        2
 40
-0.6
 41
30.0
 62
     5
 63
     7
 74
     1
 91
        0
 64
     7
 65
   257
 75
     1
175
     1
 42
1.0
 92
        0
 66
   257
 43
1.0
 76
     1
 77
     6
 78
     2
 67
     7
 79
     5
170
     0
171
     0
290
     0
174
     0
 93
       13
 44
0.0
173
     0
291
     1
 45
0.0
1001
ACAD
1000
AcDbSavedByObjectVersion
1070
     0
  0
VISUALSTYLE
  5
2C
102
{ACAD_XDICTIONARY
360
A36
102
}
102
{ACAD_REACTORS
330
29
102
}
330
29
100
AcDbVisualStyle
  2
Gouraud
 70
     2
 71
     2
 72
     2
 73
     1
 90
        2
 40
-0.6
 41
30.0
 62
     5
 63
     7
 74
     0
 91
        0
 64
     7
 65
   257
 75
     1
175
     1
 42
1.0
 92
        0
 66
     7
 43
1.0
 76
     1
 77
     6
 78
     2
 67
     7
 79
     5
170
     0
171
     0
290
     0
174
     0
 93
       13
 44
0.0
173
     0
291
     1
 45
0.0
1001
ACAD
1000
AcDbSavedByObjectVersion
1070
     0
  0
VISUALSTYLE
  5
2D
102
{ACAD_XDICTIONARY
360
A38
102
}
102
{ACAD_REACTORS
330
29
102
}
330
29
100
AcDbVisualStyle
  2
GouraudWithEdges
 70
     3
 71
     2
 72
     2
 73
     1
 90
        2
 40
-0.6
 41
30.0
 62
     5
 63
     7
 74
     1
 91
        0
 64
     7
 65
   257
 75
     1
175
     1
 42
1.0
 92
        0
 66
   257
 43
1.0
 76
     1
 77
     6
 78
     2
 67
     7
 79
     5
170
     0
171
     0
290
     0
174
     0
 93
       13
 44
0.0
173
     0
291
     1
 45
0.0
1001
ACAD
1000
AcDbSavedByObjectVersion
1070
     0
  0
VISUALSTYLE
  5
31
102
{ACAD_XDICTIONARY
360
A40
102
}
102
{ACAD_REACTORS
330
29
102
}
330
29
100
AcDbVisualStyle
  2
Hidden
 70
     6
 71
     1
 72
     2
 73
     2
 90
        0
 40
-0.6
 41
-30.0
 62
     5
 63
     7
 74
     2
 91
        2
 64
     7
 65
   257
 75
     2
175
     1
 42
40.0
 92
        0
 66
   257
 43
1.0
 76
     1
 77
     6
 78
     2
 67
     7
 79
     3
170
     0
171
     0
290
     0
174
     0
 93
        1
 44
0.0
173
     0
291
     0
 45
0.0
1001
ACAD
1000
AcDbSavedByObjectVersion
1070
     0
  0
VISUALSTYLE
  5
3F
102
{ACAD_XDICTIONARY
360
A5C
102
}
102
{ACAD_REACTORS
330
29
102
}
330
29
100
AcDbVisualStyle
  2
JitterOff
 70
    20
 71
     2
 72
     2
 73
     0
 90
        0
 40
-0.6
 41
-30.0
 62
     5
 63
     7
 74
     1
 91
        4
 64
     7
 65
   257
 75
     1
175
     1
 42
1.0
 92
       10
 66
     7
 43
1.0
 76
     1
 77
     6
 78
     2
 67
     7
 79
     5
170
     0
171
     0
290
     0
174
     0
 93
        1
 44
0.0
173
     0
291
     1
 45
0.0
1001
ACAD
1000
AcDbSavedByObjectVersion
1070
     0
  0
VISUALSTYLE
  5
37
102
{ACAD_XDICTIONARY
360
A4C
102
}
102
{ACAD_REACTORS
330
29
102
}
330
29
100
AcDbVisualStyle
  2
Linepattern
 70
    14
 71
     2
 72
     2
 73
     0
 90
        0
 40
-0.6
 41
-30.0
 62
     5
 63
     7
 74
     1
 91
        4
 64
     7
 65
   257
 75
     7
175
     7
 42
1.0
 92
        8
 66
     7
 43
1.0
 76
     1
 77
     6
 78
     2
 67
     7
 79
     5
170
     0
171
     0
290
     0
174
     0
 93
        1
 44
0.0
173
     0
291
     1
 45
0.0
1001
ACAD
1000
AcDbSavedByObjectVersion
1070
     0
  0
VISUALSTYLE
  5
40
102
{ACAD_XDICTIONARY
360
A5E
102
}
102
{ACAD_REACTORS
330
29
102
}
330
29
100
AcDbVisualStyle
  2
OverhangOff
 70
    21
 71
     2
 72
     2
 73
     0
 90
        0
 40
-0.6
 41
-30.0
 62
     5
 63
     7
 74
     1
 91
        4
 64
     7
 65
   257
 75
     1
175
     1
 42
1.0
 92
        9
 66
     7
 43
1.0
 76
     1
 77
     6
 78
     2
 67
     7
 79
     5
170
     0
171
     0
290
     0
174
     0
 93
        1
 44
0.0
173
     0
291
     1
 45
0.0
1001
ACAD
1000
AcDbSavedByObjectVersion
1070
     0
  0
VISUALSTYLE
  5
33
102
{ACAD_XDICTIONARY
360
A44
102
}
102
{ACAD_REACTORS
330
29
102
}
330
29
100
AcDbVisualStyle
  2
Realistic
 70
     8
 71
     2
 72
     3
 73
     0
 90
        2
 40
-0.6
 41
30.0
 62
     5
 63
     7
 74
     0
 91
        0
 64
     7
 65
   257
 75
     1
175
     1
 42
1.0
 92
        8
 66
   257
 43
1.0
 76
     1
 77
     6
 78
     2
 67
     7
 79
     3
170
     0
171
     0
290
     0
174
     0
 93
       13
 44
0.0
173
     0
291
     0
 45
0.0
1001
ACAD
1000
AcDbSavedByObjectVersion
1070
     0
  0
VISUALSTYLE
  5
3E
102
{ACAD_XDICTIONARY
360
A5A
102
}
102
{ACAD_REACTORS
330
29
102
}
330
29
100
AcDbVisualStyle
  2
Shaded
 70
    27
 71
     2
 72
     2
 73
     1
 90
        2
 40
-0.6
 41
30.0
 62
     5
 63
     7
 74
     0
 91
        4
 64
     7
 65
   257
 75
     1
175
     1
 42
1.0
 92
        8
 66
   257
 43
1.0
 76
     1
 77
     6
 78
     2
 67
     8
 79
     3
170
     0
171
     0
290
     0
174
     0
 93
        5
 44
0.0
173
     0
291
     0
 45
0.0
1001
ACAD
1000
AcDbSavedByObjectVersion
1070
     0
  0
VISUALSTYLE
  5
3D
102
{ACAD_XDICTIONARY
360
A58
102
}
102
{ACAD_REACTORS
330
29
102
}
330
29
100
AcDbVisualStyle
  2
Shaded with edges
 70
    26
 71
     2
 72
     2
 73
     1
 90
        2
 40
-0.6
 41
30.0
 62
     5
 63
     7
 74
     1
 91
       10
 64
     7
 65
   257
 75
     2
175
     1
 42
1.0
 92
        8
 66
   257
 43
1.0
 76
     1
 77
     6
 78
     2
 67
     7
 79
     3
170
     0
171
     0
290
     0
174
     0
 93
        5
 44
0.0
173
     0
291
     0
 45
0.0
1001
ACAD
1000
AcDbSavedByObjectVersion
1070
     0
  0
VISUALSTYLE
  5
3A
102
{ACAD_XDICTIONARY
360
A52
102
}
102
{ACAD_REACTORS
330
29
102
}
330
29
100
AcDbVisualStyle
  2
Shades of Gray
 70
    23
 71
     2
 72
     2
 73
     3
 90
        0
 40
-0.6
 41
-30.0
 62
     5
 63
     7
 74
     2
 91
        2
 64
     7
 65
     7
 75
     1
175
     1
 42
40.0
 92
        8
 66
     7
 43
1.0
 76
     1
 77
     6
 78
     2
 67
     7
 79
     3
170
     0
171
     0
290
     0
174
     0
 93
        1
 44
0.0
173
     0
291
     0
 45
0.0
1001
ACAD
1000
AcDbSavedByObjectVersion
1070
     0
  0
VISUALSTYLE
  5
3B
102
{ACAD_XDICTIONARY
360
A54
102
}
102
{ACAD_REACTORS
330
29
102
}
330
29
100
AcDbVisualStyle
  2
Sketchy
 70
    24
 71
     1
 72
     2
 73
     2
 90
        0
 40
-0.6
 41
-30.0
 62
     5
 63
     7
 74
     2
 91
        2
 64
     7
 65
     7
 75
     1
175
     1
 42
40.0
 92
       11
 66
     7
 43
1.0
 76
     1
 77
     6
 78
     2
 67
     7
 79
     6
170
     0
171
     0
290
     0
174
     0
 93
        1
 44
0.0
173
     0
291
     0
 45
0.0
1001
ACAD
1000
AcDbSavedByObjectVersion
1070
     0
  0
VISUALSTYLE
  5
36
102
{ACAD_XDICTIONARY
360
A4A
102
}
102
{ACAD_REACTORS
330
29
102
}
330
29
100
AcDbVisualStyle
  2
Thicken
 70
    13
 71
     2
 72
     2
 73
     0
 90
        0
 40
-0.6
 41
-30.0
 62
     5
 63
     7
 74
     1
 91
        4
 64
     7
 65
   257
 75
     1
175
     1
 42
1.0
 92
       12
 66
     7
 43
1.0
 76
     1
 77
     6
 78
     2
 67
     7
 79
     5
170
     0
171
     0
290
     0
174
     0
 93
        1
 44
0.0
173
     0
291
     1
 45
0.0
1001
ACAD
1000
AcDbSavedByObjectVersion
1070
     0
  0
VISUALSTYLE
  5
30
102
{ACAD_XDICTIONARY
360
A3E
102
}
102
{ACAD_REACTORS
330
29
102
}
330
29
100
AcDbVisualStyle
  2
Wireframe
 70
     5
 71
     0
 72
     2
 73
     0
 90
        0
 40
-0.6
 41
-30.0
 62
     5
 63
     7
 74
     1
 91
        4
 64
     7
 65
   257
 75
     1
175
     1
 42
1.0
 92
        0
 66
   257
 43
1.0
 76
     1
 77
     6
 78
     2
 67
     7
 79
     3
170
     0
171
     0
290
     0
174
     0
 93
        1
 44
0.0
173
     0
291
     0
 45
0.0
1001
ACAD
1000
AcDbSavedByObjectVersion
1070
     0
  0
VISUALSTYLE
  5
3C
102
{ACAD_XDICTIONARY
360
A56
102
}
102
{ACAD_REACTORS
330
29
102
}
330
29
100
AcDbVisualStyle
  2
X-Ray
 70
    25
 71
     2
 72
     2
 73
     1
 90
        1
 40
0.5
 41
-30.0
 62
     5
 63
     7
 74
     1
 91
        0
 64
     7
 65
   257
 75
     1
175
     1
 42
1.0
 92
        8
 66
     7
 43
1.0
 76
     1
 77
     6
 78
     2
 67
     7
 79
     3
170
     0
171
     0
290
     0
174
     0
 93
       13
 44
0.0
173
     0
291
     0
 45
0.0
1001
ACAD
1000
AcDbSavedByObjectVersion
1070
     0
  0
DICTIONARYVAR
  5
7F1
102
{ACAD_REACTORS
330
7EE
102
}
330
7EE
100
DictionaryVariables
280
     0
  1
1:1
  0
DICTIONARYVAR
  5
7F0
102
{ACAD_REACTORS
330
7EE
102
}
330
7EE
100
DictionaryVariables
280
     0
  1
STANDARD
  0
DICTIONARYVAR
  5
7EF
102
{ACAD_REACTORS
330
7EE
102
}
330
7EE
100
DictionaryVariables
280
     0
  1
STANDARD
  0
DICTIONARYVAR
  5
A29
102
{ACAD_REACTORS
330
7EE
102
}
330
7EE
100
DictionaryVariables
280
     0
  1
1
  0
DICTIONARYVAR
  5
A28
102
{ACAD_REACTORS
330
7EE
102
}
330
7EE
100
DictionaryVariables
280
     0
  1
1
  0
DICTIONARYVAR
  5
A27
102
{ACAD_REACTORS
330
7EE
102
}
330
7EE
100
DictionaryVariables
280
     0
  1
0
  0
DICTIONARYVAR
  5
A24
102
{ACAD_REACTORS
330
7EE
102
}
330
7EE
100
DictionaryVariables
280
     0
  1
0
  0
DICTIONARYVAR
  5
A25
102
{ACAD_REACTORS
330
7EE
102
}
330
7EE
100
DictionaryVariables
280
     0
  1
0
  0
DICTIONARYVAR
  5
A23
102
{ACAD_REACTORS
330
7EE
102
}
330
7EE
100
DictionaryVariables
280
     0
  1
2
  0
DICTIONARYVAR
  5
A22
102
{ACAD_REACTORS
330
7EE
102
}
330
7EE
100
DictionaryVariables
280
     0
  1
1
  0
DICTIONARYVAR
  5
A26
102
{ACAD_REACTORS
330
7EE
102
}
330
7EE
100
DictionaryVariables
280
     0
  1
127
  0
DICTIONARYVAR
  5
A2A
102
{ACAD_REACTORS
330
7EE
102
}
330
7EE
100
DictionaryVariables
280
     0
  1
2
  0
ACAD_PROXY_OBJECT
  5
86E
102
{ACAD_REACTORS
330
86D
102
}
330
86D
100
AcDbProxyObject
 90
      499
 91
      539
 95
  2424861
 70
     0
 93
       85
310
90100057356C1DBE406AA4
 94
        0
1001
ACAD
1000
AcRTDxfName
1000
ACMDATADICTIONARY
  0
DICTIONARY
  5
878
102
{ACAD_REACTORS
330
86D
102
}
330
86D
100
AcDbDictionary
281
     1
  3
ISO
350
879
  0
ACAD_PROXY_OBJECT
  5
829
330
0
100
AcDbProxyObject
 90
      499
 91
      512
 95
  2424861
 70
     0
 93
      285
310
0001014210E410043004D004500530059004D0042004F004C00530049005A004500EA00C
330
826
 94
        0
1001
ACAD
1000
AcRTDxfName
1000
ACIMINTSYSVAR
  0
ACAD_PROXY_OBJECT
  5
82D
330
0
100
AcDbProxyObject
 90
      499
 91
      516
 95
  2424861
 70
     0
 93
      655
310
0001010101014050100009641190018401D001840109310035002E0030002E00340036002E00300041190018401D001840109310035002E0030002E00340036002E003000415040138011C0130011400880A
330
826
330
82E
330
834
 94
        0
1001
ACAD
1000
AcRTDxfName
1000
AM_DRAWING_MGR
  0
ACAD_PROXY_OBJECT
  5
82E
330
0
100
AcDbProxyObject
 90
      499
 91
      517
 95
  2424861
 70
     0
 93
       57
310
000190242200004C
330
826
330
82F
330
831
 94
        0
1001
ACAD
1000
AcRTDxfName
1000
AM_DWG_DOCUMENT
  0
ACAD_PROXY_OBJECT
  5
82F
330
0
100
AcDbProxyObject
 90
      499
 91
      518
 95
  2424861
 70
     0
 93
       49
310
0001AA0000004C
330
826
330
6B
330
830
330
0
 94
        0
1001
ACAD
1000
AcRTDxfName
1000
AM_DWG_SHEET
  0
ACAD_PROXY_OBJECT
  5
830
330
0
100
AcDbProxyObject
 90
      499
 91
      519
 95
  2424861
 70
     0
 93
       29
310
0001AAA4
330
826
 94
        0
1001
ACAD
1000
AcRTDxfName
1000
AM_VIEWDIMPARMAP
  0
ACAD_PROXY_OBJECT
  5
831
330
0
100
AcDbProxyObject
 90
      499
 91
      518
 95
  2424861
 70
     0
 93
       49
310
0001AA0000004C
330
826
330
73
330
832
330
0
 94
        0
1001
ACAD
1000
AcRTDxfName
1000
AM_DWG_SHEET
  0
ACAD_PROXY_OBJECT
  5
832
330
0
100
AcDbProxyObject
 90
      499
 91
      519
 95
  2424861
 70
     0
 93
       29
310
0001AAA4
330
826
 94
        0
1001
ACAD
1000
AcRTDxfName
1000
AM_VIEWDIMPARMAP
  0
ACAD_PROXY_OBJECT
  5
835
330
0
100
AcDbProxyObject
 90
      499
 91
      512
 95
  2424861
 70
     0
 93
      189
310
0001014050841004D0048004C00430041004C0043008A00C
330
826
 94
        0
1001
ACAD
1000
AcRTDxfName
1000
ACIMINTSYSVAR
  0
ACAD_PROXY_OBJECT
  5
836
330
0
100
AcDbProxyObject
 90
      499
 91
      512
 95
  2424861
 70
     0
 93
      221
310
0001014050A41004D0052004500550053004500440049004D00AA00C
330
826
 94
        0
1001
ACAD
1000
AcRTDxfName
1000
ACIMINTSYSVAR
  0
ACAD_PROXY_OBJECT
  5
837
330
0
100
AcDbProxyObject
 90
      499
 91
      512
 95
  2424861
 70
     0
 93
      245
310
00010190C41004D00530045004300540049004F004E00440049004D00CA00C
330
826
 94
        0
1001
ACAD
1000
AcRTDxfName
1000
ACIMINTSYSVAR
  0
ACAD_PROXY_OBJECT
  5
838
330
0
100
AcDbProxyObject
 90
      499
 91
      512
 95
  2424861
 70
     0
 93
      221
310
0001014050A41004D005600500042004F005200440045005200AA00C
330
826
 94
        0
1001
ACAD
1000
AcRTDxfName
1000
ACIMINTSYSVAR
  0
ACAD_PROXY_OBJECT
  5
839
330
0
100
AcDbProxyObject
 90
      499
 91
      512
 95
  2424861
 70
     0
 93
      213
310
00010190A41004D0044005700470043004F004C004F005200AA00C
330
826
 94
        0
1001
ACAD
1000
AcRTDxfName
1000
ACIMINTSYSVAR
  0
ACAD_PROXY_OBJECT
  5
83A
330
0
100
AcDbProxyObject
 90
      499
 91
      512
 95
  2424861
 70
     0
 93
      269
310
0001014050D41004D0056004900450057005200450046005200450053004800DA00C
330
826
 94
        0
1001
ACAD
1000
AcRTDxfName
1000
ACIMINTSYSVAR
  0
ACAD_PROXY_OBJECT
  5
83B
330
0
100
AcDbProxyObject
 90
      499
 91
      512
 95
  2424861
 70
     0
 93
      317
310
0001014051041004D0041004E004E004F0054004500500052004500530045005200560045000A01C
330
826
 94
        0
1001
ACAD
1000
AcRTDxfName
1000
ACIMINTSYSVAR
  0
ACAD_PROXY_OBJECT
  5
83C
330
0
100
AcDbProxyObject
 90
      499
 91
      512
 95
  2424861
 70
     0
 93
      317
310
0001014051041004D004100550054004F00440049004D0041005200520041004E00470045000A01C
330
826
 94
        0
1001
ACAD
1000
AcRTDxfName
1000
ACIMINTSYSVAR
  0
ACAD_PROXY_OBJECT
  5
83D
330
0
100
AcDbProxyObject
 90
      499
 91
      512
 95
  2424861
 70
     0
 93
      229
310
00010190B41004D00450058005400520045004600440049004D00BA00C
330
826
 94
        0
1001
ACAD
1000
AcRTDxfName
1000
ACIMINTSYSVAR
  0
ACAD_PROXY_OBJECT
  5
83E
330
0
100
AcDbProxyObject
 90
      499
 91
      512
 95
  2424861
 70
     0
 93
      237
310
0001014050B41004D0054004100500041004E004E004F0054004500BA00C
330
826
 94
        0
1001
ACAD
1000
AcRTDxfName
1000
ACIMINTSYSVAR
  0
ACAD_PROXY_OBJECT
  5
83F
330
0
100
AcDbProxyObject
 90
      499
 91
      512
 95
  2424861
 70
     0
 93
      189
310
0001014050841004D004100550054004F0043004C008A00C
330
826
 94
        0
1001
ACAD
1000
AcRTDxfName
1000
ACIMINTSYSVAR
  0
ACAD_PROXY_OBJECT
  5
840
330
0
100
AcDbProxyObject
 90
      499
 91
      512
 95
  2424861
 70
     0
 93
      189
310
0001014150841004D0043004C0046004500410054008A00C
330
826
 94
        0
1001
ACAD
1000
AcRTDxfName
1000
ACIMINTSYSVAR
  0
ACAD_PROXY_OBJECT
  5
841
330
0
100
AcDbProxyObject
 90
      499
 91
      512
 95
  2424861
 70
     0
 93
      189
310
0001014FD0841004D0043004C0056004900450057008A00C
330
826
 94
        0
1001
ACAD
1000
AcRTDxfName
1000
ACIMINTSYSVAR
  0
ACAD_PROXY_OBJECT
  5
842
330
0
100
AcDbProxyObject
 90
      499
 91
      512
 95
  2424861
 70
     0
 93
      269
310
0001014050D41004D0048004900440045005A00450052004F00440049004D00DA00C
330
826
 94
        0
1001
ACAD
1000
AcRTDxfName
1000
ACIMINTSYSVAR
  0
ACAD_PROXY_OBJECT
  5
843
330
0
100
AcDbProxyObject
 90
      499
 91
      512
 95
  2424861
 70
     0
 93
      221
310
0001014050A41004D0048004100540043004800490053004F00AA00C
330
826
 94
        0
1001
ACAD
1000
AcRTDxfName
1000
ACIMINTSYSVAR
  0
ACAD_PROXY_OBJECT
  5
844
330
0
100
AcDbProxyObject
 90
      499
 91
      512
 95
  2424861
 70
     0
 93
      277
310
00010190E41004D00530049004E0047004C0045004800410054004C0041005900EA00C
330
826
 94
        0
1001
ACAD
1000
AcRTDxfName
1000
ACIMINTSYSVAR
  0
ACAD_PROXY_OBJECT
  5
845
330
0
100
AcDbProxyObject
 90
      499
 91
      512
 95
  2424861
 70
     0
 93
      229
310
00010190B41004D0044005700470046004C004400490053005000BA00C
330
826
 94
        0
1001
ACAD
1000
AcRTDxfName
1000
ACIMINTSYSVAR
  0
ACAD_PROXY_OBJECT
  5
846
330
0
100
AcDbProxyObject
 90
      499
 91
      512
 95
  2424861
 70
     0
 93
      181
310
00010190841004D004100550054004F0048004E008A00C
330
826
 94
        0
1001
ACAD
1000
AcRTDxfName
1000
ACIMINTSYSVAR
  0
ACAD_PROXY_OBJECT
  5
847
330
0
100
AcDbProxyObject
 90
      499
 91
      512
 95
  2424861
 70
     0
 93
      205
310
0001014050941004D0048004E0043004F0055004E0054009A00C
330
826
 94
        0
1001
ACAD
1000
AcRTDxfName
1000
ACIMINTSYSVAR
  0
ACAD_PROXY_OBJECT
  5
848
330
0
100
AcDbProxyObject
 90
      499
 91
      512
 95
  2424861
 70
     0
 93
      189
310
0001014050841004D0048004E00500052004F004A008A00C
330
826
 94
        0
1001
ACAD
1000
AcRTDxfName
1000
ACIMINTSYSVAR
  0
ACAD_PROXY_OBJECT
  5
849
330
0
100
AcDbProxyObject
 90
      499
 91
      512
 95
  2424861
 70
     0
 93
      189
310
00010141D0841004D0048004E0054005900500045008A00C
330
826
 94
        0
1001
ACAD
1000
AcRTDxfName
1000
ACIMINTSYSVAR
  0
ACAD_PROXY_OBJECT
  5
84A
330
0
100
AcDbProxyObject
 90
      499
 91
      512
 95
  2424861
 70
     0
 93
      189
310
00010143D0841004D0048004E0056004900450057008A00C
330
826
 94
        0
1001
ACAD
1000
AcRTDxfName
1000
ACIMINTSYSVAR
  0
ACAD_PROXY_OBJECT
  5
84B
330
0
100
AcDbProxyObject
 90
      499
 91
      512
 95
  2424861
 70
     0
 93
      261
310
00010190D41004D00530045004300540049004F004E0043004F0050005900DA00C
330
826
 94
        0
1001
ACAD
1000
AcRTDxfName
1000
ACIMINTSYSVAR
  0
ACAD_PROXY_OBJECT
  5
84C
330
0
100
AcDbProxyObject
 90
      499
 91
      512
 95
  2424861
 70
     0
 93
      189
310
00010140D0841004D0043004C00500052004F004A008A00C
330
826
 94
        0
1001
ACAD
1000
AcRTDxfName
1000
ACIMINTSYSVAR
  0
ACAD_PROXY_OBJECT
  5
84D
330
0
100
AcDbProxyObject
 90
      499
 91
      521
 95
  2424861
 70
     0
 93
      341
310
0001010000000000000B9010E41004D004100550054004F004800410054004300480052004F005400EA00C
330
826
 94
        0
1001
ACAD
1000
AcRTDxfName
1000
ACIMREALSYSVAR
  0
ACAD_PROXY_OBJECT
  5
84E
330
0
100
AcDbProxyObject
 90
      499
 91
      512
 95
  2424861
 70
     0
 93
      285
310
0001014050E41004D004100550054004F0048004100540043004800440045005400EA00C
330
826
 94
        0
1001
ACAD
1000
AcRTDxfName
1000
ACIMINTSYSVAR
  0
ACAD_PROXY_OBJECT
  5
85A
330
0
100
AcDbProxyObject
 90
      499
 91
      530
 95
  2424861
 70
     0
 93
      245
310
00010101421040134010C01540148014C015001100103490053004F00C400C
330
826
 94
        0
1001
ACAD
1000
AcRTDxfName
1000
ACIMSTRSYSVAR
  0
ACAD_PROXY_OBJECT
  5
85E
330
0
100
AcDbProxyObject
 90
      499
 91
      530
 95
  2424861
 70
     0
 93
      325
310
00010101431040104010C013C0134014001100118013801040134011401044B004F004D0050001401C
330
826
 94
        0
1001
ACAD
1000
AcRTDxfName
1000
ACIMSTRSYSVAR
  0
ACAD_PROXY_OBJECT
  5
85F
330
0
100
AcDbProxyObject
 90
      499
 91
      530
 95
  2424861
 70
     0
 93
      389
310
000101014390401040118013C0130011001140148011001180138010401340114010646006F006C006400650072005401C
330
826
 94
        0
1001
ACAD
1000
AcRTDxfName
1000
ACIMSTRSYSVAR
  0
ACAD_PROXY_OBJECT
  5
860
330
0
100
AcDbProxyObject
 90
      499
 91
      530
 95
  2424861
 70
     0
 93
      309
310
00010101431040104010401380138013C01100118013801040134011401035F00410056000401C
330
826
 94
        0
1001
ACAD
1000
AcRTDxfName
1000
ACIMSTRSYSVAR
  0
ACAD_PROXY_OBJECT
  5
861
330
0
100
AcDbProxyObject
 90
      499
 91
      530
 95
  2424861
 70
     0
 93
      885
310
00010101439040104010C013C01340140015801240114015C01300124014C015001254700F300720061000A00500072007A00F30064000A0050007200610077006F000A004C00650077006F000A004400F30042010A0050006F006D006F0063006E00690063007A00790031004403C
330
826
 94
        0
1001
ACAD
1000
AcRTDxfName
1000
ACIMSTRSYSVAR
  0
ACAD_PROXY_OBJECT
  5
862
330
0
100
AcDbProxyObject
 90
      499
 91
      512
 95
  2424861
 70
     0
 93
      277
310
00010190E41004D00530053005400520041004C0057004100590053004F004E00EA00C
330
826
 94
        0
1001
ACAD
1000
AcRTDxfName
1000
ACIMINTSYSVAR
  0
ACAD_PROXY_OBJECT
  5
867
330
0
100
AcDbProxyObject
 90
      499
 91
      534
 95
  2424861
 70
     0
 93
       33
310
000100004C
330
826
340
864
330
868
330
864
 94
        0
1001
ACAD
1000
AcRTDxfName
1000
ACAMGRCOMPDEF
  0
ACAD_PROXY_OBJECT
  5
868
330
0
100
AcDbProxyObject
 90
      499
 91
      535
 95
  2424861
 70
     0
 93
      683
310
00010141401550055400490C800D400C400D400C000B800C000C000C00080012C01300154010C016801380124012C008001200080011801540138011001040134011401380150013C015C010401380124011401280AC
330
826
330
867
330
0
 94
        0
1001
ACAD
1000
AcRTDxfName
1000
ACAMCOMPDEF
  0
ACAD_PROXY_OBJECT
  5
869
330
0
100
AcDbProxyObject
 90
      499
 91
      536
 95
  2424861
 70
     0
 93
      179
310
000100AAAAAA911AB9EB3B1E38D0EFD2F7BCCB8D282C0C
330
826
330
868
 94
        0
1001
ACAD
1000
AcRTDxfName
1000
ACAMCOMPDEFMGR
  0
ACAD_PROXY_OBJECT
  5
86A
330
0
100
AcDbProxyObject
 90
      499
 91
      537
 95
  2424861
 70
     0
 93
      109
310
0001901422000000000000AAAAA4
330
826
330
86B
330
86B
330
86B
330
86B
330
86B
330
0
 94
        0
1001
ACAD
1000
AcRTDxfName
1000
AMCONTEXTMGR
  0
ACAD_PROXY_OBJECT
  5
86B
330
0
100
AcDbProxyObject
 90
      499
 91
      538
 95
  2424861
 70
     0
 93
       52
310
00010000AAAA8C
330
826
330
86A
330
868
 94
        0
1001
ACAD
1000
AcRTDxfName
1000
ACAMCONTEXTMODELER
  0
DICTIONARY
  5
820
102
{ACAD_REACTORS
330
81F
102
}
330
81F
100
AcDbDictionary
281
     1
  3
DWGSETTINGS
350
821
  3
TRANSSETTINGS
350
822
  0
ACAD_PROXY_OBJECT
  5
88D
102
{ACAD_REACTORS
330
81F
102
}
330
81F
100
AcDbProxyObject
 90
      499
 91
      563
 95
  2424861
 70
     0
 93
    24805
310
4210249201C00030C013244203800030C013244201400030C013244201800030C0119A00C00030C0119A00C00030C0119A00800030C0123A01000030C0119A00400030C0119A3F400030C0241201C00030C0132A00C00030C0119A01C00030C013240A01C00030C0132A03800030C0132A01400030C0132A01800030C0119A
310
00C00030C0119A00C00030C0119A00800030C0123A01000030C0119A00400030C0119A3F400030C0241201C00030C0132A00C00030C0119A01C00030C013240A00400030C011942601000030C011942E01C00030C013242600400030C011942E3F400030C0243600C00030C011942601C00030C011942601C00030C0132426
310
00C00030C011942601000030C0119425538000000C0003FFFFFFFE8000000C0003FFFFFFFE8010000C3004668020000C30048E8000000C0003FFFFFFFE8000000C0003FFFFFFFE8020000C30048E8070000C3004CA81E0000C30051A8000000C0003FFFFFFFE8000000C0003FFFFFFFE8000000C0003FFFFFFFE8000000C00
310
03FFFFFFFD038000000C0003FFFFFFFD038000000C0003FFFFFFFD038000000C0003FFFFFFFD038000000C0003FFFFFFFE8000000C0003FFFFFFFE8000000C0003FFFFFFFE8000000C0003FFFFFFFE8000000C0003FFFFFFFE8000000C0003FFFFFFFE8030000C3003FFFFFFFE8000000C0003FFFFFFFE8030000C30046680
310
00000C0003FFFFFFFE8030000C3004668000000C0003FFFFFFFD018000000C0003FFFFFFFD038000000C0003FFFFFFFD038000000C0003FFFFFFFD018000000C0003FFFFFFFE8000000C0003FFFFFFFE8000000C0003FFFFFFFE8000000C0003FFFFFFFE8000000C0003FFFFFFFE8000000C0003FFFFFFFD038000000C0003
310
FFFFFFFD038000000C0003FFFFFFFD038000000C0003FFFFFFFD038000000C0003FFFFFFFE8000000C0003FFFFFFFE8000000C0003FFFFFFFE8000000C0003FFFFFFFD018000000C0003FFFFFFFD038000000C0003FFFFFFFD038000000C0003FFFFFFFE8000000C0003FFFFFFFE8000000C0003FFFFFFFE8000000C0003FF
310
FFFFFD038000000C0003FFFFFFFD018000000C0003FFFFFFFD038000000C0003FFFFFFFE8000000C0003FFFFFFFE8010000C3003FFFFFFFE8020000C3003FFFFFFFE8070000C3003FFFFFFFE8000000C0003FFFFFFFE8000000C0003FFFFFFFE8000000C0003FFFFFFFE8000000C0003FFFFFFFE8000000C0003FFFFFFFD01
310
8000000C0003FFFFFFFD018020000C30048E8020000C3003FFFFFFFE8000000C0003FFFFFFFD038000000C0003FFFFFFFD018010000C3004668020000C30048E8000000C0003FFFFFFFE8000000C0003FFFFFFFD038000000C0003FFFFFFFE8000000C0003FFFFFFFD018030000C3004668030000C3004668000000C0003FF
310
FFFFFE8070000C3004CA81E0000C30051A8000000C0003FFFFFFFE8000000C0003FFFFFFFD028000000C0003FFFFFFFD028000000C0003FFFFFFFE8000000C0003FFFFFFFD01AAA3F400030C010A4393241D3241919415324111940D194092340519479467F680200404C0010441004D005F0030009013100411040134017C
310
00C402404C8010441004D005F0032009013300411040134017C00CC02404D0010441004D005F0034009013500411040134017C00D402404D8010441004D005F0036009013700411040134017C00DC02404E0010441004D005F0038009013900411040134017C00E402408C80104010541004D005F003100300090234004100
310
415040134017C00C400C402409240140010541004D005F003100320090230004E00415040134017C00C0013802408C40138010541004D005F0031004E0090232004E00415040134017C00C8013802408CC0138010541004D005F0033004E0090234004E00415040134017C00D0013802408D40138010541004D005F0035004
310
E0090236004E00415040134017C00D8013802408DC0138010541004D005F0037004E0090238004E00415040134017C00E0013802408E40138010541004D005F0039004E00903320041004E00419040134017C00C400C001380240CD001040138010641004D005F00310031004E00903490050004E00419040134017C00C400
310
C80138024112C013001240138010541004D005F0043004C0090449004E0046004F00421040134017C01400104014801140118024154801040120013400D4010641004D005F0042004F0052009045600490045005700421040134017C015801240114015C014C024190801140120012401380110010641004D005F0049004E0
310
0560090554005200410049004C00415040134017C015001480240D2001240110010641004D005F00480049004400903560049005300419040134017C01580124014C024194001040148011001240134010941004D005F00500041005200440049004D00906520045004600440049004D00425040134017C014801140118011
310
00124013402411080120013801580101390041508012001380158014C010642004500480049004E00440041108013C014800C801055200410048004D00350041108013C014800CC01055200410048004D00350041108013C014800D401055200410048004D0035004110C0104013000C8010134004110C0104013000CC0101
310
34004110C0104013000D4010134004110C0104013000DC010134004110C011401380138010137004110C01140138015C010137004110C01300124013801044B004C0049004E004110C013C013800C4010130004110C013C013800C8010131004110C013C013800CC010132004110C013C013800D0010132004111001140150
310
0104010134004111001240104011C010135004111001240130012401013500411100124013401400106500041005200440049004D00411100124013401480106520045004600440049004D004111801140134013801013800415180114013401400138010138004151801140134014C0140010234004100415180114013401
310
4C015001023400410041518011401340158013801013200415180114013401580150010132004112001040150010C0101380041120012401100138010133004112001240110015C01013300411200130012401380101340041120013C010C01380101370041120013C010C015C010137004112401380118013C010449004E0
310
046004F00411300114010401100101350041938017C0108012001380158010239004E0041938017C010C013C013800C4010230004E0041938017C010C013C013800C8010231004E0041938017C010C013C013800CC010232004E0041938017C010C013C013800D0010232004E0041938017C010C011401380138010237004E
310
0041938017C010C01140138015C010237004E0041938017C0110012401300124010235004E0041938017C012001040150010C010238004E0041938017C0120012401100138010233004E0041938017C012001240110015C010233004E0041938017C0130011401040110010235004E0041938017C0138011C0124014001034
310
90050004E0041938017C01400120010401380103340041004E0041938017C0150010C013C0138010230004E0041938017C0150012001300124010234004E0041938017C0150013001140138010230004E0041938017C01580140013001240103320041004E0041138011C01240140010249005000411400104013000C80105
310
5200410048004D003500411400104013000CC01055200410048004D003500411400104013000D401055200410048004D0035004114001200104013801023400410041140013C014C01380101350041148010C011C01380101370041148010C011C015C010137004114C01080148012C010134004114C0114010C0150010134
310
004114C0164010800CC0101350041134014C016401340101350041150010C013C0138010130004115001200130012401013400411500124015000C801055200410048004D003500411500124015000CC01055200410048004D003500411500124015000D401055200410048004D00350041150013001140138010130004155
310
00148010401240130010554005200410049004C004115001480130012401013400411500160015000C401013600411500160015000C801013600411500160015000CC01013600411500160015000D401013600411500160015000DC010136004115801240114015C0104560049004500570041158011401100120010348004
310
9004400411580114011001580103560049005300411580140013001240102320041004116801240168010401013400404FC02D03DC
340
5D
340
5D
340
5D
340
88E
340
5D
340
5D
340
5D
340
88F
340
5D
340
5D
340
88F
340
890
340
5D
340
5D
340
5D
340
5D
340
88E
340
5D
340
5D
340
5D
340
88F
340
5D
340
5D
340
88F
340
890
340
5D
340
891
340
5D
340
5D
340
5D
340
5D
340
5D
340
88E
340
5D
340
5D
340
5D
340
5C
340
5C
340
5C
340
5C
340
5C
340
5C
340
5C
340
5C
340
5C
340
892
340
5C
340
5C
340
5C
340
5C
340
5C
340
5C
340
5D
340
5C
340
5C
340
5C
340
5C
340
5C
340
5C
340
5D
340
5C
340
5C
340
5C
340
5C
340
893
340
5C
340
5C
340
892
340
5C
340
5C
340
5C
340
5C
340
5C
340
5C
340
5C
340
5C
340
892
340
5C
340
5C
340
5C
340
893
340
5C
340
5C
340
5C
340
5C
340
5C
340
5C
340
5C
340
5C
340
5C
340
5D
340
5D
340
5D
340
5C
340
5C
340
892
340
5C
340
5C
340
5C
340
5C
340
5C
340
5C
340
5C
340
5C
340
5C
340
5C
340
5C
340
5C
340
5C
340
5C
340
5C
340
5C
340
5C
340
5C
340
5C
340
5C
340
5C
340
5C
340
896
 94
        0
1001
ACAD
1000
AcRTDxfName
1000
AMGOBJPROPCFG
  0
ACAD_PROXY_OBJECT
  5
8AF
102
{ACAD_REACTORS
330
8AE
102
}
330
8AE
100
AcDbProxyObject
 90
      499
 91
      567
 95
  2424861
 70
     0
 93
      222
310
43E82A40020802A00218024002025400809500202540080950061004
 94
        0
1001
ACAD
1000
AcRTDxfName
1000
ACAMGFILTERDAT
  0
ACAD_PROXY_OBJECT
  5
8B0
102
{ACAD_REACTORS
330
8AE
102
}
330
8AE
100
AcDbProxyObject
 90
      499
 91
      567
 95
  2424861
 70
     0
 93
     1054
310
43E82260024802700228024E7000580070009C00580054005A007000580054005A0070009C00580082009A00BE007000580082009A00BE0070009C00580054005A0082009A00BE007000580054005A0082009A00BE0070009C00809500202540088248027002980228029002A00160029802A0022002800208029002A00190
310
0220001024
 94
        0
1001
ACAD
1000
AcRTDxfName
1000
ACAMGFILTERDAT
  0
ACAD_PROXY_OBJECT
  5
8B2
102
{ACAD_REACTORS
330
8AE
102
}
330
8AE
100
AcDbProxyObject
 90
      499
 91
      567
 95
  2424861
 70
     0
 93
      318
310
43E80950021682009A00BE008C008A0082005A0082009A00BE00540080950020254008095001100C
 94
        0
1001
ACAD
1000
AcRTDxfName
1000
ACAMGFILTERDAT
  0
ACAD_PROXY_OBJECT
  5
8B4
102
{ACAD_REACTORS
330
8AE
102
}
330
8AE
100
AcDbProxyObject
 90
      499
 91
      567
 95
  2424861
 70
     0
 93
      318
310
43C81A0802900218020882009A00BE006A00809500202640083248027002980228029002A001100C
 94
        0
1001
ACAD
1000
AcRTDxfName
1000
ACAMGFILTERDAT
  0
ACAD_PROXY_OBJECT
  5
8B1
102
{ACAD_REACTORS
330
8AE
102
}
330
8AE
100
AcDbProxyObject
 90
      499
 91
      567
 95
  2424861
 70
     0
 93
     2270
310
43EC2A0802180268023002180230029002080268022801600208021802680220020802A002A8026802A0020802900238022802A001600208021802680220020802A002A8026802480220016002080218026802B8022802600220029802C802680160020802180268029802A802900230029802C80268016002080218026802
310
300228020802A002480220016002080218026802800208029002A002900228023001600208021802680210020802600260027802780270016002080268022002A00228022002380228029802C802680160020802680238029802180290022802B8021802080260021802A00208021002600228016002080218026802680208
310
02900258029802A002080268028002025400809500202540080950061044
 94
        0
1001
ACAD
1000
AcRTDxfName
1000
ACAMGFILTERDAT
  0
ACAD_PROXY_OBJECT
  5
8B3
102
{ACAD_REACTORS
330
8AE
102
}
330
8AE
100
AcDbProxyObject
 90
      499
 91
      567
 95
  2424861
 70
     0
 93
      462
310
43E8A22002480268022802700298024802780270016002080268022002A002F8015002F80220024802680202540080950020254008095005900C
 94
        0
1001
ACAD
1000
AcRTDxfName
1000
ACAMGFILTERDAT
  0
DICTIONARY
  5
A64
330
6B
100
AcDbDictionary
280
     1
281
     1
  3
ACAD_XREC_ROUNDTRIP
360
A65
  0
DICTIONARY
  5
A67
330
73
100
AcDbDictionary
280
     1
281
     1
  3
ACAD_XREC_ROUNDTRIP
360
A68
  0
DICTIONARY
  5
900
330
6F
100
AcDbDictionary
280
     1
281
     1
  3
ACAD_XREC_ROUNDTRIP
360
A66
  3
ADSK_XREC_LAYOUTTHUMBNAIL
360
901
  0
DICTIONARY
  5
1A
330
19
100
AcDbDictionary
280
     1
281
     1
  3
ACAD_XREC_ROUNDTRIP
360
A30
  3
BUMPTILE
360
1C
  3
DIFFUSETILE
360
1B
  3
OPACITYTILE
360
1F
  3
REFLECTIONTILE
360
1E
  3
REFRACTIONTILE
360
20
  3
SPECULARTILE
360
1D
  0
DICTIONARY
  5
12
330
11
100
AcDbDictionary
280
     1
281
     1
  3
ACAD_XREC_ROUNDTRIP
360
A2F
  3
BUMPTILE
360
14
  3
DIFFUSETILE
360
13
  3
OPACITYTILE
360
17
  3
REFLECTIONTILE
360
16
  3
REFRACTIONTILE
360
18
  3
SPECULARTILE
360
15
  0
DICTIONARY
  5
22
330
21
100
AcDbDictionary
280
     1
281
     1
  3
ACAD_XREC_ROUNDTRIP
360
A31
  3
BUMPTILE
360
24
  3
DIFFUSETILE
360
23
  3
OPACITYTILE
360
27
  3
REFLECTIONTILE
360
26
  3
REFRACTIONTILE
360
28
  3
SPECULARTILE
360
25
  0
DICTIONARY
  5
A2B
330
65
100
AcDbDictionary
280
     1
281
     1
  3
ACAD_ROUNDTRIP_2008_TABLESTYLE_CELLSTYLEMAP
360
A2C
  3
ACAD_XREC_ROUNDTRIP
360
A62
  0
DICTIONARY
  5
A3C
330
2F
100
AcDbDictionary
280
     1
281
     1
  3
ACAD_XREC_ROUNDTRIP
360
A3D
  0
DICTIONARY
  5
A6D
330
8DF
100
AcDbDictionary
280
     1
281
     1
  3
ACAD_XREC_ROUNDTRIP
360
A6E
  0
DICTIONARY
  5
A3A
330
2E
100
AcDbDictionary
280
     1
281
     1
  3
ACAD_XREC_ROUNDTRIP
360
A3B
  0
DICTIONARY
  5
A48
330
35
100
AcDbDictionary
280
     1
281
     1
  3
ACAD_XREC_ROUNDTRIP
360
A49
  0
DICTIONARY
  5
A50
330
39
100
AcDbDictionary
280
     1
281
     1
  3
ACAD_XREC_ROUNDTRIP
360
A51
  0
DICTIONARY
  5
A42
330
32
100
AcDbDictionary
280
     1
281
     1
  3
ACAD_XREC_ROUNDTRIP
360
A43
  0
DICTIONARY
  5
A46
330
34
100
AcDbDictionary
280
     1
281
     1
  3
ACAD_XREC_ROUNDTRIP
360
A47
  0
DICTIONARY
  5
A60
330
41
100
AcDbDictionary
280
     1
281
     1
  3
ACAD_XREC_ROUNDTRIP
360
A61
  0
DICTIONARY
  5
A4E
330
38
100
AcDbDictionary
280
     1
281
     1
  3
ACAD_XREC_ROUNDTRIP
360
A4F
  0
DICTIONARY
  5
A32
330
2A
100
AcDbDictionary
280
     1
281
     1
  3
ACAD_XREC_ROUNDTRIP
360
A33
  0
DICTIONARY
  5
A34
330
2B
100
AcDbDictionary
280
     1
281
     1
  3
ACAD_XREC_ROUNDTRIP
360
A35
  0
DICTIONARY
  5
A36
330
2C
100
AcDbDictionary
280
     1
281
     1
  3
ACAD_XREC_ROUNDTRIP
360
A37
  0
DICTIONARY
  5
A38
330
2D
100
AcDbDictionary
280
     1
281
     1
  3
ACAD_XREC_ROUNDTRIP
360
A39
  0
DICTIONARY
  5
A40
330
31
100
AcDbDictionary
280
     1
281
     1
  3
ACAD_XREC_ROUNDTRIP
360
A41
  0
DICTIONARY
  5
A5C
330
3F
100
AcDbDictionary
280
     1
281
     1
  3
ACAD_XREC_ROUNDTRIP
360
A5D
  0
DICTIONARY
  5
A4C
330
37
100
AcDbDictionary
280
     1
281
     1
  3
ACAD_XREC_ROUNDTRIP
360
A4D
  0
DICTIONARY
  5
A5E
330
40
100
AcDbDictionary
280
     1
281
     1
  3
ACAD_XREC_ROUNDTRIP
360
A5F
  0
DICTIONARY
  5
A44
330
33
100
AcDbDictionary
280
     1
281
     1
  3
ACAD_XREC_ROUNDTRIP
360
A45
  0
DICTIONARY
  5
A5A
330
3E
100
AcDbDictionary
280
     1
281
     1
  3
ACAD_XREC_ROUNDTRIP
360
A5B
  0
DICTIONARY
  5
A58
330
3D
100
AcDbDictionary
280
     1
281
     1
  3
ACAD_XREC_ROUNDTRIP
360
A59
  0
DICTIONARY
  5
A52
330
3A
100
AcDbDictionary
280
     1
281
     1
  3
ACAD_XREC_ROUNDTRIP
360
A53
  0
DICTIONARY
  5
A54
330
3B
100
AcDbDictionary
280
     1
281
     1
  3
ACAD_XREC_ROUNDTRIP
360
A55
  0
DICTIONARY
  5
A4A
330
36
100
AcDbDictionary
280
     1
281
     1
  3
ACAD_XREC_ROUNDTRIP
360
A4B
  0
DICTIONARY
  5
A3E
330
30
100
AcDbDictionary
280
     1
281
     1
  3
ACAD_XREC_ROUNDTRIP
360
A3F
  0
DICTIONARY
  5
A56
330
3C
100
AcDbDictionary
280
     1
281
     1
  3
ACAD_XREC_ROUNDTRIP
360
A57
  0
ACAD_PROXY_OBJECT
  5
879
102
{ACAD_REACTORS
330
878
102
}
330
878
100
AcDbProxyObject
 90
      499
 91
      546
 95
  2424861
 70
     0
 93
     4658
310
6F80000000000000C408000000C00040540600800030C02000000300000000000000000C40C95224812028120281202812028120281202812028120281202812028120281202812028120281202812028120281203204809FFFE7FFFA069200A6009E012168200DA00C800E8008A00C800CE00CA00A600E800C80087208031
310
80368029803A80390033002A0032803C003A0029803A0032002128200C600DA008C0086008C00A600E800C80086A080318036802B8032803600320034803700338029803A0032002108200C600DA009200C800A600E800C80085A08031803680220030803A003A80368029803A0032002128200C600DA0084009E009A00A60
310
0E800C800882080368032003A00220032803A0030803480360029803C80368029803A0032002228200DA00C800E800A600CA00C600E800D200DE00DC00A600F200DA00A600E800C80088A080368032003A002180328037003A0032803900260034803700328029803A0032002228200DA00C800E800A800D000E400CA00C20
310
0C8009800D200DC00CA00A600E800C80085A080368032003A00270037803A00328029803A0032002168200C600DA00A800C200E000CA00E400A600E800C80086A080368032003A00208037002B00348032803B8029803A0032002168200C6008200DA00CE009800C200F200A600E800C80085A080318020803680338022003
310
480368029803A0032002228200C6008200DA00CE009000DE00D800CA008600D000C200E400E800A600E800C80086A08031802080368033802A0034803A003600328029803A0032002007CC
340
55
360
87A
360
87B
360
87C
360
87D
360
87E
360
87F
360
880
360
881
360
882
360
883
360
884
360
885
360
886
360
887
360
888
360
889
360
8A1
360
8A2
340
88A
340
0
340
5C
340
5C
 94
        0
1001
ACAD
1000
AcRTDxfName
1000
ACMSTANDARDISO
  0
ACAD_PROXY_OBJECT
  5
821
102
{ACAD_REACTORS
330
820
102
}
330
820
100
AcDbProxyObject
 90
      499
 91
      508
 95
  2424861
 70
     0
 93
     4585
310
40682A0A940000000000000488082A5000000000000004202500000000000001220250000000000000122027F27F20A82A50A0A9FA040C008000105415281A25A2184D8D5CD050542D10015C011C014C01140150015001240138011C014C0109430041004E00470041005200520041005900420CC00C001F000D000D401F00
310
0D800C00106430045004E0041004E004700424D000D401F000E400C001F000C400CC00D40106430045004E0044004900410041D0C01140138011001240104014C0108310030007C00320030007C003300300041D0C0114013801100124014C01500106430045004E004C0045004E004190C01140138013C01180118010E430
310
0480041004D00460045005200440049004D004D004F00440045004550C0120010401340118011401480110012401340134013C011001140110011401180104015401300150010943004C0049004E0041005200520041005900420C400C001F000C800C001F000CC00C0010843004C0049004E0045005400590050004156001
310
30012401380114010944005700470055005300430041004C00450041D300104014C0150013C0108012801013000421340104012C0114015801240114015C010650005300430041004C00450041948011401580124014C0124010130004154C010C010401300114010331003A00310042550012401340114014C01500104013
310
401400107560045005200530049004F004E00414C400D400B800C000C001107B00440057004700530045005400540049004E004700530045004E0044007D009C0FCC
 94
        0
1001
ACAD
1000
AcRTDxfName
1000
AMGSETTINGSOBJ
  0
ACAD_PROXY_OBJECT
  5
822
102
{ACAD_REACTORS
330
820
102
}
330
820
100
AcDbProxyObject
 90
      499
 91
      508
 95
  2424861
 70
     0
 93
     1525
310
4060C00800041801000020A0C00800010D5400520041004E005300530045005400540049004E00470053004491001480104015C01240138011C0150014801040138014C0130010401500124013C0138010D4F0052004900470049004E0041004C004C0059005F004F004E004294C013C01540148010C011401300104013801
310
1C010350004C004B0042554014001480114014C011401480158011401107B00440057004700530045005400540049004E004700530045004E0044007D006605C
 94
        0
1001
ACAD
1000
AcRTDxfName
1000
AMGSETTINGSOBJ
  0
XRECORD
  5
A65
102
{ACAD_REACTORS
330
A64
102
}
330
A64
100
AcDbXrecord
280
     1
102
SHADEPLOT
 70
     0
102
SHADEPLOTRESLEVEL
 70
     2
102
SHADEPLOTCUSTOMDPI
 70
   300
  0
XRECORD
  5
A68
102
{ACAD_REACTORS
330
A67
102
}
330
A67
100
AcDbXrecord
280
     1
102
SHADEPLOT
 70
     0
102
SHADEPLOTRESLEVEL
 70
     2
102
SHADEPLOTCUSTOMDPI
 70
   300
  0
XRECORD
  5
A66
102
{ACAD_REACTORS
330
900
102
}
330
900
100
AcDbXrecord
280
     1
102
SHADEPLOT
 70
     0
102
SHADEPLOTRESLEVEL
 70
     2
102
SHADEPLOTCUSTOMDPI
 70
   300
  0
XRECORD
  5
901
102
{ACAD_REACTORS
330
900
102
}
330
900
100
AcDbXrecord
280
     1
310
28000000000100006B0000000100080000000000006B0000000000000000000000010000000000003028210000000000FFFFFF000000000000000000000000000000000000000000000000000000000000000000330000006600000099000000CC000000FF00000000330000333300006633000099330000CC330000FF3300
310
0000660000336600006666000099660000CC660000FF66000000990000339900006699000099990000CC990000FF99000000CC000033CC000066CC000099CC0000CCCC0000FFCC000000FF000033FF000066FF000099FF0000CCFF0000FFFF000000003300330033006600330099003300CC003300FF003300003333003333
310
33006633330099333300CC333300FF33330000663300336633006666330099663300CC663300FF66330000993300339933006699330099993300CC993300FF99330000CC330033CC330066CC330099CC3300CCCC3300FFCC330000FF330033FF330066FF330099FF3300CCFF3300FFFF330000006600330066006600660099
310
006600CC006600FF00660000336600333366006633660099336600CC336600FF33660000666600336666006666660099666600CC666600FF66660000996600339966006699660099996600CC996600FF99660000CC660033CC660066CC660099CC6600CCCC6600FFCC660000FF660033FF660066FF660099FF6600CCFF6600
310
FFFF660000009900330099006600990099009900CC009900FF00990000339900333399006633990099339900CC339900FF33990000669900336699006666990099669900CC669900FF66990000999900339999006699990099999900CC999900FF99990000CC990033CC990066CC990099CC9900CCCC9900FFCC990000FF99
310
0033FF990066FF990099FF9900CCFF9900FFFF99000000CC003300CC006600CC009900CC00CC00CC00FF00CC000033CC003333CC006633CC009933CC00CC33CC00FF33CC000066CC003366CC006666CC009966CC00CC66CC00FF66CC000099CC003399CC006699CC009999CC00CC99CC00FF99CC0000CCCC0033CCCC0066CC
310
CC0099CCCC00CCCCCC00FFCCCC0000FFCC0033FFCC0066FFCC0099FFCC00CCFFCC00FFFFCC000000FF003300FF006600FF009900FF00CC00FF00FF00FF000033FF003333FF006633FF009933FF00CC33FF00FF33FF000066FF003366FF006666FF009966FF00CC66FF00FF66FF000099FF003399FF006699FF009999FF00CC
310
99FF00FF99FF0000CCFF0033CCFF0066CCFF0099CCFF00CCCCFF00FFCCFF0000FFFF0033FFFF0066FFFF0099FFFF00CCFFFF00FFFFFF00000000000D0D0D001A1A1A00282828003535350043434300505050005D5D5D006B6B6B00787878008686860093939300A1A1A100AEAEAE00BBBBBB00C9C9C900D6D6D600E4E4E400
310
F1F1F100FFFFFF000000000000000000000000000000000000000000000000000000000000000000000000000000000000000000000000000000000000000000000000000000000000000000000000000000000000000000000000000000000000000000000000000000000000000000000000000000000000000000000000
310
00000000000000000000000000000000000000000000000000000000000000000000000000000000000000000000000000000000000000000000000000000000000000000000000000000000000000000000000000000000000000000000000000000000000000000000000000000000000000000000000000000000000000
310
00000000000000000000000000000000000000000000000000000000000000000000000000000000000000000000000000000000000000000000000000000000000000000000000000000000000000000000000000000000000000000000000000000000000000000000000000000000000000000000000000000000000000
310
00000000000000000000000000000000000000000000000000000000000000000000000000000000000000000000000000000000000000000000000000000000000000000000000000000000000000000000000000000000000000000000000000000000000000000000000000000000000000000000000000000000000000
310
00000000000000000000000000000000000000000000000000000000000000000000000000000000000000000000000000000000000000000000000000000000000000000000000000000000000000000000000000000000000000000000000000000000000000000000000000000000000000000000000000000000000000
310
00000000000000000000000000000000000000000000000000000000000000000000000000000000000000000000000000000000000000000000000000000000000000000000000000000000000000000000000000000000000000000000000000000000000000000000000000000000000000000000000000000000000000
310
00000000000000000000000000000000000000000000000000000000000000000000000000000000000000000000000000000000000000000000000000000000000000000000000000000000000000000000000000000000000000000000000000000000000000000000000000000000000000000000000000000000000000
310
00000000000000000000000000000000000000000000000000000000000000000000000000000000000000000000000000000000000000000000000000000000000000000000000000000000000000000000000000000000000000000000000000000000000000000000000000000000000000000000000000000000000000
310
00000000000000000000000000000000000000000000000000000000000000000000000000000000000000000000000000000000000000000000000000000000000000000000000000000000000000000000000000000000000000000000000000000000000000000000000000000000000000000000000000000000000000
310
00000000000000000000000000000000000000000000000000000000000000000000000000000000000000000000000000000000000000000000000000000000000000000000000000000000000000000000000000000000000000000000000000000000000000000000000000000000000000000000000000000000000000
310
00000000000000000000000000000000000000000000000000000000000000000000000000000000000000000000000000000000000000000000000000000000000000000000000000000000000000000000000000000000000000000000000000000000000000000000000000000000000000000000000000000000000000
310
00000000000000000000000000000000000000000000000000000000000000000000000000000000000000000000000000000000000000000000000000000000000000000000000000000000000000000000000000000000000000000000000000000000000000000000000000000000000000000000000000000000000000
310
00000000000000000000000000000000000000000000000000000000000000000000000000000000000000000000000000000000000000000000000000000000000000000000000000000000000000000000000000000000000000000000000000000000000000000000000000000000000000000000000000000000000000
310
0000000000000000000000000000000000000000000000000000000000000000F5F5F5F5F5F5F5F5F5F5F5F5F5F5000000000000000000000000000000000000000000000000000000000000000000000000000000000000000000000000000000000000000000000000000000000000000000000000000000000000000000
310
00000000000000000000000000000000000000000000000000000000000000000000000000000000000000000000000000000000000000000000000000000000000000000000000000000000000000000000000000000000000000000000000000000000000000000000000000000000000000000000000000000000000000
310
00000000000000000000000000000000000000000000000000000000000000000000F5F5F5F5F5F5F5F5F5F5F5F5F5F500000000000000000000000000000000000000000000000000000000000000000000000000000000000000000000000000000000000000000000000000000000000000000000000000000000000000
310
00000000000000000000000000000000000000000000000000000000000000000000000000000000000000000000000000000000000000000000000000000000000000000000000000000000000000000000000000000000000000000000000000000000000000000000000000000000000000000000000000000000000000
310
000000000000000000000000000000000000000000000000000000000000000000000000F5F5F5F5F5F5F5F5F5F5F5F5F5F5F5F5F5F5F5F5F5F5F5F500000000000000000000000000000000000000000000000000000000000000000000000000000000000000000000000000000000000000000000000000000000000000
310
00000000000000000000000000000000000000000000000000000000000000000000000000000000000000000000000000000000000000000000000000000000000000000000000000000000000000000000000000000000000000000000000000000000000000000000000000000000000000000000000000000000000000
310
0000000000000000000000000000000000000000000000000000000000000000000000000000F5F5F5F5F5F5F5F5F5F5F5F5F5F5F5F5F5F5F5F5F5F5F5F50000000000000000000000000000000000000000000000000000000000000000000000000000000000000000000000000000000000000000000000000000000000
310
00000000000000000000000000000000000000000000000000000000000000000000000000000000000000000000000000000000000000000000000000000000000000000000000000000000000000000000000000000000000000000000000000000000000000000000000000000000000000000000000000000000000000
310
00000000000000000000000000000000000000000000000000000000000000000000000000000000000000000000000000000000000000000000000000000000000000000000000000000000000000000000000000000000000000000000000000000000000000000000000000000000000000000000000000000000000000
310
00000000000000000000000000000000000000000000000000000000000000000000000000000000000000000000000000000000000000000000000000000000000000000000000000000000000000000000000000000000000000000000000000000000000000000000000000000000000000000000000000000000000000
310
00000000000000000000000000000000000000000000000000000000000000000000000000000000000000000000000000000000000000000000000000000000000000000000000000000000000000000000000000000000000000000000000000000000000000000000000000000000000000000000000000000000000000
310
00000000000000000000000000000000000000000000000000000000000000000000000000000000000000000000000000000000000000000000000000000000000000000000000000000000000000000000000000000000000000000000000000000000000000000000000000000000000000000000000000000000000000
310
0000000000000000000000000000000000000000000000000000000000000000000000000000000000000000F5F5F5F5F5F5F5F5F5F5F5F5F5F5F5F5F5F5F5F5F50000000000000000000000000000000000000000000000000000000000000000000000000000000000000000000000000000000000000000000000000000
310
00000000000000000000000000000000000000000000000000000000000000000000000000000000000000000000000000000000000000000000000000000000000000000000000000000000000000000000000000000000000000000000000000000000000000000000000000000000000000000000000000000000000000
310
00000000000000000000000000000000000000000000000000000000000000000000000000000000000000000000F5F5F5F5F5F5F5F5F5F5F5F5F5F5F5F5F5F5F5F5F5000000000000000000000000000000000000000000000000000000000000000000000000000000000000000000000000000000000000000000000000
310
00000000000000000000000000000000000000000000000000000000000000000000000000000000000000000000000000000000000000000000000000000000000000000000000000000000000000000000000000000000000000000000000000000000000000000000000000000000000000000000000000000000000000
310
000000000000000000000000000000000000000000000000000000000000000000000000000000000000000000000000F5F5F5F5F5F5F5F5F5F5F5F5F5000000000000000000000000000000000000000000000000000000000000000000000000000000000000000000000000000000000000000000000000000000000000
310
00000000000000000000000000000000000000000000000000000000000000000000000000000000000000000000000000000000000000000000000000000000000000000000000000000000000000000000000000000000000000000000000000000000000000000000000000000000000000000000000000000000000000
310
0000000000000000000000000000000000000000000000000000000000000000000000000000000000000000000000000000F5F5F5F5F5F5F5F5F5F5F5F5F500000000000000000000000000000000000000000000000000000000000000000000000000000000000000000000000000000000000000000000000000000000
310
00000000000000000000000000000000000000000000000000000000000000000000000000000000000000000000000000000000000000000000000000000000000000000000000000000000000000000000000000000000000000000000000000000000000000000000000000000000000000000000000000000000000000
310
00000000000000000000000000000000000000000000000000000000000000000000000000000000000000000000000000000000F5F5F5F5F5F5F5F5F5F5F5F5F5F5F5F50000000000000000000000000000000000000000000000000000000000000000000000000000000000000000000000000000000000000000000000
310
00000000000000000000000000000000000000000000000000000000000000000000000000000000000000000000000000000000000000000000000000000000000000000000000000000000000000000000000000000000000000000000000000000000000000000000000000000000000000000000000000000000000000
310
000000000000000000000000000000000000000000000000000000000000000000000000000000000000000000000000000000000000F5F5F5F5F5F5F5F5F5F5F5F5F5F5F5F5000000000000000000000000000000000000000000000000000000000000000000000000000000000000000000000000000000000000000000
310
00000000000000000000000000000000000000000000000000000000000000000000000000000000000000000000000000000000000000000000000000000000000000000000000000000000000000000000000000000000000000000000000000000000000000000000000000000000000000000000000000000000000000
310
00000000000000000000000000000000000000000000000000000000000000000000000000000000000000000000000000000000000000000000000000000000000000000000000000000000000000000000000000000000000000000000000000000000000000000000000000000000000000000000000000000000000000
310
00000000000000000000000000000000000000000000000000000000000000000000000000000000000000000000000000000000000000000000000000000000000000000000000000000000000000000000000000000000000000000000000000000000000000000000000000000000000000000000000000000000000000
310
00000000000000000000000000000000000000000000000000000000000000000000000000000000000000000000000000000000000000000000000000000000000000000000000000000000000000000000000000000000000000000000000000000000000000000000000000000000000000000000000000000000000000
310
00000000000000000000000000000000000000000000000000000000000000000000000000000000000000000000000000000000000000000000000000000000000000000000000000000000000000000000000000000000000000000000000000000000000000000000000000000000000000000000000000000000000000
310
00000000000000000000000000000000000000000000000000000000000000000000000000000000000000000000000000000000000000000000000000000000000000000000000000000000000000000000000000000000000000000000000000000000000000000000000000000000000000000000000000000000000000
310
00000000000000000000000000000000000000000000000000000000000000000000000000000000000000000000000000000000000000000000000000000000000000000000000000000000000000000000000000000000000000000000000000000000000000000000000000000000000000000000000000000000000000
310
00000000000000000000000000000000000000000000000000000000000000000000000000000000000000000000000000000000000000000000000000000000000000000000000000000000000000000000000000000000000000000000000000000000000000000000000000000000000000000000000000000000000000
310
00000000000000000000000000000000000000000000000000000000000000000000000000000000000000000000000000000000000000000000000000000000000000000000000000000000000000000000000000000000000000000000000000000000000000000000000000000000000000000000000000000000000000
310
00000000000000000000000000000000000000000000000000000000000000000000000000000000000000000000000000000000000000000000000000000000000000000000000000000000000000000000000000000000000000000000000000000000000000000000000000000000000000000000000000000000000000
310
00000000000000000000000000000000000000000000000000000000000000000000000000000000000000000000000000000000000000000000000000000000000000000000000000000000000000000000000000000000000000000000000000000000000000000000000000000000000000000000000000000000000000
310
00000000000000000000000000000000000000000000000000000000000000000000000000000000000000000000000000000000000000000000000000000000000000000000000000000000000000000000000000000000000000000000000000000000000000000000000000000000000000000000000000000000000000
310
00000000000000000000000000000000000000000000000000000000000000000000000000000000000000000000000000000000000000000000000000000000000000000000000000000000000000000000000000000000000000000000000000000000000000000000000000000000000000000000000000000000000000
310
00000000000000000000000000000000000000000000000000000000000000000000000000000000000000000000000000000000000000000000000000000000000000000000000000000000000000000000000000000000000000000000000000000000000000000000000000000000000000000000000000000000000000
310
00000000000000000000000000000000000000000000000000000000000000000000000000000000000000000000000000000000000000000000000000000000000000000000000000000000000000000000000000000000000000000000000000000000000000000000000000000000000000000000000000000000000000
310
00000000000000000000000000000000000000000000000000000000000000000000000000000000000000000000000000000000000000000000000000000000000000000000000000000000000000000000000000000000000000000000000000000000000000000000000000000000000000000000000000000000000000
310
00000000000000000000000000000000000000000000000000000000000000000000000000000000000000000000000000000000000000000000000000000000000000000000000000000000000000000000000000000000000000000000000000000000000000000000000000000000000000000000000000000000000000
310
00000000000000000000000000000000000000000000000000000000000000000000000000000000000000000000000000000000000000000000000000000000000000000000000045454545454545454545454545454545454545454545454545454545454545454545454545454545454545454545454500000000000000
310
00000000000000000000000000000000000000000000000000000000000000000000000000000000000000000000000000000000000000000000000000000000000000000000000000000000000000000000000000000000000000000000000000000000000000000000000000000000000000000000000000000000000000
310
00000000000000000000000000000000000000000000000000000000000000000000000000000000000000000000000000000000000000000000000000000000000000000000000000004545000000000000000000000000000000000000454545454500000000000000000000000000000000000000004545450000000000
310
00000000000000000000000000000000000000000000000000000000000000000000000000000000000000000000000000000000000000000000000000000000000000000000000000000000000000000000000000000000000000000000000000000000000000000000000000000000000000000000000000000000000000
310
00000000000000000000000000000000000000000000000000000000000000000000000000000000000000000000000000000000000000000000000000000000000000000000000000000000450000000000000000000000000000000000000045454545450000000000000000000000000000000000000000000045000000
310
00000000000000000000000000000000000000000000000000000000000000000000000000000000000000000000000000000000000000000000000000000000000000000000000000000000000000000000000000000000000000000000000000000000000000000000000000000000000000000000000000000000000000
310
00000000000000000000000000000000000000000000000000000000000000000000000000000000000000000000000000000000000000000000000000000000000000000000000000000000000045000000000000000000000000000000000000000000000000000000000000000000000000000000000000000000004500
310
00000000000000000000000000000000000000000000000000000000000000000000000000000000000000000000000000000000000000000000000000000000000000000000000000000000000000000000000000000000000000000000000000000000000000000000000000000000000000000000000000000000000000
310
0000000000000000000000000000000000000000000000000000000000000000000000000000000000000000000000000000000000000000000000000000000000000000000000000000000000000000450000000000000000000000000000000000000000000000000000F500000000000000000000000000000000000000
310
45000000000000000000000000000000000000000000000000000000000000000000000000000000000000000000000000000000000000000000000000000000000000000000000000000000000000000000000000000000000000000000000000000000000000000000000000000000000000000000000000000000000000
310
0000000000000000000000000000000000000000000000000000000000000000000000000000000000000000000000000000000000000000000000000000000000000000000000000000000000000000000045F5F5F5F5F5F5F5F5F5F5F5F5F5F5F5F5F5F5F5F5F5F5F5F5F5F5F5F5F5F5F5F5F5F5F5F5F5F5F5F5F5F5F5F5
310
F5454545454545450000000000000000000000000000000000000000000000000000000000000000000000000000000000000000000000000000000000000000000000000000000000000000000000000000000000000000000000000000000000000000000000000000000000000000000000000000000000000000000000
310
00000000000000000000000000000000000000000000000000000000000000000000000000000000000000000000000000000000000000000000000000000000000000000000000000000000000000000000000045F5F5F5F5F5F5F5F5F5F5F5F5F5F5F5F5F5F5F5F5F5F5F5F5F5F5F5F5F5F5F5F5F5F5F5F5F5F5F5F5F5F5
310
F5F5F5F5450000000045000000000000000000000000000000000000000000000000000000000000000000000000000000000000000000000000000000000000000000000000000000000000000000000000000000000000000000000000000000000000000000000000000000000000000000000000000000000000000000
310
000000000000000000000000000000000000000000000000000000000000000000000000000000000000000000000000000000000000000000000000000000000000000000000000000000000000000000000000000045F5F5000000000000000000000000000000000000000000000000F500000000000000000000000000
310
00000000F5F545000000004500000000000000000000000000000000000000000000000000000000000000000000000000000000000000000000000000000000000000000000000000000000000000000000000000000000000000000000000000000000000000000000000000000000000000000000000000000000000000
310
0000000000000000000000000000000000000000000000000000000000000000000000000000000000000000000000000000000000000000000000000000000000000000000000000000000000000000000000000000000045F5F5000000000000000000000000000000000000000000000000000000000000000000000000
310
0000000000F5F5F54500454545450000000000000000000000000000000000000000000000000000000000000000000000000000000000000000000000000000000000000000000000000000000000000000000000000000000000000000000000000000000000000000000000000000000000000000000000000000000000
310
00000000000000000000000000000000000000000000000000000000000000000000000000000000000000000000000000000000000000000000000000000000000000000000000000000000000000000000000000000000000045F5F500000000000000000000000000000000000000000000000000000000000000000000
310
00000000000000F5F5F5450045454545000000000000000000000000000000000000000000000000000000000000000000000000000000000000000000000000000000000000000000000000000000000000000000000000000000000000000000000000000000000000000000000000000000000000000000000000000000
310
0000000000000000000000000000000000000000000000000000000000000000000000000000000000000000000000000000000000000000000000000000000000000000000000000000000000000000000000000000000000000000F500F50000000000000000000000000000000000000000000000000000000000000000
310
000000000000000000F50000F5004545454500000000000000000000000000000000000000000000000000000000000000000000000000000000000000000000000000000000000000000000000000000000000000000000000000000000000000000000000000000000000000000000000000000000000000000000000000
310
00000000000000000000000000000000000000000000000000000000000000000000000000000000000000000000000000000000000000000000000000000000000000000000000000000000000000000000000000000000000000000000F5F5F5000000000000000000000000000000000000000000000000000000000000
310
0000000000000000000000F5F5F5F500454545450000000000000000000000000000000000000000000000000000000000000000000000000000000000000000000000000000000000000000000000000000000000000000000000000000000000000000000000000000000000000000000000000000000000000000000000
310
00000000000000000000000000000000000000000000000000000000000000000000000000000000000000000000000000000000000000000000000000000000000000000000000000000000000000000000000000000000000000000000000000F5F500000000000000000000000000000000000000000000000000000000
310
0000000000000000000000000000F5F5000000000045000000000000000000000000000000000000000000000000000000000000000000000000000000000000000000000000000000000000000000000000000000000000000000000000000000000000000000000000000000000000000000000000000000000000000000
310
000000000000000000000000000000000000000000000000000000000000000000000000000000000000000000000000000000000000000000000000000000000000000000000000000000000000000000000000000000000000000000000000000000F5F50000000000000000000000000000000000F5F500000000000000
310
00000000000000000000000000000000F5F500000000004500000000000000000000000000000000000000000000000000000000000000000000000000000000000000000000000000000000000000000000000000000000000000000000000000000000000000000000000000000000000000000000000000000000000000
310
0000000000000000000000000000000000000000000000000000000000000000000000000000000000000000000000000000000000000000000000000000000000000000000000000000000000000000000000000000000000000000000000000000000000F5F5F5F5F5F5F5F5F5F5F5F5F5F5F5F5F5F5F5F5F5F5F5F5F5F5
310
F5F5F5F5F5F5F5F5F5F5F5F5F5F5F5F5F5F5F5F50000000000450000000000000000000000000000000000000000000000000000000000000000000000000000000000000000000000000000000000000000000000000000000000000000000000000000000000000000000000000000000000000000000000000000000000
310
00000000000000000000000000000000000000000000000000000000000000000000000000000000000000000000000000000000000000000000000000000000000000000000000000000000000000000000000000000000000000000000000000000000000000F5F50000000000000000000000000000000000F5F5000000
310
0000000000000000000000000000000000000000F545454545454545000000000000000000000000000000000000000000000000000000000000000000000000000000000000000000000000000000000000000000000000000000000000000000000000000000000000000000000000000000000000000000000000000000
310
00000000000000000000000000000000000000000000000000000000000000000000000000000000000000000000000000000000000000000000000000000000000000000000000000000000000000000000000000000000000000000000000000000000000000000000000000000000000000000000000000000000000000
310
00000000000000000000000000000000000000000000000000000000000000000000000000000000000000000000000000000000000000000000000000000000000000000000000000000000000000000000000000000000000000000000000000000000000000000000000000000000000000000000000000000000000000
310
00000000000000000000000000000000000000000000000000000000000000000000000000000000000000000000000000000000000000000000000000000000000000000000000000000000000000000000000000000000000000000000000000000000000000000000000000000000000000000000000000000000000000
310
00000000000000000000000000000000000000000000000000000000000000000000000000000000000000000000000000000000000000000000000000000000000000000000000000000000000000000000000000000000000000000000000000000000000000000000000000000000000000000000000000000000000000
310
00000000000000000000000000000000000000000000000000000000000000000000000000000000000000000000000000000000000000000000000000000000000000000000000000000000000000000000000000000000000000000000000000000000000000000000000000000000000000000000000000000000000000
310
00000000000000000000000000000000000000000000000000000000000000000000000000000000000000000000000000000000000000000000000000000000000000000000000000000000000000000000000000000000000000000000000000000000000000000000000000000000000000000000000000000000000000
310
00000000000000000000000000000000000000000000000000000000000000000000000000000000000000000000000000000000000000000000000000000000000000000000000000000000000000000000000000000000000000000000000000000000000000000000000000000000000000000000000000000000000000
310
00000000000000000000000000000000000000000000000000000000000000000000000000000000000000000000000000000000000000000000000000000000000000000000000000000000000000000000000000000000000000000000000000000000000000000000000000000000000000000000000000000000000000
310
00000000000000000000000000000000000000000000000000000000000000000000000000000000000000000000000000000000000000000000000000000000000000000000000000000000000000000000000000000000000000000000000000000000000000000000000000000000000000000000000000000000000000
310
00000000000000000000000000000000000000000000000000000000000000000000000000000000000000000000000000000000000000000000000000000000000000000000000000000000000000000000000000000000000000000000000000000000000000000000000000000000000000000000000000000000000000
310
00000000000000000000000000000000000000000000000000000000000000000000000000000000000000000000000000000000000000000000000000000000000000000000000000000000000000000000000000000000000000000000000000000000000000000000000000000000000000000000000000000000000000
310
00000000000000000000000000000000000000000000000000000000000000000000000000000000000000000000000000000000000000000000000000000000000000000000000000000000000000000000000000000000000000000000000000000000000000000000000000000000000000000000000000000000000000
310
00000000000000000000000000000000000000000000000000000000000000000000000000000000000000000000000000000000000000000000000000000000000000000000000000000000000000000000000000000000000000000000000000000000000000000000000000000000000000000000000000000000000000
310
00000000000000000000000000000000000000000000000000000000000000000000000000000000000000000000000000000000000000000000000000000000000000000000000000000000000000000000000000000000000000000000000000000000000000000000000000000000000000000000000000000000000000
310
00000000000000000000000000000000000000000000000000000000000000000000000000000000000000000000000000000000000000000000000000000000000000000000000000000000000000000000000000000000000000000000000000000000000000000000000000000000000000000000000000000000000000
310
00000000000000000000000000000000000000000000000000000000000000000000000000000000000000000000000000000000000000000000000000000000000000000000000000000000000000000000000000000000000000000000000000000000000000000000000000000000000000000000000000000000000000
310
00000000000000000000000000000000000000000000000000000000000000000000000000000000000000000000000000000000000000000000000000000000000000000000000000000000000000000000000000000000000000000000000000000000000000000000000000000000000000000000000000000000000000
310
00000000000000000000000000000000000000000000000000000000000000000000000000000000000000000000000000000000000000000000000000000000000000000000000000000000000000000000000000000000000000000000000000000000000000000000000000000000000000000000000000000000000000
310
00000000000000000000000000000000000000000000000000000000000000000000000000000000000000000000000000000000000000000000000000000000000000000000000000000000000000000000000000000000000000000000000000000000000000000000000000000000000000000000000000000000000000
310
00000000000000000000000000000000000000000000000000000000000000000000000000000000000000000000000000000000000000000000000000000000000000000000000000000000000000000000000000000000000000000000000000000000000000000000000000000000000000000000000000000000000000
310
00000000000000000000000000000000000000000000000000000000000000000000000000000000000000000000000000000000000000000000000000000000000000000000000000000000000000000000000000000000000000000000000000000000000000000000000000000000000000000000000000000000000000
310
00000000000000000000000000000000000000000000000000000000000000000000000000000000000000000000000000000000000000000000000000000000000000000000000000000000000000000000000000000000000000000000000000000000000000000000000000000000000000000000000000000000000000
310
00000000000000000000000000000000000000000000000000000000000000000000000000000000000000000000000000000000000000000000000000000000000000000000000000000000000000000000000000000000000000000000000000000000000000000000000000000000000000000000000000000000000000
310
00000000000000000000000000000000000000000000000000000000000000000000000000000000000000000000000000000000000000000000000000000000000000000000000000000000000000000000000000000000000000000000000000000000000000000000000000000000000000000000000000000000000000
310
00000000000000000000000000000000000000000000000000000000000000000000000000000000000000000000000000000000000000000000000000000000000000000000000000000000000000000000000000000000000000000000000000000000000000000000000000000000000000000000000000000000000000
310
00000000000000000000000000000000000000000000000000000000000000000000000000000000000000000000000000000000000000000000000000000000000000000000000000000000000000000000000000000000000000000000000000000000000000000000000000000000000000000000000000000000000000
310
00000000000000000000000000000000000000000000000000000000000000000000000000000000000000000000000000000000000000000000000000000000000000000000000000000000000000000000000000000000000000000000000000000000000000000000000000000000000000000000000045454545454545
310
4545F5F5F5F5F5F500000000000000000000000000000000000000000000000000000000000000000000000000F5F5F5F5F5F5F5F50000000000000000000000000000000000000000000000000000000000000000000000000000000000000000000000000000000000000000000000000000000000000000000000000000
310
00000000000000000000000000000000000000000000000000000000000000000000000000000000000000000000000000000000000000000000000000000000000000000000000000000000000000000000000000000000000000000000000000000000000000000000000000000000000000000000000000004545454545
310
450000F50000000000F500000000000000000000000000000000000000000000000000000000000000000000000000F5000000000000F5000000000000000000000000000000000000000000000000000000000000000000000000000000000000000000000000000000000000000000000000000000000000000000000000
310
00000000000000000000000000000000000000000000000000000000000000000000000000000000000000000000000000000000000000000000000000000000000000000000000000000000000000000000000000000000000000000000000000000000000000000000000000000000000000000000000000000000004545
310
4545450000F50000000000F500000000000000000000000000000000000000000000000000000000000000000000000000F5000000000000F500000000000000000000000000000000000000000000000000000000000000000000000000000000000000000000000000000000000000000000000000000000000000000000
310
00000000000000000000000000000000000000000000000000000000000000000000000000000000000000000000000000000000000000000000000000000000000000000000000000000000000000000000000000000000000000000000000000000000000000000000000000000000000000000000000000000000454545
310
4545454545000000F5000000F5000000000000000000000000000000000000000000000000000000000000000000000000000000F500000000F5000000000000000000000000000000000000000000000000000000000000000000000000000000000000000000000000000000000000000000000000000000000000000000
310
00000000000000000000000000000000000000000000000000000000000000000000000000000000000000000000000000000000000000000000000000000000000000000000000000000000000000000000000000000000000000000000000000000000000000000000000000000000000000000000000000000000000045
310
45454500000045000000F5000000F5000000000000000000000000000000000000000000000000000000000000000000000000000000F500000000F500000000000000000000000000000000000000000000000000000000000000000000000000000000000000000000000000000000000000000000000000000000000000
310
00000000000000000000000000000000000000000000000000000000000000000000000000000000000000000000000000000000000000000000000000000000000000000000000000000000000000000000000000000000000000000000000000000000000000000000000000000000000000000000000000000000000000
310
00454545450000454545454545F5F5F5F5000000000000000000000000000000000000000000000000000000000000000000000000000000F5F5F5F5F5F50000000000000000000000000000000000000000000000000000000000000000000000000000000000000000000000000000000000000000000000000000000000
310
00000000000000000000000000000000000000000000000000000000000000000000000000000000000000000000000000000000000000000000000000000000000000000000000000000000000000000000000000000000000000000000000000000000000000000000000000000000000000000000000000000000000000
310
000000454545450000000000000000F5F5F5F500000000000000000000000000000000000000000000000000000000000000000000000000000000F5F5F5F500000000000000000000000000000000000000000000000000000000000000000000000000000000000000000000000000000000000000000000000000000000
310
00000000000000000000000000000000000000000000000000000000000000000000000000000000000000000000000000000000000000000000000000000000000000000000000000000000000000000000000000000000000000000000000000000000000000000000000000000000000000000000000000000000000000
310
0000000000000000450000000000000000F500F50000000000000000000000000000000000000000000000000000000000000000000000000000000000F50000F50000000000000000000000000000000000000000000000000000000000000000000000000000000000000000000000000000000000000000000000000000
310
00000000000000000000000000000000000000000000000000000000000000000000000000000000000000000000000000000000000000000000000000000000000000000000000000000000000000000000000000000000000000000000000000000000000000000000000000000000000000000000000000000000000000
310
00000000000000000000450000000000000000F500F50000000000000000000000000000000000000000000000000000000000000000000000000000000000F50000F5000000000000000000000000000000000000000000000000000000000000000000000000000000000000000000000000000000000000000000000000
310
00000000000000000000000000000000000000000000000000000000000000000000000000000000000000000000000000000000000000000000000000000000000000000000000000000000000000000000000000000000000000000000000000000000000000000000000000000000000000000000000000000000000000
310
000000000000000000000045450000000000000000F500F50000000000000000000000000000000000000000000000000000000000000000000000000000000000F50000F500000000000000000000000000000000000000000000000000000000000000000000000000000000000000000000000000000000000000000000
310
00000000000000000000000000000000000000000000000000000000000000000000000000000000000000000000000000000000000000000000000000000000000000000000000000000000000000000000000000000000000000000000000000000000000000000000000000000000000000000000000000000000000000
310
000000000000000000000000004545454545F5F5F5F5F5F5F5F5F5F5F5F5F5F5F5F5F5F5F5F5F5F5F5F5F5F5F5F5F5F5F5F5F5F5F5F5F5F5F5F5F5F5F5F5F5F5F5F5F5F5F5F5F5F5F5F5F5F5F50000000000000000000000000000000000000000000000000000000000000000000000000000000000000000000000000000
310
00000000000000000000000000000000000000000000000000000000000000000000000000000000000000000000000000000000000000000000000000000000000000000000000000000000000000000000000000000000000000000000000000000000000000000000000000000000000000000000000000000000000000
310
00000000000000000000000000000045450000000000000000F500F50000000000000000000000000000000000000000000000000000000000000000000000000000000000F50000F5000000000000000000000000000000000000000000000000000000000000000000000000000000000000000000000000000000000000
310
00000000000000000000000000000000000000000000000000000000000000000000000000000000000000000000000000000000000000000000000000000000000000000000000000000000000000000000000000000000000000000000000000000000000000000000000000000000000000000000000000000000000000
310
000000000000000000000000000000000000450000000000000000F500F50000000000000000000000000000000000000000000000000000000000000000000000000000000000F50000F500000000000000000000000000000000000000000000000000000000000000000000000000000000000000000000000000000000
310
00000000000000000000000000000000000000000000000000000000000000000000000000000000000000000000000000000000000000000000000000000000000000000000000000000000000000000000000000000000000000000000000000000000000000000000000000000000000000000000000000000000000000
310
0000000000000000000000000000000000000000450000000000000000F500F50000000000000000000000000000000000000000000000000000000000000000000000000000000000F50000F50000000000000000000000000000000000000000000000000000000000000000000000000000000000000000000000000000
310
00000000000000000000000000000000000000000000000000000000000000000000000000000000000000000000000000000000000000000000000000000000000000000000000000000000000000000000000000000000000000000000000000000000000000000000000000000000000000000000000000000000000000
310
00000000000000000000000000000000000000000000450000000000000000F500F50000000000000000000000000000000000000000000000000000000000000000000000000000000000F50000F5000000000000000000000000000000000000000000000000000000000000000000000000000000000000000000000000
310
00000000000000000000000000000000000000000000000000000000000000000000000000000000000000000000000000000000000000000000000000000000000000000000000000000000000000000000000000000000000000000000000000000000000000000000000000000000000000000000000000000000000000
310
000000000000000000000000000000000000000000000000450000000000000000F500F50000000000000000000000000000000000000000000000000000000000000000000000000000000000F50000F500000000000000000000000000000000000000000000000000000000000000000000000000000000000000000000
310
00000000000000000000000000000000000000000000000000000000000000000000000000000000000000000000000000000000000000000000000000000000000000000000000000000000000000000000000000000000000000000000000000000000000000000000000000000000000000000000000000000000000000
310
0000000000000000000000000000000000000000000000000000450000000000000000F500F50000000000000000000000000000000000000000000000000000000000000000000000000000000000F50000F50000000000000000000000000000000000000000000000000000000000000000000000000000000000000000
310
00000000000000000000000000000000000000000000000000000000000000000000000000000000000000000000000000000000000000000000000000000000000000000000000000000000000000000000000000000000000000000000000000000000000000000000000000000000000000000000000000000000000000
310
00000000000000000000000000000000000000000000000000000000450000000000000000F500F50000000000000000000000000000000000000000000000000000000000000000000000000000000000F50000F5000000000000000000000000000000000000000000000000000000000000000000000000000000000000
310
00000000000000000000000000000000000000000000000000000000000000000000000000000000000000000000000000000000000000000000000000000000000000000000000000000000000000000000000000000000000000000000000000000000000000000000000000000000000000000000000000000000000000
310
000000000000000000000000000000000000000000000000000000000000450000000000000000F500F50000000000000000000000000000000000000000000000000000000000000000000000000000000000F50000F500000000000000000000000000000000000000000000000000000000000000000000000000000000
310
00000000000000000000000000000000000000000000000000000000000000000000000000000000000000000000000000000000000000000000000000000000000000000000000000000000000000000000000000000000000000000000000000000000000000000000000000000000000000000000000000000000000000
310
0000000000000000000000000000000000000000000000000000000000000000450000000000000000F500F50000000000000000000000000000000000000000000000000000000000000000000000000000000000F50000F50000000000000000000000000000000000000000000000000000000000000000000000000000
310
00000000000000000000000000000000000000000000000000000000000000000000000000000000000000000000000000000000000000000000000000000000000000000000000000000000000000000000000000000000000000000000000000000000000000000000000000000000000000000000000000000000000000
310
00000000000000000000000000000000000000000000000000000000000000000000450000000000000000F500F50000000000000000000000000000000000000000000000000000000000000000000000000000000000F50000F5000000000000000000000000000000000000000000000000000000000000000000000000
310
00000000000000000000000000000000000000000000000000000000000000000000000000000000000000000000000000000000000000000000000000000000000000000000000000000000000000000000000000000000000000000000000000000000000000000000000000000000000000000000000000000000000000
310
000000000000000000000000000000000000000000000000000000000000000000000000450000000000000000F500F5000000000000000000000000000000000000000000000000F5F5000000000000000000000000F5F5F5F50000F500000000000000000000000000000000000000000000000000000000000000000000
310
00000000000000000000000000000000000000000000000000000000000000000000000000000000000000000000000000000000000000000000000000000000000000000000000000000000000000000000000000000000000000000000000000000000000000000000000000000000000000000000000000000000000000
310
0000000000000000000000000000000000000000000000000000000000000000000000000000450000000000000000F500F5000000000000000000000000000000000000000000000000F5F50000000000000000F5F5F5F5F5F5F5F50000F50000000000000000000000000000000000000000000000000000000000000000
310
00000000000000000000000000000000000000000000000000000000000000000000000000000000000000000000000000000000000000000000000000000000000000000000000000000000000000000000000000000000000000000000000000000000000000000000000000000000000000000000000000000000000000
310
00000000000000000000000000000000000000000000000000000000000000000000000000000000450000000000000000F500F5000000000000000000000000000000000000000000000000F5F50000000000F5F5F5F5F5F5F5000000F50000F5000000000000000000000000000000000000000000000000000000000000
310
00000000000000000000000000000000000000000000000000000000000000000000000000000000000000000000000000000000000000000000000000000000000000000000000000000000000000000000000000000000000000000000000000000000000000000000000000000000000000000000000000000000000000
310
000000000000000000000000000000000000000000000000000000000000000000000000000000000000450000000000000000F500F50000000000000000000000000000000000F5F50000000000F5F500000000F5F5F5F500000000000000F50000F500000000000000000000000000000000000000000000000000000000
310
00000000000000000000000000000000000000000000000000000000000000000000000000000000000000000000000000000000000000000000000000000000000000000000000000000000000000000000000000000000000000000000000000000000000000000000000000000000000000000000000000000000000000
310
0000000000000000000000000000000000000000000000000000000000000000000000000000000000000000450000000000000000F500F50000000000000000000000000000000000F5F500000000F5F5F500000000F5F5000000000000000000F50000F50000000000000000000000000000000000000000000000000000
310
00000000000000000000000000000000000000000000000000000000000000000000000000000000000000000000000000000000000000000000000000000000000000000000000000000000000000000000000000000000000000000000000000000000000000000000000000000000000000000000000000000000000000
310
00000000000000000000000000000000000000000000000000000000000000000000000000000000000000454545450000000000000000F500F50000000000000000000000000000000000F5F5000000F5F5F5F5F5000000F500000000000000000000F5F5F5F5000000000000000000000000000000000000000000000000
310
00000000000000000000000000000000000000000000000000000000000000000000000000000000000000000000000000000000000000000000000000000000000000000000000000000000000000000000000000000000000000000000000000000000000000000000000000000000000000000000000000000000000000
310
000000000000000000000000000000000000000000000000000000000000000000000000000000000000000000454545450000000000000000F500F500000000000000000000000000000000F5F5F5000000F5F50000F5F5F500F5F5000000000000000000F5F5F5F500000000000000000000000000000000000000000000
310
00000000000000000000000000000000000000000000000000000000000000000000000000000000000000000000000000000000000000000000000000000000000000000000000000000000000000000000000000000000000000000000000000000000000000000000000000000000000000000000000000000000000000
310
0000000000000000000000000000000000000000000000000000000000000000000000000000000000000000000000454545450000000000000000F500F500000000000000000000000000F5F5F5F5F5F5F50000F5F500000000F5F500F5000000000000000000F5F5F5F50000000000000000000000000000000000000000
310
00000000000000000000000000000000000000000000000000000000000000000000000000000000000000000000000000000000000000000000000000000000000000000000000000000000000000000000000000000000000000000000000000000000000000000000000000000000000000000000000000000000000000
310
00000000000000000000000000000000000000000000000000000000000000000000000000000000000000000000000000454545450000000000000000F500F50000000000000000000000F5F5F5F5F500F5F5F500F5F5000000000000F5F5F5F50000000000000000F5F5F5F5000000000000000000000000000000000000
310
00000000000000000000000000000000000000000000000000000000000000000000000000000000000000000000000000000000000000000000000000000000000000000000000000000000000000000000000000000000000000000000000000000000000000000000000000000000000000000000000000000000000000
310
000000000000000000000000000000000000000000000000000000000000000000000000000000000000000000000000000000454545450000000000000000F500F50000000000000000F5F5F5F5F50000000000F5F500F5F50000000000000000F5F50000000000000000F5F5000000000000000000000000000000000000
310
00000000000000000000000000000000000000000000000000000000000000000000000000000000000000000000000000000000000000000000000000000000000000000000000000000000000000000000000000000000000000000000000000000000000000000000000000000000000000000000000000000000000000
310
0000000000000000000000000000000000000000000000000000000000000000000000000000000000000000000000000000000000000000450000000000000000F500F500000000000000F5F5F5F50000000000000000F5F5F5F50000000000000000F5F5F500000000000000F5F500000000000000000000000000000000
310
00000000000000000000000000000000000000000000000000000000000000000000000000000000000000000000000000000000000000000000000000000000000000000000000000000000000000000000000000000000000000000000000000000000000000000000000000000000000000000000000000000000000000
310
00000000000000000000000000000000000000000000000000000000000000000000000000000000000000000000000000000000000000000000450000000000000000F500F500000000000000F5F500000000000000000000F5F5F5F50000000000000000F5F5F5F5000000000000F5F50000000000000000000000000000
310
00000000000000000000000000000000000000000000000000000000000000000000000000000000000000000000000000000000000000000000000000000000000000000000000000000000000000000000000000000000000000000000000000000000000000000000000000000000000000000000000000000000000000
310
000000000000000000000000000000000000000000000000000000000000000000000000000000000000000000000000000000000000000000000000450000000000000000F500F500F5F5F5000000F5F50000000000000000000000F5F500000000000000000000F5F500F5F5000000F5F500000000000000000000000000
310
00000000000000000000000000000000000000000000000000000000000000000000000000000000000000000000000000000000000000000000000000000000000000000000000000000000000000000000000000000000000000000000000000000000000000000000000000000000000000000000000000000000000000
310
0000000000000000000000000000000000000000000000000000000000000000000000000000000000000000000000000000000000000000000000000000450000000000000000F500F5F5F5F5F5F5F50000F5F500000000000000000000F5F500000000000000000000F5F50000F5F50000F5F50000000000000000000000
310
00000000000000000000000000000000000000000000000000000000000000000000000000000000000000000000000000000000000000000000000000000000000000000000000000000000000000000000000000000000000000000000000000000000000000000000000000000000000000000000000000000000000000
310
00000000000000000000000000000000000000000000000000000000000000000000000000000000000000000000000000000000000000000000000000000000450000000000000000F500F5F5F50000F5F5F500F5F500000000000000000000F5F50000000000000000000000F5F5000000F5F5F5F5000000000000000000
310
00000000000000000000000000000000000000000000000000000000000000000000000000000000000000000000000000000000000000000000000000000000000000000000000000000000000000000000000000000000000000000000000000000000000000000000000000000000000000000000000000000000000000
310
000000000000000000000000000000000000000000000000000000000000000000000000000000000000000000000000000000000000000000000000000000000000450000000000000000F500F5F5F500000000F5F5F5F500000000000000000000F5F50000000000000000000000F5F5000000F5F5000000000000000000
310
00000000000000000000000000000000000000000000000000000000000000000000000000000000000000000000000000000000000000000000000000000000000000000000000000000000000000000000000000000000000000000000000000000000000000000000000000000000000000000000000000000000000000
310
0000000000000000000000000000000000000000000000000000000000000000000000000000000000000000000000000000000000000000000000000000000000000000450000000000000000F500F5F5000000000000F5F5F5F50000000000000000F5F5F5F500000000000000000000F5F5000000000000000000000000
310
00000000000000000000000000000000000000000000000000000000000000000000000000000000000000000000000000000000000000000000000000000000000000000000000000000000000000000000000000000000000000000000000000000000000000000000000000000000000000000000000000000000000000
310
00000000000000000000000000000000000000000000000000000000000000000000000000000000000000000000000000000000000000000000000000000000000000000000450000000000000000F500F5F50000000000000000F5F50000000000000000F5F5F5F50000000000000000F5F5F50000000000000000000000
310
00000000000000000000000000000000000000000000000000000000000000000000000000000000000000000000000000000000000000000000000000000000000000000000000000000000000000000000000000000000000000000000000000000000000000000000000000000000000000000000000000000000000000
310
000000000000000000000000000000000000000000000000000000000000000000000000000000000000000000000000000000000000000000000000000000000000000000000000450000000000000000F500F5F50000000000000000F5F5F5F5000000000000F5F500F500000000F5F5F5F5F5F500000000000000000000
310
00000000000000000000000000000000000000000000000000000000000000000000000000000000000000000000000000000000000000000000000000000000000000000000000000000000000000000000000000000000000000000000000000000000000000000000000000000000000000000000000000000000000000
310
0000000000000000000000000000000000000000000000000000000000000000000000000000000000000000000000000000000000000000000000000000000000000000000000000000450000000000000000F500F5F50000000000000000F5F5F5F5F50000000000F5F500F5F5F5F5F5F5F5F5F500000000000000000000
310
00000000000000000000000000000000000000000000000000000000000000000000000000000000000000000000000000000000000000000000000000000000000000000000000000000000000000000000000000000000000000000000000000000000000000000000000000000000000000000000000000000000000000
310
00000000000000000000000000000000000000000000000000000000000000000000000000000000000000000000000000000000000000000000000000000000000000000000000000000000450000000000000000F5F5F500000000000000000000F5F500F5F5F50000F5F50000F5F5F5F5F5000000000000000000000000
310
00000000000000000000000000000000000000000000000000000000000000000000000000000000000000000000000000000000000000000000000000000000000000000000000000000000000000000000000000000000000000000000000000000000000000000000000000000000000000000000000000000000000000
310
000000000000000000000000000000000000000000000000000000000000000000000000000000000000000000000000000000000000000000000000000000000000000000000000000000000000450000000000000000F5F5F500000000000000000000F5F50000F5F5F5F5F5F50000000000000000000000000000000000
310
00000000000000000000000000000000000000000000000000000000000000000000000000000000000000000000000000000000000000000000000000000000000000000000000000000000000000000000000000000000000000000000000000000000000000000000000000000000000000000000000000000000000000
310
0000000000000000000000000000000000000000000000000000000000000000000000000000000000000000000000000000000000000000000000000000000000000000000000000000000000000000450000000000000000F500F500000000000000000000F5F500000000F5F5F500000000000000000000000000000000
310
00000000000000000000000000000000000000000000000000000000000000000000000000000000000000000000000000000000000000000000000000000000000000000000000000000000000000000000000000000000000000000000000000000000000000000000000000000000000000000000000000000000000000
310
00000000000000000000000000000000000000000000000000000000000000000000000000000000000000000000000000000000000000000000000000000000000000000000000000000000000000000000450000000000000000F5F5F5000000000000000000F5F5F5000000000000000000000000000000000000000000
310
00000000000000000000000000000000000000000000000000000000000000000000000000000000000000000000000000000000000000000000000000000000000000000000000000000000000000000000000000000000000000000000000000000000000000000000000000000000000000000000000000000000000000
310
0000000000000000000000000000000000000000000000000000000000000000000000000000000000000000000000000000000000000000000000000000000000000000000000000000000000000000000000004500000000000000000000F5F50000000000F5F5F5F5F5F500000000000000000000000000000000000000
310
00000000000000000000000000000000000000000000000000000000000000000000000000000000000000000000000000000000000000000000000000000000000000000000000000000000000000000000000000000000000000000000000000000000000000000000000000000000000000000000000000000000000000
310
00000000000000000000000000000000000000000000000000000000000000000000000000000000000000000000000000000000000000000000000000000000000000000000000000000000000000000000000000454500000000000000000000F5F50000F5F5F5F5F5F50000000000000000000000000000000000000000
310
00000000000000000000000000000000000000000000000000000000000000000000000000000000000000000000000000000000000000000000000000000000000000000000000000000000000000000000000000000000000000000000000000000000000000000000000000000000000000000000000000000000000000
310
000000000000000000000000000000000000000000000000000000000000000000000000000000000000000000000000000000000000000000000000000000000000000000000000000000000000000000000000000000004500000000000000000000F5F5F5F5F5F500000000000000000000000000000000000000000000
310
00000000000000000000000000000000000000000000000000000000000000000000000000000000000000000000000000000000000000000000000000000000000000000000000000000000000000000000000000000000000000000000000000000000000000000000000000000000000000000000000000000000000000
310
00000000000000000000000000000000000000000000000000000000000000000000000000000000000000000000000000000000000000000000000000000000000000000000000000000000000000000000000000000000004545454545454545454545454545450000000000000000000000000000000000000000000000
310
00000000000000000000000000000000000000000000000000000000000000000000000000000000000000000000000000000000000000000000000000000000000000000000000000000000000000000000000000000000000000000000000000000000000000000000000000000000000000000000000000000000000000
310
00000000000000000000000000000000000000000000000000000000000000000000000000000000000000000000000000000000000000000000000000000000000000000000000000000000000000000000000000000000000000000000000000000000000000000000000000000000000000000000000000000000000000
310
00000000000000000000000000000000000000000000000000000000000000000000000000000000000000000000000000000000000000000000000000000000000000000000000000000000000000000000000000000000000000000000000000000000000000000000000000000000000000000000000000000000000000
310
00000000000000000000000000000000000000000000000000000000000000000000000000000000000000000000000000000000000000000000000000000000000000000000000000000000000000000000000000000000000000000000000000000000000000000000000000000000000000000000000000000000000000
310
00000000000000000000000000000000000000000000000000000000000000000000000000000000000000000000000000000000000000000000000000000000000000000000000000000000000000000000000000000000000000000000000000000000000000000000000000000000000000000000000000000000000000
310
00000000000000000000000000000000000000000000000000000000000000000000000000000000000000000000000000000000000000000000000000000000000000000000000000000000000000000000000000000000000000000000000000000000000000000000000000000000000000000000000000000000000000
310
00000000000000000000000000000000000000000000000000000000000000000000000000000000000000000000000000000000000000000000000000000000000000000000000000000000000000000000000000000000000000000000000000000000000000000000000000000000000000000000000000000000000000
310
0000000000000000
  0
XRECORD
  5
A30
102
{ACAD_REACTORS
330
1A
102
}
330
1A
100
AcDbXrecord
280
     1
102
MATERIAL
148
0.0
149
0.0
149
0.0
 93
        0
 94
      127
282
     0
 72
     0
 77
     0
171
     0
175
     0
179
     0
273
     0
  0
XRECORD
  5
1C
102
{ACAD_REACTORS
330
1A
102
}
330
1A
100
AcDbXrecord
280
     1
270
     1
271
     1
  0
XRECORD
  5
1B
102
{ACAD_REACTORS
330
1A
102
}
330
1A
100
AcDbXrecord
280
     1
270
     1
271
     1
  0
XRECORD
  5
1F
102
{ACAD_REACTORS
330
1A
102
}
330
1A
100
AcDbXrecord
280
     1
270
     1
271
     1
  0
XRECORD
  5
1E
102
{ACAD_REACTORS
330
1A
102
}
330
1A
100
AcDbXrecord
280
     1
270
     1
271
     1
  0
XRECORD
  5
20
102
{ACAD_REACTORS
330
1A
102
}
330
1A
100
AcDbXrecord
280
     1
270
     1
271
     1
  0
XRECORD
  5
1D
102
{ACAD_REACTORS
330
1A
102
}
330
1A
100
AcDbXrecord
280
     1
270
     1
271
     1
  0
XRECORD
  5
A2F
102
{ACAD_REACTORS
330
12
102
}
330
12
100
AcDbXrecord
280
     1
102
MATERIAL
148
0.0
149
0.0
149
0.0
 93
        0
 94
      127
282
     0
 72
     0
 77
     0
171
     0
175
     0
179
     0
273
     0
  0
XRECORD
  5
14
102
{ACAD_REACTORS
330
12
102
}
330
12
100
AcDbXrecord
280
     1
270
     1
271
     1
  0
XRECORD
  5
13
102
{ACAD_REACTORS
330
12
102
}
330
12
100
AcDbXrecord
280
     1
270
     1
271
     1
  0
XRECORD
  5
17
102
{ACAD_REACTORS
330
12
102
}
330
12
100
AcDbXrecord
280
     1
270
     1
271
     1
  0
XRECORD
  5
16
102
{ACAD_REACTORS
330
12
102
}
330
12
100
AcDbXrecord
280
     1
270
     1
271
     1
  0
XRECORD
  5
18
102
{ACAD_REACTORS
330
12
102
}
330
12
100
AcDbXrecord
280
     1
270
     1
271
     1
  0
XRECORD
  5
15
102
{ACAD_REACTORS
330
12
102
}
330
12
100
AcDbXrecord
280
     1
270
     1
271
     1
  0
XRECORD
  5
A31
102
{ACAD_REACTORS
330
22
102
}
330
22
100
AcDbXrecord
280
     1
102
MATERIAL
148
0.0
149
0.0
149
0.0
 93
        0
 94
      127
282
     0
 72
     0
 77
     0
171
     0
175
     0
179
     0
273
     0
  0
XRECORD
  5
24
102
{ACAD_REACTORS
330
22
102
}
330
22
100
AcDbXrecord
280
     1
270
     1
271
     1
  0
XRECORD
  5
23
102
{ACAD_REACTORS
330
22
102
}
330
22
100
AcDbXrecord
280
     1
270
     1
271
     1
  0
XRECORD
  5
27
102
{ACAD_REACTORS
330
22
102
}
330
22
100
AcDbXrecord
280
     1
270
     1
271
     1
  0
XRECORD
  5
26
102
{ACAD_REACTORS
330
22
102
}
330
22
100
AcDbXrecord
280
     1
270
     1
271
     1
  0
XRECORD
  5
28
102
{ACAD_REACTORS
330
22
102
}
330
22
100
AcDbXrecord
280
     1
270
     1
271
     1
  0
XRECORD
  5
25
102
{ACAD_REACTORS
330
22
102
}
330
22
100
AcDbXrecord
280
     1
270
     1
271
     1
  0
CELLSTYLEMAP
  5
A2C
102
{ACAD_REACTORS
330
A2B
102
}
330
A2B
100
AcDbCellStyleMap
 90
        3
300
CELLSTYLE
  1
TABLEFORMAT_BEGIN
 90
        5
170
     1
 91
        0
 92
    32768
 62
   257
 93
        1
300
CONTENTFORMAT
  1
CONTENTFORMAT_BEGIN
 90
        0
 91
        0
 92
      512
 93
        0
300

 40
0.0
140
1.0
 94
        5
 62
     0
340
55
144
0.25
309
CONTENTFORMAT_END
171
     0
 94
        0
309
TABLEFORMAT_END
  1
CELLSTYLE_BEGIN
 90
        1
 91
        1
300
_TITLE
309
CELLSTYLE_END
300
CELLSTYLE
  1
TABLEFORMAT_BEGIN
 90
        5
170
     1
 91
        0
 92
        0
 62
   257
 93
        1
300
CONTENTFORMAT
  1
CONTENTFORMAT_BEGIN
 90
        0
 91
        0
 92
      512
 93
        0
300

 40
0.0
140
1.0
 94
        5
 62
     0
340
55
144
0.18
309
CONTENTFORMAT_END
171
     0
 94
        0
309
TABLEFORMAT_END
  1
CELLSTYLE_BEGIN
 90
        2
 91
        1
300
_HEADER
309
CELLSTYLE_END
300
CELLSTYLE
  1
TABLEFORMAT_BEGIN
 90
        5
170
     1
 91
        0
 92
        0
 62
   257
 93
        1
300
CONTENTFORMAT
  1
CONTENTFORMAT_BEGIN
 90
        0
 91
        0
 92
      512
 93
        0
300

 40
0.0
140
1.0
 94
        2
 62
     0
340
55
144
0.18
309
CONTENTFORMAT_END
171
     0
 94
        0
309
TABLEFORMAT_END
  1
CELLSTYLE_BEGIN
 90
        3
 91
        2
300
_DATA
309
CELLSTYLE_END
  0
XRECORD
  5
A62
102
{ACAD_REACTORS
330
A2B
102
}
330
A2B
100
AcDbXrecord
280
     1
102
ACAD_ROUNDTRIP_PRE2007_TABLESTYLE
 90
      512
 91
        0
  1

 92
      512
 93
        0
  2

 94
      512
 95
        0
  3

  0
XRECORD
  5
A3D
102
{ACAD_REACTORS
330
A3C
102
}
330
A3C
100
AcDbXrecord
280
     1
102
RTVSPropertyOp0
 70
     1
102
RTVSPropertyOp1
 70
     1
102
RTVSPropertyOp2
 70
     1
102
RTVSPropertyOp3
 70
     1
102
RTVSPropertyOp4
 70
     1
102
RTVSPropertyOp5
 70
     1
102
RTVSPropertyOp6
 70
     1
102
RTVSPropertyOp7
 70
     1
102
RTVSPropertyOp8
 70
     1
102
RTVSPropertyOp9
 70
     1
102
RTVSPropertyOp10
 70
     1
102
RTVSPropertyOp11
 70
     1
102
RTVSPropertyOp12
 70
     1
102
RTVSPropertyOp13
 70
     1
102
RTVSPropertyOp14
 70
     1
102
RTVSPropertyOp15
 70
     1
102
RTVSPropertyOp16
 70
     1
102
RTVSPropertyOp17
 70
     1
102
RTVSPropertyOp18
 70
     1
102
RTVSPropertyOp19
 70
     1
102
RTVSPropertyOp20
 70
     1
102
RTVSPropertyOp21
 70
     1
102
RTVSPropertyOp22
 70
     1
102
RTVSPropertyOp23
 70
     1
102
RTVSPropertyOp24
 70
     1
102
RTVSPropertyOp25
 70
     1
102
RTVSPropertyOp26
 70
     1
102
RTVSPropertyOp27
 70
     1
102
RTVSPropertyOp28
 70
     1
102
RTVSPropertyOp29
 70
     1
102
RTVSPropertyOp30
 70
     1
102
RTVSPropertyOp31
 70
     1
102
RTVSPropertyOp32
 70
     1
  0
XRECORD
  5
A6E
102
{ACAD_REACTORS
330
A6D
102
}
330
A6D
100
AcDbXrecord
280
     1
102
RTVSPropertyOp0
 70
     1
102
RTVSPropertyOp1
 70
     1
102
RTVSPropertyOp2
 70
     1
102
RTVSPropertyOp3
 70
     1
102
RTVSPropertyOp4
 70
     1
102
RTVSPropertyOp5
 70
     1
102
RTVSPropertyOp6
 70
     1
102
RTVSPropertyOp7
 70
     1
102
RTVSPropertyOp8
 70
     1
102
RTVSPropertyOp9
 70
     1
102
RTVSPropertyOp10
 70
     1
102
RTVSPropertyOp11
 70
     1
102
RTVSPropertyOp12
 70
     1
102
RTVSPropertyOp13
 70
     1
102
RTVSPropertyOp14
 70
     1
102
RTVSPropertyOp15
 70
     1
102
RTVSPropertyOp16
 70
     1
102
RTVSPropertyOp17
 70
     1
102
RTVSPropertyOp18
 70
     1
102
RTVSPropertyOp19
 70
     1
102
RTVSPropertyOp20
 70
     1
102
RTVSPropertyOp21
 70
     1
102
RTVSPropertyOp22
 70
     1
102
RTVSPropertyOp23
 70
     1
102
RTVSPropertyOp24
 70
     1
102
RTVSPropertyOp25
 70
     1
102
RTVSPropertyOp26
 70
     1
102
RTVSPropertyOp27
 70
     1
102
RTVSPropertyOp28
 70
     1
102
RTVSPropertyOp29
 70
     1
102
RTVSPropertyOp30
 70
     1
102
RTVSPropertyOp31
 70
     1
102
RTVSPropertyOp32
 70
     1
  0
XRECORD
  5
A3B
102
{ACAD_REACTORS
330
A3A
102
}
330
A3A
100
AcDbXrecord
280
     1
102
RTVSPropertyOp0
 70
     1
102
RTVSPropertyOp1
 70
     1
102
RTVSPropertyOp2
 70
     1
102
RTVSPropertyOp3
 70
     1
102
RTVSPropertyOp4
 70
     1
102
RTVSPropertyOp5
 70
     1
102
RTVSPropertyOp6
 70
     1
102
RTVSPropertyOp7
 70
     1
102
RTVSPropertyOp8
 70
     1
102
RTVSPropertyOp9
 70
     1
102
RTVSPropertyOp10
 70
     1
102
RTVSPropertyOp11
 70
     1
102
RTVSPropertyOp12
 70
     1
102
RTVSPropertyOp13
 70
     1
102
RTVSPropertyOp14
 70
     1
102
RTVSPropertyOp15
 70
     1
102
RTVSPropertyOp16
 70
     1
102
RTVSPropertyOp17
 70
     1
102
RTVSPropertyOp18
 70
     1
102
RTVSPropertyOp19
 70
     1
102
RTVSPropertyOp20
 70
     1
102
RTVSPropertyOp21
 70
     1
102
RTVSPropertyOp22
 70
     1
102
RTVSPropertyOp23
 70
     1
102
RTVSPropertyOp24
 70
     1
102
RTVSPropertyOp25
 70
     1
102
RTVSPropertyOp26
 70
     1
102
RTVSPropertyOp27
 70
     1
102
RTVSPropertyOp28
 70
     1
102
RTVSPropertyOp29
 70
     1
102
RTVSPropertyOp30
 70
     1
102
RTVSPropertyOp31
 70
     1
102
RTVSPropertyOp32
 70
     1
  0
XRECORD
  5
A49
102
{ACAD_REACTORS
330
A48
102
}
330
A48
100
AcDbXrecord
280
     1
102
RTVSPropertyOp0
 70
     1
102
RTVSPropertyOp1
 70
     1
102
RTVSPropertyOp2
 70
     1
102
RTVSPropertyOp3
 70
     1
102
RTVSPropertyOp4
 70
     1
102
RTVSPropertyOp5
 70
     1
102
RTVSPropertyOp6
 70
     1
102
RTVSPropertyOp7
 70
     1
102
RTVSPropertyOp8
 70
     1
102
RTVSPropertyOp9
 70
     1
102
RTVSPropertyOp10
 70
     1
102
RTVSPropertyOp11
 70
     1
102
RTVSPropertyOp12
 70
     1
102
RTVSPropertyOp13
 70
     1
102
RTVSPropertyOp14
 70
     1
102
RTVSPropertyOp15
 70
     1
102
RTVSPropertyOp16
 70
     1
102
RTVSPropertyOp17
 70
     1
102
RTVSPropertyOp18
 70
     1
102
RTVSPropertyOp19
 70
     1
102
RTVSPropertyOp20
 70
     1
102
RTVSPropertyOp21
 70
     1
102
RTVSPropertyOp22
 70
     1
102
RTVSPropertyOp23
 70
     1
102
RTVSPropertyOp24
 70
     1
102
RTVSPropertyOp25
 70
     1
102
RTVSPropertyOp26
 70
     1
102
RTVSPropertyOp27
 70
     1
102
RTVSPropertyOp28
 70
     1
102
RTVSPropertyOp29
 70
     1
102
RTVSPropertyOp30
 70
     1
102
RTVSPropertyOp31
 70
     1
102
RTVSPropertyOp32
 70
     1
  0
XRECORD
  5
A51
102
{ACAD_REACTORS
330
A50
102
}
330
A50
100
AcDbXrecord
280
     1
102
RTVSPropertyOp0
 70
     1
102
RTVSPropertyOp1
 70
     1
102
RTVSPropertyOp2
 70
     1
102
RTVSPropertyOp3
 70
     1
102
RTVSPropertyOp4
 70
     1
102
RTVSPropertyOp5
 70
     1
102
RTVSPropertyOp6
 70
     1
102
RTVSPropertyOp7
 70
     1
102
RTVSPropertyOp8
 70
     1
102
RTVSPropertyOp9
 70
     1
102
RTVSPropertyOp10
 70
     1
102
RTVSPropertyOp11
 70
     1
102
RTVSPropertyOp12
 70
     1
102
RTVSPropertyOp13
 70
     1
102
RTVSPropertyOp14
 70
     1
102
RTVSPropertyOp15
 70
     1
102
RTVSPropertyOp16
 70
     1
102
RTVSPropertyOp17
 70
     1
102
RTVSPropertyOp18
 70
     1
102
RTVSPropertyOp19
 70
     1
102
RTVSPropertyOp20
 70
     1
102
RTVSPropertyOp21
 70
     1
102
RTVSPropertyOp22
 70
     1
102
RTVSPropertyOp23
 70
     1
102
RTVSPropertyOp24
 70
     1
102
RTVSPropertyOp25
 70
     1
102
RTVSPropertyOp26
 70
     1
102
RTVSPropertyOp27
 70
     1
102
RTVSPropertyOp28
 70
     1
102
RTVSPropertyOp29
 70
     1
102
RTVSPropertyOp30
 70
     1
102
RTVSPropertyOp31
 70
     1
102
RTVSPropertyOp32
 70
     1
  0
XRECORD
  5
A43
102
{ACAD_REACTORS
330
A42
102
}
330
A42
100
AcDbXrecord
280
     1
102
RTVSPropertyOp0
 70
     1
102
RTVSPropertyOp1
 70
     1
102
RTVSPropertyOp2
 70
     1
102
RTVSPropertyOp3
 70
     1
102
RTVSPropertyOp4
 70
     1
102
RTVSPropertyOp5
 70
     1
102
RTVSPropertyOp6
 70
     1
102
RTVSPropertyOp7
 70
     1
102
RTVSPropertyOp8
 70
     1
102
RTVSPropertyOp9
 70
     1
102
RTVSPropertyOp10
 70
     1
102
RTVSPropertyOp11
 70
     1
102
RTVSPropertyOp12
 70
     1
102
RTVSPropertyOp13
 70
     1
102
RTVSPropertyOp14
 70
     1
102
RTVSPropertyOp15
 70
     1
102
RTVSPropertyOp16
 70
     1
102
RTVSPropertyOp17
 70
     1
102
RTVSPropertyOp18
 70
     1
102
RTVSPropertyOp19
 70
     1
102
RTVSPropertyOp20
 70
     1
102
RTVSPropertyOp21
 70
     1
102
RTVSPropertyOp22
 70
     1
102
RTVSPropertyOp23
 70
     1
102
RTVSPropertyOp24
 70
     1
102
RTVSPropertyOp25
 70
     1
102
RTVSPropertyOp26
 70
     1
102
RTVSPropertyOp27
 70
     1
102
RTVSPropertyOp28
 70
     1
102
RTVSPropertyOp29
 70
     1
102
RTVSPropertyOp30
 70
     1
102
RTVSPropertyOp31
 70
     1
102
RTVSPropertyOp32
 70
     1
  0
XRECORD
  5
A47
102
{ACAD_REACTORS
330
A46
102
}
330
A46
100
AcDbXrecord
280
     1
102
RTVSPropertyOp0
 70
     1
102
RTVSPropertyOp1
 70
     1
102
RTVSPropertyOp2
 70
     1
102
RTVSPropertyOp3
 70
     1
102
RTVSPropertyOp4
 70
     1
102
RTVSPropertyOp5
 70
     1
102
RTVSPropertyOp6
 70
     1
102
RTVSPropertyOp7
 70
     1
102
RTVSPropertyOp8
 70
     1
102
RTVSPropertyOp9
 70
     1
102
RTVSPropertyOp10
 70
     1
102
RTVSPropertyOp11
 70
     1
102
RTVSPropertyOp12
 70
     1
102
RTVSPropertyOp13
 70
     1
102
RTVSPropertyOp14
 70
     1
102
RTVSPropertyOp15
 70
     1
102
RTVSPropertyOp16
 70
     1
102
RTVSPropertyOp17
 70
     1
102
RTVSPropertyOp18
 70
     1
102
RTVSPropertyOp19
 70
     1
102
RTVSPropertyOp20
 70
     1
102
RTVSPropertyOp21
 70
     1
102
RTVSPropertyOp22
 70
     1
102
RTVSPropertyOp23
 70
     1
102
RTVSPropertyOp24
 70
     1
102
RTVSPropertyOp25
 70
     1
102
RTVSPropertyOp26
 70
     1
102
RTVSPropertyOp27
 70
     1
102
RTVSPropertyOp28
 70
     1
102
RTVSPropertyOp29
 70
     1
102
RTVSPropertyOp30
 70
     1
102
RTVSPropertyOp31
 70
     1
102
RTVSPropertyOp32
 70
     1
  0
XRECORD
  5
A61
102
{ACAD_REACTORS
330
A60
102
}
330
A60
100
AcDbXrecord
280
     1
102
RTVSPropertyOp0
 70
     0
102
RTVSPropertyOp1
 70
     0
102
RTVSPropertyOp2
 70
     0
102
RTVSPropertyOp3
 70
     0
102
RTVSPropertyOp4
 70
     0
102
RTVSPropertyOp5
 70
     0
102
RTVSPropertyOp6
 70
     0
102
RTVSPropertyOp7
 70
     0
102
RTVSPropertyOp8
 70
     0
102
RTVSPropertyOp9
 70
     0
102
RTVSPropertyOp10
 70
     0
102
RTVSPropertyOp11
 70
     0
102
RTVSPropertyOp12
 70
     0
102
RTVSPropertyOp13
 70
     0
102
RTVSPropertyOp14
 70
     2
102
RTVSPropertyOp15
 70
     0
102
RTVSPropertyOp16
 70
     0
102
RTVSPropertyOp17
 70
     0
102
RTVSPropertyOp18
 70
     0
102
RTVSPropertyOp19
 70
     0
102
RTVSPropertyOp20
 70
     0
102
RTVSPropertyOp21
 70
     0
102
RTVSPropertyOp22
 70
     0
102
RTVSPropertyOp23
 70
     0
102
RTVSPropertyOp24
 70
     0
102
RTVSPropertyOp25
 70
     0
102
RTVSPropertyOp26
 70
     0
102
RTVSPropertyOp27
 70
     0
102
RTVSPropertyOp28
 70
     1
102
RTVSPropertyOp29
 70
     1
102
RTVSPropertyOp30
 70
     1
102
RTVSPropertyOp31
 70
     1
102
RTVSPropertyOp32
 70
     1
  0
XRECORD
  5
A4F
102
{ACAD_REACTORS
330
A4E
102
}
330
A4E
100
AcDbXrecord
280
     1
102
RTVSPropertyOp0
 70
     1
102
RTVSPropertyOp1
 70
     1
102
RTVSPropertyOp2
 70
     1
102
RTVSPropertyOp3
 70
     1
102
RTVSPropertyOp4
 70
     1
102
RTVSPropertyOp5
 70
     1
102
RTVSPropertyOp6
 70
     1
102
RTVSPropertyOp7
 70
     1
102
RTVSPropertyOp8
 70
     1
102
RTVSPropertyOp9
 70
     1
102
RTVSPropertyOp10
 70
     1
102
RTVSPropertyOp11
 70
     1
102
RTVSPropertyOp12
 70
     1
102
RTVSPropertyOp13
 70
     1
102
RTVSPropertyOp14
 70
     1
102
RTVSPropertyOp15
 70
     1
102
RTVSPropertyOp16
 70
     1
102
RTVSPropertyOp17
 70
     1
102
RTVSPropertyOp18
 70
     1
102
RTVSPropertyOp19
 70
     1
102
RTVSPropertyOp20
 70
     1
102
RTVSPropertyOp21
 70
     1
102
RTVSPropertyOp22
 70
     1
102
RTVSPropertyOp23
 70
     1
102
RTVSPropertyOp24
 70
     1
102
RTVSPropertyOp25
 70
     1
102
RTVSPropertyOp26
 70
     1
102
RTVSPropertyOp27
 70
     1
102
RTVSPropertyOp28
 70
     1
102
RTVSPropertyOp29
 70
     1
102
RTVSPropertyOp30
 70
     1
102
RTVSPropertyOp31
 70
     1
102
RTVSPropertyOp32
 70
     1
  0
XRECORD
  5
A33
102
{ACAD_REACTORS
330
A32
102
}
330
A32
100
AcDbXrecord
280
     1
102
RTVSPropertyOp0
 70
     1
102
RTVSPropertyOp1
 70
     1
102
RTVSPropertyOp2
 70
     1
102
RTVSPropertyOp3
 70
     1
102
RTVSPropertyOp4
 70
     1
102
RTVSPropertyOp5
 70
     1
102
RTVSPropertyOp6
 70
     1
102
RTVSPropertyOp7
 70
     1
102
RTVSPropertyOp8
 70
     1
102
RTVSPropertyOp9
 70
     1
102
RTVSPropertyOp10
 70
     1
102
RTVSPropertyOp11
 70
     1
102
RTVSPropertyOp12
 70
     1
102
RTVSPropertyOp13
 70
     1
102
RTVSPropertyOp14
 70
     1
102
RTVSPropertyOp15
 70
     1
102
RTVSPropertyOp16
 70
     1
102
RTVSPropertyOp17
 70
     1
102
RTVSPropertyOp18
 70
     1
102
RTVSPropertyOp19
 70
     1
102
RTVSPropertyOp20
 70
     1
102
RTVSPropertyOp21
 70
     1
102
RTVSPropertyOp22
 70
     1
102
RTVSPropertyOp23
 70
     1
102
RTVSPropertyOp24
 70
     1
102
RTVSPropertyOp25
 70
     1
102
RTVSPropertyOp26
 70
     1
102
RTVSPropertyOp27
 70
     1
102
RTVSPropertyOp28
 70
     1
102
RTVSPropertyOp29
 70
     1
102
RTVSPropertyOp30
 70
     1
102
RTVSPropertyOp31
 70
     1
102
RTVSPropertyOp32
 70
     1
  0
XRECORD
  5
A35
102
{ACAD_REACTORS
330
A34
102
}
330
A34
100
AcDbXrecord
280
     1
102
RTVSPropertyOp0
 70
     1
102
RTVSPropertyOp1
 70
     1
102
RTVSPropertyOp2
 70
     1
102
RTVSPropertyOp3
 70
     1
102
RTVSPropertyOp4
 70
     1
102
RTVSPropertyOp5
 70
     1
102
RTVSPropertyOp6
 70
     1
102
RTVSPropertyOp7
 70
     1
102
RTVSPropertyOp8
 70
     1
102
RTVSPropertyOp9
 70
     1
102
RTVSPropertyOp10
 70
     1
102
RTVSPropertyOp11
 70
     1
102
RTVSPropertyOp12
 70
     1
102
RTVSPropertyOp13
 70
     1
102
RTVSPropertyOp14
 70
     1
102
RTVSPropertyOp15
 70
     1
102
RTVSPropertyOp16
 70
     1
102
RTVSPropertyOp17
 70
     1
102
RTVSPropertyOp18
 70
     1
102
RTVSPropertyOp19
 70
     1
102
RTVSPropertyOp20
 70
     1
102
RTVSPropertyOp21
 70
     1
102
RTVSPropertyOp22
 70
     1
102
RTVSPropertyOp23
 70
     1
102
RTVSPropertyOp24
 70
     1
102
RTVSPropertyOp25
 70
     1
102
RTVSPropertyOp26
 70
     1
102
RTVSPropertyOp27
 70
     1
102
RTVSPropertyOp28
 70
     1
102
RTVSPropertyOp29
 70
     1
102
RTVSPropertyOp30
 70
     1
102
RTVSPropertyOp31
 70
     1
102
RTVSPropertyOp32
 70
     1
  0
XRECORD
  5
A37
102
{ACAD_REACTORS
330
A36
102
}
330
A36
100
AcDbXrecord
280
     1
102
RTVSPropertyOp0
 70
     1
102
RTVSPropertyOp1
 70
     1
102
RTVSPropertyOp2
 70
     1
102
RTVSPropertyOp3
 70
     1
102
RTVSPropertyOp4
 70
     1
102
RTVSPropertyOp5
 70
     1
102
RTVSPropertyOp6
 70
     1
102
RTVSPropertyOp7
 70
     1
102
RTVSPropertyOp8
 70
     1
102
RTVSPropertyOp9
 70
     1
102
RTVSPropertyOp10
 70
     1
102
RTVSPropertyOp11
 70
     1
102
RTVSPropertyOp12
 70
     1
102
RTVSPropertyOp13
 70
     1
102
RTVSPropertyOp14
 70
     1
102
RTVSPropertyOp15
 70
     1
102
RTVSPropertyOp16
 70
     1
102
RTVSPropertyOp17
 70
     1
102
RTVSPropertyOp18
 70
     1
102
RTVSPropertyOp19
 70
     1
102
RTVSPropertyOp20
 70
     1
102
RTVSPropertyOp21
 70
     1
102
RTVSPropertyOp22
 70
     1
102
RTVSPropertyOp23
 70
     1
102
RTVSPropertyOp24
 70
     1
102
RTVSPropertyOp25
 70
     1
102
RTVSPropertyOp26
 70
     1
102
RTVSPropertyOp27
 70
     1
102
RTVSPropertyOp28
 70
     1
102
RTVSPropertyOp29
 70
     1
102
RTVSPropertyOp30
 70
     1
102
RTVSPropertyOp31
 70
     1
102
RTVSPropertyOp32
 70
     1
  0
XRECORD
  5
A39
102
{ACAD_REACTORS
330
A38
102
}
330
A38
100
AcDbXrecord
280
     1
102
RTVSPropertyOp0
 70
     1
102
RTVSPropertyOp1
 70
     1
102
RTVSPropertyOp2
 70
     1
102
RTVSPropertyOp3
 70
     1
102
RTVSPropertyOp4
 70
     1
102
RTVSPropertyOp5
 70
     1
102
RTVSPropertyOp6
 70
     1
102
RTVSPropertyOp7
 70
     1
102
RTVSPropertyOp8
 70
     1
102
RTVSPropertyOp9
 70
     1
102
RTVSPropertyOp10
 70
     1
102
RTVSPropertyOp11
 70
     1
102
RTVSPropertyOp12
 70
     1
102
RTVSPropertyOp13
 70
     1
102
RTVSPropertyOp14
 70
     1
102
RTVSPropertyOp15
 70
     1
102
RTVSPropertyOp16
 70
     1
102
RTVSPropertyOp17
 70
     1
102
RTVSPropertyOp18
 70
     1
102
RTVSPropertyOp19
 70
     1
102
RTVSPropertyOp20
 70
     1
102
RTVSPropertyOp21
 70
     1
102
RTVSPropertyOp22
 70
     1
102
RTVSPropertyOp23
 70
     1
102
RTVSPropertyOp24
 70
     1
102
RTVSPropertyOp25
 70
     1
102
RTVSPropertyOp26
 70
     1
102
RTVSPropertyOp27
 70
     1
102
RTVSPropertyOp28
 70
     1
102
RTVSPropertyOp29
 70
     1
102
RTVSPropertyOp30
 70
     1
102
RTVSPropertyOp31
 70
     1
102
RTVSPropertyOp32
 70
     1
  0
XRECORD
  5
A41
102
{ACAD_REACTORS
330
A40
102
}
330
A40
100
AcDbXrecord
280
     1
102
RTVSPropertyOp0
 70
     1
102
RTVSPropertyOp1
 70
     1
102
RTVSPropertyOp2
 70
     1
102
RTVSPropertyOp3
 70
     1
102
RTVSPropertyOp4
 70
     1
102
RTVSPropertyOp5
 70
     1
102
RTVSPropertyOp6
 70
     1
102
RTVSPropertyOp7
 70
     1
102
RTVSPropertyOp8
 70
     1
102
RTVSPropertyOp9
 70
     1
102
RTVSPropertyOp10
 70
     1
102
RTVSPropertyOp11
 70
     1
102
RTVSPropertyOp12
 70
     1
102
RTVSPropertyOp13
 70
     1
102
RTVSPropertyOp14
 70
     1
102
RTVSPropertyOp15
 70
     1
102
RTVSPropertyOp16
 70
     1
102
RTVSPropertyOp17
 70
     1
102
RTVSPropertyOp18
 70
     1
102
RTVSPropertyOp19
 70
     1
102
RTVSPropertyOp20
 70
     1
102
RTVSPropertyOp21
 70
     1
102
RTVSPropertyOp22
 70
     1
102
RTVSPropertyOp23
 70
     1
102
RTVSPropertyOp24
 70
     1
102
RTVSPropertyOp25
 70
     1
102
RTVSPropertyOp26
 70
     1
102
RTVSPropertyOp27
 70
     1
102
RTVSPropertyOp28
 70
     1
102
RTVSPropertyOp29
 70
     1
102
RTVSPropertyOp30
 70
     1
102
RTVSPropertyOp31
 70
     1
102
RTVSPropertyOp32
 70
     1
  0
XRECORD
  5
A5D
102
{ACAD_REACTORS
330
A5C
102
}
330
A5C
100
AcDbXrecord
280
     1
102
RTVSPropertyOp0
 70
     0
102
RTVSPropertyOp1
 70
     0
102
RTVSPropertyOp2
 70
     0
102
RTVSPropertyOp3
 70
     0
102
RTVSPropertyOp4
 70
     0
102
RTVSPropertyOp5
 70
     0
102
RTVSPropertyOp6
 70
     0
102
RTVSPropertyOp7
 70
     0
102
RTVSPropertyOp8
 70
     0
102
RTVSPropertyOp9
 70
     0
102
RTVSPropertyOp10
 70
     0
102
RTVSPropertyOp11
 70
     0
102
RTVSPropertyOp12
 70
     0
102
RTVSPropertyOp13
 70
     0
102
RTVSPropertyOp14
 70
     2
102
RTVSPropertyOp15
 70
     0
102
RTVSPropertyOp16
 70
     0
102
RTVSPropertyOp17
 70
     0
102
RTVSPropertyOp18
 70
     0
102
RTVSPropertyOp19
 70
     0
102
RTVSPropertyOp20
 70
     0
102
RTVSPropertyOp21
 70
     0
102
RTVSPropertyOp22
 70
     0
102
RTVSPropertyOp23
 70
     0
102
RTVSPropertyOp24
 70
     0
102
RTVSPropertyOp25
 70
     0
102
RTVSPropertyOp26
 70
     0
102
RTVSPropertyOp27
 70
     0
102
RTVSPropertyOp28
 70
     1
102
RTVSPropertyOp29
 70
     1
102
RTVSPropertyOp30
 70
     1
102
RTVSPropertyOp31
 70
     1
102
RTVSPropertyOp32
 70
     1
  0
XRECORD
  5
A4D
102
{ACAD_REACTORS
330
A4C
102
}
330
A4C
100
AcDbXrecord
280
     1
102
RTVSPropertyOp0
 70
     1
102
RTVSPropertyOp1
 70
     1
102
RTVSPropertyOp2
 70
     1
102
RTVSPropertyOp3
 70
     1
102
RTVSPropertyOp4
 70
     1
102
RTVSPropertyOp5
 70
     1
102
RTVSPropertyOp6
 70
     1
102
RTVSPropertyOp7
 70
     1
102
RTVSPropertyOp8
 70
     1
102
RTVSPropertyOp9
 70
     1
102
RTVSPropertyOp10
 70
     1
102
RTVSPropertyOp11
 70
     1
102
RTVSPropertyOp12
 70
     1
102
RTVSPropertyOp13
 70
     1
102
RTVSPropertyOp14
 70
     1
102
RTVSPropertyOp15
 70
     1
102
RTVSPropertyOp16
 70
     1
102
RTVSPropertyOp17
 70
     1
102
RTVSPropertyOp18
 70
     1
102
RTVSPropertyOp19
 70
     1
102
RTVSPropertyOp20
 70
     1
102
RTVSPropertyOp21
 70
     1
102
RTVSPropertyOp22
 70
     1
102
RTVSPropertyOp23
 70
     1
102
RTVSPropertyOp24
 70
     1
102
RTVSPropertyOp25
 70
     1
102
RTVSPropertyOp26
 70
     1
102
RTVSPropertyOp27
 70
     1
102
RTVSPropertyOp28
 70
     1
102
RTVSPropertyOp29
 70
     1
102
RTVSPropertyOp30
 70
     1
102
RTVSPropertyOp31
 70
     1
102
RTVSPropertyOp32
 70
     1
  0
XRECORD
  5
A5F
102
{ACAD_REACTORS
330
A5E
102
}
330
A5E
100
AcDbXrecord
280
     1
102
RTVSPropertyOp0
 70
     0
102
RTVSPropertyOp1
 70
     0
102
RTVSPropertyOp2
 70
     0
102
RTVSPropertyOp3
 70
     0
102
RTVSPropertyOp4
 70
     0
102
RTVSPropertyOp5
 70
     0
102
RTVSPropertyOp6
 70
     0
102
RTVSPropertyOp7
 70
     0
102
RTVSPropertyOp8
 70
     0
102
RTVSPropertyOp9
 70
     0
102
RTVSPropertyOp10
 70
     0
102
RTVSPropertyOp11
 70
     0
102
RTVSPropertyOp12
 70
     0
102
RTVSPropertyOp13
 70
     0
102
RTVSPropertyOp14
 70
     2
102
RTVSPropertyOp15
 70
     0
102
RTVSPropertyOp16
 70
     0
102
RTVSPropertyOp17
 70
     0
102
RTVSPropertyOp18
 70
     0
102
RTVSPropertyOp19
 70
     0
102
RTVSPropertyOp20
 70
     0
102
RTVSPropertyOp21
 70
     0
102
RTVSPropertyOp22
 70
     0
102
RTVSPropertyOp23
 70
     0
102
RTVSPropertyOp24
 70
     0
102
RTVSPropertyOp25
 70
     0
102
RTVSPropertyOp26
 70
     0
102
RTVSPropertyOp27
 70
     0
102
RTVSPropertyOp28
 70
     1
102
RTVSPropertyOp29
 70
     1
102
RTVSPropertyOp30
 70
     1
102
RTVSPropertyOp31
 70
     1
102
RTVSPropertyOp32
 70
     1
  0
XRECORD
  5
A45
102
{ACAD_REACTORS
330
A44
102
}
330
A44
100
AcDbXrecord
280
     1
102
RTVSPropertyOp0
 70
     1
102
RTVSPropertyOp1
 70
     1
102
RTVSPropertyOp2
 70
     1
102
RTVSPropertyOp3
 70
     1
102
RTVSPropertyOp4
 70
     1
102
RTVSPropertyOp5
 70
     1
102
RTVSPropertyOp6
 70
     1
102
RTVSPropertyOp7
 70
     1
102
RTVSPropertyOp8
 70
     1
102
RTVSPropertyOp9
 70
     1
102
RTVSPropertyOp10
 70
     1
102
RTVSPropertyOp11
 70
     1
102
RTVSPropertyOp12
 70
     1
102
RTVSPropertyOp13
 70
     1
102
RTVSPropertyOp14
 70
     1
102
RTVSPropertyOp15
 70
     1
102
RTVSPropertyOp16
 70
     1
102
RTVSPropertyOp17
 70
     1
102
RTVSPropertyOp18
 70
     1
102
RTVSPropertyOp19
 70
     1
102
RTVSPropertyOp20
 70
     1
102
RTVSPropertyOp21
 70
     1
102
RTVSPropertyOp22
 70
     1
102
RTVSPropertyOp23
 70
     1
102
RTVSPropertyOp24
 70
     1
102
RTVSPropertyOp25
 70
     1
102
RTVSPropertyOp26
 70
     1
102
RTVSPropertyOp27
 70
     1
102
RTVSPropertyOp28
 70
     1
102
RTVSPropertyOp29
 70
     1
102
RTVSPropertyOp30
 70
     1
102
RTVSPropertyOp31
 70
     1
102
RTVSPropertyOp32
 70
     1
  0
XRECORD
  5
A5B
102
{ACAD_REACTORS
330
A5A
102
}
330
A5A
100
AcDbXrecord
280
     1
102
RTVSPropertyOp0
 70
     1
102
RTVSPropertyOp1
 70
     1
102
RTVSPropertyOp2
 70
     1
102
RTVSPropertyOp3
 70
     1
102
RTVSPropertyOp4
 70
     1
102
RTVSPropertyOp5
 70
     1
102
RTVSPropertyOp6
 70
     1
102
RTVSPropertyOp7
 70
     1
102
RTVSPropertyOp8
 70
     1
102
RTVSPropertyOp9
 70
     1
102
RTVSPropertyOp10
 70
     1
102
RTVSPropertyOp11
 70
     1
102
RTVSPropertyOp12
 70
     1
102
RTVSPropertyOp13
 70
     1
102
RTVSPropertyOp14
 70
     1
102
RTVSPropertyOp15
 70
     1
102
RTVSPropertyOp16
 70
     1
102
RTVSPropertyOp17
 70
     1
102
RTVSPropertyOp18
 70
     1
102
RTVSPropertyOp19
 70
     1
102
RTVSPropertyOp20
 70
     1
102
RTVSPropertyOp21
 70
     1
102
RTVSPropertyOp22
 70
     1
102
RTVSPropertyOp23
 70
     1
102
RTVSPropertyOp24
 70
     1
102
RTVSPropertyOp25
 70
     1
102
RTVSPropertyOp26
 70
     1
102
RTVSPropertyOp27
 70
     1
102
RTVSPropertyOp28
 70
     1
102
RTVSPropertyOp29
 70
     1
102
RTVSPropertyOp30
 70
     1
102
RTVSPropertyOp31
 70
     1
102
RTVSPropertyOp32
 70
     1
  0
XRECORD
  5
A59
102
{ACAD_REACTORS
330
A58
102
}
330
A58
100
AcDbXrecord
280
     1
102
RTVSPropertyOp0
 70
     1
102
RTVSPropertyOp1
 70
     1
102
RTVSPropertyOp2
 70
     1
102
RTVSPropertyOp3
 70
     1
102
RTVSPropertyOp4
 70
     1
102
RTVSPropertyOp5
 70
     1
102
RTVSPropertyOp6
 70
     1
102
RTVSPropertyOp7
 70
     1
102
RTVSPropertyOp8
 70
     1
102
RTVSPropertyOp9
 70
     1
102
RTVSPropertyOp10
 70
     1
102
RTVSPropertyOp11
 70
     1
102
RTVSPropertyOp12
 70
     1
102
RTVSPropertyOp13
 70
     1
102
RTVSPropertyOp14
 70
     1
102
RTVSPropertyOp15
 70
     1
102
RTVSPropertyOp16
 70
     1
102
RTVSPropertyOp17
 70
     1
102
RTVSPropertyOp18
 70
     1
102
RTVSPropertyOp19
 70
     1
102
RTVSPropertyOp20
 70
     1
102
RTVSPropertyOp21
 70
     1
102
RTVSPropertyOp22
 70
     1
102
RTVSPropertyOp23
 70
     1
102
RTVSPropertyOp24
 70
     1
102
RTVSPropertyOp25
 70
     1
102
RTVSPropertyOp26
 70
     1
102
RTVSPropertyOp27
 70
     1
102
RTVSPropertyOp28
 70
     1
102
RTVSPropertyOp29
 70
     1
102
RTVSPropertyOp30
 70
     1
102
RTVSPropertyOp31
 70
     1
102
RTVSPropertyOp32
 70
     1
  0
XRECORD
  5
A53
102
{ACAD_REACTORS
330
A52
102
}
330
A52
100
AcDbXrecord
280
     1
102
RTVSPropertyOp0
 70
     1
102
RTVSPropertyOp1
 70
     1
102
RTVSPropertyOp2
 70
     1
102
RTVSPropertyOp3
 70
     1
102
RTVSPropertyOp4
 70
     1
102
RTVSPropertyOp5
 70
     1
102
RTVSPropertyOp6
 70
     1
102
RTVSPropertyOp7
 70
     1
102
RTVSPropertyOp8
 70
     1
102
RTVSPropertyOp9
 70
     1
102
RTVSPropertyOp10
 70
     1
102
RTVSPropertyOp11
 70
     1
102
RTVSPropertyOp12
 70
     1
102
RTVSPropertyOp13
 70
     1
102
RTVSPropertyOp14
 70
     1
102
RTVSPropertyOp15
 70
     1
102
RTVSPropertyOp16
 70
     1
102
RTVSPropertyOp17
 70
     1
102
RTVSPropertyOp18
 70
     1
102
RTVSPropertyOp19
 70
     1
102
RTVSPropertyOp20
 70
     1
102
RTVSPropertyOp21
 70
     1
102
RTVSPropertyOp22
 70
     1
102
RTVSPropertyOp23
 70
     1
102
RTVSPropertyOp24
 70
     1
102
RTVSPropertyOp25
 70
     1
102
RTVSPropertyOp26
 70
     1
102
RTVSPropertyOp27
 70
     1
102
RTVSPropertyOp28
 70
     1
102
RTVSPropertyOp29
 70
     1
102
RTVSPropertyOp30
 70
     1
102
RTVSPropertyOp31
 70
     1
102
RTVSPropertyOp32
 70
     1
  0
XRECORD
  5
A55
102
{ACAD_REACTORS
330
A54
102
}
330
A54
100
AcDbXrecord
280
     1
102
RTVSPropertyOp0
 70
     1
102
RTVSPropertyOp1
 70
     1
102
RTVSPropertyOp2
 70
     1
102
RTVSPropertyOp3
 70
     1
102
RTVSPropertyOp4
 70
     1
102
RTVSPropertyOp5
 70
     1
102
RTVSPropertyOp6
 70
     1
102
RTVSPropertyOp7
 70
     1
102
RTVSPropertyOp8
 70
     1
102
RTVSPropertyOp9
 70
     1
102
RTVSPropertyOp10
 70
     1
102
RTVSPropertyOp11
 70
     1
102
RTVSPropertyOp12
 70
     1
102
RTVSPropertyOp13
 70
     1
102
RTVSPropertyOp14
 70
     1
102
RTVSPropertyOp15
 70
     1
102
RTVSPropertyOp16
 70
     1
102
RTVSPropertyOp17
 70
     1
102
RTVSPropertyOp18
 70
     1
102
RTVSPropertyOp19
 70
     1
102
RTVSPropertyOp20
 70
     1
102
RTVSPropertyOp21
 70
     1
102
RTVSPropertyOp22
 70
     1
102
RTVSPropertyOp23
 70
     1
102
RTVSPropertyOp24
 70
     1
102
RTVSPropertyOp25
 70
     1
102
RTVSPropertyOp26
 70
     1
102
RTVSPropertyOp27
 70
     1
102
RTVSPropertyOp28
 70
     1
102
RTVSPropertyOp29
 70
     1
102
RTVSPropertyOp30
 70
     1
102
RTVSPropertyOp31
 70
     1
102
RTVSPropertyOp32
 70
     1
  0
XRECORD
  5
A4B
102
{ACAD_REACTORS
330
A4A
102
}
330
A4A
100
AcDbXrecord
280
     1
102
RTVSPropertyOp0
 70
     1
102
RTVSPropertyOp1
 70
     1
102
RTVSPropertyOp2
 70
     1
102
RTVSPropertyOp3
 70
     1
102
RTVSPropertyOp4
 70
     1
102
RTVSPropertyOp5
 70
     1
102
RTVSPropertyOp6
 70
     1
102
RTVSPropertyOp7
 70
     1
102
RTVSPropertyOp8
 70
     1
102
RTVSPropertyOp9
 70
     1
102
RTVSPropertyOp10
 70
     1
102
RTVSPropertyOp11
 70
     1
102
RTVSPropertyOp12
 70
     1
102
RTVSPropertyOp13
 70
     1
102
RTVSPropertyOp14
 70
     1
102
RTVSPropertyOp15
 70
     1
102
RTVSPropertyOp16
 70
     1
102
RTVSPropertyOp17
 70
     1
102
RTVSPropertyOp18
 70
     1
102
RTVSPropertyOp19
 70
     1
102
RTVSPropertyOp20
 70
     1
102
RTVSPropertyOp21
 70
     1
102
RTVSPropertyOp22
 70
     1
102
RTVSPropertyOp23
 70
     1
102
RTVSPropertyOp24
 70
     1
102
RTVSPropertyOp25
 70
     1
102
RTVSPropertyOp26
 70
     1
102
RTVSPropertyOp27
 70
     1
102
RTVSPropertyOp28
 70
     1
102
RTVSPropertyOp29
 70
     1
102
RTVSPropertyOp30
 70
     1
102
RTVSPropertyOp31
 70
     1
102
RTVSPropertyOp32
 70
     1
  0
XRECORD
  5
A3F
102
{ACAD_REACTORS
330
A3E
102
}
330
A3E
100
AcDbXrecord
280
     1
102
RTVSPropertyOp0
 70
     1
102
RTVSPropertyOp1
 70
     1
102
RTVSPropertyOp2
 70
     1
102
RTVSPropertyOp3
 70
     1
102
RTVSPropertyOp4
 70
     1
102
RTVSPropertyOp5
 70
     1
102
RTVSPropertyOp6
 70
     1
102
RTVSPropertyOp7
 70
     1
102
RTVSPropertyOp8
 70
     1
102
RTVSPropertyOp9
 70
     1
102
RTVSPropertyOp10
 70
     1
102
RTVSPropertyOp11
 70
     1
102
RTVSPropertyOp12
 70
     1
102
RTVSPropertyOp13
 70
     1
102
RTVSPropertyOp14
 70
     1
102
RTVSPropertyOp15
 70
     1
102
RTVSPropertyOp16
 70
     1
102
RTVSPropertyOp17
 70
     1
102
RTVSPropertyOp18
 70
     1
102
RTVSPropertyOp19
 70
     1
102
RTVSPropertyOp20
 70
     1
102
RTVSPropertyOp21
 70
     1
102
RTVSPropertyOp22
 70
     1
102
RTVSPropertyOp23
 70
     1
102
RTVSPropertyOp24
 70
     1
102
RTVSPropertyOp25
 70
     1
102
RTVSPropertyOp26
 70
     1
102
RTVSPropertyOp27
 70
     1
102
RTVSPropertyOp28
 70
     1
102
RTVSPropertyOp29
 70
     1
102
RTVSPropertyOp30
 70
     1
102
RTVSPropertyOp31
 70
     1
102
RTVSPropertyOp32
 70
     1
  0
XRECORD
  5
A57
102
{ACAD_REACTORS
330
A56
102
}
330
A56
100
AcDbXrecord
280
     1
102
RTVSPropertyOp0
 70
     1
102
RTVSPropertyOp1
 70
     1
102
RTVSPropertyOp2
 70
     1
102
RTVSPropertyOp3
 70
     1
102
RTVSPropertyOp4
 70
     1
102
RTVSPropertyOp5
 70
     1
102
RTVSPropertyOp6
 70
     1
102
RTVSPropertyOp7
 70
     1
102
RTVSPropertyOp8
 70
     1
102
RTVSPropertyOp9
 70
     1
102
RTVSPropertyOp10
 70
     1
102
RTVSPropertyOp11
 70
     1
102
RTVSPropertyOp12
 70
     1
102
RTVSPropertyOp13
 70
     1
102
RTVSPropertyOp14
 70
     1
102
RTVSPropertyOp15
 70
     1
102
RTVSPropertyOp16
 70
     1
102
RTVSPropertyOp17
 70
     1
102
RTVSPropertyOp18
 70
     1
102
RTVSPropertyOp19
 70
     1
102
RTVSPropertyOp20
 70
     1
102
RTVSPropertyOp21
 70
     1
102
RTVSPropertyOp22
 70
     1
102
RTVSPropertyOp23
 70
     1
102
RTVSPropertyOp24
 70
     1
102
RTVSPropertyOp25
 70
     1
102
RTVSPropertyOp26
 70
     1
102
RTVSPropertyOp27
 70
     1
102
RTVSPropertyOp28
 70
     1
102
RTVSPropertyOp29
 70
     1
102
RTVSPropertyOp30
 70
     1
102
RTVSPropertyOp31
 70
     1
102
RTVSPropertyOp32
 70
     1
  0
ACAD_PROXY_OBJECT
  5
87A
330
879
100
AcDbProxyObject
 90
      499
 91
      547
 95
  2424861
 70
     0
 93
      250
310
6F80000000000000C400000000000000310200800030C02000000300012AFB8C
 94
        0
1001
ACAD
1000
AcRTDxfName
1000
AMDTEDGESTANDARDISO13715
  0
ACAD_PROXY_OBJECT
  5
87B
330
879
100
AcDbProxyObject
 90
      499
 91
      548
 95
  2424861
 70
     0
 93
     3064
310
6F80000000000000C400000000000000310200800030C02000000300012AFD41D01405014050140501E83C80A0481A0882A0C86219555482A900308010001A80180020AA400C200400064006A0083A900308010001880190017001A8020CA400C20040006C005C0066008329003080100019801700190020CA400C20040006
310
2005C006C0083290030801000180017001C0020CA400C200400060005C0068008329003080100018001700190020CA400C200400060005C00620083A900308010001800170018001A80210A400C200400060005C00600064006A0082A900308010001A80180020AA400C200400064006A0083A900308010001880190017001
310
A8020CA400C20040006C005C0066008329003080100019801700190020CA400C200400062005C006C0083290030801000180017001C0020CA400C200400060005C0068008329003080100018001700190020CA400C200400060005C00620083A900308010001800170018001A80210A400C200400060005C00600064006A00
310
6015CC
 94
        0
1001
ACAD
1000
AcRTDxfName
1000
ACMSURFSTANDARDISO2002
  0
ACAD_PROXY_OBJECT
  5
87C
330
879
100
AcDbProxyObject
 90
      499
 91
      549
 95
  2424861
 70
     0
 93
      508
310
6F80000000000000C400000000000000310200800030C02000000300012AFA1C80A0280A0280A0280A0280A0280A0280A0281A0280A02580000000000000080C
340
8A4
 94
        0
1001
ACAD
1000
AcRTDxfName
1000
ACMFCFSTANDARDISO
  0
ACAD_PROXY_OBJECT
  5
87D
330
879
100
AcDbProxyObject
 90
      499
 91
      550
 95
  2424861
 70
     0
 93
      733
310
6F80000000000000C400000000000000310200800030C02000000300012AFD0CCCCCCCCCCCF4CFC333333333333D33FA4480A0280A0280A0280A0280A0280A0280A0280A0280A0280A0280A0280A0280A0280A0280A0280A0280A024
340
8A5
 94
        0
1001
ACAD
1000
AcRTDxfName
1000
ACMWELDSTANDARDISO
  0
ACAD_PROXY_OBJECT
  5
87E
330
879
100
AcDbProxyObject
 90
      499
 91
      551
 95
  2424861
 70
     0
 93
      246
310
6F80000000000000C400000000000000310200800030C02000000300012AF8
 94
        0
1001
ACAD
1000
AcRTDxfName
1000
ACMIDSTANDARDISO
  0
ACAD_PROXY_OBJECT
  5
87F
330
879
100
AcDbProxyObject
 90
      499
 91
      552
 95
  2424861
 70
     0
 93
      493
310
6F80000000000000C400000000000000310200800030C02000000300012AFC521D4454FB21E93F00000000000002102800000000000008408020000C3004
340
8A6
340
8A7
 94
        0
1001
ACAD
1000
AcRTDxfName
1000
ACMDATUMSTANDARDISO
  0
ACAD_PROXY_OBJECT
  5
880
330
879
100
AcDbProxyObject
 90
      499
 91
      553
 95
  2424861
 70
     0
 93
    30378
310
6F80000000000000C400000000000000310200800030C02000000300012AFA1E80A0280A0280A0280D20200000000000012202032024050140501409014050140501901000000000000091010190120280A0280A3880C80C81500000000000009C8080C80901405014051D40640640E8000000000080514040640480A0280A
310
028EA03203209400000000000024A0203202405014050147501901905A0000000000000E5010190120280A0280A3A80C80C83500000000000007C8080880901405014051D40640641E80000000000003E4040440480A0280A028EA03203211400000000004028A0202202405014050147501901909A0000000000001250101
310
10120280A0280A3A80C80C8550E27A15AF46E08A8080880901405014051D405024050242D034080000000000003E4040440480A0280A028EA028120281218812040000000000001F20202202405014050147501409014090D40D020000000000000F9010190120280A0280A3C80C80C87500000000000007C8080C80901405
310
0F4A9020000000000000510201C00030C00010180000000000003E400000000000000F901014060000000000000F9000000000000003E4040501800000000000034400000000000000D101014060000000000000D1000000000000003440405029010000000000000F9000000000000003E40405014060000000000000F900
310
0000000000003E4040501800000000000034400000000000000D10101404000000000000003E400000000000000F90290800000000000020810000001800169FFFE8220681A048120280A20852108820321480C8452028521485214814000000000000F0BF0000000000003C2FD018020000C3008070000C30026A66666666
310
67D4FC9A9999999999F53F26A6666666667D4FC333333333333F33F337333333333370FC333333333333F33F26A6666666667D4FC333333333333F33F337333333333370FC333333333333F33F0000000000000310080A028120B20281A0882A0340000000000000C408020000C3008020000C3008010000C300291440BF9F
310
FFE7FFF9FFFE4050140515405014050140501405014050140501405014050140501405014064068320481A0882A1A872089200A8008A009A0081270039002628E008A009C00A800A400820086009E005800A000980096005800600058009C00E40058008E008A009C00A800A4008200A800B00058004A00E600580050008E0
310
08A009C009A00A6008E004000CE00CA00DC00C800EE00CE0040006400640064005201481A8802A002C8020A9200D800DE00B6020E029A2380228027002A00290020802180278016002800260025801600180016002480360037802D80838096002380228027002A00290020802A002C0016001280398016001400238022802
310
700268029802380100033803280370032003B8033801000190019001980148052089C0082009A008A0082A70030803D003B8030802688E008A009C00A800A400820086009E005800A000980096005800600058009C00C200F400EE00C20058008E008A009C00A800A4008200A800B00058004A00E600580050008E008A009C
310
009A00A6008E004000CE00CA00DC00C800EE00CE004000640064006C005200961E80248023001400248029802100260020802700258014002800208029002A001D00270020802680228014801600210026002780218025801D00270020802680228016002800208029002A001D0027002080268022801480482A2002280298
310
0218029002089E00E000D200E60099A380228027002A0029002080218027801600280026002580160018001600278038003480398016002380228027002A00290020802A002C0016001280398016001400238022802700268029802380100033803280370032003B8033801000190018801B8014805210A600A80082009C00
310
88008200A400880082A70037803900368030802688E008A009C00A800A400820086009E005800A000980096005800600058009C00DE00E400DA00C20058008E008A009C00A800A4008200A800B00058004A00E600580050008E008A009C009A00A6008E004000CE00CA00DC00C800EE00CE004000640062007000520148426
310
8020802A00228029002480208026002109A00C200E800CA00E400D200C20084029BA380228027002A0029002080218027801600280026002580160018001600268030803A003280390034803080210096002380228027002A00290020802A002C0016001280398016001400238022802700268029802380100033803280370
310
032003B8033801000190019001880148052089C009E00A8008A0082AA803B803080338030802688E008A009C00A800A400820086009E005800A00098009600580060005800AA00EE00C200CE00C20058008E008A009C00A800A4008200A800B00058004A00E600580050008E008A009C009A00A6008E004000CE00CA00DC00
310
C800EE00CE004000640064006A0052014832B00228027002200278029002108800DE00E600E800C200EE00C600C2009BA380228027002A00290020802180278016002800260025801600180016002200378039803A0030803B803180308016002380228027002A00290020802A002C00160012803980160014002380228027
310
00268029802380100033803280370032003B8033801000190019001A001480520C88008A00A6008600A4006400832780380034803980100019002688E008A009C00A800A400820086009E005800A000980096005800600058009E00E000D200E6004000640058008E008A009C00A800A4008200A800B00058004A00E600580
310
050008E008A009C009A00A6008E004000CE00CA00DC00C800EE00CE00400066006C005201484A9802A00208027002200208029002200190020E9C00DE00E400DA00C200400064009B2380228027002A0029002080218027801600280026002580160018001600270037803900368030801000190016002380228027002A002
310
90020802A002C0016001280398016001400238022802700268029802380100033803280370032003B8033801000190019001800148052129A008200A8008A00A400920082009800640085268030803A0032803900348030802100900019002708E008A009C00A800A400820086009E005800A000980096005800600058009A
310
00C200E800CA00E400D200C20084024000640058008E008A009C00A800A4008200A800B00058004A00E600580050008E008A009C009A00A6008E004000CE00CA00DC00C800EE00CE00400068006000520148226802080298029802089A00C200E600C200992380228027002A00290020802180278016002800260025801600
310
18001600268030803980308016002380228027002A00290020802A002C0016001280398016001400238022802700268029802380100033803280370032003B80338010001A0019001480520AA000A400920086008A008221803280370030802648E008A009C00A800A400820086009E005800A000980096005800600058008
310
600CA00DC00C20058008E008A009C00A800A4008200A800B00058004A00E600580050008E008A009C009A00A6008E004000CE00CA00DC00C800EE00CE004000680066005201481A2002480268020CA000DE00DA00D200C200E4009A2380228027002A002900208021802780160028002600258016001800160028003780368
310
034803080390016002380228027002A00290020802A002C0016001280398016001400238022802700268029802380100033803280370032003B80338010001A001A001480521284009E009A00BE00AA009C009200A800A60084A500328032003700378039803A00358034802708E008A009C00A800A400820086009E005800
310
A000980096005800600058009400CA00C800DC00DE00E600E800D600D20058008E008A009C00A800A4008200A800B00058004A00E600580050008E008A009C009A00A6008E004000CE00CA00DC00C800EE00CE00400064006800660052014839E801E0024802A00228026801F0020E7A0078009200A8008A009A007C00839E
310
801E0024802A00228026801F0020E7A0078009200A8008A009A007C00839E801E0024802A00228026801F0020C7A007800A200A800B2007C00839E801E0024802A00228026801F0020E7A0078009200A8008A009A007C0122EB400CA00E600E800C200EE00D200CA00DC00D200CA004000D600DE00DA00E000DE00DC00CA00
310
DC00E801E600EE0082A080290024802080260020A8200A40092008200980082A080290024802080260052026201218CA00C2001200CA00C20012009600C200F802C800F20014008C39803880368004803980388036800480268032803A003900100035803B8030803200390030803A0037803B803C80050023EE600E200C60
310
0DA001200E600E200C600DA0012008600CA00DC00E800F200DA00CA00E800E4004000D600EE00C200C800E400C200E800DE00EE00F20014008DB980388033003A0004803980388033003A00048029803A00378038003080100035803B8030803200390030803A0037803B8030800500232E600E200D200DC001200E600E200
310
D200DC0012008600C200D8004000D600EE00C200C800E400C200E800DE00EE00F2001400873380308036000480338030803600048023803080360037803700050021AE200E8001200E200E80012009600EE00C200E400E800C200140090B600388032002F8037803D0004803600388032002F8037803D0004802A803700318
310
03500308010003780310035000C80BA0037802D80B180348037803B8030800500212D8001200D80012009800D200E800E400140087B680360004803680360004802680348036003480360034803A0039000500216F200C8001200F200C80012009400C200E400C80014008633003A00048033003A00048029803A003780380
310
030800500214D200DC001200D200DC0012008600C200D800140084B680048036800480268032803A0039000500220C600DA001200C600DA0012008600CA00DC00E800F200DA00CA00E800E400140087B680368004803680368004802680348036003480368032803A0039000500216D800C4001200D800C40012008C00EA00
310
DC00E80014008637803D00048037803D0004802A8037003180350030800500212CE001200CE0012008E00E400C200DA00140087B6803380048036803380048026803480360034803380390030803680050021AC400F0001200C400F00012009600DE00E600E800D600C2001400809680262ECC
340
5C
340
0
340
55
340
55
340
5D
340
5D
340
5D
 94
        0
1001
ACAD
1000
AcRTDxfName
1000
ACMBOMSTANDARDISO
  0
ACAD_PROXY_OBJECT
  5
881
330
879
100
AcDbProxyObject
 90
      499
 91
      554
 95
  2424861
 70
     0
 93
     1245
310
6F800000000000014400000000000000510201C00030C02000000300012AE8A0E4D4CCCCCCCCCDC9F9353333333333927E000000000000701FA00000000000000200000000000000288000000000000012205233D003C00440045005400410049004C005F004C004100420045004C003E00200028003C00440045005400410
310
049004C005F004100420053005300430041004C0045003E0029003A02C
340
5D
340
55
 94
        0
1001
ACAD
1000
AcRTDxfName
1000
ACMDETAILSTANDARDISO
  0
ACAD_PROXY_OBJECT
  5
882
330
879
100
AcDbProxyObject
 90
      499
 91
      555
 95
  2424861
 70
     0
 93
     1252
310
6F800000000000014400000000000000510201C00030C02000000300012AE00F000000000000091007FFFC000000600000000000000002440000000000000051027FFFA567A007800A6008A008600A80092009E009C00BE009800820084008A009800BE008C009200A400A600A8007C005A007800A6008A008600A80092009
310
E009C00BE009800820084008A009800BE0098008200A600A8007C017405C
340
5C
340
55
 94
        0
1001
ACAD
1000
AcRTDxfName
1000
ACMSECTIONSTANDARDISO2001
  0
ACAD_PROXY_OBJECT
  5
883
330
879
100
AcDbProxyObject
 90
      499
 91
      556
 95
  2424861
 70
     0
 93
      381
310
6F8000000000000F0BF0000000000003C2FE000000320020000003200205000000000000010814333333333333F33F24
 94
        0
1001
ACAD
1000
AcRTDxfName
1000
ACMCENTERLINESTANDARDISO
  0
ACAD_PROXY_OBJECT
  5
884
330
879
100
AcDbProxyObject
 90
      499
 91
      557
 95
  2424861
 70
     0
 93
      242
310
6F8000000000000F0BF0000000000003C2FE0000003200200000032002040C
340
0
 94
        0
1001
ACAD
1000
AcRTDxfName
1000
ACMTHREADLINESTANDARDISO
  0
ACAD_PROXY_OBJECT
  5
885
330
879
100
AcDbProxyObject
 90
      499
 91
      558
 95
  2424861
 70
     0
 93
    16940
310
6F80000000000000C400000000000000310200800030C02000000300012AFA1080A17480A15480A0480A0280E9014050340501407480A0280A0280A03A405014790340501D20280A901405481A028AD556FAA1284A9803D003080310036003780370010001880074027A004A004A00C60078009000DE00D800CA007400C600
310
E800C800D200C2007C004000F000400078009000DE00D800CA007400C600E800C800CA00E000E800D0007C004000AA00B800A0007800D200CC005000CA00E200EA00C200D80050009000DE00D800CA007400E800C200E000E000CA00C80058004400600044005200580044004A004A00C600440058009000DE00D800CA0074
310
00DC00DE00DA00D200DC00C200D800400044004000F0004000440052007C007800D200CC005000CA00E200EA00C200D80050009000DE00D800CA007400E800C200E000E000CA00C8005800440060004400520058009000DE00D800CA007400C800D200C20058009000DE00D800CA007400E000D200E800C600D000C800CA00
310
E600C60052007C007800D200CC005000CA00E200EA00C200D80050009000DE00D800CA007400E800C200E000E000CA00C80058004400620044005200580044004000F0004000440058004400440052007C007800D200CC005000CA00E200EA00C200D80050009000DE00D800CA007400E800C200E000E000CA00C800580044
310
0062004400520058009000DE00D800CA007400E800C200E000C800CA00E000E800D00058004400440052007C0040007800D200CC005000CA00E200EA00C200D80050009000DE00D800CA007400E800CA00E400DA00D200DC00C200E800D200DE00DC00580044006000440052005800440040005E0040004400580044004400
310
52007C007800D200CC005000CA00E200EA00C200D80050009000DE00D800CA007400E800CA00E400DA00D200DC00C200E800D200DE00DC005800440060004400520058009000DE00D800CA007400C800CA00E000E800D00058004400440052007C0084A9803D003080310036003780370010001880076027A004A004A00C60
310
078009000DE00D800CA007400C600E800C800D200C2007C004000F000400078009000DE00D800CA007400C600E800C200DC00CE00D800CA007C004A004A00C800B800A0007800D200CC005000CA00E200EA00C200D80050009000DE00D800CA007400E800C200E000E000CA00C80058004400600044005200580044004A004
310
A00C600440058009000DE00D800CA007400DC00DE00DA00D200DC00C200D800400044004000F0004000440052007C007800D200CC005000CA00E200EA00C200D80050009000DE00D800CA007400E800C200E000E000CA00C8005800440060004400520058009000DE00D800CA007400C800D200C20058009000DE00D800CA0
310
07400E000D200E800C600D000C800CA00E600C60052007C007800D200CC005000CA00E200EA00C200D80050009000DE00D800CA007400E800C200E000E000CA00C80058004400620044005200580044004000F0004000440058004400440052007C007800D200CC005000CA00E200EA00C200D80050009000DE00D800CA007
310
400E800C200E000E000CA00C8005800440062004400520058009000DE00D800CA007400E800C200E000C800CA00E000E800D00058004400440052007C0040007800D200CC005000CA00E200EA00C200D80050009000DE00D800CA007400E800CA00E400DA00D200DC00C200E800D200DE00DC0058004400600044005200580
310
0440040005E004000440058004400440052007C007800D200CC005000CA00E200EA00C200D80050009000DE00D800CA007400E800CA00E400DA00D200DC00C200E800D200DE00DC005800440060004400520058009000DE00D800CA007400C800CA00E000E800D00058004400440052007C0084A9803D00308031003600378
310
037001000188002C027A007800D200CC005000CA00E200EA00C200D80050009000DE00D800CA007400E800C200E000E000CA00C80058004400600044005200580044004A004A00C600440058009000DE00D800CA007400DC00DE00DA00D200DC00C200D800400044004000F0004000440052007C007800D200CC005000CA00
310
E200EA00C200D80050009000DE00D800CA007400E800C200E000E000CA00C8005800440060004400520058009000DE00D800CA007400C800D200C20058009000DE00D800CA007400E000D200E800C600D000C800CA00E600C60052007C007800D200CC005000CA00E200EA00C200D80050009000DE00D800CA007400E800C2
310
00E000E000CA00C80058004400620044005200580044004000F0004000440058004400440052007C007800D200CC005000CA00E200EA00C200D80050009000DE00D800CA007400E800C200E000E000CA00C8005800440062004400520058009000DE00D800CA007400E800C200E000C800CA00E000E800D000580044004400
310
52007C0040007800D200CC005000CA00E200EA00C200D80050009000DE00D800CA007400E800CA00E400DA00D200DC00C200E800D200DE00DC00580044006000440052005800440040005E004000440058004400440052007C007800D200CC005000CA00E200EA00C200D80050009000DE00D800CA007400E800CA00E400DA
310
00D200DC00C200E800D200DE00DC005800440060004400520058009000DE00D800CA007400C800CA00E000E800D00058004400440052007C0084A9803D00308031003600378037001000190022E7A007800A600A8008800A000740088008A00A60086007C0040007800A600A8008800A0007400A600A80088007C0084A9803
310
D0030803100360037803700100018802187A007800A600A8008800A000740088008A00A60086007C0084A9803D0030803100360037803700100019802167A007800A600A8008800A0007400A600A80088007C01007FC
360
8AC
330
8AC
360
8AD
330
8AD
360
8AB
330
8AB
360
8A9
360
8A8
360
8AA
330
8A9
330
8A8
330
8AA
 94
        0
1001
ACAD
1000
AcRTDxfName
1000
ACMNOTESTANDARDISO
  0
ACAD_PROXY_OBJECT
  5
886
330
879
100
AcDbProxyObject
 90
      499
 91
      559
 95
  2424861
 70
     0
 93
      348
310
6F80000000000000C400000000000000310200800030C02000000300012AFA175203480A035520274003401C
 94
        0
1001
ACAD
1000
AcRTDxfName
1000
ACMTAPERSTANDARDISO
  0
ACAD_PROXY_OBJECT
  5
887
330
879
100
AcDbProxyObject
 90
      499
 91
      560
 95
  2424861
 70
     0
 93
     1383
310
6F800000000000014400000000000000310201C00030C02000000300012AFA028100000000000006881500F400F0014C015001480154010C015000E8010C013C01340140017C013801040134011400F8008000F0014C015001480154010C015000E8015801240114015C017C013801040134011400F80080015C01A4019001
310
BC01AC008000A000F0014C015001480154010C015000E8014C0158017C014C010C01040130011400F800A4002812
340
55
 94
        0
1001
ACAD
1000
AcRTDxfName
1000
ACMANOOTATIONVIEWSTANDARDISO
  0
ACAD_PROXY_OBJECT
  5
888
330
879
100
AcDbProxyObject
 90
      499
 91
      561
 95
  2424861
 70
     0
 93
      254
310
6F8000000000000F0BF0000000000003C2FE0000003200200000032002020750
340
88D
 94
        0
1001
ACAD
1000
AcRTDxfName
1000
ACAMGLAYSTD
  0
ACAD_PROXY_OBJECT
  5
889
330
879
100
AcDbProxyObject
 90
      499
 91
      562
 95
  2424861
 70
     0
 93
      543
310
6F8000000000000F0BF0000000000003C2FE000000320020000003200202080000000000001420000000000000048807FFFC408F000F801023C003E00409A000DC01F802
340
88A
340
0
340
0
340
897
340
898
340
899
340
89A
340
89B
340
8A0
340
0
340
898
340
0
 94
        0
1001
ACAD
1000
AcRTDxfName
1000
ACAMGDIMSTD
  0
ACAD_PROXY_OBJECT
  5
8A1
330
879
100
AcDbProxyObject
 90
      499
 91
      564
 95
  2424861
 70
     0
 93
    29118
310
6F8000000000000F0BF0000000000003C2FE000000320020000003200202463120606000600000000000006204010000618068181800180000000000001881004000186018080F02018000000000000000000000000000000020000000000000620401000061802000000000000062040100006180403F8080F02018000000
310
000000000000000000000000020000000000000620401000061802000000000000062040100006180403FA1C88222812068220A83A1886A1E80A1C89A2A81A2483A28880000808000808200110A00010101010104002234000202000202000040A8000404000404000081D0000808000808000104A000101000101030020B4
310
000202000202020041E80004040004001000865000080800080020010DA000101010101040021F40002020002020A01406800040400040414028750000808000808280113A000101000101050022B4000202000202080044A800040400040418008A5220000000000000001CA04FFFFFFFF030000000000000D1027FFFFFFF
310
80800000000000068813FFFFFFFC0400000000000034409FFFFFFFE040000000000001A204FFFFFFFF020000000000000D1027FFFFFFF81800000000000072813FFFFFFFC0C00000000000049409FFFFFFFE0600000000004028A04FFFFFFFF000000000000000D1027FFFFFFF80000000000000048813FFFFFFFC00000000
310
00000034409FFFFFFFE000000000000001A204FFFFFFFF000000000000000D1027FFFFFFF80000000000000068813FFFFFFFC0C00000000000028409FFFFFFFE8800000000000000072813FFFFFFFC0C00000000000034409FFFFFFFE060000000000001A204FFFFFFFF030000000000000D1027FFFFFFF818000000000000
310
68813FFFFFFFC0C00000000000034409FFFFFFFE060000000000001CA04FFFFFFFF03000000000000125027FFFFFFF818000000000100A2813FFFFFFFC0000000000000034409FFFFFFFE0000000000000012204FFFFFFFF000000000000000D1027FFFFFFF80000000000000068813FFFFFFFC0000000000000034409FFFF
310
FFFE060000000000001A204FFFFFFFF030000000000000A1027FFFFFFFA0E8800000021E000000810000002060000008200000020A00000083800000202890000001FFFFFFFE81202000283A2000000087800000204000000818000002080000008280000020E000000810000A068800000021E0000008A8000001FFFFFFFF
310
2269800D200E600E800C2004000EE00E600E001E6008402E400F4003202C800DC00F200C600D000A12380228027002A00290020802180278016002800260025801600180016002600348039803A00308010003B803980380079802100B9003D000C80B20037003C803180340016002380228027002A00290020802A002C001
310
600128039801600140023802280270026802980238010003380328037003200348036803D00100019801800148021E7A0078008800CA00CC00C200EA00D800E800A800D200E800D800CA007C0086A600348039803A003080100037803A003B803780390079803B802788E008A009C00A800A400820086009E005800A000980
310
096005800600058009800D200E600E800C2004000DE00E800EE00DE00E401E600EE0058008E008A009C00A800A4008200A800B00058004A00E600580050008E008A009C009A00A6008E004000CE00CA00DC00C800D200DA00F4004000660062005200879E801E0022003280330030803A8036003A002A0034803A003600328
310
01F00210A000DE00C600F4000A02E800CA00D6009B2380228027002A00290020802180278016002800260025801600180016002800378031803D000280BA003280358016002380228027002A00290020802A002C001600128039801600140023802280270026802980238010003380328037003200348036803D0010001880
310
148020A9E00E800EE01E600E40099A380228027002A002900208021802780160028002600258016001800160027803A003B807980390016002380228027002A00290020802A002C001600128039801600140023802280270026802980238010003380328037003200348036803D0010001900148027E7A0078009E00E400D2
310
00CE00D200DC007C00780092008C0050009E00A40050009200A6008400980082009C00960050009E00E400D200CE00D200DC00520058009200A6008400980082009C00960050009200DC00C800CA00F00052005200580044004400580044005C00440052007C0078009200DC00C800CA00F0007C0080AC0025E8E008A009C0
310
0A800A400820086009E005800A00098009600580060005800B00058008E008A009C00A800A4008200A800B00058004A00E600580050008E008A009C009A00A6008E004000CE00CA00DC00C800D200DA00F40040006600520080AC8025E8E008A009C00A800A400820086009E005800A00098009600580060005800B2005800
310
8E008A009C00A800A4008200A800B00058004A00E600580050008E008A009C009A00A6008E004000CE00CA00DC00C800D200DA00F40040006800520080B90025E8E008A009C00A800A400820086009E005800A00098009600580060005800E40058008E008A009C00A800A4008200A800B00058004A00E600580050008E008
310
A009C009A00A6008E004000CE00CA00DC00C800D200DA00F40040006C0052008C3D802E00330029803C8036803100378036003E00310018003E00348018003E00318019003E00380018001D8035003E8028C8E008A009C00A800A400820086009E005800A00098009600580060005800F600B800CC00A600F200DA00C400DE
310
00D800F800C4006000F800D2006000F800C6006400F800E00060007600D400FA0058008E008A009C00A800A4008200A800B00058004A00E600580050008E008A009C009A00A6008E004000CE00CA00DC00C800D200DA00F40040006E005200819280128031802628E008A009C00A800A400820086009E005800A0009800960
310
05800600058004A004A00C60058008E008A009C00A800A4008200A800B00058004A00E600580050008E008A009C009A00A6008E004000CE00CA00DC00C800D200DA00F4004000700052008227803800348039802668E008A009C00A800A400820086009E005800A000980096005800600058009E00E000D200E60058008E00
310
8A009C00A800A4008200A800B00058004A00E600580050008E008A009C009A00A6008E004000CE00CA00DC00C800D200DA00F400400064006000520082A70037803900368030802688E008A009C00A800A400820086009E005800A000980096005800600058009C00DE00E400DA00C20058008E008A009C00A800A4008200A
310
800B00058004A00E600580050008E008A009C009A00A6008E004000CE00CA00DC00C800D200DA00F4004000640062005200842800378031803D000280BA003280358026C8E008A009C00A800A400820086009E005800A00098009600580060005800A000DE00C600F4000A02E800CA00D60058008E008A009C00A800A40082
310
00A800B00058004A00E600580050008E008A009C009A00A6008E004000CE00CA00DC00C800D200DA00F4004000620052008098802049C00E40098A380228027002A00290020802180278016002800260025801600180016002700390016002380228027002A00290020802A002C00160012803980160014002380228027002
310
6802980238010003380328037003200348036803D00100018801A00148020C9200DC00C800CA00D600E6009AA380228027002A002900208021802780160028002600258016001800160024803700320032803580398016002380228027002A00290020802A002C001600128039801600140023802280270026802980238010
310
003380328037003200348036803D00100018801A80148021A9200DC00C800CA00D600E6004000DE00E800EE00DE00E400EA009E2380228027002A0029002080218027801600280026002580160018001600248037003200328035803980100037803A003B80378039003A8016002380228027002A00290020802A002C00160
310
0128039801600140023802280270026802980238010003380328037003200348036803D00100018801B8014802268A00D800CA00DA00CA00DC00E8004000EA00F802F200E800D600DE00EE00DC00D200D600C200A12380228027002A0029002080218027801600280026002580160018001600228036003280368032803700
310
3A0010003A803E00BC803A00358037803B80370034803580308016002380228027002A00290020802A002C001600128039801600140023802280270026802980238010003380328037003200348036803D00100019001900148020A9E00E800EE01E600E4009A2380228027002A00290020802180278016002800260025801
310
6001800160027803A003B807980390016002380228027002A00290020802A002C001600128039801600140023802280270026802980238010003380328037003200348036803D00100018801B00148020A9200D800DE00B6020E029A2380228027002A00290020802180278016002800260025801600180016002480360037
310
802D80838096002380228027002A00290020802A002C001600128039801600140023802280270026802980238010003380328037003200348036803D00100018801C80148027E7A0078009E00E400D200CE00D200DC007C00780092008C0050009E00A40050009200A6008400980082009C00960050009E00E400D200CE00D
310
200DC00520058009200A6008400980082009C00960050009200DC00C800CA00F00052005200580044004400580044005C00440052007C0078009200DC00C800CA00F0007C00A29E801E002780390034803380348037001F001E002480230014002780290014002480298021002600208027002580140027803900348033803
310
480370014801600248029802100260020802700258014002A8039803280390024803A003280368014801480160011001100160011001700110014801F001E002A8039803280390024803A00328036801F00722AC
340
0
340
0
340
0
340
0
340
55
340
55
 94
        0
1001
ACAD
1000
AcRTDxfName
1000
ACAMGHOLECHARTSTDISO
  0
ACAD_PROXY_OBJECT
  5
8A2
330
879
100
AcDbProxyObject
 90
      499
 91
      565
 95
  2424861
 70
     0
 93
    14527
310
6F8000000000000F0BF0000000000003C2FE0000003200200000032002032E8C2048220540000000000201590000000000000032400000000000000710103490053004F0041924014C013C017C010400CC010A490053004F005F005400490054004C004500410044D24014C013C017C01080148017C0148019401D801A401C
310
C01A401BC01B801B001A401CC01D00112410034007800340020002800320039003700780038003400310020006D006D002900200042124014C013C017C010400D001E000D001124100320078003500200028003500390034007800320031003000320020006D006D00290042124014C013C017C010400C801E000D40112410
310
0330078003500200028003400320030007800310034003800360020006D006D00290042124014C013C017C010400CC01E000D4011341003000780033002000280031003100380039007800320035003200330020006D006D00290042124014C013C017C010400C001E000CC011341003000780032002000280031003100380
310
039007800310036003800320020006D006D00290042124014C013C017C010400C001E000C801124100340078003800200028003200390037007800310036003800320020006D006D00290042124014C013C017C010400D001E000E00111410034007800360020002800320039003700780031003200360031006D006D00290
310
042124014C013C017C010400D001E000D8010E410033002000280032003900370078003400320030006D006D00290041924014C013C017C010400CC01124100320078003300200028003500390034007800310032003600310020006D006D00290042124014C013C017C010400C801E000CC01114100300020002800380034
310
0030007800310031003800390020006D006D002900200041924014C013C017C010400C001124100310078003300200028003800340031007800310037003800330020006D006D00290042124014C013C017C010400C401E000CC0111410033007800360020002800340032003000780031003700380033006D006D00290042
310
124014C013C017C010400CC01E000D801124100310078003400200028003800340031007800320033003700380020006D006D00290042124014C013C017C010400C401E000D0011041003300780033002000280034003200300078003800390031006D006D00290042124014C013C017C010400CC01E000CC010E410034002
310
000280032003900370078003200310030006D006D00290041924014C013C017C010400D0010F4100320020002800340032003000780035003900340020006D006D00290041924014C013C017C010400C801124100330078003400200028003400320030007800310031003800390020006D006D00290042124014C013C017C
310
010400CC01E000D001124100340078003500200028003200390037007800310030003500310020006D006D00290042124014C013C017C010400D001E000D401124100340078003700200028003200390037007800310034003700310020006D006D00290042124014C013C017C010400D001E000DC010F4100310020002800
310
350039003400780038003400310020006D006D00290041924014C013C017C010400C401124100340078003900200028003200390037007800310038003900320020006D006D00290042124014C013C017C010400D001E000E40111410034007800330020002800320039003700780036003300300020006D006D0029004212
310
4014C013C017C010400D001E000CC01124100320078003400200028003500390034007800310036003800320020006D006D00290042124014C013C017C010400C801E000D001124100330078003700200028003400320030007800320030003800300020006D006D00290042124014C013C017C010400CC01E000DC0117540
310
06100620065006C006B006100200072007900730075006E006B006F00770061002000490053004F002000420042924014C013C017C015001240150013001140108011754006100620065006C006B006100200072007900730075006E006B006F00770061002000490053004F002000410042924014C013C017C01500124015
310
0013001140104010F4C00690073007400610020007A006D00690061006E005F0054004C005F0044D24014C013C017C01500130017C0148019401D801A401CC01A401BC01B801B001A401CC01D0010F4C00690073007400610020007A006D00690061006E005F00420052005F0044D24014C013C017C01080148017C0148019
310
401D801A401CC01A401BC01B801B001A401CC01D0010F4C00690073007400610020007A006D00690061006E005F00540052005F0044D24014C013C017C01500148017C0148019401D801A401CC01A401BC01B801B001A401CC01D0010F4C00690073007400610020007A006D00690061006E005F0042004C005F0044D24014
310
C013C017C01080130017C0148019401D801A401CC01A401BC01B801B001A401CC01D002B10DA
 94
        0
1001
ACAD
1000
AcRTDxfName
1000
ACAMGTITLESTD
  0
ACAD_PROXY_OBJECT
  5
8AC
330
0
100
AcDbProxyObject
 90
      499
 91
      566
 95
  2424861
 70
     0
 93
     5242
310
6FA0101A12A600F400C200C400D800DE00DC00400062001D009E801280128031801E0024003780360032801D0031803A003200348030801F0010003C0010001E0024003780360032801D0031803A003200328038003A0034001F0010002A802E0028001E00348033001400328038803A803080360014002400378036003280
310
1D003A003080380038003280320016001100180011001480160011001280128031801100160024003780360032801D0037003780368034803700308036001000110010003C001000110014801F001E00348033001400328038803A8030803600140024003780360032801D003A003080380038003280320016001100180011
310
001480160024003780360032801D00320034803080160024003780360032801D00380034803A0031803400320032803980318014801F001E00348033001400328038803A8030803600140024003780360032801D003A0030803800380032803200160011001880110014801600110010003C00100011001600110011001480
310
1F001E00348033001400328038803A8030803600140024003780360032801D003A003080380038003280320016001100188011001480160024003780360032801D003A00308038003200328038003A00340016001100110014801F0010001E00348033001400328038803A8030803600140024003780360032801D003A0032
310
80390036803480370030803A003480378037001600110018001100148016001100100017801000110016001100110014801F001E00348033001400328038803A8030803600140024003780360032801D003A003280390036803480370030803A0034803780370016001100180011001480160024003780360032801D003200
310
328038003A00340016001100110014801F00260A4C
 94
        0
1001
ACAD
1000
AcRTDxfName
1000
AMDTNOTETEMPLATEDB
  0
ACAD_PROXY_OBJECT
  5
8AD
330
0
100
AcDbProxyObject
 90
      499
 91
      566
 95
  2424861
 70
     0
 93
     5258
310
6FA0101A12A600F400C200C400D800DE00DC00400062001D809E801280128031801E0024003780360032801D0031803A003200348030801F0010003C0010001E0024003780360032801D0031803A00308037003380360032801F001280128032002E0028001E00348033001400328038803A80308036001400240037803600
310
32801D003A003080380038003280320016001100180011001480160011001280128031801100160024003780360032801D0037003780368034803700308036001000110010003C001000110014801F001E00348033001400328038803A8030803600140024003780360032801D003A00308038003800328032001600110018
310
0011001480160024003780360032801D00320034803080160024003780360032801D00380034803A0031803400320032803980318014801F001E00348033001400328038803A8030803600140024003780360032801D003A0030803800380032803200160011001880110014801600110010003C0010001100160011001100
310
14801F001E00348033001400328038803A8030803600140024003780360032801D003A003080380038003280320016001100188011001480160024003780360032801D003A00308038003200328038003A00340016001100110014801F0010001E00348033001400328038803A8030803600140024003780360032801D003A
310
003280390036803480370030803A003480378037001600110018001100148016001100100017801000110016001100110014801F001E00348033001400328038803A8030803600140024003780360032801D003A003280390036803480370030803A0034803780370016001100180011001480160024003780360032801D00
310
3200328038003A00340016001100110014801F002E0A4C
 94
        0
1001
ACAD
1000
AcRTDxfName
1000
AMDTNOTETEMPLATEDB
  0
ACAD_PROXY_OBJECT
  5
8AB
330
0
100
AcDbProxyObject
 90
      499
 91
      566
 95
  2424861
 70
     0
 93
     4666
310
6FA0101A12A600F400C200C400D800DE00DC00400062000B009E801E00348033001400328038803A8030803600140024003780360032801D003A003080380038003280320016001100180011001480160011001280128031801100160024003780360032801D0037003780368034803700308036001000110010003C001000
310
110014801F001E00348033001400328038803A8030803600140024003780360032801D003A003080380038003280320016001100180011001480160024003780360032801D00320034803080160024003780360032801D00380034803A0031803400320032803980318014801F001E00348033001400328038803A80308036
310
00140024003780360032801D003A0030803800380032803200160011001880110014801600110010003C001000110016001100110014801F001E00348033001400328038803A8030803600140024003780360032801D003A003080380038003280320016001100188011001480160024003780360032801D003A0030803800
310
3200328038003A00340016001100110014801F0010001E00348033001400328038803A8030803600140024003780360032801D003A003280390036803480370030803A003480378037001600110018001100148016001100100017801000110016001100110014801F001E00348033001400328038803A8030803600140024
310
003780360032801D003A003280390036803480370030803A0034803780370016001100180011001480160024003780360032801D003200328038003A00340016001100110014801F0006094C
 94
        0
1001
ACAD
1000
AcRTDxfName
1000
AMDTNOTETEMPLATEDB
  0
ACAD_PROXY_OBJECT
  5
8A9
330
0
100
AcDbProxyObject
 90
      499
 91
      566
 95
  2424861
 70
     0
 93
      578
310
6FA0101212A600F400C200C400D800DE00DC00400064008B9E801E0029802A00220028001D0022002280298021801F0010001E0029802A00220028001D0029802A0022001F000A014C
 94
        0
1001
ACAD
1000
AcRTDxfName
1000
AMDTNOTETEMPLATEDB
  0
ACAD_PROXY_OBJECT
  5
8A8
330
0
100
AcDbProxyObject
 90
      499
 91
      566
 95
  2424861
 70
     0
 93
      402
310
6FA0101A12A600F400C200C400D800DE00DC0040006200861E801E0029802A00220028001D0022002280298021801F003200CC
 94
        0
1001
ACAD
1000
AcRTDxfName
1000
AMDTNOTETEMPLATEDB
  0
ACAD_PROXY_OBJECT
  5
8AA
330
0
100
AcDbProxyObject
 90
      499
 91
      566
 95
  2424861
 70
     0
 93
      386
310
6FA0101212A600F400C200C400D800DE00DC0040006600859E801E0029802A00220028001D0029802A0022001F002A00CC
 94
        0
1001
ACAD
1000
AcRTDxfName
1000
AMDTNOTETEMPLATEDB
  0
ENDSEC
  0
EOF
