  0
SECTION
  2
HEADER
  9
$ACADVER
  1
AC1015
  9
$ACADMAINTVER
 70
    20
  9
$DWGCODEPAGE
  3
ANSI_1250
  9
$INSBASE
 10
0.0
 20
0.0
 30
0.0
  9
$EXTMIN
 10
1258.039685584095
 20
-1322.5244380098
 30
0.0
  9
$EXTMAX
 10
1390.636956942653
 20
-1200.173591358776
 30
0.0
  9
$LIMMIN
 10
0.0
 20
0.0
  9
$LIMMAX
 10
420.0
 20
297.0
  9
$ORTHOMODE
 70
     0
  9
$REGENMODE
 70
     1
  9
$FILLMODE
 70
     1
  9
$QTEXTMODE
 70
     0
  9
$MIRRTEXT
 70
     0
  9
$LTSCALE
 40
1.0
  9
$ATTMODE
 70
     1
  9
$TEXTSIZE
 40
2.5
  9
$TRACEWID
 40
1.0
  9
$TEXTSTYLE
  7
Standard
  9
$CLAYER
  8
0
  9
$CELTYPE
  6
ByLayer
  9
$CECOLOR
 62
   256
  9
$CELTSCALE
 40
1.0
  9
$DISPSILH
 70
     0
  9
$DIMSCALE
 40
10.0
  9
$DIMASZ
 40
0.5
  9
$DIMEXO
 40
1.0
  9
$DIMDLI
 40
0.5
  9
$DIMRND
 40
0.0
  9
$DIMDLE
 40
0.5
  9
$DIMEXE
 40
0.25
  9
$DIMTP
 40
0.0
  9
$DIMTM
 40
0.0
  9
$DIMTXT
 40
0.5
  9
$DIMCEN
 40
0.5
  9
$DIMTSZ
 40
0.0
  9
$DIMTOL
 70
     0
  9
$DIMLIM
 70
     0
  9
$DIMTIH
 70
     0
  9
$DIMTOH
 70
     0
  9
$DIMSE1
 70
     0
  9
$DIMSE2
 70
     0
  9
$DIMTAD
 70
     1
  9
$DIMZIN
 70
     8
  9
$DIMBLK
  1
Oblique
  9
$DIMASO
 70
     1
  9
$DIMSHO
 70
     1
  9
$DIMPOST
  1

  9
$DIMAPOST
  1

  9
$DIMALT
 70
     0
  9
$DIMALTD
 70
     3
  9
$DIMALTF
 40
0.03937007874016
  9
$DIMLFAC
 40
10.0
  9
$DIMTOFL
 70
     1
  9
$DIMTVP
 40
0.0
  9
$DIMTIX
 70
     0
  9
$DIMSOXD
 70
     0
  9
$DIMSAH
 70
     0
  9
$DIMBLK1
  1

  9
$DIMBLK2
  1

  9
$DIMSTYLE
  2
ISO-25
  9
$DIMCLRD
 70
     0
  9
$DIMCLRE
 70
     0
  9
$DIMCLRT
 70
     0
  9
$DIMTFAC
 40
1.0
  9
$DIMGAP
 40
0.5
  9
$DIMJUST
 70
     0
  9
$DIMSD1
 70
     0
  9
$DIMSD2
 70
     0
  9
$DIMTOLJ
 70
     0
  9
$DIMTZIN
 70
     8
  9
$DIMALTZ
 70
     0
  9
$DIMALTTZ
 70
     0
  9
$DIMUPT
 70
     0
  9
$DIMDEC
 70
     0
  9
$DIMTDEC
 70
     0
  9
$DIMALTU
 70
     2
  9
$DIMALTTD
 70
     3
  9
$DIMTXSTY
  7
Standard
  9
$DIMAUNIT
 70
     0
  9
$DIMADEC
 70
     0
  9
$DIMALTRND
 40
0.0
  9
$DIMAZIN
 70
     0
  9
$DIMDSEP
 70
    44
  9
$DIMATFIT
 70
     3
  9
$DIMFRAC
 70
     0
  9
$DIMLDRBLK
  1
Oblique
  9
$DIMLUNIT
 70
     2
  9
$DIMLWD
 70
    -2
  9
$DIMLWE
 70
    -2
  9
$DIMTMOVE
 70
     0
  9
$LUNITS
 70
     2
  9
$LUPREC
 70
     2
  9
$SKETCHINC
 40
1.0
  9
$FILLETRAD
 40
150.0
  9
$AUNITS
 70
     0
  9
$AUPREC
 70
     0
  9
$MENU
  1
.
  9
$ELEVATION
 40
0.0
  9
$PELEVATION
 40
0.0
  9
$THICKNESS
 40
0.0
  9
$LIMCHECK
 70
     0
  9
$CHAMFERA
 40
0.0
  9
$CHAMFERB
 40
0.0
  9
$CHAMFERC
 40
0.0
  9
$CHAMFERD
 40
0.0
  9
$SKPOLY
 70
     0
  9
$TDCREATE
 40
2455271.672289491
  9
$TDUCREATE
 40
2455271.630622824
  9
$TDUPDATE
 40
2458893.503031239
  9
$TDUUPDATE
 40
2458893.461364572
  9
$TDINDWG
 40
1.8038313889
  9
$TDUSRTIMER
 40
1.8038277778
  9
$USRTIMER
 70
     1
  9
$ANGBASE
 50
0.0
  9
$ANGDIR
 70
     0
  9
$PDMODE
 70
     0
  9
$PDSIZE
 40
0.0
  9
$PLINEWID
 40
0.0
  9
$SPLFRAME
 70
     0
  9
$SPLINETYPE
 70
     6
  9
$SPLINESEGS
 70
     8
  9
$HANDSEED
  5
225BB
  9
$SURFTAB1
 70
     6
  9
$SURFTAB2
 70
     6
  9
$SURFTYPE
 70
     6
  9
$SURFU
 70
     6
  9
$SURFV
 70
     6
  9
$UCSBASE
  2

  9
$UCSNAME
  2

  9
$UCSORG
 10
0.0
 20
0.0
 30
0.0
  9
$UCSXDIR
 10
1.0
 20
0.0
 30
0.0
  9
$UCSYDIR
 10
0.0
 20
1.0
 30
0.0
  9
$UCSORTHOREF
  2

  9
$UCSORTHOVIEW
 70
     0
  9
$UCSORGTOP
 10
0.0
 20
0.0
 30
0.0
  9
$UCSORGBOTTOM
 10
0.0
 20
0.0
 30
0.0
  9
$UCSORGLEFT
 10
0.0
 20
0.0
 30
0.0
  9
$UCSORGRIGHT
 10
0.0
 20
0.0
 30
0.0
  9
$UCSORGFRONT
 10
0.0
 20
0.0
 30
0.0
  9
$UCSORGBACK
 10
0.0
 20
0.0
 30
0.0
  9
$PUCSBASE
  2

  9
$PUCSNAME
  2

  9
$PUCSORG
 10
0.0
 20
0.0
 30
0.0
  9
$PUCSXDIR
 10
1.0
 20
0.0
 30
0.0
  9
$PUCSYDIR
 10
0.0
 20
1.0
 30
0.0
  9
$PUCSORTHOREF
  2

  9
$PUCSORTHOVIEW
 70
     0
  9
$PUCSORGTOP
 10
0.0
 20
0.0
 30
0.0
  9
$PUCSORGBOTTOM
 10
0.0
 20
0.0
 30
0.0
  9
$PUCSORGLEFT
 10
0.0
 20
0.0
 30
0.0
  9
$PUCSORGRIGHT
 10
0.0
 20
0.0
 30
0.0
  9
$PUCSORGFRONT
 10
0.0
 20
0.0
 30
0.0
  9
$PUCSORGBACK
 10
0.0
 20
0.0
 30
0.0
  9
$USERI1
 70
     0
  9
$USERI2
 70
     0
  9
$USERI3
 70
     0
  9
$USERI4
 70
     0
  9
$USERI5
 70
     0
  9
$USERR1
 40
0.0
  9
$USERR2
 40
0.0
  9
$USERR3
 40
0.0
  9
$USERR4
 40
0.0
  9
$USERR5
 40
0.0
  9
$WORLDVIEW
 70
     1
  9
$SHADEDGE
 70
     3
  9
$SHADEDIF
 70
    70
  9
$TILEMODE
 70
     1
  9
$MAXACTVP
 70
    64
  9
$PINSBASE
 10
0.0
 20
0.0
 30
0.0
  9
$PLIMCHECK
 70
     0
  9
$PEXTMIN
 10
0.0
 20
0.0
 30
0.0
  9
$PEXTMAX
 10
0.0
 20
0.0
 30
0.0
  9
$PLIMMIN
 10
0.0
 20
0.0
  9
$PLIMMAX
 10
12.0
 20
9.0
  9
$UNITMODE
 70
     0
  9
$VISRETAIN
 70
     1
  9
$PLINEGEN
 70
     0
  9
$PSLTSCALE
 70
     1
  9
$TREEDEPTH
 70
  3020
  9
$CMLSTYLE
  2
Standard
  9
$CMLJUST
 70
     0
  9
$CMLSCALE
 40
20.0
  9
$PROXYGRAPHICS
 70
     1
  9
$MEASUREMENT
 70
     1
  9
$CELWEIGHT
370
    -1
  9
$ENDCAPS
280
     0
  9
$JOINSTYLE
280
     0
  9
$LWDISPLAY
290
     0
  9
$INSUNITS
 70
     4
  9
$HYPERLINKBASE
  1

  9
$STYLESHEET
  1

  9
$XEDIT
290
     1
  9
$CEPSNTYPE
380
     0
  9
$PSTYLEMODE
290
     1
  9
$FINGERPRINTGUID
  2
{C65F9435-B566-42C5-B7B5-0BD6F0631ED0}
  9
$VERSIONGUID
  2
{87831AF5-8121-40CF-A490-108CDC6ECA3C}
  9
$EXTNAMES
290
     1
  9
$PSVPSCALE
 40
0.0
  9
$OLESTARTUP
290
     0
  0
ENDSEC
  0
SECTION
  2
CLASSES
  0
CLASS
  1
ACDBDICTIONARYWDFLT
  2
AcDbDictionaryWithDefault
  3
ObjectDBX Classes
 90
        0
280
     0
281
     0
  0
CLASS
  1
DICTIONARYVAR
  2
AcDbDictionaryVar
  3
ObjectDBX Classes
 90
        0
280
     0
281
     0
  0
CLASS
  1
TABLESTYLE
  2
AcDbTableStyle
  3
ObjectDBX Classes
 90
     4095
280
     0
281
     0
  0
CLASS
  1
DIMASSOC
  2
AcDbDimAssoc
  3
"AcDbDimAssoc|Product Desc:     AcDim ARX App For Dimension|Company:          Autodesk, Inc.|WEB Address:      www.autodesk.com"
 90
    32768
280
     0
281
     0
  0
CLASS
  1
SORTENTSTABLE
  2
AcDbSortentsTable
  3
ObjectDBX Classes
 90
        0
280
     0
281
     0
  0
CLASS
  1
RASTERVARIABLES
  2
AcDbRasterVariables
  3
ISM
 90
        0
280
     0
281
     0
  0
CLASS
  1
IMAGEDEF
  2
AcDbRasterImageDef
  3
ISM
 90
    32768
280
     0
281
     0
  0
CLASS
  1
IMAGEDEF_REACTOR
  2
AcDbRasterImageDefReactor
  3
ISM
 90
    32769
280
     0
281
     0
  0
CLASS
  1
IMAGE
  2
AcDbRasterImage
  3
ISM
 90
    34943
280
     0
281
     1
  0
CLASS
  1
MATERIAL
  2
AcDbMaterial
  3
ObjectDBX Classes
 90
     1153
280
     0
281
     0
  0
CLASS
  1
VISUALSTYLE
  2
AcDbVisualStyle
  3
ObjectDBX Classes
 90
     4095
280
     0
281
     0
  0
CLASS
  1
SCALE
  2
AcDbScale
  3
ObjectDBX Classes
 90
     1153
280
     0
281
     0
  0
CLASS
  1
MLEADERSTYLE
  2
AcDbMLeaderStyle
  3
ACDB_MLEADERSTYLE_CLASS
 90
     4095
280
     0
281
     0
  0
CLASS
  1
ACME_DOCUMENT
  2
AcMeDbDoc
  3
AcMeServices
 90
    33792
280
     0
281
     0
  0
CLASS
  1
AMGSETTINGSOBJ
  2
AmgSettingsObj
  3
"AcadM|Product Description: AutoCAD Mechanical|Company: Autodesk, Inc."
 90
    33792
280
     0
281
     0
  0
CLASS
  1
ACMESCOPE
  2
AcMeScope
  3
AcMeServices
 90
    33792
280
     0
281
     0
  0
CLASS
  1
ACMECOMMANDHISTORY
  2
AcMeCommandHistory
  3
AcMeServices
 90
    33792
280
     0
281
     0
  0
CLASS
  1
ACIMSYSVARMAN
  2
AcImSysVarManager
  3
AcMeServices
 90
    33792
280
     0
281
     0
  0
CLASS
  1
ACIMINTSYSVAR
  2
AcImIntSysVar
  3
AcMeServices
 90
    33792
280
     0
281
     0
  0
CLASS
  1
ACMESTATEMGR
  2
AcMeStateMgr
  3
AcMeServices
 90
    33792
280
     0
281
     0
  0
CLASS
  1
ACDBENTITYCACHE
  2
AcMeEntityCache
  3
AcMeServices
 90
    33792
280
     0
281
     0
  0
CLASS
  1
ACGREFMASTER
  2
AcGrefMaster
  3
AcAttribServices
 90
    33792
280
     0
281
     0
  0
CLASS
  1
AM_DRAWING_MGR
  2
AcDmDwgMgr
  3
AcMechDwgViewMgmt
 90
    33792
280
     0
281
     0
  0
CLASS
  1
AM_DWG_DOCUMENT
  2
AcDmDwgDocument
  3
AcMechDwgViewMgmt
 90
    33792
280
     0
281
     0
  0
CLASS
  1
AM_DWG_SHEET
  2
AcDmSheet
  3
AcMechDwgViewMgmt
 90
    33792
280
     0
281
     0
  0
CLASS
  1
AM_VIEWDIMPARMAP
  2
AcDmViewDimParMap
  3
AcMechDwgViewMgmt
 90
    33792
280
     0
281
     0
  0
CLASS
  1
AMDTINTERNALREACTOR
  2
AmdtInternalReactor
  3
AcMeServices
 90
    33792
280
     0
281
     0
  0
CLASS
  1
ACIMREALSYSVAR
  2
AcImRealSysVar
  3
AcMeServices
 90
    33792
280
     0
281
     0
  0
CLASS
  1
AM_DWGMGR_NAME
  2
AcDmDwgMgrName
  3
AcMechDwgViewMgmt
 90
    33792
280
     0
281
     0
  0
CLASS
  1
ACME_DATABASE
  2
AcMeDbDatabase
  3
AcMeServices
 90
    33792
280
     0
281
     0
  0
CLASS
  1
ACRFINSADJUSTERMGR
  2
AcRfInsAdjusterMgr
  3
AcMeServices
 90
    33792
280
     0
281
     0
  0
CLASS
  1
ACGREFACADMASTER
  2
AcGrefacadMaster
  3
AcGrefServices
 90
    33792
280
     0
281
     0
  0
CLASS
  1
AMDTMENUSTATEMGR
  2
AmdtMenuStateMgr
  3
McadcomServices
 90
    33792
280
     0
281
     0
  0
CLASS
  1
AMDTMCOMMENUSTATE
  2
AmdtMcomMenuState
  3
McadcomServices
 90
    33792
280
     0
281
     0
  0
CLASS
  1
AMIMASTER
  2
AmiMaster
  3
AmiServices
 90
    33792
280
     0
281
     0
  0
CLASS
  1
MAPIAMMOUDLE
  2
MApiAmModule
  3
MApiAmServices
 90
    33792
280
     0
281
     0
  0
CLASS
  1
ACIMSTRSYSVAR
  2
AcImStrSysVar
  3
AcMeServices
 90
    33792
280
     0
281
     0
  0
CLASS
  1
AMDTDMMENUSTATE
  2
AmdtDmMenuState
  3
AcMechDwgViewMgmt
 90
    33792
280
     0
281
     0
  0
CLASS
  1
AMDTAMMENUSTATE
  2
AmdtAmMenuState
  3
DesignerAssemblies
 90
    33792
280
     0
281
     0
  0
CLASS
  1
ACAMPROJECT
  2
AcAmProject
  3
DesignerAssemblies
 90
    33792
280
     0
281
     0
  0
CLASS
  1
ACAMGRCOMPDEF
  2
AcAmGrCompDef
  3
DesignerAssemblies
 90
    33792
280
     0
281
     0
  0
CLASS
  1
ACAMCOMPDEF
  2
AcAmCompDef
  3
DesignerAssemblies
 90
    33792
280
     0
281
     0
  0
CLASS
  1
ACAMCOMPDEFMGR
  2
AcAmCompDefMgr
  3
DesignerAssemblies
 90
    33792
280
     0
281
     0
  0
CLASS
  1
AMCONTEXTMGR
  2
AcAmContextMgr
  3
DesignerAssemblies
 90
    33792
280
     0
281
     0
  0
CLASS
  1
ACAMCONTEXTMODELER
  2
AcAmContextModeler
  3
DesignerAssemblies
 90
    33792
280
     0
281
     0
  0
CLASS
  1
ACMDATADICTIONARY
  2
AcmDataDictionary
  3
"AcmSymBB|Product Description: AutoCAD Mechanical|Company: Autodesk, Inc."
 90
    33792
280
     0
281
     0
  0
CLASS
  1
ACAMGRCOMPDEFSET
  2
AcAmGrCompDefSet
  3
DesignerAssemblies
 90
    33792
280
     0
281
     0
  0
CLASS
  1
AMDTBROWSERDBTAB
  2
AmdtBrowserDbTab
  3
McadcomServices
 90
    33792
280
     0
281
     0
  0
CLASS
  1
CBROWSERAPPOBJECT
  2
CBrowserAppObject
  3
McadcomServices
 90
    33792
280
     0
281
     0
  0
CLASS
  1
DM_PLACEHOLDER
  2
AcDmSelsetPlaceholder
  3
AcMechDwgViewMgmt
 90
    33792
280
     0
281
     0
  0
CLASS
  1
EXACXREFPANELOBJECT
  2
ExAcXREFPanelObject
  3
EXAC_ESW
 90
     1025
280
     0
281
     0
  0
CLASS
  1
NPOCOLLECTION
  2
AcDbImpNonPersistentObjectsCollection
  3
ObjectDBX Classes
 90
     1153
280
     0
281
     0
  0
CLASS
  1
ACMSTANDARDISO
  2
AcmStandardISO
  3
"Amdt_StdImp|Product Description: AutoCAD Mechanical|Company: Autodesk, Inc."
 90
    33792
280
     0
281
     0
  0
CLASS
  1
AMDTEDGESTANDARDISO13715
  2
AmdtEdgeStdISO13715
  3
"Amdt_StdImp|Product Description: AutoCAD Mechanical|Company: Autodesk, Inc."
 90
    33792
280
     0
281
     0
  0
CLASS
  1
ACMSURFSTANDARDISO2002
  2
AcmSurfTextStdISO2002
  3
"Amdt_StdImp|Product Description: AutoCAD Mechanical|Company: Autodesk, Inc."
 90
    33792
280
     0
281
     0
  0
CLASS
  1
ACMFCFSTANDARDISO
  2
AcmFCFStdISO
  3
"Amdt_StdImp|Product Description: AutoCAD Mechanical|Company: Autodesk, Inc."
 90
    33792
280
     0
281
     0
  0
CLASS
  1
ACMWELDSTANDARDISO
  2
AcmWeldingStdISO
  3
"Amdt_StdImp|Product Description: AutoCAD Mechanical|Company: Autodesk, Inc."
 90
    33792
280
     0
281
     0
  0
CLASS
  1
ACMIDSTANDARDISO
  2
AcmIdStdISO
  3
"Amdt_StdImp|Product Description: AutoCAD Mechanical|Company: Autodesk, Inc."
 90
    33792
280
     0
281
     0
  0
CLASS
  1
ACMDATUMSTANDARDISO
  2
AcmDatumStdISO
  3
"Amdt_StdImp|Product Description: AutoCAD Mechanical|Company: Autodesk, Inc."
 90
    33792
280
     0
281
     0
  0
CLASS
  1
ACMBOMSTANDARDISO
  2
AcmBOMStdISO
  3
"Amdt_StdImp|Product Description: AutoCAD Mechanical|Company: Autodesk, Inc."
 90
    33792
280
     0
281
     0
  0
CLASS
  1
ACMDETAILSTANDARDISO
  2
AmdtDetailSymStdISO
  3
"Amdt_StdImp|Product Description: AutoCAD Mechanical|Company: Autodesk, Inc."
 90
    33792
280
     0
281
     0
  0
CLASS
  1
ACMSECTIONSTANDARDISO2001
  2
AmdtSectionSymStdISO2001
  3
"Amdt_StdImp|Product Description: AutoCAD Mechanical|Company: Autodesk, Inc."
 90
    33792
280
     0
281
     0
  0
CLASS
  1
ACMCENTERLINESTANDARDISO
  2
AmdtCenterLineStdISO
  3
"Amdt_StdImp|Product Description: AutoCAD Mechanical|Company: Autodesk, Inc."
 90
    33792
280
     0
281
     0
  0
CLASS
  1
ACMTHREADLINESTANDARDISO
  2
AmdtThreadLineStdISO
  3
"Amdt_StdImp|Product Description: AutoCAD Mechanical|Company: Autodesk, Inc."
 90
    33792
280
     0
281
     0
  0
CLASS
  1
ACMNOTESTANDARDISO
  2
AmdtNoteStdISO
  3
"Amdt_StdImp|Product Description: AutoCAD Mechanical|Company: Autodesk, Inc."
 90
    33792
280
     0
281
     0
  0
CLASS
  1
ACMTAPERSTANDARDISO
  2
AcmTaperStdISO
  3
"Amdt_StdImp|Product Description: AutoCAD Mechanical|Company: Autodesk, Inc."
 90
    33792
280
     0
281
     0
  0
CLASS
  1
ACMANOOTATIONVIEWSTANDARDISO
  2
AmdtAnViewStdISO
  3
"Amdt_StdImp|Product Description: AutoCAD Mechanical|Company: Autodesk, Inc."
 90
    33792
280
     0
281
     0
  0
CLASS
  1
ACAMGLAYSTD
  2
AcAmgLayStd
  3
"AmgLay|Product Description: AutoCAD Mechanical|Company: Autodesk, Inc."
 90
    33792
280
     0
281
     0
  0
CLASS
  1
ACAMGDIMSTD
  2
AcAmgDimStd
  3
"AmgDim|Product Description: AutoCAD Mechanical|Company: Autodesk, Inc."
 90
    33792
280
     0
281
     0
  0
CLASS
  1
AMGOBJPROPCFG
  2
AmgObjPropCfg
  3
"AmgLay|Product Description: AutoCAD Mechanical|Company: Autodesk, Inc."
 90
    33793
280
     0
281
     0
  0
CLASS
  1
ACAMGHOLECHARTSTDISO
  2
AcAmgHoleChartStdISO
  3
AmgDim|Product Description: AutoCAD Mechanical|Company: Autodesk, Inc.
 90
    33792
280
     0
281
     0
  0
CLASS
  1
ACAMGTITLESTD
  2
AcAmgTitleStd
  3
"AmgTitle|Product Description: AutoCAD Mechanical|Company: Autodesk, Inc."
 90
    36863
280
     0
281
     0
  0
CLASS
  1
AMDTNOTETEMPLATEDB
  2
AmdtNoteTemplateDB
  3
AcmSymBB|Product Description: AutoCAD Mechanical|Company: Autodesk, Inc.
 90
    33792
280
     0
281
     0
  0
CLASS
  1
ACAMGFILTERDAT
  2
AcAmgFilterDat
  3
"AcadM|Product Description: AutoCAD Mechanical|Company: Autodesk, Inc."
 90
    33792
280
     0
281
     0
  0
CLASS
  1
CAMSSTRUCTBTNSTATE
  2
StructBtnState
  3
DesignerAssemblies
 90
    33792
280
     0
281
     0
  0
CLASS
  1
ACMDATAENTRYBLOCK
  2
AcmDataEntryBlock
  3
AcmSymBB|Product Description: AutoCAD Mechanical|Company: Autodesk, Inc.
 90
    33792
280
     0
281
     0
  0
CLASS
  1
CELLSTYLEMAP
  2
AcDbCellStyleMap
  3
ObjectDBX Classes
 90
     1152
280
     0
281
     0
  0
CLASS
  1
ACDBPLACEHOLDER
  2
AcDbPlaceHolder
  3
ObjectDBX Classes
 90
        0
280
     0
281
     0
  0
CLASS
  1
LAYOUT
  2
AcDbLayout
  3
ObjectDBX Classes
 90
        0
280
     0
281
     0
  0
ENDSEC
  0
SECTION
  2
TABLES
  0
TABLE
  2
VPORT
  5
8
102
{ACAD_XDICTIONARY
360
2242D
102
}
330
0
100
AcDbSymbolTable
 70
     1
  0
VPORT
  5
1D33B
330
8
100
AcDbSymbolTableRecord
100
AcDbViewportTableRecord
  2
*Active
 70
     0
 10
0.0
 20
0.0
 11
1.0
 21
1.0
 12
1317.812896197603
 22
-1254.502838741069
 13
0.0
 23
0.0
 14
10.0
 24
10.0
 15
10.0
 25
10.0
 16
0.0
 26
0.0
 36
1.0
 17
0.0
 27
0.0
 37
0.0
 40
159.925300735987
 41
2.430203045685279
 42
50.0
 43
0.0
 44
0.0
 50
0.0
 51
0.0
 71
     0
 72
  1000
 73
     1
 74
     3
 75
     0
 76
     0
 77
     0
 78
     0
281
     0
 65
     0
110
0.0
120
0.0
130
0.0
111
1.0
121
0.0
131
0.0
112
0.0
122
1.0
132
0.0
 79
     0
146
0.0
  0
ENDTAB
  0
TABLE
  2
LTYPE
  5
5
330
0
100
AcDbSymbolTable
 70
    41
  0
LTYPE
  5
14
330
5
100
AcDbSymbolTableRecord
100
AcDbLinetypeTableRecord
  2
ByBlock
 70
     0
  3

 72
    65
 73
     0
 40
0.0
  0
LTYPE
  5
15
330
5
100
AcDbSymbolTableRecord
100
AcDbLinetypeTableRecord
  2
ByLayer
 70
     0
  3

 72
    65
 73
     0
 40
0.0
  0
LTYPE
  5
16
330
5
100
AcDbSymbolTableRecord
100
AcDbLinetypeTableRecord
  2
Continuous
 70
     0
  3
Solid line
 72
    65
 73
     0
 40
0.0
  0
ENDTAB
  0
TABLE
  2
LAYER
  5
2
102
{ACAD_XDICTIONARY
360
3EC5
102
}
330
0
100
AcDbSymbolTable
 70
     9
  0
LAYER
  5
10
102
{ACAD_XDICTIONARY
360
1D40B
102
}
330
2
100
AcDbSymbolTableRecord
100
AcDbLayerTableRecord
  2
0
 70
     0
 62
     7
  6
Continuous
370
    -3
390
F
  0
LAYER
  5
18C
330
2
100
AcDbSymbolTableRecord
100
AcDbLayerTableRecord
  2
Defpoints
 70
     0
 62
   255
  6
Continuous
290
     0
370
    -3
390
F
  0
LAYER
  5
1DBE2
330
2
100
AcDbSymbolTableRecord
100
AcDbLayerTableRecord
  2
Wymiar (ISO)
 70
     0
 62
   151
  6
Continuous
370
    18
390
F
  0
LAYER
  5
2136C
330
2
100
AcDbSymbolTableRecord
100
AcDbLayerTableRecord
  2
Widoczne (ISO)
 70
     0
 62
     7
  6
Continuous
370
    25
390
F
  0
LAYER
  5
2136D
330
2
100
AcDbSymbolTableRecord
100
AcDbLayerTableRecord
  2
Widoczne wąskie (ISO)
 70
     0
 62
     7
  6
Continuous
370
    15
390
F
  0
ENDTAB
  0
TABLE
  2
STYLE
  5
3
330
0
100
AcDbSymbolTable
 70
     7
  0
STYLE
  5
11
330
3
100
AcDbSymbolTableRecord
100
AcDbTextStyleTableRecord
  2
Standard
 70
     0
 40
0.0
 41
1.0
 50
0.0
 71
     0
 42
2.5
  3
simplex8.shx
  4

  0
ENDTAB
  0
TABLE
  2
VIEW
  5
6
330
0
100
AcDbSymbolTable
 70
     0
  0
ENDTAB
  0
TABLE
  2
UCS
  5
7
330
0
100
AcDbSymbolTable
 70
     0
  0
ENDTAB
  0
TABLE
  2
APPID
  5
9
330
0
100
AcDbSymbolTable
 70
    31
  0
APPID
  5
12
330
9
100
AcDbSymbolTableRecord
100
AcDbRegAppTableRecord
  2
ACAD
 70
     0
  0
APPID
  5
9E
330
9
100
AcDbSymbolTableRecord
100
AcDbRegAppTableRecord
  2
ACAD_PSEXT
 70
     0
  0
APPID
  5
1D5
330
9
100
AcDbSymbolTableRecord
100
AcDbRegAppTableRecord
  2
ACAD_DSTYLE_DIMTEXT_FILL
 70
     0
  0
APPID
  5
1D6
330
9
100
AcDbSymbolTableRecord
100
AcDbRegAppTableRecord
  2
ACAD_DSTYLE_DIMEXT_LENGTH
 70
     0
  0
APPID
  5
1D7
330
9
100
AcDbSymbolTableRecord
100
AcDbRegAppTableRecord
  2
ACAD_DSTYLE_DIMEXT_ENABLED
 70
     0
  0
APPID
  5
1D8
330
9
100
AcDbSymbolTableRecord
100
AcDbRegAppTableRecord
  2
ACAD_DSTYLE_DIM_LINETYPE
 70
     0
  0
APPID
  5
1D9
330
9
100
AcDbSymbolTableRecord
100
AcDbRegAppTableRecord
  2
ACAD_DSTYLE_DIM_EXT1_LINETYPE
 70
     0
  0
APPID
  5
1DA
330
9
100
AcDbSymbolTableRecord
100
AcDbRegAppTableRecord
  2
ACAD_DSTYLE_DIM_EXT2_LINETYPE
 70
     0
  0
APPID
  5
296
330
9
100
AcDbSymbolTableRecord
100
AcDbRegAppTableRecord
  2
ACAD_DSTYLE_DIMJOGGED_JOGANGLE_SYMBOL
 70
     0
  0
APPID
  5
6BE
330
9
100
AcDbSymbolTableRecord
100
AcDbRegAppTableRecord
  2
ACAD_DSTYLE_DIMARC_LENGTH_SYMBOL
 70
     0
  0
APPID
  5
3E05
330
9
100
AcDbSymbolTableRecord
100
AcDbRegAppTableRecord
  2
ACAD_EXEMPT_FROM_CAD_STANDARDS
 70
     0
  0
APPID
  5
18DAF
330
9
100
AcDbSymbolTableRecord
100
AcDbRegAppTableRecord
  2
DCO15
 70
     0
  0
APPID
  5
1D853
330
9
100
AcDbSymbolTableRecord
100
AcDbRegAppTableRecord
  2
MCAD_NO_VIS
 70
     0
  0
APPID
  5
1D854
330
9
100
AcDbSymbolTableRecord
100
AcDbRegAppTableRecord
  2
ACAD_TEMP_GRAPHIC
 70
     0
  0
APPID
  5
1D882
330
9
100
AcDbSymbolTableRecord
100
AcDbRegAppTableRecord
  2
AD_DRAW
 70
     0
  0
APPID
  5
1D885
330
9
100
AcDbSymbolTableRecord
100
AcDbRegAppTableRecord
  2
ACATTRIBSERVICES
 70
     0
  0
APPID
  5
1D89E
330
9
100
AcDbSymbolTableRecord
100
AcDbRegAppTableRecord
  2
DESIGNERASSEMBLIES
 70
     0
  0
APPID
  5
1D8A3
330
9
100
AcDbSymbolTableRecord
100
AcDbRegAppTableRecord
  2
ACADM_DIM_EDIT
 70
     0
  0
APPID
  5
1D8A4
330
9
100
AcDbSymbolTableRecord
100
AcDbRegAppTableRecord
  2
AMDT_DM_ADJ
 70
     0
  0
APPID
  5
1D8BD
330
9
100
AcDbSymbolTableRecord
100
AcDbRegAppTableRecord
  2
ACAD_DSTYLE_DIMJAG
 70
     0
  0
APPID
  5
1D8BE
330
9
100
AcDbSymbolTableRecord
100
AcDbRegAppTableRecord
  2
ACAD_DSTYLE_DIMBREAK
 70
     0
  0
APPID
  5
1DBEB
330
9
100
AcDbSymbolTableRecord
100
AcDbRegAppTableRecord
  2
AcAecLayerStandard
 70
     0
  0
APPID
  5
1DBEC
330
9
100
AcDbSymbolTableRecord
100
AcDbRegAppTableRecord
  2
GENIUS_GENODEF_13
 70
     0
  0
APPID
  5
1DBED
330
9
100
AcDbSymbolTableRecord
100
AcDbRegAppTableRecord
  2
GENIUS_GENREC_14
 70
     0
  0
APPID
  5
1DBEE
330
9
100
AcDbSymbolTableRecord
100
AcDbRegAppTableRecord
  2
GENIUS_GENOBJ-N-REC_13
 70
     0
  0
APPID
  5
1DBEF
330
9
100
AcDbSymbolTableRecord
100
AcDbRegAppTableRecord
  2
GENIUS_GENOBJ-N-CEN_13
 70
     0
  0
APPID
  5
1DBF0
330
9
100
AcDbSymbolTableRecord
100
AcDbRegAppTableRecord
  2
GENIUS_GENCEN_19
 70
     0
  0
APPID
  5
1DD4B
330
9
100
AcDbSymbolTableRecord
100
AcDbRegAppTableRecord
  2
ACAD_DSTYLE_DIMINSPECT
 70
     0
  0
APPID
  5
1DD55
330
9
100
AcDbSymbolTableRecord
100
AcDbRegAppTableRecord
  2
GENIUS_GENDTOL_13
 70
     0
  0
APPID
  5
1E949
330
9
100
AcDbSymbolTableRecord
100
AcDbRegAppTableRecord
  2
GENIUS_GENOBJ-N-FIL_13
 70
     0
  0
APPID
  5
223A3
330
9
100
AcDbSymbolTableRecord
100
AcDbRegAppTableRecord
  2
ACAD_MLEADERVER
 70
     0
  0
ENDTAB
  0
TABLE
  2
DIMSTYLE
  5
A
330
0
100
AcDbSymbolTable
 70
    13
100
AcDbDimStyleTable
 71
     2
340
1D8BC
340
27
  0
DIMSTYLE
105
27
330
A
100
AcDbSymbolTableRecord
100
AcDbDimStyleTableRecord
  2
ISO-25
 70
     0
 40
10.0
 41
0.5
 42
1.0
 43
0.5
 44
0.25
 46
0.5
 73
     0
 74
     0
 77
     1
 78
     8
140
0.5
141
0.5
143
0.03937007874016
144
10.0
147
0.5
171
     3
172
     1
271
     0
272
     0
274
     3
278
    44
283
     0
284
     8
340
11
341
335B
342
335B
1001
ACAD_DSTYLE_DIMEXT_ENABLED
1070
   383
1070
     1
1001
ACAD_DSTYLE_DIMJOGGED_JOGANGLE_SYMBOL
1070
   384
1040
1.570796326794896
  0
DIMSTYLE
105
F3
330
A
100
AcDbSymbolTableRecord
100
AcDbDimStyleTableRecord
  2
Standard
 70
     0
289
     0
340
11
  0
DIMSTYLE
105
1D8BC
102
{ACAD_REACTORS
330
21BAA
330
21D16
102
}
330
A
100
AcDbSymbolTableRecord
100
AcDbDimStyleTableRecord
  2
AM_ISO
 70
     0
  4
"
 41
3.5
 42
1.0
 43
10.0
 44
1.0
 47
0.1
 48
0.1
 73
     0
 74
     0
 77
     1
 78
     8
 79
     2
140
3.5
141
0.0
143
0.0393701
146
0.71
147
1.5
172
     1
176
   256
177
   256
178
     2
271
     2
272
     3
274
     4
283
     0
284
     8
340
11
371
    -1
372
    -1
1001
ACAD_DSTYLE_DIMJAG
1070
   388
1040
1.5
1001
ACAD_DSTYLE_DIMBREAK
1070
   391
1040
3.75
1001
ACAD_DSTYLE_DIMARC_LENGTH_SYMBOL
1070
   379
1070
     1
1001
ACAD_DSTYLE_DIM_LINETYPE
1070
   380
1005
14
1001
ACAD_DSTYLE_DIM_EXT1_LINETYPE
1070
   381
1005
14
1001
ACAD_DSTYLE_DIM_EXT2_LINETYPE
1070
   382
1005
14
  0
ENDTAB
  0
TABLE
  2
BLOCK_RECORD
  5
1
330
0
100
AcDbSymbolTable
 70
    16
  0
BLOCK_RECORD
  5
1F
102
{ACAD_XDICTIONARY
360
14BE
102
}
330
1
100
AcDbSymbolTableRecord
100
AcDbBlockTableRecord
  2
*Model_Space
340
22
  0
BLOCK_RECORD
  5
D2
330
1
100
AcDbSymbolTableRecord
100
AcDbBlockTableRecord
  2
*Paper_Space
340
D3
  0
BLOCK_RECORD
  5
D6
330
1
100
AcDbSymbolTableRecord
100
AcDbBlockTableRecord
  2
*Paper_Space0
340
D7
  0
BLOCK_RECORD
  5
335B
330
1
100
AcDbSymbolTableRecord
100
AcDbBlockTableRecord
  2
_Oblique
340
0
  0
BLOCK_RECORD
  5
21BAB
330
1
100
AcDbSymbolTableRecord
100
AcDbBlockTableRecord
  2
*D13
340
0
  0
BLOCK_RECORD
  5
21D17
330
1
100
AcDbSymbolTableRecord
100
AcDbBlockTableRecord
  2
*D14
340
0
  0
BLOCK_RECORD
  5
224FF
330
1
100
AcDbSymbolTableRecord
100
AcDbBlockTableRecord
  2
25200-25209_Klucznik-V
340
0
310
2800000020000000200000000100080000000000000400000000000000000000000000000000000000000000000080000080000000808000800000008000800080800000C0C0C000C0DCC000F0CAA6000020400000206000002080000020A0000020C0000020E00000400000004020000040400000406000004080000040A0
310
000040C0000040E00000600000006020000060400000606000006080000060A0000060C0000060E00000800000008020000080400000806000008080000080A0000080C0000080E00000A0000000A0200000A0400000A0600000A0800000A0A00000A0C00000A0E00000C0000000C0200000C0400000C0600000C0800000C0
310
A00000C0C00000C0E00000E0000000E0200000E0400000E0600000E0800000E0A00000E0C00000E0E00040000000400020004000400040006000400080004000A0004000C0004000E00040200000402020004020400040206000402080004020A0004020C0004020E000404000004040200040404000404060004040800040
310
40A0004040C0004040E00040600000406020004060400040606000406080004060A0004060C0004060E00040800000408020004080400040806000408080004080A0004080C0004080E00040A0000040A0200040A0400040A0600040A0800040A0A00040A0C00040A0E00040C0000040C0200040C0400040C0600040C08000
310
40C0A00040C0C00040C0E00040E0000040E0200040E0400040E0600040E0800040E0A00040E0C00040E0E00080000000800020008000400080006000800080008000A0008000C0008000E00080200000802020008020400080206000802080008020A0008020C0008020E00080400000804020008040400080406000804080
310
008040A0008040C0008040E00080600000806020008060400080606000806080008060A0008060C0008060E00080800000808020008080400080806000808080008080A0008080C0008080E00080A0000080A0200080A0400080A0600080A0800080A0A00080A0C00080A0E00080C0000080C0200080C0400080C0600080C0
310
800080C0A00080C0C00080C0E00080E0000080E0200080E0400080E0600080E0800080E0A00080E0C00080E0E000C0000000C0002000C0004000C0006000C0008000C000A000C000C000C000E000C0200000C0202000C0204000C0206000C0208000C020A000C020C000C020E000C0400000C0402000C0404000C0406000C0
310
408000C040A000C040C000C040E000C0600000C0602000C0604000C0606000C0608000C060A000C060C000C060E000C0800000C0802000C0804000C0806000C0808000C080A000C080C000C080E000C0A00000C0A02000C0A04000C0A06000C0A08000C0A0A000C0A0C000C0A0E000C0C00000C0C02000C0C04000C0C06000
310
C0C08000C0C0A000F0FBFF00A4A0A000808080000000FF0000FF000000FFFF00FF000000FF00FF00FFFF0000FFFFFF0049494949494949494949494949494949494949494949494949494949494949494949494949494949494949494949494949494949494949494949494949494949494949494949494949494949494949
310
49494949494949494949494949494949494949494949494949494949494949494949494949494949494949494949494949494949494949494949494949494949494949494949494949494949494949494949494949494949494949494949494949494949494949494949494949494949494949494949494949494949494949
310
494949494949494949494949494949494949494949494949494949494949494949494949494949494949494949494949494949FFFFFFFFFFFFFFFFFFFFFFFFFFFFFFFFFFFFFFFFFFFFFFFFFFFFFFFFFFFF4949FFFFFFFFFFFFFFFFFFFFFFFFFFFFFFFFFFFFFFFFFFFFFFFFFFFFFFFFFFFF4949494949494949494949494949
310
FFFFFFFFFFFF49494949494949494949494949494949494949494949494949494949FFFF494949494949494949494949494949494949494949494949494949494949FFFF49494949494949494949494949494949494949494949494949494949FFFFFFFFFFFF49494949494949494949494949494949494949494949494949
310
49FFFF4949FFFF4949494949494949494949494949494949494949494949494949FFFF4949FFFF4949494949494949494949494949494949494949494949494949FFFF4949FFFF4949494949494949494949494949494949494949494949494949FFFFFFFFFFFF494949494949494949494949494949494949494949494949
310
49494949FFFF494949494949494949494949494949494949494949494949494949494949FFFF4949494949FFFF49494949494949494949FFFFFFFFFFFFFFFFFFFFFFFFFFFFFFFFFFFFFFFFFFFFFFFFFFFFFFFF494949FFFF4949FF494949494949494949FFFF494949494949494949FF4949FFFF494949FFFFFFFFFFFFFFFF
310
FFFFFFFFFFFFFFFFFFFFFFFFFFFFFFFFFFFFFFFF494949494949494949494949494949494949494949494949FFFF494949494949494949494949494949494949494949494949494949494949494949494949494949494949494949494949494949494949494949494949494949494949494949494949494949494949494949
310
49494949494949494949494949494949494949494949494949494949494949494949494949494949494949494949494949494949494949494949494949494949494949494949494949494949494949494949494949494949494949494949494949494949494949494949494949494949494949494949494949494949494949
310
4949494949494949494949494949494949494949494949494949494949494949494949494949494949494949494949494949494949494949
102
{BLKREFS
331
2256D
102
}
1001
ACAD
1000
DesignCenter Data
1002
{
1070
     1
1070
     4
1002
}
  0
ENDTAB
  0
ENDSEC
  0
SECTION
  2
BLOCKS
  0
BLOCK
  5
20
330
1F
100
AcDbEntity
  8
0
100
AcDbBlockBegin
  2
*Model_Space
 70
     0
 10
0.0
 20
0.0
 30
0.0
  3
*Model_Space
  1

  0
ENDBLK
  5
21
330
1F
100
AcDbEntity
  8
0
100
AcDbBlockEnd
  0
BLOCK
  5
D4
330
D2
100
AcDbEntity
 67
     1
  8
0
100
AcDbBlockBegin
  2
*Paper_Space
 70
     0
 10
0.0
 20
0.0
 30
0.0
  3
*Paper_Space
  1

  0
ENDBLK
  5
D5
330
D2
100
AcDbEntity
 67
     1
  8
0
100
AcDbBlockEnd
  0
BLOCK
  5
D8
330
D6
100
AcDbEntity
 67
     1
  8
0
100
AcDbBlockBegin
  2
*Paper_Space0
 70
     0
 10
0.0
 20
0.0
 30
0.0
  3
*Paper_Space0
  1

  0
ENDBLK
  5
D9
330
D6
100
AcDbEntity
 67
     1
  8
0
100
AcDbBlockEnd
  0
BLOCK
  5
335D
330
335B
100
AcDbEntity
  8
0
100
AcDbBlockBegin
  2
_Oblique
 70
     0
 10
0.0
 20
0.0
 30
0.0
  3
_Oblique
  1

  0
LINE
  5
335C
330
335B
100
AcDbEntity
  8
0
  6
ByBlock
 62
     0
370
    -2
100
AcDbLine
 10
-0.5
 20
-0.5
 30
0.0
 11
0.5
 21
0.5
 31
0.0
  0
ENDBLK
  5
335E
330
335B
100
AcDbEntity
  8
0
100
AcDbBlockEnd
  0
BLOCK
  5
21BAC
330
21BAB
100
AcDbEntity
  8
0
100
AcDbBlockBegin
  2
*D13
 70
     1
 10
0.0
 20
0.0
 30
0.0
  3
*D13
  1

  0
LINE
  5
224DA
330
21BAB
100
AcDbEntity
  8
Wymiar (ISO)
  6
ByBlock
100
AcDbLine
 10
1258.039685584095
 20
-1234.973591333325
 30
0.0
 11
1258.039685584095
 21
-1250.69079196446
 31
0.0
  0
LINE
  5
224DB
330
21BAB
100
AcDbEntity
  8
Wymiar (ISO)
  6
ByBlock
100
AcDbLine
 10
1321.839685584095
 20
-1234.973591333325
 30
0.0
 11
1321.839685584095
 21
-1250.69079196446
 31
0.0
  0
LINE
  5
224DC
330
21BAB
100
AcDbEntity
  8
Wymiar (ISO)
  6
ByBlock
100
AcDbLine
 10
1261.539685584095
 20
-1249.69079196446
 30
0.0
 11
1318.339685584095
 21
-1249.69079196446
 31
0.0
  0
SOLID
  5
224DD
330
21BAB
100
AcDbEntity
  8
Wymiar (ISO)
100
AcDbTrace
 10
1261.539685584095
 20
-1249.107458631127
 30
0.0
 11
1261.539685584095
 21
-1250.274125297793
 31
0.0
 12
1258.039685584095
 22
-1249.69079196446
 32
0.0
 13
1258.039685584095
 23
-1249.69079196446
 33
0.0
  0
SOLID
  5
224DE
330
21BAB
100
AcDbEntity
  8
Wymiar (ISO)
100
AcDbTrace
 10
1318.339685584095
 20
-1249.107458631127
 30
0.0
 11
1318.339685584095
 21
-1250.274125297793
 31
0.0
 12
1321.839685584095
 22
-1249.69079196446
 32
0.0
 13
1321.839685584095
 23
-1249.69079196446
 33
0.0
  0
MTEXT
  5
224DF
330
21BAB
100
AcDbEntity
  8
Wymiar (ISO)
100
AcDbMText
 10
1289.022251897642
 20
-1246.44079196446
 30
0.0
 40
3.5
 41
0.0
 71
     5
 72
     1
  1
640
 73
     1
 44
1.0
1001
ACAD
1000
MTEXTBEGIN
1070
    73
1070
     1
1070
    44
1040
1.0
1070
    74
1070
     0
1000
MTEXTEND
  0
POINT
  5
224E0
330
21BAB
100
AcDbEntity
  8
Defpoints
 62
     0
100
AcDbPoint
 10
1258.039685584095
 20
-1233.973591333325
 30
0.0
  0
POINT
  5
224E1
330
21BAB
100
AcDbEntity
  8
Defpoints
 62
     0
100
AcDbPoint
 10
1321.839685584095
 20
-1233.973591333325
 30
0.0
  0
POINT
  5
224E2
330
21BAB
100
AcDbEntity
  8
Defpoints
 62
     0
100
AcDbPoint
 10
1321.839685584095
 20
-1249.69079196446
 30
0.0
  0
ENDBLK
  5
21BAD
330
21BAB
100
AcDbEntity
  8
0
100
AcDbBlockEnd
  0
BLOCK
  5
21D18
330
21D17
100
AcDbEntity
  8
0
100
AcDbBlockBegin
  2
*D14
 70
     1
 10
0.0
 20
0.0
 30
0.0
  3
*D14
  1

  0
LINE
  5
224E3
330
21D17
100
AcDbEntity
  8
Wymiar (ISO)
  6
ByBlock
100
AcDbLine
 10
1292.639685584095
 20
-1236.373591333325
 30
0.0
 11
1335.178541894592
 21
-1236.373591333325
 31
0.0
  0
LINE
  5
224E4
330
21D17
100
AcDbEntity
  8
Wymiar (ISO)
  6
ByBlock
100
AcDbLine
 10
1289.239685584094
 20
-1203.373591333325
 30
0.0
 11
1335.178541894592
 21
-1203.373591333325
 31
0.0
  0
LINE
  5
224E5
330
21D17
100
AcDbEntity
  8
Wymiar (ISO)
  6
ByBlock
100
AcDbLine
 10
1334.178541894593
 20
-1232.873591333325
 30
0.0
 11
1334.178541894593
 21
-1206.873591333325
 31
0.0
  0
SOLID
  5
224E6
330
21D17
100
AcDbEntity
  8
Wymiar (ISO)
100
AcDbTrace
 10
1333.595208561259
 20
-1232.873591333325
 30
0.0
 11
1334.761875227926
 21
-1232.873591333325
 31
0.0
 12
1334.178541894593
 22
-1236.373591333325
 32
0.0
 13
1334.178541894593
 23
-1236.373591333325
 33
0.0
  0
SOLID
  5
224E7
330
21D17
100
AcDbEntity
  8
Wymiar (ISO)
100
AcDbTrace
 10
1333.595208561259
 20
-1206.873591333325
 30
0.0
 11
1334.761875227926
 21
-1206.873591333325
 31
0.0
 12
1334.178541894593
 22
-1203.373591333325
 32
0.0
 13
1334.178541894593
 23
-1203.373591333325
 33
0.0
  0
MTEXT
  5
224E8
330
21D17
100
AcDbEntity
  8
Wymiar (ISO)
100
AcDbMText
 10
1330.928541894593
 20
-1220.196689939468
 30
0.0
 40
3.5
 41
0.0
 71
     5
 72
     1
  1
400
 11
0.0000000000000001
 21
1.0
 31
0.0
 73
     1
 44
1.0
1001
ACAD
1000
MTEXTBEGIN
1070
    73
1070
     1
1070
    44
1040
1.0
1070
    74
1070
     0
1000
MTEXTEND
  0
POINT
  5
224E9
330
21D17
100
AcDbEntity
  8
Defpoints
 62
     0
100
AcDbPoint
 10
1291.639685584095
 20
-1236.373591333325
 30
0.0
  0
POINT
  5
224EA
330
21D17
100
AcDbEntity
  8
Defpoints
 62
     0
100
AcDbPoint
 10
1288.239685584094
 20
-1203.373591333325
 30
0.0
  0
POINT
  5
224EB
330
21D17
100
AcDbEntity
  8
Defpoints
 62
     0
100
AcDbPoint
 10
1334.178541894593
 20
-1203.373591333325
 30
0.0
  0
ENDBLK
  5
21D19
330
21D17
100
AcDbEntity
  8
0
100
AcDbBlockEnd
  0
BLOCK
  5
22500
330
224FF
100
AcDbEntity
  8
0
100
AcDbBlockBegin
  2
25200-25209_Klucznik-V
 70
     0
 10
0.0
 20
0.0
 30
0.0
  3
25200-25209_Klucznik-V
  1

  0
ARC
  5
22502
330
224FF
100
AcDbEntity
  8
Widoczne (ISO)
100
AcDbCircle
 10
4.398037729876477
 20
4.980425338289251
 30
0.0
 40
0.4000000000000023
100
AcDbArc
 50
0.0
 51
90.0
  0
LINE
  5
22503
330
224FF
100
AcDbEntity
  8
Widoczne (ISO)
100
AcDbLine
 10
4.798037729877705
 20
4.980425338289251
 30
0.0
 11
4.798037729877705
 21
4.880425338289114
 31
0.0
  0
LINE
  5
22504
330
224FF
100
AcDbEntity
  8
Widoczne (ISO)
100
AcDbLine
 10
4.798037729877705
 20
-4.119574661710885
 30
0.0
 11
4.798037729877705
 21
-4.219574661710794
 31
0.0
  0
ARC
  5
22505
330
224FF
100
AcDbEntity
  8
Widoczne (ISO)
100
AcDbCircle
 10
4.398037729876477
 20
-4.219574661710794
 30
0.0
 40
0.4000000000000031
100
AcDbArc
 50
270.0
 51
0.0
  0
LINE
  5
22506
330
224FF
100
AcDbEntity
  8
Widoczne (ISO)
100
AcDbLine
 10
4.398037729876477
 20
-4.619574661710885
 30
0.0
 11
4.298037729877705
 21
-4.619574661710885
 31
0.0
  0
LINE
  5
22507
330
224FF
100
AcDbEntity
  8
Widoczne (ISO)
100
AcDbLine
 10
-4.701962270122294
 20
-4.619574661710885
 30
0.0
 11
-4.80196227012243
 21
-4.619574661710885
 31
0.0
  0
ARC
  5
22508
330
224FF
100
AcDbEntity
  8
Widoczne (ISO)
100
AcDbCircle
 10
-4.80196227012243
 20
-4.219574661710794
 30
0.0
 40
0.4000000000000031
100
AcDbArc
 50
180.0
 51
270.0
  0
LINE
  5
22509
330
224FF
100
AcDbEntity
  8
Widoczne (ISO)
100
AcDbLine
 10
-5.201962270122294
 20
-4.219574661710794
 30
0.0
 11
-5.201962270122294
 21
-4.119574661710885
 31
0.0
  0
LINE
  5
2250A
330
224FF
100
AcDbEntity
  8
Widoczne (ISO)
100
AcDbLine
 10
-5.201962270122294
 20
4.880425338289114
 30
0.0
 11
-5.201962270122294
 21
4.980425338289251
 31
0.0
  0
ARC
  5
2250B
330
224FF
100
AcDbEntity
  8
Widoczne (ISO)
100
AcDbCircle
 10
-4.80196227012243
 20
4.980425338289251
 30
0.0
 40
0.4000000000000023
100
AcDbArc
 50
90.0
 51
180.0
  0
LINE
  5
2250C
330
224FF
100
AcDbEntity
  8
Widoczne (ISO)
100
AcDbLine
 10
-4.80196227012243
 20
5.380425338290251
 30
0.0
 11
-4.701962270122294
 21
5.380425338290251
 31
0.0
  0
LINE
  5
2250D
330
224FF
100
AcDbEntity
  8
Widoczne (ISO)
100
AcDbLine
 10
4.298037729877705
 20
5.380425338290251
 30
0.0
 11
4.398037729876477
 21
5.380425338290251
 31
0.0
  0
ELLIPSE
  5
2250E
330
224FF
100
AcDbEntity
  8
Widoczne (ISO)
100
AcDbEllipse
 10
-0.2019622701222943
 20
-13.71957466171079
 30
0.0
 11
-1.812062206421634
 21
1.812062206421624
 31
0.0
210
0.0
220
0.0
230
1.0
 40
0.3152987888789831
 41
0.3054326190990366
 42
1.265363707695887
  0
ELLIPSE
  5
2250F
330
224FF
100
AcDbEntity
  8
Widoczne (ISO)
100
AcDbEllipse
 10
-0.2019622701222943
 20
-13.71957466171079
 30
0.0
 11
-1.812062206421633
 21
-1.812062206421625
 31
0.0
210
0.0
220
0.0
230
1.0
 40
0.3152987888789833
 41
5.017821599483689
 42
5.977752688080546
  0
ELLIPSE
  5
22510
330
224FF
100
AcDbEntity
  8
Widoczne wąskie (ISO)
100
AcDbEllipse
 10
-27.3022820373094
 20
-13.71957466171079
 30
0.0
 11
-0.0000000000000034
 21
-1.900000000000002
 31
0.0
210
0.0
220
0.0
230
1.0
 40
0.5735764363510433
 41
3.141592653589802
 42
6.283185307179596
  0
ELLIPSE
  5
22511
330
224FF
100
AcDbEntity
  8
Widoczne wąskie (ISO)
100
AcDbEllipse
 10
26.89835749706458
 20
-13.71957466171079
 30
0.0
 11
0.0000000000000034
 21
1.900000000000002
 31
0.0
210
0.0
220
0.0
230
1.0
 40
0.5735764363510504
 41
3.141592653589809
 42
6.283185307179602
  0
LINE
  5
22512
330
224FF
100
AcDbEntity
  8
Widoczne (ISO)
100
AcDbLine
 10
-27.3022820373094
 20
-11.81957466170979
 30
0.0
 11
-2.101962270123522
 21
-11.81957466170979
 31
0.0
  0
LINE
  5
22513
330
224FF
100
AcDbEntity
  8
Widoczne (ISO)
100
AcDbLine
 10
-27.3022820373094
 20
-15.61957466171088
 30
0.0
 11
-2.101962270123522
 21
-15.61957466171088
 31
0.0
  0
ARC
  5
22514
330
224FF
100
AcDbEntity
  8
Widoczne (ISO)
100
AcDbCircle
 10
-30.2019622701223
 20
-13.71957466171079
 30
0.0
 40
1.900000000000003
100
AcDbArc
 50
90.0
 51
270.0
  0
LINE
  5
22515
330
224FF
100
AcDbEntity
  8
Widoczne (ISO)
100
AcDbLine
 10
-27.3022820373094
 20
-11.81957466170979
 30
0.0
 11
-30.2019622701223
 21
-11.81957466170979
 31
0.0
  0
LINE
  5
22516
330
224FF
100
AcDbEntity
  8
Widoczne (ISO)
100
AcDbLine
 10
-30.2019622701223
 20
-15.61957466171088
 30
0.0
 11
-27.3022820373094
 21
-15.61957466171088
 31
0.0
  0
LINE
  5
22517
330
224FF
100
AcDbEntity
  8
Widoczne (ISO)
100
AcDbLine
 10
26.89835749706458
 20
-15.61957466171088
 30
0.0
 11
1.698037729877569
 21
-15.61957466171088
 31
0.0
  0
LINE
  5
22518
330
224FF
100
AcDbEntity
  8
Widoczne (ISO)
100
AcDbLine
 10
26.89835749706458
 20
-11.81957466170979
 30
0.0
 11
1.698037729877569
 21
-11.81957466170979
 31
0.0
  0
ARC
  5
22519
330
224FF
100
AcDbEntity
  8
Widoczne (ISO)
100
AcDbCircle
 10
29.79803772987771
 20
-13.71957466171079
 30
0.0
 40
1.900000000000003
100
AcDbArc
 50
270.0
 51
90.0
  0
LINE
  5
2251A
330
224FF
100
AcDbEntity
  8
Widoczne (ISO)
100
AcDbLine
 10
26.89835749706458
 20
-15.61957466171088
 30
0.0
 11
29.79803772987771
 21
-15.61957466171088
 31
0.0
  0
LINE
  5
2251B
330
224FF
100
AcDbEntity
  8
Widoczne (ISO)
100
AcDbLine
 10
29.79803772987771
 20
-11.81957466170979
 30
0.0
 11
26.89835749706458
 21
-11.81957466170979
 31
0.0
  0
ARC
  5
2251C
330
224FF
100
AcDbEntity
  8
Widoczne (ISO)
100
AcDbCircle
 10
-4.701962270122294
 20
-4.119574661710885
 30
0.0
 40
0.5000000000000028
100
AcDbArc
 50
180.0
 51
270.0
  0
LINE
  5
2251D
330
224FF
100
AcDbEntity
  8
Widoczne wąskie (ISO)
100
AcDbLine
 10
-4.401962270123476
 20
-3.819574661709793
 30
0.0
 11
-4.701962270122294
 21
-4.619574661710885
 31
0.0
  0
LINE
  5
2251E
330
224FF
100
AcDbEntity
  8
Widoczne wąskie (ISO)
100
AcDbLine
 10
-5.201962270122294
 20
-4.119574661710885
 30
0.0
 11
-4.401962270123476
 21
-3.819574661709793
 31
0.0
  0
ARC
  5
2251F
330
224FF
100
AcDbEntity
  8
Widoczne (ISO)
100
AcDbCircle
 10
-4.701962270122294
 20
4.880425338289114
 30
0.0
 40
0.4999999999999984
100
AcDbArc
 50
90.0
 51
180.0
  0
LINE
  5
22520
330
224FF
100
AcDbEntity
  8
Widoczne wąskie (ISO)
100
AcDbLine
 10
-4.401962270123476
 20
4.58042533828916
 30
0.0
 11
-5.201962270122294
 21
4.880425338289114
 31
0.0
  0
LINE
  5
22521
330
224FF
100
AcDbEntity
  8
Widoczne wąskie (ISO)
100
AcDbLine
 10
-4.701962270122294
 20
5.380425338290251
 30
0.0
 11
-4.401962270123476
 21
4.58042533828916
 31
0.0
  0
LINE
  5
22522
330
224FF
100
AcDbEntity
  8
Widoczne wąskie (ISO)
100
AcDbLine
 10
-4.401962270123476
 20
-3.819574661709793
 30
0.0
 11
-4.401962270123476
 21
4.58042533828916
 31
0.0
  0
LINE
  5
22523
330
224FF
100
AcDbEntity
  8
Widoczne (ISO)
100
AcDbLine
 10
-5.201962270122294
 20
4.880425338289114
 30
0.0
 11
-5.201962270122294
 21
-4.119574661710885
 31
0.0
  0
ARC
  5
22524
330
224FF
100
AcDbEntity
  8
Widoczne (ISO)
100
AcDbCircle
 10
4.298037729877705
 20
-4.119574661710885
 30
0.0
 40
0.5000000000000001
100
AcDbArc
 50
270.0
 51
0.0
  0
LINE
  5
22525
330
224FF
100
AcDbEntity
  8
Widoczne wąskie (ISO)
100
AcDbLine
 10
3.998037729877751
 20
-3.819574661709793
 30
0.0
 11
4.798037729877705
 21
-4.119574661710885
 31
0.0
  0
LINE
  5
22526
330
224FF
100
AcDbEntity
  8
Widoczne wąskie (ISO)
100
AcDbLine
 10
4.298037729877705
 20
-4.619574661710885
 30
0.0
 11
3.998037729877751
 21
-3.819574661709793
 31
0.0
  0
ARC
  5
22527
330
224FF
100
AcDbEntity
  8
Widoczne (ISO)
100
AcDbCircle
 10
4.298037729877705
 20
4.880425338289114
 30
0.0
 40
0.5000000000000001
100
AcDbArc
 50
0.0
 51
90.0
  0
LINE
  5
22528
330
224FF
100
AcDbEntity
  8
Widoczne wąskie (ISO)
100
AcDbLine
 10
3.998037729877751
 20
4.580425338290297
 30
0.0
 11
4.298037729877705
 21
5.380425338290251
 31
0.0
  0
LINE
  5
22529
330
224FF
100
AcDbEntity
  8
Widoczne wąskie (ISO)
100
AcDbLine
 10
4.798037729877705
 20
4.880425338289114
 30
0.0
 11
3.998037729877751
 21
4.580425338290297
 31
0.0
  0
LINE
  5
2252A
330
224FF
100
AcDbEntity
  8
Widoczne wąskie (ISO)
100
AcDbLine
 10
-4.401962270123476
 20
4.58042533828916
 30
0.0
 11
3.998037729877751
 21
4.580425338290297
 31
0.0
  0
LINE
  5
2252B
330
224FF
100
AcDbEntity
  8
Widoczne (ISO)
100
AcDbLine
 10
4.298037729877705
 20
5.380425338290251
 30
0.0
 11
-4.701962270122294
 21
5.380425338290251
 31
0.0
  0
LINE
  5
2252C
330
224FF
100
AcDbEntity
  8
Widoczne (ISO)
100
AcDbLine
 10
4.798037729877705
 20
-4.119574661710885
 30
0.0
 11
4.798037729877705
 21
4.880425338289114
 31
0.0
  0
LINE
  5
2252D
330
224FF
100
AcDbEntity
  8
Widoczne wąskie (ISO)
100
AcDbLine
 10
3.998037729877751
 20
4.580425338290297
 30
0.0
 11
3.998037729877751
 21
-3.819574661709793
 31
0.0
  0
LINE
  5
2252E
330
224FF
100
AcDbEntity
  8
Widoczne (ISO)
100
AcDbLine
 10
-4.701962270122294
 20
-4.619574661710885
 30
0.0
 11
4.298037729877705
 21
-4.619574661710885
 31
0.0
  0
LINE
  5
2252F
330
224FF
100
AcDbEntity
  8
Widoczne wąskie (ISO)
100
AcDbLine
 10
3.998037729877751
 20
-3.819574661709793
 30
0.0
 11
-4.401962270123476
 21
-3.819574661709793
 31
0.0
  0
LINE
  5
22530
330
224FF
100
AcDbEntity
  8
Widoczne (ISO)
100
AcDbLine
 10
1.698037729877569
 20
12.58042533828916
 30
0.0
 11
-0.2019622701222943
 21
14.48042533829016
 31
0.0
  0
LINE
  5
22531
330
224FF
100
AcDbEntity
  8
Widoczne (ISO)
100
AcDbLine
 10
-0.2019622701222943
 20
14.48042533829016
 30
0.0
 11
1.698037729877569
 21
16.38042533829025
 31
0.0
  0
LINE
  5
22532
330
224FF
100
AcDbEntity
  8
Widoczne wąskie (ISO)
100
AcDbLine
 10
22.99803772987775
 20
12.58042533828916
 30
0.0
 11
22.99803772987775
 21
16.38042533829025
 31
0.0
  0
ARC
  5
22533
330
224FF
100
AcDbEntity
  8
Widoczne (ISO)
100
AcDbCircle
 10
29.79803772987771
 20
14.48042533829016
 30
0.0
 40
1.9
100
AcDbArc
 50
270.0
 51
90.0
  0
LINE
  5
22534
330
224FF
100
AcDbEntity
  8
Widoczne wąskie (ISO)
100
AcDbLine
 10
-23.40196227012348
 20
16.38042533828911
 30
0.0
 11
-23.40196227012348
 21
12.58042533828916
 31
0.0
  0
ARC
  5
22535
330
224FF
100
AcDbEntity
  8
Widoczne (ISO)
100
AcDbCircle
 10
-30.2019622701223
 20
14.48042533829016
 30
0.0
 40
1.9
100
AcDbArc
 50
90.0
 51
270.0
  0
LINE
  5
22536
330
224FF
100
AcDbEntity
  8
Widoczne (ISO)
100
AcDbLine
 10
22.99803772987775
 20
12.58042533828916
 30
0.0
 11
1.698037729877569
 21
12.58042533828916
 31
0.0
  0
LINE
  5
22537
330
224FF
100
AcDbEntity
  8
Widoczne (ISO)
100
AcDbLine
 10
22.99803772987775
 20
16.38042533829025
 30
0.0
 11
1.698037729877569
 21
16.38042533829025
 31
0.0
  0
LINE
  5
22538
330
224FF
100
AcDbEntity
  8
Widoczne (ISO)
100
AcDbLine
 10
22.99803772987775
 20
12.58042533828916
 30
0.0
 11
29.79803772987771
 21
12.58042533828916
 31
0.0
  0
LINE
  5
22539
330
224FF
100
AcDbEntity
  8
Widoczne (ISO)
100
AcDbLine
 10
29.79803772987771
 20
16.38042533829025
 30
0.0
 11
22.99803772987775
 21
16.38042533829025
 31
0.0
  0
LINE
  5
2253A
330
224FF
100
AcDbEntity
  8
Widoczne (ISO)
100
AcDbLine
 10
-23.40196227012348
 20
16.38042533828911
 30
0.0
 11
-2.101962270123522
 21
16.38042533828911
 31
0.0
  0
LINE
  5
2253B
330
224FF
100
AcDbEntity
  8
Widoczne (ISO)
100
AcDbLine
 10
-23.40196227012348
 20
12.58042533828916
 30
0.0
 11
-2.101962270123522
 21
12.58042533828916
 31
0.0
  0
LINE
  5
2253C
330
224FF
100
AcDbEntity
  8
Widoczne (ISO)
100
AcDbLine
 10
-23.40196227012348
 20
16.38042533828911
 30
0.0
 11
-30.2019622701223
 21
16.38042533828911
 31
0.0
  0
LINE
  5
2253D
330
224FF
100
AcDbEntity
  8
Widoczne (ISO)
100
AcDbLine
 10
-30.2019622701223
 20
12.58042533828916
 30
0.0
 11
-23.40196227012348
 21
12.58042533828916
 31
0.0
  0
SPLINE
  5
2253E
330
224FF
100
AcDbEntity
  8
Widoczne (ISO)
100
AcDbSpline
210
0.0
220
0.0
230
1.0
 70
     8
 71
     3
 72
    28
 73
    24
 74
     0
 42
0.0000000001
 43
0.0000000001
 40
0.0497791839403412
 40
0.0497791839403412
 40
0.0497791839403412
 40
0.0497791839403412
 40
0.0876794897665885
 40
0.0876794897665885
 40
0.3048777522723189
 40
0.3048777522723189
 40
0.3832401693043033
 40
0.3832401693043033
 40
0.462590174487504
 40
0.462590174487504
 40
0.54193054422364
 40
0.54193054422364
 40
0.6202716180696049
 40
0.6202716180696049
 40
0.6996137459491542
 40
0.6996137459491542
 40
0.779980260783405
 40
0.779980260783405
 40
0.8603442450396855
 40
0.8603442450396855
 40
0.9396798789938396
 40
0.9396798789938396
 40
1.175561219519791
 40
1.175561219519791
 40
1.175561219519791
 40
1.175561219519791
 10
-5.202727727566298
 20
-10.72544567045474
 30
0.0
 10
-5.202727727566298
 20
-10.72544567045474
 30
0.0
 10
-5.199493729732239
 20
-10.72535647998188
 30
0.0
 10
-5.167351516677399
 20
-10.72473432063475
 30
0.0
 10
-5.090898162350185
 20
-10.72397860632372
 30
0.0
 10
-4.938767990582391
 20
-10.72308062230581
 30
0.0
 10
-4.8934963279994
 20
-10.72284485683894
 30
0.0
 10
-4.792798534078428
 20
-10.72237727045558
 30
0.0
 10
-4.73725030947935
 20
-10.72214551720981
 30
0.0
 10
-4.616776533548318
 20
-10.72169080345088
 30
0.0
 10
-4.55185175090628
 20
-10.72146783656285
 30
0.0
 10
-4.413919096027257
 20
-10.72103493019267
 30
0.0
 10
-4.341023299007474
 20
-10.72082486035492
 30
0.0
 10
-4.185970950408318
 20
-10.72041348140396
 30
0.0
 10
-4.103707938705383
 20
-10.72021231820099
 30
0.0
 10
-3.930102688349279
 20
-10.71982044178389
 30
0.0
 10
-3.83865696642124
 20
-10.71962989706685
 30
0.0
 10
-3.64819015906346
 20
-10.71926336378169
 30
0.0
 10
-3.549169423373314
 20
-10.71908737485091
 30
0.0
 10
-3.345503574355234
 20
-10.71875324600887
 30
0.0
 10
-3.240946815383267
 20
-10.71859490655379
 30
0.0
 10
-2.81340353811629
 20
-10.71799817573787
 30
0.0
 10
-2.466414441740425
 20
-10.71762400834177
 30
0.0
 10
-2.101962270123522
 20
-10.71733258423683
 30
0.0
  0
SPLINE
  5
2253F
330
224FF
100
AcDbEntity
  8
Widoczne (ISO)
100
AcDbSpline
210
0.0
220
0.0
230
1.0
 70
     8
 71
     3
 72
    28
 73
    24
 74
     0
 42
0.0000000001
 43
0.0000000001
 40
1.955375293724318
 40
1.955375293724318
 40
1.955375293724318
 40
1.955375293724318
 40
2.219232416814243
 40
2.219232416814243
 40
2.298661950964975
 40
2.298661950964975
 40
2.379124089252107
 40
2.379124089252107
 40
2.459589146001818
 40
2.459589146001818
 40
2.539026087379959
 40
2.539026087379959
 40
2.618315347417314
 40
2.618315347417314
 40
2.698645159195931
 40
2.698645159195931
 40
2.77898806798744
 40
2.77898806798744
 40
2.858304983905988
 40
2.858304983905988
 40
3.014695831210246
 40
3.014695831210246
 40
3.068624094911794
 40
3.068624094911794
 40
3.068624094911794
 40
3.068624094911794
 10
1.698037729877569
 20
-10.71729358990888
 30
0.0
 10
2.103618141115703
 20
-10.71761123081978
 30
0.0
 10
2.486636754858636
 20
-10.7180329737248
 30
0.0
 10
2.93840376604453
 20
-10.7186981185298
 30
0.0
 10
3.039705071024627
 20
-10.71886008338288
 30
0.0
 10
3.236480835939573
 20
-10.71920131438992
 30
0.0
 10
3.331862255954547
 20
-10.71938077807772
 30
0.0
 10
3.514724235379617
 20
-10.71975402844373
 30
0.0
 10
3.602204409829482
 20
-10.71994781560988
 30
0.0
 10
3.76762510123649
 20
-10.72034586761879
 30
0.0
 10
3.845673224533811
 20
-10.72054996706083
 30
0.0
 10
3.992871668619727
 20
-10.72096914899566
 30
0.0
 10
4.06203828980665
 20
-10.72118421123287
 30
0.0
 10
4.192043037385474
 20
-10.72162711451074
 30
0.0
 10
4.252760107946642
 20
-10.72185508950588
 30
0.0
 10
4.364368256158513
 20
-10.72231956193582
 30
0.0
 10
4.415258510822695
 20
-10.72255607219495
 30
0.0
 10
4.506235843001604
 20
-10.72303249131687
 30
0.0
 10
4.546455416229491
 20
-10.72327236623277
 30
0.0
 10
4.650620287658739
 20
-10.7239900849338
 30
0.0
 10
4.700452251905744
 20
-10.72449587604364
 30
0.0
 10
4.734662395179611
 20
-10.72506393560979
 30
0.0
 10
4.740858127203637
 20
-10.7252236401689
 30
0.0
 10
4.740858127203637
 20
-10.7252236401689
 30
0.0
  0
SPLINE
  5
22540
330
224FF
100
AcDbEntity
  8
Widoczne (ISO)
100
AcDbSpline
210
0.0
220
0.0
230
1.0
 70
     8
 71
     3
 72
    42
 73
    38
 74
     0
 42
0.0000000001
 43
0.0000000001
 40
0.0
 40
0.0
 40
0.0
 40
0.0
 40
0.0043314266146105
 40
0.0043314266146105
 40
0.0096458647864641
 40
0.0096458647864641
 40
0.0184538991707025
 40
0.0184538991707025
 40
0.040204230122183
 40
0.040204230122183
 40
0.1809865651864008
 40
0.1809865651864008
 40
0.2658627979497133
 40
0.2658627979497133
 40
0.3519917168439441
 40
0.3519917168439441
 40
0.4381481538109914
 40
0.4381481538109914
 40
0.5230770532447956
 40
0.5230770532447956
 40
0.6027973852061109
 40
0.6027973852061109
 40
0.6835582408661334
 40
0.6835582408661334
 40
0.7643227060335299
 40
0.7643227060335299
 40
0.8440520426934041
 40
0.8440520426934041
 40
0.9235957013839843
 40
0.9235957013839843
 40
1.004172625241482
 40
1.004172625241482
 40
1.084750812705105
 40
1.084750812705105
 40
1.164297838609386
 40
1.164297838609386
 40
1.17576810403945
 40
1.17576810403945
 40
1.17576810403945
 40
1.17576810403945
 10
-5.328925689013431
 20
-9.534329055327816
 30
0.0
 10
-5.316928835341286
 20
-9.532336366260778
 30
0.0
 10
-5.308896829247487
 20
-9.53130960756971
 30
0.0
 10
-5.294308240991313
 20
-9.529545444268933
 30
0.0
 10
-5.28867074196728
 20
-9.529001440964748
 30
0.0
 10
-5.276260245358344
 20
-9.527876171412799
 30
0.0
 10
-5.271242356041284
 20
-9.527538045950905
 30
0.0
 10
-5.256753408588338
 20
-9.526609454472918
 30
0.0
 10
-5.251521244239256
 20
-9.526432200023918
 30
0.0
 10
-5.214192937941334
 20
-9.525044866178859
 30
0.0
 10
-5.19084190384342
 20
-9.52497489024563
 30
0.0
 10
-5.116487216880386
 20
-9.524238937297923
 30
0.0
 10
-5.082976564749515
 20
-9.523969244236695
 30
0.0
 10
-5.004031746481359
 20
-9.523433693322886
 30
0.0
 10
-4.958447330824355
 20
-9.523168364005869
 30
0.0
 10
-4.855806743910306
 20
-9.522646612445669
 30
0.0
 10
-4.7987505512192
 20
-9.522390252248897
 30
0.0
 10
-4.674440913154512
 20
-9.521891587975915
 30
0.0
 10
-4.607345485988389
 20
-9.521649148413871
 30
0.0
 10
-4.46727054854432
 20
-9.521190534144807
 30
0.0
 10
-4.394904986755364
 20
-9.520973663713903
 30
0.0
 10
-4.240533524612374
 20
-9.520548835580711
 30
0.0
 10
-4.158414265813462
 20
-9.520341032442729
 30
0.0
 10
-3.985833576340382
 20
-9.519938706699804
 30
0.0
 10
-3.895371943232476
 20
-9.51974418537884
 30
0.0
 10
-3.707903879969308
 20
-9.519372079417735
 30
0.0
 10
-3.610996397186454
 20
-9.519194310002831
 30
0.0
 10
-3.410471556861466
 20
-9.518854450280741
 30
0.0
 10
-3.306870506688255
 20
-9.51869232471995
 30
0.0
 10
-3.092023658636207
 20
-9.518382301945848
 30
0.0
 10
-2.980696149501227
 20
-9.518234617288953
 30
0.0
 10
-2.752337999046403
 20
-9.517956852158931
 30
0.0
 10
-2.635307433490424
 20
-9.51782677218398
 30
0.0
 10
-2.397832198101241
 20
-9.517586606200666
 30
0.0
 10
-2.277450580852246
 20
-9.517476285686825
 30
0.0
 10
-2.137389412296442
 20
-9.517360740477897
 30
0.0
 10
-2.119696337938421
 20
-9.517346373162808
 30
0.0
 10
-2.101962270123522
 20
-9.517332200821783
 30
0.0
  0
SPLINE
  5
22541
330
224FF
100
AcDbEntity
  8
Widoczne (ISO)
100
AcDbSpline
210
0.0
220
0.0
230
1.0
 70
     8
 71
     3
 72
    98
 73
    94
 74
     0
 42
0.0000000001
 43
0.0000000001
 40
1.95517161903926
 40
1.95517161903926
 40
1.95517161903926
 40
1.95517161903926
 40
2.124566561793804
 40
2.124566561793804
 40
2.204093427102378
 40
2.204093427102378
 40
2.284649449976484
 40
2.284649449976484
 40
2.365203338684305
 40
2.365203338684305
 40
2.444724661650315
 40
2.444724661650315
 40
2.524335203214122
 40
2.524335203214122
 40
2.60497070418557
 40
2.60497070418557
 40
2.685598606227199
 40
2.685598606227199
 40
2.765191671858046
 40
2.765191671858046
 40
2.845701436894778
 40
2.845701436894778
 40
2.927063874500857
 40
2.927063874500857
 40
3.008209418635705
 40
3.008209418635705
 40
3.088267342191747
 40
3.088267342191747
 40
3.10371701828943
 40
3.10371701828943
 40
3.111177616572879
 40
3.111177616572879
 40
3.114618757205669
 40
3.114618757205669
 40
3.119720898578673
 40
3.119720898578673
 40
3.124065737532406
 40
3.124065737532406
 40
3.126360117182517
 40
3.126360117182517
 40
3.12772067118253
 40
3.12772067118253
 40
3.128457181669145
 40
3.128457181669145
 40
3.129467358562787
 40
3.129467358562787
 40
3.130130439077868
 40
3.130130439077868
 40
3.130749661099185
 40
3.130749661099185
 40
3.131459830088185
 40
3.131459830088185
 40
3.1324307694044
 40
3.1324307694044
 40
3.134023099775855
 40
3.134023099775855
 40
3.137149029899606
 40
3.137149029899606
 40
3.141882193750728
 40
3.141882193750728
 40
3.146229885491504
 40
3.146229885491504
 40
3.151674386187853
 40
3.151674386187853
 40
3.16089366045794
 40
3.16089366045794
 40
3.184497537674467
 40
3.184497537674467
 40
3.360729169262328
 40
3.360729169262328
 40
3.443261295032759
 40
3.443261295032759
 40
3.52694579226666
 40
3.52694579226666
 40
3.610649293190738
 40
3.610649293190738
 40
3.693219784500167
 40
3.693219784500167
 40
3.772906055206753
 40
3.772906055206753
 40
3.853631502552079
 40
3.853631502552079
 40
3.934360194237701
 40
3.934360194237701
 40
4.014054634667023
 40
4.014054634667023
 40
4.086361293603541
 40
4.086361293603541
 40
4.159440608430787
 40
4.159440608430787
 40
4.232520896977341
 40
4.232520896977341
 40
4.304830206054055
 40
4.304830206054055
 40
4.304830206054055
 40
4.304830206054055
 10
1.698037729877569
 20
-9.5172932221069
 30
0.0
 10
1.958593792364581
 20
-9.51749716333893
 30
0.0
 10
2.209906521618677
 20
-9.517743912471814
 30
0.0
 10
2.560354110884645
 20
-9.518164251317784
 30
0.0
 10
2.66949406355161
 20
-9.518307188061953
 30
0.0
 10
2.882811627580622
 20
-9.518611409114782
 30
0.0
 10
2.986906542414544
 20
-9.5187729067718
 30
0.0
 10
3.187922092575718
 20
-9.519111678054969
 30
0.0
 10
3.284842762433754
 20
-9.519288950923737
 30
0.0
 10
3.46969518569449
 20
-9.519655774643752
 30
0.0
 10
3.557726140651539
 20
-9.519845138455593
 30
0.0
 10
3.725732682676607
 20
-9.520237182973914
 30
0.0
 10
3.805698955137586
 20
-9.520439877711851
 30
0.0
 10
3.957938059670595
 20
-9.520859836718727
 30
0.0
 10
4.030098305857791
 20
-9.521077253669773
 30
0.0
 10
4.165064056249775
 20
-9.521522926844909
 30
0.0
 10
4.227870084190726
 20
-9.521751178799831
 30
0.0
 10
4.343006458108675
 20
-9.522214241933852
 30
0.0
 10
4.3954602308645
 20
-9.522448922048852
 30
0.0
 10
4.491144040304561
 20
-9.522929265550828
 30
0.0
 10
4.534258285248597
 20
-9.523174983710759
 30
0.0
 10
4.610721189734704
 20
-9.523677175378679
 30
0.0
 10
4.643949046289662
 20
-9.523933468252835
 30
0.0
 10
4.700077222868685
 20
-9.52445750216475
 30
0.0
 10
4.722895090906604
 20
-9.524721690513842
 30
0.0
 10
4.759740532405658
 20
-9.525300580961811
 30
0.0
 10
4.769101487850775
 20
-9.525272187225937
 30
0.0
 10
4.796809926803689
 20
-9.526549463654873
 30
0.0
 10
4.801923824552659
 20
-9.526781968031855
 30
0.0
 10
4.815603237573668
 20
-9.527783774918816
 30
0.0
 10
4.820997889017689
 20
-9.528200158135859
 30
0.0
 10
4.833011420059619
 20
-9.529428973417907
 30
0.0
 10
4.837425509386548
 20
-9.529910196878972
 30
0.0
 10
4.851236373480787
 20
-9.531639075972861
 30
0.0
 10
4.861520364302577
 20
-9.532943291996843
 30
0.0
 10
4.894394660364696
 20
-9.539102275876757
 30
0.0
 10
4.91324381362665
 20
-9.542066471534781
 30
0.0
 10
4.975833343916747
 20
-9.56238238599667
 30
0.0
 10
5.003602812219696
 20
-9.571372708812759
 30
0.0
 10
5.077058528766656
 20
-9.610254498133826
 30
0.0
 10
5.111456693377704
 20
-9.629878728150742
 30
0.0
 10
5.180804774763601
 20
-9.688517574340949
 30
0.0
 10
5.208393962844638
 20
-9.714816432970792
 30
0.0
 10
5.277498971941668
 20
-9.801181492241767
 30
0.0
 10
5.321585114793606
 20
-9.872695392171863
 30
0.0
 10
5.364495681385733
 20
-10.02841507650282
 30
0.0
 10
5.372340632905661
 20
-10.09889121916376
 30
0.0
 10
5.363246463951554
 20
-10.23113292885182
 30
0.0
 10
5.348275030759623
 20
-10.29228851639573
 30
0.0
 10
5.304709137091776
 20
-10.40390395446979
 30
0.0
 10
5.275245183071547
 20
-10.4516256597708
 30
0.0
 10
5.208269605977648
 20
-10.53985642464567
 30
0.0
 10
5.171898722766627
 20
-10.57246280902177
 30
0.0
 10
5.091482539668504
 20
-10.6361198189677
 30
0.0
 10
5.055762754253692
 20
-10.65408908454083
 30
0.0
 10
4.973398243483643
 20
-10.69349605753564
 30
0.0
 10
4.946183940402534
 20
-10.69981649445094
 30
0.0
 10
4.89279951994581
 20
-10.71419341227169
 30
0.0
 10
4.877188537972642
 20
-10.7164685874618
 30
0.0
 10
4.853188664830668
 20
-10.72035787133086
 30
0.0
 10
4.845428595815519
 20
-10.72133260398573
 30
0.0
 10
4.831145426133616
 20
-10.72302729353691
 30
0.0
 10
4.825584347777521
 20
-10.72355306674876
 30
0.0
 10
4.813174012630724
 20
-10.72465569377186
 30
0.0
 10
4.808166466093553
 20
-10.72498308341073
 30
0.0
 10
4.793305593774675
 20
-10.72590939057386
 30
0.0
 10
4.788008938756547
 20
-10.72607498508478
 30
0.0
 10
4.743976737727734
 20
-10.72763027976475
 30
0.0
 10
4.709948957614642
 20
-10.72772981258572
 30
0.0
 10
4.609416015076703
 20
-10.72855617426376
 30
0.0
 10
4.572020948164663
 20
-10.72881496125978
 30
0.0
 10
4.485976704978611
 20
-10.72932840194585
 30
0.0
 10
4.437184984746636
 20
-10.72958280455782
 30
0.0
 10
4.328898535941561
 20
-10.73008266566694
 30
0.0
 10
4.269403236083689
 20
-10.73032809510982
 30
0.0
 10
4.140973836254488
 20
-10.73080526122771
 30
0.0
 10
4.072179123430714
 20
-10.73103713134378
 30
0.0
 10
3.927574886944512
 20
-10.73148135650285
 30
0.0
 10
3.852094800720806
 20
-10.73169410821583
 30
0.0
 10
3.691638071870556
 20
-10.73211019112386
 30
0.0
 10
3.606550545724758
 20
-10.73231336225285
 30
0.0
 10
3.428240834120742
 20
-10.73270598663066
 30
0.0
 10
3.335018485507589
 20
-10.73289543874784
 30
0.0
 10
3.142287818337536
 20
-10.73325706903779
 30
0.0
 10
3.042875535193616
 20
-10.73342943712873
 30
0.0
 10
2.84686919813862
 20
-10.73374327451074
 30
0.0
 10
2.75086856330472
 20
-10.73388612727672
 30
0.0
 10
2.552793127714721
 20
-10.73415966742482
 30
0.0
 10
2.450664454550633
 20
-10.73429020827984
 30
0.0
 10
2.241820280192541
 20
-10.73453668668776
 30
0.0
 10
2.135104819856678
 20
-10.73465262391482
 30
0.0
 10
1.918804087847547
 20
-10.73486813392969
 30
0.0
 10
1.80926108897961
 20
-10.73496786641794
 30
0.0
 10
1.698037729877569
 20
-10.73505988818192
 30
0.0
  0
SPLINE
  5
22542
330
224FF
100
AcDbEntity
  8
Widoczne (ISO)
100
AcDbSpline
210
0.0
220
0.0
230
1.0
 70
     8
 71
     3
 72
    62
 73
    58
 74
     0
 42
0.0000000001
 43
0.0000000001
 40
5.084233691273333
 40
5.084233691273333
 40
5.084233691273333
 40
5.084233691273333
 40
5.294544690553221
 40
5.294544690553221
 40
5.374074921846183
 40
5.374074921846183
 40
5.454634154798424
 40
5.454634154798424
 40
5.535191047366731
 40
5.535191047366731
 40
5.61471523677349
 40
5.61471523677349
 40
5.694342715525983
 40
5.694342715525983
 40
5.774994160240438
 40
5.774994160240438
 40
5.855636738343799
 40
5.855636738343799
 40
5.935244231040843
 40
5.935244231040843
 40
6.097210817173342
 40
6.097210817173342
 40
6.190198062176463
 40
6.190198062176463
 40
6.236691684678023
 40
6.236691684678023
 40
6.245253055721366
 40
6.245253055721366
 40
6.252757139985046
 40
6.252757139985046
 40
6.256202720469571
 40
6.256202720469571
 40
6.261308032803512
 40
6.261308032803512
 40
6.265652525491313
 40
6.265652525491313
 40
6.26794793455229
 40
6.26794793455229
 40
6.26931100289557
 40
6.26931100289557
 40
6.270048377441812
 40
6.270048377441812
 40
6.271059298290897
 40
6.271059298290897
 40
6.271722504734418
 40
6.271722504734418
 40
6.272341700932116
 40
6.272341700932116
 40
6.273051716744225
 40
6.273051716744225
 40
6.274022284763137
 40
6.274022284763137
 40
6.275613715836919
 40
6.275613715836919
 40
6.278737522518387
 40
6.278737522518387
 40
6.283185307179585
 40
6.283185307179585
 40
6.283185307179585
 40
6.283185307179585
 10
-2.101962270123522
 20
-10.7351905668188
 30
0.0
 10
-2.427121340100484
 20
-10.73494522968394
 30
0.0
 10
-2.738437393348476
 20
-10.73463349857388
 30
0.0
 10
-3.138990564583309
 20
-10.73412178121794
 30
0.0
 10
-3.245951139771477
 20
-10.73397287875877
 30
0.0
 10
-3.454643324787184
 20
-10.73365699564965
 30
0.0
 10
-3.556289172448487
 20
-10.73348980619562
 30
0.0
 10
-3.752179758834245
 20
-10.73314004036592
 30
0.0
 10
-3.84642455727635
 20
-10.7329574648088
 30
0.0
 10
-4.025751938494295
 20
-10.73258052145479
 30
0.0
 10
-4.110936391107543
 20
-10.73238633542178
 30
0.0
 10
-4.273076181016449
 20
-10.73198504094375
 30
0.0
 10
-4.350020508720263
 20
-10.73177791686294
 30
0.0
 10
-4.49600677623448
 20
-10.73134949831183
 30
0.0
 10
-4.564934056030324
 20
-10.73112805761684
 30
0.0
 10
-4.693284832232393
 20
-10.73067480586269
 30
0.0
 10
-4.75270891348714
 20
-10.73044300063384
 30
0.0
 10
-4.861005388662306
 20
-10.72997330161979
 30
0.0
 10
-4.910002416599354
 20
-10.72973553891779
 30
0.0
 10
-5.043738564655313
 20
-10.72900192964994
 30
0.0
 10
-5.112758013947313
 20
-10.72849790629789
 30
0.0
 10
-5.189742577412289
 20
-10.72765810519081
 30
0.0
 10
-5.210528829415352
 20
-10.72737176347982
 30
0.0
 10
-5.237549249275389
 20
-10.72673448923888
 30
0.0
 10
-5.243589027377311
 20
-10.72671360229878
 30
0.0
 10
-5.264128330517451
 20
-10.7255811720388
 30
0.0
 10
-5.267851240417257
 20
-10.72536124146882
 30
0.0
 10
-5.27740735929251
 20
-10.72466290809279
 30
0.0
 10
-5.282813803622502
 20
-10.72424671214889
 30
0.0
 10
-5.29486430313932
 20
-10.72301497523267
 30
0.0
 10
-5.299278560966286
 20
-10.72253406208574
 30
0.0
 10
-5.313086847449312
 20
-10.72080648219298
 30
0.0
 10
-5.323366055799397
 20
-10.71950364492681
 30
0.0
 10
-5.356216935446354
 20
-10.71335235230685
 30
0.0
 10
-5.375046896835328
 20
-10.71038989940984
 30
0.0
 10
-5.437537085357234
 20
-10.69012626810786
 30
0.0
 10
-5.46526940588842
 20
-10.68115567676591
 30
0.0
 10
-5.538665240096406
 20
-10.64235716597773
 30
0.0
 10
-5.573074069499398
 20
-10.62275751123479
 30
0.0
 10
-5.642480820961282
 20
-10.56412883231587
 30
0.0
 10
-5.670087851125344
 20
-10.53784127678182
 30
0.0
 10
-5.739245257722359
 20
-10.45149243140667
 30
0.0
 10
-5.78337996247842
 20
-10.37998554592786
 30
0.0
 10
-5.826358344154414
 20
-10.22422929858476
 30
0.0
 10
-5.834229774662389
 20
-10.15374718330486
 30
0.0
 10
-5.825174706652433
 20
-10.02148687545695
 30
0.0
 10
-5.810220862512323
 20
-9.960320000700903
 30
0.0
 10
-5.766682309392308
 20
-9.848683453476724
 30
0.0
 10
-5.737228532463404
 20
-9.800947768174864
 30
0.0
 10
-5.67027046621024
 20
-9.712693770229861
 30
0.0
 10
-5.633902604354489
 20
-9.680072847676683
 30
0.0
 10
-5.553494538472477
 20
-9.616392469451739
 30
0.0
 10
-5.517770418236295
 20
-9.598410152863834
 30
0.0
 10
-5.43539863565229
 20
-9.558979741465918
 30
0.0
 10
-5.408172853514315
 20
-9.552651002157745
 30
0.0
 10
-5.356687675789316
 20
-9.538777495761678
 30
0.0
 10
-5.341244822290263
 20
-9.536375275351701
 30
0.0
 10
-5.328925689013431
 20
-9.534329055327816
 30
0.0
  0
SPLINE
  5
22543
330
224FF
100
AcDbEntity
  8
Widoczne (ISO)
100
AcDbSpline
210
0.0
220
0.0
230
1.0
 70
     8
 71
     3
 72
    18
 73
    14
 74
     0
 42
0.0000000001
 43
0.0000000001
 40
19.31934192755757
 40
19.31934192755757
 40
19.31934192755757
 40
19.31934192755757
 40
19.43351387809286
 40
19.43351387809286
 40
19.90516114783043
 40
19.90516114783043
 40
21.33281136118896
 40
21.33281136118896
 40
22.92036100290529
 40
22.92036100290529
 40
24.51267781830571
 40
24.51267781830571
 40
25.01854636710941
 40
25.01854636710941
 40
25.01854636710941
 40
25.01854636710941
 10
14.53490166505662
 20
9.490624162773201
 30
0.0
 10
14.53490166505662
 20
9.490624162773201
 30
0.0
 10
14.53491340185451
 20
9.491802855946161
 30
0.0
 10
14.5349757455167
 20
9.500722305242106
 30
0.0
 10
14.53504518187674
 20
9.517526048371337
 30
0.0
 10
14.53530321325956
 20
9.613426941369198
 30
0.0
 10
14.53549829846861
 20
9.755867591968126
 30
0.0
 10
14.53587817688458
 20
10.18441134571412
 30
0.0
 10
14.53606539501152
 20
10.49084014788809
 30
0.0
 10
14.53638672155875
 20
11.22072274041625
 30
0.0
 10
14.53652467927577
 20
11.65362487843413
 30
0.0
 10
14.53666264356366
 20
12.27027880065429
 30
0.0
 10
14.53669277058566
 20
12.42370999782815
 30
0.0
 10
14.53671971138669
 20
12.58054146907921
 30
0.0
  0
SPLINE
  5
22544
330
224FF
100
AcDbEntity
  8
Widoczne (ISO)
100
AcDbSpline
210
0.0
220
0.0
230
1.0
 70
     8
 71
     3
 72
    20
 73
    16
 74
     0
 42
0.0000000001
 43
0.0000000001
 40
28.89872503551549
 40
28.89872503551549
 40
28.89872503551549
 40
28.89872503551549
 40
29.29155672915435
 40
29.29155672915435
 40
30.88455222740764
 40
30.88455222740764
 40
32.47742652923903
 40
32.47742652923903
 40
34.06980922056197
 40
34.06980922056197
 40
34.41171128977489
 40
34.41171128977489
 40
34.58652179329394
 40
34.58652179329394
 40
34.59665021512626
 40
34.59665021512626
 40
34.59665021512626
 40
34.59665021512626
 10
14.5367197428186
 20
16.38034005669215
 30
0.0
 10
14.53669883864449
 20
16.50203029546605
 30
0.0
 10
14.53667604310772
 20
16.62163710733011
 30
0.0
 10
14.53655104562176
 20
17.21221607550706
 30
0.0
 10
14.53641716397578
 20
17.65268037915712
 30
0.0
 10
14.53610221625558
 20
18.40115174981429
 30
0.0
 10
14.53591721998054
 20
18.71849460769522
 30
0.0
 10
14.5355200508136
 20
19.19178360130127
 30
0.0
 10
14.53530108780251
 20
19.3541099103752
 30
0.0
 10
14.53503882441555
 20
19.44399844860504
 30
0.0
 10
14.53499162757566
 20
19.45601514767418
 30
0.0
 10
14.53492871723961
 20
19.46715589599125
 30
0.0
 10
14.53490560144951
 20
19.46986048246913
 30
0.0
 10
14.53490178094876
 20
19.47021625720822
 30
0.0
 10
14.53490166505662
 20
19.47022651378711
 30
0.0
 10
14.53490166505662
 20
19.47022651380621
 30
0.0
  0
SPLINE
  5
22545
330
224FF
100
AcDbEntity
  8
Widoczne (ISO)
100
AcDbSpline
210
0.0
220
0.0
230
1.0
 70
     8
 71
     3
 72
    38
 73
    34
 74
     0
 42
0.0000000001
 43
0.0000000001
 40
0.0
 40
0.0
 40
0.0
 40
0.0
 40
0.194577578779602
 40
0.194577578779602
 40
0.3856399611575996
 40
0.3856399611575996
 40
0.5768274232173898
 40
0.5768274232173898
 40
0.7679911208345859
 40
0.7679911208345859
 40
0.8617387762893308
 40
0.8617387762893308
 40
0.8902325209448459
 40
0.8902325209448459
 40
0.9083955687937312
 40
0.9083955687937312
 40
0.9267810253916575
 40
0.9267810253916575
 40
0.944650715430466
 40
0.944650715430466
 40
0.9750840302777559
 40
0.9750840302777559
 40
1.04659574530398
 40
1.04659574530398
 40
1.26086678168157
 40
1.26086678168157
 40
1.904795451201773
 40
1.904795451201773
 40
3.624778891912218
 40
3.624778891912218
 40
5.218618178288195
 40
5.218618178288195
 40
6.762846969063613
 40
6.762846969063613
 40
6.762846969063613
 40
6.762846969063613
 10
15.13461129607276
 20
20.08042531283832
 30
0.0
 10
15.1994700925386
 20
20.08044420436409
 30
0.0
 10
15.26516760591153
 20
20.06966834597915
 30
0.0
 10
15.38696593941563
 20
20.02856896348135
 30
0.0
 10
15.44473528430762
 20
19.99810052720227
 30
0.0
 10
15.5465343921885
 20
19.9214751289262
 30
0.0
 10
15.59182218526575
 20
19.87435344179107
 30
0.0
 10
15.66436595897267
 20
19.76957212768207
 30
0.0
 10
15.69253218951167
 20
19.71058362506915
 30
0.0
 10
15.71926968135858
 20
19.61954975191929
 30
0.0
 10
15.72576225513649
 20
19.5885263845812
 30
0.0
 10
15.73093496806359
 20
19.54896322851232
 30
0.0
 10
15.7319168980357
 20
19.53969524350327
 30
0.0
 10
15.73310216878667
 20
19.52575011529916
 30
0.0
 10
15.73346339219461
 20
19.52057635601727
 30
0.0
 10
15.73398819838371
 20
19.51182690172322
 30
0.0
 10
15.73415843988164
 20
19.50820652352922
 30
0.0
 10
15.73439167671472
 20
19.50266177188132
 30
0.0
 10
15.73446252337567
 20
19.50058377574919
 30
0.0
 10
15.73460738030167
 20
19.49598691590017
 30
0.0
 10
15.73465058888064
 20
19.4941019254461
 30
0.0
 10
15.73476377272459
 20
19.48889800273105
 30
0.0
 10
15.73478589364458
 20
19.48698567752217
 30
0.0
 10
15.7348788439026
 20
19.47954637894304
 30
0.0
 10
15.73490320614564
 20
19.4752332164212
 30
0.0
 10
15.73503591057874
 20
19.45098416596215
 30
0.0
 10
15.73512220361658
 20
19.42082229936727
 30
0.0
 10
15.73544660334573
 20
19.25944918685218
 30
0.0
 10
15.73567561857658
 20
19.04165846926821
 30
0.0
 10
15.73606928931463
 20
18.46346298555409
 30
0.0
 10
15.73624194774857
 20
18.10795843213032
 30
0.0
 10
15.73652370566856
 20
17.30785362656525
 30
0.0
 10
15.7366380019846
 20
16.85692065524017
 30
0.0
 10
15.73671984523957
 20
16.38042309304114
 30
0.0
  0
SPLINE
  5
22546
330
224FF
100
AcDbEntity
  8
Widoczne (ISO)
100
AcDbSpline
210
0.0
220
0.0
230
1.0
 70
     8
 71
     3
 72
    72
 73
    68
 74
     0
 42
0.0000000001
 43
0.0000000001
 40
10.64468720622731
 40
10.64468720622731
 40
10.64468720622731
 40
10.64468720622731
 40
11.592570769427
 40
11.592570769427
 40
13.18596545511869
 40
13.18596545511869
 40
14.77955359749263
 40
14.77955359749263
 40
16.37332787871396
 40
16.37332787871396
 40
16.43229262036685
 40
16.43229262036685
 40
16.47675015038747
 40
16.47675015038747
 40
16.48912690300631
 40
16.48912690300631
 40
16.50968214825542
 40
16.50968214825542
 40
16.52638267853122
 40
16.52638267853122
 40
16.55105667361705
 40
16.55105667361705
 40
16.60028762475532
 40
16.60028762475532
 40
16.71404999067808
 40
16.71404999067808
 40
16.89668851558746
 40
16.89668851558746
 40
17.08786798015927
 40
17.08786798015927
 40
17.27904250244392
 40
17.27904250244392
 40
17.47022666164985
 40
17.47022666164985
 40
17.6614109398636
 40
17.6614109398636
 40
17.85259509611966
 40
17.85259509611966
 40
18.04377643626567
 40
18.04377643626567
 40
18.23492013824665
 40
18.23492013824665
 40
18.27790505790496
 40
18.27790505790496
 40
18.29660568238281
 40
18.29660568238281
 40
18.31208612225658
 40
18.31208612225658
 40
18.33081997342532
 40
18.33081997342532
 40
18.34813097291235
 40
18.34813097291235
 40
18.37628451905018
 40
18.37628451905018
 40
18.43959664351242
 40
18.43959664351242
 40
18.629267920247
 40
18.629267920247
 40
19.1989755559007
 40
19.1989755559007
 40
20.93184125757176
 40
20.93184125757176
 40
22.52664379851699
 40
22.52664379851699
 40
24.12048199842486
 40
24.12048199842486
 40
24.16869929240532
 40
24.16869929240532
 40
24.16869929240532
 40
24.16869929240532
 10
15.73671970102259
 20
12.58056947503905
 30
0.0
 10
15.73666919279458
 20
12.286506789859
 30
0.0
 10
15.73660692671069
 20
12.00350192488122
 30
0.0
 10
15.73641275514978
 20
11.29502198735008
 30
0.0
 10
15.73625914393665
 20
10.89284462615819
 30
0.0
 10
15.7359110953887
 20
10.23260225098715
 30
0.0
 10
15.73571236934958
 20
9.966362435236078
 30
0.0
 10
15.7352946907215
 20
9.601136145232203
 30
0.0
 10
15.73540032601158
 20
9.519079775196132
 30
0.0
 10
15.73477213491446
 20
9.472961830666235
 30
0.0
 10
15.73474773498469
 20
9.471174482903279
 30
0.0
 10
15.73462878039777
 20
9.465779271983137
 30
0.0
 10
15.73457752485251
 20
9.462897009048219
 30
0.0
 10
15.73424981515177
 20
9.454764714648263
 30
0.0
 10
15.7341584868127
 20
9.45267718318405
 30
0.0
 10
15.7338267325108
 20
9.446132997734139
 30
0.0
 10
15.73351335511756
 20
9.440829674075075
 30
0.0
 10
15.73270662057552
 20
9.430226975046252
 30
0.0
 10
15.73225516589673
 20
9.425071694630332
 30
0.0
 10
15.73093578746761
 20
9.412083681129161
 30
0.0
 10
15.72996477718561
 20
9.404058307662126
 30
0.0
 10
15.72655155242273
 20
9.380037361024051
 30
0.0
 10
15.7235890372126
 20
9.363885457066089
 30
0.0
 10
15.71162024656064
 20
9.311030610794432
 30
0.0
 10
15.69967568316065
 20
9.274662512028044
 30
0.0
 10
15.66008284269674
 20
9.184167667105157
 30
0.0
 10
15.62671845749855
 20
9.131556917825037
 30
0.0
 10
15.54474737157966
 20
9.037714554782269
 30
0.0
 10
15.49446153967665
 20
8.995972298155265
 30
0.0
 10
15.38467955007263
 20
8.931231292687243
 30
0.0
 10
15.3238173223358
 20
8.907426183896177
 30
0.0
 10
15.19924136089867
 20
8.880503072756255
 30
0.0
 10
15.13397695218668
 20
8.877051031835208
 30
0.0
 10
15.00725265705182
 20
8.890682624318287
 30
0.0
 10
14.94421551006053
 20
8.907935939538219
 30
0.0
 10
14.82821273585659
 20
8.960738759697278
 30
0.0
 10
14.77380326179968
 20
8.996945518360234
 30
0.0
 10
14.68030106559672
 20
9.083556589694353
 30
0.0
 10
14.64004395823758
 20
9.135039951643193
 30
0.0
 10
14.57854336394052
 20
9.246643830106222
 30
0.0
 10
14.55650199249658
 20
9.308365253048123
 30
0.0
 10
14.54230075174564
 20
9.384678746049075
 30
0.0
 10
14.54019316074777
 20
9.398852874331169
 30
0.0
 10
14.53794886785658
 20
9.418566317398244
 30
0.0
 10
14.53736796705175
 20
9.424493155653181
 30
0.0
 10
14.53650891864163
 20
9.434679587466234
 30
0.0
 10
14.53619252392172
 20
9.439094566077301
 30
0.0
 10
14.53565701986258
 20
9.447627371348289
 30
0.0
 10
14.53546542226172
 20
9.451536036728157
 30
0.0
 10
14.53521254381053
 20
9.457343511381168
 30
0.0
 10
14.5351366286236
 20
9.459487155564147
 30
0.0
 10
14.5349862239716
 20
9.464090129616124
 30
0.0
 10
14.53494024581755
 20
9.465987538987292
 30
0.0
 10
14.53482454256573
 20
9.471047601760119
 30
0.0
 10
14.53480032652874
 20
9.472926463613248
 30
0.0
 10
14.53470524453655
 20
9.47994845342032
 30
0.0
 10
14.53468393347566
 20
9.483582614182296
 30
0.0
 10
14.53456210140462
 20
9.503646787535217
 30
0.0
 10
14.53448648540757
 20
9.527499071412194
 30
0.0
 10
14.53416835639768
 20
9.668071280129197
 30
0.0
 10
14.53393593290252
 20
9.875823734846107
 30
0.0
 10
14.53353588318168
 20
10.43765359783606
 30
0.0
 10
14.53336022315579
 20
10.78519027798711
 30
0.0
 10
14.53306732539954
 20
11.58463727002822
 30
0.0
 10
14.53294641166053
 20
12.04643145755926
 30
0.0
 10
14.53285741104673
 20
12.55070420336415
 30
0.0
 10
14.53285482866067
 20
12.56554951202724
 30
0.0
 10
14.53285227322362
 20
12.58042746113915
 30
0.0
  0
SPLINE
  5
22547
330
224FF
100
AcDbEntity
  8
Widoczne (ISO)
100
AcDbSpline
210
0.0
220
0.0
230
1.0
 70
     8
 71
     3
 72
    40
 73
    36
 74
     0
 42
0.0000000001
 43
0.0000000001
 40
28.04995901050534
 40
28.04995901050534
 40
28.04995901050534
 40
28.04995901050534
 40
28.9006262300339
 40
28.9006262300339
 40
30.49401544395552
 40
30.49401544395552
 40
32.08758262203482
 40
32.08758262203482
 40
33.68166773187259
 40
33.68166773187259
 40
33.82775583604896
 40
33.82775583604896
 40
33.87918062748382
 40
33.87918062748382
 40
33.89434122037815
 40
33.89434122037815
 40
33.90494586877113
 40
33.90494586877113
 40
33.9216322993034
 40
33.9216322993034
 40
33.94019251829234
 40
33.94019251829234
 40
33.9717389770799
 40
33.9717389770799
 40
34.04062260928699
 40
34.04062260928699
 40
34.18860616468962
 40
34.18860616468962
 40
34.37832435887278
 40
34.37832435887278
 40
34.56948990040626
 40
34.56948990040626
 40
34.76067185044018
 40
34.76067185044018
 40
34.81181020053102
 40
34.81181020053102
 40
34.81181020053102
 40
34.81181020053102
 10
14.53285242732272
 20
16.38027170653231
 30
0.0
 10
14.53289776461452
 20
16.64422882196027
 30
0.0
 10
14.53295248312861
 20
16.89911235494014
 30
0.0
 10
14.53313361627283
 20
17.58909374536529
 30
0.0
 10
14.53328390734555
 20
17.99837911287818
 30
0.0
 10
14.53362648096458
 20
18.67476700221823
 30
0.0
 10
14.53382299411282
 20
18.95025114754935
 30
0.0
 10
14.53423757132668
 20
19.33492362051606
 30
0.0
 10
14.5343920324035
 20
19.44196581453707
 30
0.0
 10
14.53473069268852
 20
19.48256791488711
 30
0.0
 10
14.53473145632165
 20
19.48477221320922
 30
0.0
 10
14.53490752134757
 20
19.49359557638217
 30
0.0
 10
14.53494255853661
 20
19.49628270796006
 30
0.0
 10
14.53527740135064
 20
19.50504147945912
 30
0.0
 10
14.53537899625371
 20
19.50747344240426
 30
0.0
 10
14.53563534772161
 20
19.51255805544224
 30
0.0
 10
14.53576657717963
 20
19.51494490291429
 30
0.0
 10
14.5361868444977
 20
19.52169992036533
 30
0.0
 10
14.53652997692961
 20
19.52648559495719
 30
0.0
 10
14.53743276947079
 20
19.5370435611012
 30
0.0
 10
14.53801704645775
 20
19.54293462079113
 30
0.0
 10
14.53985872099656
 20
19.55896525735511
 30
0.0
 10
14.54131075572559
 20
19.56930332165416
 30
0.0
 10
14.54680009623962
 20
19.60205445711017
 30
0.0
 10
14.55189507454474
 20
19.62453033571319
 30
0.0
 10
14.57189258756284
 20
19.69392084524725
 30
0.0
 10
14.5915857468226
 20
19.73997718236114
 30
0.0
 10
14.64827020705775
 20
19.8372184626653
 30
0.0
 10
14.68936186402857
 20
19.88736116076711
 30
0.0
 10
14.78434732156961
 20
19.97160067686422
 30
0.0
 10
14.83952152115671
 20
20.00661864309427
 30
0.0
 10
14.95663200041281
 20
20.05689933932718
 30
0.0
 10
15.02002647026961
 20
20.07278618353826
 30
0.0
 10
15.10050402625165
 20
20.07968764313819
 30
0.0
 10
15.11756528357364
 20
20.08042034781829
 30
0.0
 10
15.13461129607276
 20
20.08042531283832
 30
0.0
  0
ELLIPSE
  5
22548
330
224FF
100
AcDbEntity
  8
Widoczne wąskie (ISO)
100
AcDbEllipse
 10
-0.3028333622112314
 20
-10.13815981558878
 30
0.0
 11
-0.3768687927988483
 21
2.268913817890498
 31
0.0
210
0.0
220
0.0
230
1.0
 40
0.9999309283105841
 41
1.668632100211004
 42
2.07866159161438
  0
ELLIPSE
  5
22549
330
224FF
100
AcDbEntity
  8
Widoczne wąskie (ISO)
100
AcDbEllipse
 10
-0.3028333622112314
 20
-10.13815981558878
 30
0.0
 11
-0.376868792796981
 21
2.268913817890768
 31
0.0
210
0.0
220
0.0
230
1.0
 40
0.9999309283105841
 41
0.7337122861440603
 42
1.133063045553093
  0
SPLINE
  5
2254A
330
224FF
100
AcDbEntity
  8
Widoczne (ISO)
100
AcDbSpline
210
0.0
220
0.0
230
1.0
 70
     8
 71
     3
 72
    10
 73
     6
 74
     0
 42
0.0000000001
 43
0.0000000001
 40
4.039882640156493
 40
4.039882640156493
 40
4.039882640156493
 40
4.039882640156493
 40
4.266172030582598
 40
4.266172030582598
 40
4.439239530317624
 40
4.439239530317624
 40
4.439239530317624
 40
4.439239530317624
 10
-2.101962270123522
 20
-8.705387678881834
 30
0.0
 10
-2.210026831604182
 20
-8.841101586879858
 30
0.0
 10
-2.302666692906313
 20
-8.989089281240921
 30
0.0
 10
-2.434782692582302
 20
-9.26528372584471
 30
0.0
 10
-2.481653566615477
 20
-9.389942238348794
 30
0.0
 10
-2.51744206077933
 20
-9.517707572052813
 30
0.0
  0
SPLINE
  5
2254B
330
224FF
100
AcDbEntity
  8
Widoczne (ISO)
100
AcDbSpline
210
0.0
220
0.0
230
1.0
 70
     8
 71
     3
 72
    10
 73
     6
 74
     0
 42
0.0000000001
 43
0.0000000001
 40
4.97481137477161
 40
4.97481137477161
 40
4.97481137477161
 40
4.97481137477161
 40
5.226180031386491
 40
5.226180031386491
 40
5.384852166710283
 40
5.384852166710283
 40
5.384852166710283
 40
5.384852166710283
 10
-2.523942746541479
 20
-10.73482744277589
 30
0.0
 10
-2.473947716984412
 20
-10.92094423359299
 30
0.0
 10
-2.400443311858452
 20
-11.10073241202985
 30
0.0
 10
-2.245943530381282
 20
-11.37450705544779
 30
0.0
 10
-2.177735905757344
 20
-11.47569445287285
 30
0.0
 10
-2.101962270123522
 20
-11.57085858437585
 30
0.0
  0
ELLIPSE
  5
2254C
330
224FF
100
AcDbEntity
  8
Widoczne (ISO)
100
AcDbEllipse
 10
-0.2958767314623856
 20
-10.13700431245274
 30
0.0
 11
-0.376868792800372
 21
2.268913817890231
 31
0.0
210
0.0
220
0.0
230
1.0
 40
0.9999309283105841
 41
4.026088375270163
 42
4.284844525012727
  0
ELLIPSE
  5
2254D
330
224FF
100
AcDbEntity
  8
Widoczne (ISO)
100
AcDbEllipse
 10
-0.2958767314623856
 20
-10.13700431245274
 30
0.0
 11
-0.3768687927974087
 21
2.268913817890741
 31
0.0
210
0.0
220
0.0
230
1.0
 40
0.9999309283105841
 41
4.820529928542177
 42
5.069470809667008
  0
ELLIPSE
  5
2254E
330
224FF
100
AcDbEntity
  8
Widoczne (ISO)
100
AcDbEllipse
 10
-0.2958767314623856
 20
-10.13700431245274
 30
0.0
 11
0.376868792798795
 21
-2.268913817890493
 31
0.0
210
0.0
220
0.0
230
1.0
 40
0.9999309283105835
 41
3.880175707380752
 42
4.275174370333185
  0
ELLIPSE
  5
2254F
330
224FF
100
AcDbEntity
  8
Widoczne (ISO)
100
AcDbEllipse
 10
-0.2958767314623856
 20
-10.13700431245274
 30
0.0
 11
0.3768687927963689
 21
-2.268913817890898
 31
0.0
210
0.0
220
0.0
230
1.0
 40
0.9999309283105844
 41
4.810748165359775
 42
5.215383477557568
  0
ELLIPSE
  5
22550
330
224FF
100
AcDbEntity
  8
Widoczne wąskie (ISO)
100
AcDbEllipse
 10
15.13219371176478
 20
14.48042533829016
 30
0.0
 11
-0.0000000007457324
 21
2.30000000000001
 31
0.0
210
0.0
220
0.0
230
1.0
 40
0.9999999125875913
 41
0.2635989681377024
 42
0.5986680525113091
  0
ELLIPSE
  5
22551
330
224FF
100
AcDbEntity
  8
Widoczne wąskie (ISO)
100
AcDbEllipse
 10
15.13219371176478
 20
14.48042533829016
 30
0.0
 11
0.0000000001017895
 21
-2.299999999999999
 31
0.0
210
0.0
220
0.0
230
1.0
 40
0.9999999125875906
 41
5.684517254299786
 42
6.019586338673206
  0
SPLINE
  5
22552
330
224FF
100
AcDbEntity
  8
Widoczne (ISO)
100
AcDbSpline
210
0.0
220
0.0
230
1.0
 70
     8
 71
     3
 72
    10
 73
     6
 74
     0
 42
0.0000000001
 43
0.0000000001
 40
4.975987944883033
 40
4.975987944883033
 40
4.975987944883033
 40
4.975987944883033
 40
5.032388975731369
 40
5.032388975731369
 40
5.311057029681659
 40
5.311057029681659
 40
5.311057029681659
 40
5.311057029681659
 10
14.5329129251736
 20
16.70097988197835
 30
0.0
 10
14.49116573979154
 20
16.68971319629418
 30
0.0
 10
14.44973637197768
 20
16.67726890827725
 30
0.0
 10
14.2058908169497
 20
16.59646106902619
 30
0.0
 10
14.01253542943664
 20
16.50082369852907
 30
0.0
 10
13.83604567553175
 20
16.38042533828911
 30
0.0
  0
SPLINE
  5
22553
330
224FF
100
AcDbEntity
  8
Widoczne (ISO)
100
AcDbSpline
210
0.0
220
0.0
230
1.0
 70
     8
 71
     3
 72
    10
 73
     6
 74
     0
 42
0.0000000001
 43
0.0000000001
 40
7.255313584677508
 40
7.255313584677508
 40
7.255313584677508
 40
7.255313584677508
 40
7.272388985425775
 40
7.272388985425775
 40
7.590382669476197
 40
7.590382669476197
 40
7.590382669476197
 40
7.590382669476197
 10
13.83604567553175
 20
12.58042533828916
 30
0.0
 10
13.84686009517168
 20
12.57304792196419
 30
0.0
 10
13.85773750249473
 20
12.56576283817412
 30
0.0
 10
14.07238879412466
 20
12.42464095354216
 30
0.0
 10
14.29753883575176
 20
12.32339330179115
 30
0.0
 10
14.5329129251736
 20
12.25987079460128
 30
0.0
  0
ELLIPSE
  5
22554
330
224FF
100
AcDbEntity
  8
Widoczne (ISO)
100
AcDbEllipse
 10
15.13244458410668
 20
14.48042533829016
 30
0.0
 11
0.0000000002825584
 21
-2.300000000000002
 31
0.0
210
0.0
220
0.0
230
1.0
 40
0.9999999125875904
 41
5.684517254221184
 42
6.019473353203441
  0
ELLIPSE
  5
22555
330
224FF
100
AcDbEntity
  8
Widoczne (ISO)
100
AcDbEllipse
 10
15.13244458410668
 20
14.48042533829016
 30
0.0
 11
-0.0000000015335064
 21
-2.299999999999999
 31
0.0
210
0.0
220
0.0
230
1.0
 40
0.9999999125875913
 41
0.2658216502221856
 42
0.5986680535022894
  0
ELLIPSE
  5
22556
330
224FF
100
AcDbEntity
  8
Widoczne (ISO)
100
AcDbEllipse
 10
15.13244458410668
 20
14.48042533829016
 30
0.0
 11
-0.0000000002825655
 21
2.29999999999999
 31
0.0
210
0.0
220
0.0
230
1.0
 40
0.9999999125875913
 41
5.684517254221187
 42
6.017363657501126
  0
ELLIPSE
  5
22557
330
224FF
100
AcDbEntity
  8
Widoczne (ISO)
100
AcDbEllipse
 10
15.13244458410668
 20
14.48042533829016
 30
0.0
 11
-0.0000000000129786
 21
2.300000000000004
 31
0.0
210
0.0
220
0.0
230
1.0
 40
0.9999999125875913
 41
0.2637119538474629
 42
0.5986680528298974
  0
LINE
  5
22558
330
224FF
100
AcDbEntity
  8
Widoczne (ISO)
100
AcDbLine
 10
1.698037729877569
 20
-15.61957466171088
 30
0.0
 11
-2.101962270123522
 21
-15.61957466171088
 31
0.0
  0
LINE
  5
22559
330
224FF
100
AcDbEntity
  8
Widoczne (ISO)
100
AcDbLine
 10
-2.101962270123522
 20
16.38042533829025
 30
0.0
 11
1.698037729877569
 21
16.38042533829025
 31
0.0
  0
LINE
  5
2255A
330
224FF
100
AcDbEntity
  8
Widoczne (ISO)
100
AcDbLine
 10
-2.101962270123522
 20
-15.61957466171088
 30
0.0
 11
-2.101962270123522
 21
-15.27596354585989
 31
0.0
  0
LINE
  5
2255B
330
224FF
100
AcDbEntity
  8
Widoczne (ISO)
100
AcDbLine
 10
-2.101962270123522
 20
-12.16318577756078
 30
0.0
 11
-2.101962270123522
 21
-4.619574661710885
 31
0.0
  0
LINE
  5
2255C
330
224FF
100
AcDbEntity
  8
Widoczne (ISO)
100
AcDbLine
 10
-2.101962270123522
 20
5.380425338290251
 30
0.0
 11
-2.101962270123522
 21
16.38042533829025
 31
0.0
  0
LINE
  5
2255D
330
224FF
100
AcDbEntity
  8
Widoczne (ISO)
100
AcDbLine
 10
1.698037729877569
 20
-15.61957466171088
 30
0.0
 11
1.698037729877569
 21
-4.619574661710885
 31
0.0
  0
LINE
  5
2255E
330
224FF
100
AcDbEntity
  8
Widoczne (ISO)
100
AcDbLine
 10
1.698037729877569
 20
5.380425338290251
 30
0.0
 11
1.698037729877569
 21
12.58042533829029
 31
0.0
  0
LINE
  5
2255F
330
224FF
100
AcDbEntity
  8
Widoczne wąskie (ISO)
100
AcDbLine
 10
1.698037729877569
 20
16.6804253382902
 30
0.0
 11
-2.101962270123522
 21
16.68042533828907
 31
0.0
  0
LINE
  5
22560
330
224FF
100
AcDbEntity
  8
Widoczne (ISO)
100
AcDbLine
 10
-1.901962270123476
 20
16.88042533828911
 30
0.0
 11
1.498037729877751
 21
16.88042533829025
 31
0.0
  0
ARC
  5
22561
330
224FF
100
AcDbEntity
  8
Widoczne (ISO)
100
AcDbCircle
 10
1.498037729877751
 20
16.6804253382902
 30
0.0
 40
0.2
100
AcDbArc
 50
0.0
 51
90.0
  0
ARC
  5
22562
330
224FF
100
AcDbEntity
  8
Widoczne (ISO)
100
AcDbCircle
 10
-1.901962270123476
 20
16.68042533828907
 30
0.0
 40
0.2
100
AcDbArc
 50
90.0
 51
180.0
  0
LINE
  5
22563
330
224FF
100
AcDbEntity
  8
Widoczne (ISO)
100
AcDbLine
 10
1.698037729877569
 20
16.38042533829025
 30
0.0
 11
-2.101962270123522
 21
16.38042533829025
 31
0.0
  0
LINE
  5
22564
330
224FF
100
AcDbEntity
  8
Widoczne (ISO)
100
AcDbLine
 10
-2.101962270123522
 20
16.38042533828911
 30
0.0
 11
-2.101962270123522
 21
16.68042533828907
 31
0.0
  0
LINE
  5
22565
330
224FF
100
AcDbEntity
  8
Widoczne (ISO)
100
AcDbLine
 10
1.698037729877569
 20
16.38042533829025
 30
0.0
 11
1.698037729877569
 21
16.6804253382902
 31
0.0
  0
LINE
  5
22566
330
224FF
100
AcDbEntity
  8
Widoczne wąskie (ISO)
100
AcDbLine
 10
-2.101962270123522
 20
-15.9195746617097
 30
0.0
 11
1.698037729877569
 21
-15.91957466171084
 31
0.0
  0
LINE
  5
22567
330
224FF
100
AcDbEntity
  8
Widoczne (ISO)
100
AcDbLine
 10
1.498037729877751
 20
-16.11957466171088
 30
0.0
 11
-1.901962270123476
 21
-16.11957466170975
 31
0.0
  0
ARC
  5
22568
330
224FF
100
AcDbEntity
  8
Widoczne (ISO)
100
AcDbCircle
 10
-1.901962270123476
 20
-15.9195746617097
 30
0.0
 40
0.2
100
AcDbArc
 50
180.0
 51
270.0
  0
ARC
  5
22569
330
224FF
100
AcDbEntity
  8
Widoczne (ISO)
100
AcDbCircle
 10
1.498037729877751
 20
-15.91957466171084
 30
0.0
 40
0.2
100
AcDbArc
 50
270.0
 51
0.0
  0
LINE
  5
2256A
330
224FF
100
AcDbEntity
  8
Widoczne (ISO)
100
AcDbLine
 10
-2.101962270123522
 20
-15.61957466171088
 30
0.0
 11
1.698037729877569
 21
-15.61957466171088
 31
0.0
  0
LINE
  5
2256B
330
224FF
100
AcDbEntity
  8
Widoczne (ISO)
100
AcDbLine
 10
1.698037729877569
 20
-15.61957466171088
 30
0.0
 11
1.698037729877569
 21
-15.91957466171084
 31
0.0
  0
LINE
  5
2256C
330
224FF
100
AcDbEntity
  8
Widoczne (ISO)
100
AcDbLine
 10
-2.101962270123522
 20
-15.61957466170975
 30
0.0
 11
-2.101962270123522
 21
-15.9195746617097
 31
0.0
  0
ENDBLK
  5
22501
330
224FF
100
AcDbEntity
  8
0
100
AcDbBlockEnd
  0
ENDSEC
  0
SECTION
  2
ENTITIES
  0
MTEXT
  5
21B08
330
1F
100
AcDbEntity
  8
0
100
AcDbMText
 10
1262.065528371226
 20
-1282.524438009801
 30
0.0
 40
5.0
 41
1240.689551428531
 71
     1
 72
     5
  1
Nr kat.: 25200, 25209\PNazwa: Klucznik V\PData utworzenia: 09-07-2014
 73
     1
 44
1.0
1001
ACAD
1000
ACAD_MTEXT_COLUMN_INFO_BEGIN
1070
    75
1070
     2
1070
    79
1070
     0
1070
    76
1070
     1
1070
    78
1070
     0
1070
    48
1040
1240.689551428531
1070
    49
1040
1.0
1070
    50
1070
     1
1040
0.0
1000
ACAD_MTEXT_COLUMN_INFO_END
1000
MTEXTBEGIN
1070
    73
1070
     1
1070
    44
1040
1.0
1070
    74
1070
     0
1000
MTEXTEND
  0
DIMENSION
  5
21BAA
330
1F
100
AcDbEntity
  8
Wymiar (ISO)
100
AcDbDimension
  2
*D13
 10
1321.839685584095
 20
-1249.69079196446
 30
0.0
 11
1289.022251897642
 21
-1249.69079196446
 31
0.0
 70
   160
  1
640
 71
     5
 42
63.79999999999995
  3
AM_ISO
100
AcDbAlignedDimension
 13
1258.039685584095
 23
-1233.973591333325
 33
0.0
 14
1321.839685584095
 24
-1233.973591333325
 34
0.0
100
AcDbRotatedDimension
1001
ACAD_DSTYLE_DIMINSPECT
1070
   396
1000
100%
1070
   395
1000

1070
   394
1070
    33
1070
   393
1070
     0
1001
ACAD
1000
DSTYLE
1002
{
1070
   178
1070
   256
1002
}
  0
DIMENSION
  5
21D16
330
1F
100
AcDbEntity
  8
Wymiar (ISO)
100
AcDbDimension
  2
*D14
 10
1334.178541894593
 20
-1203.373591333325
 30
0.0
 11
1334.178541894593
 21
-1220.196689939468
 31
0.0
 70
   160
  1
400
 71
     5
 42
33.0
  3
AM_ISO
100
AcDbAlignedDimension
 13
1291.639685584095
 23
-1236.373591333325
 33
0.0
 14
1288.239685584094
 24
-1203.373591333325
 34
0.0
 50
90.0
100
AcDbRotatedDimension
1001
ACAD_DSTYLE_DIMINSPECT
1070
   396
1000
100%
1070
   395
1000

1070
   394
1070
    33
1070
   393
1070
     0
1001
ACAD
1000
DSTYLE
1002
{
1070
   178
1070
   256
1002
}
  0
INSERT
  5
2256D
330
1F
100
AcDbEntity
  8
0
100
AcDbBlockReference
  2
25200-25209_Klucznik-V
 10
1290.141647854217
 20
-1220.254016671614
 30
0.0
  0
ENDSEC
  0
SECTION
  2
OBJECTS
  0
DICTIONARY
  5
C
330
0
100
AcDbDictionary
281
     1
  3
ACAD_2007HEADERVARS_RT
350
22576
  3
ACAD_COLOR
350
6B
  3
ACAD_GROUP
350
D
  3
ACAD_IMAGE_DICT
350
17464
  3
ACAD_IMAGE_VARS
350
17465
  3
ACAD_LAYOUT
350
1A
  3
ACAD_MATERIAL
350
6A
  3
ACAD_MLEADERSTYLE
350
1D37B
  3
ACAD_MLINESTYLE
350
17
  3
ACAD_PLOTSETTINGS
350
19
  3
ACAD_PLOTSTYLENAME
350
E
  3
ACAD_SCALELIST
350
1D369
  3
ACAD_TABLESTYLE
350
7E
  3
ACAD_VISUALSTYLE
350
1D355
  3
ACDB_RECOMPOSE_DATA
350
22574
  3
AcDbVariableDictionary
350
5E
  3
AcmDictionary
350
1D89F
  3
AMG
350
1D84E
  3
AMGSNAPSETTINGS
350
1D8E0
  3
ASE_INDEX_DICTIONARY
350
198BE
  3
DWGPROPS
350
22575
  0
DICTIONARY
  5
2242D
330
8
100
AcDbDictionary
280
     1
281
     1
  0
DICTIONARY
  5
3EC5
330
2
100
AcDbDictionary
280
     1
281
     1
  3
ACAD_LAYERFILTERS
360
3EF6
  3
ACAD_LAYERSTATES
360
1D412
  3
ACLYDICTIONARY
360
3EF5
  0
DICTIONARY
  5
1D40B
330
10
100
AcDbDictionary
280
     1
281
     1
  3
ADSK_XREC_LAYER_RECONCILED
360
1D40C
  0
DICTIONARY
  5
14BE
330
1F
100
AcDbDictionary
280
     1
281
     1
  3
ACAD_SORTENTS
360
14BF
  0
DICTIONARY
  5
22576
102
{ACAD_REACTORS
330
C
102
}
330
C
100
AcDbDictionary
281
     1
  3
DIMARCSYM
350
22578
  3
DIMFXLON
350
22577
  3
DIMJOGANG
350
22579
  3
DIMLTEX1
350
2257B
  3
DIMLTEX2
350
2257C
  3
DIMLTYPE
350
2257A
  3
INTERFEREVPVS
350
2257D
  0
DICTIONARY
  5
6B
102
{ACAD_REACTORS
330
C
102
}
330
C
100
AcDbDictionary
281
     1
  0
DICTIONARY
  5
D
102
{ACAD_REACTORS
330
C
102
}
330
C
100
AcDbDictionary
281
     1
  0
DICTIONARY
  5
17464
102
{ACAD_REACTORS
330
C
102
}
330
C
100
AcDbDictionary
281
     1
  0
RASTERVARIABLES
  5
17465
102
{ACAD_REACTORS
330
C
102
}
330
C
100
AcDbRasterVariables
 90
        0
 70
     1
 71
     1
 72
     1
  0
DICTIONARY
  5
1A
102
{ACAD_REACTORS
330
C
102
}
330
C
100
AcDbDictionary
281
     1
  3
Arkusz1
350
D3
  3
Arkusz2
350
D7
  3
Model
350
22
  0
DICTIONARY
  5
6A
102
{ACAD_REACTORS
330
C
102
}
330
C
100
AcDbDictionary
281
     1
  3
ByBlock
350
1D345
  3
ByLayer
350
1D33D
  3
Global
350
1D34D
  0
DICTIONARY
  5
1D37B
102
{ACAD_REACTORS
330
C
102
}
330
C
100
AcDbDictionary
281
     1
  3
Standard
350
1D37C
  0
DICTIONARY
  5
17
102
{ACAD_REACTORS
330
C
102
}
330
C
100
AcDbDictionary
281
     1
  3
Standard
350
18
  0
DICTIONARY
  5
19
102
{ACAD_REACTORS
330
C
102
}
330
C
100
AcDbDictionary
281
     1
  0
ACDBDICTIONARYWDFLT
  5
E
102
{ACAD_REACTORS
330
C
102
}
330
C
100
AcDbDictionary
281
     1
  3
Normal
350
F
100
AcDbDictionaryWithDefault
340
F
  0
DICTIONARY
  5
1D369
102
{ACAD_REACTORS
330
C
102
}
330
C
100
AcDbDictionary
281
     1
  3
A0
350
1D36A
  3
A1
350
1D36B
  3
A2
350
1D36C
  3
A3
350
1D36D
  3
A4
350
1D36E
  3
A5
350
1D36F
  3
A6
350
1D370
  3
A7
350
1D371
  3
A8
350
1D372
  3
A9
350
1D373
  3
B0
350
1D374
  3
B1
350
1D375
  3
B2
350
1D376
  3
B3
350
1D377
  3
B4
350
1D378
  3
B5
350
1D379
  3
B6
350
1D37A
  0
DICTIONARY
  5
7E
102
{ACAD_REACTORS
330
C
102
}
330
C
100
AcDbDictionary
281
     1
  3
Standard
350
7F
  0
DICTIONARY
  5
1D355
102
{ACAD_REACTORS
330
C
102
}
330
C
100
AcDbDictionary
281
     1
  3
2dWireframe
350
1D35B
  3
3D Hidden
350
1D35D
  3
3dWireframe
350
1D35C
  3
Basic
350
1D35A
  3
Brighten
350
1D361
  3
ColorChange
350
1D365
  3
Conceptual
350
1D35E
  3
Dim
350
1D360
  3
EdgeColorOff
350
1D368
  3
Facepattern
350
1D364
  3
Flat
350
1D356
  3
FlatWithEdges
350
1D357
  3
Gouraud
350
1D358
  3
GouraudWithEdges
350
1D359
  3
Hidden
350
1D843
  3
JitterOff
350
1D366
  3
Linepattern
350
1D363
  3
OverhangOff
350
1D367
  3
Realistic
350
1D35F
  3
Shaded
350
1D848
  3
Shaded with edges
350
1D847
  3
Shades of Gray
350
1D844
  3
Sketchy
350
1D845
  3
Thicken
350
1D362
  3
Wireframe
350
1D842
  3
X-Ray
350
1D846
  0
XRECORD
  5
22574
102
{ACAD_REACTORS
330
C
102
}
330
C
100
AcDbXrecord
280
     1
 90
        1
330
7F
330
21B08
  0
DICTIONARY
  5
5E
102
{ACAD_REACTORS
330
C
102
}
330
C
100
AcDbDictionary
281
     1
  3
CANNOSCALE
350
1D386
  3
CMLEADERSTYLE
350
1D384
  3
CTABLESTYLE
350
84
  3
DIMASSOC
350
5F
  3
HIDETEXT
350
63
  3
INDEXCTL
350
2246F
  3
LAYEREVAL
350
1D388
  3
LAYERNOTIFY
350
1D389
  3
LIGHTINGUNITS
350
1D387
  3
LOFTANG1
350
22570
  3
LOFTANG2
350
22571
  3
MSLTSCALE
350
1D385
  3
PROJECTNAME
350
1AE42
  3
SORTENTS
350
2246E
  3
XCLIPFRAME
350
22572
  0
DICTIONARY
  5
1D89F
102
{ACAD_REACTORS
330
C
102
}
330
C
100
AcDbDictionary
281
     1
  3
AcmStdDictionary
350
1D8AA
  0
DICTIONARY
  5
1D84E
102
{ACAD_REACTORS
330
C
102
}
330
C
100
AcDbDictionary
281
     1
  0
DICTIONARY
  5
1D8E0
102
{ACAD_REACTORS
330
C
102
}
330
C
100
AcDbDictionary
281
     1
  0
DICTIONARY
  5
198BE
102
{ACAD_REACTORS
330
C
102
}
330
C
100
AcDbDictionary
281
     1
  3
ASEBlockHierarchyIndexRecord
350
198BF
1001
DCO15
1040
1682354258.781
  0
XRECORD
  5
22575
102
{ACAD_REACTORS
330
C
102
}
330
C
100
AcDbXrecord
280
     1
  1
DWGPROPS COOKIE
  2

  3

  4

  6

  7

  8
Natalia
  9

300
=
301
=
302
=
303
=
304
=
305
=
306
=
307
=
308
=
309
=
 40
1.803831273148148
 41
2455271.672289491
 42
2458893.503031239
  1

 90
        0
  0
DICTIONARY
  5
3EF6
102
{ACAD_REACTORS
330
3EC5
102
}
330
3EC5
100
AcDbDictionary
281
     1
  0
DICTIONARY
  5
1D412
102
{ACAD_REACTORS
330
3EC5
102
}
330
3EC5
100
AcDbDictionary
281
     1
  0
DICTIONARY
  5
3EF5
102
{ACAD_REACTORS
330
3EC5
102
}
330
3EC5
100
AcDbDictionary
281
     1
1001
ACAD
1000
<All
  0
XRECORD
  5
1D40C
102
{ACAD_REACTORS
330
1D40B
102
}
330
1D40B
100
AcDbXrecord
280
     1
290
     1
  0
SORTENTSTABLE
  5
14BF
102
{ACAD_REACTORS
330
14BE
102
}
330
14BE
100
AcDbSortentsTable
330
1F
  0
XRECORD
  5
22578
102
{ACAD_REACTORS
330
22576
102
}
330
22576
100
AcDbXrecord
280
     1
 70
     1
  0
XRECORD
  5
22577
102
{ACAD_REACTORS
330
22576
102
}
330
22576
100
AcDbXrecord
280
     1
290
     1
  0
XRECORD
  5
22579
102
{ACAD_REACTORS
330
22576
102
}
330
22576
100
AcDbXrecord
280
     1
 40
1.570796326794896
  0
XRECORD
  5
2257B
102
{ACAD_REACTORS
330
22576
102
}
330
22576
100
AcDbXrecord
280
     1
340
14
  0
XRECORD
  5
2257C
102
{ACAD_REACTORS
330
22576
102
}
330
22576
100
AcDbXrecord
280
     1
340
14
  0
XRECORD
  5
2257A
102
{ACAD_REACTORS
330
22576
102
}
330
22576
100
AcDbXrecord
280
     1
340
14
  0
XRECORD
  5
2257D
102
{ACAD_REACTORS
330
22576
102
}
330
22576
100
AcDbXrecord
280
     1
340
1D35C
  0
LAYOUT
  5
D3
102
{ACAD_XDICTIONARY
360
22580
102
}
102
{ACAD_REACTORS
330
1A
102
}
330
1A
100
AcDbPlotSettings
  1

  2
C:\Documents and Settings\basas\Application Data\Autodesk\AutoCAD 2005\R16.1\enu\plotters\Default Windows System Printer.pc3
  4

  6

 40
0.0
 41
0.0
 42
0.0
 43
0.0
 44
0.0
 45
0.0
 46
0.0
 47
0.0
 48
0.0
 49
0.0
140
0.0
141
0.0
142
1.0
143
1.0
 70
   688
 72
     0
 73
     0
 74
     5
  7

 75
    16
147
1.0
148
0.0
149
0.0
100
AcDbLayout
  1
Arkusz1
 70
     1
 71
     1
 10
0.0
 20
0.0
 11
12.0
 21
9.0
 12
0.0
 22
0.0
 32
0.0
 14
0.0
 24
0.0
 34
0.0
 15
0.0
 25
0.0
 35
0.0
146
0.0
 13
0.0
 23
0.0
 33
0.0
 16
1.0
 26
0.0
 36
0.0
 17
0.0
 27
1.0
 37
0.0
 76
     0
330
D2
  0
LAYOUT
  5
D7
102
{ACAD_XDICTIONARY
360
22582
102
}
102
{ACAD_REACTORS
330
1A
102
}
330
1A
100
AcDbPlotSettings
  1

  2
C:\Documents and Settings\basas\Application Data\Autodesk\AutoCAD 2005\R16.1\enu\plotters\Default Windows System Printer.pc3
  4

  6

 40
0.0
 41
0.0
 42
0.0
 43
0.0
 44
0.0
 45
0.0
 46
0.0
 47
0.0
 48
0.0
 49
0.0
140
0.0
141
0.0
142
1.0
143
1.0
 70
   688
 72
     0
 73
     0
 74
     5
  7

 75
    16
147
1.0
148
0.0
149
0.0
100
AcDbLayout
  1
Arkusz2
 70
     1
 71
     2
 10
0.0
 20
0.0
 11
12.0
 21
9.0
 12
0.0
 22
0.0
 32
0.0
 14
0.0
 24
0.0
 34
0.0
 15
0.0
 25
0.0
 35
0.0
146
0.0
 13
0.0
 23
0.0
 33
0.0
 16
1.0
 26
0.0
 36
0.0
 17
0.0
 27
1.0
 37
0.0
 76
     0
330
D6
  0
LAYOUT
  5
22
102
{ACAD_XDICTIONARY
360
1D417
102
}
102
{ACAD_REACTORS
330
1A
102
}
330
1A
100
AcDbPlotSettings
  1

  2
none_device
  4
ISO_A4_(210.00_x_297.00_MM)
  6

 40
7.5
 41
20.0
 42
7.5
 43
20.0
 44
210.0
 45
297.0
 46
11.54999923706054
 47
-13.65000009536743
 48
0.0
 49
0.0
140
0.0
141
0.0
142
1.0
143
8.704084754739808
 70
 11952
 72
     1
 73
     0
 74
     0
  7

 75
     0
147
0.1148885871608098
148
0.0
149
0.0
100
AcDbLayout
  1
Model
 70
     1
 71
     0
 10
0.0
 20
0.0
 11
12.0
 21
9.0
 12
0.0
 22
0.0
 32
0.0
 14
0.0
 24
0.0
 34
0.0
 15
0.0
 25
0.0
 35
0.0
146
0.0
 13
0.0
 23
0.0
 33
0.0
 16
1.0
 26
0.0
 36
0.0
 17
0.0
 27
1.0
 37
0.0
 76
     0
330
1F
331
1D33B
1001
ACAD_PSEXT
1000
None
1000
None
1000
Not applicable
1000
The layout will not be plotted unless a new plotter configuration name is selected.
1070
     0
  0
MATERIAL
  5
1D345
102
{ACAD_XDICTIONARY
360
1D346
102
}
102
{ACAD_REACTORS
330
6A
102
}
330
6A
100
AcDbMaterial
  1
ByBlock
 72
     0
 43
0.0008202099737533
 43
0.0
 43
0.0
 43
0.0
 43
0.0
 43
0.0008202099737533
 43
0.0
 43
0.0
 43
0.0
 43
0.0
 43
1.0
 43
0.0
 43
0.0
 43
0.0
 43
0.0
 43
1.0
 77
     0
 47
0.0008202099737533
 47
0.0
 47
0.0
 47
0.0
 47
0.0
 47
0.0008202099737533
 47
0.0
 47
0.0
 47
0.0
 47
0.0
 47
1.0
 47
0.0
 47
0.0
 47
0.0
 47
0.0
 47
1.0
171
     0
 49
0.0008202099737533
 49
0.0
 49
0.0
 49
0.0
 49
0.0
 49
0.0008202099737533
 49
0.0
 49
0.0
 49
0.0
 49
0.0
 49
1.0
 49
0.0
 49
0.0
 49
0.0
 49
0.0
 49
1.0
175
     0
142
0.0008202099737533
142
0.0
142
0.0
142
0.0
142
0.0
142
0.0008202099737533
142
0.0
142
0.0
142
0.0
142
0.0
142
1.0
142
0.0
142
0.0
142
0.0
142
0.0
142
1.0
179
     0
144
0.0008202099737533
144
0.0
144
0.0
144
0.0
144
0.0
144
0.0008202099737533
144
0.0
144
0.0
144
0.0
144
0.0
144
1.0
144
0.0
144
0.0
144
0.0
144
0.0
144
1.0
147
0.0008202099737533
147
0.0
147
0.0
147
0.0
147
0.0
147
0.0008202099737533
147
0.0
147
0.0
147
0.0
147
0.0
147
1.0
147
0.0
147
0.0
147
0.0
147
0.0
147
1.0
  0
MATERIAL
  5
1D33D
102
{ACAD_XDICTIONARY
360
1D33E
102
}
102
{ACAD_REACTORS
330
6A
102
}
330
6A
100
AcDbMaterial
  1
ByLayer
 72
     0
 43
0.0008202099737533
 43
0.0
 43
0.0
 43
0.0
 43
0.0
 43
0.0008202099737533
 43
0.0
 43
0.0
 43
0.0
 43
0.0
 43
1.0
 43
0.0
 43
0.0
 43
0.0
 43
0.0
 43
1.0
 77
     0
 47
0.0008202099737533
 47
0.0
 47
0.0
 47
0.0
 47
0.0
 47
0.0008202099737533
 47
0.0
 47
0.0
 47
0.0
 47
0.0
 47
1.0
 47
0.0
 47
0.0
 47
0.0
 47
0.0
 47
1.0
171
     0
 49
0.0008202099737533
 49
0.0
 49
0.0
 49
0.0
 49
0.0
 49
0.0008202099737533
 49
0.0
 49
0.0
 49
0.0
 49
0.0
 49
1.0
 49
0.0
 49
0.0
 49
0.0
 49
0.0
 49
1.0
175
     0
142
0.0008202099737533
142
0.0
142
0.0
142
0.0
142
0.0
142
0.0008202099737533
142
0.0
142
0.0
142
0.0
142
0.0
142
1.0
142
0.0
142
0.0
142
0.0
142
0.0
142
1.0
179
     0
144
0.0008202099737533
144
0.0
144
0.0
144
0.0
144
0.0
144
0.0008202099737533
144
0.0
144
0.0
144
0.0
144
0.0
144
1.0
144
0.0
144
0.0
144
0.0
144
0.0
144
1.0
147
0.0008202099737533
147
0.0
147
0.0
147
0.0
147
0.0
147
0.0008202099737533
147
0.0
147
0.0
147
0.0
147
0.0
147
1.0
147
0.0
147
0.0
147
0.0
147
0.0
147
1.0
  0
MATERIAL
  5
1D34D
102
{ACAD_XDICTIONARY
360
1D34E
102
}
102
{ACAD_REACTORS
330
6A
102
}
330
6A
100
AcDbMaterial
  1
Global
 72
     0
 43
0.0008202099737533
 43
0.0
 43
0.0
 43
0.0
 43
0.0
 43
0.0008202099737533
 43
0.0
 43
0.0
 43
0.0
 43
0.0
 43
1.0
 43
0.0
 43
0.0
 43
0.0
 43
0.0
 43
1.0
 77
     0
 47
0.0008202099737533
 47
0.0
 47
0.0
 47
0.0
 47
0.0
 47
0.0008202099737533
 47
0.0
 47
0.0
 47
0.0
 47
0.0
 47
1.0
 47
0.0
 47
0.0
 47
0.0
 47
0.0
 47
1.0
171
     0
 49
0.0008202099737533
 49
0.0
 49
0.0
 49
0.0
 49
0.0
 49
0.0008202099737533
 49
0.0
 49
0.0
 49
0.0
 49
0.0
 49
1.0
 49
0.0
 49
0.0
 49
0.0
 49
0.0
 49
1.0
175
     0
142
0.0008202099737533
142
0.0
142
0.0
142
0.0
142
0.0
142
0.0008202099737533
142
0.0
142
0.0
142
0.0
142
0.0
142
1.0
142
0.0
142
0.0
142
0.0
142
0.0
142
1.0
179
     0
144
0.0008202099737533
144
0.0
144
0.0
144
0.0
144
0.0
144
0.0008202099737533
144
0.0
144
0.0
144
0.0
144
0.0
144
1.0
144
0.0
144
0.0
144
0.0
144
0.0
144
1.0
147
0.0008202099737533
147
0.0
147
0.0
147
0.0
147
0.0
147
0.0008202099737533
147
0.0
147
0.0
147
0.0
147
0.0
147
1.0
147
0.0
147
0.0
147
0.0
147
0.0
147
1.0
  0
MLEADERSTYLE
  5
1D37C
102
{ACAD_REACTORS
330
1D37B
102
}
330
1D37B
100
AcDbMLeaderStyle
170
     2
171
     1
172
     0
 90
        2
 40
0.0
 41
0.0
173
     1
 91
-1056964608
340
14
 92
       -2
290
     1
 42
2.0
291
     1
 43
0.36
  3
Standard
 44
4.0
300

342
11
174
     1
178
     6
175
     1
176
     0
 93
-1056964608
 45
4.0
292
     0
297
     0
 46
4.0
 94
-1056964608
 47
1.0
 49
1.0
140
1.0
293
     1
141
0.0
294
     1
177
     0
142
1.0
295
     0
296
     0
143
0.125
1001
ACAD_MLEADERVER
1070
     2
  0
MLINESTYLE
  5
18
102
{ACAD_REACTORS
330
17
102
}
330
17
100
AcDbMlineStyle
  2
STANDARD
 70
     0
  3

 62
   256
 51
90.0
 52
90.0
 71
     2
 49
0.5
 62
   256
  6
BYLAYER
 49
-0.5
 62
   256
  6
BYLAYER
  0
ACDBPLACEHOLDER
  5
F
102
{ACAD_REACTORS
330
E
102
}
330
E
  0
SCALE
  5
1D36A
102
{ACAD_REACTORS
330
1D369
102
}
330
1D369
100
AcDbScale
 70
     0
300
1:1
140
1.0
141
1.0
290
     1
  0
SCALE
  5
1D36B
102
{ACAD_REACTORS
330
1D369
102
}
330
1D369
100
AcDbScale
 70
     0
300
1:2
140
1.0
141
2.0
290
     0
  0
SCALE
  5
1D36C
102
{ACAD_REACTORS
330
1D369
102
}
330
1D369
100
AcDbScale
 70
     0
300
1:4
140
1.0
141
4.0
290
     0
  0
SCALE
  5
1D36D
102
{ACAD_REACTORS
330
1D369
102
}
330
1D369
100
AcDbScale
 70
     0
300
1:5
140
1.0
141
5.0
290
     0
  0
SCALE
  5
1D36E
102
{ACAD_REACTORS
330
1D369
102
}
330
1D369
100
AcDbScale
 70
     0
300
1:8
140
1.0
141
8.0
290
     0
  0
SCALE
  5
1D36F
102
{ACAD_REACTORS
330
1D369
102
}
330
1D369
100
AcDbScale
 70
     0
300
1:10
140
1.0
141
10.0
290
     0
  0
SCALE
  5
1D370
102
{ACAD_REACTORS
330
1D369
102
}
330
1D369
100
AcDbScale
 70
     0
300
1:16
140
1.0
141
16.0
290
     0
  0
SCALE
  5
1D371
102
{ACAD_REACTORS
330
1D369
102
}
330
1D369
100
AcDbScale
 70
     0
300
1:20
140
1.0
141
20.0
290
     0
  0
SCALE
  5
1D372
102
{ACAD_REACTORS
330
1D369
102
}
330
1D369
100
AcDbScale
 70
     0
300
1:30
140
1.0
141
30.0
290
     0
  0
SCALE
  5
1D373
102
{ACAD_REACTORS
330
1D369
102
}
330
1D369
100
AcDbScale
 70
     0
300
1:40
140
1.0
141
40.0
290
     0
  0
SCALE
  5
1D374
102
{ACAD_REACTORS
330
1D369
102
}
330
1D369
100
AcDbScale
 70
     0
300
1:50
140
1.0
141
50.0
290
     0
  0
SCALE
  5
1D375
102
{ACAD_REACTORS
330
1D369
102
}
330
1D369
100
AcDbScale
 70
     0
300
1:100
140
1.0
141
100.0
290
     0
  0
SCALE
  5
1D376
102
{ACAD_REACTORS
330
1D369
102
}
330
1D369
100
AcDbScale
 70
     0
300
2:1
140
2.0
141
1.0
290
     0
  0
SCALE
  5
1D377
102
{ACAD_REACTORS
330
1D369
102
}
330
1D369
100
AcDbScale
 70
     0
300
4:1
140
4.0
141
1.0
290
     0
  0
SCALE
  5
1D378
102
{ACAD_REACTORS
330
1D369
102
}
330
1D369
100
AcDbScale
 70
     0
300
8:1
140
8.0
141
1.0
290
     0
  0
SCALE
  5
1D379
102
{ACAD_REACTORS
330
1D369
102
}
330
1D369
100
AcDbScale
 70
     0
300
10:1
140
10.0
141
1.0
290
     0
  0
SCALE
  5
1D37A
102
{ACAD_REACTORS
330
1D369
102
}
330
1D369
100
AcDbScale
 70
     0
300
100:1
140
100.0
141
1.0
290
     0
  0
TABLESTYLE
  5
7F
102
{ACAD_XDICTIONARY
360
2237A
102
}
102
{ACAD_REACTORS
330
7E
102
}
330
7E
100
AcDbTableStyle
  3
Standard
 70
     0
 71
     0
 40
1.5
 41
1.5
280
     0
281
     0
  7
Standard
140
4.5
170
     2
 62
     0
 63
     7
283
     0
274
    -2
284
     1
 64
     0
275
    -2
285
     1
 65
     0
276
    -2
286
     1
 66
     0
277
    -2
287
     1
 67
     0
278
    -2
288
     1
 68
     0
279
    -2
289
     1
 69
     0
  7
Standard
140
6.0
170
     5
 62
     0
 63
     7
283
     0
274
    -2
284
     1
 64
     0
275
    -2
285
     1
 65
     0
276
    -2
286
     1
 66
     0
277
    -2
287
     1
 67
     0
278
    -2
288
     1
 68
     0
279
    -2
289
     1
 69
     0
  7
Standard
140
4.5
170
     5
 62
     0
 63
     7
283
     0
274
    -2
284
     1
 64
     0
275
    -2
285
     1
 65
     0
276
    -2
286
     1
 66
     0
277
    -2
287
     1
 67
     0
278
    -2
288
     1
 68
     0
279
    -2
289
     1
 69
     0
  0
VISUALSTYLE
  5
1D35B
102
{ACAD_XDICTIONARY
360
22591
102
}
102
{ACAD_REACTORS
330
1D355
102
}
330
1D355
100
AcDbVisualStyle
  2

 70
     4
 71
     0
 72
     2
 73
     0
 90
        0
 40
-0.6
 41
-30.0
 62
     5
 63
     7
 74
     1
 91
        4
 64
     7
 65
   257
 75
     1
175
     1
 42
1.0
 92
        0
 66
   257
 43
1.0
 76
     1
 77
     6
 78
     2
 67
     7
 79
     5
170
     0
171
     0
290
     0
174
     0
 93
        1
 44
0.0
173
     0
291
     0
 45
0.0
1001
ACAD
1000
AcDbSavedByObjectVersion
1070
     0
  0
VISUALSTYLE
  5
1D35D
102
{ACAD_XDICTIONARY
360
22595
102
}
102
{ACAD_REACTORS
330
1D355
102
}
330
1D355
100
AcDbVisualStyle
  2

 70
     6
 71
     1
 72
     2
 73
     2
 90
        0
 40
-0.6
 41
-30.0
 62
     5
 63
     7
 74
     2
 91
        2
 64
     7
 65
   257
 75
     2
175
     1
 42
179.0
 92
        0
 66
   257
 43
1.0
 76
     1
 77
     6
 78
     2
 67
     7
 79
     3
170
     0
171
     0
290
     0
174
     0
 93
        1
 44
0.0
173
     0
291
     0
 45
0.0
1001
ACAD
1000
AcDbSavedByObjectVersion
1070
     0
  0
VISUALSTYLE
  5
1D35C
102
{ACAD_XDICTIONARY
360
22593
102
}
102
{ACAD_REACTORS
330
1D355
102
}
330
1D355
100
AcDbVisualStyle
  2

 70
     5
 71
     0
 72
     2
 73
     0
 90
        0
 40
-0.6
 41
-30.0
 62
     5
 63
     7
 74
     1
 91
        4
 64
     7
 65
   257
 75
     1
175
     1
 42
1.0
 92
        0
 66
   257
 43
1.0
 76
     1
 77
     6
 78
     2
 67
     7
 79
     5
170
     0
171
     0
290
     0
174
     0
 93
        1
 44
0.0
173
     0
291
     0
 45
0.0
1001
ACAD
1000
AcDbSavedByObjectVersion
1070
     0
  0
VISUALSTYLE
  5
1D35A
102
{ACAD_XDICTIONARY
360
2258F
102
}
102
{ACAD_REACTORS
330
1D355
102
}
330
1D355
100
AcDbVisualStyle
  2

 70
     7
 71
     1
 72
     0
 73
     1
 90
        0
 40
-0.6
 41
-30.0
 62
     5
 63
     7
 74
     0
 91
        4
 64
     7
 65
   257
 75
     1
175
     1
 42
1.0
 92
        8
 66
     7
 43
1.0
 76
     1
 77
     6
 78
     2
 67
     7
 79
     5
170
     0
171
     0
290
     0
174
     0
 93
        1
 44
0.0
173
     0
291
     1
 45
0.0
1001
ACAD
1000
AcDbSavedByObjectVersion
1070
     0
  0
VISUALSTYLE
  5
1D361
102
{ACAD_XDICTIONARY
360
2259D
102
}
102
{ACAD_REACTORS
330
1D355
102
}
330
1D355
100
AcDbVisualStyle
  2

 70
    12
 71
     2
 72
     2
 73
     0
 90
        0
 40
-0.6
 41
-30.0
 62
     5
 63
     7
 74
     1
 91
        4
 64
     7
 65
   257
 75
     1
175
     1
 42
1.0
 92
        8
 66
     7
 43
1.0
 76
     1
 77
     6
 78
     2
 67
     7
 79
     5
170
     0
171
     0
290
     0
174
     0
 93
        1
 44
50.0
173
     0
291
     1
 45
0.0
1001
ACAD
1000
AcDbSavedByObjectVersion
1070
     0
  0
VISUALSTYLE
  5
1D365
102
{ACAD_XDICTIONARY
360
225A5
102
}
102
{ACAD_REACTORS
330
1D355
102
}
330
1D355
100
AcDbVisualStyle
  2

 70
    16
 71
     2
 72
     2
 73
     3
 90
        0
 40
-0.6
 41
-30.0
 62
     5
 63
     8
 74
     1
 91
        4
 64
     7
 65
   257
 75
     1
175
     1
 42
1.0
 92
        8
 66
     8
 43
1.0
 76
     1
 77
     6
 78
     2
 67
     7
 79
     5
170
     0
171
     0
290
     0
174
     0
 93
        1
 44
0.0
173
     0
291
     1
 45
0.0
1001
ACAD
1000
AcDbSavedByObjectVersion
1070
     0
  0
VISUALSTYLE
  5
1D35E
102
{ACAD_XDICTIONARY
360
22597
102
}
102
{ACAD_REACTORS
330
1D355
102
}
330
1D355
100
AcDbVisualStyle
  2

 70
     9
 71
     3
 72
     2
 73
     0
 90
        0
 40
-0.6
 41
-30.0
 62
     5
 63
     7
 74
     2
 91
        2
 64
     7
 65
   257
 75
     1
175
     1
 42
179.0
 92
        8
 66
     7
 43
1.0
 76
     1
 77
     6
 78
     2
 67
     7
 79
     3
170
     0
171
     0
290
     0
174
     0
 93
        1
 44
0.0
173
     0
291
     0
 45
0.0
1001
ACAD
1000
AcDbSavedByObjectVersion
1070
     0
  0
VISUALSTYLE
  5
1D360
102
{ACAD_XDICTIONARY
360
2259B
102
}
102
{ACAD_REACTORS
330
1D355
102
}
330
1D355
100
AcDbVisualStyle
  2

 70
    11
 71
     2
 72
     2
 73
     0
 90
        0
 40
-0.6
 41
-30.0
 62
     5
 63
     7
 74
     1
 91
        4
 64
     7
 65
   257
 75
     1
175
     1
 42
1.0
 92
        8
 66
     7
 43
1.0
 76
     1
 77
     6
 78
     2
 67
     7
 79
     5
170
     0
171
     0
290
     0
174
     0
 93
        1
 44
-50.0
173
     0
291
     1
 45
0.0
1001
ACAD
1000
AcDbSavedByObjectVersion
1070
     0
  0
VISUALSTYLE
  5
1D368
102
{ACAD_XDICTIONARY
360
225AB
102
}
102
{ACAD_REACTORS
330
1D355
102
}
330
1D355
100
AcDbVisualStyle
  2

 70
    22
 71
     2
 72
     2
 73
     0
 90
        0
 40
-0.6
 41
-30.0
 62
     5
 63
     7
 74
     1
 91
        4
 64
     7
 65
   257
 75
     1
175
     1
 42
1.0
 92
        8
 66
     7
 43
1.0
 76
     1
 77
     6
 78
     2
 67
     7
 79
     5
170
     0
171
     0
290
     0
174
     0
 93
        1
 44
0.0
173
     0
291
     1
 45
0.0
1001
ACAD
1000
AcDbSavedByObjectVersion
1070
     0
  0
VISUALSTYLE
  5
1D364
102
{ACAD_XDICTIONARY
360
225A3
102
}
102
{ACAD_REACTORS
330
1D355
102
}
330
1D355
100
AcDbVisualStyle
  2

 70
    15
 71
     2
 72
     2
 73
     0
 90
        0
 40
-0.6
 41
-30.0
 62
     5
 63
     7
 74
     1
 91
        4
 64
     7
 65
   257
 75
     1
175
     1
 42
1.0
 92
        8
 66
     7
 43
1.0
 76
     1
 77
     6
 78
     2
 67
     7
 79
     5
170
     0
171
     0
290
     0
174
     0
 93
        1
 44
0.0
173
     0
291
     1
 45
0.0
1001
ACAD
1000
AcDbSavedByObjectVersion
1070
     0
  0
VISUALSTYLE
  5
1D356
102
{ACAD_XDICTIONARY
360
22587
102
}
102
{ACAD_REACTORS
330
1D355
102
}
330
1D355
100
AcDbVisualStyle
  2

 70
     0
 71
     2
 72
     1
 73
     1
 90
        2
 40
-0.6
 41
30.0
 62
     5
 63
     7
 74
     0
 91
        4
 64
     7
 65
   257
 75
     1
175
     1
 42
1.0
 92
        8
 66
     7
 43
1.0
 76
     1
 77
     6
 78
     2
 67
     7
 79
     5
170
     0
171
     0
290
     0
174
     0
 93
       13
 44
0.0
173
     0
291
     1
 45
0.0
1001
ACAD
1000
AcDbSavedByObjectVersion
1070
     0
  0
VISUALSTYLE
  5
1D357
102
{ACAD_XDICTIONARY
360
22589
102
}
102
{ACAD_REACTORS
330
1D355
102
}
330
1D355
100
AcDbVisualStyle
  2

 70
     1
 71
     2
 72
     1
 73
     1
 90
        2
 40
-0.6
 41
30.0
 62
     5
 63
     7
 74
     1
 91
        4
 64
     7
 65
   257
 75
     1
175
     1
 42
1.0
 92
        0
 66
   257
 43
1.0
 76
     1
 77
     6
 78
     2
 67
     7
 79
     5
170
     0
171
     0
290
     0
174
     0
 93
       13
 44
0.0
173
     0
291
     1
 45
0.0
1001
ACAD
1000
AcDbSavedByObjectVersion
1070
     0
  0
VISUALSTYLE
  5
1D358
102
{ACAD_XDICTIONARY
360
2258B
102
}
102
{ACAD_REACTORS
330
1D355
102
}
330
1D355
100
AcDbVisualStyle
  2

 70
     2
 71
     2
 72
     2
 73
     1
 90
        2
 40
-0.6
 41
30.0
 62
     5
 63
     7
 74
     0
 91
        4
 64
     7
 65
   257
 75
     1
175
     1
 42
1.0
 92
        0
 66
     7
 43
1.0
 76
     1
 77
     6
 78
     2
 67
     7
 79
     5
170
     0
171
     0
290
     0
174
     0
 93
       13
 44
0.0
173
     0
291
     1
 45
0.0
1001
ACAD
1000
AcDbSavedByObjectVersion
1070
     0
  0
VISUALSTYLE
  5
1D359
102
{ACAD_XDICTIONARY
360
2258D
102
}
102
{ACAD_REACTORS
330
1D355
102
}
330
1D355
100
AcDbVisualStyle
  2

 70
     3
 71
     2
 72
     2
 73
     1
 90
        2
 40
-0.6
 41
30.0
 62
     5
 63
     7
 74
     1
 91
        4
 64
     7
 65
   257
 75
     1
175
     1
 42
1.0
 92
        0
 66
   257
 43
1.0
 76
     1
 77
     6
 78
     2
 67
     7
 79
     5
170
     0
171
     0
290
     0
174
     0
 93
       13
 44
0.0
173
     0
291
     1
 45
0.0
1001
ACAD
1000
AcDbSavedByObjectVersion
1070
     0
  0
VISUALSTYLE
  5
1D843
102
{ACAD_XDICTIONARY
360
225AF
102
}
102
{ACAD_REACTORS
330
1D355
102
}
330
1D355
100
AcDbVisualStyle
  2

 70
     6
 71
     1
 72
     2
 73
     2
 90
        0
 40
-0.6
 41
-30.0
 62
     5
 63
     7
 74
     2
 91
        2
 64
     7
 65
   257
 75
     2
175
     1
 42
40.0
 92
        0
 66
   257
 43
1.0
 76
     1
 77
     6
 78
     2
 67
     7
 79
     3
170
     0
171
     0
290
     0
174
     0
 93
        1
 44
0.0
173
     0
291
     0
 45
0.0
1001
ACAD
1000
AcDbSavedByObjectVersion
1070
     0
  0
VISUALSTYLE
  5
1D366
102
{ACAD_XDICTIONARY
360
225A7
102
}
102
{ACAD_REACTORS
330
1D355
102
}
330
1D355
100
AcDbVisualStyle
  2

 70
    20
 71
     2
 72
     2
 73
     0
 90
        0
 40
-0.6
 41
-30.0
 62
     5
 63
     7
 74
     1
 91
        4
 64
     7
 65
   257
 75
     1
175
     1
 42
1.0
 92
       10
 66
     7
 43
1.0
 76
     1
 77
     6
 78
     2
 67
     7
 79
     5
170
     0
171
     0
290
     0
174
     0
 93
        1
 44
0.0
173
     0
291
     1
 45
0.0
1001
ACAD
1000
AcDbSavedByObjectVersion
1070
     0
  0
VISUALSTYLE
  5
1D363
102
{ACAD_XDICTIONARY
360
225A1
102
}
102
{ACAD_REACTORS
330
1D355
102
}
330
1D355
100
AcDbVisualStyle
  2

 70
    14
 71
     2
 72
     2
 73
     0
 90
        0
 40
-0.6
 41
-30.0
 62
     5
 63
     7
 74
     1
 91
        4
 64
     7
 65
   257
 75
     7
175
     7
 42
1.0
 92
        8
 66
     7
 43
1.0
 76
     1
 77
     6
 78
     2
 67
     7
 79
     5
170
     0
171
     0
290
     0
174
     0
 93
        1
 44
0.0
173
     0
291
     1
 45
0.0
1001
ACAD
1000
AcDbSavedByObjectVersion
1070
     0
  0
VISUALSTYLE
  5
1D367
102
{ACAD_XDICTIONARY
360
225A9
102
}
102
{ACAD_REACTORS
330
1D355
102
}
330
1D355
100
AcDbVisualStyle
  2

 70
    21
 71
     2
 72
     2
 73
     0
 90
        0
 40
-0.6
 41
-30.0
 62
     5
 63
     7
 74
     1
 91
        4
 64
     7
 65
   257
 75
     1
175
     1
 42
1.0
 92
        9
 66
     7
 43
1.0
 76
     1
 77
     6
 78
     2
 67
     7
 79
     5
170
     0
171
     0
290
     0
174
     0
 93
        1
 44
0.0
173
     0
291
     1
 45
0.0
1001
ACAD
1000
AcDbSavedByObjectVersion
1070
     0
  0
VISUALSTYLE
  5
1D35F
102
{ACAD_XDICTIONARY
360
22599
102
}
102
{ACAD_REACTORS
330
1D355
102
}
330
1D355
100
AcDbVisualStyle
  2

 70
     8
 71
     2
 72
     2
 73
     0
 90
        0
 40
-0.6
 41
-30.0
 62
     5
 63
     7
 74
     1
 91
        0
 64
     7
 65
   257
 75
     1
175
     1
 42
1.0
 92
        8
 66
     8
 43
1.0
 76
     1
 77
     6
 78
     2
 67
     7
 79
     5
170
     0
171
     0
290
     0
174
     0
 93
       13
 44
0.0
173
     0
291
     0
 45
0.0
1001
ACAD
1000
AcDbSavedByObjectVersion
1070
     0
  0
VISUALSTYLE
  5
1D848
102
{ACAD_XDICTIONARY
360
225B9
102
}
102
{ACAD_REACTORS
330
1D355
102
}
330
1D355
100
AcDbVisualStyle
  2

 70
    27
 71
     2
 72
     2
 73
     1
 90
        2
 40
-0.6
 41
30.0
 62
     5
 63
     7
 74
     0
 91
        4
 64
     7
 65
   257
 75
     1
175
     1
 42
1.0
 92
        8
 66
   257
 43
1.0
 76
     1
 77
     6
 78
     2
 67
     8
 79
     3
170
     0
171
     0
290
     0
174
     0
 93
        5
 44
0.0
173
     0
291
     0
 45
0.0
1001
ACAD
1000
AcDbSavedByObjectVersion
1070
     0
  0
VISUALSTYLE
  5
1D847
102
{ACAD_XDICTIONARY
360
225B7
102
}
102
{ACAD_REACTORS
330
1D355
102
}
330
1D355
100
AcDbVisualStyle
  2

 70
    26
 71
     2
 72
     2
 73
     1
 90
        2
 40
-0.6
 41
30.0
 62
     5
 63
     7
 74
     1
 91
       10
 64
     7
 65
   257
 75
     2
175
     1
 42
1.0
 92
        8
 66
   257
 43
1.0
 76
     1
 77
     6
 78
     2
 67
     7
 79
     3
170
     0
171
     0
290
     0
174
     0
 93
        5
 44
0.0
173
     0
291
     0
 45
0.0
1001
ACAD
1000
AcDbSavedByObjectVersion
1070
     0
  0
VISUALSTYLE
  5
1D844
102
{ACAD_XDICTIONARY
360
225B1
102
}
102
{ACAD_REACTORS
330
1D355
102
}
330
1D355
100
AcDbVisualStyle
  2

 70
    23
 71
     2
 72
     2
 73
     3
 90
        0
 40
-0.6
 41
-30.0
 62
     5
 63
     7
 74
     2
 91
        2
 64
     7
 65
     7
 75
     1
175
     1
 42
40.0
 92
        8
 66
     7
 43
1.0
 76
     1
 77
     6
 78
     2
 67
     7
 79
     3
170
     0
171
     0
290
     0
174
     0
 93
        1
 44
0.0
173
     0
291
     0
 45
0.0
1001
ACAD
1000
AcDbSavedByObjectVersion
1070
     0
  0
VISUALSTYLE
  5
1D845
102
{ACAD_XDICTIONARY
360
225B3
102
}
102
{ACAD_REACTORS
330
1D355
102
}
330
1D355
100
AcDbVisualStyle
  2

 70
    24
 71
     1
 72
     2
 73
     2
 90
        0
 40
-0.6
 41
-30.0
 62
     5
 63
     7
 74
     2
 91
        2
 64
     7
 65
     7
 75
     1
175
     1
 42
40.0
 92
       11
 66
     7
 43
1.0
 76
     1
 77
     6
 78
     2
 67
     7
 79
     6
170
     0
171
     0
290
     0
174
     0
 93
        1
 44
0.0
173
     0
291
     0
 45
0.0
1001
ACAD
1000
AcDbSavedByObjectVersion
1070
     0
  0
VISUALSTYLE
  5
1D362
102
{ACAD_XDICTIONARY
360
2259F
102
}
102
{ACAD_REACTORS
330
1D355
102
}
330
1D355
100
AcDbVisualStyle
  2

 70
    13
 71
     2
 72
     2
 73
     0
 90
        0
 40
-0.6
 41
-30.0
 62
     5
 63
     7
 74
     1
 91
        4
 64
     7
 65
   257
 75
     1
175
     1
 42
1.0
 92
       12
 66
     7
 43
1.0
 76
     1
 77
     6
 78
     2
 67
     7
 79
     5
170
     0
171
     0
290
     0
174
     0
 93
        1
 44
0.0
173
     0
291
     1
 45
0.0
1001
ACAD
1000
AcDbSavedByObjectVersion
1070
     0
  0
VISUALSTYLE
  5
1D842
102
{ACAD_XDICTIONARY
360
225AD
102
}
102
{ACAD_REACTORS
330
1D355
102
}
330
1D355
100
AcDbVisualStyle
  2

 70
     5
 71
     0
 72
     2
 73
     0
 90
        0
 40
-0.6
 41
-30.0
 62
     5
 63
     7
 74
     1
 91
        4
 64
     7
 65
   257
 75
     1
175
     1
 42
1.0
 92
        0
 66
   257
 43
1.0
 76
     1
 77
     6
 78
     2
 67
     7
 79
     3
170
     0
171
     0
290
     0
174
     0
 93
        1
 44
0.0
173
     0
291
     0
 45
0.0
1001
ACAD
1000
AcDbSavedByObjectVersion
1070
     0
  0
VISUALSTYLE
  5
1D846
102
{ACAD_XDICTIONARY
360
225B5
102
}
102
{ACAD_REACTORS
330
1D355
102
}
330
1D355
100
AcDbVisualStyle
  2

 70
    25
 71
     2
 72
     2
 73
     1
 90
        1
 40
0.5
 41
-30.0
 62
     5
 63
     7
 74
     1
 91
        0
 64
     7
 65
   257
 75
     1
175
     1
 42
1.0
 92
        8
 66
     7
 43
1.0
 76
     1
 77
     6
 78
     2
 67
     7
 79
     3
170
     0
171
     0
290
     0
174
     0
 93
       13
 44
0.0
173
     0
291
     0
 45
0.0
1001
ACAD
1000
AcDbSavedByObjectVersion
1070
     0
  0
DICTIONARYVAR
  5
1D386
102
{ACAD_REACTORS
330
5E
102
}
330
5E
100
DictionaryVariables
280
     0
  1
1:1
  0
DICTIONARYVAR
  5
1D384
102
{ACAD_REACTORS
330
5E
102
}
330
5E
100
DictionaryVariables
280
     0
  1
STANDARD
  0
DICTIONARYVAR
  5
84
102
{ACAD_REACTORS
330
5E
102
}
330
5E
100
DictionaryVariables
280
     0
  1
STANDARD
  0
DICTIONARYVAR
  5
5F
102
{ACAD_REACTORS
330
5E
102
}
330
5E
100
DictionaryVariables
280
     0
  1
2
  0
DICTIONARYVAR
  5
63
102
{ACAD_REACTORS
330
5E
102
}
330
5E
100
DictionaryVariables
280
     0
  1
1
  0
DICTIONARYVAR
  5
2246F
102
{ACAD_REACTORS
330
5E
102
}
330
5E
100
DictionaryVariables
280
     0
  1
0
  0
DICTIONARYVAR
  5
1D388
102
{ACAD_REACTORS
330
5E
102
}
330
5E
100
DictionaryVariables
280
     0
  1
1
  0
DICTIONARYVAR
  5
1D389
102
{ACAD_REACTORS
330
5E
102
}
330
5E
100
DictionaryVariables
280
     0
  1
15
  0
DICTIONARYVAR
  5
1D387
102
{ACAD_REACTORS
330
5E
102
}
330
5E
100
DictionaryVariables
280
     0
  1
0
  0
DICTIONARYVAR
  5
22570
102
{ACAD_REACTORS
330
5E
102
}
330
5E
100
DictionaryVariables
280
     0
  1
1.570796
  0
DICTIONARYVAR
  5
22571
102
{ACAD_REACTORS
330
5E
102
}
330
5E
100
DictionaryVariables
280
     0
  1
1.570796
  0
DICTIONARYVAR
  5
1D385
102
{ACAD_REACTORS
330
5E
102
}
330
5E
100
DictionaryVariables
280
     0
  1
0
  0
DICTIONARYVAR
  5
1AE42
102
{ACAD_REACTORS
330
5E
102
}
330
5E
100
DictionaryVariables
280
     0
  1

  0
DICTIONARYVAR
  5
2246E
102
{ACAD_REACTORS
330
5E
102
}
330
5E
100
DictionaryVariables
280
     0
  1
127
  0
DICTIONARYVAR
  5
22572
102
{ACAD_REACTORS
330
5E
102
}
330
5E
100
DictionaryVariables
280
     0
  1
2
  0
DICTIONARY
  5
1D8AA
102
{ACAD_REACTORS
330
1D89F
102
}
330
1D89F
100
AcDbDictionary
281
     1
  0
XRECORD
  5
198BF
102
{ACAD_REACTORS
330
198BE
102
}
330
198BE
100
AcDbXrecord
280
     1
330
0
330
0
330
0
330
0
330
0
330
0
330
0
330
0
330
0
330
0
330
0
330
0
330
0
330
0
330
0
330
0
330
0
330
0
330
0
330
0
330
0
330
0
330
0
330
0
330
0
330
0
330
0
330
0
330
0
330
0
330
0
330
0
330
0
330
0
330
0
330
0
330
0
330
0
330
0
330
0
330
0
330
0
330
0
330
0
330
0
330
0
330
0
330
0
330
0
330
0
330
0
330
0
330
0
330
0
330
0
330
0
330
0
330
0
330
0
330
0
330
0
330
0
330
0
330
0
330
0
330
0
330
0
330
0
330
0
330
0
330
0
330
0
330
0
330
0
330
0
330
0
330
0
330
0
330
0
330
0
330
0
330
0
330
0
330
0
330
0
330
0
330
0
330
0
330
0
330
0
330
0
330
0
330
0
330
0
330
0
330
0
330
0
330
0
330
0
330
0
330
0
330
0
330
0
330
0
330
0
330
0
330
0
330
0
330
0
330
0
330
0
330
0
330
0
  0
DICTIONARY
  5
22580
330
D3
100
AcDbDictionary
280
     1
281
     1
  3
ACAD_XREC_ROUNDTRIP
360
22581
  0
DICTIONARY
  5
22582
330
D7
100
AcDbDictionary
280
     1
281
     1
  3
ACAD_XREC_ROUNDTRIP
360
22583
  0
DICTIONARY
  5
1D417
330
22
100
AcDbDictionary
280
     1
281
     1
  3
ACAD_XREC_ROUNDTRIP
360
2257E
  3
ADSK_XREC_LAYOUTTHUMBNAIL
360
1D418
  0
DICTIONARY
  5
1D346
330
1D345
100
AcDbDictionary
280
     1
281
     1
  3
ACAD_XREC_ROUNDTRIP
360
22585
  3
BUMPTILE
360
1D348
  3
DIFFUSETILE
360
1D347
  3
OPACITYTILE
360
1D34B
  3
REFLECTIONTILE
360
1D34A
  3
REFRACTIONTILE
360
1D34C
  3
SPECULARTILE
360
1D349
  0
DICTIONARY
  5
1D33E
330
1D33D
100
AcDbDictionary
280
     1
281
     1
  3
ACAD_XREC_ROUNDTRIP
360
22584
  3
BUMPTILE
360
1D340
  3
DIFFUSETILE
360
1D33F
  3
OPACITYTILE
360
1D343
  3
REFLECTIONTILE
360
1D342
  3
REFRACTIONTILE
360
1D344
  3
SPECULARTILE
360
1D341
  0
DICTIONARY
  5
1D34E
330
1D34D
100
AcDbDictionary
280
     1
281
     1
  3
ACAD_XREC_ROUNDTRIP
360
22586
  3
BUMPTILE
360
1D350
  3
DIFFUSETILE
360
1D34F
  3
OPACITYTILE
360
1D353
  3
REFLECTIONTILE
360
1D352
  3
REFRACTIONTILE
360
1D354
  3
SPECULARTILE
360
1D351
  0
DICTIONARY
  5
2237A
330
7F
100
AcDbDictionary
280
     1
281
     1
  3
ACAD_ROUNDTRIP_2008_TABLESTYLE_CELLSTYLEMAP
360
22573
  3
ACAD_XREC_ROUNDTRIP
360
2257F
  0
DICTIONARY
  5
22591
330
1D35B
100
AcDbDictionary
280
     1
281
     1
  3
ACAD_XREC_ROUNDTRIP
360
22592
  0
DICTIONARY
  5
22595
330
1D35D
100
AcDbDictionary
280
     1
281
     1
  3
ACAD_XREC_ROUNDTRIP
360
22596
  0
DICTIONARY
  5
22593
330
1D35C
100
AcDbDictionary
280
     1
281
     1
  3
ACAD_XREC_ROUNDTRIP
360
22594
  0
DICTIONARY
  5
2258F
330
1D35A
100
AcDbDictionary
280
     1
281
     1
  3
ACAD_XREC_ROUNDTRIP
360
22590
  0
DICTIONARY
  5
2259D
330
1D361
100
AcDbDictionary
280
     1
281
     1
  3
ACAD_XREC_ROUNDTRIP
360
2259E
  0
DICTIONARY
  5
225A5
330
1D365
100
AcDbDictionary
280
     1
281
     1
  3
ACAD_XREC_ROUNDTRIP
360
225A6
  0
DICTIONARY
  5
22597
330
1D35E
100
AcDbDictionary
280
     1
281
     1
  3
ACAD_XREC_ROUNDTRIP
360
22598
  0
DICTIONARY
  5
2259B
330
1D360
100
AcDbDictionary
280
     1
281
     1
  3
ACAD_XREC_ROUNDTRIP
360
2259C
  0
DICTIONARY
  5
225AB
330
1D368
100
AcDbDictionary
280
     1
281
     1
  3
ACAD_XREC_ROUNDTRIP
360
225AC
  0
DICTIONARY
  5
225A3
330
1D364
100
AcDbDictionary
280
     1
281
     1
  3
ACAD_XREC_ROUNDTRIP
360
225A4
  0
DICTIONARY
  5
22587
330
1D356
100
AcDbDictionary
280
     1
281
     1
  3
ACAD_XREC_ROUNDTRIP
360
22588
  0
DICTIONARY
  5
22589
330
1D357
100
AcDbDictionary
280
     1
281
     1
  3
ACAD_XREC_ROUNDTRIP
360
2258A
  0
DICTIONARY
  5
2258B
330
1D358
100
AcDbDictionary
280
     1
281
     1
  3
ACAD_XREC_ROUNDTRIP
360
2258C
  0
DICTIONARY
  5
2258D
330
1D359
100
AcDbDictionary
280
     1
281
     1
  3
ACAD_XREC_ROUNDTRIP
360
2258E
  0
DICTIONARY
  5
225AF
330
1D843
100
AcDbDictionary
280
     1
281
     1
  3
ACAD_XREC_ROUNDTRIP
360
225B0
  0
DICTIONARY
  5
225A7
330
1D366
100
AcDbDictionary
280
     1
281
     1
  3
ACAD_XREC_ROUNDTRIP
360
225A8
  0
DICTIONARY
  5
225A1
330
1D363
100
AcDbDictionary
280
     1
281
     1
  3
ACAD_XREC_ROUNDTRIP
360
225A2
  0
DICTIONARY
  5
225A9
330
1D367
100
AcDbDictionary
280
     1
281
     1
  3
ACAD_XREC_ROUNDTRIP
360
225AA
  0
DICTIONARY
  5
22599
330
1D35F
100
AcDbDictionary
280
     1
281
     1
  3
ACAD_XREC_ROUNDTRIP
360
2259A
  0
DICTIONARY
  5
225B9
330
1D848
100
AcDbDictionary
280
     1
281
     1
  3
ACAD_XREC_ROUNDTRIP
360
225BA
  0
DICTIONARY
  5
225B7
330
1D847
100
AcDbDictionary
280
     1
281
     1
  3
ACAD_XREC_ROUNDTRIP
360
225B8
  0
DICTIONARY
  5
225B1
330
1D844
100
AcDbDictionary
280
     1
281
     1
  3
ACAD_XREC_ROUNDTRIP
360
225B2
  0
DICTIONARY
  5
225B3
330
1D845
100
AcDbDictionary
280
     1
281
     1
  3
ACAD_XREC_ROUNDTRIP
360
225B4
  0
DICTIONARY
  5
2259F
330
1D362
100
AcDbDictionary
280
     1
281
     1
  3
ACAD_XREC_ROUNDTRIP
360
225A0
  0
DICTIONARY
  5
225AD
330
1D842
100
AcDbDictionary
280
     1
281
     1
  3
ACAD_XREC_ROUNDTRIP
360
225AE
  0
DICTIONARY
  5
225B5
330
1D846
100
AcDbDictionary
280
     1
281
     1
  3
ACAD_XREC_ROUNDTRIP
360
225B6
  0
XRECORD
  5
22581
102
{ACAD_REACTORS
330
22580
102
}
330
22580
100
AcDbXrecord
280
     1
102
SHADEPLOT
 70
     0
102
SHADEPLOTRESLEVEL
 70
     2
102
SHADEPLOTCUSTOMDPI
 70
   300
  0
XRECORD
  5
22583
102
{ACAD_REACTORS
330
22582
102
}
330
22582
100
AcDbXrecord
280
     1
102
SHADEPLOT
 70
     0
102
SHADEPLOTRESLEVEL
 70
     2
102
SHADEPLOTCUSTOMDPI
 70
   300
  0
XRECORD
  5
2257E
102
{ACAD_REACTORS
330
1D417
102
}
330
1D417
100
AcDbXrecord
280
     1
102
SHADEPLOT
 70
     0
102
SHADEPLOTRESLEVEL
 70
     2
102
SHADEPLOTCUSTOMDPI
 70
   300
  0
XRECORD
  5
1D418
102
{ACAD_REACTORS
330
1D417
102
}
330
1D417
100
AcDbXrecord
280
     1
310
28000000000100006B0000000100080000000000006B0000000000000000000000010000000000003028210000000000FFFFFF000000000000000000000000000000000000000000000000000000000000000000330000006600000099000000CC000000FF00000000330000333300006633000099330000CC330000FF3300
310
0000660000336600006666000099660000CC660000FF66000000990000339900006699000099990000CC990000FF99000000CC000033CC000066CC000099CC0000CCCC0000FFCC000000FF000033FF000066FF000099FF0000CCFF0000FFFF000000003300330033006600330099003300CC003300FF003300003333003333
310
33006633330099333300CC333300FF33330000663300336633006666330099663300CC663300FF66330000993300339933006699330099993300CC993300FF99330000CC330033CC330066CC330099CC3300CCCC3300FFCC330000FF330033FF330066FF330099FF3300CCFF3300FFFF330000006600330066006600660099
310
006600CC006600FF00660000336600333366006633660099336600CC336600FF33660000666600336666006666660099666600CC666600FF66660000996600339966006699660099996600CC996600FF99660000CC660033CC660066CC660099CC6600CCCC6600FFCC660000FF660033FF660066FF660099FF6600CCFF6600
310
FFFF660000009900330099006600990099009900CC009900FF00990000339900333399006633990099339900CC339900FF33990000669900336699006666990099669900CC669900FF66990000999900339999006699990099999900CC999900FF99990000CC990033CC990066CC990099CC9900CCCC9900FFCC990000FF99
310
0033FF990066FF990099FF9900CCFF9900FFFF99000000CC003300CC006600CC009900CC00CC00CC00FF00CC000033CC003333CC006633CC009933CC00CC33CC00FF33CC000066CC003366CC006666CC009966CC00CC66CC00FF66CC000099CC003399CC006699CC009999CC00CC99CC00FF99CC0000CCCC0033CCCC0066CC
310
CC0099CCCC00CCCCCC00FFCCCC0000FFCC0033FFCC0066FFCC0099FFCC00CCFFCC00FFFFCC000000FF003300FF006600FF009900FF00CC00FF00FF00FF000033FF003333FF006633FF009933FF00CC33FF00FF33FF000066FF003366FF006666FF009966FF00CC66FF00FF66FF000099FF003399FF006699FF009999FF00CC
310
99FF00FF99FF0000CCFF0033CCFF0066CCFF0099CCFF00CCCCFF00FFCCFF0000FFFF0033FFFF0066FFFF0099FFFF00CCFFFF00FFFFFF00000000000D0D0D001A1A1A00282828003535350043434300505050005D5D5D006B6B6B00787878008686860093939300A1A1A100AEAEAE00BBBBBB00C9C9C900D6D6D600E4E4E400
310
F1F1F100FFFFFF000000000000000000000000000000000000000000000000000000000000000000000000000000000000000000000000000000000000000000000000000000000000000000000000000000000000000000000000000000000000000000000000000000000000000000000000000000000000000000000000
310
00000000000000000000000000000000000000000000000000000000000000000000000000000000000000000000000000000000000000000000000000000000000000000000000000000000000000000000000000000000000000000000000000000000000000000000000000000000000000000000000000000000000000
310
00000000000000000000000000000000000000000000000000000000000000000000000000000000000000000000000000000000000000000000000000000000000000000000000000000000000000000000000000000000000000000000000000000000000000000000000000000000000000000000000000000000000000
310
00000000000000000000000000000000000000000000000000000000000000000000000000000000000000000000000000000000000000000000000000000000000000000000000000000000000000000000000000000000000000000000000000000000000000000000000000000000000000000000000000000000000000
310
00000000000000000000000000000000000000000000000000000000000000000000000000000000000000000000000000000000000000000000000000000000000000000000000000000000000000000000000000000000000000000000000000000000000000000000009300000000000000000000000000000000000000
310
00000000000000000000000000000000000000000000000000000000000000000000000000000000000000000000000000000000000000000000000000000000000000000000000000000000000000000000000000000000000000000000000000000000000000000000000000009300000000000000000000000000000000
310
00000000000000000000000000000000000000000000000000000000000000000000000000000000000000000000000000000000000000000000000000000000000000000000000000000000000000000000000000000000000000000000000000000000000000000000000000930000009393939300000000000000000000
310
00000000000000000000000000000000000000000000000000000000000000000000000000000000000000000000000000000000000000000000000000000000000000000000000000000000000000000000000000000000000000000000000000000000000000009393939300000000930000000000000000000000000000
310
00000000000000000000000000000000000000000000000000000000000000000000000000000000000000000000000000000000000000000000000000000000000000000000000000000000000000000000000000000000000000000000000000000000000000000000000000000093939393939393939393939393939393
310
93939393939393939393939393939393939393939393939393939393939393939393939393939393939393939393939393939393939393939393939393939393939393939393939393939393939393939393939393939393939393939393939393939393939393939393939393939393939393000000000000000000000000
310
00000000000000000000000000000000000000000000000000000000000000000000000000000000000000000000000000000000000000000000000000000000000000000000000000000000000000000000000000000000000000000000000000000000000000000000000000000000009300939393939393000000000000
310
00000000000000000000000000000000000000000000000000000000000000000000000000000000000000000000000000000000000000000000000000000000000000000000000000000000000000000000000000000000000000000000000000000000000000000000000093939393939393009300000000000000000000
310
00000000000000000000000000000000000000000000000000000000000000000000000000000000000000000000000000000000000000000000000000000000000000000000000000000000000000000000000000000000000000000000000000000000000000000000000000000000000000930000000000939300000000
310
00000000000000000000000000000000000000000000000000000000000000000000000000000000000000000000000000000000000000000000000000000000000000000000000000000000000000000000000000000000000000000000000000000000000000000000000000009393930000000000930000000000000000
310
00000000000000000000000000000000000000000000000000000000000000000000000000000000000000000000000000000000000000000000000000000000000000000000000000000000000000000000000000000000000000000000000000000000000000000000000000000000000000000093000000000000000000
310
00000000000000000000000000000000000000000000000000000000000000000000000000000000000000000000930000000000000093000000000093000000000000000000000000000000000000000000000000000000000000000000000000000000000000000000000000000000000000000000000093000000000000
310
00000000000000000000000000000000000000000000000000000000000000000000000000000000000000000000000000000000000000000000000000000000000000000000000000000000000000000000000000000000000000000000000000000000000000000000000000000000000000000000009300000000000000
310
00000000000000000000000000000000000000000000000000000000000000000000000000000000000000000000939300939300000000009300000000930093000000000000000000000000000000000000000000000000000000000000000000000000000000000000000000000000000000000000000000009300000000
310
00000000000000000000000000000000000000000000000000000000000000000000000000000000000000000000000000000000000000000000000000000000000000000000000000000000000000000000000000000000000000000000000000000000000000000000000000000000000000000000000000930000000000
310
00000000000000000000000000000000000000000000000000000000000000000000000000000000000000000000000093000000930000000000930000009300000093000000000000000000000000000000000000000000000000000000000000000000000000000000000000000000000000000000000000000000930000
310
00000000000000000000000000000000000000000000000000000000000000000000000000000000000000000000000000000000000000000000000000000000000000000000000000000000000000000000000000000000000000000000000000000000000000000000000000000000000000000000000000000093000000
310
00000000000000000000000000000000000000000000000000000000000000000000000000000000000000000000000000009300000093000093939393939393000000009300000000000000000000000000000000000000000000000000000000000000000000000000000000000000000000000000000000000000000093
310
00000000000000000000000000000000000000000000000000000000000000000000000000000000000000000000000000000000000000000000000000000000000000000000000000000000000000000000000000000000000000000000000000000000000000000000000000000000000000000000000000000000009300
310
00000000000000000000000000000000000000000000000000000000000000000000000000000000000000000000000000000000939300939300000093009300009300000000930000000000000000000000000000000000000000000000000000000000000000000000000000000000000000000000000000000000000000
310
00930000000000000000000000000000000000000000000000000000000000000000000000000000000000000000000000000000000000000000000000000000000000000000000000000000000000000000000000000000000000000000000000000000000000000000000000000000000000000000000000000000000000
310
93000000000000000000000000000000000000000000000000000000000000000000000000000000000000000000000000000000000093009300000000000093930000009300000093000000000000000000000000000000000000000000000000000000000000000000000000000000000000000000000000000000000000
310
00000093000000000000000000000000000000000000000000000000000000000000000000000000000000000000000000000000000000000000000000000000000000000000000000000000000000000000000000000000000000000000000000000000000000000000000000000000000000000000000000000000000000
310
00009300000000000000000000000000000000000000000000000000000000000000000000000000000000000000000000000000000000009300000093000000009393000000930000009300000000000000000000000000000000000000000000000000000000000000000000000000000000000000000000000000000000
310
00000000009300000000000000000000000000000000000000000000000000000000000000000000000000000000000000000000000000000000000000000000000000000000000000000000000000000000000000000000000000000000000000000000000000000000000000000000000000000000000000000000000000
310
00000000930000000000000000000000000000000000000000000000000000000000000000000000000000000000000000000000000000000000009393939300000000009300000000939393000000000000000000000000000000000000000000000000000000000000000000000000000000000000000000000000000000
310
00000000000000930000000000000000000000000000000000000000000000000000000000000000000000000000000000000000000000000000000000000000000000000000000000000000000000000000000000000000000000000000000000000000000000000000000000000000000000000000000000000000000000
310
00000000000093000000000000000000000000000000000000000000000000000000000000000000000000000000000000000000000000000000000000000000000000000000000000000000000000000000000000000000000000000000000000000000000000000000000000000000000000000000000000000000000000
310
00000000000000000093000000000000000000000000000000000000000000000000000000000000000000000000000000000000000000000000000000000000000000000000000000000000000000000000000000000000000000000000000000000000000000000000000000000000000000000000000000000000000000
310
00000000000000009300000000000000000000000000000000000000000000000000000000000000000000000000000000000000000000000000000000000000000000000000000000000000000000000000000000000000000000000000000000000000000000000000000000000000000000000000000000000000000000
310
00000000000000000000009300000000000000000000000000000000000000000000000000000000000000000000000000000000000000000000000000000000000000000000000000000000000000000000000000000000000000000000000000000000000000000000000000000000000000000000000000000000000000
310
00000000000000000000930000000000000000000000000000000000000000000000000000000000000000000000000000000000000000000000000000000000000000000000000000000000000000000000000000000000000000000000000000000000000000000000000000000000000000000000000000000000000000
310
00000000000000000000000000930000000000000000000000000000000000000000000000000000000000000000000000000000000000000000000000000000000000000000000000000000000000000000000000000000000000000000000000000000000000000000000000000000000000000000000000000000000000
310
00000000000000000000000093000000000000000000000000000000000000000000000000000000000000000000000000000000000000000000000000000000000000000000000000000000000000000000000000000000000000000000000000000000000000000000000000000000000000000000000000000000000000
310
00000000000000000000000000000093000000000000000000000000000000000000000000000000000000000000000000000000000000000000000000000000000000000000000000000000000000000000000000000000000000000000000000000000000000000000000000000000000000000000000000000000000000
310
00000000000000000000000000009300000000000000000000000000000000000000000000000000000000000000000000000000000000000000000000000000000000000000000000000000000000000000000000000000000000000000000000000000000000000000000000000000000000000000000000000000000000
310
00000000000000000000000000000000009300000000000000000000000000000000000000000000000000000000000000000000000000000000000000000000000000000000000000000000000000000000000000000000000000000000000000000000000000000000000000000000000000000000000000000000000000
310
00000000000000000000000000000000930000000000000000000000000000000000000000000000000000000000000000000000000000000000000000000000000000000000000000000000000000000000000000000000000000000000000000000000000000000000000000000000000000000000000000000000000000
310
00000000000000000000000000000000000000930000000000000000000000000000000000000000000000000000000000000000000000000000000000000000000000000000000000000000000000000000000000000000000000000000000000000000000000000000000000000000000000000000000000000000000000
310
00000000000000000000000000000000000093000000000000000000000000000000000000000000000000000000000000000000000000000000000000000000000000000000000000000000000000000000000000000000000000000000000000000000000000000000000000000000000000000000000000000000000000
310
00000000000000000000000000000000000000000093000000000000000000000000000000000000000000000000000000000000000000000000000000000000000000000000000000000000000000000000000000000000000000000000000000000000000000000000000000000000000000000000000000000000000000
310
00000000000000000000000000000000000000009300000000000000000000000000000000000000000000000000000000000000000000000000000000000000000000000000000000000000000000000000000000000000000000000000000000000000000000000000000000000000000000000000000000000000000000
310
00000000000000000000000000000000000000000000009300000000000000000000000000000000000000000000000000000000000000000000000000000000000000000000000000000000000000000000000000000000000000000000000000000000000000000000000000000000000000000000000000000000000000
310
00000000000000000000000000000000000000000000930000000000000000000000000000000000000000000000000000000000000000000000000000000000000000000000000000000000000000000000000000000000000000000000000000000000000000000000000000000000000000000000000000000000000000
310
00000000000000000000000000000000000000000000000000930000000000000000000000000000000000000000000000000000000000000000000000000000000000000000000000000000000000000000000000000000000000000000000000000000000000000000000000000000000000000000000000000000000000
310
00000000000000000000000000000000000000000000000093000000000000000000000000000000000000000000000000000000000000000000000000000000000000000000000000000000000000000000000000000000000000000000000000000000000000000000000000000000000000000000000000000000000000
310
00000000000000000000000000000000000000000000000000000093000000000000000000000000000000000000000000000000000000000000000000000000000000000000000000000000000000000000000000000000000000000000000000000000000000000000000000000000000000000000000000000000000000
310
00000000000000000000000000000000000000000000000000009300000000000000000000000000000000000000000000000000000000000000000000000000000000000000000000000000000000000000000000000000000000000000000000000000000000000000000000000000000000000000000000000000000000
310
00000000000000000000000000000000000000000000000000000000009300000000000000000000000000000000000000000000000000000000000000000000000000000000000000000000000000000000000000000000000000000000000000000000000000000000000000000000000000000000000000000000000000
310
00000000000000000000000000000000000000000000000000000000930000000000000000000000000000000000000000000000000000000000000000000000000000000000000000000000000000000000000000000000000000000000000000000000000000000000000000000000000000000000000000000000000000
310
00000000000000000000000000000000000000000000000000000000000000930000000000000000000000000000000000000000000000000000000000000000000000000000000000000000000000000000000000000000000000000000000000000000000000000000000000000000000000000000000000000000000000
310
00000000000000000000000000000000000000000000000000000000000093000000000000000000000000000000000000000000000000000000000000000000000000000000000000000000000000000000000000000000000000000000000000000000000000000000000000000000000000000000000000000000000000
310
00000000000000000000000000000000000000000000000000000000000000000093000000000000000000000000000000000000000000000000000000000000000000000000000000000000000000000000000000000000000000000000000000000000000000000000000000000000000000000000000000000000000000
310
00000000000000000000000000000000000000000000000000000000000000009300000000000000000000000000000000000000000000000000000000000000000000000000000000000000000000000000000000000000000000000000000000000000000000000000000000000000000000000000000000000000000000
310
00000000000000000000000000000000000000000000000000000000000000000000009300000000000000000000000000000000000000000000000000000000000000000000000000000000000000000000000000000000000000000000000000000000000000000000000000000000000000000000000000000000000000
310
00000000000000000000000000000000000000000000000000000000000000000000930000000000000000000000000000000000000000000000000000000000000000000000000000000000000000000000000000000000000000000000000000000000000000000000000000000000000000000000000000000000000000
310
00000000000000000000000000000000000000000000000000000000000000000000000000930000000000000000000000000000000000000000000000000000000000000000000000000000000000000000000000000000000000000000000000000000000000000000000000000000000000000000000000000000000000
310
00000000000000000000000000000000000000000000000000000000000000000000000093000000000000000000000000000000000000000000000000000000000000000000000000000000000000000000000000000000000000000000000000000000000000000000000000000000000000000000000000000000000000
310
00000000000000000000000000000000000000000000000000000000000000000000000000000093000000000000000000000000000000000000000000000000000000000000000000000000000000000000000000000000000000000000000000000000000000000000000000000000000000000000000000000000000000
310
000000000000000000000000000000000000000000000000000000000000000000000000000093000000000000000000000000000000000000000000000000000000000000000000000000000000000000000000000000000000000000000000000000F5F5F5F5F5F5F593F593939393939393939393939393939393939393
310
93939393939393939393939393939393939393939393939393939393939393939393939393939393939393939393939393939393939393939393939393939393939393939300000000000000000000000000000000000000000000000000000000000000000000000000000000000000000000000000000000000000000000
310
00000000000000000000000000000000000000000000000000000000000000000000000000000000930000F5F5F5F5F5F5F5F5F5F5F5F5F5F5F5F5F5F5F5F5F5F5F5F5F5F5F5F5F5F5F5F5F5F5F5F5F5F5F5F5F5F5F5F5F5F5F5F5F5F5F5F5F5F5F5F5F5F5F5F5F5F5F5F5F5F5F5F5F5F5F5F5F5F5F5F5F5F5F5F5F5F5F5F5
310
F5F5F5F5F5F5F5F5F5F5F5F5F5F5F5F5F5F5F5F5F5F5F5F5F5F5F5F5F5F5F5F5F5F5F5F5F5F5F5F5F50000930000000000000000000000000000000000000000000000009300000000000000000000000000000000000000000000000000000000000000000000000000000000000000000000000000000000000000000000
310
00000000000000000000000000000000000000000000000000000000000000000000000000000000000093F5F5000000000000F5000000000000000000000000000000000000000000000000000000000000000000000000000000000000000000000000000000F500000000000000F5000000000000000000000000000000
310
000000000000000000000000000000000000000000000000000000000000000000000000F5000000000000F5F593000000000000000000000000000000000000000000000093930000000000000000000000000000000000000000000000000000000000000000000000000000000000000000000000000000000000000000
310
000000000000000000000000000000000000000000000000000000000000000000000000000000000000000093F5000000000000F500000000000000000000000000000000000000000000000000000000000000000000000000000000000000000000000000000000F5F5000000000000F500000000000000000000000000
310
000000000000000000000000000000000000000000000000000000000000000000000000000000F5000000000000F59300000000000000000000000000000000000000000000009393000000000000000000000000000000000000000000000000000000000000000000000000000000000000000000000000000000000000
310
00000000000000000000000000000000000000000000000000000000000000000000000000000000000000000000F500000000000000F50000000000000000000000000000000000000000000000000000000000000000000000000000000000000000000000000000000000F5000000000000F50000000000000000000000
310
0000000000000000000000000000000000000000000000000000000000000000000000000000000000F5000000000000F5000000000000000000000000000000000000000000000000939393000000000000000000000000000000000000000000000000000000000000000000000000000000000000000000000000000000
310
0000000000000000000000000000000000000000000000000000000000000000000000000000000000000000000000009300000000000000F5000000000000000000000000000000000000000000000000000000000000000000000000000000000000000000000000000000000000F50000000000F5000000000000000000
310
00000000000000000000000000000000000000000000000000000000000000000000000000000000000000F50000000000000093000000000000000000000000000000000000000000000093939300000000000000000000000000000000000000000000000000000000000000000000000000000000000000000000000000
310
0000000000000000000000000000000000000000000000000000000000000000000000000000000000000000000000000000F500000000000000F50000000000000000000000000000000000000000000000000000000000000000000000000000000000000000000000000000000000F5000000000000F500000000000000
310
000000000000000000000000000000000000000000000000000000000000000000000000000000000000000000F5000000000000F50000000000000000000000000000000000000000000000939393930000000000000000000000000000000000000000000000000000000000000000000000000000000000000000000000
310
0000000000000000000000000000000000000000000000000000000000000000000000000000000000000000000000000000000000F5000000000000F500000000000000000000000000000000000000000000000000000000000000000000000000000000000000000000000000000000F500000000000000F50000000000
310
0000000000000000000000000000000000000000000000000000000000000000000000000000000000000000000000F5000000000000F5000000000000000000000000000000000000000000000093939393000000000000000000000000000000000000000000000000000000000000000000000000000000000000000000
310
0000000000000000000000000000000000000000000000000000000000000000000000000000000000000000000000000000000000000000F5F50000000000F5000000000000000000000000000000000000000000000000000000000000000000000000000000000000000000000000000000F500000000000000F5000000
310
000000000000000000000000000000000000000000000000000000000000000000000000000000000000000000000000F50000000000F5F50000000000000000000000000000000000000000000000000000930000000000000000000000000000000000000000000000000000000000000000000000000000000000000000
310
0000000000000000000000000000000000000000000000000000000000000000000000000000000000000000000000000000000000000000000000F5F5F5F5F5F5F5F5F5F5F5F5F5F5F5F5F5F5F5F5F5F5F5F5F5F5F5F5F5F5F5F5F5F5F5F5F5F5F5F5F5F5F5F5F5F5F5F5F5F5F5F5F5F5F5F5F5F5F500000000000000F5F5
310
F5F5F5F5F5F5F5F5F5F5F5F5F5F5F5F5F5F5F5F5F5F5F5F5F5F5F5F5F5F5F5F5F5F5F5F5F5F5F5F5F5F5F5F5F5F5F5F5F5F5F5F5F5F5F5F5F500000000000000000000000000000000000000000000000000000093000000000000000000000000000000000000000000000000000000000000000000000000000000000000
310
00000000000000000000000000000000000000000000000000000000000000000000000000000000000000000000000000000000000000000000000000000000000000000000000000000000000000000000000000000000000000000000000000000000000000000000000000000000000000000000F5F500000000000000
310
F5000000000000000000000000000000000000000000000000000000000000000000000000000000000000000000000000000000000000000000000000000000000000000000000000000000000000000000000000009300000000000000000000000000000000000000000000000000000000000000000000000000000000
310
000000000000000000000000000000000000000000000000000000000000000000000000000000000000000000000000000000000000000000000000000000000000000000000000000000000000000000000000000000000000000000000000000000000000000000000000000000000000F5F5F5F5F5F5F5F50000000000
310
0000F5F5F5F5F5F5F5F5000000000000000000000000000000000000000000000000000000000000000000000000000000000000000000000000000000000000000000000000000000000000000000000000000000000000930000000000000000000000000000000000000000000000000000000000000000000000000000
310
0000000000000000000000000000000000000000000000000000000000000000000000000000000000000000000000000000000000000000000000000000000000000000000000000000000000000000000000000000000000000000000000000000000000000000000000000000000000000000F5000000000000F5000000
310
00000000F5000000000000F500000000000000000000000000000000000000000000000000000000000000000000000000000000000000000000000000000000000000000000000000000000000000000000000000000000000093000000000000000000000000000000000000000000000000000000000000000000000000
310
00000000000000000000000000000000000000000000000000000000000000000000000000000000000000000000000000000000000000000000000000000000000000000000000000000000000000000000000000000000000000000000000000000000000000000000000000000000000000000000F5F5F5F5F5F5F5F500
310
000000000000F5F5F5F5F5F5F5F50000000000000000000000000000000000000000000000000000000000000000000000000000000000000000000000000000000000000000000000000000000000000000000000000000000000009300000000000000000000000000000000000000000000000000000000000000000000
310
000000000000000000000000000000000000000000000000000000000000000000000000000000000000000000000000000000000000000000000000000000000000000000000000000000000000000000000000000000000000000000000000000000000000000000000000000000000000000000000000000000000000F5
310
F500000000000000F500000000000000000000000000000000000000000000000000000000000000000000000000000000000000000000000000000000000000000000000000000000000000000000000000000000000000000000000000930000000000000000000000000000000000000000000000000000000000000000
310
00000000000000000000000000000000000000000000000000000000000000000000000000000000000000000000000000000000000000000000000000000000000000000000000000000000000000000000000000000000000000000000000000000000000000000000000000000000000000000000000000000000000000
310
0000F500000000000000F50000000000000000000000000000000000000000000000000000000000000000000000000000000000000000000000000000000000000000000000000000000000000000000000000000000000000000000000000093000000000000000000000000000000000000000000000000000000000000
310
00000000000000000000000000000000000000000000000000000000000000000000000000000000000000000000000000000000000000000000000000000000000000000000000000000000000000000000000000000000000000000000000000000000000000000000000000000000000000000000000000000000000000
310
00000000F500000000000000F5000000000000000000000000000000000000000000000000000000000000000000000000000000000000000000000000000000000000000000000000000000000000000000000000000000000000000000000000009300000000000000000000000000000000000000000000000000000000
310
00000000000000000000000000000000000000000000000000000000000000000000000000000000000000000000000000000000000000000000000000000000000000000000000000000000000000000000000000000000000000000000000000000000000000000000000000000000000000000000000000000000000000
310
000000000000F500000000000000F500000000000000000000000000000000000000000000000000000000000000000000000000000000000000000000000000000000000000000000000000000000000000000000000000000000000000000000000000930000000000000000000000000000000000000000000000000000
310
00000000000000000000000000000000000000000000000000000000000000000000000000000000000000000000000000000000000000000000000000000000000000000000000000000000000000000000000000000000000000000000000000000000000000000000000000000000000000000000000000000000000000
310
0000000000000000F500000000000000F50000000000000000000000000000000000000000000000000000000000000000000000000000000000000000000000000000000000000000000000000000000000000000000000000000000000000000000000000093000000000000000000000000000000000000000000000000
310
00000000000000000000000000000000000000000000000000000000000000000000000000000000000000000000000000000000000000000000000000000000000000000000000000000000000000000000000000000000000000000000000000000000000000000000000000000000000000000000000000000000000000
310
00000000000000000000F500000000000000F5000000000000000000000000000000000000000000000000000000000000000000000000000000000000000000000000000000000000000000000000000000000000000000000000000000000000000000000000009300000000000000000000000000000000000000000000
310
00000000000000000000000000000000000000000000000000000000000000000000000000000000000000000000000000000000000000000000000000000000000000000000000000000000000000000000000000000000000000000000000000000000000000000000000000000000000000000000000000000000000000
310
000000000000000000000000F500000000000000F500000000000000000000000000000000000000000000000000000000000000000000000000000000000000000000000000000000000000000000000000000000000000000000000000000000000000000000000000930000000000000000000000000000000000000000
310
00000000000000000000000000000000000000000000000000000000000000000000000000000000000000000000000000000000000000000000000000000000000000000000000000000000000000000000000000000000000000000000000000000000000000000000000000000000000000000000000000000000000000
310
0000000000000000000000000000F500000000000000F50000000000000000000000000000000000000000000000000000000000000000000000000000000000000000000000000000000000000000000000000000000000000000000000000000000000000000000000000093000000000000000000000000000000000000
310
00000000000000000000000000000000000000000000000000000000000000000000000000000000000000000000000000000000000000000000000000000000000000000000000000000000000000000000000000000000000000000000000000000000000000000000000000000000000000000000000000000000000000
310
00000000000000000000000000000000F500000000000000F5000000000000000000000000000000000000000000000000000000000000000000000000000000000000000000000000000000000000000000000000000000000000000000000000000000000000000000000000009300000000000000000000000000000000
310
00000000000000000000000000000000000000000000000000000000000000000000000000000000000000000000000000000000000000000000000000000000000000000000000000000000000000000000000000000000000000000000000000000000000000000000000000000000000000000000000000000000000000
310
000000000000000000000000F5F5F5F5F5F5F5F5F5F5F5F5F5F5F5F5F5F5F5F5F500000000000000000000000000000000000000000000000000000000000000000000000000000000000000000000000000000000000000000000000000000000000000000000000000930000000000930000000000000000000000000000
310
00000000000000000000000000000000000000000000000000000000000000000000000000000000000000000000000000000000000000000000000000000000000000000000000000000000000000000000000000000000000000000000000000000000000000000000000000000000000000000000000000000000000000
310
0000000000000000000000000000F5F50000000000000000000000000000000000F5F50000000000000000000000000000000000000000000000000000000000000000000000000000000000000000000000000000000000000000000000000000000000000000000000009393000000000093000000000000000000000000
310
00000000000000000000000000000000000000000000000000000000000000000000000000000000000000000000000000000000000000000000000000000000000000000000000000000000000000000000000000000000000000000000000000000000000000000000000000000000000000000000000000000000000000
310
00000000000000000000000000000000F5F5F5F5F5F5F5F5F5F5F5F5F5F5F5F5F5F5F5F5F5000000000000000000000000000000000000000000000000000000000000000000000000000000000000000000000000000000000000000000000000000000000000000000009393009300000000009300000000000000000000
310
00000000000000000000000000000000000000000000000000000000000000000000000000000000000000000000000000000000000000000000000000000000000000000000000000000000000000000000000000000000000000000000000000000000000000000000000000000000000000000000000000000000000000
310
000000000000000000000000000000000000F5F500000000000000000000000000000000F500F500000000000000000000000000000000000000000000000000000000000000000000000000000000000000000000000000000000000000000000000000000000000000000093000000930000000000930000000000000000
310
00000000000000000000000000000000000000000000000000000000000000000000000000000000000000000000000000000000000000000000000000000000000000000000000000000000000000000000000000000000000000000000000000000000000000000000000000000000000000000000000000000000000000
310
0000000000000000000000000000000000000000F5F500000000000000000000000000000000F500F50000000000000000000000000000000000000000000000000000000000000000000000000000000000000000000000000000000000000000000000000000000000000000939393939393939393000093000000000000
310
00000000000000000000000000000000000000000000000000000000000000000000000000000000000000000000000000000000000000000000000000000000000000000000000000000000000000000000000000000000000000000000000000000000000000000000000000000000000000000000000000000000000000
310
00000000000000000000000000000000000000000000F5F500000000000000000000000000000000F500F5000000000000000000000000000000000000000000000000000000000000000000000000000000000000000000000000000000000000000000000000000000000000000000000000009300000000009300000000
310
00000000000000000000000000000000000000000000000000000000000000000000000000000000000000000000000000000000000000000000000000000000000000000000000000000000000000000000000000000000000000000000000000000000000000000000000000000000000000000000000000000000000000
310
000000000000000000000000000000000000000000000000F5F500000000000000000000000000000000F500F500000000000000000000000000000000000000000000000000000000000000000000000000000000000000000000000000000000000000000000000000000000000000000000000000000000000000930000
310
00000000000000000000000000000000000000000000000000000000000000000000000000000000000000000000000000000000000000000000000000000000000000000000000000000000000000000000000000000000000000000000000000000000000000000000000000000000000000000000000000000000000000
310
0000000000000000000000000000000000000000000000000000F5F500000000000000000000000000000000F500F50000000000000000000000000000000000000000000000000000000000000000000000000000000000000000000000000000000000000000000000000000000000000000000093939393930000000093
310
00000000000000000000000000000000000000000000000000000000000000000000000000000000000000000000000000000000000000000000000000000000000000000000000000000000000000000000000000000000000000000000000000000000000000000000000000000000000000000000000000000000000000
310
00000000000000000000000000000000000000000000000000000000F5F500000000000000000000000000000000F500F5000000000000000000000000000000000000000000000000000000000000000000000000000000000000000000000000000000000000000000000000000000000000000000930000000000930000
310
00930000000000000000000000000000000000000000000000000000000000000000000000000000000000000000000000000000000000000000000000000000000000000000000000000000000000000000000000000000000000000000000000000000000000000000000000000000000000000000000000000000000000
310
000000000000000000000000000000000000000000000000000000000000F5F500000000000000000000000000000000F500F500000000000000000000000000000000000000000000000000000000000000000000000000000000000000000000000000000000000000000000000000000000000000009300000000000000
310
93000093000000000000000000000000000000000000000000000000000000000000000000000000000000000000000000000000000000000000000000000000000000000000000000000000000000000000000000000000000000000000000000000000000000000000000000000000000000000000000000000000000000
310
0000000000000000000000000000000000000000000000000000000000000000F5F500000000000000000000000000000000F500F50000000000000000000000000000000000000000000000000000000000000000000000000000000000000000000000000000000000000000000000000000000000000000930000000000
310
00009300009300000000000000000000000000000000000000000000000000000000000000000000000000000000000000000000000000000000000000000000000000000000000000000000000000000000000000000000000000000000000000000000000000000000000000000000000000000000000000000000000000
310
00000000000000000000000000000000000000000000000000000000000000000000F5F500000000000000000000000000000000F500F5000000000000000000000000000000000000000000000000000000000000000000000000000000000000000000000000000000000000000000000000000000000000000000939300
310
00009393000000930000000000000000000000000000000000000000000000000000000000000000000000000000000000000000000000000000000000000000000000000000000000000000000000000000000000000000000000000000000000000000000000000000000000000000000000000000000000000000000000
310
000000000000000000000000000000000000000000000000000000000000000000000000F5F500000000000000000000000000000000F500F500000000000000000000000000000000000000000000000000000000000000000000000000000000000000000000000000000000000000000000000000000000000000000000
310
00939393000000000093000000000000000000000000000000000000000000000000000000000000000000000000000000000000000000000000000000000000000000000000000000000000000000000000000000000000000000000000000000000000000000000000000000000000000000000000000000000000000000
310
0000000000000000000000000000000000000000000000000000000000000000000000000000F5F500000000000000000000000000000000F500F50000000000000000000000000000000000000000000000000000000000000000000000000000000000000000000000000000000000000000000000000000000000000000
310
00000000000000000000009300000000000000000000000000000000000000000000000000000000000000000000000000000000000000000000000000000000000000000000000000000000000000000000000000000000000000000000000000000000000000000000000000000000000000000000000000000000000000
310
00000000000000000000000000000000000000000000000000000000000000000000000000000000F5F500000000000000000000000000000000F500F5000000000000000000000000000000000000000000000000000000000000000000000000000000000000000000000000000000000000000000000000000000000000
310
00000000939393939300000000930000000000000000000000000000000000000000000000000000000000000000000000000000000000000000000000000000000000000000000000000000000000000000000000000000000000000000000000000000000000000000000000000000000000000000000000000000000000
310
000000000000000000000000000000000000000000000000000000000000000000000000000000000000F5F500000000000000000000000000000000F500F500000000000000000000000000000000000000000000000000000000000000000000000000000000000000000000000000000000000000000000000000000000
310
00000000009300000000009300000093000000000000000000000000000000000000000000000000000000000000000000000000000000000000000000000000000000000000000000000000000000000000000000000000000000000000000000000000000000000000000000000000000000000000000000000000000000
310
0000000000000000000000000000000000000000000000000000000000000000000000000000000000000000F5F500000000000000000000000000000000F500F50000000000000000000000000000000000000000000000000000000000000000000000000000000000000000000000000000000000000000000000000000
310
00000000000093000000000000009300009300000000000000000000000000000000000000000000000000000000000000000000000000000000000000000000000000000000000000000000000000000000000000000000000000000000000000000000000000000000000000000000000000000000000000000000000000
310
00000000000000000000000000000000000000000000000000000000000000000000000000000000000000000000F5F500000000000000000000000000000000F500F5000000000000000000000000000000000000000000000000000000000000000000000000000000000000000000000000000000000000000000000000
310
00000000000000009300000000000000930000930000000000000000000000000000000000000000000000000000000000000000000000000000000000000000000000000000000000000000000000000000000000000000000000000000000000000000000000000000000000000000000000000000000000000000000000
310
000000000000000000000000000000000000000000000000000000000000000000000000000000000000000000000000F5F500000000000000000000000000000000F500F500000000000000000000000000000000000000000000000000000000000000000000000000000000000000000000000000000000000000000000
310
00000000000000000000009393000000939300000093000000000000000000000000000000000000000000000000000000000000000000000000000000000000000000000000000000000000000000000000000000000000000000000000000000000000000000000000000000000000000000000000000000000000000000
310
0000000000000000000000000000000000000000000000000000000000000000000000000000000000000000000000000000F5F5F5F5F5F5F5F5F5F5F5F5F5F5F5F5F5F5F5F5F50000000000000000000000000000000000000000000000000000000000000000000000000000000000000000000000000000000000000000
310
00000000000000000000000000000093939300000000009300000000000000000000000000000000000000000000000000000000000000000000000000000000000000000000000000000000000000000000000000000000000000000000000000000000000000000000000000000000000000000000000000000000000000
310
00000000000000000000000000000000000000000000000000000000000000000000000000000000000000000000000000000000F5F5F5F5F5F5F5F5F5F5F5F5F5F5F5F5F5F5F5F5F5000000000000000000000000000000000000000000000000000000000000000000000000000000000000000000000000000000000000
310
00000000000000000000000000000000000000000000000000930000000000000000000000000000000000000000000000000000000000000000000000000000000000000000000000000000000000000000000000000000000000000000000000000000000000000000000000000000000000000000000000000000000000
310
000000000000000000000000000000000000000000000000000000000000000000000000000000000000000000000000000000000000000000000000F500000000000000F500000000000000000000000000000000000000000000000000000000000000000000000000000000000000000000000000000000000000000000
310
00000000000000000000000000000000000000000000000000000093000000000000000000000000000000000000000000000000000000000000000000000000000000000000000000000000000000000000000000000000000000000000000000000000000000000000000000000000000000000000000000000000000000
310
0000000000000000000000000000000000000000000000000000000000000000000000000000000000000000000000000000000000000000000000000000F500000000000000F50000000000000000000000000000000000000000000000000000000000000000000000000000000000000000000000000000000000000000
310
00000000000000000000000000000000000000000000000000000000009300000000000000000000000000000000000000000000000000000000000000000000000000000000000000000000000000000000000000000000000000000000000000000000000000000000000000000000000000000000000000000000000000
310
00000000000000000000000000000000000000000000000000000000000000000000000000000000000000000000000000000000000000000000000000000000F500000000000000F5000000000000000000000000000000000000000000000000000000000000000000000000000000000000000000000000000000000000
310
00000000000000000000000000000000000000000000000000000000000000930000000000000000000000000000000000000000000000000000000000000000000000000000000000000000000000000000000000000000000000000000000000000000000000000000000000000000000000000000000000000000000000
310
000000000000000000000000000000000000000000000000000000000000000000000000000000000000000000000000000000000000000000000000000000000000F500000000000000F500000000000000000000000000000000000000000000000000000000000000000000000000000000000000000000000000000000
310
00000000000000000000000000000000000000000000000000000000000000000093000000000000000000000000000000000000000000000000000000000000000000000000000000000000000000000000000000000000000000000000000000000000000000000000000000000000000000000000000000000000000000
310
0000000000000000000000000000000000000000000000000000000000000000000000000000000000000000000000000000000000000000000000000000000000000000F500000000000000F50000000000000000000000000000000000000000000000000000000000000000000000000000000000000000000000000000
310
00000000000000000000000000000000000000000000000000000000000000000000009300000000000000000000000000000000000000000000000000000000000000000000000000000000000000000000000000000000000000000000000000000000000000000000000000000000000000000000000000000000000000
310
00000000000000000000000000000000000000000000000000000000000000000000000000000000000000000000000000000000000000000000000000000000000000000000F500000000000000F5000000000000000000000000000000000000000000000000000000000000000000000000000000000000000000000000
310
00000000000000000000000000000000000000000000000000000000000000000000000000930000000000000000000000000000000000000000000000000000000000000000000000000000000000000000000000000000000000000000000000000000000000000000000000000000000000000000000000000000000000
310
000000000000000000000000000000000000000000000000000000000000000000000000000000000000000000000000000000000000000000000000000000000000000000000000F500000000000000F500000000000000000000000000000000000000000000000000F5F5F5000000000000000000000000000000000000
310
00000000000000000000000000000000000000000000000000000000000000000000000000000093000000000000000000000000000000000000000000000000000000000000000000000000000000000000000000000000000000000000000000000000000000000000000000000000000000000000000000000000000000
310
0000000000000000000000000000000000000000000000000000000000000000000000000000000000000000000000000000000000000000000000000000000000000000000000000000F500000000000000F500000000000000000000000000000000000000000000000000F500F500000000000000000000000000000000
310
00000000000000000000000000000000000000000000000000000000000000000000000000000000009300000000000000000000000000000000000000000000000000000000000000000000000000000000000000000000000000000000000000000000000000000000000000000000000000000000000000000000000000
310
00000000000000000000000000000000000000000000000000000000000000000000000000000000000000000000000000000000000000000000000000000000000000000000000000000000F500000000000000F500000000000000000000000000000000000000000000000000F500F50000000000000000000000000000
310
00000000000000000000000000000000000000000000000000000000000000000000000000000000000000930000000000000000000000000000000000000000000000000000000000000000000000000000000000000000000000000000000000000000000000000000000000000000000000000000000000000000000000
310
000000000000000000000000000000000000000000000000000000000000000000000000000000000000000000000000000000000000000000000000000000000000000000000000000000000000F500000000000000F500000000000000000000000000000000000000000000000000F500F5000000000000000000000000
310
00000000000000000000000000000000000000000000000000000000000000000000000000000000000000000093000000000000000000000000000000000000000000000000000000000000000000000000000000000000000000000000000000000000000000000000000000000000000000000000000000000000000000
310
0000000000000000000000000000000000000000000000000000000000000000000000000000000000000000000000000000000000000000000000000000000000000000000000000000000000000000F500000000000000F500000000000000000000000000000000000000000000000000F500F500000000000000000000
310
00000000000000000000000000000000000000000000000000000000000000000000000000000000000000000000009300000000000000000000000000000000000000000000000000000000000000000000000000000000000000000000000000000000000000000000000000000000000000000000000000000000000000
310
00000000000000000000000000000000000000000000000000000000000000000000000000000000000000000000000000000000000000000000000000000000000000000000000000000000000000000000F500000000000000F500000000000000000000000000000000000000000000000000F500F50000000000000000
310
00000000000000000000000000000000000000000000000000000000000000000000000000000000000000000000000000930000000000000000000000000000000000000000000000000000000000000000000000000000000000000000000000000000000000000000000000000000000000000000000000000000000000
310
000000000000000000000000000000000000000000000000000000000000000000000000000000000000000000000000000000000000000000000000000000000000000000000000000000000000000000000000F500000000000000F500000000000000000000000000000000000000000000000000F500F5000000000000
310
00000000000000000000000000000000000000000000000000000000000000000000000000000000000000000000000000000093000000000000000000000000000000000000000000000000000000000000000000000000000000000000000000000000000000000000000000000000000000000000000000000000000000
310
0000000000000000000000000000000000000000000000000000000000000000000000000000000000000000000000000000000000000000000000000000000000000000000000000000000000000000000000000000F500000000000000F5000000000000000000000000000000000000000000000000F5F500F5F5000000
310
00000000000000000000000000000000000000000000000000000000000000000000000000000000000000000000000000000000009300000000000000000000000000000000000000000000000000000000000000000000000000000000000000000000000000000000000000000000000000000000000000000000000000
310
0000000000000000000000000000000000000000000000000000000000F5F5F5F5F5F5F5F5F5F5F5F5F5F5F5F5F5F5F5F5F5F5F5F5F5F5F5F5F5F5F5F5F5F5F5F5F5F5F5F5F5F5F5F5F5F5F5F5F5F5F5F5F5F5F5F5F5F5F5F500000000000000F5F5F5F5F5F5F5F5F5F5F5F5F5F5F5F5F5F5F5F5F5F5F5F5F5F5F5F5F5F5F5
310
F5F5F5F5F5F5F5F5F5F5F5F5F5F5F5F5F5F5F5F5F5F5F5F5F5F5F5F5F50000000000000000000000000000000000000000000000000000930000000000000000000000000000000000000000000000000000000000000000000000000000000000000000000000000000000000000000000000000000000000000000000000
310
000000000000000000000000000000000000000000000000000000000000F500000000000000000000000000000000F5000000000000000000000000000000000000000000000000000000000000000000000000000000000000F5000000000000F50000000000000000000000000000000000000000000000000000000000
310
0000000000000000000000000000F500000000000000000000000000000000F50000000000000000000000000000000000000000000000939393930000000000000000000000000000000000000000000000000000000000000000000000000000000000000000000000000000000000000000000000000000000000000000
310
0000000000000000000000000000000000000000000000000000000000000000F500000000000000000000000000000000F5000000000000000000000000000000000000000000000000000000000000000000000000000000000000F500000000F5F500000000000000000000000000000000000000000000000000000000
310
00000000000000000000000000000000F500000000000000000000000000000000F5000000000000000000000000000000000000000000000093939393000000000000000000000000000000000000000000000000000000000000000000000000000000000000000000000000000000000000000000000000000000000000
310
000000000000000000000000000000000000000000000000000000000000000000F50000000000000000000000000000000000F5000000000000000000000000000000000000000000000000000000000000000000000000000000000000F5000000F500000000000000000000000000000000000000000000000000000000
310
000000000000000000000000000000000000F500000000000000000000000000000000F5F5000000000000000000000000000000000000000000000093939300000000000000000000000000000000000000000000000000000000000000000000000000000000000000000000000000000000000000000000000000000000
310
0000000000000000000000000000000000000000000000000000000000000000000000F50000000000000000000000000000000000F5000000000000000000000000000000000000000000000000000000000000000000000000000000000000F500000000F500000000000000000000000000000000000000000000000000
310
0000000000000000000000000000000000000000F500000000000000000000000000000000F50000000000000000000000000000000000000000000000009393930000000000000000000000000000000000000000000000000000000000000000000000000000000000000000000000000000000000000000000000000000
310
0000000000000000000000000000000000000000000000000000000000000000000000000000F500000000000000000000000000000000F5000000000000000000000000000000000000000000000000000000000000000000000000000000000000F50000000000F500000000000000000000000000000000000000000000
310
00000000000000000000000000000000000000000000F500000000000000000000000000000000F5000000000000000000000000000000000000000000000000939300000000000000000000000000000000000000000000000000000000000000000000000000000000000000000000000000000000000000000000000000
310
00000000000000000000000000000000000000000000000000000000000000000000000000000000F5F5000000000000000000000000000000F5000000000000000000000000000000000000000000000000000000000000000000000000000000000000F5000000000000F500000000000000000000000000000000000000
310
000000000000000000000000000000000000000000000000F5000000000000000000000000000000F5F500000000000000000000000000000000000000000000000093930000000000000000000000000000000000000000000000000000000000000000000000000000000000000000000000000000000000000000000000
310
0000000000000000000000000000000000000000000000000000000000000000000000000000000000000000F5F5F5F5F5F5F5F5F5F5F5F5F5F5F5F5F5F5F5F5F5F5F5F5F5F5F5F5F5F5F5F5F5F5F5F5F5F5F5F5F5F5F5F5F5F5F5F5F5F5F5F5F5F5F5F5F5F5F5F5F5F5F5F5F5F5F5F5F5F5F5F5F5F5F5F5F5F5F5F5F5F5F5
310
F5F5F5F5F5F5F5F5F5F5F5F5F5F5F5F5F5F5F5F5F5F5F5F5F5F5F5F5F5F5F5F5F5F5F5F5F5F5F5F5F5F500000000000000000000000000000000000000000000000000000093000000000000000000000000000000000000000000000000000000000000000000000000000000000000000000000000000000000000000000
310
0000000000000000000000000000000000000000000000000000000000000000000000000000000000000000000000000000000000000000000000000000000000000000000000000000000000000000000000000000000000000000000000000000000000000000F593F59393939393939393939393939393939393939393
310
93939393939393939393939393939393939393939393939393939393939393939393939393939393939393939393939393939393939393939393939393939393939393939393939393930000000000000000000000000000000000000000000000000000000000000000000000000000000000000000000000000000000000
310
00000000000000000000000000000000000000000000000000000000000000000000000000000000000000000000000000000000000000000000000000000000000000000000000000000000000000000000000000000000000000000000000000000000000000000000000000000000000000000000000000000000000000
310
00000000000000000000000000F500F5000000000000000000000000000000000000000000000000000000000000000000000000000000000000000000000000000000000000000000000000000000000000000000000000000000000000000000000000000000000000000000000000000000000000000000000000000000
310
00000000000000000000000000000000000000000000000000000000000000000000000000000000000000000000000000000000000000000000000000000000000000000000000000000000000000000000000000000000000000000000000000000000000000000000000000000000000000000000000000000000000000
310
000000000000000000000000000000F500F500000000000000000000000000000000000000000000000000000000000000000000000000000000000000000000000000000000000000000000000000000000000000000000000000000000000000000000000000000000000000000000000000000000000000000000000000
310
00000000000000000000000000000000000000000000000000000000000000000000000000000000000000000000000000000000000000000000000000000000000000000000000000000000000000000000000000000000000000000000000000000000000000000000000000000000000000000000000000000000000000
310
0000000000000000000000000000000000F500F50000000000000000000000000000000000000000000000000000000000000000000000000000000000000000000000000000000000000000000000000000000000000000000000000000000000000000000000000000000000000000000000000000000000000000000000
310
00000000000000000000000000000000000000000000000000000000000000000000000000000000000000000000000000000000000000000000000000000000000000000000000000000000000000000000000000000000000000000000000000000000000000000000000000000000000000000000000000000000000000
310
00000000000000000000000000000000000000F500F5000000000000000000000000000000000000000000000000000000000000000000000000000000000000000000000000000000000000000000000000000000000000000000000000000000000000000000000000000000000000000000000000000000000000000000
310
00000000000000000000000000000000000000000000000000000000000000000000000000000000000000000000000000000000000000000000000000000000000000000000000000000000000000000000000000000000000000000000000000000000000000000000000000000000000000000000000000000000000000
310
000000000000000000000000000000000000000000F500F500000000000000000000000000000000000000000000000000000000000000000000000000000000000000000000000000000000000000000000000000000000000000000000000000000000000000000000000000000000000000000000000000000000000000
310
00000000000000000000000000000000000000000000000000000000000000000000000000000000000000000000000000000000000000000000000000000000000000000000000000000000000000000000000000000000000000000000000000000000000000000000000000000000000000000000000000000000000000
310
0000000000000000000000000000000000000000000000F500F50000000000000000000000000000000000000000000000000000000000000000000000000000000000000000000000000000000000000000000000000000000000000000000000000000000000000000000000000000000000000000000000000000000000
310
00000000000000000000000000000000000000000000000000000000000000000000000000000000000000000000000000000000000000000000000000000000000000000000000000000000000000000000000000000000000000000000000000000000000000000000000000000000000000000000000000000000000000
310
0000000000000000000000000000000000000000000000000000F500000000000000000000000000000000000000000000000000000000000000000000000000000000000000000000000000000000000000000000000000000000000000000000000000000000000000000000000000000000000000000000000000000000
310
00000000000000000000000000000000000000000000000000000000000000000000000000000000000000000000000000000000000000000000000000000000000000000000000000000000000000000000000000000000000000000000000000000000000000000000000000000000000000000000000000000000000000
310
00000000000000000000000000000000000000000000000000000000000000000000000000000000000000000000000000000000000000000000000000000000000000000000000000000000000000000000000000000000000000000000000000000000000000000000000000000000000000000000000000000000000000
310
00000000000000000000000000000000000000000000000000000000000000000000000000000000000000000000000000000000000000000000000000000000000000000000000000000000000000000000000000000000000000000000000000000000000000000000000000000000000000000000000000000000000000
310
00000000000000000000000000000000000000000000000000000000000000000000000000000000000000000000000000000000000000000000000000000000000000000000000000000000000000000000000000000000000000000000000000000000000000000000000000000000000000000000000000000000000000
310
0000000000000000
  0
XRECORD
  5
22585
102
{ACAD_REACTORS
330
1D346
102
}
330
1D346
100
AcDbXrecord
280
     1
102
MATERIAL
148
0.0
149
0.0
149
0.0
 93
        0
 94
      127
282
     0
 72
     0
 77
     0
171
     0
175
     0
179
     0
273
     0
  0
XRECORD
  5
1D348
102
{ACAD_REACTORS
330
1D346
102
}
330
1D346
100
AcDbXrecord
280
     1
270
     1
271
     1
  0
XRECORD
  5
1D347
102
{ACAD_REACTORS
330
1D346
102
}
330
1D346
100
AcDbXrecord
280
     1
270
     1
271
     1
  0
XRECORD
  5
1D34B
102
{ACAD_REACTORS
330
1D346
102
}
330
1D346
100
AcDbXrecord
280
     1
270
     1
271
     1
  0
XRECORD
  5
1D34A
102
{ACAD_REACTORS
330
1D346
102
}
330
1D346
100
AcDbXrecord
280
     1
270
     1
271
     1
  0
XRECORD
  5
1D34C
102
{ACAD_REACTORS
330
1D346
102
}
330
1D346
100
AcDbXrecord
280
     1
270
     1
271
     1
  0
XRECORD
  5
1D349
102
{ACAD_REACTORS
330
1D346
102
}
330
1D346
100
AcDbXrecord
280
     1
270
     1
271
     1
  0
XRECORD
  5
22584
102
{ACAD_REACTORS
330
1D33E
102
}
330
1D33E
100
AcDbXrecord
280
     1
102
MATERIAL
148
0.0
149
0.0
149
0.0
 93
        0
 94
      127
282
     0
 72
     0
 77
     0
171
     0
175
     0
179
     0
273
     0
  0
XRECORD
  5
1D340
102
{ACAD_REACTORS
330
1D33E
102
}
330
1D33E
100
AcDbXrecord
280
     1
270
     1
271
     1
  0
XRECORD
  5
1D33F
102
{ACAD_REACTORS
330
1D33E
102
}
330
1D33E
100
AcDbXrecord
280
     1
270
     1
271
     1
  0
XRECORD
  5
1D343
102
{ACAD_REACTORS
330
1D33E
102
}
330
1D33E
100
AcDbXrecord
280
     1
270
     1
271
     1
  0
XRECORD
  5
1D342
102
{ACAD_REACTORS
330
1D33E
102
}
330
1D33E
100
AcDbXrecord
280
     1
270
     1
271
     1
  0
XRECORD
  5
1D344
102
{ACAD_REACTORS
330
1D33E
102
}
330
1D33E
100
AcDbXrecord
280
     1
270
     1
271
     1
  0
XRECORD
  5
1D341
102
{ACAD_REACTORS
330
1D33E
102
}
330
1D33E
100
AcDbXrecord
280
     1
270
     1
271
     1
  0
XRECORD
  5
22586
102
{ACAD_REACTORS
330
1D34E
102
}
330
1D34E
100
AcDbXrecord
280
     1
102
MATERIAL
148
0.0
149
0.0
149
0.0
 93
        0
 94
      127
282
     0
 72
     0
 77
     0
171
     0
175
     0
179
     0
273
     0
  0
XRECORD
  5
1D350
102
{ACAD_REACTORS
330
1D34E
102
}
330
1D34E
100
AcDbXrecord
280
     1
270
     1
271
     1
  0
XRECORD
  5
1D34F
102
{ACAD_REACTORS
330
1D34E
102
}
330
1D34E
100
AcDbXrecord
280
     1
270
     1
271
     1
  0
XRECORD
  5
1D353
102
{ACAD_REACTORS
330
1D34E
102
}
330
1D34E
100
AcDbXrecord
280
     1
270
     1
271
     1
  0
XRECORD
  5
1D352
102
{ACAD_REACTORS
330
1D34E
102
}
330
1D34E
100
AcDbXrecord
280
     1
270
     1
271
     1
  0
XRECORD
  5
1D354
102
{ACAD_REACTORS
330
1D34E
102
}
330
1D34E
100
AcDbXrecord
280
     1
270
     1
271
     1
  0
XRECORD
  5
1D351
102
{ACAD_REACTORS
330
1D34E
102
}
330
1D34E
100
AcDbXrecord
280
     1
270
     1
271
     1
  0
CELLSTYLEMAP
  5
22573
102
{ACAD_REACTORS
330
2237A
102
}
330
2237A
100
AcDbCellStyleMap
 90
        3
300
CELLSTYLE
  1
TABLEFORMAT_BEGIN
 90
        5
170
     1
 91
        0
 92
    32768
 62
   257
 93
        1
300
CONTENTFORMAT
  1
CONTENTFORMAT_BEGIN
 90
        0
 91
        0
 92
        4
 93
        0
300

 40
0.0
140
1.0
 94
        5
 62
     0
340
11
144
6.0
309
CONTENTFORMAT_END
171
     1
301
MARGIN
  1
CELLMARGIN_BEGIN
 40
1.5
 40
1.5
 40
1.5
 40
1.5
 40
0.18
 40
0.18
309
CELLMARGIN_END
 94
        6
 95
        1
302
GRIDFORMAT
  1
GRIDFORMAT_BEGIN
 90
        0
 91
        1
 62
     0
 92
       -2
340
0
 93
        0
 40
0.045
309
GRIDFORMAT_END
 95
        2
302
GRIDFORMAT
  1
GRIDFORMAT_BEGIN
 90
        0
 91
        1
 62
     0
 92
       -2
340
0
 93
        0
 40
0.045
309
GRIDFORMAT_END
 95
        4
302
GRIDFORMAT
  1
GRIDFORMAT_BEGIN
 90
        0
 91
        1
 62
     0
 92
       -2
340
0
 93
        0
 40
0.045
309
GRIDFORMAT_END
 95
        8
302
GRIDFORMAT
  1
GRIDFORMAT_BEGIN
 90
        0
 91
        1
 62
     0
 92
       -2
340
0
 93
        0
 40
0.045
309
GRIDFORMAT_END
 95
       16
302
GRIDFORMAT
  1
GRIDFORMAT_BEGIN
 90
        0
 91
        1
 62
     0
 92
       -2
340
0
 93
        0
 40
0.045
309
GRIDFORMAT_END
 95
       32
302
GRIDFORMAT
  1
GRIDFORMAT_BEGIN
 90
        0
 91
        1
 62
     0
 92
       -2
340
0
 93
        0
 40
0.045
309
GRIDFORMAT_END
309
TABLEFORMAT_END
  1
CELLSTYLE_BEGIN
 90
        1
 91
        1
300
_TITLE
309
CELLSTYLE_END
300
CELLSTYLE
  1
TABLEFORMAT_BEGIN
 90
        5
170
     1
 91
        0
 92
        0
 62
   257
 93
        1
300
CONTENTFORMAT
  1
CONTENTFORMAT_BEGIN
 90
        0
 91
        0
 92
        4
 93
        0
300

 40
0.0
140
1.0
 94
        5
 62
     0
340
11
144
4.5
309
CONTENTFORMAT_END
171
     1
301
MARGIN
  1
CELLMARGIN_BEGIN
 40
1.5
 40
1.5
 40
1.5
 40
1.5
 40
0.18
 40
0.18
309
CELLMARGIN_END
 94
        6
 95
        1
302
GRIDFORMAT
  1
GRIDFORMAT_BEGIN
 90
        0
 91
        1
 62
     0
 92
       -2
340
0
 93
        0
 40
0.045
309
GRIDFORMAT_END
 95
        2
302
GRIDFORMAT
  1
GRIDFORMAT_BEGIN
 90
        0
 91
        1
 62
     0
 92
       -2
340
0
 93
        0
 40
0.045
309
GRIDFORMAT_END
 95
        4
302
GRIDFORMAT
  1
GRIDFORMAT_BEGIN
 90
        0
 91
        1
 62
     0
 92
       -2
340
0
 93
        0
 40
0.045
309
GRIDFORMAT_END
 95
        8
302
GRIDFORMAT
  1
GRIDFORMAT_BEGIN
 90
        0
 91
        1
 62
     0
 92
       -2
340
0
 93
        0
 40
0.045
309
GRIDFORMAT_END
 95
       16
302
GRIDFORMAT
  1
GRIDFORMAT_BEGIN
 90
        0
 91
        1
 62
     0
 92
       -2
340
0
 93
        0
 40
0.045
309
GRIDFORMAT_END
 95
       32
302
GRIDFORMAT
  1
GRIDFORMAT_BEGIN
 90
        0
 91
        1
 62
     0
 92
       -2
340
0
 93
        0
 40
0.045
309
GRIDFORMAT_END
309
TABLEFORMAT_END
  1
CELLSTYLE_BEGIN
 90
        2
 91
        1
300
_HEADER
309
CELLSTYLE_END
300
CELLSTYLE
  1
TABLEFORMAT_BEGIN
 90
        5
170
     1
 91
        0
 92
        0
 62
   257
 93
        1
300
CONTENTFORMAT
  1
CONTENTFORMAT_BEGIN
 90
        0
 91
        0
 92
        4
 93
        0
300

 40
0.0
140
1.0
 94
        2
 62
     0
340
11
144
4.5
309
CONTENTFORMAT_END
171
     1
301
MARGIN
  1
CELLMARGIN_BEGIN
 40
1.5
 40
1.5
 40
1.5
 40
1.5
 40
0.18
 40
0.18
309
CELLMARGIN_END
 94
        6
 95
        1
302
GRIDFORMAT
  1
GRIDFORMAT_BEGIN
 90
        0
 91
        1
 62
     0
 92
       -2
340
0
 93
        0
 40
0.045
309
GRIDFORMAT_END
 95
        2
302
GRIDFORMAT
  1
GRIDFORMAT_BEGIN
 90
        0
 91
        1
 62
     0
 92
       -2
340
0
 93
        0
 40
0.045
309
GRIDFORMAT_END
 95
        4
302
GRIDFORMAT
  1
GRIDFORMAT_BEGIN
 90
        0
 91
        1
 62
     0
 92
       -2
340
0
 93
        0
 40
0.045
309
GRIDFORMAT_END
 95
        8
302
GRIDFORMAT
  1
GRIDFORMAT_BEGIN
 90
        0
 91
        1
 62
     0
 92
       -2
340
0
 93
        0
 40
0.045
309
GRIDFORMAT_END
 95
       16
302
GRIDFORMAT
  1
GRIDFORMAT_BEGIN
 90
        0
 91
        1
 62
     0
 92
       -2
340
0
 93
        0
 40
0.045
309
GRIDFORMAT_END
 95
       32
302
GRIDFORMAT
  1
GRIDFORMAT_BEGIN
 90
        0
 91
        1
 62
     0
 92
       -2
340
0
 93
        0
 40
0.045
309
GRIDFORMAT_END
309
TABLEFORMAT_END
  1
CELLSTYLE_BEGIN
 90
        3
 91
        2
300
_DATA
309
CELLSTYLE_END
  0
XRECORD
  5
2257F
102
{ACAD_REACTORS
330
2237A
102
}
330
2237A
100
AcDbXrecord
280
     1
102
ACAD_ROUNDTRIP_PRE2007_TABLESTYLE
 90
        4
 91
        0
  1

 92
        4
 93
        0
  2

 94
        4
 95
        0
  3

  0
XRECORD
  5
22592
102
{ACAD_REACTORS
330
22591
102
}
330
22591
100
AcDbXrecord
280
     1
102
RTVSPropertyOp0
 70
     1
102
RTVSPropertyOp1
 70
     1
102
RTVSPropertyOp2
 70
     1
102
RTVSPropertyOp3
 70
     1
102
RTVSPropertyOp4
 70
     1
102
RTVSPropertyOp5
 70
     1
102
RTVSPropertyOp6
 70
     1
102
RTVSPropertyOp7
 70
     1
102
RTVSPropertyOp8
 70
     1
102
RTVSPropertyOp9
 70
     1
102
RTVSPropertyOp10
 70
     1
102
RTVSPropertyOp11
 70
     1
102
RTVSPropertyOp12
 70
     1
102
RTVSPropertyOp13
 70
     1
102
RTVSPropertyOp14
 70
     1
102
RTVSPropertyOp15
 70
     1
102
RTVSPropertyOp16
 70
     1
102
RTVSPropertyOp17
 70
     1
102
RTVSPropertyOp18
 70
     1
102
RTVSPropertyOp19
 70
     1
102
RTVSPropertyOp20
 70
     1
102
RTVSPropertyOp21
 70
     1
102
RTVSPropertyOp22
 70
     1
102
RTVSPropertyOp23
 70
     1
102
RTVSPropertyOp24
 70
     1
102
RTVSPropertyOp25
 70
     1
102
RTVSPropertyOp26
 70
     1
102
RTVSPropertyOp27
 70
     1
102
RTVSPropertyOp28
 70
     1
102
RTVSPropertyOp29
 70
     1
102
RTVSPropertyOp30
 70
     1
102
RTVSPropertyOp31
 70
     1
102
RTVSPropertyOp32
 70
     1
  0
XRECORD
  5
22596
102
{ACAD_REACTORS
330
22595
102
}
330
22595
100
AcDbXrecord
280
     1
102
RTVSPropertyOp0
 70
     1
102
RTVSPropertyOp1
 70
     1
102
RTVSPropertyOp2
 70
     1
102
RTVSPropertyOp3
 70
     1
102
RTVSPropertyOp4
 70
     1
102
RTVSPropertyOp5
 70
     1
102
RTVSPropertyOp6
 70
     1
102
RTVSPropertyOp7
 70
     1
102
RTVSPropertyOp8
 70
     1
102
RTVSPropertyOp9
 70
     1
102
RTVSPropertyOp10
 70
     1
102
RTVSPropertyOp11
 70
     1
102
RTVSPropertyOp12
 70
     1
102
RTVSPropertyOp13
 70
     1
102
RTVSPropertyOp14
 70
     1
102
RTVSPropertyOp15
 70
     1
102
RTVSPropertyOp16
 70
     1
102
RTVSPropertyOp17
 70
     1
102
RTVSPropertyOp18
 70
     1
102
RTVSPropertyOp19
 70
     1
102
RTVSPropertyOp20
 70
     1
102
RTVSPropertyOp21
 70
     1
102
RTVSPropertyOp22
 70
     1
102
RTVSPropertyOp23
 70
     1
102
RTVSPropertyOp24
 70
     1
102
RTVSPropertyOp25
 70
     1
102
RTVSPropertyOp26
 70
     1
102
RTVSPropertyOp27
 70
     1
102
RTVSPropertyOp28
 70
     1
102
RTVSPropertyOp29
 70
     1
102
RTVSPropertyOp30
 70
     1
102
RTVSPropertyOp31
 70
     1
102
RTVSPropertyOp32
 70
     1
  0
XRECORD
  5
22594
102
{ACAD_REACTORS
330
22593
102
}
330
22593
100
AcDbXrecord
280
     1
102
RTVSPropertyOp0
 70
     1
102
RTVSPropertyOp1
 70
     1
102
RTVSPropertyOp2
 70
     1
102
RTVSPropertyOp3
 70
     1
102
RTVSPropertyOp4
 70
     1
102
RTVSPropertyOp5
 70
     1
102
RTVSPropertyOp6
 70
     1
102
RTVSPropertyOp7
 70
     1
102
RTVSPropertyOp8
 70
     1
102
RTVSPropertyOp9
 70
     1
102
RTVSPropertyOp10
 70
     1
102
RTVSPropertyOp11
 70
     1
102
RTVSPropertyOp12
 70
     1
102
RTVSPropertyOp13
 70
     1
102
RTVSPropertyOp14
 70
     1
102
RTVSPropertyOp15
 70
     1
102
RTVSPropertyOp16
 70
     1
102
RTVSPropertyOp17
 70
     1
102
RTVSPropertyOp18
 70
     1
102
RTVSPropertyOp19
 70
     1
102
RTVSPropertyOp20
 70
     1
102
RTVSPropertyOp21
 70
     1
102
RTVSPropertyOp22
 70
     1
102
RTVSPropertyOp23
 70
     1
102
RTVSPropertyOp24
 70
     1
102
RTVSPropertyOp25
 70
     1
102
RTVSPropertyOp26
 70
     1
102
RTVSPropertyOp27
 70
     1
102
RTVSPropertyOp28
 70
     1
102
RTVSPropertyOp29
 70
     1
102
RTVSPropertyOp30
 70
     1
102
RTVSPropertyOp31
 70
     1
102
RTVSPropertyOp32
 70
     1
  0
XRECORD
  5
22590
102
{ACAD_REACTORS
330
2258F
102
}
330
2258F
100
AcDbXrecord
280
     1
102
RTVSPropertyOp0
 70
     1
102
RTVSPropertyOp1
 70
     1
102
RTVSPropertyOp2
 70
     1
102
RTVSPropertyOp3
 70
     1
102
RTVSPropertyOp4
 70
     1
102
RTVSPropertyOp5
 70
     1
102
RTVSPropertyOp6
 70
     1
102
RTVSPropertyOp7
 70
     1
102
RTVSPropertyOp8
 70
     1
102
RTVSPropertyOp9
 70
     1
102
RTVSPropertyOp10
 70
     1
102
RTVSPropertyOp11
 70
     1
102
RTVSPropertyOp12
 70
     1
102
RTVSPropertyOp13
 70
     1
102
RTVSPropertyOp14
 70
     1
102
RTVSPropertyOp15
 70
     1
102
RTVSPropertyOp16
 70
     1
102
RTVSPropertyOp17
 70
     1
102
RTVSPropertyOp18
 70
     1
102
RTVSPropertyOp19
 70
     1
102
RTVSPropertyOp20
 70
     1
102
RTVSPropertyOp21
 70
     1
102
RTVSPropertyOp22
 70
     1
102
RTVSPropertyOp23
 70
     1
102
RTVSPropertyOp24
 70
     1
102
RTVSPropertyOp25
 70
     1
102
RTVSPropertyOp26
 70
     1
102
RTVSPropertyOp27
 70
     1
102
RTVSPropertyOp28
 70
     1
102
RTVSPropertyOp29
 70
     1
102
RTVSPropertyOp30
 70
     1
102
RTVSPropertyOp31
 70
     1
102
RTVSPropertyOp32
 70
     1
  0
XRECORD
  5
2259E
102
{ACAD_REACTORS
330
2259D
102
}
330
2259D
100
AcDbXrecord
280
     1
102
RTVSPropertyOp0
 70
     1
102
RTVSPropertyOp1
 70
     1
102
RTVSPropertyOp2
 70
     1
102
RTVSPropertyOp3
 70
     1
102
RTVSPropertyOp4
 70
     1
102
RTVSPropertyOp5
 70
     1
102
RTVSPropertyOp6
 70
     1
102
RTVSPropertyOp7
 70
     1
102
RTVSPropertyOp8
 70
     1
102
RTVSPropertyOp9
 70
     1
102
RTVSPropertyOp10
 70
     1
102
RTVSPropertyOp11
 70
     1
102
RTVSPropertyOp12
 70
     1
102
RTVSPropertyOp13
 70
     1
102
RTVSPropertyOp14
 70
     1
102
RTVSPropertyOp15
 70
     1
102
RTVSPropertyOp16
 70
     1
102
RTVSPropertyOp17
 70
     1
102
RTVSPropertyOp18
 70
     1
102
RTVSPropertyOp19
 70
     1
102
RTVSPropertyOp20
 70
     1
102
RTVSPropertyOp21
 70
     1
102
RTVSPropertyOp22
 70
     1
102
RTVSPropertyOp23
 70
     1
102
RTVSPropertyOp24
 70
     1
102
RTVSPropertyOp25
 70
     1
102
RTVSPropertyOp26
 70
     1
102
RTVSPropertyOp27
 70
     1
102
RTVSPropertyOp28
 70
     1
102
RTVSPropertyOp29
 70
     1
102
RTVSPropertyOp30
 70
     1
102
RTVSPropertyOp31
 70
     1
102
RTVSPropertyOp32
 70
     1
  0
XRECORD
  5
225A6
102
{ACAD_REACTORS
330
225A5
102
}
330
225A5
100
AcDbXrecord
280
     1
102
RTVSPropertyOp0
 70
     1
102
RTVSPropertyOp1
 70
     1
102
RTVSPropertyOp2
 70
     1
102
RTVSPropertyOp3
 70
     1
102
RTVSPropertyOp4
 70
     1
102
RTVSPropertyOp5
 70
     1
102
RTVSPropertyOp6
 70
     1
102
RTVSPropertyOp7
 70
     1
102
RTVSPropertyOp8
 70
     1
102
RTVSPropertyOp9
 70
     1
102
RTVSPropertyOp10
 70
     1
102
RTVSPropertyOp11
 70
     1
102
RTVSPropertyOp12
 70
     1
102
RTVSPropertyOp13
 70
     1
102
RTVSPropertyOp14
 70
     1
102
RTVSPropertyOp15
 70
     1
102
RTVSPropertyOp16
 70
     1
102
RTVSPropertyOp17
 70
     1
102
RTVSPropertyOp18
 70
     1
102
RTVSPropertyOp19
 70
     1
102
RTVSPropertyOp20
 70
     1
102
RTVSPropertyOp21
 70
     1
102
RTVSPropertyOp22
 70
     1
102
RTVSPropertyOp23
 70
     1
102
RTVSPropertyOp24
 70
     1
102
RTVSPropertyOp25
 70
     1
102
RTVSPropertyOp26
 70
     1
102
RTVSPropertyOp27
 70
     1
102
RTVSPropertyOp28
 70
     1
102
RTVSPropertyOp29
 70
     1
102
RTVSPropertyOp30
 70
     1
102
RTVSPropertyOp31
 70
     1
102
RTVSPropertyOp32
 70
     1
  0
XRECORD
  5
22598
102
{ACAD_REACTORS
330
22597
102
}
330
22597
100
AcDbXrecord
280
     1
102
RTVSPropertyOp0
 70
     1
102
RTVSPropertyOp1
 70
     1
102
RTVSPropertyOp2
 70
     1
102
RTVSPropertyOp3
 70
     1
102
RTVSPropertyOp4
 70
     1
102
RTVSPropertyOp5
 70
     1
102
RTVSPropertyOp6
 70
     1
102
RTVSPropertyOp7
 70
     1
102
RTVSPropertyOp8
 70
     1
102
RTVSPropertyOp9
 70
     1
102
RTVSPropertyOp10
 70
     1
102
RTVSPropertyOp11
 70
     1
102
RTVSPropertyOp12
 70
     1
102
RTVSPropertyOp13
 70
     1
102
RTVSPropertyOp14
 70
     1
102
RTVSPropertyOp15
 70
     1
102
RTVSPropertyOp16
 70
     1
102
RTVSPropertyOp17
 70
     1
102
RTVSPropertyOp18
 70
     1
102
RTVSPropertyOp19
 70
     1
102
RTVSPropertyOp20
 70
     1
102
RTVSPropertyOp21
 70
     1
102
RTVSPropertyOp22
 70
     1
102
RTVSPropertyOp23
 70
     1
102
RTVSPropertyOp24
 70
     1
102
RTVSPropertyOp25
 70
     1
102
RTVSPropertyOp26
 70
     1
102
RTVSPropertyOp27
 70
     1
102
RTVSPropertyOp28
 70
     1
102
RTVSPropertyOp29
 70
     1
102
RTVSPropertyOp30
 70
     1
102
RTVSPropertyOp31
 70
     1
102
RTVSPropertyOp32
 70
     1
  0
XRECORD
  5
2259C
102
{ACAD_REACTORS
330
2259B
102
}
330
2259B
100
AcDbXrecord
280
     1
102
RTVSPropertyOp0
 70
     1
102
RTVSPropertyOp1
 70
     1
102
RTVSPropertyOp2
 70
     1
102
RTVSPropertyOp3
 70
     1
102
RTVSPropertyOp4
 70
     1
102
RTVSPropertyOp5
 70
     1
102
RTVSPropertyOp6
 70
     1
102
RTVSPropertyOp7
 70
     1
102
RTVSPropertyOp8
 70
     1
102
RTVSPropertyOp9
 70
     1
102
RTVSPropertyOp10
 70
     1
102
RTVSPropertyOp11
 70
     1
102
RTVSPropertyOp12
 70
     1
102
RTVSPropertyOp13
 70
     1
102
RTVSPropertyOp14
 70
     1
102
RTVSPropertyOp15
 70
     1
102
RTVSPropertyOp16
 70
     1
102
RTVSPropertyOp17
 70
     1
102
RTVSPropertyOp18
 70
     1
102
RTVSPropertyOp19
 70
     1
102
RTVSPropertyOp20
 70
     1
102
RTVSPropertyOp21
 70
     1
102
RTVSPropertyOp22
 70
     1
102
RTVSPropertyOp23
 70
     1
102
RTVSPropertyOp24
 70
     1
102
RTVSPropertyOp25
 70
     1
102
RTVSPropertyOp26
 70
     1
102
RTVSPropertyOp27
 70
     1
102
RTVSPropertyOp28
 70
     1
102
RTVSPropertyOp29
 70
     1
102
RTVSPropertyOp30
 70
     1
102
RTVSPropertyOp31
 70
     1
102
RTVSPropertyOp32
 70
     1
  0
XRECORD
  5
225AC
102
{ACAD_REACTORS
330
225AB
102
}
330
225AB
100
AcDbXrecord
280
     1
102
RTVSPropertyOp0
 70
     0
102
RTVSPropertyOp1
 70
     0
102
RTVSPropertyOp2
 70
     0
102
RTVSPropertyOp3
 70
     0
102
RTVSPropertyOp4
 70
     0
102
RTVSPropertyOp5
 70
     0
102
RTVSPropertyOp6
 70
     0
102
RTVSPropertyOp7
 70
     0
102
RTVSPropertyOp8
 70
     0
102
RTVSPropertyOp9
 70
     0
102
RTVSPropertyOp10
 70
     0
102
RTVSPropertyOp11
 70
     0
102
RTVSPropertyOp12
 70
     0
102
RTVSPropertyOp13
 70
     0
102
RTVSPropertyOp14
 70
     2
102
RTVSPropertyOp15
 70
     0
102
RTVSPropertyOp16
 70
     0
102
RTVSPropertyOp17
 70
     0
102
RTVSPropertyOp18
 70
     0
102
RTVSPropertyOp19
 70
     0
102
RTVSPropertyOp20
 70
     0
102
RTVSPropertyOp21
 70
     0
102
RTVSPropertyOp22
 70
     0
102
RTVSPropertyOp23
 70
     0
102
RTVSPropertyOp24
 70
     0
102
RTVSPropertyOp25
 70
     0
102
RTVSPropertyOp26
 70
     0
102
RTVSPropertyOp27
 70
     0
102
RTVSPropertyOp28
 70
     1
102
RTVSPropertyOp29
 70
     1
102
RTVSPropertyOp30
 70
     1
102
RTVSPropertyOp31
 70
     1
102
RTVSPropertyOp32
 70
     1
  0
XRECORD
  5
225A4
102
{ACAD_REACTORS
330
225A3
102
}
330
225A3
100
AcDbXrecord
280
     1
102
RTVSPropertyOp0
 70
     1
102
RTVSPropertyOp1
 70
     1
102
RTVSPropertyOp2
 70
     1
102
RTVSPropertyOp3
 70
     1
102
RTVSPropertyOp4
 70
     1
102
RTVSPropertyOp5
 70
     1
102
RTVSPropertyOp6
 70
     1
102
RTVSPropertyOp7
 70
     1
102
RTVSPropertyOp8
 70
     1
102
RTVSPropertyOp9
 70
     1
102
RTVSPropertyOp10
 70
     1
102
RTVSPropertyOp11
 70
     1
102
RTVSPropertyOp12
 70
     1
102
RTVSPropertyOp13
 70
     1
102
RTVSPropertyOp14
 70
     1
102
RTVSPropertyOp15
 70
     1
102
RTVSPropertyOp16
 70
     1
102
RTVSPropertyOp17
 70
     1
102
RTVSPropertyOp18
 70
     1
102
RTVSPropertyOp19
 70
     1
102
RTVSPropertyOp20
 70
     1
102
RTVSPropertyOp21
 70
     1
102
RTVSPropertyOp22
 70
     1
102
RTVSPropertyOp23
 70
     1
102
RTVSPropertyOp24
 70
     1
102
RTVSPropertyOp25
 70
     1
102
RTVSPropertyOp26
 70
     1
102
RTVSPropertyOp27
 70
     1
102
RTVSPropertyOp28
 70
     1
102
RTVSPropertyOp29
 70
     1
102
RTVSPropertyOp30
 70
     1
102
RTVSPropertyOp31
 70
     1
102
RTVSPropertyOp32
 70
     1
  0
XRECORD
  5
22588
102
{ACAD_REACTORS
330
22587
102
}
330
22587
100
AcDbXrecord
280
     1
102
RTVSPropertyOp0
 70
     1
102
RTVSPropertyOp1
 70
     1
102
RTVSPropertyOp2
 70
     1
102
RTVSPropertyOp3
 70
     1
102
RTVSPropertyOp4
 70
     1
102
RTVSPropertyOp5
 70
     1
102
RTVSPropertyOp6
 70
     1
102
RTVSPropertyOp7
 70
     1
102
RTVSPropertyOp8
 70
     1
102
RTVSPropertyOp9
 70
     1
102
RTVSPropertyOp10
 70
     1
102
RTVSPropertyOp11
 70
     1
102
RTVSPropertyOp12
 70
     1
102
RTVSPropertyOp13
 70
     1
102
RTVSPropertyOp14
 70
     1
102
RTVSPropertyOp15
 70
     1
102
RTVSPropertyOp16
 70
     1
102
RTVSPropertyOp17
 70
     1
102
RTVSPropertyOp18
 70
     1
102
RTVSPropertyOp19
 70
     1
102
RTVSPropertyOp20
 70
     1
102
RTVSPropertyOp21
 70
     1
102
RTVSPropertyOp22
 70
     1
102
RTVSPropertyOp23
 70
     1
102
RTVSPropertyOp24
 70
     1
102
RTVSPropertyOp25
 70
     1
102
RTVSPropertyOp26
 70
     1
102
RTVSPropertyOp27
 70
     1
102
RTVSPropertyOp28
 70
     1
102
RTVSPropertyOp29
 70
     1
102
RTVSPropertyOp30
 70
     1
102
RTVSPropertyOp31
 70
     1
102
RTVSPropertyOp32
 70
     1
  0
XRECORD
  5
2258A
102
{ACAD_REACTORS
330
22589
102
}
330
22589
100
AcDbXrecord
280
     1
102
RTVSPropertyOp0
 70
     1
102
RTVSPropertyOp1
 70
     1
102
RTVSPropertyOp2
 70
     1
102
RTVSPropertyOp3
 70
     1
102
RTVSPropertyOp4
 70
     1
102
RTVSPropertyOp5
 70
     1
102
RTVSPropertyOp6
 70
     1
102
RTVSPropertyOp7
 70
     1
102
RTVSPropertyOp8
 70
     1
102
RTVSPropertyOp9
 70
     1
102
RTVSPropertyOp10
 70
     1
102
RTVSPropertyOp11
 70
     1
102
RTVSPropertyOp12
 70
     1
102
RTVSPropertyOp13
 70
     1
102
RTVSPropertyOp14
 70
     1
102
RTVSPropertyOp15
 70
     1
102
RTVSPropertyOp16
 70
     1
102
RTVSPropertyOp17
 70
     1
102
RTVSPropertyOp18
 70
     1
102
RTVSPropertyOp19
 70
     1
102
RTVSPropertyOp20
 70
     1
102
RTVSPropertyOp21
 70
     1
102
RTVSPropertyOp22
 70
     1
102
RTVSPropertyOp23
 70
     1
102
RTVSPropertyOp24
 70
     1
102
RTVSPropertyOp25
 70
     1
102
RTVSPropertyOp26
 70
     1
102
RTVSPropertyOp27
 70
     1
102
RTVSPropertyOp28
 70
     1
102
RTVSPropertyOp29
 70
     1
102
RTVSPropertyOp30
 70
     1
102
RTVSPropertyOp31
 70
     1
102
RTVSPropertyOp32
 70
     1
  0
XRECORD
  5
2258C
102
{ACAD_REACTORS
330
2258B
102
}
330
2258B
100
AcDbXrecord
280
     1
102
RTVSPropertyOp0
 70
     1
102
RTVSPropertyOp1
 70
     1
102
RTVSPropertyOp2
 70
     1
102
RTVSPropertyOp3
 70
     1
102
RTVSPropertyOp4
 70
     1
102
RTVSPropertyOp5
 70
     1
102
RTVSPropertyOp6
 70
     1
102
RTVSPropertyOp7
 70
     1
102
RTVSPropertyOp8
 70
     1
102
RTVSPropertyOp9
 70
     1
102
RTVSPropertyOp10
 70
     1
102
RTVSPropertyOp11
 70
     1
102
RTVSPropertyOp12
 70
     1
102
RTVSPropertyOp13
 70
     1
102
RTVSPropertyOp14
 70
     1
102
RTVSPropertyOp15
 70
     1
102
RTVSPropertyOp16
 70
     1
102
RTVSPropertyOp17
 70
     1
102
RTVSPropertyOp18
 70
     1
102
RTVSPropertyOp19
 70
     1
102
RTVSPropertyOp20
 70
     1
102
RTVSPropertyOp21
 70
     1
102
RTVSPropertyOp22
 70
     1
102
RTVSPropertyOp23
 70
     1
102
RTVSPropertyOp24
 70
     1
102
RTVSPropertyOp25
 70
     1
102
RTVSPropertyOp26
 70
     1
102
RTVSPropertyOp27
 70
     1
102
RTVSPropertyOp28
 70
     1
102
RTVSPropertyOp29
 70
     1
102
RTVSPropertyOp30
 70
     1
102
RTVSPropertyOp31
 70
     1
102
RTVSPropertyOp32
 70
     1
  0
XRECORD
  5
2258E
102
{ACAD_REACTORS
330
2258D
102
}
330
2258D
100
AcDbXrecord
280
     1
102
RTVSPropertyOp0
 70
     1
102
RTVSPropertyOp1
 70
     1
102
RTVSPropertyOp2
 70
     1
102
RTVSPropertyOp3
 70
     1
102
RTVSPropertyOp4
 70
     1
102
RTVSPropertyOp5
 70
     1
102
RTVSPropertyOp6
 70
     1
102
RTVSPropertyOp7
 70
     1
102
RTVSPropertyOp8
 70
     1
102
RTVSPropertyOp9
 70
     1
102
RTVSPropertyOp10
 70
     1
102
RTVSPropertyOp11
 70
     1
102
RTVSPropertyOp12
 70
     1
102
RTVSPropertyOp13
 70
     1
102
RTVSPropertyOp14
 70
     1
102
RTVSPropertyOp15
 70
     1
102
RTVSPropertyOp16
 70
     1
102
RTVSPropertyOp17
 70
     1
102
RTVSPropertyOp18
 70
     1
102
RTVSPropertyOp19
 70
     1
102
RTVSPropertyOp20
 70
     1
102
RTVSPropertyOp21
 70
     1
102
RTVSPropertyOp22
 70
     1
102
RTVSPropertyOp23
 70
     1
102
RTVSPropertyOp24
 70
     1
102
RTVSPropertyOp25
 70
     1
102
RTVSPropertyOp26
 70
     1
102
RTVSPropertyOp27
 70
     1
102
RTVSPropertyOp28
 70
     1
102
RTVSPropertyOp29
 70
     1
102
RTVSPropertyOp30
 70
     1
102
RTVSPropertyOp31
 70
     1
102
RTVSPropertyOp32
 70
     1
  0
XRECORD
  5
225B0
102
{ACAD_REACTORS
330
225AF
102
}
330
225AF
100
AcDbXrecord
280
     1
102
RTVSPropertyOp0
 70
     1
102
RTVSPropertyOp1
 70
     1
102
RTVSPropertyOp2
 70
     1
102
RTVSPropertyOp3
 70
     1
102
RTVSPropertyOp4
 70
     1
102
RTVSPropertyOp5
 70
     1
102
RTVSPropertyOp6
 70
     1
102
RTVSPropertyOp7
 70
     1
102
RTVSPropertyOp8
 70
     1
102
RTVSPropertyOp9
 70
     1
102
RTVSPropertyOp10
 70
     1
102
RTVSPropertyOp11
 70
     1
102
RTVSPropertyOp12
 70
     1
102
RTVSPropertyOp13
 70
     1
102
RTVSPropertyOp14
 70
     1
102
RTVSPropertyOp15
 70
     1
102
RTVSPropertyOp16
 70
     1
102
RTVSPropertyOp17
 70
     1
102
RTVSPropertyOp18
 70
     1
102
RTVSPropertyOp19
 70
     1
102
RTVSPropertyOp20
 70
     1
102
RTVSPropertyOp21
 70
     1
102
RTVSPropertyOp22
 70
     1
102
RTVSPropertyOp23
 70
     1
102
RTVSPropertyOp24
 70
     1
102
RTVSPropertyOp25
 70
     1
102
RTVSPropertyOp26
 70
     1
102
RTVSPropertyOp27
 70
     1
102
RTVSPropertyOp28
 70
     1
102
RTVSPropertyOp29
 70
     1
102
RTVSPropertyOp30
 70
     1
102
RTVSPropertyOp31
 70
     1
102
RTVSPropertyOp32
 70
     1
  0
XRECORD
  5
225A8
102
{ACAD_REACTORS
330
225A7
102
}
330
225A7
100
AcDbXrecord
280
     1
102
RTVSPropertyOp0
 70
     0
102
RTVSPropertyOp1
 70
     0
102
RTVSPropertyOp2
 70
     0
102
RTVSPropertyOp3
 70
     0
102
RTVSPropertyOp4
 70
     0
102
RTVSPropertyOp5
 70
     0
102
RTVSPropertyOp6
 70
     0
102
RTVSPropertyOp7
 70
     0
102
RTVSPropertyOp8
 70
     0
102
RTVSPropertyOp9
 70
     0
102
RTVSPropertyOp10
 70
     0
102
RTVSPropertyOp11
 70
     0
102
RTVSPropertyOp12
 70
     0
102
RTVSPropertyOp13
 70
     0
102
RTVSPropertyOp14
 70
     2
102
RTVSPropertyOp15
 70
     0
102
RTVSPropertyOp16
 70
     0
102
RTVSPropertyOp17
 70
     0
102
RTVSPropertyOp18
 70
     0
102
RTVSPropertyOp19
 70
     0
102
RTVSPropertyOp20
 70
     0
102
RTVSPropertyOp21
 70
     0
102
RTVSPropertyOp22
 70
     0
102
RTVSPropertyOp23
 70
     0
102
RTVSPropertyOp24
 70
     0
102
RTVSPropertyOp25
 70
     0
102
RTVSPropertyOp26
 70
     0
102
RTVSPropertyOp27
 70
     0
102
RTVSPropertyOp28
 70
     1
102
RTVSPropertyOp29
 70
     1
102
RTVSPropertyOp30
 70
     1
102
RTVSPropertyOp31
 70
     1
102
RTVSPropertyOp32
 70
     1
  0
XRECORD
  5
225A2
102
{ACAD_REACTORS
330
225A1
102
}
330
225A1
100
AcDbXrecord
280
     1
102
RTVSPropertyOp0
 70
     1
102
RTVSPropertyOp1
 70
     1
102
RTVSPropertyOp2
 70
     1
102
RTVSPropertyOp3
 70
     1
102
RTVSPropertyOp4
 70
     1
102
RTVSPropertyOp5
 70
     1
102
RTVSPropertyOp6
 70
     1
102
RTVSPropertyOp7
 70
     1
102
RTVSPropertyOp8
 70
     1
102
RTVSPropertyOp9
 70
     1
102
RTVSPropertyOp10
 70
     1
102
RTVSPropertyOp11
 70
     1
102
RTVSPropertyOp12
 70
     1
102
RTVSPropertyOp13
 70
     1
102
RTVSPropertyOp14
 70
     1
102
RTVSPropertyOp15
 70
     1
102
RTVSPropertyOp16
 70
     1
102
RTVSPropertyOp17
 70
     1
102
RTVSPropertyOp18
 70
     1
102
RTVSPropertyOp19
 70
     1
102
RTVSPropertyOp20
 70
     1
102
RTVSPropertyOp21
 70
     1
102
RTVSPropertyOp22
 70
     1
102
RTVSPropertyOp23
 70
     1
102
RTVSPropertyOp24
 70
     1
102
RTVSPropertyOp25
 70
     1
102
RTVSPropertyOp26
 70
     1
102
RTVSPropertyOp27
 70
     1
102
RTVSPropertyOp28
 70
     1
102
RTVSPropertyOp29
 70
     1
102
RTVSPropertyOp30
 70
     1
102
RTVSPropertyOp31
 70
     1
102
RTVSPropertyOp32
 70
     1
  0
XRECORD
  5
225AA
102
{ACAD_REACTORS
330
225A9
102
}
330
225A9
100
AcDbXrecord
280
     1
102
RTVSPropertyOp0
 70
     0
102
RTVSPropertyOp1
 70
     0
102
RTVSPropertyOp2
 70
     0
102
RTVSPropertyOp3
 70
     0
102
RTVSPropertyOp4
 70
     0
102
RTVSPropertyOp5
 70
     0
102
RTVSPropertyOp6
 70
     0
102
RTVSPropertyOp7
 70
     0
102
RTVSPropertyOp8
 70
     0
102
RTVSPropertyOp9
 70
     0
102
RTVSPropertyOp10
 70
     0
102
RTVSPropertyOp11
 70
     0
102
RTVSPropertyOp12
 70
     0
102
RTVSPropertyOp13
 70
     0
102
RTVSPropertyOp14
 70
     2
102
RTVSPropertyOp15
 70
     0
102
RTVSPropertyOp16
 70
     0
102
RTVSPropertyOp17
 70
     0
102
RTVSPropertyOp18
 70
     0
102
RTVSPropertyOp19
 70
     0
102
RTVSPropertyOp20
 70
     0
102
RTVSPropertyOp21
 70
     0
102
RTVSPropertyOp22
 70
     0
102
RTVSPropertyOp23
 70
     0
102
RTVSPropertyOp24
 70
     0
102
RTVSPropertyOp25
 70
     0
102
RTVSPropertyOp26
 70
     0
102
RTVSPropertyOp27
 70
     0
102
RTVSPropertyOp28
 70
     1
102
RTVSPropertyOp29
 70
     1
102
RTVSPropertyOp30
 70
     1
102
RTVSPropertyOp31
 70
     1
102
RTVSPropertyOp32
 70
     1
  0
XRECORD
  5
2259A
102
{ACAD_REACTORS
330
22599
102
}
330
22599
100
AcDbXrecord
280
     1
102
RTVSPropertyOp0
 70
     1
102
RTVSPropertyOp1
 70
     1
102
RTVSPropertyOp2
 70
     1
102
RTVSPropertyOp3
 70
     1
102
RTVSPropertyOp4
 70
     1
102
RTVSPropertyOp5
 70
     1
102
RTVSPropertyOp6
 70
     1
102
RTVSPropertyOp7
 70
     1
102
RTVSPropertyOp8
 70
     1
102
RTVSPropertyOp9
 70
     1
102
RTVSPropertyOp10
 70
     1
102
RTVSPropertyOp11
 70
     1
102
RTVSPropertyOp12
 70
     1
102
RTVSPropertyOp13
 70
     1
102
RTVSPropertyOp14
 70
     1
102
RTVSPropertyOp15
 70
     1
102
RTVSPropertyOp16
 70
     1
102
RTVSPropertyOp17
 70
     1
102
RTVSPropertyOp18
 70
     1
102
RTVSPropertyOp19
 70
     1
102
RTVSPropertyOp20
 70
     1
102
RTVSPropertyOp21
 70
     1
102
RTVSPropertyOp22
 70
     1
102
RTVSPropertyOp23
 70
     1
102
RTVSPropertyOp24
 70
     1
102
RTVSPropertyOp25
 70
     1
102
RTVSPropertyOp26
 70
     1
102
RTVSPropertyOp27
 70
     1
102
RTVSPropertyOp28
 70
     1
102
RTVSPropertyOp29
 70
     1
102
RTVSPropertyOp30
 70
     1
102
RTVSPropertyOp31
 70
     1
102
RTVSPropertyOp32
 70
     1
  0
XRECORD
  5
225BA
102
{ACAD_REACTORS
330
225B9
102
}
330
225B9
100
AcDbXrecord
280
     1
102
RTVSPropertyOp0
 70
     1
102
RTVSPropertyOp1
 70
     1
102
RTVSPropertyOp2
 70
     1
102
RTVSPropertyOp3
 70
     1
102
RTVSPropertyOp4
 70
     1
102
RTVSPropertyOp5
 70
     1
102
RTVSPropertyOp6
 70
     1
102
RTVSPropertyOp7
 70
     1
102
RTVSPropertyOp8
 70
     1
102
RTVSPropertyOp9
 70
     1
102
RTVSPropertyOp10
 70
     1
102
RTVSPropertyOp11
 70
     1
102
RTVSPropertyOp12
 70
     1
102
RTVSPropertyOp13
 70
     1
102
RTVSPropertyOp14
 70
     1
102
RTVSPropertyOp15
 70
     1
102
RTVSPropertyOp16
 70
     1
102
RTVSPropertyOp17
 70
     1
102
RTVSPropertyOp18
 70
     1
102
RTVSPropertyOp19
 70
     1
102
RTVSPropertyOp20
 70
     1
102
RTVSPropertyOp21
 70
     1
102
RTVSPropertyOp22
 70
     1
102
RTVSPropertyOp23
 70
     1
102
RTVSPropertyOp24
 70
     1
102
RTVSPropertyOp25
 70
     1
102
RTVSPropertyOp26
 70
     1
102
RTVSPropertyOp27
 70
     1
102
RTVSPropertyOp28
 70
     1
102
RTVSPropertyOp29
 70
     1
102
RTVSPropertyOp30
 70
     1
102
RTVSPropertyOp31
 70
     1
102
RTVSPropertyOp32
 70
     1
  0
XRECORD
  5
225B8
102
{ACAD_REACTORS
330
225B7
102
}
330
225B7
100
AcDbXrecord
280
     1
102
RTVSPropertyOp0
 70
     1
102
RTVSPropertyOp1
 70
     1
102
RTVSPropertyOp2
 70
     1
102
RTVSPropertyOp3
 70
     1
102
RTVSPropertyOp4
 70
     1
102
RTVSPropertyOp5
 70
     1
102
RTVSPropertyOp6
 70
     1
102
RTVSPropertyOp7
 70
     1
102
RTVSPropertyOp8
 70
     1
102
RTVSPropertyOp9
 70
     1
102
RTVSPropertyOp10
 70
     1
102
RTVSPropertyOp11
 70
     1
102
RTVSPropertyOp12
 70
     1
102
RTVSPropertyOp13
 70
     1
102
RTVSPropertyOp14
 70
     1
102
RTVSPropertyOp15
 70
     1
102
RTVSPropertyOp16
 70
     1
102
RTVSPropertyOp17
 70
     1
102
RTVSPropertyOp18
 70
     1
102
RTVSPropertyOp19
 70
     1
102
RTVSPropertyOp20
 70
     1
102
RTVSPropertyOp21
 70
     1
102
RTVSPropertyOp22
 70
     1
102
RTVSPropertyOp23
 70
     1
102
RTVSPropertyOp24
 70
     1
102
RTVSPropertyOp25
 70
     1
102
RTVSPropertyOp26
 70
     1
102
RTVSPropertyOp27
 70
     1
102
RTVSPropertyOp28
 70
     1
102
RTVSPropertyOp29
 70
     1
102
RTVSPropertyOp30
 70
     1
102
RTVSPropertyOp31
 70
     1
102
RTVSPropertyOp32
 70
     1
  0
XRECORD
  5
225B2
102
{ACAD_REACTORS
330
225B1
102
}
330
225B1
100
AcDbXrecord
280
     1
102
RTVSPropertyOp0
 70
     1
102
RTVSPropertyOp1
 70
     1
102
RTVSPropertyOp2
 70
     1
102
RTVSPropertyOp3
 70
     1
102
RTVSPropertyOp4
 70
     1
102
RTVSPropertyOp5
 70
     1
102
RTVSPropertyOp6
 70
     1
102
RTVSPropertyOp7
 70
     1
102
RTVSPropertyOp8
 70
     1
102
RTVSPropertyOp9
 70
     1
102
RTVSPropertyOp10
 70
     1
102
RTVSPropertyOp11
 70
     1
102
RTVSPropertyOp12
 70
     1
102
RTVSPropertyOp13
 70
     1
102
RTVSPropertyOp14
 70
     1
102
RTVSPropertyOp15
 70
     1
102
RTVSPropertyOp16
 70
     1
102
RTVSPropertyOp17
 70
     1
102
RTVSPropertyOp18
 70
     1
102
RTVSPropertyOp19
 70
     1
102
RTVSPropertyOp20
 70
     1
102
RTVSPropertyOp21
 70
     1
102
RTVSPropertyOp22
 70
     1
102
RTVSPropertyOp23
 70
     1
102
RTVSPropertyOp24
 70
     1
102
RTVSPropertyOp25
 70
     1
102
RTVSPropertyOp26
 70
     1
102
RTVSPropertyOp27
 70
     1
102
RTVSPropertyOp28
 70
     1
102
RTVSPropertyOp29
 70
     1
102
RTVSPropertyOp30
 70
     1
102
RTVSPropertyOp31
 70
     1
102
RTVSPropertyOp32
 70
     1
  0
XRECORD
  5
225B4
102
{ACAD_REACTORS
330
225B3
102
}
330
225B3
100
AcDbXrecord
280
     1
102
RTVSPropertyOp0
 70
     1
102
RTVSPropertyOp1
 70
     1
102
RTVSPropertyOp2
 70
     1
102
RTVSPropertyOp3
 70
     1
102
RTVSPropertyOp4
 70
     1
102
RTVSPropertyOp5
 70
     1
102
RTVSPropertyOp6
 70
     1
102
RTVSPropertyOp7
 70
     1
102
RTVSPropertyOp8
 70
     1
102
RTVSPropertyOp9
 70
     1
102
RTVSPropertyOp10
 70
     1
102
RTVSPropertyOp11
 70
     1
102
RTVSPropertyOp12
 70
     1
102
RTVSPropertyOp13
 70
     1
102
RTVSPropertyOp14
 70
     1
102
RTVSPropertyOp15
 70
     1
102
RTVSPropertyOp16
 70
     1
102
RTVSPropertyOp17
 70
     1
102
RTVSPropertyOp18
 70
     1
102
RTVSPropertyOp19
 70
     1
102
RTVSPropertyOp20
 70
     1
102
RTVSPropertyOp21
 70
     1
102
RTVSPropertyOp22
 70
     1
102
RTVSPropertyOp23
 70
     1
102
RTVSPropertyOp24
 70
     1
102
RTVSPropertyOp25
 70
     1
102
RTVSPropertyOp26
 70
     1
102
RTVSPropertyOp27
 70
     1
102
RTVSPropertyOp28
 70
     1
102
RTVSPropertyOp29
 70
     1
102
RTVSPropertyOp30
 70
     1
102
RTVSPropertyOp31
 70
     1
102
RTVSPropertyOp32
 70
     1
  0
XRECORD
  5
225A0
102
{ACAD_REACTORS
330
2259F
102
}
330
2259F
100
AcDbXrecord
280
     1
102
RTVSPropertyOp0
 70
     1
102
RTVSPropertyOp1
 70
     1
102
RTVSPropertyOp2
 70
     1
102
RTVSPropertyOp3
 70
     1
102
RTVSPropertyOp4
 70
     1
102
RTVSPropertyOp5
 70
     1
102
RTVSPropertyOp6
 70
     1
102
RTVSPropertyOp7
 70
     1
102
RTVSPropertyOp8
 70
     1
102
RTVSPropertyOp9
 70
     1
102
RTVSPropertyOp10
 70
     1
102
RTVSPropertyOp11
 70
     1
102
RTVSPropertyOp12
 70
     1
102
RTVSPropertyOp13
 70
     1
102
RTVSPropertyOp14
 70
     1
102
RTVSPropertyOp15
 70
     1
102
RTVSPropertyOp16
 70
     1
102
RTVSPropertyOp17
 70
     1
102
RTVSPropertyOp18
 70
     1
102
RTVSPropertyOp19
 70
     1
102
RTVSPropertyOp20
 70
     1
102
RTVSPropertyOp21
 70
     1
102
RTVSPropertyOp22
 70
     1
102
RTVSPropertyOp23
 70
     1
102
RTVSPropertyOp24
 70
     1
102
RTVSPropertyOp25
 70
     1
102
RTVSPropertyOp26
 70
     1
102
RTVSPropertyOp27
 70
     1
102
RTVSPropertyOp28
 70
     1
102
RTVSPropertyOp29
 70
     1
102
RTVSPropertyOp30
 70
     1
102
RTVSPropertyOp31
 70
     1
102
RTVSPropertyOp32
 70
     1
  0
XRECORD
  5
225AE
102
{ACAD_REACTORS
330
225AD
102
}
330
225AD
100
AcDbXrecord
280
     1
102
RTVSPropertyOp0
 70
     1
102
RTVSPropertyOp1
 70
     1
102
RTVSPropertyOp2
 70
     1
102
RTVSPropertyOp3
 70
     1
102
RTVSPropertyOp4
 70
     1
102
RTVSPropertyOp5
 70
     1
102
RTVSPropertyOp6
 70
     1
102
RTVSPropertyOp7
 70
     1
102
RTVSPropertyOp8
 70
     1
102
RTVSPropertyOp9
 70
     1
102
RTVSPropertyOp10
 70
     1
102
RTVSPropertyOp11
 70
     1
102
RTVSPropertyOp12
 70
     1
102
RTVSPropertyOp13
 70
     1
102
RTVSPropertyOp14
 70
     1
102
RTVSPropertyOp15
 70
     1
102
RTVSPropertyOp16
 70
     1
102
RTVSPropertyOp17
 70
     1
102
RTVSPropertyOp18
 70
     1
102
RTVSPropertyOp19
 70
     1
102
RTVSPropertyOp20
 70
     1
102
RTVSPropertyOp21
 70
     1
102
RTVSPropertyOp22
 70
     1
102
RTVSPropertyOp23
 70
     1
102
RTVSPropertyOp24
 70
     1
102
RTVSPropertyOp25
 70
     1
102
RTVSPropertyOp26
 70
     1
102
RTVSPropertyOp27
 70
     1
102
RTVSPropertyOp28
 70
     1
102
RTVSPropertyOp29
 70
     1
102
RTVSPropertyOp30
 70
     1
102
RTVSPropertyOp31
 70
     1
102
RTVSPropertyOp32
 70
     1
  0
XRECORD
  5
225B6
102
{ACAD_REACTORS
330
225B5
102
}
330
225B5
100
AcDbXrecord
280
     1
102
RTVSPropertyOp0
 70
     1
102
RTVSPropertyOp1
 70
     1
102
RTVSPropertyOp2
 70
     1
102
RTVSPropertyOp3
 70
     1
102
RTVSPropertyOp4
 70
     1
102
RTVSPropertyOp5
 70
     1
102
RTVSPropertyOp6
 70
     1
102
RTVSPropertyOp7
 70
     1
102
RTVSPropertyOp8
 70
     1
102
RTVSPropertyOp9
 70
     1
102
RTVSPropertyOp10
 70
     1
102
RTVSPropertyOp11
 70
     1
102
RTVSPropertyOp12
 70
     1
102
RTVSPropertyOp13
 70
     1
102
RTVSPropertyOp14
 70
     1
102
RTVSPropertyOp15
 70
     1
102
RTVSPropertyOp16
 70
     1
102
RTVSPropertyOp17
 70
     1
102
RTVSPropertyOp18
 70
     1
102
RTVSPropertyOp19
 70
     1
102
RTVSPropertyOp20
 70
     1
102
RTVSPropertyOp21
 70
     1
102
RTVSPropertyOp22
 70
     1
102
RTVSPropertyOp23
 70
     1
102
RTVSPropertyOp24
 70
     1
102
RTVSPropertyOp25
 70
     1
102
RTVSPropertyOp26
 70
     1
102
RTVSPropertyOp27
 70
     1
102
RTVSPropertyOp28
 70
     1
102
RTVSPropertyOp29
 70
     1
102
RTVSPropertyOp30
 70
     1
102
RTVSPropertyOp31
 70
     1
102
RTVSPropertyOp32
 70
     1
  0
ENDSEC
  0
EOF
