  0
SECTION
  2
HEADER
  9
$ACADVER
  1
AC1015
  9
$ACADMAINTVER
 70
    20
  9
$DWGCODEPAGE
  3
ANSI_1250
  9
$INSBASE
 10
0.0
 20
0.0
 30
0.0
  9
$EXTMIN
 10
2294.839457160986
 20
789.9274558709119
 30
0.0
  9
$EXTMAX
 10
7648.752378678992
 20
8614.319568569463
 30
0.0
  9
$LIMMIN
 10
0.0
 20
0.0
  9
$LIMMAX
 10
14850.0
 20
10500.0
  9
$ORTHOMODE
 70
     0
  9
$REGENMODE
 70
     1
  9
$FILLMODE
 70
     1
  9
$QTEXTMODE
 70
     0
  9
$MIRRTEXT
 70
     0
  9
$LTSCALE
 40
50.0
  9
$ATTMODE
 70
     1
  9
$TEXTSIZE
 40
0.2
  9
$TRACEWID
 40
0.05
  9
$TEXTSTYLE
  7
Standard
  9
$CLAYER
  8
0
  9
$CELTYPE
  6
ByLayer
  9
$CECOLOR
 62
   256
  9
$CELTSCALE
 40
1.0
  9
$DISPSILH
 70
     0
  9
$DIMSCALE
 40
1.0
  9
$DIMASZ
 40
1.799999999999999
  9
$DIMEXO
 40
0.0625
  9
$DIMDLI
 40
0.38
  9
$DIMRND
 40
0.0
  9
$DIMDLE
 40
0.0
  9
$DIMEXE
 40
0.18
  9
$DIMTP
 40
0.0
  9
$DIMTM
 40
0.0
  9
$DIMTXT
 40
0.25
  9
$DIMCEN
 40
0.09
  9
$DIMTSZ
 40
0.0
  9
$DIMTOL
 70
     0
  9
$DIMLIM
 70
     0
  9
$DIMTIH
 70
     1
  9
$DIMTOH
 70
     1
  9
$DIMSE1
 70
     0
  9
$DIMSE2
 70
     0
  9
$DIMTAD
 70
     0
  9
$DIMZIN
 70
     0
  9
$DIMBLK
  1

  9
$DIMASO
 70
     1
  9
$DIMSHO
 70
     1
  9
$DIMPOST
  1

  9
$DIMAPOST
  1

  9
$DIMALT
 70
     0
  9
$DIMALTD
 70
     2
  9
$DIMALTF
 40
25.4
  9
$DIMLFAC
 40
1.0
  9
$DIMTOFL
 70
     0
  9
$DIMTVP
 40
0.0
  9
$DIMTIX
 70
     0
  9
$DIMSOXD
 70
     0
  9
$DIMSAH
 70
     0
  9
$DIMBLK1
  1

  9
$DIMBLK2
  1

  9
$DIMSTYLE
  2
Standard
  9
$DIMCLRD
 70
     0
  9
$DIMCLRE
 70
     0
  9
$DIMCLRT
 70
     0
  9
$DIMTFAC
 40
1.0
  9
$DIMGAP
 40
0.09
  9
$DIMJUST
 70
     0
  9
$DIMSD1
 70
     0
  9
$DIMSD2
 70
     0
  9
$DIMTOLJ
 70
     1
  9
$DIMTZIN
 70
     0
  9
$DIMALTZ
 70
     0
  9
$DIMALTTZ
 70
     0
  9
$DIMUPT
 70
     0
  9
$DIMDEC
 70
     4
  9
$DIMTDEC
 70
     4
  9
$DIMALTU
 70
     2
  9
$DIMALTTD
 70
     2
  9
$DIMTXSTY
  7
Standard
  9
$DIMAUNIT
 70
     0
  9
$DIMADEC
 70
     0
  9
$DIMALTRND
 40
0.0
  9
$DIMAZIN
 70
     0
  9
$DIMDSEP
 70
    46
  9
$DIMATFIT
 70
     3
  9
$DIMFRAC
 70
     0
  9
$DIMLDRBLK
  1

  9
$DIMLUNIT
 70
     2
  9
$DIMLWD
 70
    -2
  9
$DIMLWE
 70
    -2
  9
$DIMTMOVE
 70
     0
  9
$LUNITS
 70
     2
  9
$LUPREC
 70
     4
  9
$SKETCHINC
 40
0.1
  9
$FILLETRAD
 40
0.0
  9
$AUNITS
 70
     0
  9
$AUPREC
 70
     0
  9
$MENU
  1
.
  9
$ELEVATION
 40
0.0
  9
$PELEVATION
 40
0.0
  9
$THICKNESS
 40
0.0
  9
$LIMCHECK
 70
     0
  9
$CHAMFERA
 40
0.0
  9
$CHAMFERB
 40
0.0
  9
$CHAMFERC
 40
0.0
  9
$CHAMFERD
 40
0.0
  9
$SKPOLY
 70
     0
  9
$TDCREATE
 40
2460125.412587928
  9
$TDUCREATE
 40
2460125.329254595
  9
$TDUPDATE
 40
2460125.496146065
  9
$TDUUPDATE
 40
2460125.412812732
  9
$TDINDWG
 40
0.0012110301
  9
$TDUSRTIMER
 40
0.0012110301
  9
$USRTIMER
 70
     1
  9
$ANGBASE
 50
0.0
  9
$ANGDIR
 70
     0
  9
$PDMODE
 70
     0
  9
$PDSIZE
 40
0.0
  9
$PLINEWID
 40
0.0
  9
$SPLFRAME
 70
     0
  9
$SPLINETYPE
 70
     6
  9
$SPLINESEGS
 70
     8
  9
$HANDSEED
  5
EEF
  9
$SURFTAB1
 70
     6
  9
$SURFTAB2
 70
     6
  9
$SURFTYPE
 70
     6
  9
$SURFU
 70
     6
  9
$SURFV
 70
     6
  9
$UCSBASE
  2

  9
$UCSNAME
  2

  9
$UCSORG
 10
0.0
 20
0.0
 30
0.0
  9
$UCSXDIR
 10
1.0
 20
0.0
 30
0.0
  9
$UCSYDIR
 10
0.0
 20
1.0
 30
0.0
  9
$UCSORTHOREF
  2

  9
$UCSORTHOVIEW
 70
     0
  9
$UCSORGTOP
 10
0.0
 20
0.0
 30
0.0
  9
$UCSORGBOTTOM
 10
0.0
 20
0.0
 30
0.0
  9
$UCSORGLEFT
 10
0.0
 20
0.0
 30
0.0
  9
$UCSORGRIGHT
 10
0.0
 20
0.0
 30
0.0
  9
$UCSORGFRONT
 10
0.0
 20
0.0
 30
0.0
  9
$UCSORGBACK
 10
0.0
 20
0.0
 30
0.0
  9
$PUCSBASE
  2

  9
$PUCSNAME
  2

  9
$PUCSORG
 10
0.0
 20
0.0
 30
0.0
  9
$PUCSXDIR
 10
1.0
 20
0.0
 30
0.0
  9
$PUCSYDIR
 10
0.0
 20
1.0
 30
0.0
  9
$PUCSORTHOREF
  2

  9
$PUCSORTHOVIEW
 70
     0
  9
$PUCSORGTOP
 10
0.0
 20
0.0
 30
0.0
  9
$PUCSORGBOTTOM
 10
0.0
 20
0.0
 30
0.0
  9
$PUCSORGLEFT
 10
0.0
 20
0.0
 30
0.0
  9
$PUCSORGRIGHT
 10
0.0
 20
0.0
 30
0.0
  9
$PUCSORGFRONT
 10
0.0
 20
0.0
 30
0.0
  9
$PUCSORGBACK
 10
0.0
 20
0.0
 30
0.0
  9
$USERI1
 70
     0
  9
$USERI2
 70
     0
  9
$USERI3
 70
     0
  9
$USERI4
 70
     0
  9
$USERI5
 70
     0
  9
$USERR1
 40
0.0
  9
$USERR2
 40
0.0
  9
$USERR3
 40
0.0
  9
$USERR4
 40
0.0
  9
$USERR5
 40
0.0
  9
$WORLDVIEW
 70
     1
  9
$SHADEDGE
 70
     3
  9
$SHADEDIF
 70
    70
  9
$TILEMODE
 70
     1
  9
$MAXACTVP
 70
    64
  9
$PINSBASE
 10
0.0
 20
0.0
 30
0.0
  9
$PLIMCHECK
 70
     0
  9
$PEXTMIN
 10
0.0
 20
0.0
 30
0.0
  9
$PEXTMAX
 10
14850.0
 20
10500.0
 30
0.0
  9
$PLIMMIN
 10
0.0
 20
0.0
  9
$PLIMMAX
 10
14850.0
 20
10500.0
  9
$UNITMODE
 70
     0
  9
$VISRETAIN
 70
     1
  9
$PLINEGEN
 70
     0
  9
$PSLTSCALE
 70
     1
  9
$TREEDEPTH
 70
  3020
  9
$CMLSTYLE
  2
Standard
  9
$CMLJUST
 70
     0
  9
$CMLSCALE
 40
1.0
  9
$PROXYGRAPHICS
 70
     1
  9
$MEASUREMENT
 70
     1
  9
$CELWEIGHT
370
    -1
  9
$ENDCAPS
280
     0
  9
$JOINSTYLE
280
     0
  9
$LWDISPLAY
290
     0
  9
$INSUNITS
 70
     4
  9
$HYPERLINKBASE
  1
www.muller.com.pl
  9
$STYLESHEET
  1

  9
$XEDIT
290
     1
  9
$CEPSNTYPE
380
     0
  9
$PSTYLEMODE
290
     1
  9
$FINGERPRINTGUID
  2
{6451B784-E200-45E5-901F-DC663428224E}
  9
$VERSIONGUID
  2
{ED97F797-A2A6-46E8-8BBC-D44362186B62}
  9
$EXTNAMES
290
     1
  9
$PSVPSCALE
 40
0.0
  9
$OLESTARTUP
290
     0
  0
ENDSEC
  0
SECTION
  2
CLASSES
  0
CLASS
  1
ACDBDICTIONARYWDFLT
  2
AcDbDictionaryWithDefault
  3
ObjectDBX Classes
 90
        0
280
     0
281
     0
  0
CLASS
  1
MATERIAL
  2
AcDbMaterial
  3
ObjectDBX Classes
 90
     1153
280
     0
281
     0
  0
CLASS
  1
VISUALSTYLE
  2
AcDbVisualStyle
  3
ObjectDBX Classes
 90
     4095
280
     0
281
     0
  0
CLASS
  1
SCALE
  2
AcDbScale
  3
ObjectDBX Classes
 90
     1153
280
     0
281
     0
  0
CLASS
  1
TABLESTYLE
  2
AcDbTableStyle
  3
ObjectDBX Classes
 90
     4095
280
     0
281
     0
  0
CLASS
  1
MLEADERSTYLE
  2
AcDbMLeaderStyle
  3
ACDB_MLEADERSTYLE_CLASS
 90
     4095
280
     0
281
     0
  0
CLASS
  1
CELLSTYLEMAP
  2
AcDbCellStyleMap
  3
ObjectDBX Classes
 90
     1152
280
     0
281
     0
  0
CLASS
  1
DICTIONARYVAR
  2
AcDbDictionaryVar
  3
ObjectDBX Classes
 90
        0
280
     0
281
     0
  0
CLASS
  1
ACDBPLACEHOLDER
  2
AcDbPlaceHolder
  3
ObjectDBX Classes
 90
        0
280
     0
281
     0
  0
CLASS
  1
LAYOUT
  2
AcDbLayout
  3
ObjectDBX Classes
 90
        0
280
     0
281
     0
  0
CLASS
  1
ACME_DOCUMENT
  2
AcMeDbDoc
  3
AcMeServices
 90
     1024
280
     0
281
     0
  0
CLASS
  1
AMGSETTINGSOBJ
  2
AmgSettingsObj
  3
"AcadM|Product Description: AutoCAD Mechanical|Company: Autodesk, Inc."
 90
     1024
280
     0
281
     0
  0
CLASS
  1
ACMESCOPE
  2
AcMeScope
  3
AcMeServices
 90
     1024
280
     0
281
     0
  0
CLASS
  1
ACMECOMMANDHISTORY
  2
AcMeCommandHistory
  3
AcMeServices
 90
     1024
280
     0
281
     0
  0
CLASS
  1
ACIMSYSVARMAN
  2
AcImSysVarManager
  3
AcMeServices
 90
     1024
280
     0
281
     0
  0
CLASS
  1
ACIMINTSYSVAR
  2
AcImIntSysVar
  3
AcMeServices
 90
     1024
280
     0
281
     0
  0
CLASS
  1
ACMESTATEMGR
  2
AcMeStateMgr
  3
AcMeServices
 90
     1024
280
     0
281
     0
  0
CLASS
  1
ACDBENTITYCACHE
  2
AcMeEntityCache
  3
AcMeServices
 90
     1024
280
     0
281
     0
  0
CLASS
  1
ACGREFMASTER
  2
AcGrefMaster
  3
AcAttribServices
 90
     1024
280
     0
281
     0
  0
CLASS
  1
AM_DRAWING_MGR
  2
AcDmDwgMgr
  3
AcMechDwgViewMgmt
 90
     1024
280
     0
281
     0
  0
CLASS
  1
AM_DWG_DOCUMENT
  2
AcDmDwgDocument
  3
AcMechDwgViewMgmt
 90
     1024
280
     0
281
     0
  0
CLASS
  1
AM_DWG_SHEET
  2
AcDmSheet
  3
AcMechDwgViewMgmt
 90
     1024
280
     0
281
     0
  0
CLASS
  1
AM_VIEWDIMPARMAP
  2
AcDmViewDimParMap
  3
AcMechDwgViewMgmt
 90
     1024
280
     0
281
     0
  0
CLASS
  1
AMDTINTERNALREACTOR
  2
AmdtInternalReactor
  3
AcMeServices
 90
     1024
280
     0
281
     0
  0
CLASS
  1
ACIMREALSYSVAR
  2
AcImRealSysVar
  3
AcMeServices
 90
     1024
280
     0
281
     0
  0
CLASS
  1
AM_DWGMGR_NAME
  2
AcDmDwgMgrName
  3
AcMechDwgViewMgmt
 90
     1024
280
     0
281
     0
  0
CLASS
  1
ACME_DATABASE
  2
AcMeDbDatabase
  3
AcMeServices
 90
     1024
280
     0
281
     0
  0
CLASS
  1
ACRFINSADJUSTERMGR
  2
AcRfInsAdjusterMgr
  3
AcMeServices
 90
     1024
280
     0
281
     0
  0
CLASS
  1
ACGREFACADMASTER
  2
AcGrefacadMaster
  3
AcGrefServices
 90
     1024
280
     0
281
     0
  0
CLASS
  1
AMDTMENUSTATEMGR
  2
AmdtMenuStateMgr
  3
McadcomServices
 90
     1024
280
     0
281
     0
  0
CLASS
  1
AMDTMCOMMENUSTATE
  2
AmdtMcomMenuState
  3
McadcomServices
 90
     1024
280
     0
281
     0
  0
CLASS
  1
AMIMASTER
  2
AmiMaster
  3
AmiServices
 90
     1024
280
     0
281
     0
  0
CLASS
  1
MAPIAMMOUDLE
  2
MApiAmModule
  3
MApiAmServices
 90
     1024
280
     0
281
     0
  0
CLASS
  1
ACIMSTRSYSVAR
  2
AcImStrSysVar
  3
AcMeServices
 90
     1024
280
     0
281
     0
  0
CLASS
  1
AMDTDMMENUSTATE
  2
AmdtDmMenuState
  3
AcMechDwgViewMgmt
 90
     1024
280
     0
281
     0
  0
CLASS
  1
AMDTAMMENUSTATE
  2
AmdtAmMenuState
  3
DesignerAssemblies
 90
     1024
280
     0
281
     0
  0
CLASS
  1
ACAMPROJECT
  2
AcAmProject
  3
DesignerAssemblies
 90
     1024
280
     0
281
     0
  0
CLASS
  1
ACAMGRCOMPDEF
  2
AcAmGrCompDef
  3
DesignerAssemblies
 90
     1024
280
     0
281
     0
  0
CLASS
  1
ACAMCOMPDEF
  2
AcAmCompDef
  3
DesignerAssemblies
 90
     1024
280
     0
281
     0
  0
CLASS
  1
ACAMCOMPDEFMGR
  2
AcAmCompDefMgr
  3
DesignerAssemblies
 90
     1024
280
     0
281
     0
  0
CLASS
  1
AMCONTEXTMGR
  2
AcAmContextMgr
  3
DesignerAssemblies
 90
     1024
280
     0
281
     0
  0
CLASS
  1
ACAMCONTEXTMODELER
  2
AcAmContextModeler
  3
DesignerAssemblies
 90
     1024
280
     0
281
     0
  0
CLASS
  1
ACMDATADICTIONARY
  2
AcmDataDictionary
  3
"AcmSymBB|Product Description: AutoCAD Mechanical|Company: Autodesk, Inc."
 90
     1024
280
     0
281
     0
  0
CLASS
  1
ACAMGRCOMPDEFSET
  2
AcAmGrCompDefSet
  3
DesignerAssemblies
 90
     1024
280
     0
281
     0
  0
CLASS
  1
AMDTBROWSERDBTAB
  2
AmdtBrowserDbTab
  3
McadcomServices
 90
     1024
280
     0
281
     0
  0
CLASS
  1
CBROWSERAPPOBJECT
  2
CBrowserAppObject
  3
McadcomServices
 90
     1024
280
     0
281
     0
  0
CLASS
  1
DM_PLACEHOLDER
  2
AcDmSelsetPlaceholder
  3
AcMechDwgViewMgmt
 90
     1024
280
     0
281
     0
  0
CLASS
  1
ACMSTANDARDISO
  2
AcmStandardISO
  3
"Amdt_StdImp|Product Description: AutoCAD Mechanical|Company: Autodesk, Inc."
 90
     1024
280
     0
281
     0
  0
CLASS
  1
AMDTEDGESTANDARDISO13715
  2
AmdtEdgeStdISO13715
  3
"Amdt_StdImp|Product Description: AutoCAD Mechanical|Company: Autodesk, Inc."
 90
     1024
280
     0
281
     0
  0
CLASS
  1
ACMSURFSTANDARDISO2002
  2
AcmSurfTextStdISO2002
  3
"Amdt_StdImp|Product Description: AutoCAD Mechanical|Company: Autodesk, Inc."
 90
     1024
280
     0
281
     0
  0
CLASS
  1
ACMFCFSTANDARDISO
  2
AcmFCFStdISO
  3
"Amdt_StdImp|Product Description: AutoCAD Mechanical|Company: Autodesk, Inc."
 90
     1024
280
     0
281
     0
  0
CLASS
  1
ACMWELDSTANDARDISO
  2
AcmWeldingStdISO
  3
"Amdt_StdImp|Product Description: AutoCAD Mechanical|Company: Autodesk, Inc."
 90
     1024
280
     0
281
     0
  0
CLASS
  1
ACMIDSTANDARDISO
  2
AcmIdStdISO
  3
"Amdt_StdImp|Product Description: AutoCAD Mechanical|Company: Autodesk, Inc."
 90
     1024
280
     0
281
     0
  0
CLASS
  1
ACMDATUMSTANDARDISO
  2
AcmDatumStdISO
  3
"Amdt_StdImp|Product Description: AutoCAD Mechanical|Company: Autodesk, Inc."
 90
     1024
280
     0
281
     0
  0
CLASS
  1
ACMBOMSTANDARDISO
  2
AcmBOMStdISO
  3
"Amdt_StdImp|Product Description: AutoCAD Mechanical|Company: Autodesk, Inc."
 90
     1024
280
     0
281
     0
  0
CLASS
  1
ACMDETAILSTANDARDISO
  2
AmdtDetailSymStdISO
  3
"Amdt_StdImp|Product Description: AutoCAD Mechanical|Company: Autodesk, Inc."
 90
     1024
280
     0
281
     0
  0
CLASS
  1
ACMSECTIONSTANDARDISO2001
  2
AmdtSectionSymStdISO2001
  3
"Amdt_StdImp|Product Description: AutoCAD Mechanical|Company: Autodesk, Inc."
 90
     1024
280
     0
281
     0
  0
CLASS
  1
ACMCENTERLINESTANDARDISO
  2
AmdtCenterLineStdISO
  3
"Amdt_StdImp|Product Description: AutoCAD Mechanical|Company: Autodesk, Inc."
 90
     1024
280
     0
281
     0
  0
CLASS
  1
ACMTHREADLINESTANDARDISO
  2
AmdtThreadLineStdISO
  3
"Amdt_StdImp|Product Description: AutoCAD Mechanical|Company: Autodesk, Inc."
 90
     1024
280
     0
281
     0
  0
CLASS
  1
ACMNOTESTANDARDISO
  2
AmdtNoteStdISO
  3
"Amdt_StdImp|Product Description: AutoCAD Mechanical|Company: Autodesk, Inc."
 90
     1024
280
     0
281
     0
  0
CLASS
  1
ACMTAPERSTANDARDISO
  2
AcmTaperStdISO
  3
"Amdt_StdImp|Product Description: AutoCAD Mechanical|Company: Autodesk, Inc."
 90
     1024
280
     0
281
     0
  0
CLASS
  1
ACMANOOTATIONVIEWSTANDARDISO
  2
AmdtAnViewStdISO
  3
"Amdt_StdImp|Product Description: AutoCAD Mechanical|Company: Autodesk, Inc."
 90
     1024
280
     0
281
     0
  0
CLASS
  1
ACAMGLAYSTD
  2
AcAmgLayStd
  3
"AmgLay|Product Description: AutoCAD Mechanical|Company: Autodesk, Inc."
 90
     1024
280
     0
281
     0
  0
CLASS
  1
ACAMGDIMSTD
  2
AcAmgDimStd
  3
"AmgDim|Product Description: AutoCAD Mechanical|Company: Autodesk, Inc."
 90
     1024
280
     0
281
     0
  0
CLASS
  1
AMGOBJPROPCFG
  2
AmgObjPropCfg
  3
"AmgLay|Product Description: AutoCAD Mechanical|Company: Autodesk, Inc."
 90
     1025
280
     0
281
     0
  0
CLASS
  1
ACAMGHOLECHARTSTDISO
  2
AcAmgHoleChartStdISO
  3
AmgDim|Product Description: AutoCAD Mechanical|Company: Autodesk, Inc.
 90
     1024
280
     0
281
     0
  0
CLASS
  1
ACAMGTITLESTD
  2
AcAmgTitleStd
  3
"AmgTitle|Product Description: AutoCAD Mechanical|Company: Autodesk, Inc."
 90
     4095
280
     0
281
     0
  0
CLASS
  1
AMDTNOTETEMPLATEDB
  2
AmdtNoteTemplateDB
  3
AcmSymBB|Product Description: AutoCAD Mechanical|Company: Autodesk, Inc.
 90
     1024
280
     0
281
     0
  0
CLASS
  1
ACAMGFILTERDAT
  2
AcAmgFilterDat
  3
"AcadM|Product Description: AutoCAD Mechanical|Company: Autodesk, Inc."
 90
     1024
280
     0
281
     0
  0
ENDSEC
  0
SECTION
  2
TABLES
  0
TABLE
  2
VPORT
  5
8
102
{ACAD_XDICTIONARY
360
BCC
102
}
330
0
100
AcDbSymbolTable
 70
     1
  0
VPORT
  5
57
330
8
100
AcDbSymbolTableRecord
100
AcDbViewportTableRecord
  2
*Active
 70
     0
 10
0.0
 20
0.0
 11
1.0
 21
1.0
 12
5953.144990645665
 22
4587.984846753982
 13
0.0
 23
0.0
 14
1.0
 24
1.0
 15
0.0
 25
0.0
 16
0.0
 26
0.0
 36
1.0
 17
0.0
 27
0.0
 37
0.0
 40
8900.798456883832
 41
2.235571260306242
 42
50.0
 43
0.0
 44
0.0
 50
0.0
 51
0.0
 71
     0
 72
   100
 73
     1
 74
     1
 75
     0
 76
     0
 77
     0
 78
     0
281
     0
 65
     1
110
0.0
120
0.0
130
0.0
111
1.0
121
0.0
131
0.0
112
0.0
122
1.0
132
0.0
 79
     0
146
0.0
  0
ENDTAB
  0
TABLE
  2
LTYPE
  5
5
330
0
100
AcDbSymbolTable
 70
    70
  0
LTYPE
  5
5B
330
5
100
AcDbSymbolTableRecord
100
AcDbLinetypeTableRecord
  2
ByBlock
 70
     0
  3

 72
    65
 73
     0
 40
0.0
  0
LTYPE
  5
5C
330
5
100
AcDbSymbolTableRecord
100
AcDbLinetypeTableRecord
  2
ByLayer
 70
     0
  3

 72
    65
 73
     0
 40
0.0
  0
LTYPE
  5
5D
330
5
100
AcDbSymbolTableRecord
100
AcDbLinetypeTableRecord
  2
Continuous
 70
     0
  3
Solid line
 72
    65
 73
     0
 40
0.0
  0
LTYPE
  5
74
330
5
100
AcDbSymbolTableRecord
100
AcDbLinetypeTableRecord
  2
Section_View_Lines
 70
     0
  3
Section View Lines
 72
    65
 73
     4
 40
0.8406
 49
0.6614
 74
     0
 49
-0.0827
 74
     0
 49
0.0138
 74
     0
 49
-0.0827
 74
     0
  0
LTYPE
  5
75
330
5
100
AcDbSymbolTableRecord
100
AcDbLinetypeTableRecord
  2
CHAIN
 70
     0
  3
Chain ____ _ ____ _ ____ _ ____ _ ____ _ ____
 72
    65
 73
     4
 40
0.3543
 49
0.2362
 74
     0
 49
-0.0295
 74
     0
 49
0.0591
 74
     0
 49
-0.0295
 74
     0
  0
LTYPE
  5
76
330
5
100
AcDbSymbolTableRecord
100
AcDbLinetypeTableRecord
  2
DASH_DOT
 70
     0
  3
Dash dot _._._._._._._._._._._._._._._.
 72
    65
 73
     4
 40
0.182
 49
0.1181
 74
     0
 49
-0.0295
 74
     0
 49
0.0049
 74
     0
 49
-0.0295
 74
     0
  0
LTYPE
  5
77
330
5
100
AcDbSymbolTableRecord
100
AcDbLinetypeTableRecord
  2
DASH_DOUBLE_DOT
 70
     0
  3
Dash Double Dot __ __ . __ __ . __ __ . __ _
 72
    65
 73
     6
 40
0.2164
 49
0.1181
 74
     0
 49
-0.0295
 74
     0
 49
0.0049
 74
     0
 49
-0.0295
 74
     0
 49
0.0049
 74
     0
 49
-0.0295
 74
     0
  0
LTYPE
  5
78
330
5
100
AcDbSymbolTableRecord
100
AcDbLinetypeTableRecord
  2
DASH_TRIPLE_DOT
 70
     0
  3
Dash Triple-Dot _ . . . _ . . . _ . . . _
 72
    65
 73
     8
 40
0.2508
 49
0.1181
 74
     0
 49
-0.0295
 74
     0
 49
0.0049
 74
     0
 49
-0.0295
 74
     0
 49
0.0049
 74
     0
 49
-0.0295
 74
     0
 49
0.0049
 74
     0
 49
-0.0295
 74
     0
  0
LTYPE
  5
79
330
5
100
AcDbSymbolTableRecord
100
AcDbLinetypeTableRecord
  2
DASHED
 70
     0
  3
Dashed __ __ __ __ __ __ __ __ __ __ __ __ __ _
 72
    65
 73
     2
 40
0.2068
 49
0.1655
 74
     0
 49
-0.0413
 74
     0
  0
LTYPE
  5
7A
330
5
100
AcDbSymbolTableRecord
100
AcDbLinetypeTableRecord
  2
DASHED_SPACE
 70
     0
  3
Dashed Space __ __ __ __ __ __ __ __ __ __ __ _
 72
    65
 73
     2
 40
0.2067
 49
0.1654
 74
     0
 49
-0.0413
 74
     0
  0
LTYPE
  5
7B
330
5
100
AcDbSymbolTableRecord
100
AcDbLinetypeTableRecord
  2
DOTTED
 70
     0
  3
Dotted . . . . . . . . . . . . . . . . . . . . 
 72
    65
 73
     2
 40
0.0481
 49
0.0068
 74
     0
 49
-0.0413
 74
     0
  0
LTYPE
  5
7C
330
5
100
AcDbSymbolTableRecord
100
AcDbLinetypeTableRecord
  2
DOUBLE_DASH_CHAIN
 70
     0
  3
Double Dash Chain ___ _ _ ___ _ _ ___ _ _ ___ _
 72
    65
 73
     6
 40
1.240299999999999
 49
0.6614
 74
     0
 49
-0.0827
 74
     0
 49
0.1654
 74
     0
 49
-0.0827
 74
     0
 49
0.1654
 74
     0
 49
-0.0827
 74
     0
  0
LTYPE
  5
7D
330
5
100
AcDbSymbolTableRecord
100
AcDbLinetypeTableRecord
  2
DOUBLE_DASH_DOT
 70
     0
  3
Double Dash Dot __ __ . __ __ . __ __ . __ _
 72
    65
 73
     6
 40
0.3296
 49
0.1181
 74
     0
 49
-0.0295
 74
     0
 49
0.1181
 74
     0
 49
-0.0295
 74
     0
 49
0.0049
 74
     0
 49
-0.0295
 74
     0
  0
LTYPE
  5
7E
330
5
100
AcDbSymbolTableRecord
100
AcDbLinetypeTableRecord
  2
DOUBLE_DASH_DOUBLE_DOT
 70
     0
  3
Double Dash Double Dot _ _ . . _ _ . . _ _
 72
    65
 73
     8
 40
0.364
 49
0.1181
 74
     0
 49
-0.0295
 74
     0
 49
0.1181
 74
     0
 49
-0.0295
 74
     0
 49
0.0049
 74
     0
 49
-0.0295
 74
     0
 49
0.0049
 74
     0
 49
-0.0295
 74
     0
  0
LTYPE
  5
7F
330
5
100
AcDbSymbolTableRecord
100
AcDbLinetypeTableRecord
  2
DOUBLE_DASH_TRIPLE_DOT
 70
     0
  3
Double Dash Triple Dot __ __ . . . __ __ . . .
 72
    65
 73
    10
 40
0.3984
 49
0.1181
 74
     0
 49
-0.0295
 74
     0
 49
0.1181
 74
     0
 49
-0.0295
 74
     0
 49
0.0049
 74
     0
 49
-0.0295
 74
     0
 49
0.0049
 74
     0
 49
-0.0295
 74
     0
 49
0.0049
 74
     0
 49
-0.0295
 74
     0
  0
LTYPE
  5
80
330
5
100
AcDbSymbolTableRecord
100
AcDbLinetypeTableRecord
  2
LONG_DASH_DOTTED
 70
     0
  3
Long Dash Dotted ____ . ____ . ____ . ____ . _
 72
    65
 73
     4
 40
0.3001
 49
0.2362
 74
     0
 49
-0.0295
 74
     0
 49
0.0049
 74
     0
 49
-0.0295
 74
     0
  0
LTYPE
  5
81
330
5
100
AcDbSymbolTableRecord
100
AcDbLinetypeTableRecord
  2
LONG_DASH_DOUBLE_DOT
 70
     0
  3
Long Dash Double Dot ____ . . ____ . . ____ . .
 72
    65
 73
     6
 40
0.3345
 49
0.2362
 74
     0
 49
-0.0295
 74
     0
 49
0.0049
 74
     0
 49
-0.0295
 74
     0
 49
0.0049
 74
     0
 49
-0.0295
 74
     0
  0
LTYPE
  5
82
330
5
100
AcDbSymbolTableRecord
100
AcDbLinetypeTableRecord
  2
LONG_DASH_TRIPLE_DOT
 70
     0
  3
Long Dash Triple Dot ____ ... ____ ... ____
 72
    65
 73
     8
 40
0.3689
 49
0.2362
 74
     0
 49
-0.0295
 74
     0
 49
0.0049
 74
     0
 49
-0.0295
 74
     0
 49
0.0049
 74
     0
 49
-0.0295
 74
     0
 49
0.0049
 74
     0
 49
-0.0295
 74
     0
  0
LTYPE
  5
83
330
5
100
AcDbSymbolTableRecord
100
AcDbLinetypeTableRecord
  2
BORDER
 70
     0
  3
Border __ __ . __ __ . __ __ . __ __ . __ __ .
 72
    65
 73
     6
 40
44.45
 49
12.7
 74
     0
 49
-6.349999999999999
 74
     0
 49
12.7
 74
     0
 49
-6.349999999999999
 74
     0
 49
0.0
 74
     0
 49
-6.349999999999999
 74
     0
  0
LTYPE
  5
84
330
5
100
AcDbSymbolTableRecord
100
AcDbLinetypeTableRecord
  2
BORDER2
 70
     0
  3
Border (.5x) __.__.__.__.__.__.__.__.__.__.__.
 72
    65
 73
     6
 40
22.225
 49
6.349999999999999
 74
     0
 49
-3.174999999999999
 74
     0
 49
6.349999999999999
 74
     0
 49
-3.174999999999999
 74
     0
 49
0.0
 74
     0
 49
-3.174999999999999
 74
     0
  0
LTYPE
  5
85
330
5
100
AcDbSymbolTableRecord
100
AcDbLinetypeTableRecord
  2
BORDERX2
 70
     0
  3
Border (2x) ____  ____  .  ____  ____  .  ___
 72
    65
 73
     6
 40
88.9
 49
25.4
 74
     0
 49
-12.7
 74
     0
 49
25.4
 74
     0
 49
-12.7
 74
     0
 49
0.0
 74
     0
 49
-12.7
 74
     0
  0
LTYPE
  5
86
330
5
100
AcDbSymbolTableRecord
100
AcDbLinetypeTableRecord
  2
CENTER
 70
     0
  3
Center ____ _ ____ _ ____ _ ____ _ ____ _ ____
 72
    65
 73
     4
 40
50.8
 49
31.75
 74
     0
 49
-6.349999999999999
 74
     0
 49
6.349999999999999
 74
     0
 49
-6.349999999999999
 74
     0
  0
LTYPE
  5
87
330
5
100
AcDbSymbolTableRecord
100
AcDbLinetypeTableRecord
  2
CENTER2
 70
     0
  3
Center (.5x) ___ _ ___ _ ___ _ ___ _ ___ _ ___
 72
    65
 73
     4
 40
28.575
 49
19.05
 74
     0
 49
-3.174999999999999
 74
     0
 49
3.174999999999999
 74
     0
 49
-3.174999999999999
 74
     0
  0
LTYPE
  5
88
330
5
100
AcDbSymbolTableRecord
100
AcDbLinetypeTableRecord
  2
CENTERX2
 70
     0
  3
Center (2x) ________  __  ________  __  _____
 72
    65
 73
     4
 40
101.6
 49
63.5
 74
     0
 49
-12.7
 74
     0
 49
12.7
 74
     0
 49
-12.7
 74
     0
  0
LTYPE
  5
89
330
5
100
AcDbSymbolTableRecord
100
AcDbLinetypeTableRecord
  2
DASHDOT2
 70
     0
  3
Dash dot (.5x) _._._._._._._._._._._._._._._.
 72
    65
 73
     4
 40
12.7
 49
6.349999999999999
 74
     0
 49
-3.174999999999999
 74
     0
 49
0.0
 74
     0
 49
-3.174999999999999
 74
     0
  0
LTYPE
  5
8A
330
5
100
AcDbSymbolTableRecord
100
AcDbLinetypeTableRecord
  2
DASHDOTX2
 70
     0
  3
Dash dot (2x) ____  .  ____  .  ____  .  ___
 72
    65
 73
     4
 40
50.8
 49
25.4
 74
     0
 49
-12.7
 74
     0
 49
0.0
 74
     0
 49
-12.7
 74
     0
  0
LTYPE
  5
8B
330
5
100
AcDbSymbolTableRecord
100
AcDbLinetypeTableRecord
  2
DASHED2
 70
     0
  3
Dashed (.5x) _ _ _ _ _ _ _ _ _ _ _ _ _ _ _ _ _
 72
    65
 73
     2
 40
9.524999999999998
 49
6.349999999999999
 74
     0
 49
-3.174999999999999
 74
     0
  0
LTYPE
  5
8C
330
5
100
AcDbSymbolTableRecord
100
AcDbLinetypeTableRecord
  2
DASHEDX2
 70
     0
  3
Dashed (2x) ____  ____  ____  ____  ____  ___
 72
    65
 73
     2
 40
38.1
 49
25.4
 74
     0
 49
-12.7
 74
     0
  0
LTYPE
  5
8D
330
5
100
AcDbSymbolTableRecord
100
AcDbLinetypeTableRecord
  2
DIVIDE
 70
     0
  3
Divide ____ . . ____ . . ____ . . ____ . . ____
 72
    65
 73
     6
 40
31.75
 49
12.7
 74
     0
 49
-6.349999999999999
 74
     0
 49
0.0
 74
     0
 49
-6.349999999999999
 74
     0
 49
0.0
 74
     0
 49
-6.349999999999999
 74
     0
  0
LTYPE
  5
8E
330
5
100
AcDbSymbolTableRecord
100
AcDbLinetypeTableRecord
  2
DIVIDE2
 70
     0
  3
Divide (.5x) __..__..__..__..__..__..__..__.._
 72
    65
 73
     6
 40
15.875
 49
6.349999999999999
 74
     0
 49
-3.174999999999999
 74
     0
 49
0.0
 74
     0
 49
-3.174999999999999
 74
     0
 49
0.0
 74
     0
 49
-3.174999999999999
 74
     0
  0
LTYPE
  5
8F
330
5
100
AcDbSymbolTableRecord
100
AcDbLinetypeTableRecord
  2
DIVIDEX2
 70
     0
  3
Divide (2x) ________  .  .  ________  .  .  _
 72
    65
 73
     6
 40
63.49999999999999
 49
25.4
 74
     0
 49
-12.7
 74
     0
 49
0.0
 74
     0
 49
-12.7
 74
     0
 49
0.0
 74
     0
 49
-12.7
 74
     0
  0
LTYPE
  5
90
330
5
100
AcDbSymbolTableRecord
100
AcDbLinetypeTableRecord
  2
DOT
 70
     0
  3
Dot . . . . . . . . . . . . . . . . . . . . . .
 72
    65
 73
     2
 40
6.349999999999999
 49
0.0
 74
     0
 49
-6.349999999999999
 74
     0
  0
LTYPE
  5
91
330
5
100
AcDbSymbolTableRecord
100
AcDbLinetypeTableRecord
  2
DOT2
 70
     0
  3
Dot (.5x) .....................................
 72
    65
 73
     2
 40
3.174999999999999
 49
0.0
 74
     0
 49
-3.174999999999999
 74
     0
  0
LTYPE
  5
92
330
5
100
AcDbSymbolTableRecord
100
AcDbLinetypeTableRecord
  2
DOTX2
 70
     0
  3
Dot (2x) .  .  .  .  .  .  .  .  .  .  .  .  . 
 72
    65
 73
     2
 40
12.7
 49
0.0
 74
     0
 49
-12.7
 74
     0
  0
LTYPE
  5
93
330
5
100
AcDbSymbolTableRecord
100
AcDbLinetypeTableRecord
  2
HIDDEN
 70
     0
  3
Hidden __ __ __ __ __ __ __ __ __ __ __ __ __ _
 72
    65
 73
     2
 40
9.524999999999998
 49
6.349999999999999
 74
     0
 49
-3.174999999999999
 74
     0
  0
LTYPE
  5
94
330
5
100
AcDbSymbolTableRecord
100
AcDbLinetypeTableRecord
  2
HIDDEN2
 70
     0
  3
Hidden (.5x) _ _ _ _ _ _ _ _ _ _ _ _ _ _ _ _ _
 72
    65
 73
     2
 40
4.762499999999999
 49
3.174999999999999
 74
     0
 49
-1.587499999999999
 74
     0
  0
LTYPE
  5
95
330
5
100
AcDbSymbolTableRecord
100
AcDbLinetypeTableRecord
  2
HIDDENX2
 70
     0
  3
Hidden (2x) ____ ____ ____ ____ ____ ____ ____
 72
    65
 73
     2
 40
19.05
 49
12.7
 74
     0
 49
-6.349999999999999
 74
     0
  0
LTYPE
  5
96
330
5
100
AcDbSymbolTableRecord
100
AcDbLinetypeTableRecord
  2
PHANTOM
 70
     0
  3
Phantom ______  __  __  ______  __  __  ______
 72
    65
 73
     6
 40
63.5
 49
31.75
 74
     0
 49
-6.349999999999999
 74
     0
 49
6.349999999999999
 74
     0
 49
-6.349999999999999
 74
     0
 49
6.349999999999999
 74
     0
 49
-6.349999999999999
 74
     0
  0
LTYPE
  5
97
330
5
100
AcDbSymbolTableRecord
100
AcDbLinetypeTableRecord
  2
PHANTOM2
 70
     0
  3
Phantom (.5x) ___ _ _ ___ _ _ ___ _ _ ___ _ _
 72
    65
 73
     6
 40
31.75
 49
15.875
 74
     0
 49
-3.174999999999999
 74
     0
 49
3.174999999999999
 74
     0
 49
-3.174999999999999
 74
     0
 49
3.174999999999999
 74
     0
 49
-3.174999999999999
 74
     0
  0
LTYPE
  5
98
330
5
100
AcDbSymbolTableRecord
100
AcDbLinetypeTableRecord
  2
PHANTOMX2
 70
     0
  3
Phantom (2x) ____________    ____    ____   _
 72
    65
 73
     6
 40
127.0
 49
63.5
 74
     0
 49
-12.7
 74
     0
 49
12.7
 74
     0
 49
-12.7
 74
     0
 49
12.7
 74
     0
 49
-12.7
 74
     0
  0
LTYPE
  5
99
330
5
100
AcDbSymbolTableRecord
100
AcDbLinetypeTableRecord
  2
ACAD_ISO02W100
 70
     0
  3
ISO dash __ __ __ __ __ __ __ __ __ __ __ __ __
 72
    65
 73
     2
 40
15.0
 49
12.0
 74
     0
 49
-3.0
 74
     0
  0
LTYPE
  5
9A
330
5
100
AcDbSymbolTableRecord
100
AcDbLinetypeTableRecord
  2
ACAD_ISO03W100
 70
     0
  3
ISO dash space __    __    __    __    __    __
 72
    65
 73
     2
 40
30.0
 49
12.0
 74
     0
 49
-18.0
 74
     0
  0
LTYPE
  5
9B
330
5
100
AcDbSymbolTableRecord
100
AcDbLinetypeTableRecord
  2
ACAD_ISO04W100
 70
     0
  3
ISO long-dash dot ____ . ____ . ____ . ____ . _
 72
    65
 73
     4
 40
30.0
 49
24.0
 74
     0
 49
-3.0
 74
     0
 49
0.0
 74
     0
 49
-3.0
 74
     0
  0
LTYPE
  5
9C
330
5
100
AcDbSymbolTableRecord
100
AcDbLinetypeTableRecord
  2
ACAD_ISO05W100
 70
     0
  3
ISO long-dash double-dot ____ .. ____ .. ____ .
 72
    65
 73
     6
 40
33.0
 49
24.0
 74
     0
 49
-3.0
 74
     0
 49
0.0
 74
     0
 49
-3.0
 74
     0
 49
0.0
 74
     0
 49
-3.0
 74
     0
  0
LTYPE
  5
9D
330
5
100
AcDbSymbolTableRecord
100
AcDbLinetypeTableRecord
  2
ACAD_ISO06W100
 70
     0
  3
ISO long-dash triple-dot ____ ... ____ ... ____
 72
    65
 73
     8
 40
36.0
 49
24.0
 74
     0
 49
-3.0
 74
     0
 49
0.0
 74
     0
 49
-3.0
 74
     0
 49
0.0
 74
     0
 49
-3.0
 74
     0
 49
0.0
 74
     0
 49
-3.0
 74
     0
  0
LTYPE
  5
9E
330
5
100
AcDbSymbolTableRecord
100
AcDbLinetypeTableRecord
  2
ACAD_ISO07W100
 70
     0
  3
ISO dot . . . . . . . . . . . . . . . . . . . .
 72
    65
 73
     2
 40
3.0
 49
0.0
 74
     0
 49
-3.0
 74
     0
  0
LTYPE
  5
9F
330
5
100
AcDbSymbolTableRecord
100
AcDbLinetypeTableRecord
  2
ACAD_ISO08W100
 70
     0
  3
ISO long-dash short-dash ____ __ ____ __ ____ _
 72
    65
 73
     4
 40
36.0
 49
24.0
 74
     0
 49
-3.0
 74
     0
 49
6.0
 74
     0
 49
-3.0
 74
     0
  0
LTYPE
  5
A0
330
5
100
AcDbSymbolTableRecord
100
AcDbLinetypeTableRecord
  2
ACAD_ISO09W100
 70
     0
  3
ISO long-dash double-short-dash ____ __ __ ____
 72
    65
 73
     6
 40
45.0
 49
24.0
 74
     0
 49
-3.0
 74
     0
 49
6.0
 74
     0
 49
-3.0
 74
     0
 49
6.0
 74
     0
 49
-3.0
 74
     0
  0
LTYPE
  5
A1
330
5
100
AcDbSymbolTableRecord
100
AcDbLinetypeTableRecord
  2
ACAD_ISO10W100
 70
     0
  3
ISO dash dot __ . __ . __ . __ . __ . __ . __ .
 72
    65
 73
     4
 40
18.0
 49
12.0
 74
     0
 49
-3.0
 74
     0
 49
0.0
 74
     0
 49
-3.0
 74
     0
  0
LTYPE
  5
A2
330
5
100
AcDbSymbolTableRecord
100
AcDbLinetypeTableRecord
  2
ACAD_ISO11W100
 70
     0
  3
ISO double-dash dot __ __ . __ __ . __ __ . __ 
 72
    65
 73
     6
 40
33.0
 49
12.0
 74
     0
 49
-3.0
 74
     0
 49
12.0
 74
     0
 49
-3.0
 74
     0
 49
0.0
 74
     0
 49
-3.0
 74
     0
  0
LTYPE
  5
A3
330
5
100
AcDbSymbolTableRecord
100
AcDbLinetypeTableRecord
  2
ACAD_ISO12W100
 70
     0
  3
ISO dash double-dot __ . . __ . . __ . . __ . .
 72
    65
 73
     6
 40
21.0
 49
12.0
 74
     0
 49
-3.0
 74
     0
 49
0.0
 74
     0
 49
-3.0
 74
     0
 49
0.0
 74
     0
 49
-3.0
 74
     0
  0
LTYPE
  5
A4
330
5
100
AcDbSymbolTableRecord
100
AcDbLinetypeTableRecord
  2
ACAD_ISO13W100
 70
     0
  3
ISO double-dash double-dot __ __ . . __ __ . . 
 72
    65
 73
     8
 40
36.0
 49
12.0
 74
     0
 49
-3.0
 74
     0
 49
12.0
 74
     0
 49
-3.0
 74
     0
 49
0.0
 74
     0
 49
-3.0
 74
     0
 49
0.0
 74
     0
 49
-3.0
 74
     0
  0
LTYPE
  5
A5
330
5
100
AcDbSymbolTableRecord
100
AcDbLinetypeTableRecord
  2
ACAD_ISO14W100
 70
     0
  3
ISO dash triple-dot __ . . . __ . . . __ . . . 
 72
    65
 73
     8
 40
24.0
 49
12.0
 74
     0
 49
-3.0
 74
     0
 49
0.0
 74
     0
 49
-3.0
 74
     0
 49
0.0
 74
     0
 49
-3.0
 74
     0
 49
0.0
 74
     0
 49
-3.0
 74
     0
  0
LTYPE
  5
A6
330
5
100
AcDbSymbolTableRecord
100
AcDbLinetypeTableRecord
  2
ACAD_ISO15W100
 70
     0
  3
ISO double-dash triple-dot __ __ . . . __ __ . 
 72
    65
 73
    10
 40
39.0
 49
12.0
 74
     0
 49
-3.0
 74
     0
 49
12.0
 74
     0
 49
-3.0
 74
     0
 49
0.0
 74
     0
 49
-3.0
 74
     0
 49
0.0
 74
     0
 49
-3.0
 74
     0
 49
0.0
 74
     0
 49
-3.0
 74
     0
  0
LTYPE
  5
A9
330
5
100
AcDbSymbolTableRecord
100
AcDbLinetypeTableRecord
  2
FENCELINE1
 70
     0
  3
Fenceline circle ----0-----0----0-----0----0---
 72
    65
 73
     4
 40
36.83
 49
6.349999999999999
 74
     0
 49
-2.54
 74
     4
 75
   133
340
A8
 46
2.54
 50
0.0
 44
-2.54
 45
0.0
 49
-2.54
 74
     0
 49
25.4
 74
     0
  0
LTYPE
  5
AA
330
5
100
AcDbSymbolTableRecord
100
AcDbLinetypeTableRecord
  2
FENCELINE2
 70
     0
  3
Fenceline square ----[]-----[]----[]-----[]----
 72
    65
 73
     4
 40
36.83
 49
6.349999999999999
 74
     0
 49
-2.54
 74
     4
 75
   132
340
A8
 46
2.54
 50
0.0
 44
-2.54
 45
0.0
 49
-2.54
 74
     0
 49
25.4
 74
     0
  0
LTYPE
  5
AB
330
5
100
AcDbSymbolTableRecord
100
AcDbLinetypeTableRecord
  2
TRACKS
 70
     0
  3
Tracks -|-|-|-|-|-|-|-|-|-|-|-|-|-|-|-|-|-|-|-|
 72
    65
 73
     2
 40
7.62
 49
3.81
 74
     4
 75
   130
340
A8
 46
6.349999999999999
 50
0.0
 44
0.0
 45
0.0
 49
3.81
 74
     0
  0
LTYPE
  5
AC
330
5
100
AcDbSymbolTableRecord
100
AcDbLinetypeTableRecord
  2
BATTING
 70
     0
  3
Batting SSSSSSSSSSSSSSSSSSSSSSSSSSSSSSSSSSSSSSS
 72
    65
 73
     4
 40
10.16254
 49
0.00254
 74
     0
 49
-2.54
 74
     4
 75
   134
340
A8
 46
2.54
 50
0.0
 44
-2.54
 45
0.0
 49
-5.08
 74
     4
 75
   134
340
A8
 46
2.54
 50
180.0
 44
2.54
 45
0.0
 49
-2.54
 74
     0
  0
LTYPE
  5
AD
330
5
100
AcDbSymbolTableRecord
100
AcDbLinetypeTableRecord
  2
HOT_WATER_SUPPLY
 70
     0
  3
Hot water supply ---- HW ---- HW ---- HW ----
 72
    65
 73
     3
 40
22.86
 49
12.7
 74
     0
 49
-5.08
 74
     2
 75
     0
340
55
 46
2.54
 50
0.0
 44
-2.54
 45
-1.27
  9
HW
 49
-5.08
 74
     0
  0
LTYPE
  5
AE
330
5
100
AcDbSymbolTableRecord
100
AcDbLinetypeTableRecord
  2
GAS_LINE
 70
     0
  3
Gas line ----GAS----GAS----GAS----GAS----GAS---
 72
    65
 73
     3
 40
24.13
 49
12.7
 74
     0
 49
-5.08
 74
     2
 75
     0
340
55
 46
2.54
 50
0.0
 44
-2.54
 45
-1.27
  9
GAS
 49
-6.349999999999999
 74
     0
  0
LTYPE
  5
AF
330
5
100
AcDbSymbolTableRecord
100
AcDbLinetypeTableRecord
  2
ZIGZAG
 70
     0
  3
Zig zag /\/\/\/\/\/\/\/\/\/\/\/\/\/\/\/\/\/\/\/
 72
    65
 73
     4
 40
20.32254
 49
0.00254
 74
     0
 49
-5.08
 74
     4
 75
   131
340
A8
 46
5.08
 50
0.0
 44
-5.08
 45
0.0
 49
-10.16
 74
     4
 75
   131
340
A8
 46
5.08
 50
180.0
 44
5.08
 45
0.0
 49
-5.08
 74
     0
  0
LTYPE
  5
C8E
330
5
100
AcDbSymbolTableRecord
100
AcDbLinetypeTableRecord
  2
AM_ISO02W050
 70
     0
  3
__ __ __ __ __ __ __ __ __ __ __ __ __ __ __
 72
    65
 73
     2
 40
7.5
 49
6.0
 74
     0
 49
-1.5
 74
     0
  0
LTYPE
  5
C8F
330
5
100
AcDbSymbolTableRecord
100
AcDbLinetypeTableRecord
  2
AM_ISO08W050
 70
     0
  3
____ . ____ . ____ . ____ . ____ . ____ . ____
 72
    65
 73
     4
 40
18.0
 49
12.0
 74
     0
 49
-1.5
 74
     0
 49
3.0
 74
     0
 49
-1.5
 74
     0
  0
LTYPE
  5
C90
330
5
100
AcDbSymbolTableRecord
100
AcDbLinetypeTableRecord
  2
AM_ISO09W050
 70
     0
  3
_____ . . _____ . . _____ . . ____ .. ____
 72
    65
 73
     6
 40
22.5
 49
12.0
 74
     0
 49
-1.5
 74
     0
 49
3.0
 74
     0
 49
-1.5
 74
     0
 49
3.0
 74
     0
 49
-1.5
 74
     0
  0
LTYPE
  5
C91
330
5
100
AcDbSymbolTableRecord
100
AcDbLinetypeTableRecord
  2
Amconstr
 70
     0
  3
_______________________
 72
    65
 73
     2
 40
9999.0
 49
9999.0
 74
     0
 49
0.0
 74
     0
  0
LTYPE
  5
C92
330
5
100
AcDbSymbolTableRecord
100
AcDbLinetypeTableRecord
  2
AM_ISO08W050x2
 70
     0
  3
__ . __ . __ . __ . __ . __
 72
    65
 73
     4
 40
9.0
 49
6.0
 74
     0
 49
-0.75
 74
     0
 49
1.5
 74
     0
 49
-0.75
 74
     0
  0
LTYPE
  5
C93
330
5
100
AcDbSymbolTableRecord
100
AcDbLinetypeTableRecord
  2
AM_ISO02W050x2
 70
     0
  3
 _ _ _ _ _ _ _ _ _ _ _ _
 72
    65
 73
     2
 40
3.75
 49
3.0
 74
     0
 49
-0.75
 74
     0
  0
LTYPE
  5
C96
330
5
100
AcDbSymbolTableRecord
100
AcDbLinetypeTableRecord
  2
Amzigzag
 70
     0
  3
/\/-/\/-/\/-/\/-/\/-/\/
 72
    65
 73
     2
 40
11.0001
 49
0.0001
 74
     4
 75
   136
340
C95
 46
0.04
 50
0.0
 44
0.0
 45
0.0
 49
-11.0
 74
     0
  0
LTYPE
  5
CA5
330
5
100
AcDbSymbolTableRecord
100
AcDbLinetypeTableRecord
  2
ACISOWELD
 70
     0
  3
_ _ _ _ _
 72
    65
 73
     2
 40
2.0
 49
2.0
 74
     0
 49
-1.0
 74
     0
  0
LTYPE
  5
CA6
330
5
100
AcDbSymbolTableRecord
100
AcDbLinetypeTableRecord
  2
ACISOTGB
 70
     0
  3
__ . . __ . .
 72
    65
 73
     6
 40
9.0
 49
4.0
 74
     0
 49
-1.0
 74
     0
 49
1.0
 74
     0
 49
-1.0
 74
     0
 49
1.0
 74
     0
 49
-1.0
 74
     0
  0
LTYPE
  5
CA7
330
5
100
AcDbSymbolTableRecord
100
AcDbLinetypeTableRecord
  2
ACISOTGL
 70
     0
  3
_ _ _ _ _
 72
    65
 73
     2
 40
3.0
 49
2.0
 74
     0
 49
-1.0
 74
     0
  0
ENDTAB
  0
TABLE
  2
LAYER
  5
2
102
{ACAD_XDICTIONARY
360
E87
102
}
330
0
100
AcDbSymbolTable
 70
     8
  0
LAYER
  5
54
330
2
100
AcDbSymbolTableRecord
100
AcDbLayerTableRecord
  2
0
 70
     0
 62
     7
  6
Continuous
370
    -3
390
F
  0
LAYER
  5
BA
330
2
100
AcDbSymbolTableRecord
100
AcDbLayerTableRecord
  2
Dimension (ISO)
 70
     0
 62
   161
  6
Continuous
370
    18
390
F
  0
LAYER
  5
BB
330
2
100
AcDbSymbolTableRecord
100
AcDbLayerTableRecord
  2
Hatch (ISO)
 70
     0
 62
   176
  6
Continuous
370
    18
390
F
  0
LAYER
  5
C3
330
2
100
AcDbSymbolTableRecord
100
AcDbLayerTableRecord
  2
Sketch Geometry (ISO)
 70
     0
 62
     7
  6
Continuous
370
    25
390
F
  0
LAYER
  5
C4
330
2
100
AcDbSymbolTableRecord
100
AcDbLayerTableRecord
  2
Symbol (ISO)
 70
     0
 62
     7
  6
Continuous
370
    25
390
F
  0
LAYER
  5
C8
330
2
100
AcDbSymbolTableRecord
100
AcDbLayerTableRecord
  2
Visible (ISO)
 70
     0
 62
     7
  6
Continuous
370
    35
390
F
  0
LAYER
  5
445
330
2
100
AcDbSymbolTableRecord
100
AcDbLayerTableRecord
  2
Defpoints
 70
     0
 62
     7
  6
Continuous
290
     0
370
    -3
390
F
  0
LAYER
  5
E86
330
2
100
AcDbSymbolTableRecord
100
AcDbLayerTableRecord
  2
Title (ISO)
 70
     0
 62
     7
  6
Continuous
370
    30
390
F
  0
ENDTAB
  0
TABLE
  2
STYLE
  5
3
330
0
100
AcDbSymbolTable
 70
    11
  0
STYLE
  5
55
330
3
100
AcDbSymbolTableRecord
100
AcDbTextStyleTableRecord
  2
Standard
 70
     0
 40
0.0
 41
1.0
 50
0.0
 71
     0
 42
0.2
  3
tahoma.ttf
  4

1001
ACAD
1000
Tahoma
1071
      256
  0
STYLE
  5
5A
330
3
100
AcDbSymbolTableRecord
100
AcDbTextStyleTableRecord
  2
Annotative
 70
     0
 40
0.0
 41
1.0
 50
0.0
 71
     0
 42
0.2
  3
txt
  4

1001
AcadAnnotative
1000
AnnotativeData
1002
{
1070
     1
1070
     1
1002
}
  0
STYLE
  5
A8
330
3
100
AcDbSymbolTableRecord
100
AcDbTextStyleTableRecord
  2

 70
     1
 40
0.0
 41
1.0
 50
0.0
 71
     0
 42
0.2
  3
ltypeshp.shx
  4

  0
STYLE
  5
CD
330
3
100
AcDbSymbolTableRecord
100
AcDbTextStyleTableRecord
  2
Label Text (ISO)
 70
     0
 40
0.0
 41
1.0
 50
0.0
 71
     0
 42
0.2
  3
tahoma.ttf
  4

1001
ACAD
1000
Tahoma
1071
      256
  0
STYLE
  5
CE
330
3
100
AcDbSymbolTableRecord
100
AcDbTextStyleTableRecord
  2
Note Text (ISO)
 70
     0
 40
0.0
 41
1.0
 50
0.0
 71
     0
 42
0.2
  3
tahoma.ttf
  4

1001
ACAD
1000
Tahoma
1071
      256
  0
STYLE
  5
CF
330
3
100
AcDbSymbolTableRecord
100
AcDbTextStyleTableRecord
  2
Tekst duży
 70
     0
 40
0.0
 41
1.0
 50
0.0
 71
     0
 42
0.2
  3
tahoma.ttf
  4

1001
ACAD
1000
Tahoma
1071
      256
  0
STYLE
  5
D0
330
3
100
AcDbSymbolTableRecord
100
AcDbTextStyleTableRecord
  2
Tekst mały
 70
     0
 40
0.0
 41
1.0
 50
0.0
 71
     0
 42
0.2
  3
tahoma.ttf
  4

1001
ACAD
1000
Tahoma
1071
      256
  0
STYLE
  5
D1
330
3
100
AcDbSymbolTableRecord
100
AcDbTextStyleTableRecord
  2
Tekst notatki (ISO)
 70
     0
 40
0.0
 41
1.0
 50
0.0
 71
     0
 42
0.2
  3
tahoma.ttf
  4

1001
ACAD
1000
Tahoma
1071
      256
  0
STYLE
  5
C95
330
3
100
AcDbSymbolTableRecord
100
AcDbTextStyleTableRecord
  2

 70
     1
 40
0.0
 41
1.0
 50
0.0
 71
     0
 42
0.2
  3
genltshp.shx
  4

  0
STYLE
  5
CA3
330
3
100
AcDbSymbolTableRecord
100
AcDbTextStyleTableRecord
  2
ACISOTS
 70
     0
 40
1.0
 41
1.0
 50
0.0
 71
     0
 42
0.2
  3
isocp.shx
  4

  0
STYLE
  5
CA4
330
3
100
AcDbSymbolTableRecord
100
AcDbTextStyleTableRecord
  2
ACISOGDT
 70
     0
 40
0.0
 41
1.0
 50
0.0
 71
     0
 42
0.2
  3
amgdt.shx
  4

  0
ENDTAB
  0
TABLE
  2
VIEW
  5
6
330
0
100
AcDbSymbolTable
 70
     0
  0
ENDTAB
  0
TABLE
  2
UCS
  5
7
330
0
100
AcDbSymbolTable
 70
     0
  0
ENDTAB
  0
TABLE
  2
APPID
  5
9
330
0
100
AcDbSymbolTable
 70
    18
  0
APPID
  5
56
330
9
100
AcDbSymbolTableRecord
100
AcDbRegAppTableRecord
  2
ACAD
 70
     0
  0
APPID
  5
5E
330
9
100
AcDbSymbolTableRecord
100
AcDbRegAppTableRecord
  2
AcadAnnotative
 70
     0
  0
APPID
  5
C02
330
9
100
AcDbSymbolTableRecord
100
AcDbRegAppTableRecord
  2
ACAD_MLEADERVER
 70
     0
  0
APPID
  5
C26
330
9
100
AcDbSymbolTableRecord
100
AcDbRegAppTableRecord
  2
MCAD_NO_VIS
 70
     0
  0
APPID
  5
C27
330
9
100
AcDbSymbolTableRecord
100
AcDbRegAppTableRecord
  2
ACAD_TEMP_GRAPHIC
 70
     0
  0
APPID
  5
C52
330
9
100
AcDbSymbolTableRecord
100
AcDbRegAppTableRecord
  2
AD_DRAW
 70
     0
  0
APPID
  5
C55
330
9
100
AcDbSymbolTableRecord
100
AcDbRegAppTableRecord
  2
ACATTRIBSERVICES
 70
     0
  0
APPID
  5
C6E
330
9
100
AcDbSymbolTableRecord
100
AcDbRegAppTableRecord
  2
DESIGNERASSEMBLIES
 70
     0
  0
APPID
  5
C73
330
9
100
AcDbSymbolTableRecord
100
AcDbRegAppTableRecord
  2
ACADM_DIM_EDIT
 70
     0
  0
APPID
  5
C74
330
9
100
AcDbSymbolTableRecord
100
AcDbRegAppTableRecord
  2
AMDT_DM_ADJ
 70
     0
  0
APPID
  5
C8B
330
9
100
AcDbSymbolTableRecord
100
AcDbRegAppTableRecord
  2
ACAD_DSTYLE_DIMJAG
 70
     0
  0
APPID
  5
C8C
330
9
100
AcDbSymbolTableRecord
100
AcDbRegAppTableRecord
  2
ACAD_DSTYLE_DIMBREAK
 70
     0
  0
APPID
  5
E78
330
9
100
AcDbSymbolTableRecord
100
AcDbRegAppTableRecord
  2
AcadAnnoPO
 70
     0
  0
APPID
  5
E9F
330
9
100
AcDbSymbolTableRecord
100
AcDbRegAppTableRecord
  2
ACAD_EXEMPT_FROM_CAD_STANDARDS
 70
     0
  0
APPID
  5
EEB
330
9
100
AcDbSymbolTableRecord
100
AcDbRegAppTableRecord
  2
ACAD_DSTYLE_DIMARC_LENGTH_SYMBOL
 70
     0
  0
APPID
  5
EEC
330
9
100
AcDbSymbolTableRecord
100
AcDbRegAppTableRecord
  2
ACAD_DSTYLE_DIM_LINETYPE
 70
     0
  0
APPID
  5
EED
330
9
100
AcDbSymbolTableRecord
100
AcDbRegAppTableRecord
  2
ACAD_DSTYLE_DIM_EXT1_LINETYPE
 70
     0
  0
APPID
  5
EEE
330
9
100
AcDbSymbolTableRecord
100
AcDbRegAppTableRecord
  2
ACAD_DSTYLE_DIM_EXT2_LINETYPE
 70
     0
  0
ENDTAB
  0
TABLE
  2
DIMSTYLE
  5
A
330
0
100
AcDbSymbolTable
 70
    19
100
AcDbDimStyleTable
 71
     2
340
D6
340
58
  0
DIMSTYLE
105
58
330
A
100
AcDbSymbolTableRecord
100
AcDbDimStyleTableRecord
  2
Standard
 70
     0
340
55
  0
DIMSTYLE
105
59
330
A
100
AcDbSymbolTableRecord
100
AcDbDimStyleTableRecord
  2
Annotative
 70
     0
340
55
1001
AcadAnnotative
1000
AnnotativeData
1002
{
1070
     1
1070
     1
1002
}
  0
DIMSTYLE
105
D2
330
A
100
AcDbSymbolTableRecord
100
AcDbDimStyleTableRecord
  2
Default - Method 1b (ISO)
 70
     0
 40
50.0
 41
2.5
 42
0.0
 43
5.999999999999999
 44
3.174999999999999
 45
0.00000001
 46
10.0
 73
     0
 77
     1
 78
     8
 79
     2
140
2.5
143
0.03937
146
1.399999976158142
147
0.762
171
     3
172
     1
176
   256
177
   256
178
   256
179
     2
271
     2
272
     2
274
     3
278
    44
284
     8
286
     8
340
CE
371
    -1
372
    -1
  0
DIMSTYLE
105
D3
330
A
100
AcDbSymbolTableRecord
100
AcDbDimStyleTableRecord
  2
Default - Method 1b (ISO)$7
 70
     0
 40
50.0
 41
2.5
 42
0.0
 43
5.999999999999999
 44
3.174999999999999
 45
0.00000001
 46
10.0
 73
     0
 77
     1
 78
     8
 79
     2
140
2.5
143
0.03937
146
1.399999976158142
147
0.762
171
     3
172
     1
176
   256
177
   256
178
   256
179
     2
271
     2
272
     2
274
     3
278
    44
284
     8
286
     8
340
CE
371
    -1
372
    -1
  0
DIMSTYLE
105
D4
330
A
100
AcDbSymbolTableRecord
100
AcDbDimStyleTableRecord
  2
Default - mm [in] (ISO)
 70
     0
  4
 cal
 40
50.0
 41
2.5
 42
0.0
 43
5.999999999999999
 44
3.174999999999999
 45
0.00000001
 46
10.0
 73
     0
 74
     0
 77
     1
 78
     8
 79
     2
140
2.5
143
0.03937
146
1.399999976158142
147
0.762
170
     1
171
     3
172
     1
176
   256
177
   256
178
   256
179
     3
271
     3
272
     2
274
     3
275
     1
278
    44
284
     8
285
     8
286
     8
340
CE
371
    -1
372
    -1
  0
DIMSTYLE
105
D5
330
A
100
AcDbSymbolTableRecord
100
AcDbDimStyleTableRecord
  2
Default - mm [in] (ISO)$7
 70
     0
  4
 cal
 40
50.0
 41
2.5
 42
0.0
 43
5.999999999999999
 44
3.174999999999999
 45
0.00000001
 46
10.0
 73
     0
 74
     0
 77
     1
 78
     8
 79
     2
140
2.5
143
0.03937
146
1.399999976158142
147
0.762
170
     1
171
     3
172
     1
176
   256
177
   256
178
   256
179
     3
271
     3
272
     2
274
     3
275
     1
278
    44
284
     8
285
     8
286
     8
340
CE
371
    -1
372
    -1
  0
DIMSTYLE
105
D6
102
{ACAD_REACTORS
330
444
330
52D
330
60F
330
6F1
330
7DB
330
8C4
330
9D1
330
AB9
102
}
330
A
100
AcDbSymbolTableRecord
100
AcDbDimStyleTableRecord
  2
Default (ISO)
 70
     0
 40
50.0
 41
2.5
 42
0.5
 43
5.999999999999999
 44
1.0
 45
0.00000001
 46
10.0
 73
     0
 77
     1
 78
     8
 79
     2
140
3.5
143
0.03937
146
0.7142857313156128
147
0.762
171
     3
172
     1
176
   256
177
   256
178
   256
271
     2
272
     2
274
     3
278
    44
340
CD
371
    -1
372
    -1
  0
DIMSTYLE
105
D7
330
A
100
AcDbSymbolTableRecord
100
AcDbDimStyleTableRecord
  2
Default (ISO)$7
 70
     0
 40
50.0
 41
2.5
 42
0.5
 43
5.999999999999999
 44
1.0
 45
0.00000001
 46
10.0
 73
     0
 77
     1
 78
     8
 79
     2
140
3.5
143
0.03937
146
0.7142857313156128
147
0.762
171
     3
172
     1
176
   256
177
   256
178
   256
271
     2
272
     2
274
     3
278
    44
340
CD
371
    -1
372
    -1
  0
DIMSTYLE
105
E6
330
A
100
AcDbSymbolTableRecord
100
AcDbDimStyleTableRecord
  2
Obiekt mieszany (ISO)
 70
     0
 40
50.0
 41
2.5
 42
0.0
 43
5.999999999999999
 44
3.174999999999999
 45
0.00000001
 46
10.0
 73
     0
 74
     0
 77
     1
140
3.5
143
0.03937
146
1.001485705375671
147
0.762
171
     3
172
     1
176
   256
177
   256
178
   256
179
     2
271
     2
272
     2
274
     3
278
    44
340
CD
341
D8
371
    -1
372
    -1
  0
DIMSTYLE
105
E7
330
A
100
AcDbSymbolTableRecord
100
AcDbDimStyleTableRecord
  2
Obiekt mieszany (ISO)$7
 70
     0
 40
50.0
 41
5.0
 42
0.0
 43
5.999999999999999
 44
3.174999999999999
 45
0.00000001
 46
10.0
 73
     0
 74
     0
 77
     1
140
3.5
143
0.03937
146
1.001485705375671
147
0.762
171
     3
172
     1
176
   256
177
   256
178
   256
179
     2
271
     2
272
     2
274
     3
278
    44
340
CD
341
D8
371
    25
372
    -1
  0
DIMSTYLE
105
E8
330
A
100
AcDbSymbolTableRecord
100
AcDbDimStyleTableRecord
  2
Alternate (ISO)
 70
     0
 40
50.0
 41
2.5
340
55
342
E9
  0
DIMSTYLE
105
FA
330
A
100
AcDbSymbolTableRecord
100
AcDbDimStyleTableRecord
  2
Datum (ISO)
 70
     0
 40
50.0
 41
2.5
340
55
342
E9
  0
DIMSTYLE
105
C8A
102
{ACAD_REACTORS
330
C79
102
}
330
A
100
AcDbSymbolTableRecord
100
AcDbDimStyleTableRecord
  2
AM_ISO
 70
     0
  4
"
 41
3.5
 42
1.0
 43
10.0
 44
1.0
 47
0.1
 48
0.1
 73
     0
 74
     0
 77
     1
 78
     8
 79
     2
140
3.5
141
0.0
143
0.0393701
146
0.71
147
1.5
172
     1
176
   256
177
   256
178
     2
271
     2
272
     3
274
     4
283
     0
284
     8
340
55
371
    -1
372
    -1
1001
ACAD_DSTYLE_DIMJAG
1070
   388
1040
1.5
1001
ACAD_DSTYLE_DIMBREAK
1070
   391
1040
3.75
1001
ACAD_DSTYLE_DIMARC_LENGTH_SYMBOL
1070
   379
1070
     1
1001
ACAD_DSTYLE_DIM_LINETYPE
1070
   380
1005
5B
1001
ACAD_DSTYLE_DIM_EXT1_LINETYPE
1070
   381
1005
5B
1001
ACAD_DSTYLE_DIM_EXT2_LINETYPE
1070
   382
1005
5B
  0
DIMSTYLE
105
C97
330
A
100
AcDbSymbolTableRecord
100
AcDbDimStyleTableRecord
  2
AM_ISO$3
 70
     0
  4
"
 41
3.5
 42
1.0
 43
10.0
 44
1.0
 47
0.1
 48
0.1
 73
     0
 77
     1
 78
     8
 79
     2
140
3.5
141
0.0
143
0.0393701
146
0.71
147
1.5
176
   256
177
   256
178
     2
271
     2
272
     3
274
     4
283
     0
284
     8
288
     1
289
     0
340
55
371
    -1
372
    -1
1001
ACAD_DSTYLE_DIMBREAK
1070
   391
1040
3.75
1001
ACAD_DSTYLE_DIMJAG
1070
   388
1040
1.5
1001
ACAD_DSTYLE_DIMARC_LENGTH_SYMBOL
1070
   379
1070
     1
1001
ACAD_DSTYLE_DIM_LINETYPE
1070
   380
1005
5B
1001
ACAD_DSTYLE_DIM_EXT1_LINETYPE
1070
   381
1005
5B
1001
ACAD_DSTYLE_DIM_EXT2_LINETYPE
1070
   382
1005
5B
  0
DIMSTYLE
105
C98
330
A
100
AcDbSymbolTableRecord
100
AcDbDimStyleTableRecord
  2
AM_ISO$4
 70
     0
  4
"
 41
3.5
 42
1.0
 43
10.0
 44
1.0
 47
0.1
 48
0.1
 73
     0
 77
     1
 78
     8
 79
     2
140
3.5
141
0.0
143
0.0393701
146
0.71
147
1.5
176
   256
177
   256
178
     2
271
     2
272
     3
274
     4
283
     0
284
     8
288
     1
289
     0
340
55
371
    -1
372
    -1
1001
ACAD_DSTYLE_DIMBREAK
1070
   391
1040
3.75
1001
ACAD_DSTYLE_DIMJAG
1070
   388
1040
1.5
1001
ACAD_DSTYLE_DIMARC_LENGTH_SYMBOL
1070
   379
1070
     1
1001
ACAD_DSTYLE_DIM_LINETYPE
1070
   380
1005
5B
1001
ACAD_DSTYLE_DIM_EXT1_LINETYPE
1070
   381
1005
5B
1001
ACAD_DSTYLE_DIM_EXT2_LINETYPE
1070
   382
1005
5B
  0
DIMSTYLE
105
C99
330
A
100
AcDbSymbolTableRecord
100
AcDbDimStyleTableRecord
  2
AM_ISO$6
 70
     0
  4
"
 41
3.5
 42
1.0
 43
10.0
 44
1.0
 47
0.1
 48
0.1
 73
     0
 74
     0
 78
     8
 79
     2
140
3.5
141
0.0
143
0.0393701
146
0.71
147
1.5
172
     1
176
   256
177
   256
178
     2
271
     2
272
     3
274
     4
283
     0
284
     8
340
55
371
    -1
372
    -1
1001
ACAD_DSTYLE_DIMBREAK
1070
   391
1040
3.75
1001
ACAD_DSTYLE_DIMJAG
1070
   388
1040
1.5
1001
ACAD_DSTYLE_DIMARC_LENGTH_SYMBOL
1070
   379
1070
     1
1001
ACAD_DSTYLE_DIM_LINETYPE
1070
   380
1005
5B
1001
ACAD_DSTYLE_DIM_EXT1_LINETYPE
1070
   381
1005
5B
1001
ACAD_DSTYLE_DIM_EXT2_LINETYPE
1070
   382
1005
5B
  0
DIMSTYLE
105
C9A
330
A
100
AcDbSymbolTableRecord
100
AcDbDimStyleTableRecord
  2
AM_ISO$7
 70
     0
  4
"
 41
3.5
 42
1.0
 43
10.0
 44
1.0
 47
0.1
 48
0.1
 73
     0
 74
     0
 77
     1
 78
     8
 79
     2
140
3.5
141
0.0
143
0.0393701
146
0.71
147
1.5
172
     1
176
   256
177
   256
178
     2
271
     2
272
     3
274
     4
283
     0
284
     8
340
55
371
    -1
372
    -1
1001
ACAD_DSTYLE_DIMBREAK
1070
   391
1040
3.75
1001
ACAD_DSTYLE_DIMJAG
1070
   388
1040
1.5
1001
ACAD_DSTYLE_DIMARC_LENGTH_SYMBOL
1070
   379
1070
     1
1001
ACAD_DSTYLE_DIM_LINETYPE
1070
   380
1005
5B
1001
ACAD_DSTYLE_DIM_EXT1_LINETYPE
1070
   381
1005
5B
1001
ACAD_DSTYLE_DIM_EXT2_LINETYPE
1070
   382
1005
5B
  0
DIMSTYLE
105
C9B
330
A
100
AcDbSymbolTableRecord
100
AcDbDimStyleTableRecord
  2
AM_ISO$SF
 70
     0
  4
"
 41
3.5
 42
1.0
 43
10.0
 44
1.0
 47
0.1
 48
0.1
 73
     0
 74
     0
 75
     1
 76
     1
 77
     1
 78
     8
 79
     2
140
3.5
141
0.0
143
0.0393701
146
0.71
147
1.5
172
     1
176
   256
177
   256
178
     2
271
     2
272
     3
274
     4
283
     0
284
     8
340
55
371
    -1
372
    -1
1001
ACAD_DSTYLE_DIMBREAK
1070
   391
1040
3.75
1001
ACAD_DSTYLE_DIMJAG
1070
   388
1040
1.5
1001
ACAD_DSTYLE_DIMARC_LENGTH_SYMBOL
1070
   379
1070
     1
1001
ACAD_DSTYLE_DIM_LINETYPE
1070
   380
1005
5B
1001
ACAD_DSTYLE_DIM_EXT1_LINETYPE
1070
   381
1005
5B
1001
ACAD_DSTYLE_DIM_EXT2_LINETYPE
1070
   382
1005
5B
  0
DIMSTYLE
105
CA0
330
A
100
AcDbSymbolTableRecord
100
AcDbDimStyleTableRecord
  2
AM_ISO$SH
 70
     0
  4
"
 41
3.5
 42
1.0
 43
10.0
 44
1.0
 47
0.1
 48
0.1
 73
     0
 74
     0
 75
     1
 76
     1
 77
     1
 78
     8
 79
     2
140
3.5
141
0.0
143
0.0393701
144
2.0
146
0.71
147
1.5
172
     1
173
     1
176
   256
177
   256
178
     2
271
     2
272
     3
274
     4
283
     0
284
     8
340
55
343
C9C
371
    -1
372
    -1
1001
ACAD_DSTYLE_DIMBREAK
1070
   391
1040
3.75
1001
ACAD_DSTYLE_DIMJAG
1070
   388
1040
1.5
1001
ACAD_DSTYLE_DIMARC_LENGTH_SYMBOL
1070
   379
1070
     1
1001
ACAD_DSTYLE_DIM_LINETYPE
1070
   380
1005
5B
1001
ACAD_DSTYLE_DIM_EXT1_LINETYPE
1070
   381
1005
5B
1001
ACAD_DSTYLE_DIM_EXT2_LINETYPE
1070
   382
1005
5B
  0
ENDTAB
  0
TABLE
  2
BLOCK_RECORD
  5
1
330
0
100
AcDbSymbolTable
 70
    20
  0
BLOCK_RECORD
  5
6C
330
1
100
AcDbSymbolTableRecord
100
AcDbBlockTableRecord
  2
*Model_Space
340
6F
  0
BLOCK_RECORD
  5
68
330
1
100
AcDbSymbolTableRecord
100
AcDbBlockTableRecord
  2
*Paper_Space
340
6B
  0
BLOCK_RECORD
  5
70
330
1
100
AcDbSymbolTableRecord
100
AcDbBlockTableRecord
  2
*Paper_Space0
340
73
  0
BLOCK_RECORD
  5
D8
330
1
100
AcDbSymbolTableRecord
100
AcDbBlockTableRecord
  2
Filled-1
340
0
  0
BLOCK_RECORD
  5
E9
330
1
100
AcDbSymbolTableRecord
100
AcDbBlockTableRecord
  2
_Closed
340
0
  0
BLOCK_RECORD
  5
F0
330
1
100
AcDbSymbolTableRecord
100
AcDbBlockTableRecord
  2
DatumFilled45
340
0
  0
BLOCK_RECORD
  5
FB
330
1
100
AcDbSymbolTableRecord
100
AcDbBlockTableRecord
  2
Poziom gruntu
340
0
  0
BLOCK_RECORD
  5
105
330
1
100
AcDbSymbolTableRecord
100
AcDbBlockTableRecord
  2
Poziom
340
0
  0
BLOCK_RECORD
  5
10B
330
1
100
AcDbSymbolTableRecord
100
AcDbBlockTableRecord
  2
Podział ramki pełny
340
0
  0
BLOCK_RECORD
  5
446
330
1
100
AcDbSymbolTableRecord
100
AcDbBlockTableRecord
  2
*D7
340
0
  0
BLOCK_RECORD
  5
52E
330
1
100
AcDbSymbolTableRecord
100
AcDbBlockTableRecord
  2
*D8
340
0
  0
BLOCK_RECORD
  5
610
330
1
100
AcDbSymbolTableRecord
100
AcDbBlockTableRecord
  2
*D9
340
0
  0
BLOCK_RECORD
  5
6F2
330
1
100
AcDbSymbolTableRecord
100
AcDbBlockTableRecord
  2
*D10
340
0
  0
BLOCK_RECORD
  5
7DC
330
1
100
AcDbSymbolTableRecord
100
AcDbBlockTableRecord
  2
*D11
340
0
  0
BLOCK_RECORD
  5
8C5
330
1
100
AcDbSymbolTableRecord
100
AcDbBlockTableRecord
  2
*D12
340
0
  0
BLOCK_RECORD
  5
9D2
330
1
100
AcDbSymbolTableRecord
100
AcDbBlockTableRecord
  2
*D13
340
0
  0
BLOCK_RECORD
  5
ABA
330
1
100
AcDbSymbolTableRecord
100
AcDbBlockTableRecord
  2
*D14
340
0
  0
BLOCK_RECORD
  5
C9C
330
1
100
AcDbSymbolTableRecord
100
AcDbBlockTableRecord
  2
GENAXEH
340
0
  0
BLOCK_RECORD
  5
CB5
330
1
100
AcDbSymbolTableRecord
100
AcDbBlockTableRecord
  2
26089_Narty-biegowe
340
0
310
2800000020000000200000000100080000000000000400000000000000000000000000000000000000000000000080000080000000808000800000008000800080800000C0C0C000C0DCC000F0CAA6000020400000206000002080000020A0000020C0000020E00000400000004020000040400000406000004080000040A0
310
000040C0000040E00000600000006020000060400000606000006080000060A0000060C0000060E00000800000008020000080400000806000008080000080A0000080C0000080E00000A0000000A0200000A0400000A0600000A0800000A0A00000A0C00000A0E00000C0000000C0200000C0400000C0600000C0800000C0
310
A00000C0C00000C0E00000E0000000E0200000E0400000E0600000E0800000E0A00000E0C00000E0E00040000000400020004000400040006000400080004000A0004000C0004000E00040200000402020004020400040206000402080004020A0004020C0004020E000404000004040200040404000404060004040800040
310
40A0004040C0004040E00040600000406020004060400040606000406080004060A0004060C0004060E00040800000408020004080400040806000408080004080A0004080C0004080E00040A0000040A0200040A0400040A0600040A0800040A0A00040A0C00040A0E00040C0000040C0200040C0400040C0600040C08000
310
40C0A00040C0C00040C0E00040E0000040E0200040E0400040E0600040E0800040E0A00040E0C00040E0E00080000000800020008000400080006000800080008000A0008000C0008000E00080200000802020008020400080206000802080008020A0008020C0008020E00080400000804020008040400080406000804080
310
008040A0008040C0008040E00080600000806020008060400080606000806080008060A0008060C0008060E00080800000808020008080400080806000808080008080A0008080C0008080E00080A0000080A0200080A0400080A0600080A0800080A0A00080A0C00080A0E00080C0000080C0200080C0400080C0600080C0
310
800080C0A00080C0C00080C0E00080E0000080E0200080E0400080E0600080E0800080E0A00080E0C00080E0E000C0000000C0002000C0004000C0006000C0008000C000A000C000C000C000E000C0200000C0202000C0204000C0206000C0208000C020A000C020C000C020E000C0400000C0402000C0404000C0406000C0
310
408000C040A000C040C000C040E000C0600000C0602000C0604000C0606000C0608000C060A000C060C000C060E000C0800000C0802000C0804000C0806000C0808000C080A000C080C000C080E000C0A00000C0A02000C0A04000C0A06000C0A08000C0A0A000C0A0C000C0A0E000C0C00000C0C02000C0C04000C0C06000
310
C0C08000C0C0A000F0FBFF00A4A0A000808080000000FF0000FF000000FFFF00FF000000FF00FF00FFFF0000FFFFFF0049494949494949494949494949494949494949494949494949494949494949494949494949494949494949494949494949494949494949494949494949494949494949494949494949494949494949
310
49494949494949494949494949494949494949494949494949494949494949494949494949494949494949494949494949494949494949494949494949494949494949494949494949494949494949494949494949494949FFFFFFFFFFFFFFFFFFFFFFFFFFFFFFFFFFFF494949494949494949494949FFFF49494949494949
310
4949494949494949494949FF49494949494949494949FF494949494949494949494949494949494949494949FF494949494949494949FF49494949494949494949494949494949494949494949FF49494949494949FF494949494949494949494949494949494949494949494949FF4949494949FF49494949494949494949
310
49494949494949494949494949494949FF49494949FF4949494949494949494949494949494949494949494949494949FF49494949FF4949494949494949494949494949494949494949494949494949FF49494949FF494949494949494949494949494949494949494949494949494949FF4949FF4949494949494949FFFF
310
49FFFFFFFFFFFF4949494949494949494949FF4949FF4949494949494949FFFFFFFFFFFFFFFFFF4949494949494949494949FF4949FF4949494949494949FFFFFFFFFFFFFFFFFF4949494949494949494949FF4949FF4949494949494949FFFF49FFFFFFFFFFFF4949494949494949494949FF494949FF4949494949494949
310
49494949494949494949494949494949494949FF494949FF4949494949494949494949494949494949494949494949494949FF49494949FF4949494949494949494949494949494949494949494949494949FF4949494949FF49494949494949494949494949494949494949494949494949FF4949494949FF494949494949
310
494949494949494949494949494949494949FF49494949494949FF49494949494949494949494949494949494949494949FF494949494949494949FF4949494949494949494949494949494949494949FF4949494949494949494949FF494949494949494949494949494949494949FF49494949494949494949494949FFFF
310
FFFFFFFFFFFFFFFFFFFFFFFFFFFFFFFF494949494949494949494949494949494949494949494949494949494949494949494949494949494949494949494949494949494949494949494949494949494949494949494949494949494949494949494949494949494949494949494949494949494949494949494949494949
310
4949494949494949494949494949494949494949494949494949494949494949494949494949494949494949494949494949494949494949
102
{BLKREFS
331
E77
102
}
1001
ACAD
1000
DesignCenter Data
1002
{
1070
     1
1070
     4
1002
}
  0
BLOCK_RECORD
  5
E7A
330
1
100
AcDbSymbolTableRecord
100
AcDbBlockTableRecord
  2
Tabelki rysunkowe Rzut
340
0
102
{BLKREFS
331
E8A
331
E97
102
}
  0
ENDTAB
  0
ENDSEC
  0
SECTION
  2
BLOCKS
  0
BLOCK
  5
6D
330
6C
100
AcDbEntity
  8
0
100
AcDbBlockBegin
  2
*Model_Space
 70
     0
 10
0.0
 20
0.0
 30
0.0
  3
*Model_Space
  1

  0
ENDBLK
  5
6E
330
6C
100
AcDbEntity
  8
0
100
AcDbBlockEnd
  0
BLOCK
  5
69
330
68
100
AcDbEntity
 67
     1
  8
0
100
AcDbBlockBegin
  2
*Paper_Space
 70
     0
 10
0.0
 20
0.0
 30
0.0
  3
*Paper_Space
  1

  0
ENDBLK
  5
6A
330
68
100
AcDbEntity
 67
     1
  8
0
100
AcDbBlockEnd
  0
BLOCK
  5
71
330
70
100
AcDbEntity
 67
     1
  8
0
100
AcDbBlockBegin
  2
*Paper_Space0
 70
     0
 10
0.0
 20
0.0
 30
0.0
  3
*Paper_Space0
  1

  0
ENDBLK
  5
72
330
70
100
AcDbEntity
 67
     1
  8
0
100
AcDbBlockEnd
  0
BLOCK
  5
D9
330
D8
100
AcDbEntity
  8
0
100
AcDbBlockBegin
  2
Filled-1
 70
     0
 10
0.0
 20
0.0
 30
0.0
  3
Filled-1
  1

  0
LINE
  5
DB
330
D8
100
AcDbEntity
  8
0
 62
     0
100
AcDbLine
 10
-1.0
 20
0.0
 30
0.0
 11
0.0
 21
0.0
 31
0.0
  0
POLYLINE
  5
DC
330
D8
100
AcDbEntity
  8
0
 62
     0
100
AcDb2dPolyline
 66
     1
 10
0.0
 20
0.0
 30
0.0
 70
   128
  0
VERTEX
  5
DD
330
DC
100
AcDbEntity
  8
0
 62
     0
100
AcDbVertex
100
AcDb2dVertex
 10
-1.0
 20
-0.1
 30
0.0
  0
VERTEX
  5
DE
330
DC
100
AcDbEntity
  8
0
 62
     0
100
AcDbVertex
100
AcDb2dVertex
 10
0.0
 20
0.0
 30
0.0
  0
VERTEX
  5
E0
330
DC
100
AcDbEntity
  8
0
 62
     0
100
AcDbVertex
100
AcDb2dVertex
 10
-1.0
 20
0.1
 30
0.0
  0
VERTEX
  5
E1
330
DC
100
AcDbEntity
  8
0
 62
     0
100
AcDbVertex
100
AcDb2dVertex
 10
-1.0
 20
-0.1
 30
0.0
  0
SEQEND
  5
DF
330
DC
100
AcDbEntity
  8
0
 62
     0
  0
SOLID
  5
E2
330
D8
100
AcDbEntity
  8
0
 62
     0
100
AcDbTrace
 10
-1.0
 20
-0.1
 30
0.0
 11
0.0
 21
0.0
 31
0.0
 12
-1.0
 22
0.1
 32
0.0
 13
-1.0
 23
-0.1
 33
0.0
  0
LINE
  5
E3
330
D8
100
AcDbEntity
  8
0
 62
     0
100
AcDbLine
 10
-1.0
 20
-0.1
 30
0.0
 11
0.0
 21
0.0
 31
0.0
  0
LINE
  5
E4
330
D8
100
AcDbEntity
  8
0
 62
     0
100
AcDbLine
 10
0.0
 20
0.0
 30
0.0
 11
-1.0
 21
0.1
 31
0.0
  0
LINE
  5
E5
330
D8
100
AcDbEntity
  8
0
 62
     0
100
AcDbLine
 10
-1.0
 20
0.1
 30
0.0
 11
-1.0
 21
-0.1
 31
0.0
  0
ENDBLK
  5
DA
330
D8
100
AcDbEntity
  8
0
100
AcDbBlockEnd
  0
BLOCK
  5
EE
330
E9
100
AcDbEntity
  8
0
100
AcDbBlockBegin
  2
_Closed
 70
     0
 10
0.0
 20
0.0
 30
0.0
  3
_Closed
  1

  0
LINE
  5
EA
330
E9
100
AcDbEntity
  8
0
  6
ByBlock
 62
     0
370
    -2
100
AcDbLine
 10
-1.0
 20
0.1666666666666666
 30
0.0
 11
0.0
 21
0.0
 31
0.0
  0
LINE
  5
EB
330
E9
100
AcDbEntity
  8
0
  6
ByBlock
 62
     0
370
    -2
100
AcDbLine
 10
0.0
 20
0.0
 30
0.0
 11
-1.0
 21
-0.1666666666666666
 31
0.0
  0
LINE
  5
EC
330
E9
100
AcDbEntity
  8
0
  6
ByBlock
 62
     0
370
    -2
100
AcDbLine
 10
-1.0
 20
0.1666666666666666
 30
0.0
 11
-1.0
 21
-0.1666666666666666
 31
0.0
  0
LINE
  5
ED
330
E9
100
AcDbEntity
  8
0
  6
ByBlock
 62
     0
370
    -2
100
AcDbLine
 10
0.0
 20
0.0
 30
0.0
 11
-1.0
 21
0.0
 31
0.0
  0
ENDBLK
  5
EF
330
E9
100
AcDbEntity
  8
0
100
AcDbBlockEnd
  0
BLOCK
  5
F1
330
F0
100
AcDbEntity
  8
0
100
AcDbBlockBegin
  2
DatumFilled45
 70
     0
 10
0.0
 20
0.0
 30
0.0
  3
DatumFilled45
  1

  0
POLYLINE
  5
F3
330
F0
100
AcDbEntity
  8
0
 62
     0
100
AcDb2dPolyline
 66
     1
 10
0.0
 20
0.0
 30
0.0
 70
   128
  0
VERTEX
  5
F4
330
F3
100
AcDbEntity
  8
0
 62
     0
100
AcDbVertex
100
AcDb2dVertex
 10
0.0
 20
1.0
 30
0.0
  0
VERTEX
  5
F5
330
F3
100
AcDbEntity
  8
0
 62
     0
100
AcDbVertex
100
AcDb2dVertex
 10
0.0
 20
-1.0
 30
0.0
  0
VERTEX
  5
F7
330
F3
100
AcDbEntity
  8
0
 62
     0
100
AcDbVertex
100
AcDb2dVertex
 10
-1.0
 20
0.0
 30
0.0
  0
VERTEX
  5
F8
330
F3
100
AcDbEntity
  8
0
 62
     0
100
AcDbVertex
100
AcDb2dVertex
 10
0.0
 20
1.0
 30
0.0
  0
SEQEND
  5
F6
330
F3
100
AcDbEntity
  8
0
 62
     0
  0
SOLID
  5
F9
330
F0
100
AcDbEntity
  8
0
 62
     0
100
AcDbTrace
 10
0.0
 20
1.0
 30
0.0
 11
0.0
 21
-1.0
 31
0.0
 12
-1.0
 22
0.0
 32
0.0
 13
0.0
 23
1.0
 33
0.0
  0
ENDBLK
  5
F2
330
F0
100
AcDbEntity
  8
0
100
AcDbBlockEnd
  0
BLOCK
  5
FC
330
FB
100
AcDbEntity
  8
0
100
AcDbBlockBegin
  2
Poziom gruntu
 70
     0
 10
0.0
 20
0.0
 30
0.0
  3
Poziom gruntu
  1

  0
HATCH
  5
101
330
FB
100
AcDbEntity
  8
Hatch (ISO)
 62
     7
100
AcDbHatch
 10
0.0
 20
0.0
 30
0.0
210
0.0
220
0.0
230
1.0
  2
SOLID
 70
     1
 71
     0
 91
        1
 92
        1
 93
        3
 72
     1
 10
-1.750000000000024
 20
1.515544456622812
 11
1.750000000000024
 21
1.515544456622812
 72
     1
 10
1.750000000000024
 20
1.515544456622812
 11
0.0
 21
-1.515544456622794
 72
     1
 10
0.0
 20
-1.515544456622794
 11
-1.750000000000024
 21
1.515544456622812
 97
        0
 75
     0
 76
     1
 98
        1
 10
0.0
 20
0.0
  0
LINE
  5
102
330
FB
100
AcDbEntity
  8
Sketch Geometry (ISO)
100
AcDbLine
 10
0.0
 20
-1.515544456622794
 30
0.0
 11
-1.750000000000024
 21
1.515544456622812
 31
0.0
  0
LINE
  5
103
330
FB
100
AcDbEntity
  8
Sketch Geometry (ISO)
100
AcDbLine
 10
-1.750000000000024
 20
1.515544456622812
 30
0.0
 11
1.750000000000024
 21
1.515544456622812
 31
0.0
  0
LINE
  5
104
330
FB
100
AcDbEntity
  8
Sketch Geometry (ISO)
100
AcDbLine
 10
1.750000000000024
 20
1.515544456622812
 30
0.0
 11
0.0
 21
-1.515544456622794
 31
0.0
  0
ENDBLK
  5
FD
330
FB
100
AcDbEntity
  8
0
100
AcDbBlockEnd
  0
BLOCK
  5
106
330
105
100
AcDbEntity
  8
0
100
AcDbBlockBegin
  2
Poziom
 70
     0
 10
0.0
 20
0.0
 30
0.0
  3
Poziom
  1

  0
LINE
  5
108
330
105
100
AcDbEntity
  8
Sketch Geometry (ISO)
100
AcDbLine
 10
-4.613248654051878
 20
5.0
 30
0.0
 11
-4.613248654051878
 21
-5.0
 31
0.0
  0
LINE
  5
109
330
105
100
AcDbEntity
  8
Sketch Geometry (ISO)
100
AcDbLine
 10
-4.613248654051878
 20
-5.0
 30
0.0
 11
-7.5
 21
0.0
 31
0.0
  0
LINE
  5
10A
330
105
100
AcDbEntity
  8
Sketch Geometry (ISO)
100
AcDbLine
 10
-7.5
 20
0.0
 30
0.0
 11
7.5
 21
0.0
 31
0.0
  0
ENDBLK
  5
107
330
105
100
AcDbEntity
  8
0
100
AcDbBlockEnd
  0
BLOCK
  5
10C
330
10B
100
AcDbEntity
  8
0
100
AcDbBlockBegin
  2
Podział ramki pełny
 70
     0
 10
0.0
 20
0.0
 30
0.0
  3
Podział ramki pełny
  1

  0
LINE
  5
10E
330
10B
100
AcDbEntity
  8
Sketch Geometry (ISO)
100
AcDbLine
 10
0.0
 20
190.0
 30
0.0
 11
0.0
 21
-190.0
 31
0.0
  0
LINE
  5
10F
330
10B
100
AcDbEntity
  8
Sketch Geometry (ISO)
100
AcDbLine
 10
0.0
 20
119.9999999999998
 30
0.0
 11
-148.5
 21
120.0000000000001
 31
0.0
  0
LINE
  5
110
330
10B
100
AcDbEntity
  8
Sketch Geometry (ISO)
100
AcDbLine
 10
0.0
 20
119.9999999999998
 30
0.0
 11
148.5
 21
120.0000000000001
 31
0.0
  0
LINE
  5
111
330
10B
100
AcDbEntity
  8
Sketch Geometry (ISO)
100
AcDbLine
 10
0.0
 20
49.99999999999992
 30
0.0
 11
148.5
 21
49.99999999999992
 31
0.0
  0
LINE
  5
112
330
10B
100
AcDbEntity
  8
Sketch Geometry (ISO)
100
AcDbLine
 10
0.0
 20
49.99999999999992
 30
0.0
 11
-148.5
 21
49.99999999999992
 31
0.0
  0
LINE
  5
113
330
10B
100
AcDbEntity
  8
Sketch Geometry (ISO)
100
AcDbLine
 10
0.0
 20
-20.00000000000021
 30
0.0
 11
148.5
 21
-20.00000000000021
 31
0.0
  0
LINE
  5
114
330
10B
100
AcDbEntity
  8
Sketch Geometry (ISO)
100
AcDbLine
 10
0.0
 20
-20.00000000000021
 30
0.0
 11
-148.5
 21
-20.00000000000021
 31
0.0
  0
LINE
  5
115
330
10B
100
AcDbEntity
  8
Sketch Geometry (ISO)
100
AcDbLine
 10
0.0
 20
-90.00000000000035
 30
0.0
 11
148.5
 21
-90.00000000000035
 31
0.0
  0
LINE
  5
116
330
10B
100
AcDbEntity
  8
Sketch Geometry (ISO)
100
AcDbLine
 10
0.0
 20
-90.00000000000035
 30
0.0
 11
-148.5
 21
-90.00000000000035
 31
0.0
  0
LINE
  5
117
330
10B
100
AcDbEntity
  8
Sketch Geometry (ISO)
100
AcDbLine
 10
0.0
 20
-160.0000000000005
 30
0.0
 11
-148.4999999999999
 21
-160.0000000000005
 31
0.0
  0
LINE
  5
118
330
10B
100
AcDbEntity
  8
Sketch Geometry (ISO)
100
AcDbLine
 10
0.0
 20
119.9999999999998
 30
0.0
 11
-138.5
 21
119.9999999999999
 31
0.0
  0
LINE
  5
119
330
10B
100
AcDbEntity
  8
Sketch Geometry (ISO)
100
AcDbLine
 10
-138.5
 20
119.9999999999999
 30
0.0
 11
-138.5
 21
129.9999999999999
 31
0.0
  0
LINE
  5
11A
330
10B
100
AcDbEntity
  8
Sketch Geometry (ISO)
100
AcDbLine
 10
-138.5
 20
129.9999999999999
 30
0.0
 11
0.0
 21
129.9999999999999
 31
0.0
  0
LINE
  5
11B
330
10B
100
AcDbEntity
  8
Sketch Geometry (ISO)
100
AcDbLine
 10
0.0
 20
129.9999999999999
 30
0.0
 11
0.0
 21
119.9999999999998
 31
0.0
  0
LINE
  5
11C
330
10B
100
AcDbEntity
  8
Sketch Geometry (ISO)
100
AcDbLine
 10
0.0
 20
119.9999999999998
 30
0.0
 11
136.4093077252598
 21
119.9999999999998
 31
0.0
  0
LINE
  5
11D
330
10B
100
AcDbEntity
  8
Sketch Geometry (ISO)
100
AcDbLine
 10
0.0
 20
135.4651696825694
 30
0.0
 11
0.0
 21
119.9999999999998
 31
0.0
  0
LINE
  5
11E
330
10B
100
AcDbEntity
  8
Sketch Geometry (ISO)
100
AcDbLine
 10
-59.99999999999999
 20
129.9999999999999
 30
0.0
 11
-59.99999999999999
 21
119.9999999999999
 31
0.0
  0
LINE
  5
11F
330
10B
100
AcDbEntity
  8
Sketch Geometry (ISO)
100
AcDbLine
 10
-39.99999999999999
 20
129.9999999999999
 30
0.0
 11
-39.99999999999999
 21
119.9999999999999
 31
0.0
  0
LINE
  5
120
330
10B
100
AcDbEntity
  8
Sketch Geometry (ISO)
100
AcDbLine
 10
-19.99999999999998
 20
129.9999999999999
 30
0.0
 11
-19.99999999999998
 21
119.9999999999999
 31
0.0
  0
LINE
  5
121
330
10B
100
AcDbEntity
  8
Sketch Geometry (ISO)
100
AcDbLine
 10
0.0
 20
129.9999999999999
 30
0.0
 11
138.5
 21
129.9999999999998
 31
0.0
  0
LINE
  5
122
330
10B
100
AcDbEntity
  8
Sketch Geometry (ISO)
100
AcDbLine
 10
138.5
 20
129.9999999999998
 30
0.0
 11
138.5
 21
119.9999999999998
 31
0.0
  0
LINE
  5
123
330
10B
100
AcDbEntity
  8
Sketch Geometry (ISO)
100
AcDbLine
 10
138.5
 20
119.9999999999998
 30
0.0
 11
0.0
 21
120.0000000000001
 31
0.0
  0
LINE
  5
124
330
10B
100
AcDbEntity
  8
Sketch Geometry (ISO)
100
AcDbLine
 10
0.0
 20
120.0000000000001
 30
0.0
 11
0.0
 21
129.9999999999999
 31
0.0
  0
LINE
  5
125
330
10B
100
AcDbEntity
  8
Sketch Geometry (ISO)
100
AcDbLine
 10
118.5
 20
129.9999999999998
 30
0.0
 11
118.5
 21
119.9999999999998
 31
0.0
  0
LINE
  5
126
330
10B
100
AcDbEntity
  8
Sketch Geometry (ISO)
100
AcDbLine
 10
98.50000000000001
 20
129.9999999999998
 30
0.0
 11
98.50000000000001
 21
119.9999999999998
 31
0.0
  0
LINE
  5
127
330
10B
100
AcDbEntity
  8
Sketch Geometry (ISO)
100
AcDbLine
 10
78.5
 20
129.9999999999998
 30
0.0
 11
78.5
 21
119.9999999999998
 31
0.0
  0
LINE
  5
128
330
10B
100
AcDbEntity
  8
Sketch Geometry (ISO)
100
AcDbLine
 10
-138.5
 20
59.99999999999992
 30
0.0
 11
0.0
 21
59.99999999999992
 31
0.0
  0
LINE
  5
129
330
10B
100
AcDbEntity
  8
Sketch Geometry (ISO)
100
AcDbLine
 10
-138.5
 20
49.99999999999992
 30
0.0
 11
-138.5
 21
59.99999999999992
 31
0.0
  0
LINE
  5
12A
330
10B
100
AcDbEntity
  8
Sketch Geometry (ISO)
100
AcDbLine
 10
-59.99999999999996
 20
59.99999999999992
 30
0.0
 11
-59.99999999999996
 21
49.99999999999992
 31
0.0
  0
LINE
  5
12B
330
10B
100
AcDbEntity
  8
Sketch Geometry (ISO)
100
AcDbLine
 10
-39.99999999999996
 20
59.99999999999992
 30
0.0
 11
-39.99999999999996
 21
49.99999999999992
 31
0.0
  0
LINE
  5
12C
330
10B
100
AcDbEntity
  8
Sketch Geometry (ISO)
100
AcDbLine
 10
-19.99999999999996
 20
59.99999999999992
 30
0.0
 11
-19.99999999999996
 21
49.99999999999992
 31
0.0
  0
LINE
  5
12D
330
10B
100
AcDbEntity
  8
Sketch Geometry (ISO)
100
AcDbLine
 10
0.0
 20
59.99999999999992
 30
0.0
 11
0.0
 21
49.99999999999985
 31
0.0
  0
LINE
  5
12E
330
10B
100
AcDbEntity
  8
Sketch Geometry (ISO)
100
AcDbLine
 10
0.0
 20
50.00000000000007
 30
0.0
 11
0.0
 21
59.99999999999992
 31
0.0
  0
LINE
  5
12F
330
10B
100
AcDbEntity
  8
Sketch Geometry (ISO)
100
AcDbLine
 10
0.0
 20
49.99999999999985
 30
0.0
 11
-138.5
 21
49.99999999999992
 31
0.0
  0
LINE
  5
130
330
10B
100
AcDbEntity
  8
Sketch Geometry (ISO)
100
AcDbLine
 10
-138.5
 20
-10.00000000000007
 30
0.0
 11
0.0
 21
-10.00000000000007
 31
0.0
  0
LINE
  5
131
330
10B
100
AcDbEntity
  8
Sketch Geometry (ISO)
100
AcDbLine
 10
-138.5
 20
-20.00000000000007
 30
0.0
 11
-138.5
 21
-10.00000000000007
 31
0.0
  0
LINE
  5
132
330
10B
100
AcDbEntity
  8
Sketch Geometry (ISO)
100
AcDbLine
 10
-59.99999999999996
 20
-10.00000000000007
 30
0.0
 11
-59.99999999999996
 21
-20.00000000000007
 31
0.0
  0
LINE
  5
133
330
10B
100
AcDbEntity
  8
Sketch Geometry (ISO)
100
AcDbLine
 10
-39.99999999999996
 20
-10.00000000000007
 30
0.0
 11
-39.99999999999996
 21
-20.00000000000007
 31
0.0
  0
LINE
  5
134
330
10B
100
AcDbEntity
  8
Sketch Geometry (ISO)
100
AcDbLine
 10
-19.99999999999996
 20
-10.00000000000007
 30
0.0
 11
-19.99999999999996
 21
-20.00000000000007
 31
0.0
  0
LINE
  5
135
330
10B
100
AcDbEntity
  8
Sketch Geometry (ISO)
100
AcDbLine
 10
0.0
 20
-10.00000000000007
 30
0.0
 11
0.0
 21
-20.00000000000014
 31
0.0
  0
LINE
  5
136
330
10B
100
AcDbEntity
  8
Sketch Geometry (ISO)
100
AcDbLine
 10
0.0
 20
-19.99999999999993
 30
0.0
 11
0.0
 21
-10.00000000000007
 31
0.0
  0
LINE
  5
137
330
10B
100
AcDbEntity
  8
Sketch Geometry (ISO)
100
AcDbLine
 10
0.0
 20
-20.00000000000014
 30
0.0
 11
-138.5
 21
-20.00000000000007
 31
0.0
  0
LINE
  5
138
330
10B
100
AcDbEntity
  8
Sketch Geometry (ISO)
100
AcDbLine
 10
-138.5
 20
-80.00000000000007
 30
0.0
 11
0.0
 21
-80.00000000000007
 31
0.0
  0
LINE
  5
139
330
10B
100
AcDbEntity
  8
Sketch Geometry (ISO)
100
AcDbLine
 10
-138.5
 20
-90.00000000000007
 30
0.0
 11
-138.5
 21
-80.00000000000007
 31
0.0
  0
LINE
  5
13A
330
10B
100
AcDbEntity
  8
Sketch Geometry (ISO)
100
AcDbLine
 10
-59.99999999999994
 20
-80.00000000000007
 30
0.0
 11
-59.99999999999994
 21
-90.00000000000007
 31
0.0
  0
LINE
  5
13B
330
10B
100
AcDbEntity
  8
Sketch Geometry (ISO)
100
AcDbLine
 10
-39.99999999999995
 20
-80.00000000000007
 30
0.0
 11
-39.99999999999995
 21
-90.00000000000007
 31
0.0
  0
LINE
  5
13C
330
10B
100
AcDbEntity
  8
Sketch Geometry (ISO)
100
AcDbLine
 10
-19.99999999999994
 20
-80.00000000000007
 30
0.0
 11
-19.99999999999994
 21
-90.00000000000007
 31
0.0
  0
LINE
  5
13D
330
10B
100
AcDbEntity
  8
Sketch Geometry (ISO)
100
AcDbLine
 10
0.0
 20
-80.00000000000007
 30
0.0
 11
0.0
 21
-90.00000000000014
 31
0.0
  0
LINE
  5
13E
330
10B
100
AcDbEntity
  8
Sketch Geometry (ISO)
100
AcDbLine
 10
0.0
 20
-89.99999999999992
 30
0.0
 11
0.0
 21
-80.00000000000007
 31
0.0
  0
LINE
  5
13F
330
10B
100
AcDbEntity
  8
Sketch Geometry (ISO)
100
AcDbLine
 10
0.0
 20
-90.00000000000014
 30
0.0
 11
-138.5
 21
-90.00000000000007
 31
0.0
  0
LINE
  5
140
330
10B
100
AcDbEntity
  8
Sketch Geometry (ISO)
100
AcDbLine
 10
-138.5
 20
-150.0
 30
0.0
 11
0.0
 21
-150.0
 31
0.0
  0
LINE
  5
141
330
10B
100
AcDbEntity
  8
Sketch Geometry (ISO)
100
AcDbLine
 10
-138.5
 20
-160.0
 30
0.0
 11
-138.5
 21
-150.0
 31
0.0
  0
LINE
  5
142
330
10B
100
AcDbEntity
  8
Sketch Geometry (ISO)
100
AcDbLine
 10
-59.99999999999992
 20
-150.0
 30
0.0
 11
-59.99999999999992
 21
-160.0
 31
0.0
  0
LINE
  5
143
330
10B
100
AcDbEntity
  8
Sketch Geometry (ISO)
100
AcDbLine
 10
-39.99999999999993
 20
-150.0
 30
0.0
 11
-39.99999999999993
 21
-160.0
 31
0.0
  0
LINE
  5
144
330
10B
100
AcDbEntity
  8
Sketch Geometry (ISO)
100
AcDbLine
 10
-19.99999999999993
 20
-150.0
 30
0.0
 11
-19.99999999999993
 21
-160.0
 31
0.0
  0
LINE
  5
145
330
10B
100
AcDbEntity
  8
Sketch Geometry (ISO)
100
AcDbLine
 10
0.0
 20
-150.0
 30
0.0
 11
0.0
 21
-160.0000000000001
 31
0.0
  0
LINE
  5
146
330
10B
100
AcDbEntity
  8
Sketch Geometry (ISO)
100
AcDbLine
 10
0.0
 20
-159.9999999999999
 30
0.0
 11
0.0
 21
-150.0
 31
0.0
  0
LINE
  5
147
330
10B
100
AcDbEntity
  8
Sketch Geometry (ISO)
100
AcDbLine
 10
0.0
 20
-160.0000000000001
 30
0.0
 11
-138.5
 21
-160.0
 31
0.0
  0
LINE
  5
148
330
10B
100
AcDbEntity
  8
Sketch Geometry (ISO)
100
AcDbLine
 10
0.0
 20
49.99999999999985
 30
0.0
 11
148.5
 21
50.00000000000007
 31
0.0
  0
LINE
  5
149
330
10B
100
AcDbEntity
  8
Sketch Geometry (ISO)
100
AcDbLine
 10
0.0
 20
49.99999999999985
 30
0.0
 11
136.4093077252598
 21
49.99999999999985
 31
0.0
  0
LINE
  5
14A
330
10B
100
AcDbEntity
  8
Sketch Geometry (ISO)
100
AcDbLine
 10
138.5
 20
49.99999999999985
 30
0.0
 11
0.0
 21
50.00000000000007
 31
0.0
  0
LINE
  5
14B
330
10B
100
AcDbEntity
  8
Sketch Geometry (ISO)
100
AcDbLine
 10
0.0
 20
59.99999999999992
 30
0.0
 11
138.5
 21
59.99999999999985
 31
0.0
  0
LINE
  5
14C
330
10B
100
AcDbEntity
  8
Sketch Geometry (ISO)
100
AcDbLine
 10
78.5
 20
59.99999999999985
 30
0.0
 11
78.5
 21
49.99999999999985
 31
0.0
  0
LINE
  5
14D
330
10B
100
AcDbEntity
  8
Sketch Geometry (ISO)
100
AcDbLine
 10
98.50000000000001
 20
59.99999999999985
 30
0.0
 11
98.50000000000001
 21
49.99999999999985
 31
0.0
  0
LINE
  5
14E
330
10B
100
AcDbEntity
  8
Sketch Geometry (ISO)
100
AcDbLine
 10
118.5
 20
59.99999999999985
 30
0.0
 11
118.5
 21
49.99999999999985
 31
0.0
  0
LINE
  5
14F
330
10B
100
AcDbEntity
  8
Sketch Geometry (ISO)
100
AcDbLine
 10
138.5
 20
59.99999999999985
 30
0.0
 11
138.5
 21
49.99999999999985
 31
0.0
  0
LINE
  5
150
330
10B
100
AcDbEntity
  8
Sketch Geometry (ISO)
100
AcDbLine
 10
0.0
 20
59.99999999999992
 30
0.0
 11
0.0
 21
49.99999999999985
 31
0.0
  0
LINE
  5
151
330
10B
100
AcDbEntity
  8
Sketch Geometry (ISO)
100
AcDbLine
 10
0.0
 20
50.00000000000007
 30
0.0
 11
0.0
 21
59.99999999999992
 31
0.0
  0
LINE
  5
152
330
10B
100
AcDbEntity
  8
Sketch Geometry (ISO)
100
AcDbLine
 10
0.0
 20
65.46516968256945
 30
0.0
 11
0.0
 21
49.99999999999985
 31
0.0
  0
LINE
  5
153
330
10B
100
AcDbEntity
  8
Sketch Geometry (ISO)
100
AcDbLine
 10
0.0
 20
-20.00000000000014
 30
0.0
 11
148.5
 21
-19.99999999999993
 31
0.0
  0
LINE
  5
154
330
10B
100
AcDbEntity
  8
Sketch Geometry (ISO)
100
AcDbLine
 10
0.0
 20
-20.00000000000014
 30
0.0
 11
136.4093077252598
 21
-20.00000000000014
 31
0.0
  0
LINE
  5
155
330
10B
100
AcDbEntity
  8
Sketch Geometry (ISO)
100
AcDbLine
 10
138.5
 20
-20.00000000000014
 30
0.0
 11
0.0
 21
-19.99999999999993
 31
0.0
  0
LINE
  5
156
330
10B
100
AcDbEntity
  8
Sketch Geometry (ISO)
100
AcDbLine
 10
0.0
 20
-10.00000000000007
 30
0.0
 11
138.5
 21
-10.00000000000014
 31
0.0
  0
LINE
  5
157
330
10B
100
AcDbEntity
  8
Sketch Geometry (ISO)
100
AcDbLine
 10
78.50000000000003
 20
-10.00000000000014
 30
0.0
 11
78.50000000000003
 21
-20.00000000000014
 31
0.0
  0
LINE
  5
158
330
10B
100
AcDbEntity
  8
Sketch Geometry (ISO)
100
AcDbLine
 10
98.50000000000003
 20
-10.00000000000014
 30
0.0
 11
98.50000000000003
 21
-20.00000000000014
 31
0.0
  0
LINE
  5
159
330
10B
100
AcDbEntity
  8
Sketch Geometry (ISO)
100
AcDbLine
 10
118.5
 20
-10.00000000000014
 30
0.0
 11
118.5
 21
-20.00000000000014
 31
0.0
  0
LINE
  5
15A
330
10B
100
AcDbEntity
  8
Sketch Geometry (ISO)
100
AcDbLine
 10
138.5
 20
-10.00000000000014
 30
0.0
 11
138.5
 21
-20.00000000000014
 31
0.0
  0
LINE
  5
15B
330
10B
100
AcDbEntity
  8
Sketch Geometry (ISO)
100
AcDbLine
 10
0.0
 20
-10.00000000000007
 30
0.0
 11
0.0
 21
-20.00000000000014
 31
0.0
  0
LINE
  5
15C
330
10B
100
AcDbEntity
  8
Sketch Geometry (ISO)
100
AcDbLine
 10
0.0
 20
-19.99999999999993
 30
0.0
 11
0.0
 21
-10.00000000000007
 31
0.0
  0
LINE
  5
15D
330
10B
100
AcDbEntity
  8
Sketch Geometry (ISO)
100
AcDbLine
 10
0.0
 20
-4.534830317430547
 30
0.0
 11
0.0
 21
-20.00000000000014
 31
0.0
  0
LINE
  5
15E
330
10B
100
AcDbEntity
  8
Sketch Geometry (ISO)
100
AcDbLine
 10
0.0
 20
-90.00000000000014
 30
0.0
 11
148.5
 21
-89.99999999999992
 31
0.0
  0
LINE
  5
15F
330
10B
100
AcDbEntity
  8
Sketch Geometry (ISO)
100
AcDbLine
 10
0.0
 20
-90.00000000000014
 30
0.0
 11
136.4093077252598
 21
-90.00000000000014
 31
0.0
  0
LINE
  5
160
330
10B
100
AcDbEntity
  8
Sketch Geometry (ISO)
100
AcDbLine
 10
138.5
 20
-90.00000000000014
 30
0.0
 11
0.0
 21
-89.99999999999992
 31
0.0
  0
LINE
  5
161
330
10B
100
AcDbEntity
  8
Sketch Geometry (ISO)
100
AcDbLine
 10
0.0
 20
-80.00000000000007
 30
0.0
 11
138.5
 21
-80.00000000000014
 31
0.0
  0
LINE
  5
162
330
10B
100
AcDbEntity
  8
Sketch Geometry (ISO)
100
AcDbLine
 10
78.50000000000003
 20
-80.00000000000014
 30
0.0
 11
78.50000000000003
 21
-90.00000000000014
 31
0.0
  0
LINE
  5
163
330
10B
100
AcDbEntity
  8
Sketch Geometry (ISO)
100
AcDbLine
 10
98.50000000000003
 20
-80.00000000000014
 30
0.0
 11
98.50000000000003
 21
-90.00000000000014
 31
0.0
  0
LINE
  5
164
330
10B
100
AcDbEntity
  8
Sketch Geometry (ISO)
100
AcDbLine
 10
118.5
 20
-80.00000000000014
 30
0.0
 11
118.5
 21
-90.00000000000014
 31
0.0
  0
LINE
  5
165
330
10B
100
AcDbEntity
  8
Sketch Geometry (ISO)
100
AcDbLine
 10
138.5
 20
-80.00000000000014
 30
0.0
 11
138.5
 21
-90.00000000000014
 31
0.0
  0
LINE
  5
166
330
10B
100
AcDbEntity
  8
Sketch Geometry (ISO)
100
AcDbLine
 10
0.0
 20
-80.00000000000007
 30
0.0
 11
0.0
 21
-90.00000000000014
 31
0.0
  0
LINE
  5
167
330
10B
100
AcDbEntity
  8
Sketch Geometry (ISO)
100
AcDbLine
 10
0.0
 20
-89.99999999999992
 30
0.0
 11
0.0
 21
-80.00000000000007
 31
0.0
  0
LINE
  5
168
330
10B
100
AcDbEntity
  8
Sketch Geometry (ISO)
100
AcDbLine
 10
0.0
 20
-74.53483031743054
 30
0.0
 11
0.0
 21
-90.00000000000014
 31
0.0
  0
MTEXT
  5
169
330
10B
100
AcDbEntity
  8
Symbol (ISO)
100
AcDbMText
 10
-99.25
 20
124.9999999999998
 30
0.0
 40
2.5
 41
78.50000000000005
 71
     5
 72
     1
  1
Tabela kontroli
  7
Note Text (ISO)
 73
     1
 44
1.0
1001
ACAD
1000
MTEXTBEGIN
1070
    73
1070
     1
1070
    44
1040
1.0
1070
    74
1070
     0
1000
MTEXTEND
  0
MTEXT
  5
16B
330
10B
100
AcDbEntity
  8
Symbol (ISO)
100
AcDbMText
 10
39.24999999999992
 20
124.9999999999998
 30
0.0
 40
2.5
 41
78.49999999999987
 71
     5
 72
     1
  1
Tabela kontroli
  7
Note Text (ISO)
 73
     1
 44
1.0
1001
ACAD
1000
MTEXTBEGIN
1070
    73
1070
     1
1070
    44
1040
1.0
1070
    74
1070
     0
1000
MTEXTEND
  0
MTEXT
  5
16C
330
10B
100
AcDbEntity
  8
Symbol (ISO)
100
AcDbMText
 10
39.2500000000001
 20
55.00000000000003
 30
0.0
 40
2.5
 41
78.50000000000008
 71
     5
 72
     1
  1
Tabela kontroli
  7
Note Text (ISO)
 73
     1
 44
1.0
1001
ACAD
1000
MTEXTBEGIN
1070
    73
1070
     1
1070
    44
1040
1.0
1070
    74
1070
     0
1000
MTEXTEND
  0
MTEXT
  5
16D
330
10B
100
AcDbEntity
  8
Symbol (ISO)
100
AcDbMText
 10
-99.24999999999991
 20
-85.00000000000007
 30
0.0
 40
2.5
 41
78.50000000000015
 71
     5
 72
     1
  1
Tabela kontroli
  7
Note Text (ISO)
 73
     1
 44
1.0
1001
ACAD
1000
MTEXTBEGIN
1070
    73
1070
     1
1070
    44
1040
1.0
1070
    74
1070
     0
1000
MTEXTEND
  0
MTEXT
  5
16E
330
10B
100
AcDbEntity
  8
Symbol (ISO)
100
AcDbMText
 10
-99.25
 20
54.99999999999992
 30
0.0
 40
2.5
 41
78.50000000000003
 71
     5
 72
     1
  1
Tabela kontroli
  7
Note Text (ISO)
 73
     1
 44
1.0
1001
ACAD
1000
MTEXTBEGIN
1070
    73
1070
     1
1070
    44
1040
1.0
1070
    74
1070
     0
1000
MTEXTEND
  0
MTEXT
  5
16F
330
10B
100
AcDbEntity
  8
Symbol (ISO)
100
AcDbMText
 10
39.2500000000001
 20
-15.00000000000007
 30
0.0
 40
2.5
 41
78.50000000000008
 71
     5
 72
     1
  1
Tabela kontroli
  7
Note Text (ISO)
 73
     1
 44
1.0
1001
ACAD
1000
MTEXTBEGIN
1070
    73
1070
     1
1070
    44
1040
1.0
1070
    74
1070
     0
1000
MTEXTEND
  0
MTEXT
  5
170
330
10B
100
AcDbEntity
  8
Symbol (ISO)
100
AcDbMText
 10
-99.24999999999991
 20
-15.00000000000007
 30
0.0
 40
2.5
 41
78.50000000000015
 71
     5
 72
     1
  1
Tabela kontroli
  7
Note Text (ISO)
 73
     1
 44
1.0
1001
ACAD
1000
MTEXTBEGIN
1070
    73
1070
     1
1070
    44
1040
1.0
1070
    74
1070
     0
1000
MTEXTEND
  0
MTEXT
  5
171
330
10B
100
AcDbEntity
  8
Symbol (ISO)
100
AcDbMText
 10
-99.2499999999999
 20
-155.0
 30
0.0
 40
2.5
 41
78.50000000000015
 71
     5
 72
     1
  1
Tabela kontroli
  7
Note Text (ISO)
 73
     1
 44
1.0
1001
ACAD
1000
MTEXTBEGIN
1070
    73
1070
     1
1070
    44
1040
1.0
1070
    74
1070
     0
1000
MTEXTEND
  0
MTEXT
  5
172
330
10B
100
AcDbEntity
  8
Symbol (ISO)
100
AcDbMText
 10
39.25000000000017
 20
-85.00000000000001
 30
0.0
 40
2.5
 41
78.50000000000015
 71
     5
 72
     1
  1
Tabela kontroli
  7
Note Text (ISO)
 73
     1
 44
1.0
1001
ACAD
1000
MTEXTBEGIN
1070
    73
1070
     1
1070
    44
1040
1.0
1070
    74
1070
     0
1000
MTEXTEND
  0
ENDBLK
  5
10D
330
10B
100
AcDbEntity
  8
0
100
AcDbBlockEnd
  0
BLOCK
  5
447
330
446
100
AcDbEntity
  8
0
100
AcDbBlockBegin
  2
*D7
 70
     1
 10
0.0
 20
0.0
 30
0.0
  3
*D7
  1

  0
LINE
  5
524
330
446
100
AcDbEntity
  8
Dimension (ISO)
100
AcDbLine
 10
4443.752378677991
 20
5899.242011162125
 30
0.0
 11
2529.220517098065
 21
5899.242011162125
 31
0.0
  0
LINE
  5
525
330
446
100
AcDbEntity
  8
Dimension (ISO)
100
AcDbLine
 10
4443.752378677989
 20
2329.242011162125
 30
0.0
 11
2529.220517098064
 21
2329.242011162125
 31
0.0
  0
LINE
  5
526
330
446
100
AcDbEntity
  8
Dimension (ISO)
100
AcDbLine
 10
2579.220517098065
 20
5774.242011162125
 30
0.0
 11
2579.220517098065
 21
2454.242011162125
 31
0.0
  0
SOLID
  5
527
330
446
100
AcDbEntity
  8
Dimension (ISO)
100
AcDbTrace
 10
2558.387183764732
 20
5774.242011162125
 30
0.0
 11
2600.053850431399
 21
5774.242011162125
 31
0.0
 12
2579.220517098065
 22
5899.242011162125
 32
0.0
 13
2579.220517098065
 23
5899.242011162125
 33
0.0
  0
SOLID
  5
528
330
446
100
AcDbEntity
  8
Dimension (ISO)
100
AcDbTrace
 10
2558.387183764731
 20
2454.242011162125
 30
0.0
 11
2600.053850431398
 21
2454.242011162125
 31
0.0
 12
2579.220517098065
 22
2329.242011162125
 32
0.0
 13
2579.220517098065
 23
2329.242011162125
 33
0.0
  0
MTEXT
  5
529
330
446
100
AcDbEntity
  8
Dimension (ISO)
100
AcDbMText
 10
2358.833748631772
 20
4114.242011162124
 30
0.0
 40
175.0
 41
0.0
 71
     2
 72
     1
  1
\A1;3570
  7
Label Text (ISO)
 11
0.0000000000000001
 21
1.0
 31
0.0
 73
     1
 44
1.0
1001
ACAD
1000
MTEXTBEGIN
1070
    73
1070
     1
1070
    44
1040
1.0
1070
    74
1070
     0
1000
MTEXTEND
  0
POINT
  5
52A
330
446
100
AcDbEntity
  8
Defpoints
 62
     0
100
AcDbPoint
 10
4468.75237867799
 20
5899.242011162125
 30
0.0
  0
POINT
  5
52B
330
446
100
AcDbEntity
  8
Defpoints
 62
     0
100
AcDbPoint
 10
4468.752378677989
 20
2329.242011162125
 30
0.0
  0
POINT
  5
52C
330
446
100
AcDbEntity
  8
Defpoints
 62
     0
100
AcDbPoint
 10
2579.220517098065
 20
2329.242011162125
 30
0.0
  0
ENDBLK
  5
448
330
446
100
AcDbEntity
  8
0
100
AcDbBlockEnd
  0
BLOCK
  5
52F
330
52E
100
AcDbEntity
  8
0
100
AcDbBlockBegin
  2
*D8
 70
     1
 10
0.0
 20
0.0
 30
0.0
  3
*D8
  1

  0
LINE
  5
606
330
52E
100
AcDbEntity
  8
Dimension (ISO)
100
AcDbLine
 10
2968.75237867799
 20
3804.242011162125
 30
0.0
 11
2968.75237867799
 21
1828.965191690369
 31
0.0
  0
LINE
  5
607
330
52E
100
AcDbEntity
  8
Dimension (ISO)
100
AcDbLine
 10
7648.75237867799
 20
3804.242011162125
 30
0.0
 11
7648.75237867799
 21
1828.965191690369
 31
0.0
  0
LINE
  5
608
330
52E
100
AcDbEntity
  8
Dimension (ISO)
100
AcDbLine
 10
3093.75237867799
 20
1878.965191690369
 30
0.0
 11
7523.75237867799
 21
1878.965191690369
 31
0.0
  0
SOLID
  5
609
330
52E
100
AcDbEntity
  8
Dimension (ISO)
100
AcDbTrace
 10
3093.75237867799
 20
1899.798525023702
 30
0.0
 11
3093.75237867799
 21
1858.131858357036
 31
0.0
 12
2968.75237867799
 22
1878.965191690369
 32
0.0
 13
2968.75237867799
 23
1878.965191690369
 33
0.0
  0
SOLID
  5
60A
330
52E
100
AcDbEntity
  8
Dimension (ISO)
100
AcDbTrace
 10
7523.75237867799
 20
1899.798525023702
 30
0.0
 11
7523.75237867799
 21
1858.131858357036
 31
0.0
 12
7648.75237867799
 22
1878.965191690369
 32
0.0
 13
7648.75237867799
 23
1878.965191690369
 33
0.0
  0
MTEXT
  5
60B
330
52E
100
AcDbEntity
  8
Dimension (ISO)
100
AcDbMText
 10
5308.75237867799
 20
2100.057131407982
 30
0.0
 40
175.0
 41
0.0
 71
     2
 72
     1
  1
\A1;4680
  7
Label Text (ISO)
 73
     1
 44
1.0
1001
ACAD
1000
MTEXTBEGIN
1070
    73
1070
     1
1070
    44
1040
1.0
1070
    74
1070
     0
1000
MTEXTEND
  0
POINT
  5
60C
330
52E
100
AcDbEntity
  8
Defpoints
 62
     0
100
AcDbPoint
 10
2968.75237867799
 20
3829.242011162125
 30
0.0
  0
POINT
  5
60D
330
52E
100
AcDbEntity
  8
Defpoints
 62
     0
100
AcDbPoint
 10
7648.75237867799
 20
3829.242011162125
 30
0.0
  0
POINT
  5
60E
330
52E
100
AcDbEntity
  8
Defpoints
 62
     0
100
AcDbPoint
 10
7648.75237867799
 20
1878.965191690369
 30
0.0
  0
ENDBLK
  5
530
330
52E
100
AcDbEntity
  8
0
100
AcDbBlockEnd
  0
BLOCK
  5
611
330
610
100
AcDbEntity
  8
0
100
AcDbBlockBegin
  2
*D9
 70
     1
 10
0.0
 20
0.0
 30
0.0
  3
*D9
  1

  0
LINE
  5
6E8
330
610
100
AcDbEntity
  8
Dimension (ISO)
100
AcDbLine
 10
4468.752378677989
 20
3893.74201116259
 30
0.0
 11
4468.752378677989
 21
3167.831363748265
 31
0.0
  0
LINE
  5
6E9
330
610
100
AcDbEntity
  8
Dimension (ISO)
100
AcDbLine
 10
5716.152378677988
 20
3885.122011162147
 30
0.0
 11
5716.152378677988
 21
3167.831363748265
 31
0.0
  0
LINE
  5
6EA
330
610
100
AcDbEntity
  8
Dimension (ISO)
100
AcDbLine
 10
4593.752378677989
 20
3217.831363748265
 30
0.0
 11
5591.152378677988
 21
3217.831363748265
 31
0.0
  0
SOLID
  5
6EB
330
610
100
AcDbEntity
  8
Dimension (ISO)
100
AcDbTrace
 10
4593.752378677989
 20
3238.664697081598
 30
0.0
 11
4593.752378677989
 21
3196.998030414932
 31
0.0
 12
4468.752378677989
 22
3217.831363748265
 32
0.0
 13
4468.752378677989
 23
3217.831363748265
 33
0.0
  0
SOLID
  5
6EC
330
610
100
AcDbEntity
  8
Dimension (ISO)
100
AcDbTrace
 10
5591.152378677988
 20
3238.664697081598
 30
0.0
 11
5591.152378677988
 21
3196.998030414932
 31
0.0
 12
5716.152378677988
 22
3217.831363748265
 32
0.0
 13
5716.152378677988
 23
3217.831363748265
 33
0.0
  0
MTEXT
  5
6ED
330
610
100
AcDbEntity
  8
Dimension (ISO)
100
AcDbMText
 10
5092.45237867799
 20
3434.574747416069
 30
0.0
 40
175.0
 41
0.0
 71
     2
 72
     1
  1
\A1;1247
  7
Label Text (ISO)
 73
     1
 44
1.0
1001
ACAD
1000
MTEXTBEGIN
1070
    73
1070
     1
1070
    44
1040
1.0
1070
    74
1070
     0
1000
MTEXTEND
  0
POINT
  5
6EE
330
610
100
AcDbEntity
  8
Defpoints
 62
     0
100
AcDbPoint
 10
4468.752378677989
 20
3918.742011162591
 30
0.0
  0
POINT
  5
6EF
330
610
100
AcDbEntity
  8
Defpoints
 62
     0
100
AcDbPoint
 10
5716.152378677988
 20
3910.122011162147
 30
0.0
  0
POINT
  5
6F0
330
610
100
AcDbEntity
  8
Defpoints
 62
     0
100
AcDbPoint
 10
5716.152378677988
 20
3217.831363748265
 30
0.0
  0
ENDBLK
  5
612
330
610
100
AcDbEntity
  8
0
100
AcDbBlockEnd
  0
BLOCK
  5
6F3
330
6F2
100
AcDbEntity
  8
0
100
AcDbBlockBegin
  2
*D10
 70
     1
 10
0.0
 20
0.0
 30
0.0
  3
*D10
  1

  0
LINE
  5
7D2
330
6F2
100
AcDbEntity
  8
Dimension (ISO)
100
AcDbLine
 10
5637.502378677998
 20
4395.362011162169
 30
0.0
 11
6302.284517760178
 21
4395.362011162167
 31
0.0
  0
LINE
  5
7D3
330
6F2
100
AcDbEntity
  8
Dimension (ISO)
100
AcDbLine
 10
5637.502378677998
 20
3833.122011162166
 30
0.0
 11
6302.284517760178
 21
3833.122011162166
 31
0.0
  0
LINE
  5
7D4
330
6F2
100
AcDbEntity
  8
Dimension (ISO)
100
AcDbLine
 10
6252.284517760177
 20
4270.362011162167
 30
0.0
 11
6252.284517760177
 21
3958.122011162166
 31
0.0
  0
SOLID
  5
7D5
330
6F2
100
AcDbEntity
  8
Dimension (ISO)
100
AcDbTrace
 10
6231.451184426845
 20
4270.362011162167
 30
0.0
 11
6273.117851093511
 21
4270.362011162167
 31
0.0
 12
6252.284517760177
 22
4395.362011162167
 32
0.0
 13
6252.284517760177
 23
4395.362011162167
 33
0.0
  0
SOLID
  5
7D6
330
6F2
100
AcDbEntity
  8
Dimension (ISO)
100
AcDbTrace
 10
6231.451184426845
 20
3958.122011162166
 30
0.0
 11
6273.117851093511
 21
3958.122011162166
 31
0.0
 12
6252.284517760177
 22
3833.122011162166
 32
0.0
 13
6252.284517760177
 23
3833.122011162166
 33
0.0
  0
MTEXT
  5
7D7
330
6F2
100
AcDbEntity
  8
Dimension (ISO)
100
AcDbMText
 10
6031.897749293884
 20
4114.242011162168
 30
0.0
 40
175.0
 41
0.0
 71
     2
 72
     1
  1
\A1;562
  7
Label Text (ISO)
 11
0.0000000000000001
 21
1.0
 31
0.0
 73
     1
 44
1.0
1001
ACAD
1000
MTEXTBEGIN
1070
    73
1070
     1
1070
    44
1040
1.0
1070
    74
1070
     0
1000
MTEXTEND
  0
POINT
  5
7D8
330
6F2
100
AcDbEntity
  8
Defpoints
 62
     0
100
AcDbPoint
 10
5612.502378677998
 20
4395.362011162169
 30
0.0
  0
POINT
  5
7D9
330
6F2
100
AcDbEntity
  8
Defpoints
 62
     0
100
AcDbPoint
 10
5612.502378677998
 20
3833.122011162166
 30
0.0
  0
POINT
  5
7DA
330
6F2
100
AcDbEntity
  8
Defpoints
 62
     0
100
AcDbPoint
 10
6252.284517760177
 20
3833.122011162166
 30
0.0
  0
ENDBLK
  5
6F4
330
6F2
100
AcDbEntity
  8
0
100
AcDbBlockEnd
  0
BLOCK
  5
7DD
330
7DC
100
AcDbEntity
  8
0
100
AcDbBlockBegin
  2
*D11
 70
     1
 10
0.0
 20
0.0
 30
0.0
  3
*D11
  1

  0
LINE
  5
8BC
330
7DC
100
AcDbEntity
  8
Dimension (ISO)
100
AcDbLine
 10
3981.752378678991
 20
6366.319568569464
 30
0.0
 11
3476.581548501826
 21
6366.319568569464
 31
0.0
  0
LINE
  5
8BD
330
7DC
100
AcDbEntity
  8
Dimension (ISO)
100
AcDbLine
 10
3526.581548501826
 20
6681.319568569463
 30
0.0
 11
3526.581548501826
 21
6491.319568569463
 31
0.0
  0
SOLID
  5
8BE
330
7DC
100
AcDbEntity
  8
Dimension (ISO)
100
AcDbTrace
 10
3505.748215168492
 20
6681.319568569463
 30
0.0
 11
3547.414881835159
 21
6681.319568569463
 31
0.0
 12
3526.581548501826
 22
6806.319568569463
 32
0.0
 13
3526.581548501826
 23
6806.319568569463
 33
0.0
  0
SOLID
  5
8BF
330
7DC
100
AcDbEntity
  8
Dimension (ISO)
100
AcDbTrace
 10
3505.748215168492
 20
6491.319568569463
 30
0.0
 11
3547.414881835159
 21
6491.319568569463
 31
0.0
 12
3526.581548501826
 22
6366.319568569464
 32
0.0
 13
3526.581548501826
 23
6366.319568569464
 33
0.0
  0
MTEXT
  5
8C0
330
7DC
100
AcDbEntity
  8
Dimension (ISO)
100
AcDbMText
 10
3306.31230857742
 20
6586.319568569464
 30
0.0
 40
175.0
 41
0.0
 71
     2
 72
     1
  1
\A1;440
  7
Label Text (ISO)
 11
0.0000000000000001
 21
1.0
 31
0.0
 73
     1
 44
1.0
1001
ACAD
1000
MTEXTBEGIN
1070
    73
1070
     1
1070
    44
1040
1.0
1070
    74
1070
     0
1000
MTEXTEND
  0
POINT
  5
8C1
330
7DC
100
AcDbEntity
  8
Defpoints
 62
     0
100
AcDbPoint
 10
3677.610478037401
 20
6806.319568569463
 30
0.0
  0
POINT
  5
8C2
330
7DC
100
AcDbEntity
  8
Defpoints
 62
     0
100
AcDbPoint
 10
4006.752378678991
 20
6366.319568569464
 30
0.0
  0
POINT
  5
8C3
330
7DC
100
AcDbEntity
  8
Defpoints
 62
     0
100
AcDbPoint
 10
3526.581548501826
 20
6366.319568569464
 30
0.0
  0
ENDBLK
  5
7DE
330
7DC
100
AcDbEntity
  8
0
100
AcDbBlockEnd
  0
BLOCK
  5
8C6
330
8C5
100
AcDbEntity
  8
0
100
AcDbBlockBegin
  2
*D12
 70
     1
 10
0.0
 20
0.0
 30
0.0
  3
*D12
  1

  0
LINE
  5
9C7
330
8C5
100
AcDbEntity
  8
Dimension (ISO)
100
AcDbLine
 10
4231.75237867899
 20
6606.319568569464
 30
0.0
 11
3851.690137396252
 21
6606.319568569464
 31
0.0
  0
LINE
  5
9C8
330
8C5
100
AcDbEntity
  8
Dimension (ISO)
100
AcDbLine
 10
3901.690137396252
 20
6481.319568569464
 30
0.0
 11
3901.690137396252
 21
6356.319568569464
 31
0.0
  0
LINE
  5
9C9
330
8C5
100
AcDbEntity
  8
Dimension (ISO)
100
AcDbLine
 10
3901.690137396252
 20
6931.319568569463
 30
0.0
 11
3901.690137396253
 21
7504.144818015252
 31
0.0
  0
LINE
  5
9CA
330
8C5
100
AcDbEntity
  8
Dimension (ISO)
100
AcDbLine
 10
3901.690137396252
 20
6606.319568569464
 30
0.0
 11
3901.690137396252
 21
6806.319568569463
 31
0.0
  0
SOLID
  5
9CB
330
8C5
100
AcDbEntity
  8
Dimension (ISO)
100
AcDbTrace
 10
3880.856804062918
 20
6481.319568569464
 30
0.0
 11
3922.523470729585
 21
6481.319568569464
 31
0.0
 12
3901.690137396252
 22
6606.319568569464
 32
0.0
 13
3901.690137396252
 23
6606.319568569464
 33
0.0
  0
SOLID
  5
9CC
330
8C5
100
AcDbEntity
  8
Dimension (ISO)
100
AcDbTrace
 10
3880.856804062918
 20
6931.319568569463
 30
0.0
 11
3922.523470729585
 21
6931.319568569463
 31
0.0
 12
3901.690137396252
 22
6806.319568569463
 32
0.0
 13
3901.690137396252
 23
6806.319568569463
 33
0.0
  0
MTEXT
  5
9CD
330
8C5
100
AcDbEntity
  8
Dimension (ISO)
100
AcDbMText
 10
3681.303368929959
 20
7280.232193292359
 30
0.0
 40
175.0
 41
0.0
 71
     2
 72
     1
  1
\A1;200
  7
Label Text (ISO)
 11
0.0000000000000001
 21
1.0
 31
0.0
 73
     1
 44
1.0
1001
ACAD
1000
MTEXTBEGIN
1070
    73
1070
     1
1070
    44
1040
1.0
1070
    74
1070
     0
1000
MTEXTEND
  0
POINT
  5
9CE
330
8C5
100
AcDbEntity
  8
Defpoints
 62
     0
100
AcDbPoint
 10
3968.345752932408
 20
6806.319568569463
 30
0.0
  0
POINT
  5
9CF
330
8C5
100
AcDbEntity
  8
Defpoints
 62
     0
100
AcDbPoint
 10
4256.75237867899
 20
6606.319568569464
 30
0.0
  0
POINT
  5
9D0
330
8C5
100
AcDbEntity
  8
Defpoints
 62
     0
100
AcDbPoint
 10
3901.690137396252
 20
6606.319568569464
 30
0.0
  0
ENDBLK
  5
8C7
330
8C5
100
AcDbEntity
  8
0
100
AcDbBlockEnd
  0
BLOCK
  5
9D3
330
9D2
100
AcDbEntity
  8
0
100
AcDbBlockBegin
  2
*D13
 70
     1
 10
0.0
 20
0.0
 30
0.0
  3
*D13
  1

  0
LINE
  5
AB0
330
9D2
100
AcDbEntity
  8
Dimension (ISO)
100
AcDbLine
 10
4531.752378678996
 20
8614.319568569463
 30
0.0
 11
6508.255474491591
 21
8614.319568569463
 31
0.0
  0
LINE
  5
AB1
330
9D2
100
AcDbEntity
  8
Dimension (ISO)
100
AcDbLine
 10
6173.752378678993
 20
6806.319568569463
 30
0.0
 11
6508.255474491591
 21
6806.319568569463
 31
0.0
  0
LINE
  5
AB2
330
9D2
100
AcDbEntity
  8
Dimension (ISO)
100
AcDbLine
 10
6458.255474491591
 20
8489.319568569463
 30
0.0
 11
6458.255474491591
 21
6931.319568569463
 31
0.0
  0
SOLID
  5
AB3
330
9D2
100
AcDbEntity
  8
Dimension (ISO)
100
AcDbTrace
 10
6437.422141158258
 20
8489.319568569463
 30
0.0
 11
6479.088807824926
 21
8489.319568569463
 31
0.0
 12
6458.255474491591
 22
8614.319568569463
 32
0.0
 13
6458.255474491591
 23
8614.319568569463
 33
0.0
  0
SOLID
  5
AB4
330
9D2
100
AcDbEntity
  8
Dimension (ISO)
100
AcDbTrace
 10
6437.422141158258
 20
6931.319568569463
 30
0.0
 11
6479.088807824926
 21
6931.319568569463
 31
0.0
 12
6458.255474491591
 22
6806.319568569463
 32
0.0
 13
6458.255474491591
 23
6806.319568569463
 33
0.0
  0
MTEXT
  5
AB5
330
9D2
100
AcDbEntity
  8
Dimension (ISO)
100
AcDbMText
 10
6237.163534773977
 20
7710.319568569464
 30
0.0
 40
175.0
 41
0.0
 71
     2
 72
     1
  1
\A1;1808
  7
Label Text (ISO)
 11
0.0000000000000001
 21
1.0
 31
0.0
 73
     1
 44
1.0
1001
ACAD
1000
MTEXTBEGIN
1070
    73
1070
     1
1070
    44
1040
1.0
1070
    74
1070
     0
1000
MTEXTEND
  0
POINT
  5
AB6
330
9D2
100
AcDbEntity
  8
Defpoints
 62
     0
100
AcDbPoint
 10
4506.752378678996
 20
8614.319568569463
 30
0.0
  0
POINT
  5
AB7
330
9D2
100
AcDbEntity
  8
Defpoints
 62
     0
100
AcDbPoint
 10
6148.752378678993
 20
6806.319568569463
 30
0.0
  0
POINT
  5
AB8
330
9D2
100
AcDbEntity
  8
Defpoints
 62
     0
100
AcDbPoint
 10
6458.255474491591
 20
6806.319568569463
 30
0.0
  0
ENDBLK
  5
9D4
330
9D2
100
AcDbEntity
  8
0
100
AcDbBlockEnd
  0
BLOCK
  5
ABB
330
ABA
100
AcDbEntity
  8
0
100
AcDbBlockBegin
  2
*D14
 70
     1
 10
0.0
 20
0.0
 30
0.0
  3
*D14
  1

  0
LINE
  5
BBE
330
ABA
100
AcDbEntity
  8
Dimension (ISO)
100
AcDbLine
 10
5717.002378678991
 20
6928.123913210452
 30
0.0
 11
6013.397774494579
 21
6928.123913210452
 31
0.0
  0
LINE
  5
BBF
330
ABA
100
AcDbEntity
  8
Dimension (ISO)
100
AcDbLine
 10
5963.397774494579
 20
6681.319568569463
 30
0.0
 11
5963.397774494579
 21
6556.319568569463
 31
0.0
  0
LINE
  5
BC0
330
ABA
100
AcDbEntity
  8
Dimension (ISO)
100
AcDbLine
 10
5963.397774494579
 20
7053.123913210452
 30
0.0
 11
5963.397774494579
 21
7639.697718848045
 31
0.0
  0
LINE
  5
BC1
330
ABA
100
AcDbEntity
  8
Dimension (ISO)
100
AcDbLine
 10
5963.397774494579
 20
6806.319568569463
 30
0.0
 11
5963.397774494579
 21
6928.123913210452
 31
0.0
  0
SOLID
  5
BC2
330
ABA
100
AcDbEntity
  8
Dimension (ISO)
100
AcDbTrace
 10
5942.564441161246
 20
6681.319568569463
 30
0.0
 11
5984.231107827912
 21
6681.319568569463
 31
0.0
 12
5963.397774494579
 22
6806.319568569463
 32
0.0
 13
5963.397774494579
 23
6806.319568569463
 33
0.0
  0
SOLID
  5
BC3
330
ABA
100
AcDbEntity
  8
Dimension (ISO)
100
AcDbTrace
 10
5942.564441161246
 20
7053.123913210452
 30
0.0
 11
5984.231107827912
 21
7053.123913210452
 31
0.0
 12
5963.397774494579
 22
6928.123913210452
 32
0.0
 13
5963.397774494579
 23
6928.123913210452
 33
0.0
  0
MTEXT
  5
BC4
330
ABA
100
AcDbEntity
  8
Dimension (ISO)
100
AcDbMText
 10
5746.654390826773
 20
7423.071863722128
 30
0.0
 40
175.0
 41
0.0
 71
     2
 72
     1
  1
\A1;122
  7
Label Text (ISO)
 11
0.0000000000000001
 21
1.0
 31
0.0
 73
     1
 44
1.0
1001
ACAD
1000
MTEXTBEGIN
1070
    73
1070
     1
1070
    44
1040
1.0
1070
    74
1070
     0
1000
MTEXTEND
  0
POINT
  5
BC5
330
ABA
100
AcDbEntity
  8
Defpoints
 62
     0
100
AcDbPoint
 10
5692.00237867899
 20
6928.123913210452
 30
0.0
  0
POINT
  5
BC6
330
ABA
100
AcDbEntity
  8
Defpoints
 62
     0
100
AcDbPoint
 10
6036.77773411559
 20
6806.319568569463
 30
0.0
  0
POINT
  5
BC7
330
ABA
100
AcDbEntity
  8
Defpoints
 62
     0
100
AcDbPoint
 10
5963.397774494579
 20
6806.319568569463
 30
0.0
  0
ENDBLK
  5
ABC
330
ABA
100
AcDbEntity
  8
0
100
AcDbBlockEnd
  0
BLOCK
  5
C9E
330
C9C
100
AcDbEntity
  8
0
100
AcDbBlockBegin
  2
GENAXEH
 70
     0
 10
0.0
 20
0.0
 30
0.0
  3
GENAXEH
  1

  0
LINE
  5
C9D
330
C9C
100
AcDbEntity
  8
0
100
AcDbLine
 10
-1.0
 20
0.0
 30
0.0
 11
1.0
 21
0.0
 31
0.0
  0
ENDBLK
  5
C9F
330
C9C
100
AcDbEntity
  8
0
100
AcDbBlockEnd
  0
BLOCK
  5
CB6
330
CB5
100
AcDbEntity
  8
0
100
AcDbBlockBegin
  2
26089_Narty-biegowe
 70
     0
 10
0.0
 20
0.0
 30
0.0
  3
26089_Narty-biegowe
  1

  0
ARC
  5
CB8
330
CB5
100
AcDbEntity
  8
Visible (ISO)
100
AcDbCircle
 10
38.00000000000091
 20
-195.4999999999991
 30
0.0
 40
37.99999999999989
100
AcDbArc
 50
180.0
 51
0.0
  0
ARC
  5
CB9
330
CB5
100
AcDbEntity
  8
Visible (ISO)
100
AcDbCircle
 10
38.00000000000091
 20
195.4999999999991
 30
0.0
 40
37.99999999999989
100
AcDbArc
 50
0.0
 51
180.0
  0
LINE
  5
CBA
330
CB5
100
AcDbEntity
  8
Visible (ISO)
100
AcDbLine
 10
76.00000000000091
 20
-195.4999999999991
 30
0.0
 11
76.00000000000091
 21
195.4999999999991
 31
0.0
  0
LINE
  5
CBB
330
CB5
100
AcDbEntity
  8
Visible (ISO)
100
AcDbLine
 10
0.0
 20
195.4999999999991
 30
0.0
 11
0.0
 21
-195.4999999999991
 31
0.0
  0
LINE
  5
CBC
330
CB5
100
AcDbEntity
  8
Visible (ISO)
100
AcDbLine
 10
0.0
 20
-195.0000000004638
 30
0.0
 11
-5.199999999998908
 21
-195.0000000004661
 31
0.0
  0
LINE
  5
CBD
330
CB5
100
AcDbEntity
  8
Visible (ISO)
100
AcDbLine
 10
-5.199999999998908
 20
-200.0000000004657
 30
0.0
 11
0.0
 21
-200.0000000004638
 31
0.0
  0
LINE
  5
CBE
330
CB5
100
AcDbEntity
  8
Visible (ISO)
100
AcDbLine
 10
0.0
 20
-195.5000000004647
 30
0.0
 11
0.0
 21
-200.0000000004638
 31
0.0
  0
LINE
  5
CBF
330
CB5
100
AcDbEntity
  8
Visible (ISO)
100
AcDbLine
 10
76.00000000000091
 20
-200.0000000004638
 30
0.0
 11
81.20000000000073
 21
-200.0000000004657
 31
0.0
  0
LINE
  5
CC0
330
CB5
100
AcDbEntity
  8
Visible (ISO)
100
AcDbLine
 10
81.1875
 20
-195.0000000004661
 30
0.0
 11
76.00000000000091
 21
-195.0000000004634
 31
0.0
  0
LINE
  5
CC1
330
CB5
100
AcDbEntity
  8
Visible (ISO)
100
AcDbLine
 10
76.00000000000091
 20
-200.0000000004638
 30
0.0
 11
76.00000000000091
 21
-195.5000000004647
 31
0.0
  0
LINE
  5
CC2
330
CB5
100
AcDbEntity
  8
Visible (ISO)
100
AcDbLine
 10
0.0
 20
199.9999999995343
 30
0.0
 11
-5.199999999998908
 21
199.9999999995316
 31
0.0
  0
LINE
  5
CC3
330
CB5
100
AcDbEntity
  8
Visible (ISO)
100
AcDbLine
 10
-5.199999999998908
 20
194.9999999995316
 30
0.0
 11
0.0
 21
194.9999999995343
 31
0.0
  0
LINE
  5
CC4
330
CB5
100
AcDbEntity
  8
Visible (ISO)
100
AcDbLine
 10
0.0
 20
199.9999999995343
 30
0.0
 11
0.0
 21
195.4999999995352
 31
0.0
  0
LINE
  5
CC5
330
CB5
100
AcDbEntity
  8
Visible (ISO)
100
AcDbLine
 10
76.00000000000091
 20
194.9999999995343
 30
0.0
 11
81.1875
 21
194.9999999995325
 31
0.0
  0
LINE
  5
CC6
330
CB5
100
AcDbEntity
  8
Visible (ISO)
100
AcDbLine
 10
81.20000000000073
 20
199.9999999995325
 30
0.0
 11
76.00000000000091
 21
199.9999999995343
 31
0.0
  0
LINE
  5
CC7
330
CB5
100
AcDbEntity
  8
Visible (ISO)
100
AcDbLine
 10
76.00000000000091
 20
195.4999999995352
 30
0.0
 11
76.00000000000091
 21
199.9999999995343
 31
0.0
  0
ELLIPSE
  5
CC8
330
CB5
100
AcDbEntity
  8
Visible (ISO)
100
AcDbEllipse
 10
723.0
 20
264.5761588442474
 30
0.0
 11
-7.091129037083844
 21
-17.6271350190398
 31
0.0
210
0.0
220
0.0
230
1.0
 40
0.9744762529492486
 41
0.0
 42
3.141592653589292
  0
ARC
  5
CC9
330
CB5
100
AcDbEntity
  8
Visible (ISO)
100
AcDbCircle
 10
723.0
 20
264.5761588442474
 30
0.0
 40
19.00000000000298
100
AcDbArc
 50
68.08582503073191
 51
248.0858250307319
  0
ELLIPSE
  5
CCA
330
CB5
100
AcDbEntity
  8
Visible (ISO)
100
AcDbEllipse
 10
723.0
 20
-267.0139824917374
 30
0.0
 11
7.168011801838938
 21
-17.59601110504187
 31
0.0
210
0.0
220
0.0
230
1.0
 40
0.9743835472189292
 41
0.0
 42
3.141592653589402
  0
ARC
  5
CCB
330
CB5
100
AcDbEntity
  8
Visible (ISO)
100
AcDbCircle
 10
723.0
 20
-267.0139824917374
 30
0.0
 40
19.00000000000155
100
AcDbArc
 50
112.1642974839611
 51
292.1642974839611
  0
ELLIPSE
  5
CCC
330
CB5
100
AcDbEntity
  8
Visible (ISO)
100
AcDbEllipse
 10
673.0
 20
201.6089523192177
 30
0.0
 11
4.529346353034788
 21
-18.45223622259056
 31
0.0
210
0.0
220
0.0
230
1.0
 40
0.9362022535310149
 41
3.141592653590182
 42
6.283185307179976
  0
ARC
  5
CCD
330
CB5
100
AcDbEntity
  8
Visible (ISO)
100
AcDbCircle
 10
673.0
 20
201.6089523192177
 30
0.0
 40
19.00000000000422
100
AcDbArc
 50
103.7913386958388
 51
283.7913386958389
  0
ELLIPSE
  5
CCE
330
CB5
100
AcDbEntity
  8
Visible (ISO)
100
AcDbEllipse
 10
673.0
 20
-204.1200000002059
 30
0.0
 11
-4.465221984321418
 21
-18.46785836611313
 31
0.0
210
0.0
220
0.0
230
1.0
 40
0.9363120388329003
 41
3.141592653589991
 42
6.283185307179785
  0
ARC
  5
CCF
330
CB5
100
AcDbEntity
  8
Visible (ISO)
100
AcDbCircle
 10
673.0
 20
-204.1200000002064
 30
0.0
 40
19.00000000000215
100
AcDbArc
 50
76.40768852974254
 51
256.4076885297425
  0
LINE
  5
CD0
330
CB5
100
AcDbEntity
  8
Visible (ISO)
100
AcDbLine
 10
698.0
 20
253.2699999997967
 30
0.0
 11
707.7300696730872
 21
253.2699999998031
 31
0.0
  0
LINE
  5
CD1
330
CB5
100
AcDbEntity
  8
Visible (ISO)
100
AcDbLine
 10
708.1132739212225
 20
252.7699999998031
 30
0.0
 11
697.5
 21
252.7699999997967
 31
0.0
  0
LINE
  5
CD2
330
CB5
100
AcDbEntity
  8
Visible (ISO)
100
AcDbLine
 10
697.5
 20
163.7699999997967
 30
0.0
 11
748.5
 21
163.7699999997967
 31
0.0
  0
LINE
  5
CD3
330
CB5
100
AcDbEntity
  8
Visible (ISO)
100
AcDbLine
 10
748.0000000000009
 20
163.2699999997967
 30
0.0
 11
698.0
 21
163.2699999997967
 31
0.0
  0
LINE
  5
CD4
330
CB5
100
AcDbEntity
  8
Visible (ISO)
100
AcDbLine
 10
698.0000000000009
 20
253.2699999997967
 30
0.0
 11
697.5
 21
252.7699999997967
 31
0.0
  0
LINE
  5
CD5
330
CB5
100
AcDbEntity
  8
Visible (ISO)
100
AcDbLine
 10
698.0
 20
163.2699999997967
 30
0.0
 11
697.5
 21
163.7699999997967
 31
0.0
  0
LINE
  5
CD6
330
CB5
100
AcDbEntity
  8
Visible (ISO)
100
AcDbLine
 10
748.0000000000009
 20
163.2699999997967
 30
0.0
 11
748.5
 21
163.7699999997967
 31
0.0
  0
LINE
  5
CD7
330
CB5
100
AcDbEntity
  8
Visible (ISO)
100
AcDbLine
 10
697.5
 20
163.7699999997967
 30
0.0
 11
697.5
 21
188.4260050829544
 31
0.0
  0
LINE
  5
CD8
330
CB5
100
AcDbEntity
  8
Visible (ISO)
100
AcDbLine
 10
697.5
 20
228.094804272243
 30
0.0
 11
697.5
 21
252.7699999997967
 31
0.0
  0
LINE
  5
CD9
330
CB5
100
AcDbEntity
  8
Visible (ISO)
100
AcDbLine
 10
748.5
 20
163.7699999997967
 30
0.0
 11
748.5
 21
208.5953608700738
 31
0.0
  0
LINE
  5
CDA
330
CB5
100
AcDbEntity
  8
Visible (ISO)
100
AcDbLine
 10
418.0000000000009
 20
253.2699999997976
 30
0.0
 11
468.0000000000009
 21
253.2699999997976
 31
0.0
  0
LINE
  5
CDB
330
CB5
100
AcDbEntity
  8
Visible (ISO)
100
AcDbLine
 10
468.5000000000009
 20
252.7699999997976
 30
0.0
 11
417.5000000000009
 21
252.7699999997976
 31
0.0
  0
LINE
  5
CDC
330
CB5
100
AcDbEntity
  8
Visible (ISO)
100
AcDbLine
 10
417.5000000000009
 20
163.7699999997976
 30
0.0
 11
468.5000000000009
 21
163.7699999997976
 31
0.0
  0
LINE
  5
CDD
330
CB5
100
AcDbEntity
  8
Visible (ISO)
100
AcDbLine
 10
468.0000000000009
 20
163.2699999997976
 30
0.0
 11
418.0000000000009
 21
163.2699999997976
 31
0.0
  0
LINE
  5
CDE
330
CB5
100
AcDbEntity
  8
Visible (ISO)
100
AcDbLine
 10
468.0
 20
253.2699999997976
 30
0.0
 11
468.5000000000009
 21
252.7699999997976
 31
0.0
  0
LINE
  5
CDF
330
CB5
100
AcDbEntity
  8
Visible (ISO)
100
AcDbLine
 10
418.0000000000009
 20
253.2699999997976
 30
0.0
 11
417.5000000000009
 21
252.7699999997976
 31
0.0
  0
LINE
  5
CE0
330
CB5
100
AcDbEntity
  8
Visible (ISO)
100
AcDbLine
 10
418.0000000000009
 20
163.2699999997976
 30
0.0
 11
417.5000000000009
 21
163.7699999997976
 31
0.0
  0
LINE
  5
CE1
330
CB5
100
AcDbEntity
  8
Visible (ISO)
100
AcDbLine
 10
468.0
 20
163.2699999997976
 30
0.0
 11
468.5000000000009
 21
163.7699999997976
 31
0.0
  0
LINE
  5
CE2
330
CB5
100
AcDbEntity
  8
Visible (ISO)
100
AcDbLine
 10
417.5000000000009
 20
163.7699999997976
 30
0.0
 11
417.5000000000009
 21
252.7699999997976
 31
0.0
  0
LINE
  5
CE3
330
CB5
100
AcDbEntity
  8
Visible (ISO)
100
AcDbLine
 10
468.5000000000009
 20
163.7699999997976
 30
0.0
 11
468.5000000000009
 21
252.7699999997976
 31
0.0
  0
LINE
  5
CE4
330
CB5
100
AcDbEntity
  8
Visible (ISO)
100
AcDbLine
 10
468.0000000000009
 20
-253.2700000002033
 30
0.0
 11
418.0000000000009
 21
-253.2700000002033
 31
0.0
  0
LINE
  5
CE5
330
CB5
100
AcDbEntity
  8
Visible (ISO)
100
AcDbLine
 10
417.5000000000009
 20
-252.7700000002037
 30
0.0
 11
468.5000000000009
 21
-252.7700000002037
 31
0.0
  0
LINE
  5
CE6
330
CB5
100
AcDbEntity
  8
Visible (ISO)
100
AcDbLine
 10
468.5000000000009
 20
-163.7700000002037
 30
0.0
 11
417.5000000000009
 21
-163.7700000002037
 31
0.0
  0
LINE
  5
CE7
330
CB5
100
AcDbEntity
  8
Visible (ISO)
100
AcDbLine
 10
418.0000000000009
 20
-163.2700000002032
 30
0.0
 11
468.0000000000009
 21
-163.2700000002032
 31
0.0
  0
LINE
  5
CE8
330
CB5
100
AcDbEntity
  8
Visible (ISO)
100
AcDbLine
 10
418.0000000000009
 20
-253.2700000002033
 30
0.0
 11
417.5000000000009
 21
-252.7700000002037
 31
0.0
  0
LINE
  5
CE9
330
CB5
100
AcDbEntity
  8
Visible (ISO)
100
AcDbLine
 10
468.0000000000009
 20
-253.2700000002033
 30
0.0
 11
468.5000000000009
 21
-252.7700000002037
 31
0.0
  0
LINE
  5
CEA
330
CB5
100
AcDbEntity
  8
Visible (ISO)
100
AcDbLine
 10
468.0000000000009
 20
-163.2700000002032
 30
0.0
 11
468.5000000000009
 21
-163.7700000002037
 31
0.0
  0
LINE
  5
CEB
330
CB5
100
AcDbEntity
  8
Visible (ISO)
100
AcDbLine
 10
418.0000000000009
 20
-163.2700000002032
 30
0.0
 11
417.5000000000009
 21
-163.7700000002037
 31
0.0
  0
LINE
  5
CEC
330
CB5
100
AcDbEntity
  8
Visible (ISO)
100
AcDbLine
 10
468.5000000000009
 20
-163.7700000002037
 30
0.0
 11
468.5000000000009
 21
-252.7700000002037
 31
0.0
  0
LINE
  5
CED
330
CB5
100
AcDbEntity
  8
Visible (ISO)
100
AcDbLine
 10
417.5000000000009
 20
-163.7700000002032
 30
0.0
 11
417.5000000000009
 21
-252.7700000002037
 31
0.0
  0
ELLIPSE
  5
CEE
330
CB5
100
AcDbEntity
  8
Visible (ISO)
100
AcDbEllipse
 10
723.0
 20
264.5761588442474
 30
0.0
 11
7.091129037065142
 21
17.6271350190464
 31
0.0
210
0.0
220
0.0
230
1.0
 40
0.9744762529491366
 41
3.14159265358956
 42
6.283185307179353
  0
ELLIPSE
  5
CEF
330
CB5
100
AcDbEntity
  8
Visible (ISO)
100
AcDbEllipse
 10
673.0
 20
201.6089523192177
 30
0.0
 11
4.529346353034863
 21
-18.45223622258967
 31
0.0
210
0.0
220
0.0
230
1.0
 40
0.9362022535308456
 41
3.141592653590017
 42
6.28318530717981
  0
SPLINE
  5
CF0
330
CB5
100
AcDbEntity
  8
Visible (ISO)
100
AcDbSpline
210
0.0
220
0.0
230
1.0
 70
     8
 71
     3
 72
    16
 73
    12
 74
     0
 42
0.0000000001
 43
0.0000000001
 40
2.862519227983014
 40
2.862519227983014
 40
2.862519227983014
 40
2.862519227983014
 40
2.974148598225725
 40
2.974148598225725
 40
3.085777968468437
 40
3.085777968468437
 40
3.197407338711148
 40
3.197407338711148
 40
3.309036708953859
 40
3.309036708953859
 40
3.420666079196571
 40
3.420666079196571
 40
3.420666079196571
 40
3.420666079196571
 10
677.5293463530352
 20
183.1567160966278
 30
0.0
 10
694.6679276662408
 20
187.3636084120635
 30
0.0
 10
709.3604615099329
 20
191.6720463057827
 30
0.0
 10
734.096049005735
 20
200.7368764876082
 30
0.0
 10
744.1162455816948
 20
205.3671029362886
 30
0.0
 10
760.6490720576448
 20
216.8996258727621
 30
0.0
 10
768.5481999762032
 20
224.4853077616981
 30
0.0
 10
772.2823972623919
 20
248.6477596449195
 30
0.0
 10
765.4700974056659
 20
259.849666818568
 30
0.0
 10
750.4642610986302
 20
273.0055924360067
 30
0.0
 10
741.3853309135829
 20
277.6598077669433
 30
0.0
 10
730.0911290370822
 20
282.2032938632865
 30
0.0
  0
SPLINE
  5
CF1
330
CB5
100
AcDbEntity
  8
Visible (ISO)
100
AcDbSpline
210
0.0
220
0.0
230
1.0
 70
     8
 71
     3
 72
    10
 73
     6
 74
     0
 42
0.0000000001
 43
0.0000000001
 40
2.862519227983014
 40
2.862519227983014
 40
2.862519227983014
 40
2.862519227983014
 40
2.974148598225725
 40
2.974148598225725
 40
3.06819275708456
 40
3.06819275708456
 40
3.06819275708456
 40
3.06819275708456
 10
668.4706536469657
 20
220.0611885418075
 30
0.0
 10
684.6426820914739
 20
224.0308276236483
 30
0.0
 10
698.1355912479266
 20
228.0298092225248
 30
0.0
 10
717.5131927442053
 20
235.1311027303
 30
0.0
 10
724.2705392926545
 20
238.3211114140877
 30
0.0
 10
728.5242189573227
 20
240.921619862319
 30
0.0
  0
SPLINE
  5
CF2
330
CB5
100
AcDbEntity
  8
Visible (ISO)
100
AcDbSpline
210
0.0
220
0.0
230
1.0
 70
     8
 71
     3
 72
    10
 73
     6
 74
     0
 42
0.0000000001
 43
0.0000000001
 40
3.275740427979105
 40
3.275740427979105
 40
3.275740427979105
 40
3.275740427979105
 40
3.309036708953859
 40
3.309036708953859
 40
3.420666079196571
 40
3.420666079196571
 40
3.420666079196571
 40
3.420666079196571
 10
733.8023393237526
 20
236.9722134928224
 30
0.0
 10
733.8023393237526
 20
236.9722134928261
 30
0.0
 10
733.5315155785838
 20
237.3146079119651
 30
0.0
 10
730.8531634500814
 20
239.6627743626132
 30
0.0
 10
724.9398982809525
 20
243.3159785242742
 30
0.0
 10
715.9088709629177
 20
246.9490238252074
 30
0.0
  0
ELLIPSE
  5
CF3
330
CB5
100
AcDbEntity
  8
Visible (ISO)
100
AcDbEllipse
 10
722.999999999999
 20
-267.0139824917369
 30
0.0
 11
-7.168011801853674
 21
17.59601110503421
 31
0.0
210
0.0
220
0.0
230
1.0
 40
0.9743835472189488
 41
3.141592653589576
 42
6.283185307179368
  0
ELLIPSE
  5
CF4
330
CB5
100
AcDbEntity
  8
Visible (ISO)
100
AcDbEllipse
 10
673.0
 20
-204.1200000002077
 30
0.0
 11
-4.46522198432115
 21
-18.46785836611098
 31
0.0
210
0.0
220
0.0
230
1.0
 40
0.9363120388330109
 41
3.141592668491153
 42
6.283185307179794
  0
SPLINE
  5
CF5
330
CB5
100
AcDbEntity
  8
Visible (ISO)
100
AcDbSpline
210
0.0
220
0.0
230
1.0
 70
     8
 71
     3
 72
    10
 73
     6
 74
     0
 42
0.0000000001
 43
0.0000000001
 40
2.862519227983014
 40
2.862519227983014
 40
2.862519227983014
 40
2.862519227983014
 40
2.974148598225726
 40
2.974148598225726
 40
3.068375528580996
 40
3.068375528580996
 40
3.068375528580996
 40
3.068375528580996
 10
668.5347780156789
 20
-222.5878583663184
 30
0.0
 10
684.7047500069147
 20
-226.4974895205928
 30
0.0
 10
698.1949016192084
 20
-230.4476400440299
 30
0.0
 10
717.5806097426312
 20
-237.4856655719918
 30
0.0
 10
724.3413016733921
 20
-240.6584983723419
 30
0.0
 10
728.5838141043159
 20
-243.2432929808156
 30
0.0
  0
SPLINE
  5
CF6
330
CB5
100
AcDbEntity
  8
Visible (ISO)
100
AcDbSpline
210
0.0
220
0.0
230
1.0
 70
     8
 71
     3
 72
    10
 73
     6
 74
     0
 42
0.0000000001
 43
0.0000000001
 40
3.275245644761657
 40
3.275245644761657
 40
3.275245644761657
 40
3.275245644761657
 40
3.30903670895386
 40
3.30903670895386
 40
3.420666079196571
 40
3.420666079196571
 40
3.420666079196571
 40
3.420666079196571
 10
733.7742300708351
 20
-239.3036029653377
 30
0.0
 10
733.7742300708351
 20
-239.3036029653335
 30
0.0
 10
733.4978801781899
 20
-239.6570394456835
 30
0.0
 10
730.785716018101
 20
-242.0513937586784
 30
0.0
 10
724.8667982770857
 20
-245.737499438465
 30
0.0
 10
715.8319881981606
 20
-249.4179713866965
 30
0.0
  0
SPLINE
  5
CF7
330
CB5
100
AcDbEntity
  8
Visible (ISO)
100
AcDbSpline
210
0.0
220
0.0
230
1.0
 70
     8
 71
     3
 72
    16
 73
    12
 74
     0
 42
0.0000000001
 43
0.0000000001
 40
2.862519227983014
 40
2.862519227983014
 40
2.862519227983014
 40
2.862519227983014
 40
2.974148598225726
 40
2.974148598225726
 40
3.085777968468437
 40
3.085777968468437
 40
3.197407338711149
 40
3.197407338711149
 40
3.30903670895386
 40
3.30903670895386
 40
3.420666079196571
 40
3.420666079196571
 40
3.420666079196571
 40
3.420666079196571
 10
677.4652219843219
 20
-185.652141634097
 30
0.0
 10
694.606308107398
 20
-189.7965720858756
 30
0.0
 10
709.3019604288993
 20
-194.0532448630665
 30
0.0
 10
734.0479741138433
 20
-203.0373415450754
 30
0.0
 10
744.0756486977607
 20
-207.6378157176346
 30
0.0
 10
760.6346760413844
 20
-219.1439819825455
 30
0.0
 10
768.5525994600984
 20
-226.7516359035767
 30
0.0
 10
772.2810205051983
 20
-250.9153160098599
 30
0.0
 10
765.5010247595291
 20
-262.0933866010391
 30
0.0
 10
750.5325178208559
 20
-275.3078924467077
 30
0.0
 10
741.4588792740478
 20
-280.0104811953347
 30
0.0
 10
730.1680118018375
 20
-284.6099935967773
 30
0.0
  0
LINE
  5
CF8
330
CB5
100
AcDbEntity
  8
Visible (ISO)
100
AcDbLine
 10
738.6616938867628
 20
203.2699999998049
 30
0.0
 11
746.5545254461594
 21
203.2699999997994
 31
0.0
  0
LINE
  5
CF9
330
CB5
100
AcDbEntity
  8
Visible (ISO)
100
AcDbLine
 10
746.5545254461585
 20
207.4336061993281
 30
0.0
 11
746.5545254461585
 21
203.2699999997994
 31
0.0
  0
LINE
  5
CFA
330
CB5
100
AcDbEntity
  8
Visible (ISO)
100
AcDbLine
 10
1223.250000000001
 20
228.2699999995612
 30
0.0
 11
1223.250000000001
 21
179.9699999995619
 31
0.0
  0
LINE
  5
CFB
330
CB5
100
AcDbEntity
  8
Visible (ISO)
100
AcDbLine
 10
1223.250000000001
 20
179.969999999561
 30
0.0
 11
1216.864824078298
 21
179.969999999561
 31
0.0
  0
LINE
  5
CFC
330
CB5
100
AcDbEntity
  8
Visible (ISO)
100
AcDbLine
 10
849.6351759217095
 20
179.9699999995619
 30
0.0
 11
748.5
 21
179.9699999995619
 31
0.0
  0
LINE
  5
CFD
330
CB5
100
AcDbEntity
  8
Visible (ISO)
100
AcDbLine
 10
697.5
 20
179.9699999995619
 30
0.0
 11
468.5000000000009
 21
179.9699999995619
 31
0.0
  0
LINE
  5
CFE
330
CB5
100
AcDbEntity
  8
Visible (ISO)
100
AcDbLine
 10
1223.250000000001
 20
228.2699999995612
 30
0.0
 11
1216.864824078298
 21
228.2699999995612
 31
0.0
  0
LINE
  5
CFF
330
CB5
100
AcDbEntity
  8
Visible (ISO)
100
AcDbLine
 10
849.6351759217095
 20
228.2699999995612
 30
0.0
 11
767.8640362084116
 21
228.2699999995612
 31
0.0
  0
LINE
  5
D00
330
CB5
100
AcDbEntity
  8
Visible (ISO)
100
AcDbLine
 10
697.5
 20
228.2699999995612
 30
0.0
 11
468.5000000000009
 21
228.2699999995621
 31
0.0
  0
LINE
  5
D01
330
CB5
100
AcDbEntity
  8
Visible (ISO)
100
AcDbLine
 10
1223.25
 20
-179.970000000439
 30
0.0
 11
1223.25
 21
-228.2700000004393
 31
0.0
  0
LINE
  5
D02
330
CB5
100
AcDbEntity
  8
Visible (ISO)
100
AcDbLine
 10
1223.25
 20
-228.2700000004393
 30
0.0
 11
1216.864824078297
 21
-228.2700000004393
 31
0.0
  0
LINE
  5
D03
330
CB5
100
AcDbEntity
  8
Visible (ISO)
100
AcDbLine
 10
849.6351759217086
 20
-228.2700000004393
 30
0.0
 11
766.6967403233138
 21
-228.2700000004393
 31
0.0
  0
LINE
  5
D04
330
CB5
100
AcDbEntity
  8
Visible (ISO)
100
AcDbLine
 10
690.0947093303876
 20
-228.2700000004393
 30
0.0
 11
468.5
 21
-228.2700000004388
 31
0.0
  0
LINE
  5
D05
330
CB5
100
AcDbEntity
  8
Visible (ISO)
100
AcDbLine
 10
1223.25
 20
-179.9700000004395
 30
0.0
 11
1216.864824078298
 21
-179.9700000004395
 31
0.0
  0
LINE
  5
D06
330
CB5
100
AcDbEntity
  8
Visible (ISO)
100
AcDbLine
 10
849.6351759217086
 20
-179.970000000439
 30
0.0
 11
748.5
 21
-179.970000000439
 31
0.0
  0
LINE
  5
D07
330
CB5
100
AcDbEntity
  8
Visible (ISO)
100
AcDbLine
 10
697.5
 20
-179.970000000439
 30
0.0
 11
468.5
 21
-179.970000000439
 31
0.0
  0
CIRCLE
  5
D08
330
CB5
100
AcDbEntity
  8
Visible (ISO)
100
AcDbCircle
 10
1133.250000000001
 20
159.1199999995688
 30
0.0
 40
4.500000000000003
  0
CIRCLE
  5
D09
330
CB5
100
AcDbEntity
  8
Visible (ISO)
100
AcDbCircle
 10
1133.250000000001
 20
249.1199999995697
 30
0.0
 40
4.500000000000003
  0
CIRCLE
  5
D0A
330
CB5
100
AcDbEntity
  8
Visible (ISO)
100
AcDbCircle
 10
933.2500000000019
 20
249.1199999995697
 30
0.0
 40
4.500000000000003
  0
CIRCLE
  5
D0B
330
CB5
100
AcDbEntity
  8
Visible (ISO)
100
AcDbCircle
 10
933.2500000000019
 20
159.1199999995688
 30
0.0
 40
4.500000000000003
  0
CIRCLE
  5
D0C
330
CB5
100
AcDbEntity
  8
Visible (ISO)
100
AcDbCircle
 10
1133.25
 20
-249.120000000431
 30
0.0
 40
4.500000000000003
  0
CIRCLE
  5
D0D
330
CB5
100
AcDbEntity
  8
Visible (ISO)
100
AcDbCircle
 10
1133.25
 20
-159.120000000431
 30
0.0
 40
4.500000000000003
  0
CIRCLE
  5
D0E
330
CB5
100
AcDbEntity
  8
Visible (ISO)
100
AcDbCircle
 10
933.2500000000008
 20
-159.120000000431
 30
0.0
 40
4.500000000000003
  0
CIRCLE
  5
D0F
330
CB5
100
AcDbEntity
  8
Visible (ISO)
100
AcDbCircle
 10
933.2500000000008
 20
-249.120000000431
 30
0.0
 40
4.500000000000003
  0
LINE
  5
D10
330
CB5
100
AcDbEntity
  8
Visible (ISO)
100
AcDbLine
 10
506.0000000000018
 20
206.6199999995697
 30
0.0
 11
468.5000000000009
 21
206.619999999577
 31
0.0
  0
LINE
  5
D11
330
CB5
100
AcDbEntity
  8
Visible (ISO)
100
AcDbLine
 10
468.5000000000009
 20
201.6199999995779
 30
0.0
 11
506.0000000000018
 21
201.6199999995697
 31
0.0
  0
LINE
  5
D12
330
CB5
100
AcDbEntity
  8
Visible (ISO)
100
AcDbLine
 10
506.0000000000018
 20
206.6199999995697
 30
0.0
 11
506.0000000000018
 21
201.6199999995697
 31
0.0
  0
LINE
  5
D13
330
CB5
100
AcDbEntity
  8
Visible (ISO)
100
AcDbLine
 10
786.0000000000018
 20
206.6199999995697
 30
0.0
 11
748.5
 21
206.619999999577
 31
0.0
  0
LINE
  5
D14
330
CB5
100
AcDbEntity
  8
Visible (ISO)
100
AcDbLine
 10
748.5
 20
201.6199999995779
 30
0.0
 11
786.0000000000018
 21
201.6199999995697
 31
0.0
  0
LINE
  5
D15
330
CB5
100
AcDbEntity
  8
Visible (ISO)
100
AcDbLine
 10
786.0000000000018
 20
206.6199999995697
 30
0.0
 11
786.0000000000018
 21
201.6199999995697
 31
0.0
  0
LINE
  5
D16
330
CB5
100
AcDbEntity
  8
Visible (ISO)
100
AcDbLine
 10
506.0000000000018
 20
-201.6200000004314
 30
0.0
 11
468.5000000000009
 21
-201.6200000004242
 31
0.0
  0
LINE
  5
D17
330
CB5
100
AcDbEntity
  8
Visible (ISO)
100
AcDbLine
 10
468.5000000000009
 20
-206.6200000004242
 30
0.0
 11
506.0000000000018
 21
-206.6200000004319
 31
0.0
  0
LINE
  5
D18
330
CB5
100
AcDbEntity
  8
Visible (ISO)
100
AcDbLine
 10
506.0000000000018
 20
-201.6200000004314
 30
0.0
 11
506.0000000000018
 21
-206.6200000004319
 31
0.0
  0
LINE
  5
D19
330
CB5
100
AcDbEntity
  8
Visible (ISO)
100
AcDbLine
 10
786.0000000000009
 20
-201.6200000004314
 30
0.0
 11
748.5
 21
-201.6200000004242
 31
0.0
  0
LINE
  5
D1A
330
CB5
100
AcDbEntity
  8
Visible (ISO)
100
AcDbLine
 10
748.5
 20
-206.6200000004242
 30
0.0
 11
786.0000000000009
 21
-206.6200000004315
 31
0.0
  0
LINE
  5
D1B
330
CB5
100
AcDbEntity
  8
Visible (ISO)
100
AcDbLine
 10
786.0000000000009
 20
-201.6200000004314
 30
0.0
 11
786.0000000000009
 21
-206.6200000004315
 31
0.0
  0
LINE
  5
D1C
330
CB5
100
AcDbEntity
  8
Visible (ISO)
100
AcDbLine
 10
928.2500000000009
 20
162.0067513455215
 30
0.0
 11
933.2500000000008
 21
164.8935026914696
 31
0.0
  0
LINE
  5
D1D
330
CB5
100
AcDbEntity
  8
Visible (ISO)
100
AcDbLine
 10
928.2500000000009
 20
156.2332486536252
 30
0.0
 11
928.2500000000009
 21
162.0067513455215
 31
0.0
  0
ARC
  5
D1E
330
CB5
100
AcDbEntity
  8
Visible (ISO)
100
AcDbCircle
 10
933.2500000000019
 20
159.1199999995715
 30
0.0
 40
5.000000000000144
100
AcDbArc
 50
239.9999999999897
 51
300.0000000000103
  0
ARC
  5
D1F
330
CB5
100
AcDbEntity
  8
Visible (ISO)
100
AcDbCircle
 10
933.2500000000019
 20
159.1199999995715
 30
0.0
 40
5.000000000000182
100
AcDbArc
 50
300.0000000000103
 51
0.0
  0
ARC
  5
D20
330
CB5
100
AcDbEntity
  8
Visible (ISO)
100
AcDbCircle
 10
933.2500000000019
 20
159.1199999995715
 30
0.0
 40
5.000000000000127
100
AcDbArc
 50
0.0
 51
59.99999999998969
  0
ARC
  5
D21
330
CB5
100
AcDbEntity
  8
Visible (ISO)
100
AcDbCircle
 10
933.2500000000019
 20
159.1199999995715
 30
0.0
 40
5.000000000000135
100
AcDbArc
 50
59.99999999998969
 51
120.0000000000103
  0
ARC
  5
D22
330
CB5
100
AcDbEntity
  8
Visible (ISO)
100
AcDbCircle
 10
933.2500000000019
 20
159.1199999995715
 30
0.0
 40
5.00000000000016
100
AcDbArc
 50
120.0000000000103
 51
180.0
  0
ARC
  5
D23
330
CB5
100
AcDbEntity
  8
Visible (ISO)
100
AcDbCircle
 10
933.2500000000019
 20
159.1199999995715
 30
0.0
 40
5.000000000000145
100
AcDbArc
 50
180.0
 51
239.9999999999897
  0
LINE
  5
D24
330
CB5
100
AcDbEntity
  8
Visible (ISO)
100
AcDbLine
 10
938.2500000000009
 20
156.2332486536252
 30
0.0
 11
933.2500000000008
 21
153.346497307677
 31
0.0
  0
LINE
  5
D25
330
CB5
100
AcDbEntity
  8
Visible (ISO)
100
AcDbLine
 10
938.2500000000009
 20
162.0067513455206
 30
0.0
 11
938.2500000000009
 21
156.2332486536252
 31
0.0
  0
LINE
  5
D26
330
CB5
100
AcDbEntity
  8
Visible (ISO)
100
AcDbLine
 10
933.2500000000008
 20
164.8935026914696
 30
0.0
 11
938.2500000000009
 21
162.0067513455206
 31
0.0
  0
LINE
  5
D27
330
CB5
100
AcDbEntity
  8
Visible (ISO)
100
AcDbLine
 10
933.2500000000008
 20
153.346497307677
 30
0.0
 11
928.2500000000009
 21
156.2332486536252
 31
0.0
  0
LINE
  5
D28
330
CB5
100
AcDbEntity
  8
Visible (ISO)
100
AcDbLine
 10
928.2500000000018
 20
252.0067513455215
 30
0.0
 11
933.2500000000019
 21
254.8935026914696
 31
0.0
  0
LINE
  5
D29
330
CB5
100
AcDbEntity
  8
Visible (ISO)
100
AcDbLine
 10
928.2500000000018
 20
246.2332486536261
 30
0.0
 11
928.2500000000018
 21
252.0067513455215
 31
0.0
  0
ARC
  5
D2A
330
CB5
100
AcDbEntity
  8
Visible (ISO)
100
AcDbCircle
 10
933.2500000000019
 20
249.1199999995724
 30
0.0
 40
5.0000000000001
100
AcDbArc
 50
239.9999999999897
 51
300.0000000000103
  0
ARC
  5
D2B
330
CB5
100
AcDbEntity
  8
Visible (ISO)
100
AcDbCircle
 10
933.2500000000019
 20
249.1199999995724
 30
0.0
 40
5.000000000000146
100
AcDbArc
 50
300.0000000000103
 51
0.0
  0
ARC
  5
D2C
330
CB5
100
AcDbEntity
  8
Visible (ISO)
100
AcDbCircle
 10
933.2500000000019
 20
249.1199999995724
 30
0.0
 40
5.000000000000127
100
AcDbArc
 50
0.0
 51
59.99999999998969
  0
ARC
  5
D2D
330
CB5
100
AcDbEntity
  8
Visible (ISO)
100
AcDbCircle
 10
933.2500000000019
 20
249.1199999995724
 30
0.0
 40
5.000000000000142
100
AcDbArc
 50
59.99999999998969
 51
120.0000000000103
  0
ARC
  5
D2E
330
CB5
100
AcDbEntity
  8
Visible (ISO)
100
AcDbCircle
 10
933.2500000000019
 20
249.1199999995724
 30
0.0
 40
5.000000000000178
100
AcDbArc
 50
120.0000000000103
 51
180.0
  0
ARC
  5
D2F
330
CB5
100
AcDbEntity
  8
Visible (ISO)
100
AcDbCircle
 10
933.2500000000019
 20
249.1199999995724
 30
0.0
 40
5.000000000000163
100
AcDbArc
 50
180.0
 51
239.9999999999897
  0
LINE
  5
D30
330
CB5
100
AcDbEntity
  8
Visible (ISO)
100
AcDbLine
 10
938.2500000000009
 20
246.2332486536261
 30
0.0
 11
933.2500000000019
 21
243.346497307678
 31
0.0
  0
LINE
  5
D31
330
CB5
100
AcDbEntity
  8
Visible (ISO)
100
AcDbLine
 10
938.2500000000009
 20
252.0067513455215
 30
0.0
 11
938.2500000000009
 21
246.2332486536261
 31
0.0
  0
LINE
  5
D32
330
CB5
100
AcDbEntity
  8
Visible (ISO)
100
AcDbLine
 10
933.2500000000019
 20
254.8935026914696
 30
0.0
 11
938.2500000000009
 21
252.0067513455215
 31
0.0
  0
LINE
  5
D33
330
CB5
100
AcDbEntity
  8
Visible (ISO)
100
AcDbLine
 10
933.2500000000019
 20
243.346497307678
 30
0.0
 11
928.2500000000018
 21
246.2332486536261
 31
0.0
  0
LINE
  5
D34
330
CB5
100
AcDbEntity
  8
Visible (ISO)
100
AcDbLine
 10
1128.250000000007
 20
162.0067513455206
 30
0.0
 11
1133.250000000008
 21
164.8935026914696
 31
0.0
  0
LINE
  5
D35
330
CB5
100
AcDbEntity
  8
Visible (ISO)
100
AcDbLine
 10
1128.250000000007
 20
156.2332486536252
 30
0.0
 11
1128.250000000007
 21
162.0067513455206
 31
0.0
  0
ARC
  5
D36
330
CB5
100
AcDbEntity
  8
Visible (ISO)
100
AcDbCircle
 10
1133.250000000008
 20
159.1199999995715
 30
0.0
 40
5.000000000000137
100
AcDbArc
 50
239.9999999999897
 51
300.0000000000103
  0
ARC
  5
D37
330
CB5
100
AcDbEntity
  8
Visible (ISO)
100
AcDbCircle
 10
1133.250000000008
 20
159.1199999995715
 30
0.0
 40
5.000000000000092
100
AcDbArc
 50
300.0000000000103
 51
0.0
  0
ARC
  5
D38
330
CB5
100
AcDbEntity
  8
Visible (ISO)
100
AcDbCircle
 10
1133.250000000008
 20
159.1199999995715
 30
0.0
 40
5.000000000000127
100
AcDbArc
 50
0.0
 51
59.99999999998969
  0
ARC
  5
D39
330
CB5
100
AcDbEntity
  8
Visible (ISO)
100
AcDbCircle
 10
1133.250000000008
 20
159.1199999995715
 30
0.0
 40
5.000000000000135
100
AcDbArc
 50
59.99999999998969
 51
120.0000000000103
  0
ARC
  5
D3A
330
CB5
100
AcDbEntity
  8
Visible (ISO)
100
AcDbCircle
 10
1133.250000000008
 20
159.1199999995715
 30
0.0
 40
5.000000000000127
100
AcDbArc
 50
120.0000000000103
 51
180.0
  0
ARC
  5
D3B
330
CB5
100
AcDbEntity
  8
Visible (ISO)
100
AcDbCircle
 10
1133.250000000008
 20
159.1199999995715
 30
0.0
 40
5.000000000000198
100
AcDbArc
 50
180.0
 51
239.9999999999897
  0
LINE
  5
D3C
330
CB5
100
AcDbEntity
  8
Visible (ISO)
100
AcDbLine
 10
1138.250000000007
 20
156.2332486536252
 30
0.0
 11
1133.250000000008
 21
153.346497307677
 31
0.0
  0
LINE
  5
D3D
330
CB5
100
AcDbEntity
  8
Visible (ISO)
100
AcDbLine
 10
1138.250000000007
 20
162.0067513455206
 30
0.0
 11
1138.250000000007
 21
156.2332486536252
 31
0.0
  0
LINE
  5
D3E
330
CB5
100
AcDbEntity
  8
Visible (ISO)
100
AcDbLine
 10
1133.250000000008
 20
164.8935026914696
 30
0.0
 11
1138.250000000007
 21
162.0067513455206
 31
0.0
  0
LINE
  5
D3F
330
CB5
100
AcDbEntity
  8
Visible (ISO)
100
AcDbLine
 10
1133.250000000008
 20
153.346497307677
 30
0.0
 11
1128.250000000007
 21
156.2332486536252
 31
0.0
  0
LINE
  5
D40
330
CB5
100
AcDbEntity
  8
Visible (ISO)
100
AcDbLine
 10
1128.250000000008
 20
252.0067513455215
 30
0.0
 11
1133.250000000008
 21
254.8935026914696
 31
0.0
  0
LINE
  5
D41
330
CB5
100
AcDbEntity
  8
Visible (ISO)
100
AcDbLine
 10
1128.250000000008
 20
246.2332486536252
 30
0.0
 11
1128.250000000008
 21
252.0067513455215
 31
0.0
  0
ARC
  5
D42
330
CB5
100
AcDbEntity
  8
Visible (ISO)
100
AcDbCircle
 10
1133.250000000008
 20
249.1199999995724
 30
0.0
 40
5.000000000000156
100
AcDbArc
 50
239.9999999999897
 51
300.0000000000103
  0
ARC
  5
D43
330
CB5
100
AcDbEntity
  8
Visible (ISO)
100
AcDbCircle
 10
1133.250000000008
 20
249.1199999995724
 30
0.0
 40
5.000000000000163
100
AcDbArc
 50
300.0000000000103
 51
0.0
  0
ARC
  5
D44
330
CB5
100
AcDbEntity
  8
Visible (ISO)
100
AcDbCircle
 10
1133.250000000008
 20
249.1199999995724
 30
0.0
 40
5.000000000000145
100
AcDbArc
 50
0.0
 51
59.99999999998969
  0
ARC
  5
D45
330
CB5
100
AcDbEntity
  8
Visible (ISO)
100
AcDbCircle
 10
1133.250000000008
 20
249.1199999995724
 30
0.0
 40
5.000000000000134
100
AcDbArc
 50
59.99999999998969
 51
120.0000000000103
  0
ARC
  5
D46
330
CB5
100
AcDbEntity
  8
Visible (ISO)
100
AcDbCircle
 10
1133.250000000008
 20
249.1199999995724
 30
0.0
 40
5.000000000000097
100
AcDbArc
 50
120.0000000000103
 51
180.0
  0
ARC
  5
D47
330
CB5
100
AcDbEntity
  8
Visible (ISO)
100
AcDbCircle
 10
1133.250000000008
 20
249.1199999995724
 30
0.0
 40
5.00000000000018
100
AcDbArc
 50
180.0
 51
239.9999999999897
  0
LINE
  5
D48
330
CB5
100
AcDbEntity
  8
Visible (ISO)
100
AcDbLine
 10
1138.250000000007
 20
246.2332486536252
 30
0.0
 11
1133.250000000008
 21
243.346497307678
 31
0.0
  0
LINE
  5
D49
330
CB5
100
AcDbEntity
  8
Visible (ISO)
100
AcDbLine
 10
1138.250000000007
 20
252.0067513455215
 30
0.0
 11
1138.250000000007
 21
246.2332486536252
 31
0.0
  0
LINE
  5
D4A
330
CB5
100
AcDbEntity
  8
Visible (ISO)
100
AcDbLine
 10
1133.250000000008
 20
254.8935026914696
 30
0.0
 11
1138.250000000007
 21
252.0067513455215
 31
0.0
  0
LINE
  5
D4B
330
CB5
100
AcDbEntity
  8
Visible (ISO)
100
AcDbLine
 10
1133.250000000008
 20
243.346497307678
 30
0.0
 11
1128.250000000008
 21
246.2332486536252
 31
0.0
  0
LINE
  5
D4C
330
CB5
100
AcDbEntity
  8
Visible (ISO)
100
AcDbLine
 10
1118.479103010941
 20
269.119999999576
 30
0.0
 11
1143.750000000009
 21
269.119999999577
 31
0.0
  0
ARC
  5
D4D
330
CB5
100
AcDbEntity
  8
Visible (ISO)
100
AcDbCircle
 10
1143.750000000008
 20
204.1199999995788
 30
0.0
 40
65.00000000000196
100
AcDbArc
 50
270.0
 51
73.47816462015
  0
SPLINE
  5
D4E
330
CB5
100
AcDbEntity
  8
Visible (ISO)
100
AcDbSpline
210
0.0
220
0.0
230
1.0
 70
     8
 71
     3
 72
    10
 73
     6
 74
     0
 42
0.0000000001
 43
0.0000000001
 40
-6.119641329967227
 40
-6.119641329967227
 40
-6.119641329967227
 40
-6.119641329967227
 40
-4.58973099747542
 40
-4.58973099747542
 40
-4.026481409355223
 40
-4.026481409355223
 40
-4.026481409355223
 40
-4.026481409355223
 10
1143.750000000008
 20
269.119999999577
 30
0.0
 10
1148.31295434703
 20
269.119999999577
 30
0.0
 10
1152.896278801911
 20
268.6349912972773
 30
0.0
 10
1159.003373868509
 20
267.3272705743484
 30
0.0
 10
1160.630487424731
 20
266.9121113300007
 30
0.0
 10
1162.234747422276
 20
266.4362427676961
 30
0.0
  0
LINE
  5
D4F
330
CB5
100
AcDbEntity
  8
Visible (ISO)
100
AcDbLine
 10
1143.750000000008
 20
139.1199999995788
 30
0.0
 11
922.7500000000009
 21
139.1199999995788
 31
0.0
  0
SPLINE
  5
D50
330
CB5
100
AcDbEntity
  8
Visible (ISO)
100
AcDbSpline
210
0.0
220
0.0
230
1.0
 70
     8
 71
     3
 72
    10
 73
     6
 74
     0
 42
0.0000000001
 43
0.0000000001
 40
-6.097154787996167
 40
-6.097154787996167
 40
-6.097154787996167
 40
-6.097154787996167
 40
-4.572866090997125
 40
-4.572866090997125
 40
-4.00486539056339
 40
-4.00486539056339
 40
-4.00486539056339
 40
-4.00486539056339
 10
922.7500000000009
 20
281.119999999577
 30
0.0
 10
917.4398374092415
 20
281.1199999995779
 30
0.0
 10
912.1065944778402
 20
280.5656959628341
 30
0.0
 10
904.9700074720995
 20
279.0652551795056
 30
0.0
 10
903.0512955608537
 20
278.5837337283565
 30
0.0
 10
901.1589399931626
 20
278.0309337494718
 30
0.0
  0
SPLINE
  5
D51
330
CB5
100
AcDbEntity
  8
Visible (ISO)
100
AcDbSpline
210
0.0
220
0.0
230
1.0
 70
     8
 71
     3
 72
    18
 73
    14
 74
     0
 42
0.0000000001
 43
0.0000000001
 40
-0.0010767747414977
 40
-0.0010767747414977
 40
-0.0010767747414977
 40
-0.0010767747414977
 40
0.0
 40
0.0
 40
0.1131049542352112
 40
0.1131049542352112
 40
0.2262288667626171
 40
0.2262288667626171
 40
0.4424768113545202
 40
0.4424768113545202
 40
0.6567178829235365
 40
0.6567178829235365
 40
0.8697309704838056
 40
0.8697309704838056
 40
0.8697309704838056
 40
0.8697309704838056
 10
901.1589399931626
 20
278.0309337494718
 30
0.0
 10
901.1594180779056
 20
278.031073408868
 30
0.0
 10
901.1598971315134
 20
278.0312097564301
 30
0.0
 10
901.2107988307116
 20
278.0453168960821
 30
0.0
 10
901.2717768140474
 20
278.0227127347725
 30
0.0
 10
901.4129801621193
 20
277.9049676594405
 30
0.0
 10
901.4928629673031
 20
277.8101027204602
 30
0.0
 10
901.74890344699
 20
277.4331130742839
 30
0.0
 10
901.9440936547807
 20
277.0625706094943
 30
0.0
 10
902.3650457149178
 20
276.1195609757215
 30
0.0
 10
902.5865530090568
 20
275.5578428783738
 30
0.0
 10
903.0277815986364
 20
274.3141573736411
 30
0.0
 10
903.2431896841753
 20
273.6450513224236
 30
0.0
 10
903.4420860003857
 20
272.9636958401106
 30
0.0
  0
SPLINE
  5
D52
330
CB5
100
AcDbEntity
  8
Visible (ISO)
100
AcDbSpline
210
0.0
220
0.0
230
1.0
 70
     8
 71
     3
 72
     8
 73
     4
 74
     0
 42
0.0000000001
 43
0.0000000001
 40
3.046071552120637
 40
3.046071552120637
 40
3.046071552120637
 40
3.046071552120637
 40
3.122700875874432
 40
3.122700875874432
 40
3.122700875874432
 40
3.122700875874432
 10
903.4420860003857
 20
272.9636958401106
 30
0.0
 10
903.4842345086472
 20
272.8193084642044
 30
0.0
 10
903.5040944769361
 20
272.6712884230565
 30
0.0
 10
903.5040944769361
 20
272.5206994626242
 30
0.0
  0
ARC
  5
D53
330
CB5
100
AcDbEntity
  8
Visible (ISO)
100
AcDbCircle
 10
1143.750000000008
 20
204.1199999995788
 30
0.0
 40
77.00000000000251
100
AcDbArc
 50
270.0
 51
73.71571904143106
  0
SPLINE
  5
D54
330
CB5
100
AcDbEntity
  8
Visible (ISO)
100
AcDbSpline
210
0.0
220
0.0
230
1.0
 70
     8
 71
     3
 72
    18
 73
    14
 74
     0
 42
0.0000000001
 43
0.0000000001
 40
-0.8704994547357223
 40
-0.8704994547357223
 40
-0.8704994547357223
 40
-0.8704994547357223
 40
-0.8694230611877689
 40
-0.8694230611877689
 40
-0.7563581493735409
 40
-0.7563581493735409
 40
-0.6432742858913745
 40
-0.6432742858913745
 40
-0.4271028991493287
 40
-0.4271028991493287
 40
-0.2129376749407176
 40
-0.2129376749407176
 40
0.0
 40
0.0
 40
0.0
 40
0.0
 10
1165.341060006846
 20
278.0309337494718
 30
0.0
 10
1165.340581922094
 20
278.0310734088707
 30
0.0
 10
1165.340102868698
 20
278.0312097563719
 30
0.0
 10
1165.289201164047
 20
278.045316897611
 30
0.0
 10
1165.228223185904
 20
278.0227127347252
 30
0.0
 10
1165.087019837888
 20
277.9049676594395
 30
0.0
 10
1165.007137032705
 20
277.8101027204584
 30
0.0
 10
1164.751096553019
 20
277.4331130742839
 30
0.0
 10
1164.555906345228
 20
277.0625706094943
 30
0.0
 10
1164.134954285091
 20
276.1195609757215
 30
0.0
 10
1163.913446990952
 20
275.5578428783738
 30
0.0
 10
1163.472218401373
 20
274.3141573736411
 30
0.0
 10
1163.256810315834
 20
273.6450513224227
 30
0.0
 10
1163.057913999624
 20
272.9636958401106
 30
0.0
  0
LINE
  5
D55
330
CB5
100
AcDbEntity
  8
Visible (ISO)
100
AcDbLine
 10
922.7500000000009
 20
127.1199999995779
 30
0.0
 11
1143.750000000008
 21
127.1199999995779
 31
0.0
  0
ARC
  5
D56
330
CB5
100
AcDbEntity
  8
Visible (ISO)
100
AcDbCircle
 10
922.7500000000009
 20
204.1199999995788
 30
0.0
 40
77.00000000000234
100
AcDbArc
 50
106.2842809585689
 51
270.0
  0
LINE
  5
D57
330
CB5
100
AcDbEntity
  8
Visible (ISO)
100
AcDbLine
 10
1143.750000000008
 20
281.119999999577
 30
0.0
 11
922.7500000000009
 21
281.1199999995779
 31
0.0
  0
SPLINE
  5
D58
330
CB5
100
AcDbEntity
  8
Visible (ISO)
100
AcDbSpline
210
0.0
220
0.0
230
1.0
 70
     8
 71
     3
 72
    10
 73
     6
 74
     0
 42
0.0000000001
 43
0.0000000001
 40
-2.092289397432799
 40
-2.092289397432799
 40
-2.092289397432799
 40
-2.092289397432799
 40
-1.343964608492162
 40
-1.343964608492162
 40
-0.0000000000000094
 40
-0.0000000000000094
 40
-0.0000000000000094
 40
-0.0000000000000094
 10
1165.341060006846
 20
278.0309337494718
 30
0.0
 10
1162.847935370702
 20
278.7592319983578
 30
0.0
 10
1160.308994297392
 20
279.3636977503065
 30
0.0
 10
1153.131839229354
 20
280.689972402989
 30
0.0
 10
1148.431967793491
 20
281.1199999995779
 30
0.0
 10
1143.750000000008
 20
281.119999999577
 30
0.0
  0
SPLINE
  5
D59
330
CB5
100
AcDbEntity
  8
Visible (ISO)
100
AcDbSpline
210
0.0
220
0.0
230
1.0
 70
     8
 71
     3
 72
     8
 73
     4
 74
     0
 42
0.0000000001
 43
0.0000000001
 40
0.0
 40
0.0
 40
0.0
 40
0.0
 40
0.0454979855665535
 40
0.0454979855665535
 40
0.0454979855665535
 40
0.0454979855665535
 10
1162.995905523073
 20
272.5206994626242
 30
0.0
 10
1162.995905523073
 20
272.6723594145123
 30
0.0
 10
1163.016051332662
 20
272.8202876655305
 30
0.0
 10
1163.057913999624
 20
272.9636958401106
 30
0.0
  0
SPLINE
  5
D5A
330
CB5
100
AcDbEntity
  8
Visible (ISO)
100
AcDbSpline
210
0.0
220
0.0
230
1.0
 70
     8
 71
     3
 72
    10
 73
     6
 74
     0
 42
0.0000000001
 43
0.0000000001
 40
3.345763720790682
 40
3.345763720790682
 40
3.345763720790682
 40
3.345763720790682
 40
3.41658455244547
 40
3.41658455244547
 40
3.455558814572071
 40
3.455558814572071
 40
3.455558814572071
 40
3.455558814572071
 10
1162.995905523073
 20
271.9421580351172
 30
0.0
 10
1162.995905523073
 20
271.8457915897861
 30
0.0
 10
1162.988084682604
 20
271.7488020017927
 30
0.0
 10
1162.961601784363
 20
271.5982282912055
 30
0.0
 10
1162.949542565528
 20
271.5455897664251
 30
0.0
 10
1162.934829048325
 20
271.4937809826324
 30
0.0
  0
SPLINE
  5
D5B
330
CB5
100
AcDbEntity
  8
Visible (ISO)
100
AcDbSpline
210
0.0
220
0.0
230
1.0
 70
     8
 71
     3
 72
    16
 73
    12
 74
     0
 42
0.0000000001
 43
0.0000000001
 40
-0.8244800277368133
 40
-0.8244800277368133
 40
-0.8244800277368133
 40
-0.8244800277368133
 40
-0.6114761619028281
 40
-0.6114761619028281
 40
-0.3971847359265967
 40
-0.3971847359265967
 40
-0.1989999523293839
 40
-0.1989999523293839
 40
0.0
 40
0.0
 40
0.0010777405731066
 40
0.0010777405731066
 40
0.0010777405731066
 40
0.0010777405731066
 10
1162.934829048321
 20
271.4937809826324
 30
0.0
 10
1162.741575867213
 20
270.8133038310098
 30
0.0
 10
1162.571922057272
 20
270.1452237341919
 30
0.0
 10
1162.297350940423
 20
268.9034561814142
 30
0.0
 10
1162.195585603516
 20
268.3428504375243
 30
0.0
 10
1162.078847114788
 20
267.4415660589366
 30
0.0
 10
1162.058863881419
 20
267.0948044039124
 30
0.0
 10
1162.092315155164
 20
266.6037265246605
 30
0.0
 10
1162.145796286883
 20
266.4639666702005
 30
0.0
 10
1162.23379643887
 20
266.4365284513815
 30
0.0
 10
1162.234271441062
 20
266.4363839570897
 30
0.0
 10
1162.234747422276
 20
266.4362427676961
 30
0.0
  0
ARC
  5
D5C
330
CB5
100
AcDbEntity
  8
Visible (ISO)
100
AcDbCircle
 10
922.7500000000009
 20
204.1199999995788
 30
0.0
 40
65.00000000000213
100
AcDbArc
 50
106.52183537985
 51
270.0
  0
SPLINE
  5
D5D
330
CB5
100
AcDbEntity
  8
Visible (ISO)
100
AcDbSpline
210
0.0
220
0.0
230
1.0
 70
     8
 71
     3
 72
    16
 73
    12
 74
     0
 42
0.0000000001
 43
0.0000000001
 40
-0.8252463373511355
 40
-0.8252463373511355
 40
-0.8252463373511355
 40
-0.8252463373511355
 40
-0.824169003339988
 40
-0.824169003339988
 40
-0.6252441211536936
 40
-0.6252441211536936
 40
-0.4271341001860791
 40
-0.4271341001860791
 40
-0.2129235128626035
 40
-0.2129235128626035
 40
0.0
 40
0.0
 40
0.0
 40
0.0
 10
904.2652525777329
 20
266.4362427676961
 30
0.0
 10
904.2657285589475
 20
266.4363839570897
 30
0.0
 10
904.2662035611328
 20
266.4365284513797
 30
0.0
 10
904.3542037131192
 20
266.4639666701942
 30
0.0
 10
904.4076848448439
 20
266.6037265246541
 30
0.0
 10
904.4411361185902
 20
267.0948044039069
 30
0.0
 10
904.421152885221
 20
267.441566058932
 30
0.0
 10
904.3044143964916
 20
268.3428504375243
 30
0.0
 10
904.2026490595862
 20
268.9034561814142
 30
0.0
 10
903.9280779427599
 20
270.1452237340909
 30
0.0
 10
903.7584241326577
 20
270.8133038309043
 30
0.0
 10
903.5651709515333
 20
271.4937809825842
 30
0.0
  0
SPLINE
  5
D5E
330
CB5
100
AcDbEntity
  8
Visible (ISO)
100
AcDbSpline
210
0.0
220
0.0
230
1.0
 70
     8
 71
     3
 72
    10
 73
     6
 74
     0
 42
0.0000000001
 43
0.0000000001
 40
9.674518611058225
 40
9.674518611058225
 40
9.674518611058225
 40
9.674518611058225
 40
9.682538589669626
 40
9.682538589669626
 40
9.777210872477436
 40
9.777210872477436
 40
9.777210872477436
 40
9.777210872477436
 10
903.5651709515231
 20
271.4937809825842
 30
0.0
 10
903.5619532481305
 20
271.5051110607082
 30
0.0
 10
903.5588552766622
 20
271.5165062124033
 30
0.0
 10
903.5207423389966
 20
271.6632551381599
 30
0.0
 10
903.5040944769361
 20
271.8017153515311
 30
0.0
 10
903.5040944769361
 20
271.9421580351172
 30
0.0
  0
LINE
  5
D5F
330
CB5
100
AcDbEntity
  8
Visible (ISO)
100
AcDbLine
 10
922.7500000000009
 20
269.119999999577
 30
0.0
 11
948.020896989351
 21
269.119999999576
 31
0.0
  0
SPLINE
  5
D60
330
CB5
100
AcDbEntity
  8
Visible (ISO)
100
AcDbSpline
210
0.0
220
0.0
230
1.0
 70
     8
 71
     3
 72
    10
 73
     6
 74
     0
 42
0.0000000001
 43
0.0000000001
 40
-2.093159920612014
 40
-2.093159920612014
 40
-2.093159920612014
 40
-2.093159920612014
 40
-1.320932354926629
 40
-1.320932354926629
 40
-0.0000000000000019
 40
-0.0000000000000019
 40
-0.0000000000000019
 40
-0.0000000000000019
 10
904.2652525777329
 20
266.4362427676961
 30
0.0
 10
906.4647578539634
 20
267.0886777939277
 30
0.0
 10
908.7072255060993
 20
267.6268508996018
 30
0.0
 10
914.8554923213524
 20
268.7593211695521
 30
0.0
 10
918.8103220312815
 20
269.119999999577
 30
0.0
 10
922.7500000000009
 20
269.119999999577
 30
0.0
  0
LINE
  5
D61
330
CB5
100
AcDbEntity
  8
Visible (ISO)
100
AcDbLine
 10
1162.995905523055
 20
272.5206994626351
 30
0.0
 11
1162.995905523074
 21
271.9421580351172
 31
0.0
  0
LINE
  5
D62
330
CB5
100
AcDbEntity
  8
Visible (ISO)
100
AcDbLine
 10
903.5040944769361
 20
271.9421580351172
 30
0.0
 11
903.5040944769361
 21
272.5206994626242
 31
0.0
  0
LINE
  5
D63
330
CB5
100
AcDbEntity
  8
Visible (ISO)
100
AcDbLine
 10
1138.250000000007
 20
-162.0067513463741
 30
0.0
 11
1133.250000000008
 21
-164.8935026923223
 31
0.0
  0
LINE
  5
D64
330
CB5
100
AcDbEntity
  8
Visible (ISO)
100
AcDbLine
 10
1138.250000000007
 20
-156.2332486544778
 30
0.0
 11
1138.250000000007
 21
-162.0067513463741
 31
0.0
  0
ARC
  5
D65
330
CB5
100
AcDbEntity
  8
Visible (ISO)
100
AcDbCircle
 10
1133.250000000007
 20
-159.1200000004278
 30
0.0
 40
5.000000000000168
100
AcDbArc
 50
59.99999999998969
 51
120.0000000000103
  0
ARC
  5
D66
330
CB5
100
AcDbEntity
  8
Visible (ISO)
100
AcDbCircle
 10
1133.250000000008
 20
-159.1200000004278
 30
0.0
 40
5.00000000000021
100
AcDbArc
 50
120.0000000000103
 51
180.0
  0
ARC
  5
D67
330
CB5
100
AcDbEntity
  8
Visible (ISO)
100
AcDbCircle
 10
1133.250000000007
 20
-159.1200000004278
 30
0.0
 40
5.000000000000142
100
AcDbArc
 50
180.0
 51
239.9999999999897
  0
ARC
  5
D68
330
CB5
100
AcDbEntity
  8
Visible (ISO)
100
AcDbCircle
 10
1133.250000000007
 20
-159.1200000004278
 30
0.0
 40
5.000000000000159
100
AcDbArc
 50
239.9999999999897
 51
300.0000000000103
  0
ARC
  5
D69
330
CB5
100
AcDbEntity
  8
Visible (ISO)
100
AcDbCircle
 10
1133.250000000007
 20
-159.1200000004278
 30
0.0
 40
5.000000000000188
100
AcDbArc
 50
300.0000000000103
 51
0.0
  0
ARC
  5
D6A
330
CB5
100
AcDbEntity
  8
Visible (ISO)
100
AcDbCircle
 10
1133.250000000008
 20
-159.1200000004278
 30
0.0
 40
5.00000000000016
100
AcDbArc
 50
0.0
 51
59.99999999998969
  0
LINE
  5
D6B
330
CB5
100
AcDbEntity
  8
Visible (ISO)
100
AcDbLine
 10
1128.250000000008
 20
-156.2332486544774
 30
0.0
 11
1133.250000000008
 21
-153.3464973085297
 31
0.0
  0
LINE
  5
D6C
330
CB5
100
AcDbEntity
  8
Visible (ISO)
100
AcDbLine
 10
1128.250000000008
 20
-162.0067513463741
 30
0.0
 11
1128.250000000008
 21
-156.2332486544774
 31
0.0
  0
LINE
  5
D6D
330
CB5
100
AcDbEntity
  8
Visible (ISO)
100
AcDbLine
 10
1133.250000000008
 20
-164.8935026923223
 30
0.0
 11
1128.250000000008
 21
-162.0067513463741
 31
0.0
  0
LINE
  5
D6E
330
CB5
100
AcDbEntity
  8
Visible (ISO)
100
AcDbLine
 10
1133.250000000008
 20
-153.3464973085297
 30
0.0
 11
1138.250000000007
 21
-156.2332486544778
 31
0.0
  0
LINE
  5
D6F
330
CB5
100
AcDbEntity
  8
Visible (ISO)
100
AcDbLine
 10
1138.250000000007
 20
-252.006751346376
 30
0.0
 11
1133.250000000007
 21
-254.8935026923241
 31
0.0
  0
LINE
  5
D70
330
CB5
100
AcDbEntity
  8
Visible (ISO)
100
AcDbLine
 10
1138.250000000007
 20
-246.2332486544792
 30
0.0
 11
1138.250000000007
 21
-252.006751346376
 31
0.0
  0
ARC
  5
D71
330
CB5
100
AcDbEntity
  8
Visible (ISO)
100
AcDbCircle
 10
1133.250000000007
 20
-249.1200000004287
 30
0.0
 40
5.000000000000124
100
AcDbArc
 50
59.99999999998969
 51
120.0000000000103
  0
ARC
  5
D72
330
CB5
100
AcDbEntity
  8
Visible (ISO)
100
AcDbCircle
 10
1133.250000000007
 20
-249.1200000004287
 30
0.0
 40
5.000000000000174
100
AcDbArc
 50
120.0000000000103
 51
180.0
  0
ARC
  5
D73
330
CB5
100
AcDbEntity
  8
Visible (ISO)
100
AcDbCircle
 10
1133.250000000007
 20
-249.1200000004287
 30
0.0
 40
5.000000000000142
100
AcDbArc
 50
180.0
 51
239.9999999999897
  0
ARC
  5
D74
330
CB5
100
AcDbEntity
  8
Visible (ISO)
100
AcDbCircle
 10
1133.250000000007
 20
-249.1200000004287
 30
0.0
 40
5.000000000000166
100
AcDbArc
 50
239.9999999999897
 51
300.0000000000103
  0
ARC
  5
D75
330
CB5
100
AcDbEntity
  8
Visible (ISO)
100
AcDbCircle
 10
1133.250000000007
 20
-249.1200000004287
 30
0.0
 40
5.000000000000207
100
AcDbArc
 50
300.0000000000103
 51
0.0
  0
ARC
  5
D76
330
CB5
100
AcDbEntity
  8
Visible (ISO)
100
AcDbCircle
 10
1133.250000000007
 20
-249.1200000004287
 30
0.0
 40
5.000000000000177
100
AcDbArc
 50
0.0
 51
59.99999999998969
  0
LINE
  5
D77
330
CB5
100
AcDbEntity
  8
Visible (ISO)
100
AcDbLine
 10
1128.250000000007
 20
-246.2332486544792
 30
0.0
 11
1133.250000000007
 21
-243.3464973085311
 31
0.0
  0
LINE
  5
D78
330
CB5
100
AcDbEntity
  8
Visible (ISO)
100
AcDbLine
 10
1128.250000000007
 20
-252.006751346376
 30
0.0
 11
1128.250000000007
 21
-246.2332486544792
 31
0.0
  0
LINE
  5
D79
330
CB5
100
AcDbEntity
  8
Visible (ISO)
100
AcDbLine
 10
1133.250000000007
 20
-254.8935026923241
 30
0.0
 11
1128.250000000007
 21
-252.006751346376
 31
0.0
  0
LINE
  5
D7A
330
CB5
100
AcDbEntity
  8
Visible (ISO)
100
AcDbLine
 10
1133.250000000007
 20
-243.3464973085311
 30
0.0
 11
1138.250000000007
 21
-246.2332486544792
 31
0.0
  0
LINE
  5
D7B
330
CB5
100
AcDbEntity
  8
Visible (ISO)
100
AcDbLine
 10
938.2500000000009
 20
-162.0067513463741
 30
0.0
 11
933.2500000000008
 21
-164.8935026923218
 31
0.0
  0
LINE
  5
D7C
330
CB5
100
AcDbEntity
  8
Visible (ISO)
100
AcDbLine
 10
938.2500000000009
 20
-156.2332486544774
 30
0.0
 11
938.2500000000009
 21
-162.0067513463741
 31
0.0
  0
ARC
  5
D7D
330
CB5
100
AcDbEntity
  8
Visible (ISO)
100
AcDbCircle
 10
933.2500000000008
 20
-159.1200000004273
 30
0.0
 40
5.000000000000162
100
AcDbArc
 50
59.99999999998969
 51
120.0000000000103
  0
ARC
  5
D7E
330
CB5
100
AcDbEntity
  8
Visible (ISO)
100
AcDbCircle
 10
933.2500000000008
 20
-159.1200000004273
 30
0.0
 40
5.00000000000012
100
AcDbArc
 50
120.0000000000103
 51
180.0
  0
ARC
  5
D7F
330
CB5
100
AcDbEntity
  8
Visible (ISO)
100
AcDbCircle
 10
933.2500000000008
 20
-159.1200000004273
 30
0.0
 40
5.000000000000142
100
AcDbArc
 50
180.0
 51
239.9999999999897
  0
ARC
  5
D80
330
CB5
100
AcDbEntity
  8
Visible (ISO)
100
AcDbCircle
 10
933.2500000000008
 20
-159.1200000004273
 30
0.0
 40
5.000000000000159
100
AcDbArc
 50
239.9999999999897
 51
300.0000000000103
  0
ARC
  5
D81
330
CB5
100
AcDbEntity
  8
Visible (ISO)
100
AcDbCircle
 10
933.2500000000008
 20
-159.1200000004273
 30
0.0
 40
5.000000000000155
100
AcDbArc
 50
300.0000000000103
 51
0.0
  0
ARC
  5
D82
330
CB5
100
AcDbEntity
  8
Visible (ISO)
100
AcDbCircle
 10
933.2500000000008
 20
-159.1200000004273
 30
0.0
 40
5.000000000000213
100
AcDbArc
 50
0.0
 51
59.99999999998969
  0
LINE
  5
D83
330
CB5
100
AcDbEntity
  8
Visible (ISO)
100
AcDbLine
 10
928.2500000000009
 20
-156.2332486544774
 30
0.0
 11
933.2500000000008
 21
-153.3464973085292
 31
0.0
  0
LINE
  5
D84
330
CB5
100
AcDbEntity
  8
Visible (ISO)
100
AcDbLine
 10
928.2500000000009
 20
-162.0067513463741
 30
0.0
 11
928.2500000000009
 21
-156.2332486544774
 31
0.0
  0
LINE
  5
D85
330
CB5
100
AcDbEntity
  8
Visible (ISO)
100
AcDbLine
 10
933.2500000000008
 20
-164.8935026923218
 30
0.0
 11
928.2500000000009
 21
-162.0067513463741
 31
0.0
  0
LINE
  5
D86
330
CB5
100
AcDbEntity
  8
Visible (ISO)
100
AcDbLine
 10
933.2500000000008
 20
-153.3464973085292
 30
0.0
 11
938.2500000000009
 21
-156.2332486544774
 31
0.0
  0
LINE
  5
D87
330
CB5
100
AcDbEntity
  8
Visible (ISO)
100
AcDbLine
 10
938.25
 20
-252.0067513463755
 30
0.0
 11
933.2500000000008
 21
-254.8935026923236
 31
0.0
  0
LINE
  5
D88
330
CB5
100
AcDbEntity
  8
Visible (ISO)
100
AcDbLine
 10
938.25
 20
-246.2332486544792
 30
0.0
 11
938.25
 21
-252.0067513463755
 31
0.0
  0
ARC
  5
D89
330
CB5
100
AcDbEntity
  8
Visible (ISO)
100
AcDbCircle
 10
933.2500000000008
 20
-249.1200000004287
 30
0.0
 40
5.000000000000178
100
AcDbArc
 50
59.99999999998969
 51
120.0000000000103
  0
ARC
  5
D8A
330
CB5
100
AcDbEntity
  8
Visible (ISO)
100
AcDbCircle
 10
933.2500000000008
 20
-249.1200000004287
 30
0.0
 40
5.00000000000019
100
AcDbArc
 50
120.0000000000103
 51
180.0
  0
ARC
  5
D8B
330
CB5
100
AcDbEntity
  8
Visible (ISO)
100
AcDbCircle
 10
933.2500000000008
 20
-249.1200000004287
 30
0.0
 40
5.00000000000016
100
AcDbArc
 50
180.0
 51
239.9999999999897
  0
ARC
  5
D8C
330
CB5
100
AcDbEntity
  8
Visible (ISO)
100
AcDbCircle
 10
933.2500000000008
 20
-249.1200000004287
 30
0.0
 40
5.000000000000158
100
AcDbArc
 50
239.9999999999897
 51
300.0000000000103
  0
ARC
  5
D8D
330
CB5
100
AcDbEntity
  8
Visible (ISO)
100
AcDbCircle
 10
933.2500000000008
 20
-249.1200000004287
 30
0.0
 40
5.000000000000126
100
AcDbArc
 50
300.0000000000103
 51
0.0
  0
ARC
  5
D8E
330
CB5
100
AcDbEntity
  8
Visible (ISO)
100
AcDbCircle
 10
933.2500000000008
 20
-249.1200000004287
 30
0.0
 40
5.000000000000195
100
AcDbArc
 50
0.0
 51
59.99999999998969
  0
LINE
  5
D8F
330
CB5
100
AcDbEntity
  8
Visible (ISO)
100
AcDbLine
 10
928.25
 20
-246.2332486544792
 30
0.0
 11
933.2500000000008
 21
-243.3464973085311
 31
0.0
  0
LINE
  5
D90
330
CB5
100
AcDbEntity
  8
Visible (ISO)
100
AcDbLine
 10
928.25
 20
-252.0067513463755
 30
0.0
 11
928.25
 21
-246.2332486544792
 31
0.0
  0
LINE
  5
D91
330
CB5
100
AcDbEntity
  8
Visible (ISO)
100
AcDbLine
 10
933.2500000000008
 20
-254.8935026923236
 30
0.0
 11
928.25
 21
-252.0067513463755
 31
0.0
  0
LINE
  5
D92
330
CB5
100
AcDbEntity
  8
Visible (ISO)
100
AcDbLine
 10
933.2500000000008
 20
-243.3464973085311
 30
0.0
 11
938.25
 21
-246.2332486544792
 31
0.0
  0
LINE
  5
D93
330
CB5
100
AcDbEntity
  8
Visible (ISO)
100
AcDbLine
 10
948.0208969890664
 20
-269.120000000426
 30
0.0
 11
922.749999999999
 21
-269.1200000004246
 31
0.0
  0
ARC
  5
D94
330
CB5
100
AcDbEntity
  8
Visible (ISO)
100
AcDbCircle
 10
922.75
 20
-204.1200000004219
 30
0.0
 40
65.00000000000217
100
AcDbArc
 50
90.0
 51
253.47816462015
  0
SPLINE
  5
D95
330
CB5
100
AcDbEntity
  8
Visible (ISO)
100
AcDbSpline
210
0.0
220
0.0
230
1.0
 70
     8
 71
     3
 72
    10
 73
     6
 74
     0
 42
0.0000000001
 43
0.0000000001
 40
-6.119641329967227
 40
-6.119641329967227
 40
-6.119641329967227
 40
-6.119641329967227
 40
-4.58973099747542
 40
-4.58973099747542
 40
-4.026481409355223
 40
-4.026481409355223
 40
-4.026481409355223
 40
-4.026481409355223
 10
922.75
 20
-269.1200000004246
 30
0.0
 10
918.1870456529786
 20
-269.1200000004242
 30
0.0
 10
913.6037211980957
 20
-268.6349912981222
 30
0.0
 10
907.4966261314976
 20
-267.3272705751933
 30
0.0
 10
905.8695125752775
 20
-266.9121113308447
 30
0.0
 10
904.265252577732
 20
-266.4362427685405
 30
0.0
  0
LINE
  5
D96
330
CB5
100
AcDbEntity
  8
Visible (ISO)
100
AcDbLine
 10
922.75
 20
-139.1200000004205
 30
0.0
 11
1143.750000000008
 21
-139.120000000421
 31
0.0
  0
SPLINE
  5
D97
330
CB5
100
AcDbEntity
  8
Visible (ISO)
100
AcDbSpline
210
0.0
220
0.0
230
1.0
 70
     8
 71
     3
 72
    10
 73
     6
 74
     0
 42
0.0000000001
 43
0.0000000001
 40
-6.097154787996167
 40
-6.097154787996167
 40
-6.097154787996167
 40
-6.097154787996167
 40
-4.572866090997125
 40
-4.572866090997125
 40
-4.00486539056339
 40
-4.00486539056339
 40
-4.00486539056339
 40
-4.00486539056339
 10
1143.750000000007
 20
-281.1200000004251
 30
0.0
 10
1149.060162590767
 20
-281.1200000004246
 30
0.0
 10
1154.393405522169
 20
-280.5656959636804
 30
0.0
 10
1161.529992527909
 20
-279.06525518035
 30
0.0
 10
1163.448704439155
 20
-278.5837337292014
 30
0.0
 10
1165.341060006845
 20
-278.0309337503167
 30
0.0
  0
SPLINE
  5
D98
330
CB5
100
AcDbEntity
  8
Visible (ISO)
100
AcDbSpline
210
0.0
220
0.0
230
1.0
 70
     8
 71
     3
 72
    18
 73
    14
 74
     0
 42
0.0000000001
 43
0.0000000001
 40
-0.0010767747414977
 40
-0.0010767747414977
 40
-0.0010767747414977
 40
-0.0010767747414977
 40
0.0
 40
0.0
 40
0.1131049542352112
 40
0.1131049542352112
 40
0.2262288667626171
 40
0.2262288667626171
 40
0.4424768113545202
 40
0.4424768113545202
 40
0.6567178829235365
 40
0.6567178829235365
 40
0.8697309704838056
 40
0.8697309704838056
 40
0.8697309704838056
 40
0.8697309704838056
 10
1165.341060006845
 20
-278.0309337503167
 30
0.0
 10
1165.340581922103
 20
-278.0310734097129
 30
0.0
 10
1165.340102868495
 20
-278.0312097572751
 30
0.0
 10
1165.289201169296
 20
-278.045316896927
 30
0.0
 10
1165.228223185962
 20
-278.0227127356166
 30
0.0
 10
1165.087019837889
 20
-277.9049676602836
 30
0.0
 10
1165.007137032706
 20
-277.8101027213033
 30
0.0
 10
1164.751096553018
 20
-277.4331130751261
 30
0.0
 10
1164.555906345228
 20
-277.062570610336
 30
0.0
 10
1164.13495428509
 20
-276.1195609765636
 30
0.0
 10
1163.913446990951
 20
-275.5578428792142
 30
0.0
 10
1163.472218401372
 20
-274.314157374482
 30
0.0
 10
1163.256810315834
 20
-273.6450513232648
 30
0.0
 10
1163.057913999623
 20
-272.9636958409515
 30
0.0
  0
SPLINE
  5
D99
330
CB5
100
AcDbEntity
  8
Visible (ISO)
100
AcDbSpline
210
0.0
220
0.0
230
1.0
 70
     8
 71
     3
 72
     8
 73
     4
 74
     0
 42
0.0000000001
 43
0.0000000001
 40
3.046071552120637
 40
3.046071552120637
 40
3.046071552120637
 40
3.046071552120637
 40
3.122700875874432
 40
3.122700875874432
 40
3.122700875874432
 40
3.122700875874432
 10
1163.057913999623
 20
-272.9636958409515
 30
0.0
 10
1163.015765491362
 20
-272.8193084650456
 30
0.0
 10
1162.995905523072
 20
-272.6712884238964
 30
0.0
 10
1162.995905523072
 20
-272.5206994634655
 30
0.0
  0
ARC
  5
D9A
330
CB5
100
AcDbEntity
  8
Visible (ISO)
100
AcDbCircle
 10
922.75
 20
-204.1200000004219
 30
0.0
 40
77.00000000000272
100
AcDbArc
 50
90.0
 51
253.7157190414311
  0
SPLINE
  5
D9B
330
CB5
100
AcDbEntity
  8
Visible (ISO)
100
AcDbSpline
210
0.0
220
0.0
230
1.0
 70
     8
 71
     3
 72
    18
 73
    14
 74
     0
 42
0.0000000001
 43
0.0000000001
 40
-0.8704994547357223
 40
-0.8704994547357223
 40
-0.8704994547357223
 40
-0.8704994547357223
 40
-0.8694230611877689
 40
-0.8694230611877689
 40
-0.7563581493735409
 40
-0.7563581493735409
 40
-0.6432742858913745
 40
-0.6432742858913745
 40
-0.4271028991493287
 40
-0.4271028991493287
 40
-0.2129376749407176
 40
-0.2129376749407176
 40
0.0
 40
0.0
 40
0.0
 40
0.0
 10
901.1589399931617
 20
-278.0309337503163
 30
0.0
 10
901.1594180779129
 20
-278.0310734097148
 30
0.0
 10
901.1598971313096
 20
-278.031209757216
 30
0.0
 10
901.2107988359613
 20
-278.0453168984545
 30
0.0
 10
901.2717768141037
 20
-278.0227127355697
 30
0.0
 10
901.4129801621201
 20
-277.9049676602822
 30
0.0
 10
901.4928629673022
 20
-277.810102721302
 30
0.0
 10
901.7489034469891
 20
-277.4331130751261
 30
0.0
 10
901.9440936547789
 20
-277.062570610336
 30
0.0
 10
902.365045714917
 20
-276.1195609765632
 30
0.0
 10
902.5865530090559
 20
-275.5578428792142
 30
0.0
 10
903.0277815986355
 20
-274.3141573744815
 30
0.0
 10
903.2431896841735
 20
-273.6450513232644
 30
0.0
 10
903.4420860003837
 20
-272.9636958409515
 30
0.0
  0
LINE
  5
D9C
330
CB5
100
AcDbEntity
  8
Visible (ISO)
100
AcDbLine
 10
1143.750000000008
 20
-127.1200000004205
 30
0.0
 11
922.75
 21
-127.1200000004205
 31
0.0
  0
ARC
  5
D9D
330
CB5
100
AcDbEntity
  8
Visible (ISO)
100
AcDbCircle
 10
1143.750000000007
 20
-204.1200000004219
 30
0.0
 40
77.00000000000262
100
AcDbArc
 50
286.284280958569
 51
90.0
  0
LINE
  5
D9E
330
CB5
100
AcDbEntity
  8
Visible (ISO)
100
AcDbLine
 10
922.749999999999
 20
-281.1200000004246
 30
0.0
 11
1143.750000000007
 21
-281.1200000004246
 31
0.0
  0
SPLINE
  5
D9F
330
CB5
100
AcDbEntity
  8
Visible (ISO)
100
AcDbSpline
210
0.0
220
0.0
230
1.0
 70
     8
 71
     3
 72
    10
 73
     6
 74
     0
 42
0.0000000001
 43
0.0000000001
 40
-2.092289397432799
 40
-2.092289397432799
 40
-2.092289397432799
 40
-2.092289397432799
 40
-1.343964608492162
 40
-1.343964608492162
 40
-0.0000000000000094
 40
-0.0000000000000094
 40
-0.0000000000000094
 40
-0.0000000000000094
 10
901.1589399931617
 20
-278.0309337503163
 30
0.0
 10
903.6520646293055
 20
-278.7592319992018
 30
0.0
 10
906.1910057026151
 20
-279.3636977511519
 30
0.0
 10
913.3681607706531
 20
-280.6899724038358
 30
0.0
 10
918.0680322065164
 20
-281.1200000004246
 30
0.0
 10
922.75
 20
-281.1200000004246
 30
0.0
  0
SPLINE
  5
DA0
330
CB5
100
AcDbEntity
  8
Visible (ISO)
100
AcDbSpline
210
0.0
220
0.0
230
1.0
 70
     8
 71
     3
 72
     8
 73
     4
 74
     0
 42
0.0000000001
 43
0.0000000001
 40
0.0
 40
0.0
 40
0.0
 40
0.0
 40
0.0454979855665535
 40
0.0454979855665535
 40
0.0454979855665535
 40
0.0454979855665535
 10
903.5040944769344
 20
-272.520699463465
 30
0.0
 10
903.5040944769344
 20
-272.6723594153532
 30
0.0
 10
903.4839486673464
 20
-272.8202876663704
 30
0.0
 10
903.4420860003837
 20
-272.9636958409515
 30
0.0
  0
SPLINE
  5
DA1
330
CB5
100
AcDbEntity
  8
Visible (ISO)
100
AcDbSpline
210
0.0
220
0.0
230
1.0
 70
     8
 71
     3
 72
    10
 73
     6
 74
     0
 42
0.0000000001
 43
0.0000000001
 40
3.345763720790682
 40
3.345763720790682
 40
3.345763720790682
 40
3.345763720790682
 40
3.41658455244547
 40
3.41658455244547
 40
3.455558814572071
 40
3.455558814572071
 40
3.455558814572071
 40
3.455558814572071
 10
903.5040944769344
 20
-271.9421580359576
 30
0.0
 10
903.5040944769344
 20
-271.8457915906265
 30
0.0
 10
903.5119153174028
 20
-271.7488020026335
 30
0.0
 10
903.5383982156444
 20
-271.5982282920458
 30
0.0
 10
903.5504574344804
 20
-271.545589767265
 30
0.0
 10
903.5651709516841
 20
-271.4937809834728
 30
0.0
  0
SPLINE
  5
DA2
330
CB5
100
AcDbEntity
  8
Visible (ISO)
100
AcDbSpline
210
0.0
220
0.0
230
1.0
 70
     8
 71
     3
 72
    16
 73
    12
 74
     0
 42
0.0000000001
 43
0.0000000001
 40
-0.8244800277368133
 40
-0.8244800277368133
 40
-0.8244800277368133
 40
-0.8244800277368133
 40
-0.6114761619028281
 40
-0.6114761619028281
 40
-0.3971847359265967
 40
-0.3971847359265967
 40
-0.1989999523293839
 40
-0.1989999523293839
 40
0.0
 40
0.0
 40
0.0010777405731066
 40
0.0010777405731066
 40
0.0010777405731066
 40
0.0010777405731066
 10
903.565170951686
 20
-271.4937809834728
 30
0.0
 10
903.758424132795
 20
-270.8133038318501
 30
0.0
 10
903.9280779427354
 20
-270.1452237350327
 30
0.0
 10
904.2026490595853
 20
-268.9034561822559
 30
0.0
 10
904.3044143964907
 20
-268.342850438366
 30
0.0
 10
904.4211528852192
 20
-267.4415660597783
 30
0.0
 10
904.4411361185884
 20
-267.0948044047559
 30
0.0
 10
904.4076848448439
 20
-266.6037265255031
 30
0.0
 10
904.3542037131246
 20
-266.4639666710441
 30
0.0
 10
904.2662035611375
 20
-266.4365284522251
 30
0.0
 10
904.2657285589458
 20
-266.4363839579337
 30
0.0
 10
904.265252577732
 20
-266.4362427685405
 30
0.0
  0
ARC
  5
DA3
330
CB5
100
AcDbEntity
  8
Visible (ISO)
100
AcDbCircle
 10
1143.750000000007
 20
-204.1200000004219
 30
0.0
 40
65.0000000000023
100
AcDbArc
 50
286.52183537985
 51
90.0
  0
SPLINE
  5
DA4
330
CB5
100
AcDbEntity
  8
Visible (ISO)
100
AcDbSpline
210
0.0
220
0.0
230
1.0
 70
     8
 71
     3
 72
    16
 73
    12
 74
     0
 42
0.0000000001
 43
0.0000000001
 40
-0.8252463373511355
 40
-0.8252463373511355
 40
-0.8252463373511355
 40
-0.8252463373511355
 40
-0.824169003339988
 40
-0.824169003339988
 40
-0.6252441211536936
 40
-0.6252441211536936
 40
-0.4271341001860791
 40
-0.4271341001860791
 40
-0.2129235128626035
 40
-0.2129235128626035
 40
0.0
 40
0.0
 40
0.0
 40
0.0
 10
1162.234747422275
 20
-266.436242768541
 30
0.0
 10
1162.23427144106
 20
-266.4363839579341
 30
0.0
 10
1162.233796438875
 20
-266.4365284522232
 30
0.0
 10
1162.14579628689
 20
-266.4639666710377
 30
0.0
 10
1162.092315155164
 20
-266.6037265254972
 30
0.0
 10
1162.058863881419
 20
-267.0948044047486
 30
0.0
 10
1162.078847114788
 20
-267.4415660597738
 30
0.0
 10
1162.195585603516
 20
-268.3428504383664
 30
0.0
 10
1162.297350940422
 20
-268.9034561822559
 30
0.0
 10
1162.571922057249
 20
-270.1452237349327
 30
0.0
 10
1162.741575867351
 20
-270.8133038317451
 30
0.0
 10
1162.934829048476
 20
-271.493780983425
 30
0.0
  0
SPLINE
  5
DA5
330
CB5
100
AcDbEntity
  8
Visible (ISO)
100
AcDbSpline
210
0.0
220
0.0
230
1.0
 70
     8
 71
     3
 72
    10
 73
     6
 74
     0
 42
0.0000000001
 43
0.0000000001
 40
9.674518611058225
 40
9.674518611058225
 40
9.674518611058225
 40
9.674518611058225
 40
9.682538589669626
 40
9.682538589669626
 40
9.777210872477436
 40
9.777210872477436
 40
9.777210872477436
 40
9.777210872477436
 10
1162.934829048485
 20
-271.493780983425
 30
0.0
 10
1162.938046751878
 20
-271.5051110615495
 30
0.0
 10
1162.941144723347
 20
-271.5165062132437
 30
0.0
 10
1162.979257661012
 20
-271.6632551390008
 30
0.0
 10
1162.995905523073
 20
-271.801715352372
 30
0.0
 10
1162.995905523073
 20
-271.9421580359576
 30
0.0
  0
LINE
  5
DA6
330
CB5
100
AcDbEntity
  8
Visible (ISO)
100
AcDbLine
 10
1143.750000000007
 20
-269.1200000004251
 30
0.0
 11
1118.479103010656
 21
-269.120000000426
 31
0.0
  0
SPLINE
  5
DA7
330
CB5
100
AcDbEntity
  8
Visible (ISO)
100
AcDbSpline
210
0.0
220
0.0
230
1.0
 70
     8
 71
     3
 72
    10
 73
     6
 74
     0
 42
0.0000000001
 43
0.0000000001
 40
-2.093159920612014
 40
-2.093159920612014
 40
-2.093159920612014
 40
-2.093159920612014
 40
-1.320932354926629
 40
-1.320932354926629
 40
-0.0000000000000019
 40
-0.0000000000000019
 40
-0.0000000000000019
 40
-0.0000000000000019
 10
1162.234747422275
 20
-266.436242768541
 30
0.0
 10
1160.035242146046
 20
-267.0886777947721
 30
0.0
 10
1157.79277449391
 20
-267.6268509004458
 30
0.0
 10
1151.644507678656
 20
-268.7593211703975
 30
0.0
 10
1147.689677968727
 20
-269.1200000004246
 30
0.0
 10
1143.750000000007
 20
-269.1200000004246
 30
0.0
  0
LINE
  5
DA8
330
CB5
100
AcDbEntity
  8
Visible (ISO)
100
AcDbLine
 10
903.5040944769516
 20
-272.5206994634759
 30
0.0
 11
903.5040944769344
 21
-271.9421580359576
 31
0.0
  0
LINE
  5
DA9
330
CB5
100
AcDbEntity
  8
Visible (ISO)
100
AcDbLine
 10
1162.995905523073
 20
-271.9421580359576
 30
0.0
 11
1162.995905523073
 21
-272.520699463465
 31
0.0
  0
LINE
  5
DAA
330
CB5
100
AcDbEntity
  8
Visible (ISO)
100
AcDbLine
 10
1223.250000000001
 20
179.9699999995619
 30
0.0
 11
1223.250000000001
 21
228.269999999563
 31
0.0
  0
ARC
  5
DAB
330
CB5
100
AcDbEntity
  8
Visible (ISO)
100
AcDbCircle
 10
1223.250000000001
 20
204.1199999995624
 30
0.0
 40
24.15000000000115
100
AcDbArc
 50
270.0
 51
90.0
  0
LINE
  5
DAC
330
CB5
100
AcDbEntity
  8
Visible (ISO)
100
AcDbLine
 10
1223.25
 20
-228.2700000004438
 30
0.0
 11
1223.25
 21
-179.9700000004436
 31
0.0
  0
ARC
  5
DAD
330
CB5
100
AcDbEntity
  8
Visible (ISO)
100
AcDbCircle
 10
1223.25
 20
-204.1200000004437
 30
0.0
 40
24.1500000000013
100
AcDbArc
 50
270.0
 51
90.0
  0
ARC
  5
DAE
330
CB5
100
AcDbEntity
  8
Visible (ISO)
100
AcDbCircle
 10
443.0
 20
-253.2700000002033
 30
0.0
 40
24.15000000000002
100
AcDbArc
 50
180.0
 51
0.0
  0
ARC
  5
DAF
330
CB5
100
AcDbEntity
  8
Visible (ISO)
100
AcDbCircle
 10
723.0
 20
-253.2700000002037
 30
0.0
 40
24.14999999999999
100
AcDbArc
 50
180.0
 51
218.2657975686587
  0
ARC
  5
DB0
330
CB5
100
AcDbEntity
  8
Visible (ISO)
100
AcDbCircle
 10
723.0
 20
253.2699999997967
 30
0.0
 40
24.15000000000005
100
AcDbArc
 50
140.132252288905
 51
180.0
  0
ARC
  5
DB1
330
CB5
100
AcDbEntity
  8
Visible (ISO)
100
AcDbCircle
 10
443.0000000000009
 20
253.2699999997976
 30
0.0
 40
24.15000000000249
100
AcDbArc
 50
0.0
 51
180.0
  0
LINE
  5
DB2
330
CB5
100
AcDbEntity
  8
Visible (ISO)
100
AcDbLine
 10
698.0
 20
-253.2700000002037
 30
0.0
 11
709.881198786983
 21
-253.2700000001973
 31
0.0
  0
LINE
  5
DB3
330
CB5
100
AcDbEntity
  8
Visible (ISO)
100
AcDbLine
 10
710.4258613505781
 20
-252.7700000001973
 30
0.0
 11
697.5
 21
-252.7700000002042
 31
0.0
  0
LINE
  5
DB4
330
CB5
100
AcDbEntity
  8
Visible (ISO)
100
AcDbLine
 10
697.5
 20
-163.7700000002041
 30
0.0
 11
748.5
 21
-163.7700000002041
 31
0.0
  0
LINE
  5
DB5
330
CB5
100
AcDbEntity
  8
Visible (ISO)
100
AcDbLine
 10
748.0000000000009
 20
-163.2700000002037
 30
0.0
 11
698.0
 21
-163.2700000002037
 31
0.0
  0
LINE
  5
DB6
330
CB5
100
AcDbEntity
  8
Visible (ISO)
100
AcDbLine
 10
698.0
 20
-253.2700000002037
 30
0.0
 11
697.5
 21
-252.7700000002042
 31
0.0
  0
LINE
  5
DB7
330
CB5
100
AcDbEntity
  8
Visible (ISO)
100
AcDbLine
 10
748.0000000000009
 20
-163.2700000002037
 30
0.0
 11
748.5
 21
-163.7700000002041
 31
0.0
  0
LINE
  5
DB8
330
CB5
100
AcDbEntity
  8
Visible (ISO)
100
AcDbLine
 10
698.0
 20
-163.2700000002037
 30
0.0
 11
697.5
 21
-163.7700000002037
 31
0.0
  0
LINE
  5
DB9
330
CB5
100
AcDbEntity
  8
Visible (ISO)
100
AcDbLine
 10
697.5
 20
-252.7700000002042
 30
0.0
 11
697.5
 21
-230.4967423444659
 31
0.0
  0
LINE
  5
DBA
330
CB5
100
AcDbEntity
  8
Visible (ISO)
100
AcDbLine
 10
697.5
 20
-190.866708509111
 30
0.0
 11
697.5
 21
-163.7700000002037
 31
0.0
  0
LINE
  5
DBB
330
CB5
100
AcDbEntity
  8
Visible (ISO)
100
AcDbLine
 10
748.5
 20
-210.8803218977178
 30
0.0
 11
748.5
 21
-163.7700000002041
 31
0.0
  0
LINE
  5
DBC
330
CB5
100
AcDbEntity
  8
Visible (ISO)
100
AcDbLine
 10
743.9546260468705
 20
-208.2700000001992
 30
0.0
 11
746.7214314027906
 21
-208.270000000201
 31
0.0
  0
LINE
  5
DBD
330
CB5
100
AcDbEntity
  8
Visible (ISO)
100
AcDbLine
 10
746.7214314027906
 20
-209.8198772206337
 30
0.0
 11
746.7214314027906
 21
-208.270000000201
 31
0.0
  0
LINE
  5
DBE
330
CB5
100
AcDbEntity
  8
Visible (ISO)
100
AcDbLine
 10
396.25
 20
-226.1200000004405
 30
0.0
 11
396.25
 21
-182.1200000004392
 31
0.0
  0
ARC
  5
DBF
330
CB5
100
AcDbEntity
  8
Visible (ISO)
100
AcDbCircle
 10
404.2500000000009
 20
-182.1200000004392
 30
0.0
 40
8.000000000000262
100
AcDbArc
 50
90.0
 51
180.0
  0
ARC
  5
DC0
330
CB5
100
AcDbEntity
  8
Visible (ISO)
100
AcDbCircle
 10
404.2500000000009
 20
-226.1200000004401
 30
0.0
 40
8.000000000000262
100
AcDbArc
 50
180.0
 51
270.0
  0
LINE
  5
DC1
330
CB5
100
AcDbEntity
  8
Visible (ISO)
100
AcDbLine
 10
417.5000000000009
 20
-234.1200000004405
 30
0.0
 11
404.2500000000009
 21
-234.1200000004405
 31
0.0
  0
LINE
  5
DC2
330
CB5
100
AcDbEntity
  8
Visible (ISO)
100
AcDbLine
 10
417.5000000000009
 20
-174.1200000004392
 30
0.0
 11
404.2500000000009
 21
-174.1200000004392
 31
0.0
  0
LINE
  5
DC3
330
CB5
100
AcDbEntity
  8
Visible (ISO)
100
AcDbLine
 10
396.2500000000018
 20
182.1199999995624
 30
0.0
 11
396.2500000000018
 21
226.1199999995633
 31
0.0
  0
ARC
  5
DC4
330
CB5
100
AcDbEntity
  8
Visible (ISO)
100
AcDbCircle
 10
404.2500000000018
 20
226.1199999995633
 30
0.0
 40
8.000000000000039
100
AcDbArc
 50
90.0
 51
180.0
  0
ARC
  5
DC5
330
CB5
100
AcDbEntity
  8
Visible (ISO)
100
AcDbCircle
 10
404.2500000000018
 20
182.1199999995624
 30
0.0
 40
8.000000000000039
100
AcDbArc
 50
180.0
 51
270.0
  0
LINE
  5
DC6
330
CB5
100
AcDbEntity
  8
Visible (ISO)
100
AcDbLine
 10
417.5000000000018
 20
174.1199999995624
 30
0.0
 11
404.2500000000018
 21
174.1199999995624
 31
0.0
  0
LINE
  5
DC7
330
CB5
100
AcDbEntity
  8
Visible (ISO)
100
AcDbLine
 10
417.5000000000009
 20
234.1199999995633
 30
0.0
 11
404.2500000000018
 21
234.1199999995633
 31
0.0
  0
LINE
  5
DC8
330
CB5
100
AcDbEntity
  8
Visible (ISO)
100
AcDbLine
 10
763.0
 20
38.04999999981919
 30
0.0
 11
763.0
 21
-38.05000000018117
 31
0.0
  0
LINE
  5
DC9
330
CB5
100
AcDbEntity
  8
Visible (ISO)
100
AcDbLine
 10
763.0
 20
-38.05000000018026
 30
0.0
 11
76.00000000000091
 21
-38.05000000017935
 31
0.0
  0
LINE
  5
DCA
330
CB5
100
AcDbEntity
  8
Visible (ISO)
100
AcDbLine
 10
763.0
 20
38.04999999981919
 30
0.0
 11
76.00000000000091
 21
38.0499999998201
 31
0.0
  0
LINE
  5
DCB
330
CB5
100
AcDbEntity
  8
Visible (ISO)
100
AcDbLine
 10
685.5000000000009
 20
-158.0000000002037
 30
0.0
 11
760.5
 21
-158.0000000002037
 31
0.0
  0
LINE
  5
DCC
330
CB5
100
AcDbEntity
  8
Visible (ISO)
100
AcDbLine
 10
760.5
 20
-155.0000000002037
 30
0.0
 11
760.5
 21
-158.0000000002037
 31
0.0
  0
LINE
  5
DCD
330
CB5
100
AcDbEntity
  8
Visible (ISO)
100
AcDbLine
 10
685.5000000000009
 20
-155.0000000002033
 30
0.0
 11
685.5000000000009
 21
-158.0000000002037
 31
0.0
  0
LINE
  5
DCE
330
CB5
100
AcDbEntity
  8
Visible (ISO)
100
AcDbLine
 10
735.5
 20
-158.0000000002037
 30
0.0
 11
735.5
 21
-163.2700000002037
 31
0.0
  0
LINE
  5
DCF
330
CB5
100
AcDbEntity
  8
Visible (ISO)
100
AcDbLine
 10
710.5
 20
-158.0000000002037
 30
0.0
 11
710.5
 21
-163.2700000002037
 31
0.0
  0
LINE
  5
DD0
330
CB5
100
AcDbEntity
  8
Visible (ISO)
100
AcDbLine
 10
760.5
 20
157.9999999997963
 30
0.0
 11
685.5000000000009
 21
157.9999999997963
 31
0.0
  0
LINE
  5
DD1
330
CB5
100
AcDbEntity
  8
Visible (ISO)
100
AcDbLine
 10
685.5000000000009
 20
154.9999999997963
 30
0.0
 11
685.5000000000009
 21
157.9999999997963
 31
0.0
  0
LINE
  5
DD2
330
CB5
100
AcDbEntity
  8
Visible (ISO)
100
AcDbLine
 10
760.5
 20
154.9999999997963
 30
0.0
 11
760.5
 21
157.9999999997963
 31
0.0
  0
LINE
  5
DD3
330
CB5
100
AcDbEntity
  8
Visible (ISO)
100
AcDbLine
 10
710.5
 20
157.9999999997963
 30
0.0
 11
710.5
 21
163.2699999997967
 31
0.0
  0
LINE
  5
DD4
330
CB5
100
AcDbEntity
  8
Visible (ISO)
100
AcDbLine
 10
735.5
 20
157.9999999997963
 30
0.0
 11
735.5
 21
163.2699999997967
 31
0.0
  0
LINE
  5
DD5
330
CB5
100
AcDbEntity
  8
Visible (ISO)
100
AcDbLine
 10
405.5000000000009
 20
-158.0000000002032
 30
0.0
 11
480.5000000000009
 21
-158.0000000002032
 31
0.0
  0
LINE
  5
DD6
330
CB5
100
AcDbEntity
  8
Visible (ISO)
100
AcDbLine
 10
480.5000000000009
 20
-155.0000000002033
 30
0.0
 11
480.5000000000009
 21
-158.0000000002032
 31
0.0
  0
LINE
  5
DD7
330
CB5
100
AcDbEntity
  8
Visible (ISO)
100
AcDbLine
 10
405.4999999999999
 20
-155.0000000002028
 30
0.0
 11
405.4999999999999
 21
-158.0000000002032
 31
0.0
  0
LINE
  5
DD8
330
CB5
100
AcDbEntity
  8
Visible (ISO)
100
AcDbLine
 10
455.5000000000009
 20
-158.0000000002032
 30
0.0
 11
455.5000000000009
 21
-163.2700000002032
 31
0.0
  0
LINE
  5
DD9
330
CB5
100
AcDbEntity
  8
Visible (ISO)
100
AcDbLine
 10
430.5000000000009
 20
-158.0000000002032
 30
0.0
 11
430.5000000000009
 21
-163.2700000002032
 31
0.0
  0
LINE
  5
DDA
330
CB5
100
AcDbEntity
  8
Visible (ISO)
100
AcDbLine
 10
480.5000000000009
 20
157.9999999997972
 30
0.0
 11
405.5000000000009
 21
157.9999999997972
 31
0.0
  0
LINE
  5
DDB
330
CB5
100
AcDbEntity
  8
Visible (ISO)
100
AcDbLine
 10
405.5000000000009
 20
154.9999999997972
 30
0.0
 11
405.5000000000009
 21
157.9999999997972
 31
0.0
  0
LINE
  5
DDC
330
CB5
100
AcDbEntity
  8
Visible (ISO)
100
AcDbLine
 10
480.5000000000009
 20
154.9999999997972
 30
0.0
 11
480.5000000000009
 21
157.9999999997972
 31
0.0
  0
LINE
  5
DDD
330
CB5
100
AcDbEntity
  8
Visible (ISO)
100
AcDbLine
 10
430.5000000000009
 20
157.9999999997972
 30
0.0
 11
430.5000000000009
 21
163.2699999997976
 31
0.0
  0
LINE
  5
DDE
330
CB5
100
AcDbEntity
  8
Visible (ISO)
100
AcDbLine
 10
455.5000000000009
 20
157.9999999997972
 30
0.0
 11
455.5000000000009
 21
163.2699999997976
 31
0.0
  0
LINE
  5
DDF
330
CB5
100
AcDbEntity
  8
Visible (ISO)
100
AcDbLine
 10
684.9499999999998
 20
154.9999999997972
 30
0.0
 11
761.0500000000001
 21
154.9999999997972
 31
0.0
  0
LINE
  5
DE0
330
CB5
100
AcDbEntity
  8
Visible (ISO)
100
AcDbLine
 10
761.0500000000001
 20
-155.0000000002033
 30
0.0
 11
684.9499999999998
 21
-155.0000000002033
 31
0.0
  0
LINE
  5
DE1
330
CB5
100
AcDbEntity
  8
Visible (ISO)
100
AcDbLine
 10
761.0500000000001
 20
154.9999999997972
 30
0.0
 11
761.0500000000001
 21
38.04999999979737
 31
0.0
  0
LINE
  5
DE2
330
CB5
100
AcDbEntity
  8
Visible (ISO)
100
AcDbLine
 10
761.0500000000001
 20
-38.05000000020346
 30
0.0
 11
761.0500000000001
 21
-155.0000000002033
 31
0.0
  0
LINE
  5
DE3
330
CB5
100
AcDbEntity
  8
Visible (ISO)
100
AcDbLine
 10
684.9499999999998
 20
154.9999999997972
 30
0.0
 11
684.9499999999998
 21
38.04999999979737
 31
0.0
  0
LINE
  5
DE4
330
CB5
100
AcDbEntity
  8
Visible (ISO)
100
AcDbLine
 10
684.9499999999998
 20
-38.05000000020346
 30
0.0
 11
684.9499999999998
 21
-155.0000000002033
 31
0.0
  0
LINE
  5
DE5
330
CB5
100
AcDbEntity
  8
Visible (ISO)
100
AcDbLine
 10
404.9500000000007
 20
154.9999999997972
 30
0.0
 11
481.050000000001
 21
154.9999999997972
 31
0.0
  0
LINE
  5
DE6
330
CB5
100
AcDbEntity
  8
Visible (ISO)
100
AcDbLine
 10
481.050000000001
 20
-155.0000000002033
 30
0.0
 11
404.9500000000007
 21
-155.0000000002033
 31
0.0
  0
LINE
  5
DE7
330
CB5
100
AcDbEntity
  8
Visible (ISO)
100
AcDbLine
 10
481.050000000001
 20
154.9999999997972
 30
0.0
 11
481.050000000001
 21
38.04999999979737
 31
0.0
  0
LINE
  5
DE8
330
CB5
100
AcDbEntity
  8
Visible (ISO)
100
AcDbLine
 10
481.050000000001
 20
-38.05000000020346
 30
0.0
 11
481.050000000001
 21
-155.0000000002033
 31
0.0
  0
LINE
  5
DE9
330
CB5
100
AcDbEntity
  8
Visible (ISO)
100
AcDbLine
 10
404.9500000000007
 20
154.9999999997972
 30
0.0
 11
404.9500000000007
 21
38.04999999979737
 31
0.0
  0
LINE
  5
DEA
330
CB5
100
AcDbEntity
  8
Visible (ISO)
100
AcDbLine
 10
404.9500000000007
 20
-38.05000000020346
 30
0.0
 11
404.9500000000007
 21
-155.0000000002033
 31
0.0
  0
LINE
  5
DEB
330
CB5
100
AcDbEntity
  8
Visible (ISO)
100
AcDbLine
 10
753.2737510064426
 20
38.2106857698127
 30
0.0
 11
753.2737510064426
 21
38.04999999981646
 31
0.0
  0
LINE
  5
DEC
330
CB5
100
AcDbEntity
  8
Visible (ISO)
100
AcDbLine
 10
758.2737510064426
 20
38.04999999981646
 30
0.0
 11
758.2737510064426
 21
43.82536211719343
 31
0.0
  0
LINE
  5
DED
330
CB5
100
AcDbEntity
  8
Visible (ISO)
100
AcDbLine
 10
758.2737510064426
 20
87.94228562547051
 30
0.0
 11
758.2737510064426
 21
89.99999999980536
 31
0.0
  0
LINE
  5
DEE
330
CB5
100
AcDbEntity
  8
Visible (ISO)
100
AcDbLine
 10
753.2737510064426
 20
89.99999999980536
 30
0.0
 11
758.2737510064426
 21
89.99999999980536
 31
0.0
  0
LINE
  5
DEF
330
CB5
100
AcDbEntity
  8
Visible (ISO)
100
AcDbLine
 10
758.2737510064426
 20
87.94228562547051
 30
0.0
 11
758.2737510064426
 21
43.82536211719252
 31
0.0
  0
LINE
  5
DF0
330
CB5
100
AcDbEntity
  8
Visible (ISO)
100
AcDbLine
 10
753.2737510064426
 20
43.82536211719252
 30
0.0
 11
753.2737510064426
 21
87.94228562547051
 31
0.0
  0
LINE
  5
DF1
330
CB5
100
AcDbEntity
  8
Visible (ISO)
100
AcDbLine
 10
753.2737510064416
 20
-38.21068577018105
 30
0.0
 11
753.2737510064416
 21
-38.0500000001839
 31
0.0
  0
LINE
  5
DF2
330
CB5
100
AcDbEntity
  8
Visible (ISO)
100
AcDbLine
 10
758.2737510064417
 20
-38.0500000001839
 30
0.0
 11
758.2737510064417
 21
-43.82536211756087
 31
0.0
  0
LINE
  5
DF3
330
CB5
100
AcDbEntity
  8
Visible (ISO)
100
AcDbLine
 10
758.2737510064417
 20
-87.94228562585795
 30
0.0
 11
758.2737510064417
 21
-90.00000000019509
 31
0.0
  0
LINE
  5
DF4
330
CB5
100
AcDbEntity
  8
Visible (ISO)
100
AcDbLine
 10
753.2737510064416
 20
-90.00000000019509
 30
0.0
 11
758.2737510064417
 21
-90.00000000019509
 31
0.0
  0
LINE
  5
DF5
330
CB5
100
AcDbEntity
  8
Visible (ISO)
100
AcDbLine
 10
758.2737510064417
 20
-87.94228562585795
 30
0.0
 11
758.2737510064417
 21
-43.82536211756087
 31
0.0
  0
LINE
  5
DF6
330
CB5
100
AcDbEntity
  8
Visible (ISO)
100
AcDbLine
 10
753.2737510064416
 20
-43.82536211756087
 30
0.0
 11
753.2737510064416
 21
-87.94228562585795
 31
0.0
  0
LINE
  5
DF7
330
CB5
100
AcDbEntity
  8
Visible (ISO)
100
AcDbLine
 10
687.7262489935592
 20
43.82536211719343
 30
0.0
 11
687.7262489935592
 21
38.04999999981646
 31
0.0
  0
LINE
  5
DF8
330
CB5
100
AcDbEntity
  8
Visible (ISO)
100
AcDbLine
 10
692.7262489935592
 20
38.04999999981646
 30
0.0
 11
692.7262489935592
 21
38.2106857698127
 31
0.0
  0
LINE
  5
DF9
330
CB5
100
AcDbEntity
  8
Visible (ISO)
100
AcDbLine
 10
687.7262489935592
 20
89.99999999980536
 30
0.0
 11
692.7262489935592
 21
89.99999999980536
 31
0.0
  0
LINE
  5
DFA
330
CB5
100
AcDbEntity
  8
Visible (ISO)
100
AcDbLine
 10
687.7262489935592
 20
89.99999999980536
 30
0.0
 11
687.7262489935592
 21
87.94228562547141
 31
0.0
  0
LINE
  5
DFB
330
CB5
100
AcDbEntity
  8
Visible (ISO)
100
AcDbLine
 10
692.7262489935592
 20
87.94228562547051
 30
0.0
 11
692.7262489935592
 21
43.82536211719252
 31
0.0
  0
LINE
  5
DFC
330
CB5
100
AcDbEntity
  8
Visible (ISO)
100
AcDbLine
 10
687.7262489935592
 20
43.82536211719252
 30
0.0
 11
687.7262489935592
 21
87.94228562547051
 31
0.0
  0
LINE
  5
DFD
330
CB5
100
AcDbEntity
  8
Visible (ISO)
100
AcDbLine
 10
687.7262489935583
 20
-43.82536211756087
 30
0.0
 11
687.7262489935583
 21
-38.0500000001839
 31
0.0
  0
LINE
  5
DFE
330
CB5
100
AcDbEntity
  8
Visible (ISO)
100
AcDbLine
 10
692.7262489935583
 20
-38.0500000001839
 30
0.0
 11
692.7262489935583
 21
-38.21068577018105
 31
0.0
  0
LINE
  5
DFF
330
CB5
100
AcDbEntity
  8
Visible (ISO)
100
AcDbLine
 10
687.7262489935583
 20
-90.00000000019509
 30
0.0
 11
687.7262489935583
 21
-87.94228562585795
 31
0.0
  0
LINE
  5
E00
330
CB5
100
AcDbEntity
  8
Visible (ISO)
100
AcDbLine
 10
687.7262489935583
 20
-90.00000000019509
 30
0.0
 11
692.7262489935583
 21
-90.00000000019509
 31
0.0
  0
LINE
  5
E01
330
CB5
100
AcDbEntity
  8
Visible (ISO)
100
AcDbLine
 10
692.7262489935583
 20
-87.94228562585795
 30
0.0
 11
692.7262489935583
 21
-43.82536211756087
 31
0.0
  0
LINE
  5
E02
330
CB5
100
AcDbEntity
  8
Visible (ISO)
100
AcDbLine
 10
687.7262489935583
 20
-43.82536211756087
 30
0.0
 11
687.7262489935583
 21
-87.94228562585795
 31
0.0
  0
LINE
  5
E03
330
CB5
100
AcDbEntity
  8
Visible (ISO)
100
AcDbLine
 10
473.2737510064416
 20
38.21068576981361
 30
0.0
 11
473.2737510064416
 21
38.04999999981737
 31
0.0
  0
LINE
  5
E04
330
CB5
100
AcDbEntity
  8
Visible (ISO)
100
AcDbLine
 10
478.2737510064416
 20
38.04999999981737
 30
0.0
 11
478.2737510064416
 21
43.82536211719434
 31
0.0
  0
LINE
  5
E05
330
CB5
100
AcDbEntity
  8
Visible (ISO)
100
AcDbLine
 10
478.2737510064416
 20
87.94228562547141
 30
0.0
 11
478.2737510064416
 21
89.99999999980628
 31
0.0
  0
LINE
  5
E06
330
CB5
100
AcDbEntity
  8
Visible (ISO)
100
AcDbLine
 10
473.2737510064416
 20
89.99999999980628
 30
0.0
 11
478.2737510064416
 21
89.99999999980628
 31
0.0
  0
LINE
  5
E07
330
CB5
100
AcDbEntity
  8
Visible (ISO)
100
AcDbLine
 10
478.2737510064416
 20
87.94228562547141
 30
0.0
 11
478.2737510064416
 21
43.82536211719343
 31
0.0
  0
LINE
  5
E08
330
CB5
100
AcDbEntity
  8
Visible (ISO)
100
AcDbLine
 10
473.2737510064416
 20
43.82536211719343
 30
0.0
 11
473.2737510064416
 21
87.94228562547141
 31
0.0
  0
LINE
  5
E09
330
CB5
100
AcDbEntity
  8
Visible (ISO)
100
AcDbLine
 10
473.2737510064416
 20
-38.21068577018014
 30
0.0
 11
473.2737510064416
 21
-38.05000000018299
 31
0.0
  0
LINE
  5
E0A
330
CB5
100
AcDbEntity
  8
Visible (ISO)
100
AcDbLine
 10
478.2737510064407
 20
-38.05000000018299
 30
0.0
 11
478.2737510064407
 21
-43.82536211755996
 31
0.0
  0
LINE
  5
E0B
330
CB5
100
AcDbEntity
  8
Visible (ISO)
100
AcDbLine
 10
478.2737510064407
 20
-87.94228562585704
 30
0.0
 11
478.2737510064407
 21
-90.00000000019417
 31
0.0
  0
LINE
  5
E0C
330
CB5
100
AcDbEntity
  8
Visible (ISO)
100
AcDbLine
 10
473.2737510064416
 20
-90.00000000019417
 30
0.0
 11
478.2737510064407
 21
-90.00000000019417
 31
0.0
  0
LINE
  5
E0D
330
CB5
100
AcDbEntity
  8
Visible (ISO)
100
AcDbLine
 10
478.2737510064407
 20
-87.94228562585704
 30
0.0
 11
478.2737510064407
 21
-43.82536211755996
 31
0.0
  0
LINE
  5
E0E
330
CB5
100
AcDbEntity
  8
Visible (ISO)
100
AcDbLine
 10
473.2737510064416
 20
-43.82536211755996
 30
0.0
 11
473.2737510064416
 21
-87.94228562585704
 31
0.0
  0
LINE
  5
E0F
330
CB5
100
AcDbEntity
  8
Visible (ISO)
100
AcDbLine
 10
407.7262489935601
 20
43.82536211719434
 30
0.0
 11
407.7262489935601
 21
38.04999999981737
 31
0.0
  0
LINE
  5
E10
330
CB5
100
AcDbEntity
  8
Visible (ISO)
100
AcDbLine
 10
412.7262489935592
 20
38.04999999981737
 30
0.0
 11
412.7262489935592
 21
38.21068576981452
 31
0.0
  0
LINE
  5
E11
330
CB5
100
AcDbEntity
  8
Visible (ISO)
100
AcDbLine
 10
407.7262489935601
 20
89.99999999980628
 30
0.0
 11
412.7262489935592
 21
89.99999999980628
 31
0.0
  0
LINE
  5
E12
330
CB5
100
AcDbEntity
  8
Visible (ISO)
100
AcDbLine
 10
407.7262489935601
 20
89.99999999980628
 30
0.0
 11
407.7262489935601
 21
87.94228562547141
 31
0.0
  0
LINE
  5
E13
330
CB5
100
AcDbEntity
  8
Visible (ISO)
100
AcDbLine
 10
412.7262489935592
 20
87.94228562547141
 30
0.0
 11
412.7262489935592
 21
43.82536211719343
 31
0.0
  0
LINE
  5
E14
330
CB5
100
AcDbEntity
  8
Visible (ISO)
100
AcDbLine
 10
407.7262489935601
 20
43.82536211719343
 30
0.0
 11
407.7262489935601
 21
87.94228562547141
 31
0.0
  0
LINE
  5
E15
330
CB5
100
AcDbEntity
  8
Visible (ISO)
100
AcDbLine
 10
407.7262489935592
 20
-43.82536211755996
 30
0.0
 11
407.7262489935592
 21
-38.05000000018299
 31
0.0
  0
LINE
  5
E16
330
CB5
100
AcDbEntity
  8
Visible (ISO)
100
AcDbLine
 10
412.7262489935583
 20
-38.05000000018299
 30
0.0
 11
412.7262489935583
 21
-38.21068577018014
 31
0.0
  0
LINE
  5
E17
330
CB5
100
AcDbEntity
  8
Visible (ISO)
100
AcDbLine
 10
407.7262489935592
 20
-90.00000000019417
 30
0.0
 11
407.7262489935592
 21
-87.94228562585704
 31
0.0
  0
LINE
  5
E18
330
CB5
100
AcDbEntity
  8
Visible (ISO)
100
AcDbLine
 10
407.7262489935592
 20
-90.00000000019417
 30
0.0
 11
412.7262489935583
 21
-90.00000000019417
 31
0.0
  0
LINE
  5
E19
330
CB5
100
AcDbEntity
  8
Visible (ISO)
100
AcDbLine
 10
412.7262489935583
 20
-87.94228562585704
 30
0.0
 11
412.7262489935583
 21
-43.82536211755996
 31
0.0
  0
LINE
  5
E1A
330
CB5
100
AcDbEntity
  8
Visible (ISO)
100
AcDbLine
 10
407.7262489935592
 20
-43.82536211755996
 30
0.0
 11
407.7262489935592
 21
-87.94228562585704
 31
0.0
  0
ELLIPSE
  5
E1B
330
CB5
100
AcDbEntity
  8
Visible (ISO)
100
AcDbEllipse
 10
723.0
 20
-132.0773387035569
 30
0.0
 11
0.0000000000000668
 21
52.27994565222448
 31
0.0
210
0.0
220
0.0
230
1.0
 40
0.7278125393074308
 41
5.609752365906156
 42
6.956618248453019
  0
LINE
  5
E1C
330
CB5
100
AcDbEntity
  8
Visible (ISO)
100
AcDbLine
 10
692.7262489935592
 20
-91.21087668526024
 30
0.0
 11
699.2692371631701
 21
-91.21087668526024
 31
0.0
  0
LINE
  5
E1D
330
CB5
100
AcDbEntity
  8
Visible (ISO)
100
AcDbLine
 10
746.7307628368307
 20
-91.21087668526024
 30
0.0
 11
753.2737510064416
 21
-91.21087668526024
 31
0.0
  0
LINE
  5
E1E
330
CB5
100
AcDbEntity
  8
Visible (ISO)
100
AcDbLine
 10
753.2737510064416
 20
-91.21087668526024
 30
0.0
 11
753.2737510064416
 21
-39.97605714557812
 31
0.0
  0
LINE
  5
E1F
330
CB5
100
AcDbEntity
  8
Visible (ISO)
100
AcDbLine
 10
753.2737510064426
 20
-39.97605714557812
 30
0.0
 11
692.7262489935592
 21
-39.97605714557812
 31
0.0
  0
LINE
  5
E20
330
CB5
100
AcDbEntity
  8
Visible (ISO)
100
AcDbLine
 10
692.7262489935592
 20
-39.97605714557812
 30
0.0
 11
692.7262489935592
 21
-91.21087668526024
 31
0.0
  0
LINE
  5
E21
330
CB5
100
AcDbEntity
  8
Visible (ISO)
100
AcDbLine
 10
753.2737510064426
 20
-39.97605714557812
 30
0.0
 11
753.2737510064426
 21
-38.21068577018105
 31
0.0
  0
LINE
  5
E22
330
CB5
100
AcDbEntity
  8
Visible (ISO)
100
AcDbLine
 10
753.2737510064426
 20
-38.21068577018014
 30
0.0
 11
692.7262489935592
 21
-38.21068577018014
 31
0.0
  0
LINE
  5
E23
330
CB5
100
AcDbEntity
  8
Visible (ISO)
100
AcDbLine
 10
692.7262489935592
 20
-39.97605714557812
 30
0.0
 11
692.7262489935592
 21
-38.21068577018105
 31
0.0
  0
ELLIPSE
  5
E24
330
CB5
100
AcDbEntity
  8
Visible (ISO)
100
AcDbEllipse
 10
723.0000000000009
 20
132.0773387031513
 30
0.0
 11
-0.0000000000000731
 21
-52.27994565220193
 31
0.0
210
0.0
220
0.0
230
1.0
 40
0.7278125393077448
 41
5.609752365906159
 42
6.956618248453025
  0
LINE
  5
E25
330
CB5
100
AcDbEntity
  8
Visible (ISO)
100
AcDbLine
 10
753.2737510064426
 20
91.21087668487234
 30
0.0
 11
746.7307628368307
 21
91.21087668487234
 31
0.0
  0
LINE
  5
E26
330
CB5
100
AcDbEntity
  8
Visible (ISO)
100
AcDbLine
 10
699.2692371631701
 20
91.21087668487234
 30
0.0
 11
692.7262489935601
 21
91.21087668487234
 31
0.0
  0
LINE
  5
E27
330
CB5
100
AcDbEntity
  8
Visible (ISO)
100
AcDbLine
 10
692.7262489935601
 20
91.21087668487234
 30
0.0
 11
692.7262489935592
 21
39.97605714521342
 31
0.0
  0
LINE
  5
E28
330
CB5
100
AcDbEntity
  8
Visible (ISO)
100
AcDbLine
 10
692.7262489935592
 20
39.97605714521342
 30
0.0
 11
753.2737510064426
 21
39.97605714521251
 31
0.0
  0
LINE
  5
E29
330
CB5
100
AcDbEntity
  8
Visible (ISO)
100
AcDbLine
 10
753.2737510064426
 20
39.97605714521251
 30
0.0
 11
753.2737510064426
 21
91.21087668487234
 31
0.0
  0
LINE
  5
E2A
330
CB5
100
AcDbEntity
  8
Visible (ISO)
100
AcDbLine
 10
692.7262489935592
 20
39.97605714521342
 30
0.0
 11
692.7262489935592
 21
38.21068576981361
 31
0.0
  0
LINE
  5
E2B
330
CB5
100
AcDbEntity
  8
Visible (ISO)
100
AcDbLine
 10
692.7262489935592
 20
38.21068576981361
 30
0.0
 11
753.2737510064426
 21
38.21068576981361
 31
0.0
  0
LINE
  5
E2C
330
CB5
100
AcDbEntity
  8
Visible (ISO)
100
AcDbLine
 10
753.2737510064426
 20
39.97605714521251
 30
0.0
 11
753.2737510064426
 21
38.21068576981361
 31
0.0
  0
ELLIPSE
  5
E2D
330
CB5
100
AcDbEntity
  8
Visible (ISO)
100
AcDbEllipse
 10
443.0
 20
-132.077338703556
 30
0.0
 11
0.0000000000000668
 21
52.27994565222448
 31
0.0
210
0.0
220
0.0
230
1.0
 40
0.7278125393074308
 41
5.609752365906156
 42
6.956618248453019
  0
LINE
  5
E2E
330
CB5
100
AcDbEntity
  8
Visible (ISO)
100
AcDbLine
 10
412.7262489935583
 20
-91.21087668525978
 30
0.0
 11
419.2692371631701
 21
-91.21087668525978
 31
0.0
  0
LINE
  5
E2F
330
CB5
100
AcDbEntity
  8
Visible (ISO)
100
AcDbLine
 10
466.7307628368307
 20
-91.21087668525978
 30
0.0
 11
473.2737510064416
 21
-91.21087668525978
 31
0.0
  0
LINE
  5
E30
330
CB5
100
AcDbEntity
  8
Visible (ISO)
100
AcDbLine
 10
473.2737510064416
 20
-91.21087668525978
 30
0.0
 11
473.2737510064416
 21
-39.97605714557812
 31
0.0
  0
LINE
  5
E31
330
CB5
100
AcDbEntity
  8
Visible (ISO)
100
AcDbLine
 10
473.2737510064416
 20
-39.97605714557812
 30
0.0
 11
412.7262489935583
 21
-39.97605714557721
 31
0.0
  0
LINE
  5
E32
330
CB5
100
AcDbEntity
  8
Visible (ISO)
100
AcDbLine
 10
412.7262489935583
 20
-39.97605714557721
 30
0.0
 11
412.7262489935583
 21
-91.21087668525978
 31
0.0
  0
LINE
  5
E33
330
CB5
100
AcDbEntity
  8
Visible (ISO)
100
AcDbLine
 10
473.2737510064416
 20
-39.97605714557812
 30
0.0
 11
473.2737510064416
 21
-38.21068577018014
 31
0.0
  0
LINE
  5
E34
330
CB5
100
AcDbEntity
  8
Visible (ISO)
100
AcDbLine
 10
473.2737510064416
 20
-38.21068577018014
 30
0.0
 11
412.7262489935583
 21
-38.21068577018014
 31
0.0
  0
LINE
  5
E35
330
CB5
100
AcDbEntity
  8
Visible (ISO)
100
AcDbLine
 10
412.7262489935583
 20
-39.97605714557721
 30
0.0
 11
412.7262489935583
 21
-38.21068577018014
 31
0.0
  0
ELLIPSE
  5
E36
330
CB5
100
AcDbEntity
  8
Visible (ISO)
100
AcDbEllipse
 10
443.0000000000009
 20
132.0773387031513
 30
0.0
 11
-0.0000000000000731
 21
-52.27994565220193
 31
0.0
210
0.0
220
0.0
230
1.0
 40
0.7278125393077448
 41
5.609752365906159
 42
6.956618248453025
  0
LINE
  5
E37
330
CB5
100
AcDbEntity
  8
Visible (ISO)
100
AcDbLine
 10
473.2737510064416
 20
91.21087668487234
 30
0.0
 11
466.7307628368307
 21
91.21087668487234
 31
0.0
  0
LINE
  5
E38
330
CB5
100
AcDbEntity
  8
Visible (ISO)
100
AcDbLine
 10
419.2692371631701
 20
91.21087668487234
 30
0.0
 11
412.7262489935592
 21
91.21087668487234
 31
0.0
  0
LINE
  5
E39
330
CB5
100
AcDbEntity
  8
Visible (ISO)
100
AcDbLine
 10
412.7262489935592
 20
91.21087668487234
 30
0.0
 11
412.7262489935583
 21
39.97605714521251
 31
0.0
  0
LINE
  5
E3A
330
CB5
100
AcDbEntity
  8
Visible (ISO)
100
AcDbLine
 10
412.7262489935583
 20
39.97605714521251
 30
0.0
 11
473.2737510064416
 21
39.97605714521251
 31
0.0
  0
LINE
  5
E3B
330
CB5
100
AcDbEntity
  8
Visible (ISO)
100
AcDbLine
 10
473.2737510064416
 20
39.97605714521251
 30
0.0
 11
473.2737510064416
 21
91.21087668487234
 31
0.0
  0
LINE
  5
E3C
330
CB5
100
AcDbEntity
  8
Visible (ISO)
100
AcDbLine
 10
412.7262489935583
 20
39.97605714521251
 30
0.0
 11
412.7262489935583
 21
38.21068576981361
 31
0.0
  0
LINE
  5
E3D
330
CB5
100
AcDbEntity
  8
Visible (ISO)
100
AcDbLine
 10
412.7262489935583
 20
38.21068576981361
 30
0.0
 11
473.2737510064416
 21
38.21068576981361
 31
0.0
  0
LINE
  5
E3E
330
CB5
100
AcDbEntity
  8
Visible (ISO)
100
AcDbLine
 10
473.2737510064416
 20
39.97605714521251
 30
0.0
 11
473.2737510064416
 21
38.21068576981361
 31
0.0
  0
LINE
  5
E3F
330
CB5
100
AcDbEntity
  8
Visible (ISO)
100
AcDbLine
 10
763.0
 20
-38.05000000018117
 30
0.0
 11
763.0
 21
38.04999999981919
 31
0.0
  0
ARC
  5
E40
330
CB5
100
AcDbEntity
  8
Visible (ISO)
100
AcDbCircle
 10
763.0
 20
-0.0000000001809894
 30
0.0
 40
38.05000000000002
100
AcDbArc
 50
270.0
 51
90.0
  0
LINE
  5
E41
330
CB5
100
AcDbEntity
  8
Visible (ISO)
100
AcDbLine
 10
101.0
 20
-160.0000000004061
 30
0.0
 11
76.00000000000091
 21
-160.0000000004093
 31
0.0
  0
LINE
  5
E42
330
CB5
100
AcDbEntity
  8
Visible (ISO)
100
AcDbLine
 10
76.00000000000182
 20
-155.0000000004097
 30
0.0
 11
101.0000000000009
 21
-155.0000000004065
 31
0.0
  0
LINE
  5
E43
330
CB5
100
AcDbEntity
  8
Visible (ISO)
100
AcDbLine
 10
101.0000000000009
 20
-160.0000000004065
 30
0.0
 11
106.0000000000009
 21
-160.0000000004065
 31
0.0
  0
LINE
  5
E44
330
CB5
100
AcDbEntity
  8
Visible (ISO)
100
AcDbLine
 10
101.0000000000009
 20
-155.0000000004061
 30
0.0
 11
106.0000000000009
 21
-155.0000000004061
 31
0.0
  0
SPLINE
  5
E45
330
CB5
100
AcDbEntity
  8
Visible (ISO)
100
AcDbSpline
210
0.0
220
0.0
230
1.0
 70
     8
 71
     3
 72
     8
 73
     4
 74
     0
 42
0.0000000001
 43
0.0000000001
 40
0.0
 40
0.0
 40
0.0
 40
0.0
 40
1.0
 40
1.0
 40
1.0
 40
1.0
 10
106.0000000000009
 20
-154.9175020776083
 30
0.0
 10
104.3333333333339
 20
-154.4987384957626
 30
0.0
 10
102.6666666666669
 20
-152.3148148152627
 30
0.0
 10
101.0000000000009
 20
-150.0000000004479
 30
0.0
  0
LINE
  5
E46
330
CB5
100
AcDbEntity
  8
Visible (ISO)
100
AcDbLine
 10
101.0000000000009
 20
-150.0000000004479
 30
0.0
 11
76.00000000000091
 21
-100.0000000004479
 31
0.0
  0
LINE
  5
E47
330
CB5
100
AcDbEntity
  8
Visible (ISO)
100
AcDbLine
 10
106.0000000000009
 20
-154.9175020776079
 30
0.0
 11
106.0000000000009
 21
-155.0000000004465
 31
0.0
  0
LINE
  5
E48
330
CB5
100
AcDbEntity
  8
Visible (ISO)
100
AcDbLine
 10
111.0000000000009
 20
-248.0000000004211
 30
0.0
 11
111.0000000000009
 21
-198.0000000004061
 31
0.0
  0
LINE
  5
E49
330
CB5
100
AcDbEntity
  8
Visible (ISO)
100
AcDbLine
 10
116.0000000000009
 20
-198.0000000004065
 30
0.0
 11
116.0000000000009
 21
-248.0000000004211
 31
0.0
  0
LINE
  5
E4A
330
CB5
100
AcDbEntity
  8
Visible (ISO)
100
AcDbLine
 10
111.0000000000009
 20
-248.0000000004211
 30
0.0
 11
116.0000000000009
 21
-248.0000000004211
 31
0.0
  0
LINE
  5
E4B
330
CB5
100
AcDbEntity
  8
Visible (ISO)
100
AcDbLine
 10
116.0000000000009
 20
-165.0000000004061
 30
0.0
 11
116.0000000000009
 21
-198.0000000004061
 31
0.0
  0
LINE
  5
E4C
330
CB5
100
AcDbEntity
  8
Visible (ISO)
100
AcDbLine
 10
111.0000000000009
 20
-165.0000000004061
 30
0.0
 11
111.0000000000009
 21
-198.0000000004061
 31
0.0
  0
ARC
  5
E4D
330
CB5
100
AcDbEntity
  8
Visible (ISO)
100
AcDbCircle
 10
106.0000000000009
 20
-165.0000000004061
 30
0.0
 40
4.999999999999932
100
AcDbArc
 50
0.0
 51
90.0
  0
ARC
  5
E4E
330
CB5
100
AcDbEntity
  8
Visible (ISO)
100
AcDbCircle
 10
106.0000000000009
 20
-165.0000000004061
 30
0.0
 40
9.999999999999936
100
AcDbArc
 50
0.0
 51
90.0
  0
LINE
  5
E4F
330
CB5
100
AcDbEntity
  8
Visible (ISO)
100
AcDbLine
 10
101.0000000000009
 20
159.9999999995934
 30
0.0
 11
76.00000000000182
 21
159.9999999995898
 31
0.0
  0
LINE
  5
E50
330
CB5
100
AcDbEntity
  8
Visible (ISO)
100
AcDbLine
 10
76.00000000000182
 20
154.9999999995898
 30
0.0
 11
101.0000000000009
 21
154.9999999995934
 31
0.0
  0
LINE
  5
E51
330
CB5
100
AcDbEntity
  8
Visible (ISO)
100
AcDbLine
 10
101.0000000000009
 20
154.9999999995934
 30
0.0
 11
106.0000000000009
 21
154.9999999995934
 31
0.0
  0
LINE
  5
E52
330
CB5
100
AcDbEntity
  8
Visible (ISO)
100
AcDbLine
 10
101.0000000000009
 20
159.9999999995934
 30
0.0
 11
106.0000000000009
 21
159.9999999995934
 31
0.0
  0
SPLINE
  5
E53
330
CB5
100
AcDbEntity
  8
Visible (ISO)
100
AcDbSpline
210
0.0
220
0.0
230
1.0
 70
     8
 71
     3
 72
     8
 73
     4
 74
     0
 42
0.0000000001
 43
0.0000000001
 40
0.0
 40
0.0
 40
0.0
 40
0.0
 40
1.0
 40
1.0
 40
1.0
 40
1.0
 10
106.0000000000009
 20
154.9175020767152
 30
0.0
 10
104.3333333333339
 20
154.4987384948672
 30
0.0
 10
102.6666666666679
 20
152.3148148143673
 30
0.0
 10
101.0000000000009
 20
149.9999999995516
 30
0.0
  0
LINE
  5
E54
330
CB5
100
AcDbEntity
  8
Visible (ISO)
100
AcDbLine
 10
101.0000000000009
 20
149.9999999995516
 30
0.0
 11
76.00000000000091
 21
99.99999999955253
 31
0.0
  0
LINE
  5
E55
330
CB5
100
AcDbEntity
  8
Visible (ISO)
100
AcDbLine
 10
106.0000000000009
 20
154.9175020767152
 30
0.0
 11
106.0000000000009
 21
154.9999999995534
 31
0.0
  0
LINE
  5
E56
330
CB5
100
AcDbEntity
  8
Visible (ISO)
100
AcDbLine
 10
111.0000000000009
 20
247.9999999995789
 30
0.0
 11
111.0000000000009
 21
197.9999999995934
 31
0.0
  0
LINE
  5
E57
330
CB5
100
AcDbEntity
  8
Visible (ISO)
100
AcDbLine
 10
116.0000000000009
 20
197.9999999995934
 30
0.0
 11
116.0000000000009
 21
247.9999999995789
 31
0.0
  0
LINE
  5
E58
330
CB5
100
AcDbEntity
  8
Visible (ISO)
100
AcDbLine
 10
116.0000000000018
 20
247.9999999995789
 30
0.0
 11
111.0000000000018
 21
247.9999999995789
 31
0.0
  0
LINE
  5
E59
330
CB5
100
AcDbEntity
  8
Visible (ISO)
100
AcDbLine
 10
116.0000000000009
 20
164.9999999995934
 30
0.0
 11
116.0000000000009
 21
197.9999999995934
 31
0.0
  0
LINE
  5
E5A
330
CB5
100
AcDbEntity
  8
Visible (ISO)
100
AcDbLine
 10
111.0000000000009
 20
164.9999999995934
 30
0.0
 11
111.0000000000009
 21
197.9999999995934
 31
0.0
  0
ARC
  5
E5B
330
CB5
100
AcDbEntity
  8
Visible (ISO)
100
AcDbCircle
 10
106.0000000000009
 20
164.9999999995934
 30
0.0
 40
4.999999999999932
100
AcDbArc
 50
270.0
 51
0.0
  0
ARC
  5
E5C
330
CB5
100
AcDbEntity
  8
Visible (ISO)
100
AcDbCircle
 10
106.0000000000009
 20
164.9999999995934
 30
0.0
 40
9.999999999999936
100
AcDbArc
 50
270.0
 51
0.0
  0
ARC
  5
E5D
330
CB5
100
AcDbEntity
  8
Visible (ISO)
100
AcDbCircle
 10
105.0000000000009
 20
165.9999999995807
 30
0.0
 40
6.000000000000005
100
AcDbArc
 50
270.0
 51
0.0
  0
LINE
  5
E5E
330
CB5
100
AcDbEntity
  8
Visible (ISO)
100
AcDbLine
 10
76.00000000000091
 20
187.1698113203347
 30
0.0
 11
111.0000000000009
 21
239.9999999995798
 31
0.0
  0
ARC
  5
E5F
330
CB5
100
AcDbEntity
  8
Visible (ISO)
100
AcDbCircle
 10
105.0
 20
-166.0000000004202
 30
0.0
 40
6.000000000000005
100
AcDbArc
 50
0.0
 51
90.0
  0
LINE
  5
E60
330
CB5
100
AcDbEntity
  8
Visible (ISO)
100
AcDbLine
 10
111.0
 20
-240.0000000004202
 30
0.0
 11
76.0
 21
-187.1698113211751
 31
0.0
  0
ARC
  5
E61
330
CB5
100
AcDbEntity
  8
Visible (ISO)
100
AcDbCircle
 10
79.41410159211955
 20
44.94999999981337
 30
0.0
 40
0.5000000000000015
100
AcDbArc
 50
270.0000000001042
 51
350.3665159460685
  0
ARC
  5
E62
330
CB5
100
AcDbEntity
  8
Visible (ISO)
100
AcDbCircle
 10
79.41410159211955
 20
67.54999999981464
 30
0.0
 40
0.5000000000000015
100
AcDbArc
 50
9.633484053931507
 51
90.0
  0
ARC
  5
E63
330
CB5
100
AcDbEntity
  8
Visible (ISO)
100
AcDbCircle
 10
80.40000000000054
 20
44.7826550586351
 30
0.0
 40
0.5000000000000016
100
AcDbArc
 50
95.04284872797642
 51
170.3665159460685
  0
ARC
  5
E64
330
CB5
100
AcDbEntity
  8
Visible (ISO)
100
AcDbCircle
 10
80.40000000000054
 20
67.71734494099383
 30
0.0
 40
0.5000000000000015
100
AcDbArc
 50
189.6334840539315
 51
264.9571512720235
  0
LINE
  5
E65
330
CB5
100
AcDbEntity
  8
Visible (ISO)
100
AcDbLine
 10
79.41410159211955
 20
44.44999999981428
 30
0.0
 11
76.00000000000091
 21
44.44999999981428
 31
0.0
  0
LINE
  5
E66
330
CB5
100
AcDbEntity
  8
Visible (ISO)
100
AcDbLine
 10
79.41410159211955
 20
68.04999999981373
 30
0.0
 11
76.00000000000091
 21
68.04999999981373
 31
0.0
  0
ARC
  5
E67
330
CB5
100
AcDbEntity
  8
Visible (ISO)
100
AcDbCircle
 10
79.38809523809595
 20
56.24999999981355
 30
0.0
 40
11.01190476190479
100
AcDbArc
 50
275.0428487279245
 51
84.95715127207549
  0
ARC
  5
E68
330
CB5
100
AcDbEntity
  8
Visible (ISO)
100
AcDbCircle
 10
79.41410159211955
 20
-67.55000000018708
 30
0.0
 40
0.5000000000000015
100
AcDbArc
 50
270.0000000001042
 51
350.3665159460685
  0
ARC
  5
E69
330
CB5
100
AcDbEntity
  8
Visible (ISO)
100
AcDbCircle
 10
79.41410159211955
 20
-44.95000000018626
 30
0.0
 40
0.5000000000000015
100
AcDbArc
 50
9.633484053931507
 51
90.0
  0
ARC
  5
E6A
330
CB5
100
AcDbEntity
  8
Visible (ISO)
100
AcDbCircle
 10
80.40000000000054
 20
-67.71734494136672
 30
0.0
 40
0.5000000000000016
100
AcDbArc
 50
95.04284872797642
 51
170.3665159460685
  0
ARC
  5
E6B
330
CB5
100
AcDbEntity
  8
Visible (ISO)
100
AcDbCircle
 10
80.40000000000054
 20
-44.78265505900663
 30
0.0
 40
0.5000000000000015
100
AcDbArc
 50
189.6334840539315
 51
264.9571512720235
  0
LINE
  5
E6C
330
CB5
100
AcDbEntity
  8
Visible (ISO)
100
AcDbLine
 10
79.41410159211955
 20
-68.05000000018663
 30
0.0
 11
76.00000000000091
 21
-68.05000000018663
 31
0.0
  0
LINE
  5
E6D
330
CB5
100
AcDbEntity
  8
Visible (ISO)
100
AcDbLine
 10
79.41410159211955
 20
-44.45000000018672
 30
0.0
 11
76.00000000000091
 21
-44.45000000018672
 31
0.0
  0
ARC
  5
E6E
330
CB5
100
AcDbEntity
  8
Visible (ISO)
100
AcDbCircle
 10
79.38809523809595
 20
-56.2500000001869
 30
0.0
 40
11.01190476190479
100
AcDbArc
 50
275.0428487279245
 51
84.95715127207549
  0
ARC
  5
E6F
330
CB5
100
AcDbEntity
  8
Visible (ISO)
100
AcDbCircle
 10
0.0000000000009095
 20
-285.0000000004661
 30
0.0
 40
1500.0
100
AcDbArc
 50
180.0
 51
270.0
  0
ARC
  5
E70
330
CB5
100
AcDbEntity
  8
Visible (ISO)
100
AcDbCircle
 10
1680.000000000001
 20
-285.0000000004661
 30
0.0
 40
1500.0
100
AcDbArc
 50
270.0
 51
0.0
  0
ARC
  5
E71
330
CB5
100
AcDbEntity
  8
Visible (ISO)
100
AcDbCircle
 10
1680.0
 20
284.9999999995325
 30
0.0
 40
1500.0
100
AcDbArc
 50
0.0
 51
90.0
  0
ARC
  5
E72
330
CB5
100
AcDbEntity
  8
Visible (ISO)
100
AcDbCircle
 10
0.0
 20
284.9999999995343
 30
0.0
 40
1500.0
100
AcDbArc
 50
90.0
 51
180.0
  0
LINE
  5
E73
330
CB5
100
AcDbEntity
  8
Visible (ISO)
100
AcDbLine
 10
1680.000000000001
 20
-1785.000000000466
 30
0.0
 11
0.0
 21
-1785.000000000466
 31
0.0
  0
LINE
  5
E74
330
CB5
100
AcDbEntity
  8
Visible (ISO)
100
AcDbLine
 10
3180.000000000001
 20
284.9999999995325
 30
0.0
 11
3180.000000000001
 21
-285.0000000004657
 31
0.0
  0
LINE
  5
E75
330
CB5
100
AcDbEntity
  8
Visible (ISO)
100
AcDbLine
 10
0.0000000000009095
 20
1784.999999999533
 30
0.0
 11
1680.000000000001
 21
1784.999999999532
 31
0.0
  0
LINE
  5
E76
330
CB5
100
AcDbEntity
  8
Visible (ISO)
100
AcDbLine
 10
-1500.0
 20
-285.0000000004661
 30
0.0
 11
-1500.0
 21
284.9999999995334
 31
0.0
  0
ENDBLK
  5
CB7
330
CB5
100
AcDbEntity
  8
0
100
AcDbBlockEnd
  0
BLOCK
  5
E7B
330
E7A
100
AcDbEntity
  8
0
100
AcDbBlockBegin
  2
Tabelki rysunkowe Rzut
 70
     2
 10
0.0
 20
0.0
 30
0.0
  3
Tabelki rysunkowe Rzut
  1

  0
TEXT
  5
E7C
330
E7A
100
AcDbEntity
  8
Title (ISO)
100
AcDbText
 10
166.7768162971836
 20
11.24130542460445
 30
0.0
 40
2.5
  1
Obowiązuje od:
  7
Note Text (ISO)
 11
166.7768162971836
 21
13.74130542460445
 31
0.0
100
AcDbText
 73
     3
  0
TEXT
  5
E7D
330
E7A
100
AcDbEntity
  8
Title (ISO)
100
AcDbText
 10
166.7768162971836
 20
18.24130542460445
 30
0.0
 40
2.5
  1
Nr kat.:
  7
Note Text (ISO)
 11
166.7768162971836
 21
20.74130542460446
 31
0.0
100
AcDbText
 73
     3
  0
TEXT
  5
E7E
330
E7A
100
AcDbEntity
  8
Title (ISO)
100
AcDbText
 10
166.7768162971836
 20
14.74130542460445
 30
0.0
 40
2.5
  1
Nazwa:
  7
Note Text (ISO)
 11
166.7768162971836
 21
17.24130542460445
 31
0.0
100
AcDbText
 73
     3
  0
ATTDEF
  5
E7F
102
{ACAD_XDICTIONARY
360
E80
102
}
330
E7A
100
AcDbEntity
  8
Title (ISO)
100
AcDbText
 10
178.4107988369825
 20
18.12713485684115
 30
0.0
 40
2.5
  1
26080
  7
Note Text (ISO)
100
AcDbAttributeDefinition
  3
Numer katalogowy
  2
Numer_katalogowy_001
 70
     0
  0
ATTDEF
  5
E81
102
{ACAD_XDICTIONARY
360
E82
102
}
330
E7A
100
AcDbEntity
  8
Title (ISO)
100
AcDbText
 10
190.4107988369825
 20
11.13720873189256
 30
0.0
 40
2.5
  1
2019-01-30
  7
Note Text (ISO)
100
AcDbAttributeDefinition
  3
DATA UTWORZENIA
  2
DATA_UTWORZENIA_001
 70
     0
  0
ATTDEF
  5
E83
102
{ACAD_XDICTIONARY
360
E84
102
}
330
E7A
100
AcDbEntity
  8
Title (ISO)
100
AcDbText
 10
178.7768162971835
 20
14.5163222312757
 30
0.0
 40
2.5
  1
Atlas
  7
Note Text (ISO)
100
AcDbAttributeDefinition
  3
Nazwa
  2
Nazwa_001
 70
     0
  0
ENDBLK
  5
E85
330
E7A
100
AcDbEntity
  8
0
100
AcDbBlockEnd
  0
ENDSEC
  0
SECTION
  2
ENTITIES
  0
LINE
  5
173
330
6C
100
AcDbEntity
  8
Visible (ISO)
100
AcDbLine
 10
4256.75237867899
 20
6606.319568569464
 30
0.0
 11
4756.75237867899
 21
6606.319568569464
 31
0.0
  0
LINE
  5
174
330
6C
100
AcDbEntity
  8
Visible (ISO)
100
AcDbLine
 10
5006.75237867899
 20
6401.319568569464
 30
0.0
 11
4006.752378678991
 21
6401.319568569464
 31
0.0
  0
LINE
  5
175
330
6C
100
AcDbEntity
  8
Visible (ISO)
100
AcDbLine
 10
5006.75237867899
 20
6401.319568569464
 30
0.0
 11
4756.75237867899
 21
6606.319568569464
 31
0.0
  0
LINE
  5
176
330
6C
100
AcDbEntity
  8
Visible (ISO)
100
AcDbLine
 10
4006.752378678991
 20
6401.319568569464
 30
0.0
 11
4256.75237867899
 21
6606.319568569464
 31
0.0
  0
LINE
  5
177
330
6C
100
AcDbEntity
  8
Visible (ISO)
100
AcDbLine
 10
4006.752378678991
 20
6366.319568569464
 30
0.0
 11
4006.752378678991
 21
6401.319568569464
 31
0.0
  0
LINE
  5
178
330
6C
100
AcDbEntity
  8
Visible (ISO)
100
AcDbLine
 10
5006.75237867899
 20
6366.319568569464
 30
0.0
 11
4006.752378678991
 21
6366.319568569464
 31
0.0
  0
LINE
  5
179
330
6C
100
AcDbEntity
  8
Visible (ISO)
100
AcDbLine
 10
5006.75237867899
 20
6366.319568569464
 30
0.0
 11
5006.75237867899
 21
6401.319568569464
 31
0.0
  0
LINE
  5
17A
330
6C
100
AcDbEntity
  8
Visible (ISO)
100
AcDbLine
 10
4509.252378678993
 20
8254.420589083901
 30
0.0
 11
4509.252378678993
 21
8264.218548055032
 31
0.0
  0
LINE
  5
17B
330
6C
100
AcDbEntity
  8
Visible (ISO)
100
AcDbLine
 10
4706.752378678991
 20
6606.319568569464
 30
0.0
 11
4706.752378678991
 21
6614.319568569462
 31
0.0
  0
LINE
  5
17C
330
6C
100
AcDbEntity
  8
Visible (ISO)
100
AcDbLine
 10
4686.752378678991
 20
6614.319568569462
 30
0.0
 11
4706.75237867899
 21
6614.319568569462
 31
0.0
  0
LINE
  5
17D
330
6C
100
AcDbEntity
  8
Visible (ISO)
100
AcDbLine
 10
4306.752378678992
 20
6614.319568569462
 30
0.0
 11
4326.752378678992
 21
6614.319568569462
 31
0.0
  0
LINE
  5
17E
330
6C
100
AcDbEntity
  8
Visible (ISO)
100
AcDbLine
 10
4306.752378678992
 20
6614.319568569462
 30
0.0
 11
4306.752378678992
 21
6606.319568569464
 31
0.0
  0
LINE
  5
17F
330
6C
100
AcDbEntity
  8
Visible (ISO)
100
AcDbLine
 10
4686.752378678991
 20
6614.319568569462
 30
0.0
 11
4544.484990568443
 21
6614.319568569462
 31
0.0
  0
LINE
  5
180
330
6C
100
AcDbEntity
  8
Visible (ISO)
100
AcDbLine
 10
4469.019766789539
 20
6614.319568569462
 30
0.0
 11
4326.752378678992
 21
6614.319568569462
 31
0.0
  0
SPLINE
  5
181
330
6C
100
AcDbEntity
  8
Visible (ISO)
100
AcDbSpline
210
0.0
220
0.0
230
1.0
 70
    11
 71
     3
 72
    38
 73
    34
 74
     0
 42
0.0000000001
 43
0.0000000001
 40
0.0
 40
0.0
 40
0.0
 40
0.0
 40
0.2074925593538069
 40
0.2074925593538069
 40
0.4149851187076138
 40
0.4149851187076138
 40
0.622474546481266
 40
0.622474546481266
 40
0.829963974254918
 40
0.829963974254918
 40
1.03745340202857
 40
1.03745340202857
 40
1.244942829802222
 40
1.244942829802222
 40
1.452435389156029
 40
1.452435389156029
 40
1.659927948509836
 40
1.659927948509836
 40
1.867420507863642
 40
1.867420507863642
 40
2.074913067217449
 40
2.074913067217449
 40
2.282402494991101
 40
2.282402494991101
 40
2.489891922764754
 40
2.489891922764754
 40
2.697381350538406
 40
2.697381350538406
 40
2.904870778312058
 40
2.904870778312058
 40
3.112363337665865
 40
3.112363337665865
 40
3.319855897019671
 40
3.319855897019671
 40
3.319855897019671
 40
3.319855897019671
 10
4501.252378678992
 20
8259.319568569459
 30
0.0
 10
4501.252378678992
 20
8260.011210433972
 30
0.0
 10
4501.390802665929
 20
8260.748279611419
 30
0.0
 10
4501.952397420012
 20
8262.103072361412
 30
0.0
 10
4502.375515833092
 20
8262.720880316614
 30
0.0
 10
4503.351059570088
 20
8263.696424053609
 30
0.0
 10
4503.968870706785
 20
8264.119548240685
 30
0.0
 10
4505.3236743055
 20
8264.681147201702
 30
0.0
 10
4506.060747253079
 20
8264.819568569462
 30
0.0
 10
4507.444010104904
 20
8264.819568569462
 30
0.0
 10
4508.181083052483
 20
8264.681147201702
 30
0.0
 10
4509.535886651198
 20
8264.119548240685
 30
0.0
 10
4510.153697787894
 20
8263.696424053609
 30
0.0
 10
4511.12924152489
 20
8262.720880316614
 30
0.0
 10
4511.55235993797
 20
8262.103072361412
 30
0.0
 10
4512.113954692053
 20
8260.748279611419
 30
0.0
 10
4512.252378678992
 20
8260.011210433972
 30
0.0
 10
4512.252378678992
 20
8258.627926704949
 30
0.0
 10
4512.113954692053
 20
8257.890857527501
 30
0.0
 10
4511.55235993797
 20
8256.536064777506
 30
0.0
 10
4511.12924152489
 20
8255.918256822308
 30
0.0
 10
4510.153697787894
 20
8254.942713085311
 30
0.0
 10
4509.535886651198
 20
8254.519588898235
 30
0.0
 10
4508.181083052483
 20
8253.957989937218
 30
0.0
 10
4507.444010104904
 20
8253.819568569459
 30
0.0
 10
4506.060747253079
 20
8253.819568569459
 30
0.0
 10
4505.3236743055
 20
8253.957989937218
 30
0.0
 10
4503.968870706785
 20
8254.519588898235
 30
0.0
 10
4503.351059570088
 20
8254.942713085311
 30
0.0
 10
4502.375515833092
 20
8255.918256822308
 30
0.0
 10
4501.952397420012
 20
8256.536064777506
 30
0.0
 10
4501.390802665929
 20
8257.890857527501
 30
0.0
 10
4501.252378678992
 20
8258.627926704946
 30
0.0
 10
4501.252378678992
 20
8259.319568569459
 30
0.0
  0
SPLINE
  5
182
330
6C
100
AcDbEntity
  8
Visible (ISO)
100
AcDbSpline
210
0.0
220
0.0
230
1.0
 70
    11
 71
     3
 72
    38
 73
    34
 74
     0
 42
0.0000000001
 43
0.0000000001
 40
0.0
 40
0.0
 40
0.0
 40
0.0
 40
0.2074925593538069
 40
0.2074925593538069
 40
0.4149851187076138
 40
0.4149851187076138
 40
0.622474546481266
 40
0.622474546481266
 40
0.829963974254918
 40
0.829963974254918
 40
1.03745340202857
 40
1.03745340202857
 40
1.244942829802222
 40
1.244942829802222
 40
1.452435389156029
 40
1.452435389156029
 40
1.659927948509836
 40
1.659927948509836
 40
1.867420507863642
 40
1.867420507863642
 40
2.074913067217449
 40
2.074913067217449
 40
2.282402494991101
 40
2.282402494991101
 40
2.489891922764754
 40
2.489891922764754
 40
2.697381350538406
 40
2.697381350538406
 40
2.904870778312058
 40
2.904870778312058
 40
3.112363337665865
 40
3.112363337665865
 40
3.319855897019671
 40
3.319855897019671
 40
3.319855897019671
 40
3.319855897019671
 10
4501.252378678992
 20
8079.319568569459
 30
0.0
 10
4501.252378678992
 20
8080.011210433973
 30
0.0
 10
4501.390802665929
 20
8080.748279611421
 30
0.0
 10
4501.952397420012
 20
8082.103072361416
 30
0.0
 10
4502.375515833092
 20
8082.720880316614
 30
0.0
 10
4503.351059570088
 20
8083.696424053611
 30
0.0
 10
4503.968870706785
 20
8084.119548240686
 30
0.0
 10
4505.3236743055
 20
8084.681147201703
 30
0.0
 10
4506.060747253079
 20
8084.819568569461
 30
0.0
 10
4507.444010104904
 20
8084.819568569461
 30
0.0
 10
4508.181083052483
 20
8084.681147201703
 30
0.0
 10
4509.535886651198
 20
8084.119548240686
 30
0.0
 10
4510.153697787894
 20
8083.696424053611
 30
0.0
 10
4511.12924152489
 20
8082.720880316614
 30
0.0
 10
4511.55235993797
 20
8082.103072361416
 30
0.0
 10
4512.113954692053
 20
8080.748279611421
 30
0.0
 10
4512.252378678992
 20
8080.011210433973
 30
0.0
 10
4512.252378678992
 20
8078.62792670495
 30
0.0
 10
4512.113954692053
 20
8077.890857527499
 30
0.0
 10
4511.55235993797
 20
8076.536064777506
 30
0.0
 10
4511.12924152489
 20
8075.918256822307
 30
0.0
 10
4510.153697787894
 20
8074.942713085311
 30
0.0
 10
4509.535886651198
 20
8074.519588898235
 30
0.0
 10
4508.181083052483
 20
8073.95798993722
 30
0.0
 10
4507.444010104904
 20
8073.81956856946
 30
0.0
 10
4506.060747253079
 20
8073.81956856946
 30
0.0
 10
4505.3236743055
 20
8073.95798993722
 30
0.0
 10
4503.968870706785
 20
8074.519588898235
 30
0.0
 10
4503.351059570088
 20
8074.942713085311
 30
0.0
 10
4502.375515833092
 20
8075.918256822307
 30
0.0
 10
4501.952397420012
 20
8076.536064777506
 30
0.0
 10
4501.390802665929
 20
8077.890857527499
 30
0.0
 10
4501.252378678992
 20
8078.62792670495
 30
0.0
 10
4501.252378678992
 20
8079.319568569459
 30
0.0
  0
LINE
  5
183
330
6C
100
AcDbEntity
  8
Visible (ISO)
100
AcDbLine
 10
4544.484990568444
 20
6614.319568569463
 30
0.0
 11
4469.019766789539
 21
6614.319568569463
 31
0.0
  0
LINE
  5
184
330
6C
100
AcDbEntity
  8
Visible (ISO)
100
AcDbLine
 10
4544.752378678992
 20
8380.81956856946
 30
0.0
 11
4544.752378678992
 21
6814.319568569462
 31
0.0
  0
LINE
  5
185
330
6C
100
AcDbEntity
  8
Visible (ISO)
100
AcDbLine
 10
4544.752378678992
 20
6667.527440054058
 30
0.0
 11
4544.752378678992
 21
6614.319568569463
 31
0.0
  0
LINE
  5
186
330
6C
100
AcDbEntity
  8
Visible (ISO)
100
AcDbLine
 10
4468.752378678991
 20
8380.81956856946
 30
0.0
 11
4468.752378678991
 21
6814.319568569462
 31
0.0
  0
LINE
  5
187
330
6C
100
AcDbEntity
  8
Visible (ISO)
100
AcDbLine
 10
4468.752378678991
 20
6667.527440054058
 30
0.0
 11
4468.752378678991
 21
6614.319568569463
 31
0.0
  0
ARC
  5
188
330
6C
100
AcDbEntity
  8
Visible (ISO)
100
AcDbCircle
 10
4506.752378678991
 20
8576.319568569459
 30
0.0
 40
37.9999999999999
100
AcDbArc
 50
0.0
 51
180.0
  0
LINE
  5
189
330
6C
100
AcDbEntity
  8
Visible (ISO)
100
AcDbLine
 10
4544.752378678992
 20
8380.81956856946
 30
0.0
 11
4544.752378678992
 21
8576.319568569457
 31
0.0
  0
LINE
  5
18A
330
6C
100
AcDbEntity
  8
Visible (ISO)
100
AcDbLine
 10
4468.752378678991
 20
8576.319568569457
 30
0.0
 11
4468.752378678991
 21
8380.81956856946
 31
0.0
  0
LINE
  5
18B
330
6C
100
AcDbEntity
  8
Visible (ISO)
100
AcDbLine
 10
4338.752378678992
 20
6614.319568569463
 30
0.0
 11
4457.052378678992
 21
6796.319568569463
 31
0.0
  0
LINE
  5
18C
330
6C
100
AcDbEntity
  8
Visible (ISO)
100
AcDbLine
 10
4463.552378678992
 20
6806.319568569462
 30
0.0
 11
4468.752378678991
 21
6814.319568569462
 31
0.0
  0
LINE
  5
18D
330
6C
100
AcDbEntity
  8
Visible (ISO)
100
AcDbLine
 10
4468.752378678991
 20
6814.319568569462
 30
0.0
 11
4468.752378678991
 21
6806.319568569462
 31
0.0
  0
LINE
  5
18E
330
6C
100
AcDbEntity
  8
Visible (ISO)
100
AcDbLine
 10
4468.752378678991
 20
6796.319568569463
 30
0.0
 11
4468.752378678991
 21
6667.527440054058
 31
0.0
  0
LINE
  5
18F
330
6C
100
AcDbEntity
  8
Visible (ISO)
100
AcDbLine
 10
4468.752378678991
 20
6667.527440054058
 30
0.0
 11
4434.167262214005
 21
6614.319568569463
 31
0.0
  0
LINE
  5
190
330
6C
100
AcDbEntity
  8
Visible (ISO)
100
AcDbLine
 10
4434.167262214005
 20
6614.319568569463
 30
0.0
 11
4338.752378678992
 21
6614.319568569463
 31
0.0
  0
LINE
  5
191
330
6C
100
AcDbEntity
  8
Visible (ISO)
100
AcDbLine
 10
4579.337495143979
 20
6614.319568569463
 30
0.0
 11
4544.752378678992
 21
6667.527440054058
 31
0.0
  0
LINE
  5
192
330
6C
100
AcDbEntity
  8
Visible (ISO)
100
AcDbLine
 10
4674.752378678991
 20
6614.319568569463
 30
0.0
 11
4579.337495143979
 21
6614.319568569463
 31
0.0
  0
LINE
  5
193
330
6C
100
AcDbEntity
  8
Visible (ISO)
100
AcDbLine
 10
4544.752378678992
 20
6814.319568569462
 30
0.0
 11
4549.952378678991
 21
6806.319568569462
 31
0.0
  0
LINE
  5
194
330
6C
100
AcDbEntity
  8
Visible (ISO)
100
AcDbLine
 10
4556.452378678991
 20
6796.319568569463
 30
0.0
 11
4674.752378678991
 21
6614.319568569463
 31
0.0
  0
LINE
  5
195
330
6C
100
AcDbEntity
  8
Visible (ISO)
100
AcDbLine
 10
4544.752378678992
 20
6667.527440054058
 30
0.0
 11
4544.752378678992
 21
6796.319568569463
 31
0.0
  0
LINE
  5
196
330
6C
100
AcDbEntity
  8
Visible (ISO)
100
AcDbLine
 10
4544.752378678992
 20
6806.319568569462
 30
0.0
 11
4544.752378678992
 21
6814.319568569462
 31
0.0
  0
LINE
  5
197
330
6C
100
AcDbEntity
  8
Visible (ISO)
100
AcDbLine
 10
4654.752378678991
 20
6682.319568569464
 30
0.0
 11
4658.752378678991
 21
6682.319568569464
 31
0.0
  0
ARC
  5
198
330
6C
100
AcDbEntity
  8
Visible (ISO)
100
AcDbCircle
 10
4654.752378678991
 20
6670.319568569464
 30
0.0
 40
12.0
100
AcDbArc
 50
90.0
 51
180.0
  0
ARC
  5
199
330
6C
100
AcDbEntity
  8
Visible (ISO)
100
AcDbCircle
 10
4658.752378678991
 20
6670.319568569464
 30
0.0
 40
12.0
100
AcDbArc
 50
0.0
 51
90.0
  0
LINE
  5
19A
330
6C
100
AcDbEntity
  8
Visible (ISO)
100
AcDbLine
 10
4672.802378678991
 20
6617.319568569463
 30
0.0
 11
4675.668741566247
 21
6617.319568569463
 31
0.0
  0
LINE
  5
19B
330
6C
100
AcDbEntity
  8
Visible (ISO)
100
AcDbLine
 10
4675.668741566247
 20
6617.319568569463
 30
0.0
 11
4675.668741566247
 21
6632.70744440012
 31
0.0
  0
LINE
  5
19C
330
6C
100
AcDbEntity
  8
Visible (ISO)
100
AcDbLine
 10
4642.752378678991
 20
6663.550337800232
 30
0.0
 11
4642.752378678991
 21
6670.319568569464
 31
0.0
  0
LINE
  5
19D
330
6C
100
AcDbEntity
  8
Visible (ISO)
100
AcDbLine
 10
4670.752378678991
 20
6641.31886900386
 30
0.0
 11
4670.752378678991
 21
6670.319568569464
 31
0.0
  0
ARC
  5
19E
330
6C
100
AcDbEntity
  8
Visible (ISO)
100
AcDbCircle
 10
4670.668741566247
 20
6632.70744440012
 30
0.0
 40
5.0
100
AcDbArc
 50
0.0
 51
59.44510128816665
  0
ARC
  5
19F
330
6C
100
AcDbEntity
  8
Visible (ISO)
100
AcDbCircle
 10
4675.752378678992
 20
6641.31886900386
 30
0.0
 40
5.0
100
AcDbArc
 50
180.0
 51
239.4451012881666
  0
LINE
  5
1A0
330
6C
100
AcDbEntity
  8
Visible (ISO)
100
AcDbLine
 10
4354.752378678991
 20
6682.319568569464
 30
0.0
 11
4358.752378678992
 21
6682.319568569464
 31
0.0
  0
ARC
  5
1A1
330
6C
100
AcDbEntity
  8
Visible (ISO)
100
AcDbCircle
 10
4354.752378678991
 20
6670.319568569464
 30
0.0
 40
12.0
100
AcDbArc
 50
90.0
 51
180.0
  0
ARC
  5
1A2
330
6C
100
AcDbEntity
  8
Visible (ISO)
100
AcDbCircle
 10
4358.752378678992
 20
6670.319568569464
 30
0.0
 40
12.0
100
AcDbArc
 50
0.0
 51
90.0
  0
LINE
  5
1A3
330
6C
100
AcDbEntity
  8
Visible (ISO)
100
AcDbLine
 10
4337.836015791735
 20
6617.319568569463
 30
0.0
 11
4340.702378678992
 21
6617.319568569463
 31
0.0
  0
LINE
  5
1A4
330
6C
100
AcDbEntity
  8
Visible (ISO)
100
AcDbLine
 10
4337.836015791735
 20
6617.319568569463
 30
0.0
 11
4337.836015791735
 21
6632.70744440012
 31
0.0
  0
LINE
  5
1A5
330
6C
100
AcDbEntity
  8
Visible (ISO)
100
AcDbLine
 10
4342.752378678992
 20
6641.31886900386
 30
0.0
 11
4342.752378678992
 21
6670.319568569464
 31
0.0
  0
LINE
  5
1A6
330
6C
100
AcDbEntity
  8
Visible (ISO)
100
AcDbLine
 10
4370.752378678991
 20
6663.550337800232
 30
0.0
 11
4370.752378678991
 21
6670.319568569464
 31
0.0
  0
ARC
  5
1A7
330
6C
100
AcDbEntity
  8
Visible (ISO)
100
AcDbCircle
 10
4342.836015791735
 20
6632.70744440012
 30
0.0
 40
5.0
100
AcDbArc
 50
120.5548987118333
 51
180.0
  0
ARC
  5
1A8
330
6C
100
AcDbEntity
  8
Visible (ISO)
100
AcDbCircle
 10
4337.752378678991
 20
6641.31886900386
 30
0.0
 40
5.0
100
AcDbArc
 50
300.5548987118333
 51
0.0
  0
LINE
  5
1A9
330
6C
100
AcDbEntity
  8
Visible (ISO)
100
AcDbLine
 10
4675.252378678991
 20
6614.319568569463
 30
0.0
 11
4675.252378678991
 21
6617.319568569463
 31
0.0
  0
LINE
  5
1AA
330
6C
100
AcDbEntity
  8
Visible (ISO)
100
AcDbLine
 10
4338.252378678991
 20
6614.319568569463
 30
0.0
 11
4338.252378678991
 21
6617.319568569463
 31
0.0
  0
ELLIPSE
  5
1AB
330
6C
100
AcDbEntity
  8
Visible (ISO)
100
AcDbEllipse
 10
5191.752378678991
 20
8399.493029392333
 30
0.0
 11
-18.58037820255321
 21
-3.971088748705457
 31
0.0
210
0.0
220
0.0
230
0.9999999999999996
 40
0.0837837820421403
 41
6.022956469327539
 42
6.283185307180034
  0
ELLIPSE
  5
1AC
330
6C
100
AcDbEntity
  8
Visible (ISO)
100
AcDbEllipse
 10
5141.752378678991
 20
7681.513456331605
 30
0.0
 11
17.85060630471189
 21
-6.508137564172079
 31
0.0
210
0.0
220
0.0
230
0.9999999999999998
 40
0.0837837820421366
 41
0.0000000000050748
 42
0.3562966860608813
  0
SPLINE
  5
1AD
330
6C
100
AcDbEntity
  8
Visible (ISO)
100
AcDbSpline
210
0.0
220
0.0
230
1.0
 70
     8
 71
     3
 72
     8
 73
     4
 74
     0
 42
0.0000000001
 43
0.0000000001
 40
2.862519227983014
 40
2.862519227983014
 40
2.862519227983014
 40
2.862519227983014
 40
2.86334662371572
 40
2.86334662371572
 40
2.86334662371572
 40
2.86334662371572
 10
5159.602984983703
 20
7675.005318767432
 30
0.0
 10
5159.728234676006
 20
7675.348855289988
 30
0.0
 10
5159.853341687475
 20
7675.69244352033
 30
0.0
 10
5159.978305975252
 20
7676.036083340829
 30
0.0
  0
SPLINE
  5
1AE
330
6C
100
AcDbEntity
  8
Visible (ISO)
100
AcDbSpline
210
0.0
220
0.0
230
1.0
 70
     8
 71
     3
 72
    14
 73
    10
 74
     0
 42
0.0000000001
 43
0.0000000001
 40
2.969905233919444
 40
2.969905233919444
 40
2.969905233919444
 40
2.969905233919444
 40
2.974148598225725
 40
2.974148598225725
 40
3.085777968468437
 40
3.085777968468437
 40
3.197407338711148
 40
3.197407338711148
 40
3.211764713522555
 40
3.211764713522555
 40
3.211764713522555
 40
3.211764713522555
 10
5201.073537065535
 20
7811.119568569464
 30
0.0
 10
5201.522607474768
 20
7812.93997544241
 30
0.0
 10
5201.967800491554
 20
7814.761333766639
 30
0.0
 10
5214.018611998064
 20
7864.522349095055
 30
0.0
 10
5222.939179278546
 20
7913.108717204749
 30
0.0
 10
5235.29141602968
 20
8010.972249237198
 30
0.0
 10
5238.723053351116
 20
8060.249159216098
 30
0.0
 10
5239.474495357327
 20
8115.907448112041
 30
0.0
 10
5239.514422993186
 20
8122.250869386157
 30
0.0
 10
5239.508640289955
 20
8128.594272320507
 30
0.0
  0
SPLINE
  5
1AF
330
6C
100
AcDbEntity
  8
Visible (ISO)
100
AcDbSpline
210
0.0
220
0.0
230
1.0
 70
     8
 71
     3
 72
    10
 73
     6
 74
     0
 42
0.0000000001
 43
0.0000000001
 40
3.211799214248072
 40
3.211799214248072
 40
3.211799214248072
 40
3.211799214248072
 40
3.309036708953859
 40
3.309036708953859
 40
3.420666079196571
 40
3.420666079196571
 40
3.420666079196571
 40
3.420666079196571
 10
5201.508614822698
 20
8128.604044737619
 30
0.0
 10
5201.46913264238
 20
8170.329368308042
 30
0.0
 10
5199.391742762061
 20
8212.0538375381
 30
0.0
 10
5190.573077687736
 20
8301.2535061844
 30
0.0
 10
5183.186373363628
 20
8348.665562587097
 30
0.0
 10
5173.172000476438
 20
8395.521940643629
 30
0.0
  0
ELLIPSE
  5
1B0
330
6C
100
AcDbEntity
  8
Visible (ISO)
100
AcDbEllipse
 10
5191.752378678991
 20
8402.56602584108
 30
0.0
 11
18.58028306943865
 21
3.971533842173722
 31
0.0
210
0.0
220
0.0
230
0.9999999999999998
 40
0.0848438500830678
 41
3.141592668499539
 42
6.283185307188193
  0
ELLIPSE
  5
1B1
330
6C
100
AcDbEntity
  8
Visible (ISO)
100
AcDbEllipse
 10
5141.752378678991
 20
7684.58003475467
 30
0.0
 11
17.850823684615
 21
-6.507541300736362
 31
0.0
210
0.0
220
0.0
230
1.0
 40
0.0825288510950715
 41
3.141592653588931
 42
6.283185307178724
  0
SPLINE
  5
1B2
330
6C
100
AcDbEntity
  8
Visible (ISO)
100
AcDbSpline
210
0.0
220
0.0
230
1.0
 70
     8
 71
     3
 72
     8
 73
     4
 74
     0
 42
0.0000000001
 43
0.0000000001
 40
2.862519227983014
 40
2.862519227983014
 40
2.862519227983014
 40
2.862519227983014
 40
2.877470972544831
 40
2.877470972544831
 40
2.877470972544831
 40
2.877470972544831
 10
5159.603202363606
 20
7678.072493453932
 30
0.0
 10
5161.866591031825
 20
7684.281190437778
 30
0.0
 10
5164.083385237907
 20
7690.506756334389
 30
0.0
 10
5166.253337000028
 20
7696.748495155232
 30
0.0
  0
SPLINE
  5
1B3
330
6C
100
AcDbEntity
  8
Visible (ISO)
100
AcDbSpline
210
0.0
220
0.0
230
1.0
 70
     8
 71
     3
 72
    16
 73
    12
 74
     0
 42
0.0000000001
 43
0.0000000001
 40
2.936571569128431
 40
2.936571569128431
 40
2.936571569128431
 40
2.936571569128431
 40
2.974148598225725
 40
2.974148598225725
 40
3.085777968468437
 40
3.085777968468437
 40
3.197407338711148
 40
3.197407338711148
 40
3.309036708953859
 40
3.309036708953859
 40
3.420666079196571
 40
3.420666079196571
 40
3.420666079196571
 40
3.420666079196571
 10
5189.775258445676
 20
7771.479450989904
 30
0.0
 10
5194.289175956026
 20
7787.460057335739
 30
0.0
 10
5198.501653220933
 20
7803.52523284673
 30
0.0
 10
5214.019317182819
 20
7867.605680341419
 30
0.0
 10
5222.939959735464
 20
7916.194411543336
 30
0.0
 10
5235.2922729513
 20
8014.06072792519
 30
0.0
 10
5238.72391138557
 20
8063.338059177914
 30
0.0
 10
5240.055436174046
 20
8161.967963545258
 30
0.0
 10
5237.95531908593
 20
8211.320280709635
 30
0.0
 10
5228.249481077376
 20
8309.485608197595
 30
0.0
 10
5220.64378554386
 20
8358.29836382177
 30
0.0
 10
5210.332661748429
 20
8406.537559683252
 30
0.0
  0
SPLINE
  5
1B4
330
6C
100
AcDbEntity
  8
Visible (ISO)
100
AcDbSpline
210
0.0
220
0.0
230
1.0
 70
     8
 71
     3
 72
    16
 73
    12
 74
     0
 42
0.0000000001
 43
0.0000000001
 40
2.862519227983014
 40
2.862519227983014
 40
2.862519227983014
 40
2.862519227983014
 40
2.974148598225726
 40
2.974148598225726
 40
3.085777968468437
 40
3.085777968468437
 40
3.197407338711149
 40
3.197407338711149
 40
3.30903670895386
 40
3.30903670895386
 40
3.420666079196571
 40
3.420666079196571
 40
3.420666079196571
 40
3.420666079196571
 10
5123.901554994377
 20
7691.087576055405
 30
0.0
 10
5140.314206999412
 20
7736.109089342718
 30
0.0
 10
5154.201508146951
 20
7782.04415952441
 30
0.0
 10
5176.752830418972
 20
7875.170214215204
 30
0.0
 10
5185.416793744824
 20
7922.360958518793
 30
0.0
 10
5197.41366083924
 20
8017.41110581816
 30
0.0
 10
5200.746533858666
 20
8065.270263771388
 30
0.0
 10
5202.039738473687
 20
8161.061681708845
 30
0.0
 10
5200.000066722857
 20
8208.993694781311
 30
0.0
 10
5190.573510119563
 20
8304.334356270889
 30
0.0
 10
5183.186649365257
 20
8351.742758892871
 30
0.0
 10
5173.172095609551
 20
8398.594491998904
 30
0.0
  0
LINE
  5
1B5
330
6C
100
AcDbEntity
  8
Visible (ISO)
100
AcDbLine
 10
5379.502378678992
 20
6931.123913210452
 30
0.0
 11
5379.502378678992
 21
6928.123913210452
 31
0.0
  0
LINE
  5
1B6
330
6C
100
AcDbEntity
  8
Visible (ISO)
100
AcDbLine
 10
5394.502378678992
 20
6928.123913210452
 30
0.0
 11
5379.502378678992
 21
6928.123913210452
 31
0.0
  0
LINE
  5
1B7
330
6C
100
AcDbEntity
  8
Visible (ISO)
100
AcDbLine
 10
5659.502378678991
 20
6928.123913210452
 30
0.0
 11
5587.002378678992
 21
6928.123913210452
 31
0.0
  0
LINE
  5
1B8
330
6C
100
AcDbEntity
  8
Visible (ISO)
100
AcDbLine
 10
5659.502378678991
 20
6928.123913210452
 30
0.0
 11
5659.502378678991
 21
6931.123913210452
 31
0.0
  0
LINE
  5
1B9
330
6C
100
AcDbEntity
  8
Visible (ISO)
100
AcDbLine
 10
5394.502378678992
 20
6928.123913210452
 30
0.0
 11
5587.002378678992
 21
6928.123913210452
 31
0.0
  0
ELLIPSE
  5
1BA
330
6C
100
AcDbEntity
  8
Visible (ISO)
100
AcDbEllipse
 10
5191.752378678991
 20
8402.566025841077
 30
0.0
 11
-18.58028306943915
 21
-3.971533842173961
 31
0.0
210
0.0
220
0.0
230
1.0
 40
0.0848438500830755
 41
0.0000000000025388
 42
3.141592653592331
  0
ARC
  5
1BB
330
6C
100
AcDbEntity
  8
Visible (ISO)
100
AcDbCircle
 10
5191.752378678991
 20
8402.566025841077
 30
0.0
 40
19.00000000000288
100
AcDbArc
 50
12.06540233266365
 51
192.0654023326637
  0
ELLIPSE
  5
1BC
330
6C
100
AcDbEntity
  8
Visible (ISO)
100
AcDbEllipse
 10
5141.752378678991
 20
7681.513456331605
 30
0.0
 11
17.85060630471562
 21
-6.508137564173914
 31
0.0
210
0.0
220
0.0
230
1.0
 40
0.0837837820421239
 41
0.0
 42
0.3562966860443115
  0
ARC
  5
1BD
330
6C
100
AcDbEntity
  8
Visible (ISO)
100
AcDbCircle
 10
5141.752378678991
 20
7681.513456331605
 30
0.0
 40
19.00000000000426
100
AcDbArc
 50
175.3712297592643
 51
339.9686926276054
  0
ELLIPSE
  5
1BE
330
6C
100
AcDbEntity
  8
Visible (ISO)
100
AcDbEllipse
 10
5141.752378678991
 20
7684.580034754668
 30
0.0
 11
17.85082368461511
 21
-6.507541300736244
 31
0.0
210
0.0
220
0.0
230
1.0
 40
0.0825288510950813
 41
3.141592653617235
 42
6.283185307207028
  0
ARC
  5
1BF
330
6C
100
AcDbEntity
  8
Visible (ISO)
100
AcDbCircle
 10
5141.752378678991
 20
7684.580034754668
 30
0.0
 40
19.0000000000027
100
AcDbArc
 50
159.970606465697
 51
339.970606465697
  0
LINE
  5
1C0
330
6C
100
AcDbEntity
  8
Visible (ISO)
100
AcDbLine
 10
4887.602378678992
 20
7682.873913210451
 30
0.0
 11
4890.502378678991
 21
7682.873913210451
 31
0.0
  0
LINE
  5
1C1
330
6C
100
AcDbEntity
  8
Visible (ISO)
100
AcDbLine
 10
4933.002378678992
 20
7682.873913210451
 30
0.0
 11
4935.902378678992
 21
7682.873913210451
 31
0.0
  0
LINE
  5
1C2
330
6C
100
AcDbEntity
  8
Visible (ISO)
100
AcDbLine
 10
4935.902378678992
 20
6977.873913210451
 30
0.0
 11
4931.752378678992
 21
6977.873913210451
 31
0.0
  0
LINE
  5
1C3
330
6C
100
AcDbEntity
  8
Visible (ISO)
100
AcDbLine
 10
4891.752378678993
 20
6977.873913210451
 30
0.0
 11
4887.602378678992
 21
6977.873913210451
 31
0.0
  0
LINE
  5
1C4
330
6C
100
AcDbEntity
  8
Visible (ISO)
100
AcDbLine
 10
4927.275667634622
 20
6977.873913210451
 30
0.0
 11
4896.229089723362
 21
6977.873913210451
 31
0.0
  0
LINE
  5
1C5
330
6C
100
AcDbEntity
  8
Visible (ISO)
100
AcDbLine
 10
4935.902378678992
 20
7682.873913210451
 30
0.0
 11
4935.902378678992
 21
6977.873913210451
 31
0.0
  0
LINE
  5
1C6
330
6C
100
AcDbEntity
  8
Visible (ISO)
100
AcDbLine
 10
4887.602378678992
 20
7682.873913210451
 30
0.0
 11
4887.602378678992
 21
6977.873913210451
 31
0.0
  0
LINE
  5
1C7
330
6C
100
AcDbEntity
  8
Visible (ISO)
100
AcDbLine
 10
5213.002378678992
 20
7682.873913210451
 30
0.0
 11
5215.902378678991
 21
7682.873913210451
 31
0.0
  0
LINE
  5
1C8
330
6C
100
AcDbEntity
  8
Visible (ISO)
100
AcDbLine
 10
5167.602378678992
 20
7682.873913210451
 30
0.0
 11
5170.502378678992
 21
7682.873913210451
 31
0.0
  0
LINE
  5
1C9
330
6C
100
AcDbEntity
  8
Visible (ISO)
100
AcDbLine
 10
5171.752378678991
 20
6977.873913210451
 30
0.0
 11
5167.602378678992
 21
6977.873913210451
 31
0.0
  0
LINE
  5
1CA
330
6C
100
AcDbEntity
  8
Visible (ISO)
100
AcDbLine
 10
5207.275667634622
 20
6977.873913210451
 30
0.0
 11
5176.229089723362
 21
6977.873913210451
 31
0.0
  0
LINE
  5
1CB
330
6C
100
AcDbEntity
  8
Visible (ISO)
100
AcDbLine
 10
5215.902378678991
 20
6977.873913210451
 30
0.0
 11
5211.75237867899
 21
6977.873913210451
 31
0.0
  0
LINE
  5
1CC
330
6C
100
AcDbEntity
  8
Visible (ISO)
100
AcDbLine
 10
5215.902378678991
 20
7682.873913210451
 30
0.0
 11
5215.902378678992
 21
6977.873913210451
 31
0.0
  0
LINE
  5
1CD
330
6C
100
AcDbEntity
  8
Visible (ISO)
100
AcDbLine
 10
5167.602378678991
 20
7682.873913210451
 30
0.0
 11
5167.602378678992
 21
6977.873913210451
 31
0.0
  0
CIRCLE
  5
1CE
330
6C
100
AcDbEntity
  8
Visible (ISO)
100
AcDbCircle
 10
4911.752378678992
 20
7696.969568569463
 30
0.0
 40
24.99999999999997
  0
CIRCLE
  5
1CF
330
6C
100
AcDbEntity
  8
Visible (ISO)
100
AcDbCircle
 10
4911.752378678992
 20
7696.969568569463
 30
0.0
 40
25.49999999999997
  0
ARC
  5
1D0
330
6C
100
AcDbEntity
  8
Visible (ISO)
100
AcDbCircle
 10
4911.752378678992
 20
6947.873913210452
 30
0.0
 40
19.99999999999998
100
AcDbArc
 50
180.0
 51
0.0
  0
LINE
  5
1D1
330
6C
100
AcDbEntity
  8
Visible (ISO)
100
AcDbLine
 10
4891.752378678993
 20
6977.873913210451
 30
0.0
 11
4896.229089723362
 21
6977.873913210451
 31
0.0
  0
LINE
  5
1D2
330
6C
100
AcDbEntity
  8
Visible (ISO)
100
AcDbLine
 10
4927.275667634622
 20
6977.873913210451
 30
0.0
 11
4931.752378678992
 21
6977.873913210451
 31
0.0
  0
LINE
  5
1D3
330
6C
100
AcDbEntity
  8
Visible (ISO)
100
AcDbLine
 10
4891.752378678993
 20
6977.873913210451
 30
0.0
 11
4891.752378678993
 21
6967.873913210453
 31
0.0
  0
LINE
  5
1D4
330
6C
100
AcDbEntity
  8
Visible (ISO)
100
AcDbLine
 10
4931.752378678992
 20
6977.873913210451
 30
0.0
 11
4931.752378678992
 21
6967.873913210453
 31
0.0
  0
LINE
  5
1D5
330
6C
100
AcDbEntity
  8
Visible (ISO)
100
AcDbLine
 10
4931.752378678992
 20
6947.873913210452
 30
0.0
 11
4931.752378678992
 21
6967.873913210453
 31
0.0
  0
LINE
  5
1D6
330
6C
100
AcDbEntity
  8
Visible (ISO)
100
AcDbLine
 10
4891.752378678993
 20
6947.873913210452
 30
0.0
 11
4891.752378678993
 21
6967.873913210453
 31
0.0
  0
ARC
  5
1D7
330
6C
100
AcDbEntity
  8
Visible (ISO)
100
AcDbCircle
 10
5191.752378678991
 20
6947.873913210452
 30
0.0
 40
19.99999999999999
100
AcDbArc
 50
180.0
 51
0.0
  0
LINE
  5
1D8
330
6C
100
AcDbEntity
  8
Visible (ISO)
100
AcDbLine
 10
5211.75237867899
 20
6967.873913210453
 30
0.0
 11
5211.75237867899
 21
6947.873913210452
 31
0.0
  0
LINE
  5
1D9
330
6C
100
AcDbEntity
  8
Visible (ISO)
100
AcDbLine
 10
5171.752378678991
 20
6967.873913210453
 30
0.0
 11
5171.752378678991
 21
6947.873913210452
 31
0.0
  0
LINE
  5
1DA
330
6C
100
AcDbEntity
  8
Visible (ISO)
100
AcDbLine
 10
5211.75237867899
 20
6967.873913210453
 30
0.0
 11
5211.75237867899
 21
6977.873913210451
 31
0.0
  0
LINE
  5
1DB
330
6C
100
AcDbEntity
  8
Visible (ISO)
100
AcDbLine
 10
5211.75237867899
 20
6977.873913210451
 30
0.0
 11
5207.275667634622
 21
6977.873913210451
 31
0.0
  0
LINE
  5
1DC
330
6C
100
AcDbEntity
  8
Visible (ISO)
100
AcDbLine
 10
5176.229089723362
 20
6977.873913210451
 30
0.0
 11
5171.752378678991
 21
6977.873913210451
 31
0.0
  0
LINE
  5
1DD
330
6C
100
AcDbEntity
  8
Visible (ISO)
100
AcDbLine
 10
5171.752378678991
 20
6967.873913210453
 30
0.0
 11
5171.752378678991
 21
6977.873913210451
 31
0.0
  0
LINE
  5
1DE
330
6C
100
AcDbEntity
  8
Visible (ISO)
100
AcDbLine
 10
5692.00237867899
 20
6928.123913210452
 30
0.0
 11
5692.00237867899
 21
6879.823913210451
 31
0.0
  0
LINE
  5
1DF
330
6C
100
AcDbEntity
  8
Visible (ISO)
100
AcDbLine
 10
4892.002378678991
 20
6879.823913210451
 30
0.0
 11
4892.002378678991
 21
6928.123913210452
 31
0.0
  0
LINE
  5
1E0
330
6C
100
AcDbEntity
  8
Visible (ISO)
100
AcDbLine
 10
5692.00237867899
 20
6879.823913210451
 30
0.0
 11
4892.002378678991
 21
6879.823913210451
 31
0.0
  0
LINE
  5
1E1
330
6C
100
AcDbEntity
  8
Visible (ISO)
100
AcDbLine
 10
5692.00237867899
 20
6928.123913210452
 30
0.0
 11
5659.50237867899
 21
6928.123913210452
 31
0.0
  0
LINE
  5
1E2
330
6C
100
AcDbEntity
  8
Visible (ISO)
100
AcDbLine
 10
5379.50237867899
 20
6928.123913210452
 30
0.0
 11
5254.752378678992
 21
6928.123913210452
 31
0.0
  0
LINE
  5
1E3
330
6C
100
AcDbEntity
  8
Visible (ISO)
100
AcDbLine
 10
5207.147182997331
 20
6928.123913210452
 30
0.0
 11
5194.904758732221
 21
6928.123913210452
 31
0.0
  0
LINE
  5
1E4
330
6C
100
AcDbEntity
  8
Visible (ISO)
100
AcDbLine
 10
5188.599998625762
 20
6928.123913210452
 30
0.0
 11
5176.35757436065
 21
6928.123913210452
 31
0.0
  0
LINE
  5
1E5
330
6C
100
AcDbEntity
  8
Visible (ISO)
100
AcDbLine
 10
5128.752378678992
 20
6928.123913210452
 30
0.0
 11
4974.752378678992
 21
6928.123913210452
 31
0.0
  0
LINE
  5
1E6
330
6C
100
AcDbEntity
  8
Visible (ISO)
100
AcDbLine
 10
4927.147182997333
 20
6928.123913210452
 30
0.0
 11
4914.904758732221
 21
6928.123913210452
 31
0.0
  0
LINE
  5
1E7
330
6C
100
AcDbEntity
  8
Visible (ISO)
100
AcDbLine
 10
4908.599998625764
 20
6928.123913210452
 30
0.0
 11
4892.002378678991
 21
6928.123913210452
 31
0.0
  0
LINE
  5
1E8
330
6C
100
AcDbEntity
  8
Visible (ISO)
100
AcDbLine
 10
4892.002378678992
 20
6928.123913210452
 30
0.0
 11
4892.002378678992
 21
6879.823913210451
 31
0.0
  0
LINE
  5
1E9
330
6C
100
AcDbEntity
  8
Visible (ISO)
100
AcDbLine
 10
4892.002378678992
 20
6879.823913210451
 30
0.0
 11
4887.002378678992
 21
6879.823913210451
 31
0.0
  0
LINE
  5
1EA
330
6C
100
AcDbEntity
  8
Visible (ISO)
100
AcDbLine
 10
4892.002378678992
 20
6928.123913210452
 30
0.0
 11
4887.002378678992
 21
6928.123913210452
 31
0.0
  0
ARC
  5
1EB
330
6C
100
AcDbEntity
  8
Visible (ISO)
100
AcDbCircle
 10
4927.147182997333
 20
6931.123913210452
 30
0.0
 40
3.00000000000002
100
AcDbArc
 50
154.5837583196207
 51
270.0
  0
ARC
  5
1EC
330
6C
100
AcDbEntity
  8
Visible (ISO)
100
AcDbCircle
 10
4933.954266695066
 20
6952.83764855006
 30
0.0
 40
3.000000000000023
100
AcDbArc
 50
55.18841196278668
 51
137.2196357763442
  0
LINE
  5
1ED
330
6C
100
AcDbEntity
  8
Visible (ISO)
100
AcDbLine
 10
4935.666905593913
 20
6955.300749847643
 30
0.0
 11
4974.752378678992
 21
6928.123913210452
 31
0.0
  0
LINE
  5
1EE
330
6C
100
AcDbEntity
  8
Visible (ISO)
100
AcDbLine
 10
4974.752378678992
 20
6928.123913210452
 30
0.0
 11
4927.147182997333
 21
6928.123913210452
 31
0.0
  0
ARC
  5
1EF
330
6C
100
AcDbEntity
  8
Visible (ISO)
100
AcDbCircle
 10
5176.35757436065
 20
6931.123913210452
 30
0.0
 40
3.000000000000028
100
AcDbArc
 50
270.0
 51
25.41624168037932
  0
ARC
  5
1F0
330
6C
100
AcDbEntity
  8
Visible (ISO)
100
AcDbCircle
 10
5169.550490662917
 20
6952.83764855006
 30
0.0
 40
3.000000000000028
100
AcDbArc
 50
42.78036422366823
 51
124.8115880372369
  0
LINE
  5
1F1
330
6C
100
AcDbEntity
  8
Visible (ISO)
100
AcDbLine
 10
5128.75237867899
 20
6928.123913210452
 30
0.0
 11
5167.83785176407
 21
6955.300749847643
 31
0.0
  0
LINE
  5
1F2
330
6C
100
AcDbEntity
  8
Visible (ISO)
100
AcDbLine
 10
5176.35757436065
 20
6928.123913210452
 30
0.0
 11
5128.75237867899
 21
6928.123913210452
 31
0.0
  0
ARC
  5
1F3
330
6C
100
AcDbEntity
  8
Visible (ISO)
100
AcDbCircle
 10
5207.147182997331
 20
6931.123913210452
 30
0.0
 40
3.000000000000031
100
AcDbArc
 50
154.583758319636
 51
270.0
  0
ARC
  5
1F4
330
6C
100
AcDbEntity
  8
Visible (ISO)
100
AcDbCircle
 10
5213.954266695067
 20
6952.83764855006
 30
0.0
 40
3.000000000000031
100
AcDbArc
 50
55.18841196277699
 51
137.2196357763317
  0
LINE
  5
1F5
330
6C
100
AcDbEntity
  8
Visible (ISO)
100
AcDbLine
 10
5215.666905593913
 20
6955.300749847643
 30
0.0
 11
5254.752378678992
 21
6928.123913210452
 31
0.0
  0
LINE
  5
1F6
330
6C
100
AcDbEntity
  8
Visible (ISO)
100
AcDbLine
 10
5254.752378678992
 20
6928.123913210452
 30
0.0
 11
5207.147182997331
 21
6928.123913210452
 31
0.0
  0
SPLINE
  5
1F7
330
6C
100
AcDbEntity
  8
Visible (ISO)
100
AcDbSpline
210
0.0
220
0.0
230
1.0
 70
     8
 71
     3
 72
    10
 73
     6
 74
     0
 42
0.0000000001
 43
0.0000000001
 40
3.921285166298652
 40
3.921285166298652
 40
3.921285166298652
 40
3.921285166298652
 40
4.572866090997125
 40
4.572866090997125
 40
6.097154787996167
 40
6.097154787996167
 40
6.097154787996167
 40
6.097154787996167
 10
5631.748284202064
 20
6965.123913210452
 30
0.0
 10
5629.765057520804
 20
6964.530336413179
 30
0.0
 10
5627.748684159446
 20
6963.941719220033
 30
0.0
 10
5620.939891621
 20
6962.006566715101
 30
0.0
 10
5616.047065428865
 20
6960.702391375789
 30
0.0
 10
5611.175413613497
 20
6959.491247102372
 30
0.0
  0
SPLINE
  5
1F8
330
6C
100
AcDbEntity
  8
Visible (ISO)
100
AcDbSpline
210
0.0
220
0.0
230
1.0
 70
     8
 71
     3
 72
    18
 73
    14
 74
     0
 42
0.0000000001
 43
0.0000000001
 40
-0.0010767747414977
 40
-0.0010767747414977
 40
-0.0010767747414977
 40
-0.0010767747414977
 40
0.0
 40
0.0
 40
0.1131049542352112
 40
0.1131049542352112
 40
0.2262288667626171
 40
0.2262288667626171
 40
0.4424768113545202
 40
0.4424768113545202
 40
0.6567178829235365
 40
0.6567178829235365
 40
0.8697309704838056
 40
0.8697309704838056
 40
0.8697309704838056
 40
0.8697309704838056
 10
5634.093438685837
 20
6959.623913210451
 30
0.0
 10
5634.092960601094
 20
6959.627467734275
 30
0.0
 10
5634.092481547487
 20
6959.631022257223
 30
0.0
 10
5634.041579848287
 20
6960.007944998183
 30
0.0
 10
5633.980601864952
 20
6960.380329682981
 30
0.0
 10
5633.839398516879
 20
6961.111666860192
 30
0.0
 10
5633.759515711696
 20
6961.468826086676
 30
0.0
 10
5633.50347523201
 20
6962.467665977239
 30
0.0
 10
5633.30828502422
 20
6963.062752603717
 30
0.0
 10
5632.887332964081
 20
6964.058758123089
 30
0.0
 10
5632.665825669942
 20
6964.452052368359
 30
0.0
 10
5632.224597080362
 20
6964.986538876036
 30
0.0
 10
5632.009188994825
 20
6965.123913210452
 30
0.0
 10
5631.810292678614
 20
6965.123913210452
 30
0.0
  0
SPLINE
  5
1F9
330
6C
100
AcDbEntity
  8
Visible (ISO)
100
AcDbSpline
210
0.0
220
0.0
230
1.0
 70
    24
 71
     3
 72
     8
 73
     4
 74
     0
 42
0.0000000001
 43
0.0000000001
 40
3.046071552120637
 40
3.046071552120637
 40
3.046071552120637
 40
3.046071552120637
 40
3.122700875874432
 40
3.122700875874432
 40
3.122700875874432
 40
3.122700875874432
 10
5631.810292678614
 20
6965.123913210452
 30
0.0
 10
5631.768144170353
 20
6965.123913210452
 30
0.0
 10
5631.748284202064
 20
6965.123913210451
 30
0.0
 10
5631.748284202064
 20
6965.123913210451
 30
0.0
  0
SPLINE
  5
1FA
330
6C
100
AcDbEntity
  8
Visible (ISO)
100
AcDbSpline
210
0.0
220
0.0
230
1.0
 70
     8
 71
     3
 72
    18
 73
    14
 74
     0
 42
0.0000000001
 43
0.0000000001
 40
-0.8704994547357223
 40
-0.8704994547357223
 40
-0.8704994547357223
 40
-0.8704994547357223
 40
-0.8694230611877689
 40
-0.8694230611877689
 40
-0.7563581493735409
 40
-0.7563581493735409
 40
-0.6432742858913745
 40
-0.6432742858913745
 40
-0.4271028991493287
 40
-0.4271028991493287
 40
-0.2129376749407176
 40
-0.2129376749407176
 40
0.0
 40
0.0
 40
0.0
 40
0.0
 10
5369.911318672152
 20
6959.623913210453
 30
0.0
 10
5369.911796756904
 20
6959.627467734342
 30
0.0
 10
5369.912275810301
 20
6959.631022257224
 30
0.0
 10
5369.963177514952
 20
6960.00794499891
 30
0.0
 10
5370.024155493094
 20
6960.380329683276
 30
0.0
 10
5370.165358841112
 20
6961.111666860199
 30
0.0
 10
5370.245241646294
 20
6961.468826086679
 30
0.0
 10
5370.501282125981
 20
6962.46766597724
 30
0.0
 10
5370.69647233377
 20
6963.062752603717
 30
0.0
 10
5371.117424393908
 20
6964.058758123089
 30
0.0
 10
5371.338931688047
 20
6964.452052368361
 30
0.0
 10
5371.780160277626
 20
6964.986538876036
 30
0.0
 10
5371.995568363164
 20
6965.123913210452
 30
0.0
 10
5372.194464679376
 20
6965.123913210452
 30
0.0
  0
LINE
  5
1FB
330
6C
100
AcDbEntity
  8
Visible (ISO)
100
AcDbLine
 10
5320.002378678989
 20
6965.123913210452
 30
0.0
 11
5372.194464679376
 21
6965.123913210452
 31
0.0
  0
LINE
  5
1FC
330
6C
100
AcDbEntity
  8
Visible (ISO)
100
AcDbLine
 10
5631.810292678614
 20
6965.123913210451
 30
0.0
 11
5684.002378679
 21
6965.123913210451
 31
0.0
  0
ARC
  5
1FD
330
6C
100
AcDbEntity
  8
Visible (ISO)
100
AcDbCircle
 10
5502.002378678996
 20
7398.62391321047
 30
0.0
 40
452.500000000018
100
AcDbArc
 50
256.0387050788802
 51
283.9612949211192
  0
SPLINE
  5
1FE
330
6C
100
AcDbEntity
  8
Visible (ISO)
100
AcDbSpline
210
0.0
220
0.0
230
1.0
 70
     8
 71
     3
 72
    10
 73
     6
 74
     0
 42
0.0000000001
 43
0.0000000001
 40
0.0000000000000094
 40
0.0000000000000094
 40
0.0000000000000094
 40
0.0000000000000094
 40
1.343964608492162
 40
1.343964608492162
 40
2.17586962169543
 40
2.17586962169543
 40
2.17586962169543
 40
2.17586962169543
 10
5392.829343744494
 20
6959.491247102372
 30
0.0
 10
5388.534010690039
 20
6960.559112423722
 30
0.0
 10
5384.222252467726
 20
6961.698996471416
 30
0.0
 10
5377.374755220769
 20
6963.616330669866
 30
0.0
 10
5374.788586946527
 20
6964.366055317374
 30
0.0
 10
5372.256473155945
 20
6965.123913210447
 30
0.0
  0
SPLINE
  5
1FF
330
6C
100
AcDbEntity
  8
Visible (ISO)
100
AcDbSpline
210
0.0
220
0.0
230
1.0
 70
    24
 71
     3
 72
     8
 73
     4
 74
     0
 42
0.0000000001
 43
0.0000000001
 40
0.0
 40
0.0
 40
0.0
 40
0.0
 40
0.0454979855665535
 40
0.0454979855665535
 40
0.0454979855665535
 40
0.0454979855665535
 10
5372.256473155925
 20
6965.123913210452
 30
0.0
 10
5372.256473155925
 20
6965.123913210452
 30
0.0
 10
5372.236327346338
 20
6965.123913210452
 30
0.0
 10
5372.194464679376
 20
6965.123913210452
 30
0.0
  0
LINE
  5
200
330
6C
100
AcDbEntity
  8
Visible (ISO)
100
AcDbLine
 10
5391.502378678992
 20
6965.123913210452
 30
0.0
 11
5372.256473155939
 21
6965.123913210452
 31
0.0
  0
LINE
  5
201
330
6C
100
AcDbEntity
  8
Visible (ISO)
100
AcDbLine
 10
5612.502378679
 20
6965.123913210451
 30
0.0
 11
5391.502378678992
 21
6965.123913210452
 31
0.0
  0
LINE
  5
202
330
6C
100
AcDbEntity
  8
Visible (ISO)
100
AcDbLine
 10
5631.748284202064
 20
6965.123913210451
 30
0.0
 11
5612.502378679
 21
6965.123913210451
 31
0.0
  0
ARC
  5
203
330
6C
100
AcDbEntity
  8
Visible (ISO)
100
AcDbCircle
 10
5320.002378678988
 20
6959.623913210451
 30
0.0
 40
5.500000000000223
100
AcDbArc
 50
90.0
 51
180.0
  0
ARC
  5
204
330
6C
100
AcDbEntity
  8
Visible (ISO)
100
AcDbCircle
 10
5684.002378679002
 20
6959.623913210451
 30
0.0
 40
5.500000000000222
100
AcDbArc
 50
0.0
 51
90.0
  0
LINE
  5
205
330
6C
100
AcDbEntity
  8
Visible (ISO)
100
AcDbLine
 10
5612.502378678999
 20
6931.123913210452
 30
0.0
 11
5391.502378678992
 21
6931.123913210452
 31
0.0
  0
LINE
  5
206
330
6C
100
AcDbEntity
  8
Visible (ISO)
100
AcDbLine
 10
5314.502378678989
 20
6931.123913210452
 30
0.0
 11
5391.502378678992
 21
6931.123913210452
 31
0.0
  0
LINE
  5
207
330
6C
100
AcDbEntity
  8
Visible (ISO)
100
AcDbLine
 10
5612.502378678999
 20
6931.123913210452
 30
0.0
 11
5689.502378679001
 21
6931.123913210452
 31
0.0
  0
LINE
  5
208
330
6C
100
AcDbEntity
  8
Visible (ISO)
100
AcDbLine
 10
5314.502378678987
 20
6931.123913210452
 30
0.0
 11
5314.502378678987
 21
6959.623913210451
 31
0.0
  0
LINE
  5
209
330
6C
100
AcDbEntity
  8
Visible (ISO)
100
AcDbLine
 10
5689.502378679001
 20
6931.123913210452
 30
0.0
 11
5689.502378679001
 21
6959.623913210451
 31
0.0
  0
LINE
  5
20A
330
6C
100
AcDbEntity
  8
Visible (ISO)
100
AcDbLine
 10
5692.00237867899
 20
6879.82391321045
 30
0.0
 11
5692.00237867899
 21
6928.123913210452
 31
0.0
  0
ARC
  5
20B
330
6C
100
AcDbEntity
  8
Visible (ISO)
100
AcDbCircle
 10
5692.00237867899
 20
6903.97391321045
 30
0.0
 40
24.1500000000013
100
AcDbArc
 50
270.0
 51
90.0
  0
CIRCLE
  5
20C
330
6C
100
AcDbEntity
  8
Visible (ISO)
100
AcDbCircle
 10
4911.752378678992
 20
7696.969568569463
 30
0.0
 40
24.14999999999998
  0
CIRCLE
  5
20D
330
6C
100
AcDbEntity
  8
Visible (ISO)
100
AcDbCircle
 10
5191.752378678991
 20
7696.969568569463
 30
0.0
 40
24.15000000000001
  0
CIRCLE
  5
20E
330
6C
100
AcDbEntity
  8
Visible (ISO)
100
AcDbCircle
 10
5191.752378678991
 20
7696.969568569463
 30
0.0
 40
25.0
  0
CIRCLE
  5
20F
330
6C
100
AcDbEntity
  8
Visible (ISO)
100
AcDbCircle
 10
5191.752378678991
 20
7696.969568569463
 30
0.0
 40
25.50000000000001
  0
LINE
  5
210
330
6C
100
AcDbEntity
  8
Visible (ISO)
100
AcDbLine
 10
5215.473810081782
 20
7706.326047191396
 30
0.0
 11
5189.758157715977
 21
7771.52280638062
 31
0.0
  0
LINE
  5
211
330
6C
100
AcDbEntity
  8
Visible (ISO)
100
AcDbLine
 10
4865.00237867899
 20
6881.973913210451
 30
0.0
 11
4865.00237867899
 21
6925.973913210452
 31
0.0
  0
ARC
  5
212
330
6C
100
AcDbEntity
  8
Visible (ISO)
100
AcDbCircle
 10
4873.002378678991
 20
6925.973913210452
 30
0.0
 40
8.000000000000262
100
AcDbArc
 50
90.0
 51
180.0
  0
ARC
  5
213
330
6C
100
AcDbEntity
  8
Visible (ISO)
100
AcDbCircle
 10
4873.002378678991
 20
6881.973913210451
 30
0.0
 40
8.000000000000261
100
AcDbArc
 50
180.0
 51
270.0
  0
LINE
  5
214
330
6C
100
AcDbEntity
  8
Visible (ISO)
100
AcDbLine
 10
4887.002378678992
 20
6933.973913210452
 30
0.0
 11
4887.002378678992
 21
6873.973913210452
 31
0.0
  0
LINE
  5
215
330
6C
100
AcDbEntity
  8
Visible (ISO)
100
AcDbLine
 10
4887.002378678992
 20
6873.973913210452
 30
0.0
 11
4873.002378678991
 21
6873.973913210452
 31
0.0
  0
LINE
  5
216
330
6C
100
AcDbEntity
  8
Visible (ISO)
100
AcDbLine
 10
4887.002378678992
 20
6933.973913210452
 30
0.0
 11
4873.002378678991
 21
6933.973913210452
 31
0.0
  0
CIRCLE
  5
217
330
6C
100
AcDbEntity
  8
Visible (ISO)
100
AcDbCircle
 10
4911.752378678992
 20
6947.873913210452
 30
0.0
 40
11.00000000000001
  0
CIRCLE
  5
218
330
6C
100
AcDbEntity
  8
Visible (ISO)
100
AcDbCircle
 10
5191.752378678991
 20
6947.873913210452
 30
0.0
 40
10.99999999999998
  0
CIRCLE
  5
219
330
6C
100
AcDbEntity
  8
Visible (ISO)
100
AcDbCircle
 10
5191.752378678991
 20
6947.873913210452
 30
0.0
 40
8.79999999999999
  0
CIRCLE
  5
21A
330
6C
100
AcDbEntity
  8
Visible (ISO)
100
AcDbCircle
 10
4911.752378678992
 20
6947.873913210452
 30
0.0
 40
8.800000000000027
  0
LINE
  5
21B
330
6C
100
AcDbEntity
  8
Visible (ISO)
100
AcDbLine
 10
5231.752378678992
 20
7811.119568569463
 30
0.0
 11
5231.752378678992
 21
7735.019568569462
 31
0.0
  0
LINE
  5
21C
330
6C
100
AcDbEntity
  8
Visible (ISO)
100
AcDbLine
 10
5231.752378678992
 20
7735.019568569462
 30
0.0
 11
5227.026129685432
 21
7735.019568569462
 31
0.0
  0
LINE
  5
21D
330
6C
100
AcDbEntity
  8
Visible (ISO)
100
AcDbLine
 10
5139.022194770652
 20
7735.019568569462
 30
0.0
 11
4947.026129685433
 21
7735.019568569462
 31
0.0
  0
LINE
  5
21E
330
6C
100
AcDbEntity
  8
Visible (ISO)
100
AcDbLine
 10
4876.47862767255
 20
7735.019568569462
 30
0.0
 11
4834.802378678991
 21
7735.019568569462
 31
0.0
  0
LINE
  5
21F
330
6C
100
AcDbEntity
  8
Visible (ISO)
100
AcDbLine
 10
4758.702378678991
 20
7735.019568569462
 30
0.0
 11
4544.752378678992
 21
7735.019568569462
 31
0.0
  0
LINE
  5
220
330
6C
100
AcDbEntity
  8
Visible (ISO)
100
AcDbLine
 10
5231.752378678992
 20
7811.119568569463
 30
0.0
 11
5200.310547322439
 21
7811.119568569463
 31
0.0
  0
LINE
  5
221
330
6C
100
AcDbEntity
  8
Visible (ISO)
100
AcDbLine
 10
5161.112129672253
 20
7811.119568569463
 30
0.0
 11
4544.752378678992
 21
7811.119568569463
 31
0.0
  0
LINE
  5
222
330
6C
100
AcDbEntity
  8
Visible (ISO)
100
AcDbLine
 10
4812.025885152621
 20
7757.796062095831
 30
0.0
 11
4834.802378678991
 21
7735.019568569462
 31
0.0
  0
LINE
  5
223
330
6C
100
AcDbEntity
  8
Visible (ISO)
100
AcDbLine
 10
4758.702378678991
 20
7735.019568569462
 30
0.0
 11
4781.478872205362
 21
7757.796062095831
 31
0.0
  0
LINE
  5
224
330
6C
100
AcDbEntity
  8
Visible (ISO)
100
AcDbLine
 10
4781.478872205362
 20
7757.796062095832
 30
0.0
 11
4812.025885152621
 21
7757.796062095832
 31
0.0
  0
LINE
  5
225
330
6C
100
AcDbEntity
  8
Visible (ISO)
100
AcDbLine
 10
4758.702378678991
 20
7543.069568569461
 30
0.0
 11
4758.702378678991
 21
7735.019568569462
 31
0.0
  0
LINE
  5
226
330
6C
100
AcDbEntity
  8
Visible (ISO)
100
AcDbLine
 10
4834.802378678991
 20
7543.069568569461
 30
0.0
 11
4834.802378678991
 21
7735.019568569462
 31
0.0
  0
ARC
  5
227
330
6C
100
AcDbEntity
  8
Visible (ISO)
100
AcDbCircle
 10
4596.752378678992
 20
7543.069568569461
 30
0.0
 40
238.05
100
AcDbArc
 50
270.0
 51
0.0
  0
ARC
  5
228
330
6C
100
AcDbEntity
  8
Visible (ISO)
100
AcDbCircle
 10
4596.752378678992
 20
7543.069568569461
 30
0.0
 40
161.95
100
AcDbArc
 50
270.0
 51
0.0
  0
LINE
  5
229
330
6C
100
AcDbEntity
  8
Visible (ISO)
100
AcDbLine
 10
4544.752378678992
 20
7381.119568569463
 30
0.0
 11
4596.752378678992
 21
7381.119568569463
 31
0.0
  0
LINE
  5
22A
330
6C
100
AcDbEntity
  8
Visible (ISO)
100
AcDbLine
 10
4544.752378678992
 20
7305.019568569462
 30
0.0
 11
4596.752378678992
 21
7305.019568569462
 31
0.0
  0
ARC
  5
22B
330
6C
100
AcDbEntity
  8
Visible (ISO)
100
AcDbCircle
 10
5191.752378678991
 20
7696.969568569463
 30
0.0
 40
37.49999999999986
100
AcDbArc
 50
210.7051161554006
 51
229.9092597508798
  0
ARC
  5
22C
330
6C
100
AcDbEntity
  8
Visible (ISO)
100
AcDbCircle
 10
5191.752378678991
 20
7696.969568569463
 30
0.0
 40
37.49999999999998
100
AcDbArc
 50
310.0907402491191
 51
68.68219258034766
  0
ARC
  5
22D
330
6C
100
AcDbEntity
  8
Visible (ISO)
100
AcDbCircle
 10
4911.752378678992
 20
7696.969568569463
 30
0.0
 40
37.49999999999999
100
AcDbArc
 50
310.0907402491191
 51
229.9092597508808
  0
ARC
  5
22E
330
6C
100
AcDbEntity
  8
Visible (ISO)
100
AcDbCircle
 10
5191.752378678991
 20
7696.969568569463
 30
0.0
 40
38.05000000000001
100
AcDbArc
 50
309.3970847980431
 51
69.44558487731796
  0
ARC
  5
22F
330
6C
100
AcDbEntity
  8
Visible (ISO)
100
AcDbCircle
 10
5191.752378678991
 20
7696.969568569463
 30
0.0
 40
38.05000000000001
100
AcDbArc
 50
211.3360701706965
 51
230.6029152019559
  0
ARC
  5
230
330
6C
100
AcDbEntity
  8
Visible (ISO)
100
AcDbCircle
 10
4911.752378678992
 20
7696.969568569463
 30
0.0
 40
38.05
100
AcDbArc
 50
309.3970847980431
 51
230.6029152019569
  0
LINE
  5
231
330
6C
100
AcDbEntity
  8
Visible (ISO)
100
AcDbLine
 10
5227.026129685432
 20
7764.583406900077
 30
0.0
 11
5227.026129685432
 21
7763.626049018421
 31
0.0
  0
LINE
  5
232
330
6C
100
AcDbEntity
  8
Visible (ISO)
100
AcDbLine
 10
5227.026129685432
 20
7731.517198893417
 30
0.0
 11
5227.026129685432
 21
7727.474556775073
 31
0.0
  0
LINE
  5
233
330
6C
100
AcDbEntity
  8
Visible (ISO)
100
AcDbLine
 10
5227.026129685434
 20
7764.583406900077
 30
0.0
 11
5222.026129685433
 21
7764.583406900077
 31
0.0
  0
LINE
  5
234
330
6C
100
AcDbEntity
  8
Visible (ISO)
100
AcDbLine
 10
5227.026129685432
 20
7731.517198893417
 30
0.0
 11
5227.026129685432
 21
7763.626049018421
 31
0.0
  0
LINE
  5
235
330
6C
100
AcDbEntity
  8
Visible (ISO)
100
AcDbLine
 10
5227.026129685432
 20
7720.019568569462
 30
0.0
 11
5227.026129685432
 21
7727.474556775073
 31
0.0
  0
LINE
  5
236
330
6C
100
AcDbEntity
  8
Visible (ISO)
100
AcDbLine
 10
5222.026129685432
 20
7727.474556775073
 30
0.0
 11
5222.026129685432
 21
7720.019568569462
 31
0.0
  0
LINE
  5
237
330
6C
100
AcDbEntity
  8
Visible (ISO)
100
AcDbLine
 10
5227.026129685432
 20
7720.019568569462
 30
0.0
 11
5222.026129685432
 21
7720.019568569462
 31
0.0
  0
LINE
  5
238
330
6C
100
AcDbEntity
  8
Visible (ISO)
100
AcDbLine
 10
5222.026129685432
 20
7763.626049018421
 30
0.0
 11
5222.026129685432
 21
7731.517198893417
 31
0.0
  0
LINE
  5
239
330
6C
100
AcDbEntity
  8
Visible (ISO)
100
AcDbLine
 10
4947.026129685433
 20
7764.583406900077
 30
0.0
 11
4947.026129685433
 21
7763.626049018421
 31
0.0
  0
LINE
  5
23A
330
6C
100
AcDbEntity
  8
Visible (ISO)
100
AcDbLine
 10
4947.026129685433
 20
7731.517198893417
 30
0.0
 11
4947.026129685433
 21
7727.474556775073
 31
0.0
  0
LINE
  5
23B
330
6C
100
AcDbEntity
  8
Visible (ISO)
100
AcDbLine
 10
4947.026129685433
 20
7764.583406900077
 30
0.0
 11
4942.026129685433
 21
7764.583406900077
 31
0.0
  0
LINE
  5
23C
330
6C
100
AcDbEntity
  8
Visible (ISO)
100
AcDbLine
 10
4947.026129685433
 20
7731.517198893417
 30
0.0
 11
4947.026129685433
 21
7763.626049018421
 31
0.0
  0
LINE
  5
23D
330
6C
100
AcDbEntity
  8
Visible (ISO)
100
AcDbLine
 10
4947.026129685433
 20
7720.019568569462
 30
0.0
 11
4947.026129685433
 21
7727.474556775073
 31
0.0
  0
LINE
  5
23E
330
6C
100
AcDbEntity
  8
Visible (ISO)
100
AcDbLine
 10
4942.026129685433
 20
7727.474556775073
 30
0.0
 11
4942.026129685433
 21
7720.019568569462
 31
0.0
  0
LINE
  5
23F
330
6C
100
AcDbEntity
  8
Visible (ISO)
100
AcDbLine
 10
4947.026129685433
 20
7720.019568569462
 30
0.0
 11
4942.026129685433
 21
7720.019568569462
 31
0.0
  0
LINE
  5
240
330
6C
100
AcDbEntity
  8
Visible (ISO)
100
AcDbLine
 10
4942.026129685433
 20
7763.626049018421
 30
0.0
 11
4942.026129685433
 21
7731.517198893417
 31
0.0
  0
LINE
  5
241
330
6C
100
AcDbEntity
  8
Visible (ISO)
100
AcDbLine
 10
4876.47862767255
 20
7763.626049018421
 30
0.0
 11
4876.47862767255
 21
7764.583406900077
 31
0.0
  0
LINE
  5
242
330
6C
100
AcDbEntity
  8
Visible (ISO)
100
AcDbLine
 10
4876.47862767255
 20
7727.474556775073
 30
0.0
 11
4876.47862767255
 21
7731.517198893417
 31
0.0
  0
LINE
  5
243
330
6C
100
AcDbEntity
  8
Visible (ISO)
100
AcDbLine
 10
4881.47862767255
 20
7764.583406900077
 30
0.0
 11
4876.47862767255
 21
7764.583406900077
 31
0.0
  0
LINE
  5
244
330
6C
100
AcDbEntity
  8
Visible (ISO)
100
AcDbLine
 10
4881.478627672549
 20
7731.517198893417
 30
0.0
 11
4881.478627672549
 21
7763.626049018421
 31
0.0
  0
LINE
  5
245
330
6C
100
AcDbEntity
  8
Visible (ISO)
100
AcDbLine
 10
4881.478627672549
 20
7720.019568569462
 30
0.0
 11
4881.478627672549
 21
7727.474556775073
 31
0.0
  0
LINE
  5
246
330
6C
100
AcDbEntity
  8
Visible (ISO)
100
AcDbLine
 10
4876.47862767255
 20
7727.474556775073
 30
0.0
 11
4876.47862767255
 21
7720.019568569462
 31
0.0
  0
LINE
  5
247
330
6C
100
AcDbEntity
  8
Visible (ISO)
100
AcDbLine
 10
4881.478627672549
 20
7720.019568569462
 30
0.0
 11
4876.47862767255
 21
7720.019568569462
 31
0.0
  0
LINE
  5
248
330
6C
100
AcDbEntity
  8
Visible (ISO)
100
AcDbLine
 10
4876.47862767255
 20
7763.626049018421
 30
0.0
 11
4876.47862767255
 21
7731.517198893417
 31
0.0
  0
LINE
  5
249
330
6C
100
AcDbEntity
  8
Visible (ISO)
100
AcDbLine
 10
5215.483141515822
 20
7729.138277334515
 30
0.0
 11
5215.483141515822
 21
7726.712692063509
 31
0.0
  0
ARC
  5
24A
330
6C
100
AcDbEntity
  8
Visible (ISO)
100
AcDbCircle
 10
5191.752378678991
 20
7699.395153840469
 30
0.0
 40
38.05000000000008
100
AcDbArc
 50
51.41513467995086
 51
71.22652394965268
  0
LINE
  5
24B
330
6C
100
AcDbEntity
  8
Visible (ISO)
100
AcDbLine
 10
5215.483141515822
 20
7729.138277334515
 30
0.0
 11
5222.026129685432
 21
7729.138277334515
 31
0.0
  0
LINE
  5
24C
330
6C
100
AcDbEntity
  8
Visible (ISO)
100
AcDbLine
 10
5222.026129685432
 20
7729.138277334515
 30
0.0
 11
5222.026129685432
 21
7766.42762144465
 31
0.0
  0
LINE
  5
24D
330
6C
100
AcDbEntity
  8
Visible (ISO)
100
AcDbLine
 10
5222.026129685433
 20
7766.42762144465
 30
0.0
 11
5191.767858906382
 21
7766.42762144465
 31
0.0
  0
LINE
  5
24E
330
6C
100
AcDbEntity
  8
Visible (ISO)
100
AcDbLine
 10
5215.483141515822
 20
7726.712692063509
 30
0.0
 11
5222.026129685432
 21
7726.712692063509
 31
0.0
  0
LINE
  5
24F
330
6C
100
AcDbEntity
  8
Visible (ISO)
100
AcDbLine
 10
5222.026129685432
 20
7729.138277334515
 30
0.0
 11
5222.026129685432
 21
7727.474556775074
 31
0.0
  0
LINE
  5
250
330
6C
100
AcDbEntity
  8
Visible (ISO)
100
AcDbLine
 10
4935.483141515821
 20
7729.138277334515
 30
0.0
 11
4935.483141515821
 21
7726.712692063509
 31
0.0
  0
ARC
  5
251
330
6C
100
AcDbEntity
  8
Visible (ISO)
100
AcDbCircle
 10
4911.752378678992
 20
7699.395153840469
 30
0.0
 40
38.05000000000008
100
AcDbArc
 50
51.41513467995086
 51
128.5848653200491
  0
LINE
  5
252
330
6C
100
AcDbEntity
  8
Visible (ISO)
100
AcDbLine
 10
4888.021615842162
 20
7726.712692063509
 30
0.0
 11
4888.021615842162
 21
7729.138277334515
 31
0.0
  0
LINE
  5
253
330
6C
100
AcDbEntity
  8
Visible (ISO)
100
AcDbLine
 10
4881.478627672549
 20
7729.138277334515
 30
0.0
 11
4888.021615842162
 21
7729.138277334515
 31
0.0
  0
LINE
  5
254
330
6C
100
AcDbEntity
  8
Visible (ISO)
100
AcDbLine
 10
4881.478627672549
 20
7729.138277334515
 30
0.0
 11
4881.478627672549
 21
7727.474556775073
 31
0.0
  0
LINE
  5
255
330
6C
100
AcDbEntity
  8
Visible (ISO)
100
AcDbLine
 10
4881.478627672549
 20
7726.712692063509
 30
0.0
 11
4888.021615842162
 21
7726.712692063509
 31
0.0
  0
LINE
  5
256
330
6C
100
AcDbEntity
  8
Visible (ISO)
100
AcDbLine
 10
4935.483141515821
 20
7729.138277334515
 30
0.0
 11
4942.026129685433
 21
7729.138277334515
 31
0.0
  0
LINE
  5
257
330
6C
100
AcDbEntity
  8
Visible (ISO)
100
AcDbLine
 10
4942.026129685433
 20
7729.138277334515
 30
0.0
 11
4942.026129685434
 21
7766.42762144465
 31
0.0
  0
LINE
  5
258
330
6C
100
AcDbEntity
  8
Visible (ISO)
100
AcDbLine
 10
4942.026129685434
 20
7766.42762144465
 30
0.0
 11
4881.478627672549
 21
7766.42762144465
 31
0.0
  0
LINE
  5
259
330
6C
100
AcDbEntity
  8
Visible (ISO)
100
AcDbLine
 10
4881.478627672549
 20
7766.42762144465
 30
0.0
 11
4881.478627672549
 21
7729.138277334515
 31
0.0
  0
LINE
  5
25A
330
6C
100
AcDbEntity
  8
Visible (ISO)
100
AcDbLine
 10
4935.483141515821
 20
7726.712692063509
 30
0.0
 11
4942.026129685433
 21
7726.712692063509
 31
0.0
  0
LINE
  5
25B
330
6C
100
AcDbEntity
  8
Visible (ISO)
100
AcDbLine
 10
4942.026129685433
 20
7729.138277334515
 30
0.0
 11
4942.026129685433
 21
7727.474556775074
 31
0.0
  0
LINE
  5
25C
330
6C
100
AcDbEntity
  8
Visible (ISO)
100
AcDbLine
 10
5231.752378678992
 20
7735.019568569462
 30
0.0
 11
5231.752378678992
 21
7811.119568569463
 31
0.0
  0
ARC
  5
25D
330
6C
100
AcDbEntity
  8
Visible (ISO)
100
AcDbCircle
 10
5231.752378678992
 20
7773.069568569461
 30
0.0
 40
38.04999999999999
100
AcDbArc
 50
270.0
 51
90.0
  0
ARC
  5
25E
330
6C
100
AcDbEntity
  8
Visible (ISO)
100
AcDbCircle
 10
4569.752378678992
 20
6974.819568569462
 30
0.0
 40
34.99999999999995
100
AcDbArc
 50
90.0
 51
135.5846914028079
  0
LINE
  5
25F
330
6C
100
AcDbEntity
  8
Visible (ISO)
100
AcDbLine
 10
4569.752378678992
 20
7009.819568569461
 30
0.0
 11
4574.752378678993
 21
7009.819568569461
 31
0.0
  0
LINE
  5
260
330
6C
100
AcDbEntity
  8
Visible (ISO)
100
AcDbLine
 10
4574.752378678993
 20
6909.809568569461
 30
0.0
 11
4574.752378678993
 21
6874.819568569463
 31
0.0
  0
LINE
  5
261
330
6C
100
AcDbEntity
  8
Visible (ISO)
100
AcDbLine
 10
4574.752378678993
 20
6909.809568569461
 30
0.0
 11
4574.742378678991
 21
6909.809568569461
 31
0.0
  0
LINE
  5
262
330
6C
100
AcDbEntity
  8
Visible (ISO)
100
AcDbLine
 10
4574.742378678991
 20
6909.809568569461
 30
0.0
 11
4574.742378678991
 21
6909.819568569464
 31
0.0
  0
LINE
  5
263
330
6C
100
AcDbEntity
  8
Visible (ISO)
100
AcDbLine
 10
4574.742378678991
 20
6909.819568569464
 30
0.0
 11
4574.752378678993
 21
6909.819568569464
 31
0.0
  0
LINE
  5
264
330
6C
100
AcDbEntity
  8
Visible (ISO)
100
AcDbLine
 10
4574.752378678993
 20
7009.819568569461
 30
0.0
 11
4579.752378678992
 21
7009.819568569461
 31
0.0
  0
LINE
  5
265
330
6C
100
AcDbEntity
  8
Visible (ISO)
100
AcDbLine
 10
4579.752378678992
 20
6909.819568569464
 30
0.0
 11
4574.752378678993
 21
6909.819568569464
 31
0.0
  0
SPLINE
  5
266
330
6C
100
AcDbEntity
  8
Visible (ISO)
100
AcDbSpline
210
0.0
220
0.0
230
1.0
 70
     8
 71
     3
 72
     8
 73
     4
 74
     0
 42
0.0000000001
 43
0.0000000001
 40
-1.0
 40
-1.0
 40
-1.0
 40
-1.0
 40
0.0
 40
0.0
 40
0.0
 40
0.0
 10
4569.752378678992
 20
6864.819568569463
 30
0.0
 10
4571.419045345659
 20
6864.819568569463
 30
0.0
 10
4573.085712012325
 20
6868.457267231845
 30
0.0
 10
4574.752378678993
 20
6873.010509895884
 30
0.0
  0
LINE
  5
267
330
6C
100
AcDbEntity
  8
Visible (ISO)
100
AcDbLine
 10
4544.752378678992
 20
6864.819568569463
 30
0.0
 11
4569.752378678992
 21
6864.819568569463
 31
0.0
  0
LINE
  5
268
330
6C
100
AcDbEntity
  8
Visible (ISO)
100
AcDbLine
 10
4574.752378678993
 20
6873.010509895884
 30
0.0
 11
4574.752378678993
 21
6874.819568569463
 31
0.0
  0
LINE
  5
269
330
6C
100
AcDbEntity
  8
Visible (ISO)
100
AcDbLine
 10
4579.752378678992
 20
6909.819568569464
 30
0.0
 11
4579.752378678992
 21
7009.819568569461
 31
0.0
  0
LINE
  5
26A
330
6C
100
AcDbEntity
  8
Visible (ISO)
100
AcDbLine
 10
4579.752378678992
 20
6909.819568569464
 30
0.0
 11
4584.752378678992
 21
6909.819568569464
 31
0.0
  0
LINE
  5
26B
330
6C
100
AcDbEntity
  8
Visible (ISO)
100
AcDbLine
 10
4584.752378678992
 20
7009.819568569461
 30
0.0
 11
4584.752378678992
 21
6909.819568569464
 31
0.0
  0
LINE
  5
26C
330
6C
100
AcDbEntity
  8
Visible (ISO)
100
AcDbLine
 10
4584.752378678992
 20
7009.819568569461
 30
0.0
 11
4579.752378678992
 21
7009.819568569461
 31
0.0
  0
LINE
  5
26D
330
6C
100
AcDbEntity
  8
Visible (ISO)
100
AcDbLine
 10
4579.752378678992
 20
6962.319568569462
 30
0.0
 11
4544.752378678992
 21
6962.319568569462
 31
0.0
  0
LINE
  5
26E
330
6C
100
AcDbEntity
  8
Visible (ISO)
100
AcDbLine
 10
4544.752378678992
 20
6957.319568569461
 30
0.0
 11
4579.752378678992
 21
6957.319568569461
 31
0.0
  0
ARC
  5
26F
330
6C
100
AcDbEntity
  8
Visible (ISO)
100
AcDbCircle
 10
4548.166480271111
 20
7318.019568569464
 30
0.0
 40
0.5000000000000018
100
AcDbArc
 50
270.0000000001018
 51
350.366515946084
  0
ARC
  5
270
330
6C
100
AcDbEntity
  8
Visible (ISO)
100
AcDbCircle
 10
4548.166480271111
 20
7340.619568569464
 30
0.0
 40
0.5000000000000016
100
AcDbArc
 50
9.63348405391601
 51
90.0
  0
ARC
  5
271
330
6C
100
AcDbEntity
  8
Visible (ISO)
100
AcDbCircle
 10
4549.152378678991
 20
7317.852223628285
 30
0.0
 40
0.5000000000000018
100
AcDbArc
 50
95.04284872797351
 51
170.366515946084
  0
ARC
  5
272
330
6C
100
AcDbEntity
  8
Visible (ISO)
100
AcDbCircle
 10
4549.152378678991
 20
7340.786913510644
 30
0.0
 40
0.5000000000000016
100
AcDbArc
 50
189.633484053933
 51
264.9571512720265
  0
LINE
  5
273
330
6C
100
AcDbEntity
  8
Visible (ISO)
100
AcDbLine
 10
4548.166480271111
 20
7317.519568569463
 30
0.0
 11
4544.752378678992
 21
7317.519568569463
 31
0.0
  0
LINE
  5
274
330
6C
100
AcDbEntity
  8
Visible (ISO)
100
AcDbLine
 10
4548.166480271111
 20
7341.119568569464
 30
0.0
 11
4544.752378678992
 21
7341.119568569464
 31
0.0
  0
ARC
  5
275
330
6C
100
AcDbEntity
  8
Visible (ISO)
100
AcDbCircle
 10
4548.140473917086
 20
7329.319568569464
 30
0.0
 40
11.01190476190479
100
AcDbArc
 50
275.0428487279291
 51
84.9571512720662
  0
ARC
  5
276
330
6C
100
AcDbEntity
  8
Visible (ISO)
100
AcDbCircle
 10
4548.166480271111
 20
7748.019568569464
 30
0.0
 40
0.5000000000000018
100
AcDbArc
 50
270.0000000001018
 51
350.366515946084
  0
ARC
  5
277
330
6C
100
AcDbEntity
  8
Visible (ISO)
100
AcDbCircle
 10
4548.166480271111
 20
7770.619568569464
 30
0.0
 40
0.5000000000000016
100
AcDbArc
 50
9.63348405391601
 51
90.0
  0
ARC
  5
278
330
6C
100
AcDbEntity
  8
Visible (ISO)
100
AcDbCircle
 10
4549.152378678991
 20
7747.852223628284
 30
0.0
 40
0.5000000000000018
100
AcDbArc
 50
95.04284872797351
 51
170.366515946084
  0
ARC
  5
279
330
6C
100
AcDbEntity
  8
Visible (ISO)
100
AcDbCircle
 10
4549.152378678991
 20
7770.786913510644
 30
0.0
 40
0.5000000000000016
100
AcDbArc
 50
189.633484053933
 51
264.9571512720265
  0
LINE
  5
27A
330
6C
100
AcDbEntity
  8
Visible (ISO)
100
AcDbLine
 10
4548.166480271111
 20
7747.519568569463
 30
0.0
 11
4544.752378678992
 21
7747.519568569463
 31
0.0
  0
LINE
  5
27B
330
6C
100
AcDbEntity
  8
Visible (ISO)
100
AcDbLine
 10
4548.166480271111
 20
7771.119568569464
 30
0.0
 11
4544.752378678992
 21
7771.119568569464
 31
0.0
  0
ARC
  5
27C
330
6C
100
AcDbEntity
  8
Visible (ISO)
100
AcDbCircle
 10
4548.140473917086
 20
7759.319568569463
 30
0.0
 40
11.01190476190479
100
AcDbArc
 50
275.0428487279291
 51
84.9571512720662
  0
LINE
  5
27D
330
6C
100
AcDbEntity
  8
Visible (ISO)
100
AcDbLine
 10
2968.752378678992
 20
6806.319568569462
 30
0.0
 11
4468.752378678991
 21
6806.319568569462
 31
0.0
  0
LINE
  5
27E
330
6C
100
AcDbEntity
  8
Visible (ISO)
100
AcDbLine
 10
2968.752378678992
 20
6806.319568569462
 30
0.0
 11
2968.752378678992
 21
6796.319568569463
 31
0.0
  0
LINE
  5
27F
330
6C
100
AcDbEntity
  8
Visible (ISO)
100
AcDbLine
 10
4468.752378678991
 20
6796.319568569463
 30
0.0
 11
2968.752378678992
 21
6796.319568569463
 31
0.0
  0
LINE
  5
280
330
6C
100
AcDbEntity
  8
Visible (ISO)
100
AcDbLine
 10
7648.752378678992
 20
6796.319568569463
 30
0.0
 11
6148.752378678993
 21
6796.319568569463
 31
0.0
  0
LINE
  5
281
330
6C
100
AcDbEntity
  8
Visible (ISO)
100
AcDbLine
 10
6148.752378678993
 20
6806.319568569462
 30
0.0
 11
7648.752378678992
 21
6806.319568569462
 31
0.0
  0
LINE
  5
282
330
6C
100
AcDbEntity
  8
Visible (ISO)
100
AcDbLine
 10
7648.752378678992
 20
6796.319568569463
 30
0.0
 11
7648.752378678992
 21
6806.319568569462
 31
0.0
  0
LINE
  5
283
330
6C
100
AcDbEntity
  8
Visible (ISO)
100
AcDbLine
 10
6148.752378678993
 20
6796.319568569463
 30
0.0
 11
4468.752378678991
 21
6796.319568569463
 31
0.0
  0
LINE
  5
284
330
6C
100
AcDbEntity
  8
Visible (ISO)
100
AcDbLine
 10
6148.752378678993
 20
6806.319568569462
 30
0.0
 11
4468.752378678991
 21
6806.319568569462
 31
0.0
  0
DIMENSION
  5
444
330
6C
100
AcDbEntity
  8
Dimension (ISO)
100
AcDbDimension
  2
*D7
 10
2579.220517098065
 20
2329.242011162125
 30
0.0
 11
2579.220517098065
 21
4114.242011162124
 31
0.0
 70
   160
  1
<>
 71
     2
 42
3570.0
  3
Default (ISO)
100
AcDbAlignedDimension
 13
4468.75237867799
 23
5899.242011162125
 33
0.0
 14
4468.752378677989
 24
2329.242011162125
 34
0.0
 50
270.0
100
AcDbRotatedDimension
1001
ACAD
1000
DSTYLE
1002
{
1070
   172
1070
     0
1070
   289
1070
     1
1070
    74
1070
     0
1070
   271
1070
     2
1070
   272
1070
     2
1070
    48
1040
0.0
1070
    47
1040
0.0
1002
}
  0
DIMENSION
  5
52D
330
6C
100
AcDbEntity
  8
Dimension (ISO)
100
AcDbDimension
  2
*D8
 10
7648.75237867799
 20
1878.965191690369
 30
0.0
 11
5308.75237867799
 21
1878.965191690369
 31
0.0
 70
   160
  1
<>
 71
     2
 42
4680.0
  3
Default (ISO)
100
AcDbAlignedDimension
 13
2968.75237867799
 23
3829.242011162125
 33
0.0
 14
7648.75237867799
 24
3829.242011162125
 34
0.0
 50
180.0
100
AcDbRotatedDimension
1001
ACAD
1000
DSTYLE
1002
{
1070
   172
1070
     0
1070
   289
1070
     1
1070
    74
1070
     0
1070
   271
1070
     2
1070
   272
1070
     2
1070
    48
1040
0.0
1070
    47
1040
0.0
1002
}
  0
DIMENSION
  5
60F
330
6C
100
AcDbEntity
  8
Dimension (ISO)
100
AcDbDimension
  2
*D9
 10
5716.152378677988
 20
3217.831363748265
 30
0.0
 11
5092.45237867799
 21
3217.831363748265
 31
0.0
 70
   160
  1
<>
 71
     2
 42
1247.399999999999
  3
Default (ISO)
100
AcDbAlignedDimension
 13
4468.752378677989
 23
3918.742011162591
 33
0.0
 14
5716.152378677988
 24
3910.122011162147
 34
0.0
100
AcDbRotatedDimension
1001
ACAD
1000
DSTYLE
1002
{
1070
   172
1070
     0
1070
   289
1070
     1
1070
    74
1070
     0
1070
   271
1070
     0
1070
   272
1070
     2
1070
    48
1040
0.0
1070
    47
1040
0.0
1002
}
  0
DIMENSION
  5
6F1
330
6C
100
AcDbEntity
  8
Dimension (ISO)
100
AcDbDimension
  2
*D10
 10
6252.284517760177
 20
3833.122011162166
 30
0.0
 11
6252.284517760177
 21
4114.242011162168
 31
0.0
 70
   160
  1
<>
 71
     2
 42
562.240000000002
  3
Default (ISO)
100
AcDbAlignedDimension
 13
5612.502378677998
 23
4395.362011162169
 33
0.0
 14
5612.502378677998
 24
3833.122011162166
 34
0.0
 50
270.0
100
AcDbRotatedDimension
1001
ACAD
1000
DSTYLE
1002
{
1070
   172
1070
     0
1070
   289
1070
     1
1070
    74
1070
     0
1070
   271
1070
     0
1070
   272
1070
     2
1070
    48
1040
0.0
1070
    47
1040
0.0
1002
}
  0
DIMENSION
  5
7DB
330
6C
100
AcDbEntity
  8
Dimension (ISO)
100
AcDbDimension
  2
*D11
 10
3526.581548501826
 20
6366.319568569464
 30
0.0
 11
3526.581548501825
 21
6586.319568569464
 31
0.0
 70
   160
  1
<>
 71
     2
 42
440.0
  3
Default (ISO)
100
AcDbAlignedDimension
 13
3677.610478037401
 23
6806.319568569463
 33
0.0
 14
4006.752378678991
 24
6366.319568569464
 34
0.0
 50
90.0
100
AcDbRotatedDimension
1001
ACAD
1000
DSTYLE
1002
{
1070
   172
1070
     0
1070
   289
1070
     1
1070
    74
1070
     0
1070
   271
1070
     2
1070
    75
1070
     1
1070
   272
1070
     2
1070
    48
1040
0.0
1070
    47
1040
0.0
1002
}
  0
DIMENSION
  5
8C4
330
6C
100
AcDbEntity
  8
Dimension (ISO)
100
AcDbDimension
  2
*D12
 10
3901.690137396252
 20
6606.319568569464
 30
0.0
 11
3901.690137396251
 21
7280.232193292359
 31
0.0
 70
   160
  1
<>
 71
     2
 42
200.0
  3
Default (ISO)
100
AcDbAlignedDimension
 13
3968.345752932408
 23
6806.319568569463
 33
0.0
 14
4256.75237867899
 24
6606.319568569464
 34
0.0
 50
90.0
100
AcDbRotatedDimension
1001
ACAD
1000
DSTYLE
1002
{
1070
   172
1070
     1
1070
   289
1070
     1
1070
    74
1070
     0
1070
   271
1070
     2
1070
    75
1070
     1
1070
   272
1070
     2
1070
    48
1040
0.0
1070
    47
1040
0.0
1002
}
  0
DIMENSION
  5
9D1
330
6C
100
AcDbEntity
  8
Dimension (ISO)
100
AcDbDimension
  2
*D13
 10
6458.255474491591
 20
6806.319568569463
 30
0.0
 11
6458.255474491591
 21
7710.319568569464
 31
0.0
 70
   160
  1
<>
 71
     2
 42
1807.999999999999
  3
Default (ISO)
100
AcDbAlignedDimension
 13
4506.752378678996
 23
8614.319568569463
 33
0.0
 14
6148.752378678993
 24
6806.319568569463
 34
0.0
 50
90.0
100
AcDbRotatedDimension
1001
ACAD
1000
DSTYLE
1002
{
1070
   172
1070
     0
1070
   289
1070
     1
1070
    74
1070
     0
1070
   271
1070
     2
1070
   272
1070
     2
1070
    48
1040
0.0
1070
    47
1040
0.0
1002
}
  0
DIMENSION
  5
AB9
330
6C
100
AcDbEntity
  8
Dimension (ISO)
100
AcDbDimension
  2
*D14
 10
5963.397774494579
 20
6806.319568569463
 30
0.0
 11
5963.397774494577
 21
7423.071863722128
 31
0.0
 70
   160
  1
<>
 71
     2
 42
121.8043446409874
  3
Default (ISO)
100
AcDbAlignedDimension
 13
5692.00237867899
 23
6928.123913210452
 33
0.0
 14
6036.77773411559
 24
6806.319568569463
 34
0.0
 50
90.0
100
AcDbRotatedDimension
1001
ACAD
1000
DSTYLE
1002
{
1070
   172
1070
     1
1070
   289
1070
     1
1070
    74
1070
     0
1070
   271
1070
     0
1070
    76
1070
     1
1070
   272
1070
     2
1070
    48
1040
0.0
1070
    47
1040
0.0
1002
}
  0
INSERT
  5
E77
330
6C
100
AcDbEntity
  8
0
100
AcDbBlockReference
  2
26089_Narty-biegowe
 10
4468.752378677989
 20
4114.24201116259
 30
0.0
  0
INSERT
  5
E97
330
6C
100
AcDbEntity
  8
0
100
AcDbBlockReference
 66
     1
  2
Tabelki rysunkowe Rzut
 10
-8687.43399884766
 20
60.03741817772084
 30
0.0
 41
70.0
 42
70.0
 43
70.0
  0
ATTRIB
  5
E98
102
{ACAD_XDICTIONARY
360
E99
102
}
330
E97
100
AcDbEntity
  8
Title (ISO)
100
AcDbText
 10
3801.321919741118
 20
1328.936858156602
 30
0.0
 40
175.0
  1
26089
  7
Note Text (ISO)
100
AcDbAttribute
  2
Numer_katalogowy_001
 70
     0
  0
ATTRIB
  5
E9A
102
{ACAD_XDICTIONARY
360
E9B
102
}
330
E97
100
AcDbEntity
  8
Title (ISO)
100
AcDbText
 10
4641.321919741117
 20
839.6420294102002
 30
0.0
 40
175.0
  1
2023-06-29
  7
Note Text (ISO)
100
AcDbAttribute
  2
DATA_UTWORZENIA_001
 70
     0
  0
ATTRIB
  5
E9C
102
{ACAD_XDICTIONARY
360
E9D
102
}
330
E97
100
AcDbEntity
  8
Title (ISO)
100
AcDbText
 10
3809.196332015634
 20
1076.17997436702
 30
0.0
 40
175.0
  1
Narty biegowe
  7
Note Text (ISO)
100
AcDbAttribute
  2
Nazwa_001
 70
     0
  0
SEQEND
  5
E9E
330
E97
100
AcDbEntity
  8
0
  0
ENDSEC
  0
SECTION
  2
OBJECTS
  0
DICTIONARY
  5
C
330
0
100
AcDbDictionary
281
     1
  3
ACAD_COLOR
350
63
  3
ACAD_GROUP
350
D
  3
ACAD_LAYOUT
350
62
  3
ACAD_MATERIAL
350
10
  3
ACAD_MLEADERSTYLE
350
66
  3
ACAD_MLINESTYLE
350
5F
  3
ACAD_PLOTSETTINGS
350
61
  3
ACAD_PLOTSTYLENAME
350
E
  3
ACAD_SCALELIST
350
42
  3
ACAD_TABLESTYLE
350
64
  3
ACAD_VISUALSTYLE
350
29
  3
ACDB_RECOMPOSE_DATA
350
EAF
  3
AcDbVariableDictionary
350
C0D
  3
AcmDictionary
350
C6F
  3
AMG
350
C21
  3
AMGSNAPSETTINGS
350
CAE
  3
DWGPROPS
350
EB0
  0
DICTIONARY
  5
BCC
330
8
100
AcDbDictionary
280
     1
281
     1
  0
DICTIONARY
  5
E87
330
2
100
AcDbDictionary
280
     1
281
     1
  3
ACAD_LAYERSTATES
360
E88
  0
DICTIONARY
  5
E80
330
E7F
100
AcDbDictionary
280
     1
281
     1
  3
ACAD_MLATT
360
EA4
  3
ACAD_XREC_ROUNDTRIP
360
EA3
  0
DICTIONARY
  5
E82
330
E81
100
AcDbDictionary
280
     1
281
     1
  3
ACAD_MLATT
360
EA6
  3
ACAD_XREC_ROUNDTRIP
360
EA5
  0
DICTIONARY
  5
E84
330
E83
100
AcDbDictionary
280
     1
281
     1
  3
ACAD_MLATT
360
EA8
  3
ACAD_XREC_ROUNDTRIP
360
EA7
  0
DICTIONARY
  5
E99
330
E98
100
AcDbDictionary
280
     1
281
     1
  3
ACAD_MLATT
360
EAA
  3
ACAD_XREC_ROUNDTRIP
360
EA9
  0
DICTIONARY
  5
E9B
330
E9A
100
AcDbDictionary
280
     1
281
     1
  3
ACAD_MLATT
360
EAC
  3
ACAD_XREC_ROUNDTRIP
360
EAB
  0
DICTIONARY
  5
E9D
330
E9C
100
AcDbDictionary
280
     1
281
     1
  3
ACAD_MLATT
360
EAE
  3
ACAD_XREC_ROUNDTRIP
360
EAD
  0
DICTIONARY
  5
63
102
{ACAD_REACTORS
330
C
102
}
330
C
100
AcDbDictionary
281
     1
  0
DICTIONARY
  5
D
102
{ACAD_REACTORS
330
C
102
}
330
C
100
AcDbDictionary
281
     1
  0
DICTIONARY
  5
62
102
{ACAD_REACTORS
330
C
102
}
330
C
100
AcDbDictionary
281
     1
  3
Layout1
350
6B
  3
Layout2
350
73
  3
Model
350
6F
  0
DICTIONARY
  5
10
102
{ACAD_REACTORS
330
C
102
}
330
C
100
AcDbDictionary
281
     1
  3
ByBlock
350
19
  3
ByLayer
350
11
  3
Global
350
21
  0
DICTIONARY
  5
66
102
{ACAD_REACTORS
330
C
102
}
330
C
100
AcDbDictionary
281
     1
  3
Standard
350
67
  0
DICTIONARY
  5
5F
102
{ACAD_REACTORS
330
C
102
}
330
C
100
AcDbDictionary
281
     1
  3
Standard
350
60
  0
DICTIONARY
  5
61
102
{ACAD_REACTORS
330
C
102
}
330
C
100
AcDbDictionary
281
     1
  0
ACDBDICTIONARYWDFLT
  5
E
102
{ACAD_REACTORS
330
C
102
}
330
C
100
AcDbDictionary
281
     1
  3
Normal
350
F
100
AcDbDictionaryWithDefault
340
F
  0
DICTIONARY
  5
42
102
{ACAD_REACTORS
330
C
102
}
330
C
100
AcDbDictionary
281
     1
  3
A0
350
43
  3
A1
350
44
  3
A2
350
45
  3
A3
350
46
  3
A4
350
47
  3
A5
350
48
  3
A6
350
49
  3
A7
350
4A
  3
A8
350
4B
  3
A9
350
4C
  3
B0
350
4D
  3
B1
350
4E
  3
B2
350
4F
  3
B3
350
50
  3
B4
350
51
  3
B5
350
52
  3
B6
350
53
  0
DICTIONARY
  5
64
102
{ACAD_REACTORS
330
C
102
}
330
C
100
AcDbDictionary
281
     1
  3
Standard
350
65
  0
DICTIONARY
  5
29
102
{ACAD_REACTORS
330
C
102
}
330
C
100
AcDbDictionary
281
     1
  3
2dWireframe
350
2F
  3
Basic
350
2E
  3
Brighten
350
35
  3
ColorChange
350
39
  3
Conceptual
350
32
  3
Dim
350
34
  3
EdgeColorOff
350
41
  3
Facepattern
350
38
  3
Flat
350
2A
  3
FlatWithEdges
350
2B
  3
Gouraud
350
2C
  3
GouraudWithEdges
350
2D
  3
Hidden
350
31
  3
JitterOff
350
3F
  3
Linepattern
350
37
  3
OverhangOff
350
40
  3
Realistic
350
33
  3
Shaded
350
3E
  3
Shaded with edges
350
3D
  3
Shades of Gray
350
3A
  3
Sketchy
350
3B
  3
Thicken
350
36
  3
Wireframe
350
30
  3
X-Ray
350
3C
  0
XRECORD
  5
EAF
102
{ACAD_REACTORS
330
C
102
}
330
C
100
AcDbXrecord
280
     1
 90
        1
330
65
330
E7F
330
E81
330
E83
330
E98
330
E9A
330
E9C
  0
DICTIONARY
  5
C0D
102
{ACAD_REACTORS
330
C
102
}
330
C
100
AcDbDictionary
281
     1
  3
CANNOSCALE
350
C11
  3
CMLEADERSTYLE
350
C0F
  3
CTABLESTYLE
350
C0E
  3
DIMASSOC
350
C18
  3
HIDETEXT
350
C17
  3
INDEXCTL
350
C16
  3
LAYEREVAL
350
C13
  3
LAYERNOTIFY
350
C14
  3
LIGHTINGUNITS
350
C12
  3
MSLTSCALE
350
C10
  3
SORTENTS
350
C15
  3
XCLIPFRAME
350
EA1
  0
DICTIONARY
  5
C6F
102
{ACAD_REACTORS
330
C
102
}
330
C
100
AcDbDictionary
281
     1
  3
AcmStdDictionary
350
C78
  0
DICTIONARY
  5
C21
102
{ACAD_REACTORS
330
C
102
}
330
C
100
AcDbDictionary
281
     1
  0
DICTIONARY
  5
CAE
102
{ACAD_REACTORS
330
C
102
}
330
C
100
AcDbDictionary
281
     1
  0
XRECORD
  5
EB0
102
{ACAD_REACTORS
330
C
102
}
330
C
100
AcDbXrecord
280
     1
  1
DWGPROPS COOKIE
  2

  3

  4
Maruszak Marcin
  6

  7

  8
GRAFIK
  9
v1
300
Menadżer=
301
Firma=Muller Jelcz-Laskowice Sp.z o.o.
302
Kategoria=
303
Numer części=
304
Opis=
305
Projekt=
306
Projektant=Maruszak Marcin
307
Inżynier=Maruszak Marcin
308
Zatwierdził=Ośkiewicz Ryszard
309
Centrum kosztów=
 40
0.0012108796296296
 41
2460125.412587928
 42
2460125.496146065
  1
www.muller.com.pl
 90
       19
300
Dostawca=
300
Stan użytkownika=
300
Stan projektu=PracaWToku
300
Sprawdził=
300
Zatwierdził konstrukcję=
300
Zatwierdził do produkcji=
300
Kolor=szary
300
Stanowisko=Ploter
300
mat.=
  0
DICTIONARY
  5
E88
102
{ACAD_REACTORS
330
E87
102
}
330
E87
100
AcDbDictionary
281
     1
  0
XRECORD
  5
EA4
102
{ACAD_REACTORS
330
E80
102
}
330
E80
100
AcDbXrecord
280
     1
 70
     4
 70
     0
 70
     0
 40
1.0
  2
Numer_katalogowy
  1
Embedded Object
 10
178.5938075676742
 20
20.68422014898354
 30
0.0
 40
2.5
 41
39.63119806127143
 46
0.0
 71
     1
 72
     5
  1
26080
  7
Note Text (ISO)
 73
     1
 44
1.0
  0
XRECORD
  5
EA3
102
{ACAD_REACTORS
330
E80
102
}
330
E80
100
AcDbXrecord
280
     1
102
ACAD_MATT_HEIGHT
140
2.5
  0
XRECORD
  5
EA6
102
{ACAD_REACTORS
330
E82
102
}
330
E82
100
AcDbXrecord
280
     1
 70
     4
 70
     0
 70
     0
 40
1.0
  2
DATA_UTWORZENIA
  1
Embedded Object
 10
190.5938075676742
 20
13.68925708649296
 30
0.0
 40
2.5
 41
40.52963831958745
 46
0.0
 71
     1
 72
     5
  1
2019-01-30
  7
Note Text (ISO)
 73
     1
 44
1.0
  0
XRECORD
  5
EA5
102
{ACAD_REACTORS
330
E82
102
}
330
E82
100
AcDbXrecord
280
     1
102
ACAD_MATT_HEIGHT
140
2.5
  0
XRECORD
  5
EA8
102
{ACAD_REACTORS
330
E84
102
}
330
E84
100
AcDbXrecord
280
     1
 70
     4
 70
     0
 70
     0
 40
1.0
  2
Nazwa
  1
Embedded Object
 10
178.7768162971835
 20
17.1288138363798
 30
0.0
 40
2.5
 41
38.632931107587
 46
0.0
 71
     1
 72
     5
  1
Atlas
  7
Note Text (ISO)
 73
     1
 44
1.0
  0
XRECORD
  5
EA7
102
{ACAD_REACTORS
330
E84
102
}
330
E84
100
AcDbXrecord
280
     1
102
ACAD_MATT_HEIGHT
140
2.5
  0
XRECORD
  5
EAA
102
{ACAD_REACTORS
330
E99
102
}
330
E99
100
AcDbXrecord
280
     1
 70
     2
 70
     0
 70
     0
 40
1.0
  2
Numer_katalogowy
  1
Embedded Object
 10
3814.13253088954
 20
1507.932828606568
 30
0.0
 40
175.0
 41
2774.183864289
 46
0.0
 71
     1
 72
     5
  1
26089
  7
Note Text (ISO)
 73
     1
 44
1.0
  0
XRECORD
  5
EA9
102
{ACAD_REACTORS
330
E99
102
}
330
E99
100
AcDbXrecord
280
     1
102
ACAD_MATT_HEIGHT
140
175.0
  0
XRECORD
  5
EAC
102
{ACAD_REACTORS
330
E9B
102
}
330
E9B
100
AcDbXrecord
280
     1
 70
     2
 70
     0
 70
     0
 40
1.0
  2
DATA_UTWORZENIA
  1
Embedded Object
 10
4654.13253088954
 20
1018.285414232228
 30
0.0
 40
175.0
 41
2837.074682371122
 46
0.0
 71
     1
 72
     5
  1
2023-06-29
  7
Note Text (ISO)
 73
     1
 44
1.0
  0
XRECORD
  5
EAB
102
{ACAD_REACTORS
330
E9B
102
}
330
E9B
100
AcDbXrecord
280
     1
102
ACAD_MATT_HEIGHT
140
175.0
  0
XRECORD
  5
EAE
102
{ACAD_REACTORS
330
E9D
102
}
330
E9D
100
AcDbXrecord
280
     1
 70
     2
 70
     0
 70
     0
 40
1.0
  2
Nazwa
  1
Embedded Object
 10
3826.943141955192
 20
1259.054386724307
 30
0.0
 40
175.0
 41
2704.305177531091
 46
0.0
 71
     1
 72
     5
  1
Narty biegowe
  7
Note Text (ISO)
 73
     1
 44
1.0
  0
XRECORD
  5
EAD
102
{ACAD_REACTORS
330
E9D
102
}
330
E9D
100
AcDbXrecord
280
     1
102
ACAD_MATT_HEIGHT
140
175.0
  0
LAYOUT
  5
6B
102
{ACAD_XDICTIONARY
360
EE5
102
}
102
{ACAD_REACTORS
330
62
102
}
330
62
100
AcDbPlotSettings
  1

  2

  4

  6

 40
0.0
 41
0.0
 42
0.0
 43
0.0
 44
0.0
 45
0.0
 46
0.0
 47
0.0
 48
0.0
 49
0.0
140
0.0
141
0.0
142
1.0
143
1.0
 70
   688
 72
     0
 73
     0
 74
     5
  7

 75
    16
147
1.0
148
0.0
149
0.0
100
AcDbLayout
  1
Layout1
 70
     1
 71
     1
 10
0.0
 20
0.0
 11
14850.0
 21
10500.0
 12
0.0
 22
0.0
 32
0.0
 14
0.0
 24
0.0
 34
0.0
 15
14850.0
 25
10500.0
 35
0.0
146
0.0
 13
0.0
 23
0.0
 33
0.0
 16
1.0
 26
0.0
 36
0.0
 17
0.0
 27
1.0
 37
0.0
 76
     0
330
68
  0
LAYOUT
  5
73
102
{ACAD_XDICTIONARY
360
EE9
102
}
102
{ACAD_REACTORS
330
62
102
}
330
62
100
AcDbPlotSettings
  1

  2

  4

  6

 40
0.0
 41
0.0
 42
0.0
 43
0.0
 44
0.0
 45
0.0
 46
0.0
 47
0.0
 48
0.0
 49
0.0
140
0.0
141
0.0
142
1.0
143
1.0
 70
   688
 72
     0
 73
     0
 74
     5
  7

 75
    16
147
1.0
148
0.0
149
0.0
100
AcDbLayout
  1
Layout2
 70
     1
 71
     2
 10
0.0
 20
0.0
 11
12.0
 21
9.0
 12
0.0
 22
0.0
 32
0.0
 14
0.0
 24
0.0
 34
0.0
 15
0.0
 25
0.0
 35
0.0
146
0.0
 13
0.0
 23
0.0
 33
0.0
 16
1.0
 26
0.0
 36
0.0
 17
0.0
 27
1.0
 37
0.0
 76
     0
330
70
  0
LAYOUT
  5
6F
102
{ACAD_XDICTIONARY
360
EE7
102
}
102
{ACAD_REACTORS
330
62
102
}
330
62
100
AcDbPlotSettings
  1

  2

  4

  6

 40
0.0
 41
0.0
 42
0.0
 43
0.0
 44
0.0
 45
0.0
 46
0.0
 47
0.0
 48
0.0
 49
0.0
140
0.0
141
0.0
142
1.0
143
1.0
 70
  1712
 72
     0
 73
     0
 74
     0
  7

 75
     0
147
1.0
148
0.0
149
0.0
100
AcDbLayout
  1
Model
 70
     1
 71
     0
 10
0.0
 20
0.0
 11
12.0
 21
9.0
 12
0.0
 22
0.0
 32
0.0
 14
0.0
 24
0.0
 34
0.0
 15
0.0
 25
0.0
 35
0.0
146
0.0
 13
0.0
 23
0.0
 33
0.0
 16
1.0
 26
0.0
 36
0.0
 17
0.0
 27
1.0
 37
0.0
 76
     0
330
6C
331
57
  0
MATERIAL
  5
19
102
{ACAD_XDICTIONARY
360
1A
102
}
102
{ACAD_REACTORS
330
10
102
}
330
10
100
AcDbMaterial
  1
ByBlock
 72
     0
 43
0.0208333333333333
 43
0.0
 43
0.0
 43
0.0
 43
0.0
 43
0.0208333333333333
 43
0.0
 43
0.0
 43
0.0
 43
0.0
 43
1.0
 43
0.0
 43
0.0
 43
0.0
 43
0.0
 43
1.0
 77
     0
 47
0.0208333333333333
 47
0.0
 47
0.0
 47
0.0
 47
0.0
 47
0.0208333333333333
 47
0.0
 47
0.0
 47
0.0
 47
0.0
 47
1.0
 47
0.0
 47
0.0
 47
0.0
 47
0.0
 47
1.0
171
     0
 49
0.0208333333333333
 49
0.0
 49
0.0
 49
0.0
 49
0.0
 49
0.0208333333333333
 49
0.0
 49
0.0
 49
0.0
 49
0.0
 49
1.0
 49
0.0
 49
0.0
 49
0.0
 49
0.0
 49
1.0
175
     0
142
0.0208333333333333
142
0.0
142
0.0
142
0.0
142
0.0
142
0.0208333333333333
142
0.0
142
0.0
142
0.0
142
0.0
142
1.0
142
0.0
142
0.0
142
0.0
142
0.0
142
1.0
179
     0
144
0.0208333333333333
144
0.0
144
0.0
144
0.0
144
0.0
144
0.0208333333333333
144
0.0
144
0.0
144
0.0
144
0.0
144
1.0
144
0.0
144
0.0
144
0.0
144
0.0
144
1.0
147
0.0208333333333333
147
0.0
147
0.0
147
0.0
147
0.0
147
0.0208333333333333
147
0.0
147
0.0
147
0.0
147
0.0
147
1.0
147
0.0
147
0.0
147
0.0
147
0.0
147
1.0
  0
MATERIAL
  5
11
102
{ACAD_XDICTIONARY
360
12
102
}
102
{ACAD_REACTORS
330
10
102
}
330
10
100
AcDbMaterial
  1
ByLayer
 72
     0
 43
0.0208333333333333
 43
0.0
 43
0.0
 43
0.0
 43
0.0
 43
0.0208333333333333
 43
0.0
 43
0.0
 43
0.0
 43
0.0
 43
1.0
 43
0.0
 43
0.0
 43
0.0
 43
0.0
 43
1.0
 77
     0
 47
0.0208333333333333
 47
0.0
 47
0.0
 47
0.0
 47
0.0
 47
0.0208333333333333
 47
0.0
 47
0.0
 47
0.0
 47
0.0
 47
1.0
 47
0.0
 47
0.0
 47
0.0
 47
0.0
 47
1.0
171
     0
 49
0.0208333333333333
 49
0.0
 49
0.0
 49
0.0
 49
0.0
 49
0.0208333333333333
 49
0.0
 49
0.0
 49
0.0
 49
0.0
 49
1.0
 49
0.0
 49
0.0
 49
0.0
 49
0.0
 49
1.0
175
     0
142
0.0208333333333333
142
0.0
142
0.0
142
0.0
142
0.0
142
0.0208333333333333
142
0.0
142
0.0
142
0.0
142
0.0
142
1.0
142
0.0
142
0.0
142
0.0
142
0.0
142
1.0
179
     0
144
0.0208333333333333
144
0.0
144
0.0
144
0.0
144
0.0
144
0.0208333333333333
144
0.0
144
0.0
144
0.0
144
0.0
144
1.0
144
0.0
144
0.0
144
0.0
144
0.0
144
1.0
147
0.0208333333333333
147
0.0
147
0.0
147
0.0
147
0.0
147
0.0208333333333333
147
0.0
147
0.0
147
0.0
147
0.0
147
1.0
147
0.0
147
0.0
147
0.0
147
0.0
147
1.0
  0
MATERIAL
  5
21
102
{ACAD_XDICTIONARY
360
22
102
}
102
{ACAD_REACTORS
330
10
102
}
330
10
100
AcDbMaterial
  1
Global
 72
     0
 43
0.0208333333333333
 43
0.0
 43
0.0
 43
0.0
 43
0.0
 43
0.0208333333333333
 43
0.0
 43
0.0
 43
0.0
 43
0.0
 43
1.0
 43
0.0
 43
0.0
 43
0.0
 43
0.0
 43
1.0
 77
     0
 47
0.0208333333333333
 47
0.0
 47
0.0
 47
0.0
 47
0.0
 47
0.0208333333333333
 47
0.0
 47
0.0
 47
0.0
 47
0.0
 47
1.0
 47
0.0
 47
0.0
 47
0.0
 47
0.0
 47
1.0
171
     0
 49
0.0208333333333333
 49
0.0
 49
0.0
 49
0.0
 49
0.0
 49
0.0208333333333333
 49
0.0
 49
0.0
 49
0.0
 49
0.0
 49
1.0
 49
0.0
 49
0.0
 49
0.0
 49
0.0
 49
1.0
175
     0
142
0.0208333333333333
142
0.0
142
0.0
142
0.0
142
0.0
142
0.0208333333333333
142
0.0
142
0.0
142
0.0
142
0.0
142
1.0
142
0.0
142
0.0
142
0.0
142
0.0
142
1.0
179
     0
144
0.0208333333333333
144
0.0
144
0.0
144
0.0
144
0.0
144
0.0208333333333333
144
0.0
144
0.0
144
0.0
144
0.0
144
1.0
144
0.0
144
0.0
144
0.0
144
0.0
144
1.0
147
0.0208333333333333
147
0.0
147
0.0
147
0.0
147
0.0
147
0.0208333333333333
147
0.0
147
0.0
147
0.0
147
0.0
147
1.0
147
0.0
147
0.0
147
0.0
147
0.0
147
1.0
  0
MLEADERSTYLE
  5
67
102
{ACAD_REACTORS
330
66
102
}
330
66
100
AcDbMLeaderStyle
170
     2
171
     1
172
     0
 90
        2
 40
0.0
 41
0.0
173
     1
 91
-1056964608
340
5B
 92
       -2
290
     1
 42
0.09
291
     1
 43
0.36
  3
Standard
 44
0.18
300

342
55
174
     1
178
     6
175
     1
176
     0
 93
-1056964608
 45
0.18
292
     0
297
     0
 46
0.18
 94
-1056964608
 47
1.0
 49
1.0
140
1.0
293
     1
141
0.0
294
     1
177
     0
142
1.0
295
     0
296
     0
143
0.125
1001
ACAD_MLEADERVER
1070
     2
  0
MLINESTYLE
  5
60
102
{ACAD_REACTORS
330
5F
102
}
330
5F
100
AcDbMlineStyle
  2
STANDARD
 70
     0
  3

 62
   256
 51
90.0
 52
90.0
 71
     2
 49
0.5
 62
   256
  6
BYLAYER
 49
-0.5
 62
   256
  6
BYLAYER
  0
ACDBPLACEHOLDER
  5
F
102
{ACAD_REACTORS
330
E
102
}
330
E
  0
SCALE
  5
43
102
{ACAD_REACTORS
330
42
102
}
330
42
100
AcDbScale
 70
     0
300
1:1
140
1.0
141
1.0
290
     1
  0
SCALE
  5
44
102
{ACAD_REACTORS
330
42
102
}
330
42
100
AcDbScale
 70
     0
300
1/128" = 1'-0"
140
0.0078125
141
12.0
290
     0
  0
SCALE
  5
45
102
{ACAD_REACTORS
330
42
102
}
330
42
100
AcDbScale
 70
     0
300
1/64" = 1'-0"
140
0.015625
141
12.0
290
     0
  0
SCALE
  5
46
102
{ACAD_REACTORS
330
42
102
}
330
42
100
AcDbScale
 70
     0
300
1/32" = 1'-0"
140
0.03125
141
12.0
290
     0
  0
SCALE
  5
47
102
{ACAD_REACTORS
330
42
102
}
330
42
100
AcDbScale
 70
     0
300
1/16" = 1'-0"
140
0.0625
141
12.0
290
     0
  0
SCALE
  5
48
102
{ACAD_REACTORS
330
42
102
}
330
42
100
AcDbScale
 70
     0
300
3/32" = 1'-0"
140
0.09375
141
12.0
290
     0
  0
SCALE
  5
49
102
{ACAD_REACTORS
330
42
102
}
330
42
100
AcDbScale
 70
     0
300
1/8" = 1'-0"
140
0.125
141
12.0
290
     0
  0
SCALE
  5
4A
102
{ACAD_REACTORS
330
42
102
}
330
42
100
AcDbScale
 70
     0
300
3/16" = 1'-0"
140
0.1875
141
12.0
290
     0
  0
SCALE
  5
4B
102
{ACAD_REACTORS
330
42
102
}
330
42
100
AcDbScale
 70
     0
300
1/4" = 1'-0"
140
0.25
141
12.0
290
     0
  0
SCALE
  5
4C
102
{ACAD_REACTORS
330
42
102
}
330
42
100
AcDbScale
 70
     0
300
3/8" = 1'-0"
140
0.375
141
12.0
290
     0
  0
SCALE
  5
4D
102
{ACAD_REACTORS
330
42
102
}
330
42
100
AcDbScale
 70
     0
300
1/2" = 1'-0"
140
0.5
141
12.0
290
     0
  0
SCALE
  5
4E
102
{ACAD_REACTORS
330
42
102
}
330
42
100
AcDbScale
 70
     0
300
3/4" = 1'-0"
140
0.75
141
12.0
290
     0
  0
SCALE
  5
4F
102
{ACAD_REACTORS
330
42
102
}
330
42
100
AcDbScale
 70
     0
300
1" = 1'-0"
140
1.0
141
12.0
290
     0
  0
SCALE
  5
50
102
{ACAD_REACTORS
330
42
102
}
330
42
100
AcDbScale
 70
     0
300
1-1/2" = 1'-0"
140
1.5
141
12.0
290
     0
  0
SCALE
  5
51
102
{ACAD_REACTORS
330
42
102
}
330
42
100
AcDbScale
 70
     0
300
3" = 1'-0"
140
3.0
141
12.0
290
     0
  0
SCALE
  5
52
102
{ACAD_REACTORS
330
42
102
}
330
42
100
AcDbScale
 70
     0
300
6" = 1'-0"
140
6.0
141
12.0
290
     0
  0
SCALE
  5
53
102
{ACAD_REACTORS
330
42
102
}
330
42
100
AcDbScale
 70
     0
300
1'-0" = 1'-0"
140
12.0
141
12.0
290
     0
  0
TABLESTYLE
  5
65
102
{ACAD_XDICTIONARY
360
BC8
102
}
102
{ACAD_REACTORS
330
64
102
}
330
64
100
AcDbTableStyle
  3
Standard
 70
     0
 71
     0
 40
0.06
 41
0.06
280
     0
281
     0
  7
Standard
140
0.18
170
     2
 62
     0
 63
     7
283
     0
274
    -2
284
     1
 64
     0
275
    -2
285
     1
 65
     0
276
    -2
286
     1
 66
     0
277
    -2
287
     1
 67
     0
278
    -2
288
     1
 68
     0
279
    -2
289
     1
 69
     0
  7
Standard
140
0.25
170
     5
 62
     0
 63
     7
283
     0
274
    -2
284
     1
 64
     0
275
    -2
285
     1
 65
     0
276
    -2
286
     1
 66
     0
277
    -2
287
     1
 67
     0
278
    -2
288
     1
 68
     0
279
    -2
289
     1
 69
     0
  7
Standard
140
0.18
170
     5
 62
     0
 63
     7
283
     0
274
    -2
284
     1
 64
     0
275
    -2
285
     1
 65
     0
276
    -2
286
     1
 66
     0
277
    -2
287
     1
 67
     0
278
    -2
288
     1
 68
     0
279
    -2
289
     1
 69
     0
  0
VISUALSTYLE
  5
2F
102
{ACAD_XDICTIONARY
360
EBE
102
}
102
{ACAD_REACTORS
330
29
102
}
330
29
100
AcDbVisualStyle
  2
2dWireframe
 70
     4
 71
     0
 72
     2
 73
     0
 90
        0
 40
-0.6
 41
-30.0
 62
     5
 63
     7
 74
     1
 91
        4
 64
     7
 65
   257
 75
     1
175
     1
 42
1.0
 92
        0
 66
   257
 43
1.0
 76
     1
 77
     6
 78
     2
 67
     7
 79
     5
170
     0
171
     0
290
     0
174
     0
 93
        1
 44
0.0
173
     0
291
     0
 45
0.0
1001
ACAD
1000
AcDbSavedByObjectVersion
1070
     0
  0
VISUALSTYLE
  5
2E
102
{ACAD_XDICTIONARY
360
EBC
102
}
102
{ACAD_REACTORS
330
29
102
}
330
29
100
AcDbVisualStyle
  2
Basic
 70
     7
 71
     1
 72
     0
 73
     1
 90
        0
 40
-0.6
 41
-30.0
 62
     5
 63
     7
 74
     0
 91
        4
 64
     7
 65
   257
 75
     1
175
     1
 42
1.0
 92
        8
 66
     7
 43
1.0
 76
     1
 77
     6
 78
     2
 67
     7
 79
     5
170
     0
171
     0
290
     0
174
     0
 93
        1
 44
0.0
173
     0
291
     1
 45
0.0
1001
ACAD
1000
AcDbSavedByObjectVersion
1070
     0
  0
VISUALSTYLE
  5
35
102
{ACAD_XDICTIONARY
360
ECA
102
}
102
{ACAD_REACTORS
330
29
102
}
330
29
100
AcDbVisualStyle
  2
Brighten
 70
    12
 71
     2
 72
     2
 73
     0
 90
        0
 40
-0.6
 41
-30.0
 62
     5
 63
     7
 74
     1
 91
        4
 64
     7
 65
   257
 75
     1
175
     1
 42
1.0
 92
        8
 66
     7
 43
1.0
 76
     1
 77
     6
 78
     2
 67
     7
 79
     5
170
     0
171
     0
290
     0
174
     0
 93
        1
 44
50.0
173
     0
291
     1
 45
0.0
1001
ACAD
1000
AcDbSavedByObjectVersion
1070
     0
  0
VISUALSTYLE
  5
39
102
{ACAD_XDICTIONARY
360
ED2
102
}
102
{ACAD_REACTORS
330
29
102
}
330
29
100
AcDbVisualStyle
  2
ColorChange
 70
    16
 71
     2
 72
     2
 73
     3
 90
        0
 40
-0.6
 41
-30.0
 62
     5
 63
     8
 74
     1
 91
        4
 64
     7
 65
   257
 75
     1
175
     1
 42
1.0
 92
        8
 66
     8
 43
1.0
 76
     1
 77
     6
 78
     2
 67
     7
 79
     5
170
     0
171
     0
290
     0
174
     0
 93
        1
 44
0.0
173
     0
291
     1
 45
0.0
1001
ACAD
1000
AcDbSavedByObjectVersion
1070
     0
  0
VISUALSTYLE
  5
32
102
{ACAD_XDICTIONARY
360
EC4
102
}
102
{ACAD_REACTORS
330
29
102
}
330
29
100
AcDbVisualStyle
  2
Conceptual
 70
     9
 71
     3
 72
     2
 73
     0
 90
        0
 40
-0.6
 41
-30.0
 62
     5
 63
     7
 74
     2
 91
        2
 64
     7
 65
   257
 75
     1
175
     1
 42
179.0
 92
        8
 66
     7
 43
1.0
 76
     1
 77
     6
 78
     2
 67
     7
 79
     3
170
     0
171
     0
290
     0
174
     0
 93
        1
 44
0.0
173
     0
291
     0
 45
0.0
1001
ACAD
1000
AcDbSavedByObjectVersion
1070
     0
  0
VISUALSTYLE
  5
34
102
{ACAD_XDICTIONARY
360
EC8
102
}
102
{ACAD_REACTORS
330
29
102
}
330
29
100
AcDbVisualStyle
  2
Dim
 70
    11
 71
     2
 72
     2
 73
     0
 90
        0
 40
-0.6
 41
-30.0
 62
     5
 63
     7
 74
     1
 91
        4
 64
     7
 65
   257
 75
     1
175
     1
 42
1.0
 92
        8
 66
     7
 43
1.0
 76
     1
 77
     6
 78
     2
 67
     7
 79
     5
170
     0
171
     0
290
     0
174
     0
 93
        1
 44
-50.0
173
     0
291
     1
 45
0.0
1001
ACAD
1000
AcDbSavedByObjectVersion
1070
     0
  0
VISUALSTYLE
  5
41
102
{ACAD_XDICTIONARY
360
EE2
102
}
102
{ACAD_REACTORS
330
29
102
}
330
29
100
AcDbVisualStyle
  2
EdgeColorOff
 70
    22
 71
     2
 72
     2
 73
     0
 90
        0
 40
-0.6
 41
-30.0
 62
     5
 63
     7
 74
     1
 91
        4
 64
     7
 65
   257
 75
     1
175
     1
 42
1.0
 92
        8
 66
     7
 43
1.0
 76
     1
 77
     6
 78
     2
 67
     7
 79
     5
170
     0
171
     0
290
     0
174
     0
 93
        1
 44
0.0
173
     0
291
     1
 45
0.0
1001
ACAD
1000
AcDbSavedByObjectVersion
1070
     0
  0
VISUALSTYLE
  5
38
102
{ACAD_XDICTIONARY
360
ED0
102
}
102
{ACAD_REACTORS
330
29
102
}
330
29
100
AcDbVisualStyle
  2
Facepattern
 70
    15
 71
     2
 72
     2
 73
     0
 90
        0
 40
-0.6
 41
-30.0
 62
     5
 63
     7
 74
     1
 91
        4
 64
     7
 65
   257
 75
     1
175
     1
 42
1.0
 92
        8
 66
     7
 43
1.0
 76
     1
 77
     6
 78
     2
 67
     7
 79
     5
170
     0
171
     0
290
     0
174
     0
 93
        1
 44
0.0
173
     0
291
     1
 45
0.0
1001
ACAD
1000
AcDbSavedByObjectVersion
1070
     0
  0
VISUALSTYLE
  5
2A
102
{ACAD_XDICTIONARY
360
EB4
102
}
102
{ACAD_REACTORS
330
29
102
}
330
29
100
AcDbVisualStyle
  2
Flat
 70
     0
 71
     2
 72
     1
 73
     1
 90
        2
 40
-0.6
 41
30.0
 62
     5
 63
     7
 74
     0
 91
        0
 64
     7
 65
   257
 75
     1
175
     1
 42
1.0
 92
        8
 66
     7
 43
1.0
 76
     1
 77
     6
 78
     2
 67
     7
 79
     5
170
     0
171
     0
290
     0
174
     0
 93
       13
 44
0.0
173
     0
291
     1
 45
0.0
1001
ACAD
1000
AcDbSavedByObjectVersion
1070
     0
  0
VISUALSTYLE
  5
2B
102
{ACAD_XDICTIONARY
360
EB6
102
}
102
{ACAD_REACTORS
330
29
102
}
330
29
100
AcDbVisualStyle
  2
FlatWithEdges
 70
     1
 71
     2
 72
     1
 73
     1
 90
        2
 40
-0.6
 41
30.0
 62
     5
 63
     7
 74
     1
 91
        0
 64
     7
 65
   257
 75
     1
175
     1
 42
1.0
 92
        0
 66
   257
 43
1.0
 76
     1
 77
     6
 78
     2
 67
     7
 79
     5
170
     0
171
     0
290
     0
174
     0
 93
       13
 44
0.0
173
     0
291
     1
 45
0.0
1001
ACAD
1000
AcDbSavedByObjectVersion
1070
     0
  0
VISUALSTYLE
  5
2C
102
{ACAD_XDICTIONARY
360
EB8
102
}
102
{ACAD_REACTORS
330
29
102
}
330
29
100
AcDbVisualStyle
  2
Gouraud
 70
     2
 71
     2
 72
     2
 73
     1
 90
        2
 40
-0.6
 41
30.0
 62
     5
 63
     7
 74
     0
 91
        0
 64
     7
 65
   257
 75
     1
175
     1
 42
1.0
 92
        0
 66
     7
 43
1.0
 76
     1
 77
     6
 78
     2
 67
     7
 79
     5
170
     0
171
     0
290
     0
174
     0
 93
       13
 44
0.0
173
     0
291
     1
 45
0.0
1001
ACAD
1000
AcDbSavedByObjectVersion
1070
     0
  0
VISUALSTYLE
  5
2D
102
{ACAD_XDICTIONARY
360
EBA
102
}
102
{ACAD_REACTORS
330
29
102
}
330
29
100
AcDbVisualStyle
  2
GouraudWithEdges
 70
     3
 71
     2
 72
     2
 73
     1
 90
        2
 40
-0.6
 41
30.0
 62
     5
 63
     7
 74
     1
 91
        0
 64
     7
 65
   257
 75
     1
175
     1
 42
1.0
 92
        0
 66
   257
 43
1.0
 76
     1
 77
     6
 78
     2
 67
     7
 79
     5
170
     0
171
     0
290
     0
174
     0
 93
       13
 44
0.0
173
     0
291
     1
 45
0.0
1001
ACAD
1000
AcDbSavedByObjectVersion
1070
     0
  0
VISUALSTYLE
  5
31
102
{ACAD_XDICTIONARY
360
EC2
102
}
102
{ACAD_REACTORS
330
29
102
}
330
29
100
AcDbVisualStyle
  2
Hidden
 70
     6
 71
     1
 72
     2
 73
     2
 90
        0
 40
-0.6
 41
-30.0
 62
     5
 63
     7
 74
     2
 91
        2
 64
     7
 65
   257
 75
     2
175
     1
 42
40.0
 92
        0
 66
   257
 43
1.0
 76
     1
 77
     6
 78
     2
 67
     7
 79
     3
170
     0
171
     0
290
     0
174
     0
 93
        1
 44
0.0
173
     0
291
     0
 45
0.0
1001
ACAD
1000
AcDbSavedByObjectVersion
1070
     0
  0
VISUALSTYLE
  5
3F
102
{ACAD_XDICTIONARY
360
EDE
102
}
102
{ACAD_REACTORS
330
29
102
}
330
29
100
AcDbVisualStyle
  2
JitterOff
 70
    20
 71
     2
 72
     2
 73
     0
 90
        0
 40
-0.6
 41
-30.0
 62
     5
 63
     7
 74
     1
 91
        4
 64
     7
 65
   257
 75
     1
175
     1
 42
1.0
 92
       10
 66
     7
 43
1.0
 76
     1
 77
     6
 78
     2
 67
     7
 79
     5
170
     0
171
     0
290
     0
174
     0
 93
        1
 44
0.0
173
     0
291
     1
 45
0.0
1001
ACAD
1000
AcDbSavedByObjectVersion
1070
     0
  0
VISUALSTYLE
  5
37
102
{ACAD_XDICTIONARY
360
ECE
102
}
102
{ACAD_REACTORS
330
29
102
}
330
29
100
AcDbVisualStyle
  2
Linepattern
 70
    14
 71
     2
 72
     2
 73
     0
 90
        0
 40
-0.6
 41
-30.0
 62
     5
 63
     7
 74
     1
 91
        4
 64
     7
 65
   257
 75
     7
175
     7
 42
1.0
 92
        8
 66
     7
 43
1.0
 76
     1
 77
     6
 78
     2
 67
     7
 79
     5
170
     0
171
     0
290
     0
174
     0
 93
        1
 44
0.0
173
     0
291
     1
 45
0.0
1001
ACAD
1000
AcDbSavedByObjectVersion
1070
     0
  0
VISUALSTYLE
  5
40
102
{ACAD_XDICTIONARY
360
EE0
102
}
102
{ACAD_REACTORS
330
29
102
}
330
29
100
AcDbVisualStyle
  2
OverhangOff
 70
    21
 71
     2
 72
     2
 73
     0
 90
        0
 40
-0.6
 41
-30.0
 62
     5
 63
     7
 74
     1
 91
        4
 64
     7
 65
   257
 75
     1
175
     1
 42
1.0
 92
        9
 66
     7
 43
1.0
 76
     1
 77
     6
 78
     2
 67
     7
 79
     5
170
     0
171
     0
290
     0
174
     0
 93
        1
 44
0.0
173
     0
291
     1
 45
0.0
1001
ACAD
1000
AcDbSavedByObjectVersion
1070
     0
  0
VISUALSTYLE
  5
33
102
{ACAD_XDICTIONARY
360
EC6
102
}
102
{ACAD_REACTORS
330
29
102
}
330
29
100
AcDbVisualStyle
  2
Realistic
 70
     8
 71
     2
 72
     2
 73
     0
 90
        2
 40
-0.6
 41
30.0
 62
     5
 63
     7
 74
     0
 91
        0
 64
     7
 65
   257
 75
     1
175
     1
 42
1.0
 92
        8
 66
   257
 43
1.0
 76
     1
 77
     6
 78
     2
 67
     7
 79
     3
170
     0
171
     0
290
     0
174
     0
 93
       13
 44
0.0
173
     0
291
     0
 45
0.0
1001
ACAD
1000
AcDbSavedByObjectVersion
1070
     0
  0
VISUALSTYLE
  5
3E
102
{ACAD_XDICTIONARY
360
EDC
102
}
102
{ACAD_REACTORS
330
29
102
}
330
29
100
AcDbVisualStyle
  2
Shaded
 70
    27
 71
     2
 72
     2
 73
     1
 90
        2
 40
-0.6
 41
30.0
 62
     5
 63
     7
 74
     0
 91
        4
 64
     7
 65
   257
 75
     1
175
     1
 42
1.0
 92
        8
 66
   257
 43
1.0
 76
     1
 77
     6
 78
     2
 67
     8
 79
     3
170
     0
171
     0
290
     0
174
     0
 93
        5
 44
0.0
173
     0
291
     0
 45
0.0
1001
ACAD
1000
AcDbSavedByObjectVersion
1070
     0
  0
VISUALSTYLE
  5
3D
102
{ACAD_XDICTIONARY
360
EDA
102
}
102
{ACAD_REACTORS
330
29
102
}
330
29
100
AcDbVisualStyle
  2
Shaded with edges
 70
    26
 71
     2
 72
     2
 73
     1
 90
        2
 40
-0.6
 41
30.0
 62
     5
 63
     7
 74
     1
 91
       10
 64
     7
 65
   257
 75
     2
175
     1
 42
1.0
 92
        8
 66
   257
 43
1.0
 76
     1
 77
     6
 78
     2
 67
     7
 79
     3
170
     0
171
     0
290
     0
174
     0
 93
        5
 44
0.0
173
     0
291
     0
 45
0.0
1001
ACAD
1000
AcDbSavedByObjectVersion
1070
     0
  0
VISUALSTYLE
  5
3A
102
{ACAD_XDICTIONARY
360
ED4
102
}
102
{ACAD_REACTORS
330
29
102
}
330
29
100
AcDbVisualStyle
  2
Shades of Gray
 70
    23
 71
     2
 72
     2
 73
     3
 90
        0
 40
-0.6
 41
-30.0
 62
     5
 63
     7
 74
     2
 91
        2
 64
     7
 65
     7
 75
     1
175
     1
 42
40.0
 92
        8
 66
     7
 43
1.0
 76
     1
 77
     6
 78
     2
 67
     7
 79
     3
170
     0
171
     0
290
     0
174
     0
 93
        1
 44
0.0
173
     0
291
     0
 45
0.0
1001
ACAD
1000
AcDbSavedByObjectVersion
1070
     0
  0
VISUALSTYLE
  5
3B
102
{ACAD_XDICTIONARY
360
ED6
102
}
102
{ACAD_REACTORS
330
29
102
}
330
29
100
AcDbVisualStyle
  2
Sketchy
 70
    24
 71
     1
 72
     2
 73
     2
 90
        0
 40
-0.6
 41
-30.0
 62
     5
 63
     7
 74
     2
 91
        2
 64
     7
 65
     7
 75
     1
175
     1
 42
40.0
 92
       11
 66
     7
 43
1.0
 76
     1
 77
     6
 78
     2
 67
     7
 79
     6
170
     0
171
     0
290
     0
174
     0
 93
        1
 44
0.0
173
     0
291
     0
 45
0.0
1001
ACAD
1000
AcDbSavedByObjectVersion
1070
     0
  0
VISUALSTYLE
  5
36
102
{ACAD_XDICTIONARY
360
ECC
102
}
102
{ACAD_REACTORS
330
29
102
}
330
29
100
AcDbVisualStyle
  2
Thicken
 70
    13
 71
     2
 72
     2
 73
     0
 90
        0
 40
-0.6
 41
-30.0
 62
     5
 63
     7
 74
     1
 91
        4
 64
     7
 65
   257
 75
     1
175
     1
 42
1.0
 92
       12
 66
     7
 43
1.0
 76
     1
 77
     6
 78
     2
 67
     7
 79
     5
170
     0
171
     0
290
     0
174
     0
 93
        1
 44
0.0
173
     0
291
     1
 45
0.0
1001
ACAD
1000
AcDbSavedByObjectVersion
1070
     0
  0
VISUALSTYLE
  5
30
102
{ACAD_XDICTIONARY
360
EC0
102
}
102
{ACAD_REACTORS
330
29
102
}
330
29
100
AcDbVisualStyle
  2
Wireframe
 70
     5
 71
     0
 72
     2
 73
     0
 90
        0
 40
-0.6
 41
-30.0
 62
     5
 63
     7
 74
     1
 91
        4
 64
     7
 65
   257
 75
     1
175
     1
 42
1.0
 92
        0
 66
   257
 43
1.0
 76
     1
 77
     6
 78
     2
 67
     7
 79
     3
170
     0
171
     0
290
     0
174
     0
 93
        1
 44
0.0
173
     0
291
     0
 45
0.0
1001
ACAD
1000
AcDbSavedByObjectVersion
1070
     0
  0
VISUALSTYLE
  5
3C
102
{ACAD_XDICTIONARY
360
ED8
102
}
102
{ACAD_REACTORS
330
29
102
}
330
29
100
AcDbVisualStyle
  2
X-Ray
 70
    25
 71
     2
 72
     2
 73
     1
 90
        1
 40
0.5
 41
-30.0
 62
     5
 63
     7
 74
     1
 91
        0
 64
     7
 65
   257
 75
     1
175
     1
 42
1.0
 92
        8
 66
     7
 43
1.0
 76
     1
 77
     6
 78
     2
 67
     7
 79
     3
170
     0
171
     0
290
     0
174
     0
 93
       13
 44
0.0
173
     0
291
     0
 45
0.0
1001
ACAD
1000
AcDbSavedByObjectVersion
1070
     0
  0
DICTIONARYVAR
  5
C11
102
{ACAD_REACTORS
330
C0D
102
}
330
C0D
100
DictionaryVariables
280
     0
  1
1:1
  0
DICTIONARYVAR
  5
C0F
102
{ACAD_REACTORS
330
C0D
102
}
330
C0D
100
DictionaryVariables
280
     0
  1
STANDARD
  0
DICTIONARYVAR
  5
C0E
102
{ACAD_REACTORS
330
C0D
102
}
330
C0D
100
DictionaryVariables
280
     0
  1
STANDARD
  0
DICTIONARYVAR
  5
C18
102
{ACAD_REACTORS
330
C0D
102
}
330
C0D
100
DictionaryVariables
280
     0
  1
1
  0
DICTIONARYVAR
  5
C17
102
{ACAD_REACTORS
330
C0D
102
}
330
C0D
100
DictionaryVariables
280
     0
  1
1
  0
DICTIONARYVAR
  5
C16
102
{ACAD_REACTORS
330
C0D
102
}
330
C0D
100
DictionaryVariables
280
     0
  1
0
  0
DICTIONARYVAR
  5
C13
102
{ACAD_REACTORS
330
C0D
102
}
330
C0D
100
DictionaryVariables
280
     0
  1
0
  0
DICTIONARYVAR
  5
C14
102
{ACAD_REACTORS
330
C0D
102
}
330
C0D
100
DictionaryVariables
280
     0
  1
0
  0
DICTIONARYVAR
  5
C12
102
{ACAD_REACTORS
330
C0D
102
}
330
C0D
100
DictionaryVariables
280
     0
  1
2
  0
DICTIONARYVAR
  5
C10
102
{ACAD_REACTORS
330
C0D
102
}
330
C0D
100
DictionaryVariables
280
     0
  1
1
  0
DICTIONARYVAR
  5
C15
102
{ACAD_REACTORS
330
C0D
102
}
330
C0D
100
DictionaryVariables
280
     0
  1
127
  0
DICTIONARYVAR
  5
EA1
102
{ACAD_REACTORS
330
C0D
102
}
330
C0D
100
DictionaryVariables
280
     0
  1
2
  0
DICTIONARY
  5
C78
102
{ACAD_REACTORS
330
C6F
102
}
330
C6F
100
AcDbDictionary
281
     1
  0
DICTIONARY
  5
EE5
330
6B
100
AcDbDictionary
280
     1
281
     1
  3
ACAD_XREC_ROUNDTRIP
360
EE6
  0
DICTIONARY
  5
EE9
330
73
100
AcDbDictionary
280
     1
281
     1
  3
ACAD_XREC_ROUNDTRIP
360
EEA
  0
DICTIONARY
  5
EE7
330
6F
100
AcDbDictionary
280
     1
281
     1
  3
ACAD_XREC_ROUNDTRIP
360
EE8
  0
DICTIONARY
  5
1A
330
19
100
AcDbDictionary
280
     1
281
     1
  3
ACAD_XREC_ROUNDTRIP
360
EB2
  3
BUMPTILE
360
1C
  3
DIFFUSETILE
360
1B
  3
OPACITYTILE
360
1F
  3
REFLECTIONTILE
360
1E
  3
REFRACTIONTILE
360
20
  3
SPECULARTILE
360
1D
  0
DICTIONARY
  5
12
330
11
100
AcDbDictionary
280
     1
281
     1
  3
ACAD_XREC_ROUNDTRIP
360
EB1
  3
BUMPTILE
360
14
  3
DIFFUSETILE
360
13
  3
OPACITYTILE
360
17
  3
REFLECTIONTILE
360
16
  3
REFRACTIONTILE
360
18
  3
SPECULARTILE
360
15
  0
DICTIONARY
  5
22
330
21
100
AcDbDictionary
280
     1
281
     1
  3
ACAD_XREC_ROUNDTRIP
360
EB3
  3
BUMPTILE
360
24
  3
DIFFUSETILE
360
23
  3
OPACITYTILE
360
27
  3
REFLECTIONTILE
360
26
  3
REFRACTIONTILE
360
28
  3
SPECULARTILE
360
25
  0
DICTIONARY
  5
BC8
330
65
100
AcDbDictionary
280
     1
281
     1
  3
ACAD_ROUNDTRIP_2008_TABLESTYLE_CELLSTYLEMAP
360
EA2
  3
ACAD_XREC_ROUNDTRIP
360
EE4
  0
DICTIONARY
  5
EBE
330
2F
100
AcDbDictionary
280
     1
281
     1
  3
ACAD_XREC_ROUNDTRIP
360
EBF
  0
DICTIONARY
  5
EBC
330
2E
100
AcDbDictionary
280
     1
281
     1
  3
ACAD_XREC_ROUNDTRIP
360
EBD
  0
DICTIONARY
  5
ECA
330
35
100
AcDbDictionary
280
     1
281
     1
  3
ACAD_XREC_ROUNDTRIP
360
ECB
  0
DICTIONARY
  5
ED2
330
39
100
AcDbDictionary
280
     1
281
     1
  3
ACAD_XREC_ROUNDTRIP
360
ED3
  0
DICTIONARY
  5
EC4
330
32
100
AcDbDictionary
280
     1
281
     1
  3
ACAD_XREC_ROUNDTRIP
360
EC5
  0
DICTIONARY
  5
EC8
330
34
100
AcDbDictionary
280
     1
281
     1
  3
ACAD_XREC_ROUNDTRIP
360
EC9
  0
DICTIONARY
  5
EE2
330
41
100
AcDbDictionary
280
     1
281
     1
  3
ACAD_XREC_ROUNDTRIP
360
EE3
  0
DICTIONARY
  5
ED0
330
38
100
AcDbDictionary
280
     1
281
     1
  3
ACAD_XREC_ROUNDTRIP
360
ED1
  0
DICTIONARY
  5
EB4
330
2A
100
AcDbDictionary
280
     1
281
     1
  3
ACAD_XREC_ROUNDTRIP
360
EB5
  0
DICTIONARY
  5
EB6
330
2B
100
AcDbDictionary
280
     1
281
     1
  3
ACAD_XREC_ROUNDTRIP
360
EB7
  0
DICTIONARY
  5
EB8
330
2C
100
AcDbDictionary
280
     1
281
     1
  3
ACAD_XREC_ROUNDTRIP
360
EB9
  0
DICTIONARY
  5
EBA
330
2D
100
AcDbDictionary
280
     1
281
     1
  3
ACAD_XREC_ROUNDTRIP
360
EBB
  0
DICTIONARY
  5
EC2
330
31
100
AcDbDictionary
280
     1
281
     1
  3
ACAD_XREC_ROUNDTRIP
360
EC3
  0
DICTIONARY
  5
EDE
330
3F
100
AcDbDictionary
280
     1
281
     1
  3
ACAD_XREC_ROUNDTRIP
360
EDF
  0
DICTIONARY
  5
ECE
330
37
100
AcDbDictionary
280
     1
281
     1
  3
ACAD_XREC_ROUNDTRIP
360
ECF
  0
DICTIONARY
  5
EE0
330
40
100
AcDbDictionary
280
     1
281
     1
  3
ACAD_XREC_ROUNDTRIP
360
EE1
  0
DICTIONARY
  5
EC6
330
33
100
AcDbDictionary
280
     1
281
     1
  3
ACAD_XREC_ROUNDTRIP
360
EC7
  0
DICTIONARY
  5
EDC
330
3E
100
AcDbDictionary
280
     1
281
     1
  3
ACAD_XREC_ROUNDTRIP
360
EDD
  0
DICTIONARY
  5
EDA
330
3D
100
AcDbDictionary
280
     1
281
     1
  3
ACAD_XREC_ROUNDTRIP
360
EDB
  0
DICTIONARY
  5
ED4
330
3A
100
AcDbDictionary
280
     1
281
     1
  3
ACAD_XREC_ROUNDTRIP
360
ED5
  0
DICTIONARY
  5
ED6
330
3B
100
AcDbDictionary
280
     1
281
     1
  3
ACAD_XREC_ROUNDTRIP
360
ED7
  0
DICTIONARY
  5
ECC
330
36
100
AcDbDictionary
280
     1
281
     1
  3
ACAD_XREC_ROUNDTRIP
360
ECD
  0
DICTIONARY
  5
EC0
330
30
100
AcDbDictionary
280
     1
281
     1
  3
ACAD_XREC_ROUNDTRIP
360
EC1
  0
DICTIONARY
  5
ED8
330
3C
100
AcDbDictionary
280
     1
281
     1
  3
ACAD_XREC_ROUNDTRIP
360
ED9
  0
XRECORD
  5
EE6
102
{ACAD_REACTORS
330
EE5
102
}
330
EE5
100
AcDbXrecord
280
     1
102
SHADEPLOT
 70
     0
102
SHADEPLOTRESLEVEL
 70
     2
102
SHADEPLOTCUSTOMDPI
 70
   300
  0
XRECORD
  5
EEA
102
{ACAD_REACTORS
330
EE9
102
}
330
EE9
100
AcDbXrecord
280
     1
102
SHADEPLOT
 70
     0
102
SHADEPLOTRESLEVEL
 70
     2
102
SHADEPLOTCUSTOMDPI
 70
   300
  0
XRECORD
  5
EE8
102
{ACAD_REACTORS
330
EE7
102
}
330
EE7
100
AcDbXrecord
280
     1
102
SHADEPLOT
 70
     0
102
SHADEPLOTRESLEVEL
 70
     2
102
SHADEPLOTCUSTOMDPI
 70
   300
  0
XRECORD
  5
EB2
102
{ACAD_REACTORS
330
1A
102
}
330
1A
100
AcDbXrecord
280
     1
102
MATERIAL
148
0.0
149
0.0
149
0.0
 93
        0
 94
      127
282
     0
 72
     0
 77
     0
171
     0
175
     0
179
     0
273
     0
  0
XRECORD
  5
1C
102
{ACAD_REACTORS
330
1A
102
}
330
1A
100
AcDbXrecord
280
     1
270
     1
271
     1
  0
XRECORD
  5
1B
102
{ACAD_REACTORS
330
1A
102
}
330
1A
100
AcDbXrecord
280
     1
270
     1
271
     1
  0
XRECORD
  5
1F
102
{ACAD_REACTORS
330
1A
102
}
330
1A
100
AcDbXrecord
280
     1
270
     1
271
     1
  0
XRECORD
  5
1E
102
{ACAD_REACTORS
330
1A
102
}
330
1A
100
AcDbXrecord
280
     1
270
     1
271
     1
  0
XRECORD
  5
20
102
{ACAD_REACTORS
330
1A
102
}
330
1A
100
AcDbXrecord
280
     1
270
     1
271
     1
  0
XRECORD
  5
1D
102
{ACAD_REACTORS
330
1A
102
}
330
1A
100
AcDbXrecord
280
     1
270
     1
271
     1
  0
XRECORD
  5
EB1
102
{ACAD_REACTORS
330
12
102
}
330
12
100
AcDbXrecord
280
     1
102
MATERIAL
148
0.0
149
0.0
149
0.0
 93
        0
 94
      127
282
     0
 72
     0
 77
     0
171
     0
175
     0
179
     0
273
     0
  0
XRECORD
  5
14
102
{ACAD_REACTORS
330
12
102
}
330
12
100
AcDbXrecord
280
     1
270
     1
271
     1
  0
XRECORD
  5
13
102
{ACAD_REACTORS
330
12
102
}
330
12
100
AcDbXrecord
280
     1
270
     1
271
     1
  0
XRECORD
  5
17
102
{ACAD_REACTORS
330
12
102
}
330
12
100
AcDbXrecord
280
     1
270
     1
271
     1
  0
XRECORD
  5
16
102
{ACAD_REACTORS
330
12
102
}
330
12
100
AcDbXrecord
280
     1
270
     1
271
     1
  0
XRECORD
  5
18
102
{ACAD_REACTORS
330
12
102
}
330
12
100
AcDbXrecord
280
     1
270
     1
271
     1
  0
XRECORD
  5
15
102
{ACAD_REACTORS
330
12
102
}
330
12
100
AcDbXrecord
280
     1
270
     1
271
     1
  0
XRECORD
  5
EB3
102
{ACAD_REACTORS
330
22
102
}
330
22
100
AcDbXrecord
280
     1
102
MATERIAL
148
0.0
149
0.0
149
0.0
 93
        0
 94
      127
282
     0
 72
     0
 77
     0
171
     0
175
     0
179
     0
273
     0
  0
XRECORD
  5
24
102
{ACAD_REACTORS
330
22
102
}
330
22
100
AcDbXrecord
280
     1
270
     1
271
     1
  0
XRECORD
  5
23
102
{ACAD_REACTORS
330
22
102
}
330
22
100
AcDbXrecord
280
     1
270
     1
271
     1
  0
XRECORD
  5
27
102
{ACAD_REACTORS
330
22
102
}
330
22
100
AcDbXrecord
280
     1
270
     1
271
     1
  0
XRECORD
  5
26
102
{ACAD_REACTORS
330
22
102
}
330
22
100
AcDbXrecord
280
     1
270
     1
271
     1
  0
XRECORD
  5
28
102
{ACAD_REACTORS
330
22
102
}
330
22
100
AcDbXrecord
280
     1
270
     1
271
     1
  0
XRECORD
  5
25
102
{ACAD_REACTORS
330
22
102
}
330
22
100
AcDbXrecord
280
     1
270
     1
271
     1
  0
CELLSTYLEMAP
  5
EA2
102
{ACAD_REACTORS
330
BC8
102
}
330
BC8
100
AcDbCellStyleMap
 90
        3
300
CELLSTYLE
  1
TABLEFORMAT_BEGIN
 90
        5
170
     1
 91
        0
 92
    32768
 62
   257
 93
        1
300
CONTENTFORMAT
  1
CONTENTFORMAT_BEGIN
 90
        0
 91
        0
 92
      512
 93
        0
300

 40
0.0
140
1.0
 94
        5
 62
     0
340
55
144
0.25
309
CONTENTFORMAT_END
171
     0
 94
        0
309
TABLEFORMAT_END
  1
CELLSTYLE_BEGIN
 90
        1
 91
        1
300
_TITLE
309
CELLSTYLE_END
300
CELLSTYLE
  1
TABLEFORMAT_BEGIN
 90
        5
170
     1
 91
        0
 92
        0
 62
   257
 93
        1
300
CONTENTFORMAT
  1
CONTENTFORMAT_BEGIN
 90
        0
 91
        0
 92
      512
 93
        0
300

 40
0.0
140
1.0
 94
        5
 62
     0
340
55
144
0.18
309
CONTENTFORMAT_END
171
     0
 94
        0
309
TABLEFORMAT_END
  1
CELLSTYLE_BEGIN
 90
        2
 91
        1
300
_HEADER
309
CELLSTYLE_END
300
CELLSTYLE
  1
TABLEFORMAT_BEGIN
 90
        5
170
     1
 91
        0
 92
        0
 62
   257
 93
        1
300
CONTENTFORMAT
  1
CONTENTFORMAT_BEGIN
 90
        0
 91
        0
 92
      512
 93
        0
300

 40
0.0
140
1.0
 94
        2
 62
     0
340
55
144
0.18
309
CONTENTFORMAT_END
171
     0
 94
        0
309
TABLEFORMAT_END
  1
CELLSTYLE_BEGIN
 90
        3
 91
        2
300
_DATA
309
CELLSTYLE_END
  0
XRECORD
  5
EE4
102
{ACAD_REACTORS
330
BC8
102
}
330
BC8
100
AcDbXrecord
280
     1
102
ACAD_ROUNDTRIP_PRE2007_TABLESTYLE
 90
      512
 91
        0
  1

 92
      512
 93
        0
  2

 94
      512
 95
        0
  3

  0
XRECORD
  5
EBF
102
{ACAD_REACTORS
330
EBE
102
}
330
EBE
100
AcDbXrecord
280
     1
102
RTVSPropertyOp0
 70
     1
102
RTVSPropertyOp1
 70
     1
102
RTVSPropertyOp2
 70
     1
102
RTVSPropertyOp3
 70
     1
102
RTVSPropertyOp4
 70
     1
102
RTVSPropertyOp5
 70
     1
102
RTVSPropertyOp6
 70
     1
102
RTVSPropertyOp7
 70
     1
102
RTVSPropertyOp8
 70
     1
102
RTVSPropertyOp9
 70
     1
102
RTVSPropertyOp10
 70
     1
102
RTVSPropertyOp11
 70
     1
102
RTVSPropertyOp12
 70
     1
102
RTVSPropertyOp13
 70
     1
102
RTVSPropertyOp14
 70
     1
102
RTVSPropertyOp15
 70
     1
102
RTVSPropertyOp16
 70
     1
102
RTVSPropertyOp17
 70
     1
102
RTVSPropertyOp18
 70
     1
102
RTVSPropertyOp19
 70
     1
102
RTVSPropertyOp20
 70
     1
102
RTVSPropertyOp21
 70
     1
102
RTVSPropertyOp22
 70
     1
102
RTVSPropertyOp23
 70
     1
102
RTVSPropertyOp24
 70
     1
102
RTVSPropertyOp25
 70
     1
102
RTVSPropertyOp26
 70
     1
102
RTVSPropertyOp27
 70
     1
102
RTVSPropertyOp28
 70
     1
102
RTVSPropertyOp29
 70
     1
102
RTVSPropertyOp30
 70
     1
102
RTVSPropertyOp31
 70
     1
102
RTVSPropertyOp32
 70
     1
  0
XRECORD
  5
EBD
102
{ACAD_REACTORS
330
EBC
102
}
330
EBC
100
AcDbXrecord
280
     1
102
RTVSPropertyOp0
 70
     1
102
RTVSPropertyOp1
 70
     1
102
RTVSPropertyOp2
 70
     1
102
RTVSPropertyOp3
 70
     1
102
RTVSPropertyOp4
 70
     1
102
RTVSPropertyOp5
 70
     1
102
RTVSPropertyOp6
 70
     1
102
RTVSPropertyOp7
 70
     1
102
RTVSPropertyOp8
 70
     1
102
RTVSPropertyOp9
 70
     1
102
RTVSPropertyOp10
 70
     1
102
RTVSPropertyOp11
 70
     1
102
RTVSPropertyOp12
 70
     1
102
RTVSPropertyOp13
 70
     1
102
RTVSPropertyOp14
 70
     1
102
RTVSPropertyOp15
 70
     1
102
RTVSPropertyOp16
 70
     1
102
RTVSPropertyOp17
 70
     1
102
RTVSPropertyOp18
 70
     1
102
RTVSPropertyOp19
 70
     1
102
RTVSPropertyOp20
 70
     1
102
RTVSPropertyOp21
 70
     1
102
RTVSPropertyOp22
 70
     1
102
RTVSPropertyOp23
 70
     1
102
RTVSPropertyOp24
 70
     1
102
RTVSPropertyOp25
 70
     1
102
RTVSPropertyOp26
 70
     1
102
RTVSPropertyOp27
 70
     1
102
RTVSPropertyOp28
 70
     1
102
RTVSPropertyOp29
 70
     1
102
RTVSPropertyOp30
 70
     1
102
RTVSPropertyOp31
 70
     1
102
RTVSPropertyOp32
 70
     1
  0
XRECORD
  5
ECB
102
{ACAD_REACTORS
330
ECA
102
}
330
ECA
100
AcDbXrecord
280
     1
102
RTVSPropertyOp0
 70
     1
102
RTVSPropertyOp1
 70
     1
102
RTVSPropertyOp2
 70
     1
102
RTVSPropertyOp3
 70
     1
102
RTVSPropertyOp4
 70
     1
102
RTVSPropertyOp5
 70
     1
102
RTVSPropertyOp6
 70
     1
102
RTVSPropertyOp7
 70
     1
102
RTVSPropertyOp8
 70
     1
102
RTVSPropertyOp9
 70
     1
102
RTVSPropertyOp10
 70
     1
102
RTVSPropertyOp11
 70
     1
102
RTVSPropertyOp12
 70
     1
102
RTVSPropertyOp13
 70
     1
102
RTVSPropertyOp14
 70
     1
102
RTVSPropertyOp15
 70
     1
102
RTVSPropertyOp16
 70
     1
102
RTVSPropertyOp17
 70
     1
102
RTVSPropertyOp18
 70
     1
102
RTVSPropertyOp19
 70
     1
102
RTVSPropertyOp20
 70
     1
102
RTVSPropertyOp21
 70
     1
102
RTVSPropertyOp22
 70
     1
102
RTVSPropertyOp23
 70
     1
102
RTVSPropertyOp24
 70
     1
102
RTVSPropertyOp25
 70
     1
102
RTVSPropertyOp26
 70
     1
102
RTVSPropertyOp27
 70
     1
102
RTVSPropertyOp28
 70
     1
102
RTVSPropertyOp29
 70
     1
102
RTVSPropertyOp30
 70
     1
102
RTVSPropertyOp31
 70
     1
102
RTVSPropertyOp32
 70
     1
  0
XRECORD
  5
ED3
102
{ACAD_REACTORS
330
ED2
102
}
330
ED2
100
AcDbXrecord
280
     1
102
RTVSPropertyOp0
 70
     1
102
RTVSPropertyOp1
 70
     1
102
RTVSPropertyOp2
 70
     1
102
RTVSPropertyOp3
 70
     1
102
RTVSPropertyOp4
 70
     1
102
RTVSPropertyOp5
 70
     1
102
RTVSPropertyOp6
 70
     1
102
RTVSPropertyOp7
 70
     1
102
RTVSPropertyOp8
 70
     1
102
RTVSPropertyOp9
 70
     1
102
RTVSPropertyOp10
 70
     1
102
RTVSPropertyOp11
 70
     1
102
RTVSPropertyOp12
 70
     1
102
RTVSPropertyOp13
 70
     1
102
RTVSPropertyOp14
 70
     1
102
RTVSPropertyOp15
 70
     1
102
RTVSPropertyOp16
 70
     1
102
RTVSPropertyOp17
 70
     1
102
RTVSPropertyOp18
 70
     1
102
RTVSPropertyOp19
 70
     1
102
RTVSPropertyOp20
 70
     1
102
RTVSPropertyOp21
 70
     1
102
RTVSPropertyOp22
 70
     1
102
RTVSPropertyOp23
 70
     1
102
RTVSPropertyOp24
 70
     1
102
RTVSPropertyOp25
 70
     1
102
RTVSPropertyOp26
 70
     1
102
RTVSPropertyOp27
 70
     1
102
RTVSPropertyOp28
 70
     1
102
RTVSPropertyOp29
 70
     1
102
RTVSPropertyOp30
 70
     1
102
RTVSPropertyOp31
 70
     1
102
RTVSPropertyOp32
 70
     1
  0
XRECORD
  5
EC5
102
{ACAD_REACTORS
330
EC4
102
}
330
EC4
100
AcDbXrecord
280
     1
102
RTVSPropertyOp0
 70
     1
102
RTVSPropertyOp1
 70
     1
102
RTVSPropertyOp2
 70
     1
102
RTVSPropertyOp3
 70
     1
102
RTVSPropertyOp4
 70
     1
102
RTVSPropertyOp5
 70
     1
102
RTVSPropertyOp6
 70
     1
102
RTVSPropertyOp7
 70
     1
102
RTVSPropertyOp8
 70
     1
102
RTVSPropertyOp9
 70
     1
102
RTVSPropertyOp10
 70
     1
102
RTVSPropertyOp11
 70
     1
102
RTVSPropertyOp12
 70
     1
102
RTVSPropertyOp13
 70
     1
102
RTVSPropertyOp14
 70
     1
102
RTVSPropertyOp15
 70
     1
102
RTVSPropertyOp16
 70
     1
102
RTVSPropertyOp17
 70
     1
102
RTVSPropertyOp18
 70
     1
102
RTVSPropertyOp19
 70
     1
102
RTVSPropertyOp20
 70
     1
102
RTVSPropertyOp21
 70
     1
102
RTVSPropertyOp22
 70
     1
102
RTVSPropertyOp23
 70
     1
102
RTVSPropertyOp24
 70
     1
102
RTVSPropertyOp25
 70
     1
102
RTVSPropertyOp26
 70
     1
102
RTVSPropertyOp27
 70
     1
102
RTVSPropertyOp28
 70
     1
102
RTVSPropertyOp29
 70
     1
102
RTVSPropertyOp30
 70
     1
102
RTVSPropertyOp31
 70
     1
102
RTVSPropertyOp32
 70
     1
  0
XRECORD
  5
EC9
102
{ACAD_REACTORS
330
EC8
102
}
330
EC8
100
AcDbXrecord
280
     1
102
RTVSPropertyOp0
 70
     1
102
RTVSPropertyOp1
 70
     1
102
RTVSPropertyOp2
 70
     1
102
RTVSPropertyOp3
 70
     1
102
RTVSPropertyOp4
 70
     1
102
RTVSPropertyOp5
 70
     1
102
RTVSPropertyOp6
 70
     1
102
RTVSPropertyOp7
 70
     1
102
RTVSPropertyOp8
 70
     1
102
RTVSPropertyOp9
 70
     1
102
RTVSPropertyOp10
 70
     1
102
RTVSPropertyOp11
 70
     1
102
RTVSPropertyOp12
 70
     1
102
RTVSPropertyOp13
 70
     1
102
RTVSPropertyOp14
 70
     1
102
RTVSPropertyOp15
 70
     1
102
RTVSPropertyOp16
 70
     1
102
RTVSPropertyOp17
 70
     1
102
RTVSPropertyOp18
 70
     1
102
RTVSPropertyOp19
 70
     1
102
RTVSPropertyOp20
 70
     1
102
RTVSPropertyOp21
 70
     1
102
RTVSPropertyOp22
 70
     1
102
RTVSPropertyOp23
 70
     1
102
RTVSPropertyOp24
 70
     1
102
RTVSPropertyOp25
 70
     1
102
RTVSPropertyOp26
 70
     1
102
RTVSPropertyOp27
 70
     1
102
RTVSPropertyOp28
 70
     1
102
RTVSPropertyOp29
 70
     1
102
RTVSPropertyOp30
 70
     1
102
RTVSPropertyOp31
 70
     1
102
RTVSPropertyOp32
 70
     1
  0
XRECORD
  5
EE3
102
{ACAD_REACTORS
330
EE2
102
}
330
EE2
100
AcDbXrecord
280
     1
102
RTVSPropertyOp0
 70
     0
102
RTVSPropertyOp1
 70
     0
102
RTVSPropertyOp2
 70
     0
102
RTVSPropertyOp3
 70
     0
102
RTVSPropertyOp4
 70
     0
102
RTVSPropertyOp5
 70
     0
102
RTVSPropertyOp6
 70
     0
102
RTVSPropertyOp7
 70
     0
102
RTVSPropertyOp8
 70
     0
102
RTVSPropertyOp9
 70
     0
102
RTVSPropertyOp10
 70
     0
102
RTVSPropertyOp11
 70
     0
102
RTVSPropertyOp12
 70
     0
102
RTVSPropertyOp13
 70
     0
102
RTVSPropertyOp14
 70
     2
102
RTVSPropertyOp15
 70
     0
102
RTVSPropertyOp16
 70
     0
102
RTVSPropertyOp17
 70
     0
102
RTVSPropertyOp18
 70
     0
102
RTVSPropertyOp19
 70
     0
102
RTVSPropertyOp20
 70
     0
102
RTVSPropertyOp21
 70
     0
102
RTVSPropertyOp22
 70
     0
102
RTVSPropertyOp23
 70
     0
102
RTVSPropertyOp24
 70
     0
102
RTVSPropertyOp25
 70
     0
102
RTVSPropertyOp26
 70
     0
102
RTVSPropertyOp27
 70
     0
102
RTVSPropertyOp28
 70
     0
102
RTVSPropertyOp29
 70
     0
102
RTVSPropertyOp30
 70
     0
102
RTVSPropertyOp31
 70
     0
102
RTVSPropertyOp32
 70
     0
  0
XRECORD
  5
ED1
102
{ACAD_REACTORS
330
ED0
102
}
330
ED0
100
AcDbXrecord
280
     1
102
RTVSPropertyOp0
 70
     1
102
RTVSPropertyOp1
 70
     1
102
RTVSPropertyOp2
 70
     1
102
RTVSPropertyOp3
 70
     1
102
RTVSPropertyOp4
 70
     1
102
RTVSPropertyOp5
 70
     1
102
RTVSPropertyOp6
 70
     1
102
RTVSPropertyOp7
 70
     1
102
RTVSPropertyOp8
 70
     1
102
RTVSPropertyOp9
 70
     1
102
RTVSPropertyOp10
 70
     1
102
RTVSPropertyOp11
 70
     1
102
RTVSPropertyOp12
 70
     1
102
RTVSPropertyOp13
 70
     1
102
RTVSPropertyOp14
 70
     1
102
RTVSPropertyOp15
 70
     1
102
RTVSPropertyOp16
 70
     1
102
RTVSPropertyOp17
 70
     1
102
RTVSPropertyOp18
 70
     1
102
RTVSPropertyOp19
 70
     1
102
RTVSPropertyOp20
 70
     1
102
RTVSPropertyOp21
 70
     1
102
RTVSPropertyOp22
 70
     1
102
RTVSPropertyOp23
 70
     1
102
RTVSPropertyOp24
 70
     1
102
RTVSPropertyOp25
 70
     1
102
RTVSPropertyOp26
 70
     1
102
RTVSPropertyOp27
 70
     1
102
RTVSPropertyOp28
 70
     1
102
RTVSPropertyOp29
 70
     1
102
RTVSPropertyOp30
 70
     1
102
RTVSPropertyOp31
 70
     1
102
RTVSPropertyOp32
 70
     1
  0
XRECORD
  5
EB5
102
{ACAD_REACTORS
330
EB4
102
}
330
EB4
100
AcDbXrecord
280
     1
102
RTVSPropertyOp0
 70
     1
102
RTVSPropertyOp1
 70
     1
102
RTVSPropertyOp2
 70
     1
102
RTVSPropertyOp3
 70
     1
102
RTVSPropertyOp4
 70
     1
102
RTVSPropertyOp5
 70
     1
102
RTVSPropertyOp6
 70
     1
102
RTVSPropertyOp7
 70
     1
102
RTVSPropertyOp8
 70
     1
102
RTVSPropertyOp9
 70
     1
102
RTVSPropertyOp10
 70
     1
102
RTVSPropertyOp11
 70
     1
102
RTVSPropertyOp12
 70
     1
102
RTVSPropertyOp13
 70
     1
102
RTVSPropertyOp14
 70
     1
102
RTVSPropertyOp15
 70
     1
102
RTVSPropertyOp16
 70
     1
102
RTVSPropertyOp17
 70
     1
102
RTVSPropertyOp18
 70
     1
102
RTVSPropertyOp19
 70
     1
102
RTVSPropertyOp20
 70
     1
102
RTVSPropertyOp21
 70
     1
102
RTVSPropertyOp22
 70
     1
102
RTVSPropertyOp23
 70
     1
102
RTVSPropertyOp24
 70
     1
102
RTVSPropertyOp25
 70
     1
102
RTVSPropertyOp26
 70
     1
102
RTVSPropertyOp27
 70
     1
102
RTVSPropertyOp28
 70
     1
102
RTVSPropertyOp29
 70
     1
102
RTVSPropertyOp30
 70
     1
102
RTVSPropertyOp31
 70
     1
102
RTVSPropertyOp32
 70
     1
  0
XRECORD
  5
EB7
102
{ACAD_REACTORS
330
EB6
102
}
330
EB6
100
AcDbXrecord
280
     1
102
RTVSPropertyOp0
 70
     1
102
RTVSPropertyOp1
 70
     1
102
RTVSPropertyOp2
 70
     1
102
RTVSPropertyOp3
 70
     1
102
RTVSPropertyOp4
 70
     1
102
RTVSPropertyOp5
 70
     1
102
RTVSPropertyOp6
 70
     1
102
RTVSPropertyOp7
 70
     1
102
RTVSPropertyOp8
 70
     1
102
RTVSPropertyOp9
 70
     1
102
RTVSPropertyOp10
 70
     1
102
RTVSPropertyOp11
 70
     1
102
RTVSPropertyOp12
 70
     1
102
RTVSPropertyOp13
 70
     1
102
RTVSPropertyOp14
 70
     1
102
RTVSPropertyOp15
 70
     1
102
RTVSPropertyOp16
 70
     1
102
RTVSPropertyOp17
 70
     1
102
RTVSPropertyOp18
 70
     1
102
RTVSPropertyOp19
 70
     1
102
RTVSPropertyOp20
 70
     1
102
RTVSPropertyOp21
 70
     1
102
RTVSPropertyOp22
 70
     1
102
RTVSPropertyOp23
 70
     1
102
RTVSPropertyOp24
 70
     1
102
RTVSPropertyOp25
 70
     1
102
RTVSPropertyOp26
 70
     1
102
RTVSPropertyOp27
 70
     1
102
RTVSPropertyOp28
 70
     1
102
RTVSPropertyOp29
 70
     1
102
RTVSPropertyOp30
 70
     1
102
RTVSPropertyOp31
 70
     1
102
RTVSPropertyOp32
 70
     1
  0
XRECORD
  5
EB9
102
{ACAD_REACTORS
330
EB8
102
}
330
EB8
100
AcDbXrecord
280
     1
102
RTVSPropertyOp0
 70
     1
102
RTVSPropertyOp1
 70
     1
102
RTVSPropertyOp2
 70
     1
102
RTVSPropertyOp3
 70
     1
102
RTVSPropertyOp4
 70
     1
102
RTVSPropertyOp5
 70
     1
102
RTVSPropertyOp6
 70
     1
102
RTVSPropertyOp7
 70
     1
102
RTVSPropertyOp8
 70
     1
102
RTVSPropertyOp9
 70
     1
102
RTVSPropertyOp10
 70
     1
102
RTVSPropertyOp11
 70
     1
102
RTVSPropertyOp12
 70
     1
102
RTVSPropertyOp13
 70
     1
102
RTVSPropertyOp14
 70
     1
102
RTVSPropertyOp15
 70
     1
102
RTVSPropertyOp16
 70
     1
102
RTVSPropertyOp17
 70
     1
102
RTVSPropertyOp18
 70
     1
102
RTVSPropertyOp19
 70
     1
102
RTVSPropertyOp20
 70
     1
102
RTVSPropertyOp21
 70
     1
102
RTVSPropertyOp22
 70
     1
102
RTVSPropertyOp23
 70
     1
102
RTVSPropertyOp24
 70
     1
102
RTVSPropertyOp25
 70
     1
102
RTVSPropertyOp26
 70
     1
102
RTVSPropertyOp27
 70
     1
102
RTVSPropertyOp28
 70
     1
102
RTVSPropertyOp29
 70
     1
102
RTVSPropertyOp30
 70
     1
102
RTVSPropertyOp31
 70
     1
102
RTVSPropertyOp32
 70
     1
  0
XRECORD
  5
EBB
102
{ACAD_REACTORS
330
EBA
102
}
330
EBA
100
AcDbXrecord
280
     1
102
RTVSPropertyOp0
 70
     1
102
RTVSPropertyOp1
 70
     1
102
RTVSPropertyOp2
 70
     1
102
RTVSPropertyOp3
 70
     1
102
RTVSPropertyOp4
 70
     1
102
RTVSPropertyOp5
 70
     1
102
RTVSPropertyOp6
 70
     1
102
RTVSPropertyOp7
 70
     1
102
RTVSPropertyOp8
 70
     1
102
RTVSPropertyOp9
 70
     1
102
RTVSPropertyOp10
 70
     1
102
RTVSPropertyOp11
 70
     1
102
RTVSPropertyOp12
 70
     1
102
RTVSPropertyOp13
 70
     1
102
RTVSPropertyOp14
 70
     1
102
RTVSPropertyOp15
 70
     1
102
RTVSPropertyOp16
 70
     1
102
RTVSPropertyOp17
 70
     1
102
RTVSPropertyOp18
 70
     1
102
RTVSPropertyOp19
 70
     1
102
RTVSPropertyOp20
 70
     1
102
RTVSPropertyOp21
 70
     1
102
RTVSPropertyOp22
 70
     1
102
RTVSPropertyOp23
 70
     1
102
RTVSPropertyOp24
 70
     1
102
RTVSPropertyOp25
 70
     1
102
RTVSPropertyOp26
 70
     1
102
RTVSPropertyOp27
 70
     1
102
RTVSPropertyOp28
 70
     1
102
RTVSPropertyOp29
 70
     1
102
RTVSPropertyOp30
 70
     1
102
RTVSPropertyOp31
 70
     1
102
RTVSPropertyOp32
 70
     1
  0
XRECORD
  5
EC3
102
{ACAD_REACTORS
330
EC2
102
}
330
EC2
100
AcDbXrecord
280
     1
102
RTVSPropertyOp0
 70
     1
102
RTVSPropertyOp1
 70
     1
102
RTVSPropertyOp2
 70
     1
102
RTVSPropertyOp3
 70
     1
102
RTVSPropertyOp4
 70
     1
102
RTVSPropertyOp5
 70
     1
102
RTVSPropertyOp6
 70
     1
102
RTVSPropertyOp7
 70
     1
102
RTVSPropertyOp8
 70
     1
102
RTVSPropertyOp9
 70
     1
102
RTVSPropertyOp10
 70
     1
102
RTVSPropertyOp11
 70
     1
102
RTVSPropertyOp12
 70
     1
102
RTVSPropertyOp13
 70
     1
102
RTVSPropertyOp14
 70
     1
102
RTVSPropertyOp15
 70
     1
102
RTVSPropertyOp16
 70
     1
102
RTVSPropertyOp17
 70
     1
102
RTVSPropertyOp18
 70
     1
102
RTVSPropertyOp19
 70
     1
102
RTVSPropertyOp20
 70
     1
102
RTVSPropertyOp21
 70
     1
102
RTVSPropertyOp22
 70
     1
102
RTVSPropertyOp23
 70
     1
102
RTVSPropertyOp24
 70
     1
102
RTVSPropertyOp25
 70
     1
102
RTVSPropertyOp26
 70
     1
102
RTVSPropertyOp27
 70
     1
102
RTVSPropertyOp28
 70
     1
102
RTVSPropertyOp29
 70
     1
102
RTVSPropertyOp30
 70
     1
102
RTVSPropertyOp31
 70
     1
102
RTVSPropertyOp32
 70
     1
  0
XRECORD
  5
EDF
102
{ACAD_REACTORS
330
EDE
102
}
330
EDE
100
AcDbXrecord
280
     1
102
RTVSPropertyOp0
 70
     0
102
RTVSPropertyOp1
 70
     0
102
RTVSPropertyOp2
 70
     0
102
RTVSPropertyOp3
 70
     0
102
RTVSPropertyOp4
 70
     0
102
RTVSPropertyOp5
 70
     0
102
RTVSPropertyOp6
 70
     0
102
RTVSPropertyOp7
 70
     0
102
RTVSPropertyOp8
 70
     0
102
RTVSPropertyOp9
 70
     0
102
RTVSPropertyOp10
 70
     0
102
RTVSPropertyOp11
 70
     0
102
RTVSPropertyOp12
 70
     0
102
RTVSPropertyOp13
 70
     0
102
RTVSPropertyOp14
 70
     2
102
RTVSPropertyOp15
 70
     0
102
RTVSPropertyOp16
 70
     0
102
RTVSPropertyOp17
 70
     0
102
RTVSPropertyOp18
 70
     0
102
RTVSPropertyOp19
 70
     0
102
RTVSPropertyOp20
 70
     0
102
RTVSPropertyOp21
 70
     0
102
RTVSPropertyOp22
 70
     0
102
RTVSPropertyOp23
 70
     0
102
RTVSPropertyOp24
 70
     0
102
RTVSPropertyOp25
 70
     0
102
RTVSPropertyOp26
 70
     0
102
RTVSPropertyOp27
 70
     0
102
RTVSPropertyOp28
 70
     0
102
RTVSPropertyOp29
 70
     0
102
RTVSPropertyOp30
 70
     0
102
RTVSPropertyOp31
 70
     0
102
RTVSPropertyOp32
 70
     0
  0
XRECORD
  5
ECF
102
{ACAD_REACTORS
330
ECE
102
}
330
ECE
100
AcDbXrecord
280
     1
102
RTVSPropertyOp0
 70
     1
102
RTVSPropertyOp1
 70
     1
102
RTVSPropertyOp2
 70
     1
102
RTVSPropertyOp3
 70
     1
102
RTVSPropertyOp4
 70
     1
102
RTVSPropertyOp5
 70
     1
102
RTVSPropertyOp6
 70
     1
102
RTVSPropertyOp7
 70
     1
102
RTVSPropertyOp8
 70
     1
102
RTVSPropertyOp9
 70
     1
102
RTVSPropertyOp10
 70
     1
102
RTVSPropertyOp11
 70
     1
102
RTVSPropertyOp12
 70
     1
102
RTVSPropertyOp13
 70
     1
102
RTVSPropertyOp14
 70
     1
102
RTVSPropertyOp15
 70
     1
102
RTVSPropertyOp16
 70
     1
102
RTVSPropertyOp17
 70
     1
102
RTVSPropertyOp18
 70
     1
102
RTVSPropertyOp19
 70
     1
102
RTVSPropertyOp20
 70
     1
102
RTVSPropertyOp21
 70
     1
102
RTVSPropertyOp22
 70
     1
102
RTVSPropertyOp23
 70
     1
102
RTVSPropertyOp24
 70
     1
102
RTVSPropertyOp25
 70
     1
102
RTVSPropertyOp26
 70
     1
102
RTVSPropertyOp27
 70
     1
102
RTVSPropertyOp28
 70
     1
102
RTVSPropertyOp29
 70
     1
102
RTVSPropertyOp30
 70
     1
102
RTVSPropertyOp31
 70
     1
102
RTVSPropertyOp32
 70
     1
  0
XRECORD
  5
EE1
102
{ACAD_REACTORS
330
EE0
102
}
330
EE0
100
AcDbXrecord
280
     1
102
RTVSPropertyOp0
 70
     0
102
RTVSPropertyOp1
 70
     0
102
RTVSPropertyOp2
 70
     0
102
RTVSPropertyOp3
 70
     0
102
RTVSPropertyOp4
 70
     0
102
RTVSPropertyOp5
 70
     0
102
RTVSPropertyOp6
 70
     0
102
RTVSPropertyOp7
 70
     0
102
RTVSPropertyOp8
 70
     0
102
RTVSPropertyOp9
 70
     0
102
RTVSPropertyOp10
 70
     0
102
RTVSPropertyOp11
 70
     0
102
RTVSPropertyOp12
 70
     0
102
RTVSPropertyOp13
 70
     0
102
RTVSPropertyOp14
 70
     2
102
RTVSPropertyOp15
 70
     0
102
RTVSPropertyOp16
 70
     0
102
RTVSPropertyOp17
 70
     0
102
RTVSPropertyOp18
 70
     0
102
RTVSPropertyOp19
 70
     0
102
RTVSPropertyOp20
 70
     0
102
RTVSPropertyOp21
 70
     0
102
RTVSPropertyOp22
 70
     0
102
RTVSPropertyOp23
 70
     0
102
RTVSPropertyOp24
 70
     0
102
RTVSPropertyOp25
 70
     0
102
RTVSPropertyOp26
 70
     0
102
RTVSPropertyOp27
 70
     0
102
RTVSPropertyOp28
 70
     0
102
RTVSPropertyOp29
 70
     0
102
RTVSPropertyOp30
 70
     0
102
RTVSPropertyOp31
 70
     0
102
RTVSPropertyOp32
 70
     0
  0
XRECORD
  5
EC7
102
{ACAD_REACTORS
330
EC6
102
}
330
EC6
100
AcDbXrecord
280
     1
102
RTVSPropertyOp0
 70
     1
102
RTVSPropertyOp1
 70
     1
102
RTVSPropertyOp2
 70
     1
102
RTVSPropertyOp3
 70
     1
102
RTVSPropertyOp4
 70
     1
102
RTVSPropertyOp5
 70
     1
102
RTVSPropertyOp6
 70
     1
102
RTVSPropertyOp7
 70
     1
102
RTVSPropertyOp8
 70
     1
102
RTVSPropertyOp9
 70
     1
102
RTVSPropertyOp10
 70
     1
102
RTVSPropertyOp11
 70
     1
102
RTVSPropertyOp12
 70
     1
102
RTVSPropertyOp13
 70
     1
102
RTVSPropertyOp14
 70
     1
102
RTVSPropertyOp15
 70
     1
102
RTVSPropertyOp16
 70
     1
102
RTVSPropertyOp17
 70
     1
102
RTVSPropertyOp18
 70
     1
102
RTVSPropertyOp19
 70
     1
102
RTVSPropertyOp20
 70
     1
102
RTVSPropertyOp21
 70
     1
102
RTVSPropertyOp22
 70
     1
102
RTVSPropertyOp23
 70
     1
102
RTVSPropertyOp24
 70
     1
102
RTVSPropertyOp25
 70
     1
102
RTVSPropertyOp26
 70
     1
102
RTVSPropertyOp27
 70
     1
102
RTVSPropertyOp28
 70
     1
102
RTVSPropertyOp29
 70
     1
102
RTVSPropertyOp30
 70
     1
102
RTVSPropertyOp31
 70
     1
102
RTVSPropertyOp32
 70
     1
  0
XRECORD
  5
EDD
102
{ACAD_REACTORS
330
EDC
102
}
330
EDC
100
AcDbXrecord
280
     1
102
RTVSPropertyOp0
 70
     1
102
RTVSPropertyOp1
 70
     1
102
RTVSPropertyOp2
 70
     1
102
RTVSPropertyOp3
 70
     1
102
RTVSPropertyOp4
 70
     1
102
RTVSPropertyOp5
 70
     1
102
RTVSPropertyOp6
 70
     1
102
RTVSPropertyOp7
 70
     1
102
RTVSPropertyOp8
 70
     1
102
RTVSPropertyOp9
 70
     1
102
RTVSPropertyOp10
 70
     1
102
RTVSPropertyOp11
 70
     1
102
RTVSPropertyOp12
 70
     1
102
RTVSPropertyOp13
 70
     1
102
RTVSPropertyOp14
 70
     1
102
RTVSPropertyOp15
 70
     1
102
RTVSPropertyOp16
 70
     1
102
RTVSPropertyOp17
 70
     1
102
RTVSPropertyOp18
 70
     1
102
RTVSPropertyOp19
 70
     1
102
RTVSPropertyOp20
 70
     1
102
RTVSPropertyOp21
 70
     1
102
RTVSPropertyOp22
 70
     1
102
RTVSPropertyOp23
 70
     1
102
RTVSPropertyOp24
 70
     1
102
RTVSPropertyOp25
 70
     1
102
RTVSPropertyOp26
 70
     1
102
RTVSPropertyOp27
 70
     1
102
RTVSPropertyOp28
 70
     1
102
RTVSPropertyOp29
 70
     1
102
RTVSPropertyOp30
 70
     1
102
RTVSPropertyOp31
 70
     1
102
RTVSPropertyOp32
 70
     1
  0
XRECORD
  5
EDB
102
{ACAD_REACTORS
330
EDA
102
}
330
EDA
100
AcDbXrecord
280
     1
102
RTVSPropertyOp0
 70
     1
102
RTVSPropertyOp1
 70
     1
102
RTVSPropertyOp2
 70
     1
102
RTVSPropertyOp3
 70
     1
102
RTVSPropertyOp4
 70
     1
102
RTVSPropertyOp5
 70
     1
102
RTVSPropertyOp6
 70
     1
102
RTVSPropertyOp7
 70
     1
102
RTVSPropertyOp8
 70
     1
102
RTVSPropertyOp9
 70
     1
102
RTVSPropertyOp10
 70
     1
102
RTVSPropertyOp11
 70
     1
102
RTVSPropertyOp12
 70
     1
102
RTVSPropertyOp13
 70
     1
102
RTVSPropertyOp14
 70
     1
102
RTVSPropertyOp15
 70
     1
102
RTVSPropertyOp16
 70
     1
102
RTVSPropertyOp17
 70
     1
102
RTVSPropertyOp18
 70
     1
102
RTVSPropertyOp19
 70
     1
102
RTVSPropertyOp20
 70
     1
102
RTVSPropertyOp21
 70
     1
102
RTVSPropertyOp22
 70
     1
102
RTVSPropertyOp23
 70
     1
102
RTVSPropertyOp24
 70
     1
102
RTVSPropertyOp25
 70
     1
102
RTVSPropertyOp26
 70
     1
102
RTVSPropertyOp27
 70
     1
102
RTVSPropertyOp28
 70
     1
102
RTVSPropertyOp29
 70
     1
102
RTVSPropertyOp30
 70
     1
102
RTVSPropertyOp31
 70
     1
102
RTVSPropertyOp32
 70
     1
  0
XRECORD
  5
ED5
102
{ACAD_REACTORS
330
ED4
102
}
330
ED4
100
AcDbXrecord
280
     1
102
RTVSPropertyOp0
 70
     1
102
RTVSPropertyOp1
 70
     1
102
RTVSPropertyOp2
 70
     1
102
RTVSPropertyOp3
 70
     1
102
RTVSPropertyOp4
 70
     1
102
RTVSPropertyOp5
 70
     1
102
RTVSPropertyOp6
 70
     1
102
RTVSPropertyOp7
 70
     1
102
RTVSPropertyOp8
 70
     1
102
RTVSPropertyOp9
 70
     1
102
RTVSPropertyOp10
 70
     1
102
RTVSPropertyOp11
 70
     1
102
RTVSPropertyOp12
 70
     1
102
RTVSPropertyOp13
 70
     1
102
RTVSPropertyOp14
 70
     1
102
RTVSPropertyOp15
 70
     1
102
RTVSPropertyOp16
 70
     1
102
RTVSPropertyOp17
 70
     1
102
RTVSPropertyOp18
 70
     1
102
RTVSPropertyOp19
 70
     1
102
RTVSPropertyOp20
 70
     1
102
RTVSPropertyOp21
 70
     1
102
RTVSPropertyOp22
 70
     1
102
RTVSPropertyOp23
 70
     1
102
RTVSPropertyOp24
 70
     1
102
RTVSPropertyOp25
 70
     1
102
RTVSPropertyOp26
 70
     1
102
RTVSPropertyOp27
 70
     1
102
RTVSPropertyOp28
 70
     1
102
RTVSPropertyOp29
 70
     1
102
RTVSPropertyOp30
 70
     1
102
RTVSPropertyOp31
 70
     1
102
RTVSPropertyOp32
 70
     1
  0
XRECORD
  5
ED7
102
{ACAD_REACTORS
330
ED6
102
}
330
ED6
100
AcDbXrecord
280
     1
102
RTVSPropertyOp0
 70
     1
102
RTVSPropertyOp1
 70
     1
102
RTVSPropertyOp2
 70
     1
102
RTVSPropertyOp3
 70
     1
102
RTVSPropertyOp4
 70
     1
102
RTVSPropertyOp5
 70
     1
102
RTVSPropertyOp6
 70
     1
102
RTVSPropertyOp7
 70
     1
102
RTVSPropertyOp8
 70
     1
102
RTVSPropertyOp9
 70
     1
102
RTVSPropertyOp10
 70
     1
102
RTVSPropertyOp11
 70
     1
102
RTVSPropertyOp12
 70
     1
102
RTVSPropertyOp13
 70
     1
102
RTVSPropertyOp14
 70
     1
102
RTVSPropertyOp15
 70
     1
102
RTVSPropertyOp16
 70
     1
102
RTVSPropertyOp17
 70
     1
102
RTVSPropertyOp18
 70
     1
102
RTVSPropertyOp19
 70
     1
102
RTVSPropertyOp20
 70
     1
102
RTVSPropertyOp21
 70
     1
102
RTVSPropertyOp22
 70
     1
102
RTVSPropertyOp23
 70
     1
102
RTVSPropertyOp24
 70
     1
102
RTVSPropertyOp25
 70
     1
102
RTVSPropertyOp26
 70
     1
102
RTVSPropertyOp27
 70
     1
102
RTVSPropertyOp28
 70
     1
102
RTVSPropertyOp29
 70
     1
102
RTVSPropertyOp30
 70
     1
102
RTVSPropertyOp31
 70
     1
102
RTVSPropertyOp32
 70
     1
  0
XRECORD
  5
ECD
102
{ACAD_REACTORS
330
ECC
102
}
330
ECC
100
AcDbXrecord
280
     1
102
RTVSPropertyOp0
 70
     1
102
RTVSPropertyOp1
 70
     1
102
RTVSPropertyOp2
 70
     1
102
RTVSPropertyOp3
 70
     1
102
RTVSPropertyOp4
 70
     1
102
RTVSPropertyOp5
 70
     1
102
RTVSPropertyOp6
 70
     1
102
RTVSPropertyOp7
 70
     1
102
RTVSPropertyOp8
 70
     1
102
RTVSPropertyOp9
 70
     1
102
RTVSPropertyOp10
 70
     1
102
RTVSPropertyOp11
 70
     1
102
RTVSPropertyOp12
 70
     1
102
RTVSPropertyOp13
 70
     1
102
RTVSPropertyOp14
 70
     1
102
RTVSPropertyOp15
 70
     1
102
RTVSPropertyOp16
 70
     1
102
RTVSPropertyOp17
 70
     1
102
RTVSPropertyOp18
 70
     1
102
RTVSPropertyOp19
 70
     1
102
RTVSPropertyOp20
 70
     1
102
RTVSPropertyOp21
 70
     1
102
RTVSPropertyOp22
 70
     1
102
RTVSPropertyOp23
 70
     1
102
RTVSPropertyOp24
 70
     1
102
RTVSPropertyOp25
 70
     1
102
RTVSPropertyOp26
 70
     1
102
RTVSPropertyOp27
 70
     1
102
RTVSPropertyOp28
 70
     1
102
RTVSPropertyOp29
 70
     1
102
RTVSPropertyOp30
 70
     1
102
RTVSPropertyOp31
 70
     1
102
RTVSPropertyOp32
 70
     1
  0
XRECORD
  5
EC1
102
{ACAD_REACTORS
330
EC0
102
}
330
EC0
100
AcDbXrecord
280
     1
102
RTVSPropertyOp0
 70
     1
102
RTVSPropertyOp1
 70
     1
102
RTVSPropertyOp2
 70
     1
102
RTVSPropertyOp3
 70
     1
102
RTVSPropertyOp4
 70
     1
102
RTVSPropertyOp5
 70
     1
102
RTVSPropertyOp6
 70
     1
102
RTVSPropertyOp7
 70
     1
102
RTVSPropertyOp8
 70
     1
102
RTVSPropertyOp9
 70
     1
102
RTVSPropertyOp10
 70
     1
102
RTVSPropertyOp11
 70
     1
102
RTVSPropertyOp12
 70
     1
102
RTVSPropertyOp13
 70
     1
102
RTVSPropertyOp14
 70
     1
102
RTVSPropertyOp15
 70
     1
102
RTVSPropertyOp16
 70
     1
102
RTVSPropertyOp17
 70
     1
102
RTVSPropertyOp18
 70
     1
102
RTVSPropertyOp19
 70
     1
102
RTVSPropertyOp20
 70
     1
102
RTVSPropertyOp21
 70
     1
102
RTVSPropertyOp22
 70
     1
102
RTVSPropertyOp23
 70
     1
102
RTVSPropertyOp24
 70
     1
102
RTVSPropertyOp25
 70
     1
102
RTVSPropertyOp26
 70
     1
102
RTVSPropertyOp27
 70
     1
102
RTVSPropertyOp28
 70
     1
102
RTVSPropertyOp29
 70
     1
102
RTVSPropertyOp30
 70
     1
102
RTVSPropertyOp31
 70
     1
102
RTVSPropertyOp32
 70
     1
  0
XRECORD
  5
ED9
102
{ACAD_REACTORS
330
ED8
102
}
330
ED8
100
AcDbXrecord
280
     1
102
RTVSPropertyOp0
 70
     1
102
RTVSPropertyOp1
 70
     1
102
RTVSPropertyOp2
 70
     1
102
RTVSPropertyOp3
 70
     1
102
RTVSPropertyOp4
 70
     1
102
RTVSPropertyOp5
 70
     1
102
RTVSPropertyOp6
 70
     1
102
RTVSPropertyOp7
 70
     1
102
RTVSPropertyOp8
 70
     1
102
RTVSPropertyOp9
 70
     1
102
RTVSPropertyOp10
 70
     1
102
RTVSPropertyOp11
 70
     1
102
RTVSPropertyOp12
 70
     1
102
RTVSPropertyOp13
 70
     1
102
RTVSPropertyOp14
 70
     1
102
RTVSPropertyOp15
 70
     1
102
RTVSPropertyOp16
 70
     1
102
RTVSPropertyOp17
 70
     1
102
RTVSPropertyOp18
 70
     1
102
RTVSPropertyOp19
 70
     1
102
RTVSPropertyOp20
 70
     1
102
RTVSPropertyOp21
 70
     1
102
RTVSPropertyOp22
 70
     1
102
RTVSPropertyOp23
 70
     1
102
RTVSPropertyOp24
 70
     1
102
RTVSPropertyOp25
 70
     1
102
RTVSPropertyOp26
 70
     1
102
RTVSPropertyOp27
 70
     1
102
RTVSPropertyOp28
 70
     1
102
RTVSPropertyOp29
 70
     1
102
RTVSPropertyOp30
 70
     1
102
RTVSPropertyOp31
 70
     1
102
RTVSPropertyOp32
 70
     1
  0
ENDSEC
  0
EOF
