  0
SECTION
  2
HEADER
  9
$ACADVER
  1
AC1021
  9
$ACADMAINTVER
 70
    50
  9
$DWGCODEPAGE
  3
ANSI_1250
  9
$TITLE
  1
zestaw 1 - betonowanie
  9
$AUTHOR
  1
Muller
  9
$LASTSAVEDBY
  1
Adam Krawców
  9
$REVISIONNUMBER
  1
01
  9
$CUSTOMPROPERTYTAG
  1
Menadżer
  9
$CUSTOMPROPERTY
  1

  9
$CUSTOMPROPERTYTAG
  1
Firma
  9
$CUSTOMPROPERTY
  1

  9
$CUSTOMPROPERTYTAG
  1
Kategoria
  9
$CUSTOMPROPERTY
  1

  9
$CUSTOMPROPERTYTAG
  1
Numer części
  9
$CUSTOMPROPERTY
  1
zestaw 1 kt
  9
$CUSTOMPROPERTYTAG
  1
Opis
  9
$CUSTOMPROPERTY
  1

  9
$CUSTOMPROPERTYTAG
  1
Projekt
  9
$CUSTOMPROPERTY
  1

  9
$CUSTOMPROPERTYTAG
  1
Projektant
  9
$CUSTOMPROPERTY
  1
Paweł
  9
$CUSTOMPROPERTYTAG
  1
Inżynier
  9
$CUSTOMPROPERTY
  1

  9
$CUSTOMPROPERTYTAG
  1
Zatwierdził
  9
$CUSTOMPROPERTY
  1

  9
$CUSTOMPROPERTYTAG
  1
Centrum kosztów
  9
$CUSTOMPROPERTY
  1

  9
$CUSTOMPROPERTYTAG
  1
Dostawca
  9
$CUSTOMPROPERTY
  1

  9
$CUSTOMPROPERTYTAG
  1
Stan użytkownika
  9
$CUSTOMPROPERTY
  1

  9
$CUSTOMPROPERTYTAG
  1
Stan projektu
  9
$CUSTOMPROPERTY
  1
PracaWToku
  9
$CUSTOMPROPERTYTAG
  1
Sprawdził
  9
$CUSTOMPROPERTY
  1
Pro-Design
  9
$CUSTOMPROPERTYTAG
  1
Zatwierdził konstrukcję
  9
$CUSTOMPROPERTY
  1
Muller
  9
$CUSTOMPROPERTYTAG
  1
Zatwierdził do produkcji
  9
$CUSTOMPROPERTY
  1

  9
$INSBASE
 10
0.0
 20
0.0
 30
0.0
  9
$EXTMIN
 10
951.3191378786352
 20
403.0895065550603
 30
-0.00000001
  9
$EXTMAX
 10
6470.979848580729
 20
5880.732896972823
 30
0.00000001
  9
$LIMMIN
 10
0.0
 20
0.0
  9
$LIMMAX
 10
12600.0
 20
8910.0
  9
$ORTHOMODE
 70
     0
  9
$REGENMODE
 70
     1
  9
$FILLMODE
 70
     1
  9
$QTEXTMODE
 70
     0
  9
$MIRRTEXT
 70
     0
  9
$LTSCALE
 40
30.0
  9
$ATTMODE
 70
     1
  9
$TEXTSIZE
 40
0.2
  9
$TRACEWID
 40
0.05
  9
$TEXTSTYLE
  7
Standard
  9
$CLAYER
  8
0
  9
$CELTYPE
  6
ByLayer
  9
$CECOLOR
 62
   256
  9
$CELTSCALE
 40
1.0
  9
$DISPSILH
 70
     0
  9
$DIMSCALE
 40
1.0
  9
$DIMASZ
 40
1.799999999999999
  9
$DIMEXO
 40
0.0625
  9
$DIMDLI
 40
0.38
  9
$DIMRND
 40
0.0
  9
$DIMDLE
 40
0.0
  9
$DIMEXE
 40
0.18
  9
$DIMTP
 40
0.0
  9
$DIMTM
 40
0.0
  9
$DIMTXT
 40
0.25
  9
$DIMCEN
 40
0.09
  9
$DIMTSZ
 40
0.0
  9
$DIMTOL
 70
     0
  9
$DIMLIM
 70
     0
  9
$DIMTIH
 70
     1
  9
$DIMTOH
 70
     1
  9
$DIMSE1
 70
     0
  9
$DIMSE2
 70
     0
  9
$DIMTAD
 70
     0
  9
$DIMZIN
 70
     0
  9
$DIMBLK
  1

  9
$DIMASO
 70
     1
  9
$DIMSHO
 70
     1
  9
$DIMPOST
  1

  9
$DIMAPOST
  1

  9
$DIMALT
 70
     0
  9
$DIMALTD
 70
     2
  9
$DIMALTF
 40
25.4
  9
$DIMLFAC
 40
1.0
  9
$DIMTOFL
 70
     0
  9
$DIMTVP
 40
0.0
  9
$DIMTIX
 70
     0
  9
$DIMSOXD
 70
     0
  9
$DIMSAH
 70
     0
  9
$DIMBLK1
  1

  9
$DIMBLK2
  1

  9
$DIMSTYLE
  2
Standard
  9
$DIMCLRD
 70
     0
  9
$DIMCLRE
 70
     0
  9
$DIMCLRT
 70
     0
  9
$DIMTFAC
 40
1.0
  9
$DIMGAP
 40
0.09
  9
$DIMJUST
 70
     0
  9
$DIMSD1
 70
     0
  9
$DIMSD2
 70
     0
  9
$DIMTOLJ
 70
     1
  9
$DIMTZIN
 70
     0
  9
$DIMALTZ
 70
     0
  9
$DIMALTTZ
 70
     0
  9
$DIMUPT
 70
     0
  9
$DIMDEC
 70
     4
  9
$DIMTDEC
 70
     4
  9
$DIMALTU
 70
     2
  9
$DIMALTTD
 70
     2
  9
$DIMTXSTY
  7
Standard
  9
$DIMAUNIT
 70
     0
  9
$DIMADEC
 70
     0
  9
$DIMALTRND
 40
0.0
  9
$DIMAZIN
 70
     0
  9
$DIMDSEP
 70
    46
  9
$DIMATFIT
 70
     3
  9
$DIMFRAC
 70
     0
  9
$DIMLDRBLK
  1

  9
$DIMLUNIT
 70
     2
  9
$DIMLWD
 70
    -2
  9
$DIMLWE
 70
    -2
  9
$DIMTMOVE
 70
     0
  9
$DIMFXL
 40
1.0
  9
$DIMFXLON
 70
     0
  9
$DIMJOGANG
 40
0.7853981633974483
  9
$DIMTFILL
 70
     0
  9
$DIMTFILLCLR
 70
     0
  9
$DIMARCSYM
 70
     0
  9
$DIMLTYPE
  6

  9
$DIMLTEX1
  6

  9
$DIMLTEX2
  6

  9
$LUNITS
 70
     2
  9
$LUPREC
 70
     4
  9
$SKETCHINC
 40
0.1
  9
$FILLETRAD
 40
0.0
  9
$AUNITS
 70
     0
  9
$AUPREC
 70
     0
  9
$MENU
  1
.
  9
$ELEVATION
 40
0.0
  9
$PELEVATION
 40
0.0
  9
$THICKNESS
 40
0.0
  9
$LIMCHECK
 70
     0
  9
$CHAMFERA
 40
0.0
  9
$CHAMFERB
 40
0.0
  9
$CHAMFERC
 40
0.0
  9
$CHAMFERD
 40
0.0
  9
$SKPOLY
 70
     0
  9
$TDCREATE
 40
2455862.512017442
  9
$TDUCREATE
 40
2455862.428684109
  9
$TDUPDATE
 40
2456163.365981076
  9
$TDUUPDATE
 40
2456163.282647743
  9
$TDINDWG
 40
0.0036585648
  9
$TDUSRTIMER
 40
0.0036585648
  9
$USRTIMER
 70
     1
  9
$ANGBASE
 50
0.0
  9
$ANGDIR
 70
     0
  9
$PDMODE
 70
     0
  9
$PDSIZE
 40
0.0
  9
$PLINEWID
 40
0.0
  9
$SPLFRAME
 70
     0
  9
$SPLINETYPE
 70
     6
  9
$SPLINESEGS
 70
     8
  9
$HANDSEED
  5
E56
  9
$SURFTAB1
 70
     6
  9
$SURFTAB2
 70
     6
  9
$SURFTYPE
 70
     6
  9
$SURFU
 70
     6
  9
$SURFV
 70
     6
  9
$UCSBASE
  2

  9
$UCSNAME
  2

  9
$UCSORG
 10
0.0
 20
0.0
 30
0.0
  9
$UCSXDIR
 10
1.0
 20
0.0
 30
0.0
  9
$UCSYDIR
 10
0.0
 20
1.0
 30
0.0
  9
$UCSORTHOREF
  2

  9
$UCSORTHOVIEW
 70
     0
  9
$UCSORGTOP
 10
0.0
 20
0.0
 30
0.0
  9
$UCSORGBOTTOM
 10
0.0
 20
0.0
 30
0.0
  9
$UCSORGLEFT
 10
0.0
 20
0.0
 30
0.0
  9
$UCSORGRIGHT
 10
0.0
 20
0.0
 30
0.0
  9
$UCSORGFRONT
 10
0.0
 20
0.0
 30
0.0
  9
$UCSORGBACK
 10
0.0
 20
0.0
 30
0.0
  9
$PUCSBASE
  2

  9
$PUCSNAME
  2

  9
$PUCSORG
 10
0.0
 20
0.0
 30
0.0
  9
$PUCSXDIR
 10
1.0
 20
0.0
 30
0.0
  9
$PUCSYDIR
 10
0.0
 20
1.0
 30
0.0
  9
$PUCSORTHOREF
  2

  9
$PUCSORTHOVIEW
 70
     0
  9
$PUCSORGTOP
 10
0.0
 20
0.0
 30
0.0
  9
$PUCSORGBOTTOM
 10
0.0
 20
0.0
 30
0.0
  9
$PUCSORGLEFT
 10
0.0
 20
0.0
 30
0.0
  9
$PUCSORGRIGHT
 10
0.0
 20
0.0
 30
0.0
  9
$PUCSORGFRONT
 10
0.0
 20
0.0
 30
0.0
  9
$PUCSORGBACK
 10
0.0
 20
0.0
 30
0.0
  9
$USERI1
 70
     0
  9
$USERI2
 70
     0
  9
$USERI3
 70
     0
  9
$USERI4
 70
     0
  9
$USERI5
 70
     0
  9
$USERR1
 40
0.0
  9
$USERR2
 40
0.0
  9
$USERR3
 40
0.0
  9
$USERR4
 40
0.0
  9
$USERR5
 40
0.0
  9
$WORLDVIEW
 70
     1
  9
$SHADEDGE
 70
     3
  9
$SHADEDIF
 70
    70
  9
$TILEMODE
 70
     1
  9
$MAXACTVP
 70
    64
  9
$PINSBASE
 10
0.0
 20
0.0
 30
0.0
  9
$PLIMCHECK
 70
     0
  9
$PEXTMIN
 10
0.0
 20
0.0
 30
0.0
  9
$PEXTMAX
 10
12600.0
 20
8910.0
 30
0.0
  9
$PLIMMIN
 10
0.0
 20
0.0
  9
$PLIMMAX
 10
12600.0
 20
8910.0
  9
$UNITMODE
 70
     0
  9
$VISRETAIN
 70
     1
  9
$PLINEGEN
 70
     0
  9
$PSLTSCALE
 70
     1
  9
$TREEDEPTH
 70
  3020
  9
$CMLSTYLE
  2
Standard
  9
$CMLJUST
 70
     0
  9
$CMLSCALE
 40
1.0
  9
$PROXYGRAPHICS
 70
     1
  9
$MEASUREMENT
 70
     1
  9
$CELWEIGHT
370
    -1
  9
$ENDCAPS
280
     0
  9
$JOINSTYLE
280
     0
  9
$LWDISPLAY
290
     0
  9
$INSUNITS
 70
     4
  9
$HYPERLINKBASE
  1

  9
$STYLESHEET
  1

  9
$XEDIT
290
     1
  9
$CEPSNTYPE
380
     0
  9
$PSTYLEMODE
290
     1
  9
$FINGERPRINTGUID
  2
{113430C1-8D6B-414C-82CA-9F2C6AA5A8C5}
  9
$VERSIONGUID
  2
{14EBF074-1399-4030-A8E6-7957C458C60E}
  9
$EXTNAMES
290
     1
  9
$PSVPSCALE
 40
0.0
  9
$OLESTARTUP
290
     0
  9
$SORTENTS
280
   127
  9
$INDEXCTL
280
     0
  9
$HIDETEXT
280
     1
  9
$XCLIPFRAME
290
     0
  9
$HALOGAP
280
     0
  9
$OBSCOLOR
 70
   257
  9
$OBSLTYPE
280
     0
  9
$INTERSECTIONDISPLAY
280
     0
  9
$INTERSECTIONCOLOR
 70
   257
  9
$DIMASSOC
280
     1
  9
$PROJECTNAME
  1

  9
$CAMERADISPLAY
290
     0
  9
$LENSLENGTH
 40
50.0
  9
$CAMERAHEIGHT
 40
0.0
  9
$STEPSPERSEC
 40
2.0
  9
$STEPSIZE
 40
6.0
  9
$3DDWFPREC
 40
2.0
  9
$PSOLWIDTH
 40
0.25
  9
$PSOLHEIGHT
 40
4.0
  9
$LOFTANG1
 40
1.570796326794896
  9
$LOFTANG2
 40
1.570796326794896
  9
$LOFTMAG1
 40
0.0
  9
$LOFTMAG2
 40
0.0
  9
$LOFTPARAM
 70
     7
  9
$LOFTNORMALS
280
     1
  9
$LATITUDE
 40
37.795
  9
$LONGITUDE
 40
-122.394
  9
$NORTHDIRECTION
 40
0.0
  9
$TIMEZONE
 70
 -8000
  9
$LIGHTGLYPHDISPLAY
280
     1
  9
$TILEMODELIGHTSYNCH
280
     1
  9
$CMATERIAL
347
11
  9
$SOLIDHIST
280
     1
  9
$SHOWHIST
280
     1
  9
$DWFFRAME
280
     2
  9
$DGNFRAME
280
     0
  9
$REALWORLDSCALE
290
     1
  9
$INTERFERECOLOR
 62
     1
  9
$INTERFEREOBJVS
345
33
  9
$INTERFEREVPVS
346
E36
  9
$CSHADOW
280
     0
  9
$SHADOWPLANELOCATION
 40
0.0
  0
ENDSEC
  0
SECTION
  2
CLASSES
  0
CLASS
  1
ACDBDICTIONARYWDFLT
  2
AcDbDictionaryWithDefault
  3
ObjectDBX Classes
 90
        0
 91
        1
280
     0
281
     0
  0
CLASS
  1
MATERIAL
  2
AcDbMaterial
  3
ObjectDBX Classes
 90
     1153
 91
        3
280
     0
281
     0
  0
CLASS
  1
VISUALSTYLE
  2
AcDbVisualStyle
  3
ObjectDBX Classes
 90
     4095
 91
       26
280
     0
281
     0
  0
CLASS
  1
SCALE
  2
AcDbScale
  3
ObjectDBX Classes
 90
     1153
 91
       17
280
     0
281
     0
  0
CLASS
  1
TABLESTYLE
  2
AcDbTableStyle
  3
ObjectDBX Classes
 90
     4095
 91
        1
280
     0
281
     0
  0
CLASS
  1
MLEADERSTYLE
  2
AcDbMLeaderStyle
  3
ACDB_MLEADERSTYLE_CLASS
 90
     4095
 91
        1
280
     0
281
     0
  0
CLASS
  1
DICTIONARYVAR
  2
AcDbDictionaryVar
  3
ObjectDBX Classes
 90
        0
 91
       13
280
     0
281
     0
  0
CLASS
  1
CELLSTYLEMAP
  2
AcDbCellStyleMap
  3
ObjectDBX Classes
 90
     1152
 91
        2
280
     0
281
     0
  0
ENDSEC
  0
SECTION
  2
TABLES
  0
TABLE
  2
VPORT
  5
8
102
{ACAD_XDICTIONARY
360
DEE
102
}
330
0
100
AcDbSymbolTable
 70
     1
  0
VPORT
  5
57
330
8
100
AcDbSymbolTableRecord
100
AcDbViewportTableRecord
  2
*Active
 70
     0
 10
0.0
 20
0.0
 11
1.0
 21
1.0
 12
6610.20526362353
 22
2887.860485980379
 13
0.0
 23
0.0
 14
1.0
 24
1.0
 15
0.0
 25
0.0
 16
0.0
 26
0.0
 36
1.0
 17
0.0
 27
0.0
 37
0.0
 40
8793.719293450001
 41
2.269279393173198
 42
50.0
 43
0.0
 44
0.0
 50
0.0
 51
0.0
 71
     0
 72
   100
 73
     1
 74
     1
 75
     0
 76
     0
 77
     0
 78
     0
281
     0
 65
     1
110
0.0
120
0.0
130
0.0
111
1.0
121
0.0
131
0.0
112
0.0
122
1.0
132
0.0
 79
     0
146
0.0
348
2F
 60
     3
 61
     5
292
     1
282
     1
141
0.0
142
0.0
 63
   250
421
  3355443
  0
ENDTAB
  0
TABLE
  2
LTYPE
  5
5
330
0
100
AcDbSymbolTable
 70
    59
  0
LTYPE
  5
5B
330
5
100
AcDbSymbolTableRecord
100
AcDbLinetypeTableRecord
  2
ByBlock
 70
     0
  3

 72
    65
 73
     0
 40
0.0
  0
LTYPE
  5
5C
330
5
100
AcDbSymbolTableRecord
100
AcDbLinetypeTableRecord
  2
ByLayer
 70
     0
  3

 72
    65
 73
     0
 40
0.0
  0
LTYPE
  5
5D
330
5
100
AcDbSymbolTableRecord
100
AcDbLinetypeTableRecord
  2
Continuous
 70
     0
  3
Solid line
 72
    65
 73
     0
 40
0.0
  0
LTYPE
  5
74
330
5
100
AcDbSymbolTableRecord
100
AcDbLinetypeTableRecord
  2
Section_View_Lines
 70
     0
  3
Section View Lines
 72
    65
 73
     4
 40
0.8406
 49
0.6614
 74
     0
 49
-0.0827
 74
     0
 49
0.0138
 74
     0
 49
-0.0827
 74
     0
  0
LTYPE
  5
75
330
5
100
AcDbSymbolTableRecord
100
AcDbLinetypeTableRecord
  2
CHAIN
 70
     0
  3
Chain ____ _ ____ _ ____ _ ____ _ ____ _ ____
 72
    65
 73
     4
 40
0.3543
 49
0.2362
 74
     0
 49
-0.0295
 74
     0
 49
0.0591
 74
     0
 49
-0.0295
 74
     0
  0
LTYPE
  5
76
330
5
100
AcDbSymbolTableRecord
100
AcDbLinetypeTableRecord
  2
DASH_DOT
 70
     0
  3
Dash dot _._._._._._._._._._._._._._._.
 72
    65
 73
     4
 40
0.182
 49
0.1181
 74
     0
 49
-0.0295
 74
     0
 49
0.0049
 74
     0
 49
-0.0295
 74
     0
  0
LTYPE
  5
77
330
5
100
AcDbSymbolTableRecord
100
AcDbLinetypeTableRecord
  2
DASH_DOUBLE_DOT
 70
     0
  3
Dash Double Dot __ __ . __ __ . __ __ . __ _
 72
    65
 73
     6
 40
0.2164
 49
0.1181
 74
     0
 49
-0.0295
 74
     0
 49
0.0049
 74
     0
 49
-0.0295
 74
     0
 49
0.0049
 74
     0
 49
-0.0295
 74
     0
  0
LTYPE
  5
78
330
5
100
AcDbSymbolTableRecord
100
AcDbLinetypeTableRecord
  2
DASH_TRIPLE_DOT
 70
     0
  3
Dash Triple-Dot _ . . . _ . . . _ . . . _
 72
    65
 73
     8
 40
0.2508
 49
0.1181
 74
     0
 49
-0.0295
 74
     0
 49
0.0049
 74
     0
 49
-0.0295
 74
     0
 49
0.0049
 74
     0
 49
-0.0295
 74
     0
 49
0.0049
 74
     0
 49
-0.0295
 74
     0
  0
LTYPE
  5
79
330
5
100
AcDbSymbolTableRecord
100
AcDbLinetypeTableRecord
  2
DASHED
 70
     0
  3
Dashed __ __ __ __ __ __ __ __ __ __ __ __ __ _
 72
    65
 73
     2
 40
0.2068
 49
0.1655
 74
     0
 49
-0.0413
 74
     0
  0
LTYPE
  5
7A
330
5
100
AcDbSymbolTableRecord
100
AcDbLinetypeTableRecord
  2
DASHED_SPACE
 70
     0
  3
Dashed Space __ __ __ __ __ __ __ __ __ __ __ _
 72
    65
 73
     2
 40
0.2067
 49
0.1654
 74
     0
 49
-0.0413
 74
     0
  0
LTYPE
  5
7B
330
5
100
AcDbSymbolTableRecord
100
AcDbLinetypeTableRecord
  2
DOTTED
 70
     0
  3
Dotted . . . . . . . . . . . . . . . . . . . . 
 72
    65
 73
     2
 40
0.0481
 49
0.0068
 74
     0
 49
-0.0413
 74
     0
  0
LTYPE
  5
7C
330
5
100
AcDbSymbolTableRecord
100
AcDbLinetypeTableRecord
  2
DOUBLE_DASH_CHAIN
 70
     0
  3
Double Dash Chain ___ _ _ ___ _ _ ___ _ _ ___ _
 72
    65
 73
     6
 40
1.240299999999999
 49
0.6614
 74
     0
 49
-0.0827
 74
     0
 49
0.1654
 74
     0
 49
-0.0827
 74
     0
 49
0.1654
 74
     0
 49
-0.0827
 74
     0
  0
LTYPE
  5
7D
330
5
100
AcDbSymbolTableRecord
100
AcDbLinetypeTableRecord
  2
DOUBLE_DASH_DOT
 70
     0
  3
Double Dash Dot __ __ . __ __ . __ __ . __ _
 72
    65
 73
     6
 40
0.3296
 49
0.1181
 74
     0
 49
-0.0295
 74
     0
 49
0.1181
 74
     0
 49
-0.0295
 74
     0
 49
0.0049
 74
     0
 49
-0.0295
 74
     0
  0
LTYPE
  5
7E
330
5
100
AcDbSymbolTableRecord
100
AcDbLinetypeTableRecord
  2
DOUBLE_DASH_DOUBLE_DOT
 70
     0
  3
Double Dash Double Dot _ _ . . _ _ . . _ _
 72
    65
 73
     8
 40
0.364
 49
0.1181
 74
     0
 49
-0.0295
 74
     0
 49
0.1181
 74
     0
 49
-0.0295
 74
     0
 49
0.0049
 74
     0
 49
-0.0295
 74
     0
 49
0.0049
 74
     0
 49
-0.0295
 74
     0
  0
LTYPE
  5
7F
330
5
100
AcDbSymbolTableRecord
100
AcDbLinetypeTableRecord
  2
DOUBLE_DASH_TRIPLE_DOT
 70
     0
  3
Double Dash Triple Dot __ __ . . . __ __ . . .
 72
    65
 73
    10
 40
0.3984
 49
0.1181
 74
     0
 49
-0.0295
 74
     0
 49
0.1181
 74
     0
 49
-0.0295
 74
     0
 49
0.0049
 74
     0
 49
-0.0295
 74
     0
 49
0.0049
 74
     0
 49
-0.0295
 74
     0
 49
0.0049
 74
     0
 49
-0.0295
 74
     0
  0
LTYPE
  5
80
330
5
100
AcDbSymbolTableRecord
100
AcDbLinetypeTableRecord
  2
LONG_DASH_DOTTED
 70
     0
  3
Long Dash Dotted ____ . ____ . ____ . ____ . _
 72
    65
 73
     4
 40
0.3001
 49
0.2362
 74
     0
 49
-0.0295
 74
     0
 49
0.0049
 74
     0
 49
-0.0295
 74
     0
  0
LTYPE
  5
81
330
5
100
AcDbSymbolTableRecord
100
AcDbLinetypeTableRecord
  2
LONG_DASH_DOUBLE_DOT
 70
     0
  3
Long Dash Double Dot ____ . . ____ . . ____ . .
 72
    65
 73
     6
 40
0.3345
 49
0.2362
 74
     0
 49
-0.0295
 74
     0
 49
0.0049
 74
     0
 49
-0.0295
 74
     0
 49
0.0049
 74
     0
 49
-0.0295
 74
     0
  0
LTYPE
  5
82
330
5
100
AcDbSymbolTableRecord
100
AcDbLinetypeTableRecord
  2
LONG_DASH_TRIPLE_DOT
 70
     0
  3
Long Dash Triple Dot ____ ... ____ ... ____
 72
    65
 73
     8
 40
0.3689
 49
0.2362
 74
     0
 49
-0.0295
 74
     0
 49
0.0049
 74
     0
 49
-0.0295
 74
     0
 49
0.0049
 74
     0
 49
-0.0295
 74
     0
 49
0.0049
 74
     0
 49
-0.0295
 74
     0
  0
LTYPE
  5
83
330
5
100
AcDbSymbolTableRecord
100
AcDbLinetypeTableRecord
  2
BORDER
 70
     0
  3
Border __ __ . __ __ . __ __ . __ __ . __ __ .
 72
    65
 73
     6
 40
44.45
 49
12.7
 74
     0
 49
-6.349999999999999
 74
     0
 49
12.7
 74
     0
 49
-6.349999999999999
 74
     0
 49
0.0
 74
     0
 49
-6.349999999999999
 74
     0
  0
LTYPE
  5
84
330
5
100
AcDbSymbolTableRecord
100
AcDbLinetypeTableRecord
  2
BORDER2
 70
     0
  3
Border (.5x) __.__.__.__.__.__.__.__.__.__.__.
 72
    65
 73
     6
 40
22.225
 49
6.349999999999999
 74
     0
 49
-3.174999999999999
 74
     0
 49
6.349999999999999
 74
     0
 49
-3.174999999999999
 74
     0
 49
0.0
 74
     0
 49
-3.174999999999999
 74
     0
  0
LTYPE
  5
85
330
5
100
AcDbSymbolTableRecord
100
AcDbLinetypeTableRecord
  2
BORDERX2
 70
     0
  3
Border (2x) ____  ____  .  ____  ____  .  ___
 72
    65
 73
     6
 40
88.9
 49
25.4
 74
     0
 49
-12.7
 74
     0
 49
25.4
 74
     0
 49
-12.7
 74
     0
 49
0.0
 74
     0
 49
-12.7
 74
     0
  0
LTYPE
  5
86
330
5
100
AcDbSymbolTableRecord
100
AcDbLinetypeTableRecord
  2
CENTER
 70
     0
  3
Center ____ _ ____ _ ____ _ ____ _ ____ _ ____
 72
    65
 73
     4
 40
50.8
 49
31.75
 74
     0
 49
-6.349999999999999
 74
     0
 49
6.349999999999999
 74
     0
 49
-6.349999999999999
 74
     0
  0
LTYPE
  5
87
330
5
100
AcDbSymbolTableRecord
100
AcDbLinetypeTableRecord
  2
CENTER2
 70
     0
  3
Center (.5x) ___ _ ___ _ ___ _ ___ _ ___ _ ___
 72
    65
 73
     4
 40
28.575
 49
19.05
 74
     0
 49
-3.174999999999999
 74
     0
 49
3.174999999999999
 74
     0
 49
-3.174999999999999
 74
     0
  0
LTYPE
  5
88
330
5
100
AcDbSymbolTableRecord
100
AcDbLinetypeTableRecord
  2
CENTERX2
 70
     0
  3
Center (2x) ________  __  ________  __  _____
 72
    65
 73
     4
 40
101.6
 49
63.5
 74
     0
 49
-12.7
 74
     0
 49
12.7
 74
     0
 49
-12.7
 74
     0
  0
LTYPE
  5
89
330
5
100
AcDbSymbolTableRecord
100
AcDbLinetypeTableRecord
  2
DASHDOT2
 70
     0
  3
Dash dot (.5x) _._._._._._._._._._._._._._._.
 72
    65
 73
     4
 40
12.7
 49
6.349999999999999
 74
     0
 49
-3.174999999999999
 74
     0
 49
0.0
 74
     0
 49
-3.174999999999999
 74
     0
  0
LTYPE
  5
8A
330
5
100
AcDbSymbolTableRecord
100
AcDbLinetypeTableRecord
  2
DASHDOTX2
 70
     0
  3
Dash dot (2x) ____  .  ____  .  ____  .  ___
 72
    65
 73
     4
 40
50.8
 49
25.4
 74
     0
 49
-12.7
 74
     0
 49
0.0
 74
     0
 49
-12.7
 74
     0
  0
LTYPE
  5
8B
330
5
100
AcDbSymbolTableRecord
100
AcDbLinetypeTableRecord
  2
DASHED2
 70
     0
  3
Dashed (.5x) _ _ _ _ _ _ _ _ _ _ _ _ _ _ _ _ _
 72
    65
 73
     2
 40
9.524999999999998
 49
6.349999999999999
 74
     0
 49
-3.174999999999999
 74
     0
  0
LTYPE
  5
8C
330
5
100
AcDbSymbolTableRecord
100
AcDbLinetypeTableRecord
  2
DASHEDX2
 70
     0
  3
Dashed (2x) ____  ____  ____  ____  ____  ___
 72
    65
 73
     2
 40
38.1
 49
25.4
 74
     0
 49
-12.7
 74
     0
  0
LTYPE
  5
8D
330
5
100
AcDbSymbolTableRecord
100
AcDbLinetypeTableRecord
  2
DIVIDE
 70
     0
  3
Divide ____ . . ____ . . ____ . . ____ . . ____
 72
    65
 73
     6
 40
31.75
 49
12.7
 74
     0
 49
-6.349999999999999
 74
     0
 49
0.0
 74
     0
 49
-6.349999999999999
 74
     0
 49
0.0
 74
     0
 49
-6.349999999999999
 74
     0
  0
LTYPE
  5
8E
330
5
100
AcDbSymbolTableRecord
100
AcDbLinetypeTableRecord
  2
DIVIDE2
 70
     0
  3
Divide (.5x) __..__..__..__..__..__..__..__.._
 72
    65
 73
     6
 40
15.875
 49
6.349999999999999
 74
     0
 49
-3.174999999999999
 74
     0
 49
0.0
 74
     0
 49
-3.174999999999999
 74
     0
 49
0.0
 74
     0
 49
-3.174999999999999
 74
     0
  0
LTYPE
  5
8F
330
5
100
AcDbSymbolTableRecord
100
AcDbLinetypeTableRecord
  2
DIVIDEX2
 70
     0
  3
Divide (2x) ________  .  .  ________  .  .  _
 72
    65
 73
     6
 40
63.49999999999999
 49
25.4
 74
     0
 49
-12.7
 74
     0
 49
0.0
 74
     0
 49
-12.7
 74
     0
 49
0.0
 74
     0
 49
-12.7
 74
     0
  0
LTYPE
  5
90
330
5
100
AcDbSymbolTableRecord
100
AcDbLinetypeTableRecord
  2
DOT
 70
     0
  3
Dot . . . . . . . . . . . . . . . . . . . . . .
 72
    65
 73
     2
 40
6.349999999999999
 49
0.0
 74
     0
 49
-6.349999999999999
 74
     0
  0
LTYPE
  5
91
330
5
100
AcDbSymbolTableRecord
100
AcDbLinetypeTableRecord
  2
DOT2
 70
     0
  3
Dot (.5x) .....................................
 72
    65
 73
     2
 40
3.174999999999999
 49
0.0
 74
     0
 49
-3.174999999999999
 74
     0
  0
LTYPE
  5
92
330
5
100
AcDbSymbolTableRecord
100
AcDbLinetypeTableRecord
  2
DOTX2
 70
     0
  3
Dot (2x) .  .  .  .  .  .  .  .  .  .  .  .  . 
 72
    65
 73
     2
 40
12.7
 49
0.0
 74
     0
 49
-12.7
 74
     0
  0
LTYPE
  5
93
330
5
100
AcDbSymbolTableRecord
100
AcDbLinetypeTableRecord
  2
HIDDEN
 70
     0
  3
Hidden __ __ __ __ __ __ __ __ __ __ __ __ __ _
 72
    65
 73
     2
 40
9.524999999999998
 49
6.349999999999999
 74
     0
 49
-3.174999999999999
 74
     0
  0
LTYPE
  5
94
330
5
100
AcDbSymbolTableRecord
100
AcDbLinetypeTableRecord
  2
HIDDEN2
 70
     0
  3
Hidden (.5x) _ _ _ _ _ _ _ _ _ _ _ _ _ _ _ _ _
 72
    65
 73
     2
 40
4.762499999999999
 49
3.174999999999999
 74
     0
 49
-1.587499999999999
 74
     0
  0
LTYPE
  5
95
330
5
100
AcDbSymbolTableRecord
100
AcDbLinetypeTableRecord
  2
HIDDENX2
 70
     0
  3
Hidden (2x) ____ ____ ____ ____ ____ ____ ____
 72
    65
 73
     2
 40
19.05
 49
12.7
 74
     0
 49
-6.349999999999999
 74
     0
  0
LTYPE
  5
96
330
5
100
AcDbSymbolTableRecord
100
AcDbLinetypeTableRecord
  2
PHANTOM
 70
     0
  3
Phantom ______  __  __  ______  __  __  ______
 72
    65
 73
     6
 40
63.5
 49
31.75
 74
     0
 49
-6.349999999999999
 74
     0
 49
6.349999999999999
 74
     0
 49
-6.349999999999999
 74
     0
 49
6.349999999999999
 74
     0
 49
-6.349999999999999
 74
     0
  0
LTYPE
  5
97
330
5
100
AcDbSymbolTableRecord
100
AcDbLinetypeTableRecord
  2
PHANTOM2
 70
     0
  3
Phantom (.5x) ___ _ _ ___ _ _ ___ _ _ ___ _ _
 72
    65
 73
     6
 40
31.75
 49
15.875
 74
     0
 49
-3.174999999999999
 74
     0
 49
3.174999999999999
 74
     0
 49
-3.174999999999999
 74
     0
 49
3.174999999999999
 74
     0
 49
-3.174999999999999
 74
     0
  0
LTYPE
  5
98
330
5
100
AcDbSymbolTableRecord
100
AcDbLinetypeTableRecord
  2
PHANTOMX2
 70
     0
  3
Phantom (2x) ____________    ____    ____   _
 72
    65
 73
     6
 40
127.0
 49
63.5
 74
     0
 49
-12.7
 74
     0
 49
12.7
 74
     0
 49
-12.7
 74
     0
 49
12.7
 74
     0
 49
-12.7
 74
     0
  0
LTYPE
  5
99
330
5
100
AcDbSymbolTableRecord
100
AcDbLinetypeTableRecord
  2
ACAD_ISO02W100
 70
     0
  3
ISO dash __ __ __ __ __ __ __ __ __ __ __ __ __
 72
    65
 73
     2
 40
15.0
 49
12.0
 74
     0
 49
-3.0
 74
     0
  0
LTYPE
  5
9A
330
5
100
AcDbSymbolTableRecord
100
AcDbLinetypeTableRecord
  2
ACAD_ISO03W100
 70
     0
  3
ISO dash space __    __    __    __    __    __
 72
    65
 73
     2
 40
30.0
 49
12.0
 74
     0
 49
-18.0
 74
     0
  0
LTYPE
  5
9B
330
5
100
AcDbSymbolTableRecord
100
AcDbLinetypeTableRecord
  2
ACAD_ISO04W100
 70
     0
  3
ISO long-dash dot ____ . ____ . ____ . ____ . _
 72
    65
 73
     4
 40
30.0
 49
24.0
 74
     0
 49
-3.0
 74
     0
 49
0.0
 74
     0
 49
-3.0
 74
     0
  0
LTYPE
  5
9C
330
5
100
AcDbSymbolTableRecord
100
AcDbLinetypeTableRecord
  2
ACAD_ISO05W100
 70
     0
  3
ISO long-dash double-dot ____ .. ____ .. ____ .
 72
    65
 73
     6
 40
33.0
 49
24.0
 74
     0
 49
-3.0
 74
     0
 49
0.0
 74
     0
 49
-3.0
 74
     0
 49
0.0
 74
     0
 49
-3.0
 74
     0
  0
LTYPE
  5
9D
330
5
100
AcDbSymbolTableRecord
100
AcDbLinetypeTableRecord
  2
ACAD_ISO06W100
 70
     0
  3
ISO long-dash triple-dot ____ ... ____ ... ____
 72
    65
 73
     8
 40
36.0
 49
24.0
 74
     0
 49
-3.0
 74
     0
 49
0.0
 74
     0
 49
-3.0
 74
     0
 49
0.0
 74
     0
 49
-3.0
 74
     0
 49
0.0
 74
     0
 49
-3.0
 74
     0
  0
LTYPE
  5
9E
330
5
100
AcDbSymbolTableRecord
100
AcDbLinetypeTableRecord
  2
ACAD_ISO07W100
 70
     0
  3
ISO dot . . . . . . . . . . . . . . . . . . . .
 72
    65
 73
     2
 40
3.0
 49
0.0
 74
     0
 49
-3.0
 74
     0
  0
LTYPE
  5
9F
330
5
100
AcDbSymbolTableRecord
100
AcDbLinetypeTableRecord
  2
ACAD_ISO08W100
 70
     0
  3
ISO long-dash short-dash ____ __ ____ __ ____ _
 72
    65
 73
     4
 40
36.0
 49
24.0
 74
     0
 49
-3.0
 74
     0
 49
6.0
 74
     0
 49
-3.0
 74
     0
  0
LTYPE
  5
A0
330
5
100
AcDbSymbolTableRecord
100
AcDbLinetypeTableRecord
  2
ACAD_ISO09W100
 70
     0
  3
ISO long-dash double-short-dash ____ __ __ ____
 72
    65
 73
     6
 40
45.0
 49
24.0
 74
     0
 49
-3.0
 74
     0
 49
6.0
 74
     0
 49
-3.0
 74
     0
 49
6.0
 74
     0
 49
-3.0
 74
     0
  0
LTYPE
  5
A1
330
5
100
AcDbSymbolTableRecord
100
AcDbLinetypeTableRecord
  2
ACAD_ISO10W100
 70
     0
  3
ISO dash dot __ . __ . __ . __ . __ . __ . __ .
 72
    65
 73
     4
 40
18.0
 49
12.0
 74
     0
 49
-3.0
 74
     0
 49
0.0
 74
     0
 49
-3.0
 74
     0
  0
LTYPE
  5
A2
330
5
100
AcDbSymbolTableRecord
100
AcDbLinetypeTableRecord
  2
ACAD_ISO11W100
 70
     0
  3
ISO double-dash dot __ __ . __ __ . __ __ . __ 
 72
    65
 73
     6
 40
33.0
 49
12.0
 74
     0
 49
-3.0
 74
     0
 49
12.0
 74
     0
 49
-3.0
 74
     0
 49
0.0
 74
     0
 49
-3.0
 74
     0
  0
LTYPE
  5
A3
330
5
100
AcDbSymbolTableRecord
100
AcDbLinetypeTableRecord
  2
ACAD_ISO12W100
 70
     0
  3
ISO dash double-dot __ . . __ . . __ . . __ . .
 72
    65
 73
     6
 40
21.0
 49
12.0
 74
     0
 49
-3.0
 74
     0
 49
0.0
 74
     0
 49
-3.0
 74
     0
 49
0.0
 74
     0
 49
-3.0
 74
     0
  0
LTYPE
  5
A4
330
5
100
AcDbSymbolTableRecord
100
AcDbLinetypeTableRecord
  2
ACAD_ISO13W100
 70
     0
  3
ISO double-dash double-dot __ __ . . __ __ . . 
 72
    65
 73
     8
 40
36.0
 49
12.0
 74
     0
 49
-3.0
 74
     0
 49
12.0
 74
     0
 49
-3.0
 74
     0
 49
0.0
 74
     0
 49
-3.0
 74
     0
 49
0.0
 74
     0
 49
-3.0
 74
     0
  0
LTYPE
  5
A5
330
5
100
AcDbSymbolTableRecord
100
AcDbLinetypeTableRecord
  2
ACAD_ISO14W100
 70
     0
  3
ISO dash triple-dot __ . . . __ . . . __ . . . 
 72
    65
 73
     8
 40
24.0
 49
12.0
 74
     0
 49
-3.0
 74
     0
 49
0.0
 74
     0
 49
-3.0
 74
     0
 49
0.0
 74
     0
 49
-3.0
 74
     0
 49
0.0
 74
     0
 49
-3.0
 74
     0
  0
LTYPE
  5
A6
330
5
100
AcDbSymbolTableRecord
100
AcDbLinetypeTableRecord
  2
ACAD_ISO15W100
 70
     0
  3
ISO double-dash triple-dot __ __ . . . __ __ . 
 72
    65
 73
    10
 40
39.0
 49
12.0
 74
     0
 49
-3.0
 74
     0
 49
12.0
 74
     0
 49
-3.0
 74
     0
 49
0.0
 74
     0
 49
-3.0
 74
     0
 49
0.0
 74
     0
 49
-3.0
 74
     0
 49
0.0
 74
     0
 49
-3.0
 74
     0
  0
LTYPE
  5
A9
330
5
100
AcDbSymbolTableRecord
100
AcDbLinetypeTableRecord
  2
FENCELINE1
 70
     0
  3
Fenceline circle ----0-----0----0-----0----0---
 72
    65
 73
     4
 40
36.83
 49
6.349999999999999
 74
     0
 49
-2.54
 74
     4
 75
   133
340
A8
 46
2.54
 50
0.0
 44
-2.54
 45
0.0
 49
-2.54
 74
     0
 49
25.4
 74
     0
  0
LTYPE
  5
AA
330
5
100
AcDbSymbolTableRecord
100
AcDbLinetypeTableRecord
  2
FENCELINE2
 70
     0
  3
Fenceline square ----[]-----[]----[]-----[]----
 72
    65
 73
     4
 40
36.83
 49
6.349999999999999
 74
     0
 49
-2.54
 74
     4
 75
   132
340
A8
 46
2.54
 50
0.0
 44
-2.54
 45
0.0
 49
-2.54
 74
     0
 49
25.4
 74
     0
  0
LTYPE
  5
AB
330
5
100
AcDbSymbolTableRecord
100
AcDbLinetypeTableRecord
  2
TRACKS
 70
     0
  3
Tracks -|-|-|-|-|-|-|-|-|-|-|-|-|-|-|-|-|-|-|-|
 72
    65
 73
     2
 40
7.62
 49
3.81
 74
     4
 75
   130
340
A8
 46
6.349999999999999
 50
0.0
 44
0.0
 45
0.0
 49
3.81
 74
     0
  0
LTYPE
  5
AC
330
5
100
AcDbSymbolTableRecord
100
AcDbLinetypeTableRecord
  2
BATTING
 70
     0
  3
Batting SSSSSSSSSSSSSSSSSSSSSSSSSSSSSSSSSSSSSSS
 72
    65
 73
     4
 40
10.16254
 49
0.00254
 74
     0
 49
-2.54
 74
     4
 75
   134
340
A8
 46
2.54
 50
0.0
 44
-2.54
 45
0.0
 49
-5.08
 74
     4
 75
   134
340
A8
 46
2.54
 50
180.0
 44
2.54
 45
0.0
 49
-2.54
 74
     0
  0
LTYPE
  5
AD
330
5
100
AcDbSymbolTableRecord
100
AcDbLinetypeTableRecord
  2
HOT_WATER_SUPPLY
 70
     0
  3
Hot water supply ---- HW ---- HW ---- HW ----
 72
    65
 73
     3
 40
22.86
 49
12.7
 74
     0
 49
-5.08
 74
     2
 75
     0
340
55
 46
2.54
 50
0.0
 44
-2.54
 45
-1.27
  9
HW
 49
-5.08
 74
     0
  0
LTYPE
  5
AE
330
5
100
AcDbSymbolTableRecord
100
AcDbLinetypeTableRecord
  2
GAS_LINE
 70
     0
  3
Gas line ----GAS----GAS----GAS----GAS----GAS---
 72
    65
 73
     3
 40
24.13
 49
12.7
 74
     0
 49
-5.08
 74
     2
 75
     0
340
55
 46
2.54
 50
0.0
 44
-2.54
 45
-1.27
  9
GAS
 49
-6.349999999999999
 74
     0
  0
LTYPE
  5
AF
330
5
100
AcDbSymbolTableRecord
100
AcDbLinetypeTableRecord
  2
ZIGZAG
 70
     0
  3
Zig zag /\/\/\/\/\/\/\/\/\/\/\/\/\/\/\/\/\/\/\/
 72
    65
 73
     4
 40
20.32254
 49
0.00254
 74
     0
 49
-5.08
 74
     4
 75
   131
340
A8
 46
5.08
 50
0.0
 44
-5.08
 45
0.0
 49
-10.16
 74
     4
 75
   131
340
A8
 46
5.08
 50
180.0
 44
5.08
 45
0.0
 49
-5.08
 74
     0
  0
ENDTAB
  0
TABLE
  2
LAYER
  5
2
102
{ACAD_XDICTIONARY
360
D32
102
}
330
0
100
AcDbSymbolTable
 70
     7
  0
LAYER
  5
54
330
2
100
AcDbSymbolTableRecord
100
AcDbLayerTableRecord
  2
0
 70
     0
 62
     7
  6
Continuous
370
    -3
390
F
347
21
  0
LAYER
  5
B9
330
2
100
AcDbSymbolTableRecord
100
AcDbLayerTableRecord
  2
Obramowanie (ISO)
 70
     0
 62
     7
  6
Continuous
370
    35
390
F
347
21
  0
LAYER
  5
C3
330
2
100
AcDbSymbolTableRecord
100
AcDbLayerTableRecord
  2
Tytuł (ISO)
 70
     0
 62
     7
  6
Continuous
370
    30
390
F
347
21
  0
LAYER
  5
C6
330
2
100
AcDbSymbolTableRecord
100
AcDbLayerTableRecord
  2
Widoczne (ISO)
 70
     0
 62
     7
  6
Continuous
370
    25
390
F
347
21
  0
LAYER
  5
C7
330
2
100
AcDbSymbolTableRecord
100
AcDbLayerTableRecord
  2
Widoczne wąskie (ISO)
 70
     0
 62
     7
  6
Continuous
370
    15
390
F
347
21
  0
LAYER
  5
C8
330
2
100
AcDbSymbolTableRecord
100
AcDbLayerTableRecord
  2
Wymiar (ISO)
 70
     0
 62
     7
420
 16777215
  6
Continuous
370
    18
390
F
347
21
  0
LAYER
  5
68F
330
2
100
AcDbSymbolTableRecord
100
AcDbLayerTableRecord
  2
Defpoints
 70
     0
 62
     7
  6
Continuous
290
     0
370
    -3
390
F
347
21
  0
ENDTAB
  0
TABLE
  2
STYLE
  5
3
330
0
100
AcDbSymbolTable
 70
     9
  0
STYLE
  5
55
330
3
100
AcDbSymbolTableRecord
100
AcDbTextStyleTableRecord
  2
Standard
 70
     0
 40
0.0
 41
1.0
 50
0.0
 71
     0
 42
0.2
  3
tahoma.ttf
  4

1001
ACAD
1000
Tahoma
1071
      256
  0
STYLE
  5
5A
330
3
100
AcDbSymbolTableRecord
100
AcDbTextStyleTableRecord
  2
Annotative
 70
     0
 40
0.0
 41
1.0
 50
0.0
 71
     0
 42
0.2
  3
txt
  4

1001
AcadAnnotative
1000
AnnotativeData
1002
{
1070
     1
1070
     1
1002
}
  0
STYLE
  5
A8
330
3
100
AcDbSymbolTableRecord
100
AcDbTextStyleTableRecord
  2

 70
     1
 40
0.0
 41
1.0
 50
0.0
 71
     0
 42
0.2
  3
ltypeshp.shx
  4

  0
STYLE
  5
CB
330
3
100
AcDbSymbolTableRecord
100
AcDbTextStyleTableRecord
  2
Tekst etykiety (ISO)
 70
     0
 40
0.0
 41
1.0
 50
0.0
 71
     0
 42
0.2
  3
tahoma.ttf
  4

1001
ACAD
1000
Tahoma
1071
      256
  0
STYLE
  5
CC
330
3
100
AcDbSymbolTableRecord
100
AcDbTextStyleTableRecord
  2
Tekst mały
 70
     0
 40
0.0
 41
1.0
 50
0.0
 71
     0
 42
0.2
  3
tahoma.ttf
  4

1001
ACAD
1000
Tahoma
1071
      256
  0
STYLE
  5
CD
330
3
100
AcDbSymbolTableRecord
100
AcDbTextStyleTableRecord
  2
Tekst notatki (ISO)
 70
     0
 40
0.0
 41
1.0
 50
0.0
 71
     0
 42
0.2
  3
tahoma.ttf
  4

1001
ACAD
1000
Tahoma
1071
      256
  0
STYLE
  5
155
330
3
100
AcDbSymbolTableRecord
100
AcDbTextStyleTableRecord
  2
Styl tekstu41
 70
     0
 40
0.0
 41
1.0
 50
0.0
 71
     0
 42
0.2
  3
tahoma.ttf
  4

1001
ACAD
1000
Tahoma
1071
      256
  0
STYLE
  5
15C
330
3
100
AcDbSymbolTableRecord
100
AcDbTextStyleTableRecord
  2
Styl tekstu45
 70
     0
 40
0.0
 41
1.0
 50
0.0
 71
     0
 42
0.2
  3
tahoma.ttf
  4

1001
ACAD
1000
Tahoma
1071
      256
  0
STYLE
  5
164
330
3
100
AcDbSymbolTableRecord
100
AcDbTextStyleTableRecord
  2
Styl tekstu44
 70
     0
 40
0.0
 41
1.0
 50
0.0
 71
     0
 42
0.2
  3
tahoma.ttf
  4

1001
ACAD
1000
Tahoma
1071
      256
  0
ENDTAB
  0
TABLE
  2
VIEW
  5
6
330
0
100
AcDbSymbolTable
 70
     0
  0
ENDTAB
  0
TABLE
  2
UCS
  5
7
330
0
100
AcDbSymbolTable
 70
     0
  0
ENDTAB
  0
TABLE
  2
APPID
  5
9
330
0
100
AcDbSymbolTable
 70
     4
  0
APPID
  5
56
330
9
100
AcDbSymbolTableRecord
100
AcDbRegAppTableRecord
  2
ACAD
 70
     0
  0
APPID
  5
5E
330
9
100
AcDbSymbolTableRecord
100
AcDbRegAppTableRecord
  2
AcadAnnotative
 70
     0
  0
APPID
  5
161
330
9
100
AcDbSymbolTableRecord
100
AcDbRegAppTableRecord
  2
AcadAnnoPO
 70
     0
  0
APPID
  5
E24
330
9
100
AcDbSymbolTableRecord
100
AcDbRegAppTableRecord
  2
ACAD_MLEADERVER
 70
     0
  0
ENDTAB
  0
TABLE
  2
DIMSTYLE
  5
A
330
0
100
AcDbSymbolTable
 70
    16
100
AcDbDimStyleTable
 71
     2
340
D6
340
58
  0
DIMSTYLE
105
58
330
A
100
AcDbSymbolTableRecord
100
AcDbDimStyleTableRecord
  2
Standard
 70
     0
340
55
  0
DIMSTYLE
105
59
330
A
100
AcDbSymbolTableRecord
100
AcDbDimStyleTableRecord
  2
Annotative
 70
     0
340
55
1001
AcadAnnotative
1000
AnnotativeData
1002
{
1070
     1
1070
     1
1002
}
  0
DIMSTYLE
105
CE
330
A
100
AcDbSymbolTableRecord
100
AcDbDimStyleTableRecord
  2
Domyślne - Metoda 1b (ISO)
 70
     0
 40
30.0
 41
2.5
 42
0.0
 43
5.999999999999999
 44
3.174999999999999
 45
0.00000001
 46
10.0
 73
     0
 77
     1
 78
     8
 79
     2
140
2.5
143
0.03937
146
1.399999999999999
147
0.762
171
     3
172
     1
176
   256
177
   256
178
   256
179
     2
271
     2
272
     2
274
     3
278
    44
284
     8
286
     8
340
CD
371
    -1
372
    -1
  0
DIMSTYLE
105
CF
330
A
100
AcDbSymbolTableRecord
100
AcDbDimStyleTableRecord
  2
Domyślne - Metoda 1b (ISO)$7
 70
     0
 40
30.0
 41
2.5
 42
0.0
 43
5.999999999999999
 44
3.174999999999999
 45
0.00000001
 46
10.0
 73
     0
 77
     1
 78
     8
 79
     2
140
2.5
143
0.03937
146
1.399999999999999
147
0.762
171
     3
172
     1
176
   256
177
   256
178
   256
179
     2
271
     2
272
     2
274
     3
278
    44
284
     8
286
     8
340
CD
371
    -1
372
    -1
  0
DIMSTYLE
105
D0
330
A
100
AcDbSymbolTableRecord
100
AcDbDimStyleTableRecord
  2
Domyślne - Metoda 2a (ISO)
 70
     0
 40
30.0
 41
2.5
 42
0.0
 43
5.999999999999999
 44
3.174999999999999
 45
0.00000001
 46
10.0
 77
     1
 78
     8
 79
     2
140
2.5
143
0.03937
146
1.399999999999999
147
0.762
171
     3
172
     1
176
   256
177
   256
178
   256
179
     2
271
     2
272
     2
274
     3
278
    44
284
     8
286
     8
340
CD
371
    -1
372
    -1
  0
DIMSTYLE
105
D1
330
A
100
AcDbSymbolTableRecord
100
AcDbDimStyleTableRecord
  2
Domyślne - Metoda 2a (ISO)$7
 70
     0
 40
30.0
 41
2.5
 42
0.0
 43
5.999999999999999
 44
3.174999999999999
 45
0.00000001
 46
10.0
 77
     1
 78
     8
 79
     2
140
2.5
143
0.03937
146
1.399999999999999
147
0.762
171
     3
172
     1
176
   256
177
   256
178
   256
179
     2
271
     2
272
     2
274
     3
278
    44
284
     8
286
     8
340
CD
371
    -1
372
    -1
  0
DIMSTYLE
105
D2
330
A
100
AcDbSymbolTableRecord
100
AcDbDimStyleTableRecord
  2
Domyślne - Metoda 2b (ISO)
 70
     0
 40
30.0
 41
2.5
 42
0.0
 43
5.999999999999999
 44
3.174999999999999
 45
0.00000001
 46
10.0
 77
     1
 78
     8
 79
     2
140
2.5
143
0.03937
146
1.399999999999999
147
0.762
171
     3
172
     1
176
   256
177
   256
178
   256
179
     2
271
     2
272
     2
274
     3
278
    44
284
     8
286
     8
340
CD
371
    -1
372
    -1
  0
DIMSTYLE
105
D3
330
A
100
AcDbSymbolTableRecord
100
AcDbDimStyleTableRecord
  2
Domyślne - Metoda 2b (ISO)$7
 70
     0
 40
30.0
 41
2.5
 42
0.0
 43
5.999999999999999
 44
3.174999999999999
 45
0.00000001
 46
10.0
 77
     1
 78
     8
 79
     2
140
2.5
143
0.03937
146
1.399999999999999
147
0.762
171
     3
172
     1
176
   256
177
   256
178
   256
179
     2
271
     2
272
     2
274
     3
278
    44
284
     8
286
     8
340
CD
371
    -1
372
    -1
  0
DIMSTYLE
105
D4
330
A
100
AcDbSymbolTableRecord
100
AcDbDimStyleTableRecord
  2
Domyślne - mm [cale] (ISO)
 70
     0
  4
 cal
 40
30.0
 41
2.5
 42
0.0
 43
5.999999999999999
 44
3.174999999999999
 45
0.00000001
 46
10.0
 73
     0
 74
     0
 77
     1
 78
     8
 79
     2
140
2.5
143
0.03937
146
1.399999999999999
147
0.762
170
     1
171
     3
172
     1
176
   256
177
   256
178
   256
179
     3
271
     3
272
     2
274
     3
275
     1
278
    44
284
     8
285
     8
286
     8
340
CD
371
    -1
372
    -1
  0
DIMSTYLE
105
D5
330
A
100
AcDbSymbolTableRecord
100
AcDbDimStyleTableRecord
  2
Domyślne - mm [cale] (ISO)$7
 70
     0
  4
 cal
 40
30.0
 41
2.5
 42
0.0
 43
5.999999999999999
 44
3.174999999999999
 45
0.00000001
 46
10.0
 73
     0
 74
     0
 77
     1
 78
     8
 79
     2
140
2.5
143
0.03937
146
1.399999999999999
147
0.762
170
     1
171
     3
172
     1
176
   256
177
   256
178
   256
179
     3
271
     3
272
     2
274
     3
275
     1
278
    44
284
     8
285
     8
286
     8
340
CD
371
    -1
372
    -1
  0
DIMSTYLE
105
D6
102
{ACAD_REACTORS
330
68E
330
777
102
}
330
A
100
AcDbSymbolTableRecord
100
AcDbDimStyleTableRecord
  2
Domyślne (ISO)
 70
     0
 40
30.0
 41
2.5
 42
0.0
 43
5.999999999999999
 44
3.174999999999999
 45
0.00000001
 46
10.0
 73
     0
 77
     1
140
3.5
143
0.03937
146
0.7142857142857144
147
0.762
171
     3
172
     1
176
   256
177
   256
178
   256
271
     0
272
     0
274
     3
278
    44
340
CB
371
    -1
372
    -1
  0
DIMSTYLE
105
D7
330
A
100
AcDbSymbolTableRecord
100
AcDbDimStyleTableRecord
  2
Domyślne (ISO)$7
 70
     0
 40
30.0
 41
2.5
 42
0.0
 43
5.999999999999999
 44
3.174999999999999
 45
0.00000001
 46
10.0
 73
     0
 77
     1
140
3.5
143
0.03937
146
0.7142857142857144
147
0.762
171
     3
172
     1
176
   256
177
   256
178
   256
271
     0
272
     0
274
     3
278
    44
340
CB
371
    -1
372
    -1
  0
DIMSTYLE
105
E6
330
A
100
AcDbSymbolTableRecord
100
AcDbDimStyleTableRecord
  2
Obiekt mieszany (ISO)
 70
     0
 40
30.0
 41
2.5
 42
0.0
 43
5.999999999999999
 44
3.174999999999999
 45
0.00000001
 46
10.0
 73
     0
 74
     0
 77
     1
140
3.5
143
0.03937
146
1.001485756465366
147
0.762
171
     3
172
     1
176
   256
177
   256
178
   256
179
     2
271
     2
272
     2
274
     3
278
    44
340
CB
341
D8
371
    -1
372
    -1
  0
DIMSTYLE
105
E7
330
A
100
AcDbSymbolTableRecord
100
AcDbDimStyleTableRecord
  2
Obiekt mieszany (ISO)$7
 70
     0
 40
30.0
 41
5.0
 42
0.0
 43
5.999999999999999
 44
3.174999999999999
 45
0.00000001
 46
10.0
 73
     0
 74
     0
 77
     1
140
3.5
143
0.03937
146
1.001485756465366
147
0.762
171
     3
172
     1
176
   256
177
   256
178
   256
179
     2
271
     2
272
     2
274
     3
278
    44
340
CB
341
D8
371
    25
372
    -1
  0
DIMSTYLE
105
E8
330
A
100
AcDbSymbolTableRecord
100
AcDbDimStyleTableRecord
  2
Dodatkowy (ISO)
 70
     0
 40
30.0
 41
2.5
340
55
342
E9
  0
DIMSTYLE
105
FA
330
A
100
AcDbSymbolTableRecord
100
AcDbDimStyleTableRecord
  2
Odniesienie (ISO)
 70
     0
 40
30.0
 41
2.5
340
55
342
E9
  0
ENDTAB
  0
TABLE
  2
BLOCK_RECORD
  5
1
330
0
100
AcDbSymbolTable
 70
    10
  0
BLOCK_RECORD
  5
6C
330
1
100
AcDbSymbolTableRecord
100
AcDbBlockTableRecord
  2
*Model_Space
340
6F
 70
     0
280
     1
281
     0
  0
BLOCK_RECORD
  5
68
330
1
100
AcDbSymbolTableRecord
100
AcDbBlockTableRecord
  2
*Paper_Space
340
6B
 70
     0
280
     1
281
     0
  0
BLOCK_RECORD
  5
70
330
1
100
AcDbSymbolTableRecord
100
AcDbBlockTableRecord
  2
*Paper_Space0
340
73
 70
     0
280
     1
281
     0
  0
BLOCK_RECORD
  5
D8
330
1
100
AcDbSymbolTableRecord
100
AcDbBlockTableRecord
  2
Filled-1
340
0
 70
     0
280
     1
281
     0
  0
BLOCK_RECORD
  5
E9
330
1
100
AcDbSymbolTableRecord
100
AcDbBlockTableRecord
  2
_Closed
340
0
 70
     0
280
     1
281
     0
  0
BLOCK_RECORD
  5
F0
330
1
100
AcDbSymbolTableRecord
100
AcDbBlockTableRecord
  2
DatumFilled45
340
0
 70
     0
280
     1
281
     0
  0
BLOCK_RECORD
  5
FC
330
1
100
AcDbSymbolTableRecord
100
AcDbBlockTableRecord
  2
Ramki Ramka domyślna
340
0
 70
     0
280
     1
281
     0
  0
BLOCK_RECORD
  5
144
330
1
100
AcDbSymbolTableRecord
100
AcDbBlockTableRecord
  2
Tabelki rysunkowe ISO
340
0
 70
     0
280
     1
281
     0
  0
BLOCK_RECORD
  5
690
330
1
100
AcDbSymbolTableRecord
100
AcDbBlockTableRecord
  2
*D6
340
0
 70
     0
280
     1
281
     0
  0
BLOCK_RECORD
  5
778
330
1
100
AcDbSymbolTableRecord
100
AcDbBlockTableRecord
  2
*D7
340
0
 70
     0
280
     1
281
     0
  0
BLOCK_RECORD
  5
B27
330
1
100
AcDbSymbolTableRecord
100
AcDbBlockTableRecord
  2
*D8
340
0
 70
     0
280
     1
281
     0
  0
BLOCK_RECORD
  5
C09
330
1
100
AcDbSymbolTableRecord
100
AcDbBlockTableRecord
  2
*D9
340
0
 70
     0
280
     1
281
     0
  0
ENDTAB
  0
ENDSEC
  0
SECTION
  2
BLOCKS
  0
BLOCK
  5
6D
330
6C
100
AcDbEntity
  8
0
100
AcDbBlockBegin
  2
*Model_Space
 70
     0
 10
0.0
 20
0.0
 30
0.0
  3
*Model_Space
  1

  0
ENDBLK
  5
6E
330
6C
100
AcDbEntity
  8
0
100
AcDbBlockEnd
  0
BLOCK
  5
69
330
68
100
AcDbEntity
 67
     1
  8
0
100
AcDbBlockBegin
  2
*Paper_Space
 70
     0
 10
0.0
 20
0.0
 30
0.0
  3
*Paper_Space
  1

  0
ENDBLK
  5
6A
330
68
100
AcDbEntity
 67
     1
  8
0
100
AcDbBlockEnd
  0
BLOCK
  5
71
330
70
100
AcDbEntity
 67
     1
  8
0
100
AcDbBlockBegin
  2
*Paper_Space0
 70
     0
 10
0.0
 20
0.0
 30
0.0
  3
*Paper_Space0
  1

  0
ENDBLK
  5
72
330
70
100
AcDbEntity
 67
     1
  8
0
100
AcDbBlockEnd
  0
BLOCK
  5
D9
330
D8
100
AcDbEntity
  8
0
100
AcDbBlockBegin
  2
Filled-1
 70
     0
 10
0.0
 20
0.0
 30
0.0
  3
Filled-1
  1

  0
LINE
  5
DB
330
D8
100
AcDbEntity
  8
0
 62
     0
100
AcDbLine
 10
-1.0
 20
0.0
 30
0.0
 11
0.0
 21
0.0
 31
0.0
  0
POLYLINE
  5
DC
330
D8
100
AcDbEntity
  8
0
 62
     0
100
AcDb2dPolyline
 66
     1
 10
0.0
 20
0.0
 30
0.0
 70
   128
  0
VERTEX
  5
DD
330
DC
100
AcDbEntity
  8
0
 62
     0
100
AcDbVertex
100
AcDb2dVertex
 10
-1.0
 20
-0.1
 30
0.0
  0
VERTEX
  5
DE
330
DC
100
AcDbEntity
  8
0
 62
     0
100
AcDbVertex
100
AcDb2dVertex
 10
0.0
 20
0.0
 30
0.0
  0
VERTEX
  5
E0
330
DC
100
AcDbEntity
  8
0
 62
     0
100
AcDbVertex
100
AcDb2dVertex
 10
-1.0
 20
0.1
 30
0.0
  0
VERTEX
  5
E1
330
DC
100
AcDbEntity
  8
0
 62
     0
100
AcDbVertex
100
AcDb2dVertex
 10
-1.0
 20
-0.1
 30
0.0
  0
SEQEND
  5
DF
330
DC
100
AcDbEntity
  8
0
 62
     0
  0
SOLID
  5
E2
330
D8
100
AcDbEntity
  8
0
 62
     0
100
AcDbTrace
 10
-1.0
 20
-0.1
 30
0.0
 11
0.0
 21
0.0
 31
0.0
 12
-1.0
 22
0.1
 32
0.0
 13
-1.0
 23
-0.1
 33
0.0
  0
LINE
  5
E3
330
D8
100
AcDbEntity
  8
0
 62
     0
100
AcDbLine
 10
-1.0
 20
-0.1
 30
0.0
 11
0.0
 21
0.0
 31
0.0
  0
LINE
  5
E4
330
D8
100
AcDbEntity
  8
0
 62
     0
100
AcDbLine
 10
0.0
 20
0.0
 30
0.0
 11
-1.0
 21
0.1
 31
0.0
  0
LINE
  5
E5
330
D8
100
AcDbEntity
  8
0
 62
     0
100
AcDbLine
 10
-1.0
 20
0.1
 30
0.0
 11
-1.0
 21
-0.1
 31
0.0
  0
ENDBLK
  5
DA
330
D8
100
AcDbEntity
  8
0
100
AcDbBlockEnd
  0
BLOCK
  5
EE
330
E9
100
AcDbEntity
  8
0
100
AcDbBlockBegin
  2
_Closed
 70
     0
 10
0.0
 20
0.0
 30
0.0
  3
_Closed
  1

  0
LINE
  5
EA
330
E9
100
AcDbEntity
  8
0
  6
ByBlock
 62
     0
370
    -2
100
AcDbLine
 10
-1.0
 20
0.1666666666666666
 30
0.0
 11
0.0
 21
0.0
 31
0.0
  0
LINE
  5
EB
330
E9
100
AcDbEntity
  8
0
  6
ByBlock
 62
     0
370
    -2
100
AcDbLine
 10
0.0
 20
0.0
 30
0.0
 11
-1.0
 21
-0.1666666666666666
 31
0.0
  0
LINE
  5
EC
330
E9
100
AcDbEntity
  8
0
  6
ByBlock
 62
     0
370
    -2
100
AcDbLine
 10
-1.0
 20
0.1666666666666666
 30
0.0
 11
-1.0
 21
-0.1666666666666666
 31
0.0
  0
LINE
  5
ED
330
E9
100
AcDbEntity
  8
0
  6
ByBlock
 62
     0
370
    -2
100
AcDbLine
 10
0.0
 20
0.0
 30
0.0
 11
-1.0
 21
0.0
 31
0.0
  0
ENDBLK
  5
EF
330
E9
100
AcDbEntity
  8
0
100
AcDbBlockEnd
  0
BLOCK
  5
F1
330
F0
100
AcDbEntity
  8
0
100
AcDbBlockBegin
  2
DatumFilled45
 70
     0
 10
0.0
 20
0.0
 30
0.0
  3
DatumFilled45
  1

  0
POLYLINE
  5
F3
330
F0
100
AcDbEntity
  8
0
 62
     0
100
AcDb2dPolyline
 66
     1
 10
0.0
 20
0.0
 30
0.0
 70
   128
  0
VERTEX
  5
F4
330
F3
100
AcDbEntity
  8
0
 62
     0
100
AcDbVertex
100
AcDb2dVertex
 10
0.0
 20
1.0
 30
0.0
  0
VERTEX
  5
F5
330
F3
100
AcDbEntity
  8
0
 62
     0
100
AcDbVertex
100
AcDb2dVertex
 10
0.0
 20
-1.0
 30
0.0
  0
VERTEX
  5
F7
330
F3
100
AcDbEntity
  8
0
 62
     0
100
AcDbVertex
100
AcDb2dVertex
 10
-1.0
 20
0.0
 30
0.0
  0
VERTEX
  5
F8
330
F3
100
AcDbEntity
  8
0
 62
     0
100
AcDbVertex
100
AcDb2dVertex
 10
0.0
 20
1.0
 30
0.0
  0
SEQEND
  5
F6
330
F3
100
AcDbEntity
  8
0
 62
     0
  0
SOLID
  5
F9
330
F0
100
AcDbEntity
  8
0
 62
     0
100
AcDbTrace
 10
0.0
 20
1.0
 30
0.0
 11
0.0
 21
-1.0
 31
0.0
 12
-1.0
 22
0.0
 32
0.0
 13
0.0
 23
1.0
 33
0.0
  0
ENDBLK
  5
F2
330
F0
100
AcDbEntity
  8
0
100
AcDbBlockEnd
  0
BLOCK
  5
FD
330
FC
100
AcDbEntity
  8
0
100
AcDbBlockBegin
  2
Ramki Ramka domyślna
 70
     0
 10
0.0
 20
0.0
 30
0.0
  3
Ramki Ramka domyślna
  1

  0
POLYLINE
  5
FF
330
FC
100
AcDbEntity
  8
Obramowanie (ISO)
100
AcDb2dPolyline
 66
     1
 10
0.0
 20
0.0
 30
0.0
 70
   128
  0
VERTEX
  5
100
330
FF
100
AcDbEntity
  8
Obramowanie (ISO)
100
AcDbVertex
100
AcDb2dVertex
 10
10.0
 20
10.0
 30
0.0
  0
VERTEX
  5
101
330
FF
100
AcDbEntity
  8
Obramowanie (ISO)
100
AcDbVertex
100
AcDb2dVertex
 10
10.0
 20
287.0000076293946
 30
0.0
  0
VERTEX
  5
103
330
FF
100
AcDbEntity
  8
Obramowanie (ISO)
100
AcDbVertex
100
AcDb2dVertex
 10
410.0
 20
287.0000076293946
 30
0.0
  0
VERTEX
  5
104
330
FF
100
AcDbEntity
  8
Obramowanie (ISO)
100
AcDbVertex
100
AcDb2dVertex
 10
410.0
 20
10.0
 30
0.0
  0
VERTEX
  5
105
330
FF
100
AcDbEntity
  8
Obramowanie (ISO)
100
AcDbVertex
100
AcDb2dVertex
 10
10.0
 20
10.0
 30
0.0
  0
SEQEND
  5
102
330
FF
100
AcDbEntity
  8
Obramowanie (ISO)
  0
POLYLINE
  5
106
330
FC
100
AcDbEntity
  8
Obramowanie (ISO)
100
AcDb2dPolyline
 66
     1
 10
0.0
 20
0.0
 30
0.0
 70
   128
  0
VERTEX
  5
107
330
106
100
AcDbEntity
  8
Obramowanie (ISO)
100
AcDbVertex
100
AcDb2dVertex
 10
210.0
 20
0.0
 30
0.0
  0
VERTEX
  5
108
330
106
100
AcDbEntity
  8
Obramowanie (ISO)
100
AcDbVertex
100
AcDb2dVertex
 10
210.0
 20
10.0
 30
0.0
  0
VERTEX
  5
10A
330
106
100
AcDbEntity
  8
Obramowanie (ISO)
100
AcDbVertex
100
AcDb2dVertex
 10
207.1132469177246
 20
5.0
 30
0.0
  0
VERTEX
  5
10B
330
106
100
AcDbEntity
  8
Obramowanie (ISO)
100
AcDbVertex
100
AcDb2dVertex
 10
212.8867530822754
 20
5.0
 30
0.0
  0
VERTEX
  5
10C
330
106
100
AcDbEntity
  8
Obramowanie (ISO)
100
AcDbVertex
100
AcDb2dVertex
 10
210.0
 20
10.0
 30
0.0
  0
SEQEND
  5
109
330
106
100
AcDbEntity
  8
Obramowanie (ISO)
  0
POLYLINE
  5
10D
330
FC
100
AcDbEntity
  8
Obramowanie (ISO)
100
AcDb2dPolyline
 66
     1
 10
0.0
 20
0.0
 30
0.0
 70
   128
  0
VERTEX
  5
10E
330
10D
100
AcDbEntity
  8
Obramowanie (ISO)
100
AcDbVertex
100
AcDb2dVertex
 10
210.0
 20
297.0000076293946
 30
0.0
  0
VERTEX
  5
10F
330
10D
100
AcDbEntity
  8
Obramowanie (ISO)
100
AcDbVertex
100
AcDb2dVertex
 10
210.0
 20
287.0000076293946
 30
0.0
  0
VERTEX
  5
111
330
10D
100
AcDbEntity
  8
Obramowanie (ISO)
100
AcDbVertex
100
AcDb2dVertex
 10
207.1132469177246
 20
292.0000076293945
 30
0.0
  0
VERTEX
  5
112
330
10D
100
AcDbEntity
  8
Obramowanie (ISO)
100
AcDbVertex
100
AcDb2dVertex
 10
212.8867530822754
 20
292.0000076293945
 30
0.0
  0
VERTEX
  5
113
330
10D
100
AcDbEntity
  8
Obramowanie (ISO)
100
AcDbVertex
100
AcDb2dVertex
 10
210.0
 20
287.0000076293946
 30
0.0
  0
SEQEND
  5
110
330
10D
100
AcDbEntity
  8
Obramowanie (ISO)
  0
POLYLINE
  5
114
330
FC
100
AcDbEntity
  8
Obramowanie (ISO)
100
AcDb2dPolyline
 66
     1
 10
0.0
 20
0.0
 30
0.0
 70
   128
  0
VERTEX
  5
115
330
114
100
AcDbEntity
  8
Obramowanie (ISO)
100
AcDbVertex
100
AcDb2dVertex
 10
0.0
 20
148.5000038146973
 30
0.0
  0
VERTEX
  5
116
330
114
100
AcDbEntity
  8
Obramowanie (ISO)
100
AcDbVertex
100
AcDb2dVertex
 10
10.0
 20
148.5000038146973
 30
0.0
  0
VERTEX
  5
118
330
114
100
AcDbEntity
  8
Obramowanie (ISO)
100
AcDbVertex
100
AcDb2dVertex
 10
5.0
 20
151.3867473602295
 30
0.0
  0
VERTEX
  5
119
330
114
100
AcDbEntity
  8
Obramowanie (ISO)
100
AcDbVertex
100
AcDb2dVertex
 10
5.0
 20
145.6132507324219
 30
0.0
  0
VERTEX
  5
11A
330
114
100
AcDbEntity
  8
Obramowanie (ISO)
100
AcDbVertex
100
AcDb2dVertex
 10
10.0
 20
148.5000038146973
 30
0.0
  0
SEQEND
  5
117
330
114
100
AcDbEntity
  8
Obramowanie (ISO)
  0
POLYLINE
  5
11B
330
FC
100
AcDbEntity
  8
Obramowanie (ISO)
100
AcDb2dPolyline
 66
     1
 10
0.0
 20
0.0
 30
0.0
 70
   128
  0
VERTEX
  5
11C
330
11B
100
AcDbEntity
  8
Obramowanie (ISO)
100
AcDbVertex
100
AcDb2dVertex
 10
420.0
 20
148.5000038146973
 30
0.0
  0
VERTEX
  5
11D
330
11B
100
AcDbEntity
  8
Obramowanie (ISO)
100
AcDbVertex
100
AcDb2dVertex
 10
410.0
 20
148.5000038146973
 30
0.0
  0
VERTEX
  5
11F
330
11B
100
AcDbEntity
  8
Obramowanie (ISO)
100
AcDbVertex
100
AcDb2dVertex
 10
415.0
 20
151.3867473602295
 30
0.0
  0
VERTEX
  5
120
330
11B
100
AcDbEntity
  8
Obramowanie (ISO)
100
AcDbVertex
100
AcDb2dVertex
 10
415.0
 20
145.6132507324219
 30
0.0
  0
VERTEX
  5
121
330
11B
100
AcDbEntity
  8
Obramowanie (ISO)
100
AcDbVertex
100
AcDb2dVertex
 10
410.0
 20
148.5000038146973
 30
0.0
  0
SEQEND
  5
11E
330
11B
100
AcDbEntity
  8
Obramowanie (ISO)
  0
LINE
  5
122
330
FC
100
AcDbEntity
  8
Obramowanie (ISO)
100
AcDbLine
 10
70.0
 20
10.0
 30
0.0
 11
70.0
 21
7.099999785423278
 31
0.0
  0
LINE
  5
123
330
FC
100
AcDbEntity
  8
Obramowanie (ISO)
100
AcDbLine
 10
70.0
 20
287.0000076293946
 30
0.0
 11
70.0
 21
289.8999977111817
 31
0.0
  0
LINE
  5
124
330
FC
100
AcDbEntity
  8
Obramowanie (ISO)
100
AcDbLine
 10
140.0
 20
10.0
 30
0.0
 11
140.0
 21
7.099999785423278
 31
0.0
  0
LINE
  5
125
330
FC
100
AcDbEntity
  8
Obramowanie (ISO)
100
AcDbLine
 10
140.0
 20
287.0000076293946
 30
0.0
 11
140.0
 21
289.8999977111817
 31
0.0
  0
LINE
  5
126
330
FC
100
AcDbEntity
  8
Obramowanie (ISO)
100
AcDbLine
 10
280.0
 20
10.0
 30
0.0
 11
280.0
 21
7.099999785423278
 31
0.0
  0
LINE
  5
127
330
FC
100
AcDbEntity
  8
Obramowanie (ISO)
100
AcDbLine
 10
280.0
 20
287.0000076293946
 30
0.0
 11
280.0
 21
289.8999977111817
 31
0.0
  0
LINE
  5
128
330
FC
100
AcDbEntity
  8
Obramowanie (ISO)
100
AcDbLine
 10
350.0
 20
10.0
 30
0.0
 11
350.0
 21
7.099999785423278
 31
0.0
  0
LINE
  5
129
330
FC
100
AcDbEntity
  8
Obramowanie (ISO)
100
AcDbLine
 10
350.0
 20
287.0000076293946
 30
0.0
 11
350.0
 21
289.8999977111817
 31
0.0
  0
MTEXT
  5
12A
330
FC
100
AcDbEntity
  8
Obramowanie (ISO)
100
AcDbMText
 10
384.4359944669735
 20
287.4
 30
0.0
 40
2.5
 41
0.0
 46
0.0
 71
     7
 72
     1
  1
1
  7
Tekst notatki (ISO)
 73
     1
 44
1.0
  0
MTEXT
  5
12C
330
FC
100
AcDbEntity
  8
Obramowanie (ISO)
100
AcDbMText
 10
384.4359944669735
 20
7.099999999999999
 30
0.0
 40
2.5
 41
0.0
 46
0.0
 71
     7
 72
     1
  1
1
  7
Tekst notatki (ISO)
 73
     1
 44
1.0
  0
MTEXT
  5
12D
330
FC
100
AcDbEntity
  8
Obramowanie (ISO)
100
AcDbMText
 10
314.2419939703322
 20
287.4
 30
0.0
 40
2.5
 41
0.0
 46
0.0
 71
     7
 72
     1
  1
2
  7
Tekst notatki (ISO)
 73
     1
 44
1.0
  0
MTEXT
  5
12E
330
FC
100
AcDbEntity
  8
Obramowanie (ISO)
100
AcDbMText
 10
314.2419939703322
 20
7.099999999999999
 30
0.0
 40
2.5
 41
0.0
 46
0.0
 71
     7
 72
     1
  1
2
  7
Tekst notatki (ISO)
 73
     1
 44
1.0
  0
MTEXT
  5
12F
330
FC
100
AcDbEntity
  8
Obramowanie (ISO)
100
AcDbMText
 10
244.2219939191321
 20
287.3473257688805
 30
0.0
 40
2.5
 41
0.0
 46
0.0
 71
     7
 72
     1
  1
3
  7
Tekst notatki (ISO)
 73
     1
 44
1.0
  0
MTEXT
  5
130
330
FC
100
AcDbEntity
  8
Obramowanie (ISO)
100
AcDbMText
 10
244.2219939191321
 20
7.047325768880545
 30
0.0
 40
2.5
 41
0.0
 46
0.0
 71
     7
 72
     1
  1
3
  7
Tekst notatki (ISO)
 73
     1
 44
1.0
  0
MTEXT
  5
131
330
FC
100
AcDbEntity
  8
Obramowanie (ISO)
100
AcDbMText
 10
174.1279936784914
 20
287.4
 30
0.0
 40
2.5
 41
0.0
 46
0.0
 71
     7
 72
     1
  1
4
  7
Tekst notatki (ISO)
 73
     1
 44
1.0
  0
MTEXT
  5
132
330
FC
100
AcDbEntity
  8
Obramowanie (ISO)
100
AcDbMText
 10
174.1279936784914
 20
7.099999999999999
 30
0.0
 40
2.5
 41
0.0
 46
0.0
 71
     7
 72
     1
  1
4
  7
Tekst notatki (ISO)
 73
     1
 44
1.0
  0
MTEXT
  5
133
330
FC
100
AcDbEntity
  8
Obramowanie (ISO)
100
AcDbMText
 10
104.2679940368923
 20
287.3473257688805
 30
0.0
 40
2.5
 41
0.0
 46
0.0
 71
     7
 72
     1
  1
5
  7
Tekst notatki (ISO)
 73
     1
 44
1.0
  0
MTEXT
  5
134
330
FC
100
AcDbEntity
  8
Obramowanie (ISO)
100
AcDbMText
 10
104.2679940368923
 20
7.047325768880545
 30
0.0
 40
2.5
 41
0.0
 46
0.0
 71
     7
 72
     1
  1
5
  7
Tekst notatki (ISO)
 73
     1
 44
1.0
  0
MTEXT
  5
135
330
FC
100
AcDbEntity
  8
Obramowanie (ISO)
100
AcDbMText
 10
34.20199386793194
 20
287.3473257688805
 30
0.0
 40
2.5
 41
0.0
 46
0.0
 71
     7
 72
     1
  1
6
  7
Tekst notatki (ISO)
 73
     1
 44
1.0
  0
MTEXT
  5
136
330
FC
100
AcDbEntity
  8
Obramowanie (ISO)
100
AcDbMText
 10
34.20199386793194
 20
7.047325768880545
 30
0.0
 40
2.5
 41
0.0
 46
0.0
 71
     7
 72
     1
  1
6
  7
Tekst notatki (ISO)
 73
     1
 44
1.0
  0
LINE
  5
137
330
FC
100
AcDbEntity
  8
Obramowanie (ISO)
100
AcDbLine
 10
10.0
 20
74.25000190734863
 30
0.0
 11
7.099999785423278
 21
74.25000190734863
 31
0.0
  0
LINE
  5
138
330
FC
100
AcDbEntity
  8
Obramowanie (ISO)
100
AcDbLine
 10
410.0
 20
74.25000190734863
 30
0.0
 11
412.9000091552734
 21
74.25000190734863
 31
0.0
  0
LINE
  5
139
330
FC
100
AcDbEntity
  8
Obramowanie (ISO)
100
AcDbLine
 10
10.0
 20
222.7499961853027
 30
0.0
 11
7.099999785423278
 21
222.7499961853027
 31
0.0
  0
LINE
  5
13A
330
FC
100
AcDbEntity
  8
Obramowanie (ISO)
100
AcDbLine
 10
410.0
 20
222.7499961853027
 30
0.0
 11
412.9000091552734
 21
222.7499961853027
 31
0.0
  0
MTEXT
  5
13B
330
FC
100
AcDbEntity
  8
Obramowanie (ISO)
100
AcDbMText
 10
7.286593166399208
 20
35.875
 30
0.0
 40
2.5
 41
0.0
 46
0.0
 71
     7
 72
     1
  1
A
  7
Tekst notatki (ISO)
 73
     1
 44
1.0
  0
MTEXT
  5
13C
330
FC
100
AcDbEntity
  8
Obramowanie (ISO)
100
AcDbMText
 10
410.5865931663991
 20
35.875
 30
0.0
 40
2.5
 41
0.0
 46
0.0
 71
     7
 72
     1
  1
A
  7
Tekst notatki (ISO)
 73
     1
 44
1.0
  0
MTEXT
  5
13D
330
FC
100
AcDbEntity
  8
Obramowanie (ISO)
100
AcDbMText
 10
7.587034677710874
 20
110.125
 30
0.0
 40
2.5
 41
0.0
 46
0.0
 71
     7
 72
     1
  1
B
  7
Tekst notatki (ISO)
 73
     1
 44
1.0
  0
MTEXT
  5
13E
330
FC
100
AcDbEntity
  8
Obramowanie (ISO)
100
AcDbMText
 10
410.8870346777108
 20
110.125
 30
0.0
 40
2.5
 41
0.0
 46
0.0
 71
     7
 72
     1
  1
B
  7
Tekst notatki (ISO)
 73
     1
 44
1.0
  0
MTEXT
  5
13F
330
FC
100
AcDbEntity
  8
Obramowanie (ISO)
100
AcDbMText
 10
7.427787979511982
 20
184.3304294999689
 30
0.0
 40
2.5
 41
0.0
 46
0.0
 71
     7
 72
     1
  1
C
  7
Tekst notatki (ISO)
 73
     1
 44
1.0
  0
MTEXT
  5
140
330
FC
100
AcDbEntity
  8
Obramowanie (ISO)
100
AcDbMText
 10
410.7277879795119
 20
184.3304294999689
 30
0.0
 40
2.5
 41
0.0
 46
0.0
 71
     7
 72
     1
  1
C
  7
Tekst notatki (ISO)
 73
     1
 44
1.0
  0
MTEXT
  5
141
330
FC
100
AcDbEntity
  8
Obramowanie (ISO)
100
AcDbMText
 10
7.434076865759236
 20
258.625
 30
0.0
 40
2.5
 41
0.0
 46
0.0
 71
     7
 72
     1
  1
D
  7
Tekst notatki (ISO)
 73
     1
 44
1.0
  0
MTEXT
  5
142
330
FC
100
AcDbEntity
  8
Obramowanie (ISO)
100
AcDbMText
 10
410.7340768657592
 20
258.625
 30
0.0
 40
2.5
 41
0.0
 46
0.0
 71
     7
 72
     1
  1
D
  7
Tekst notatki (ISO)
 73
     1
 44
1.0
  0
ENDBLK
  5
FE
330
FC
100
AcDbEntity
  8
0
100
AcDbBlockEnd
  0
BLOCK
  5
145
330
144
100
AcDbEntity
  8
0
100
AcDbBlockBegin
  2
Tabelki rysunkowe ISO
 70
     2
 10
0.0
 20
0.0
 30
0.0
  3
Tabelki rysunkowe ISO
  1

  0
LINE
  5
147
330
144
100
AcDbEntity
  8
Tytuł (ISO)
100
AcDbLine
 10
100.0713910852681
 20
99.99999999999918
 30
0.0
 11
270.0713910852682
 21
99.99999999999916
 31
0.0
  0
LINE
  5
148
330
144
100
AcDbEntity
  8
Tytuł (ISO)
100
AcDbLine
 10
270.0713910852682
 20
99.99999999999916
 30
0.0
 11
270.0713910852682
 21
129.9999999999993
 31
0.0
  0
LINE
  5
149
330
144
100
AcDbEntity
  8
Tytuł (ISO)
100
AcDbLine
 10
270.0713910852682
 20
129.9999999999993
 30
0.0
 11
100.0713910852681
 21
129.9999999999991
 31
0.0
  0
LINE
  5
14A
330
144
100
AcDbEntity
  8
Tytuł (ISO)
100
AcDbLine
 10
100.0713910852681
 20
129.9999999999991
 30
0.0
 11
100.0713910852681
 21
99.99999999999918
 31
0.0
  0
LINE
  5
14B
330
144
100
AcDbEntity
  8
Tytuł (ISO)
100
AcDbLine
 10
100.0713910852681
 20
120.0
 30
0.0
 11
270.0713910852682
 21
120.0
 31
0.0
  0
LINE
  5
14C
330
144
100
AcDbEntity
  8
Tytuł (ISO)
100
AcDbLine
 10
132.0713910852681
 20
119.9999999999991
 30
0.0
 11
132.0713910852681
 21
129.9999999999991
 31
0.0
  0
LINE
  5
14D
330
144
100
AcDbEntity
  8
Tytuł (ISO)
100
AcDbLine
 10
157.0713910852681
 20
119.9999999999991
 30
0.0
 11
157.0713910852681
 21
129.9999999999991
 31
0.0
  0
LINE
  5
14E
330
144
100
AcDbEntity
  8
Tytuł (ISO)
100
AcDbLine
 10
175.0713910852681
 20
120.0
 30
0.0
 11
175.0713910852681
 21
100.0
 31
0.0
  0
LINE
  5
14F
330
144
100
AcDbEntity
  8
Tytuł (ISO)
100
AcDbLine
 10
197.0713910852682
 20
119.9999999999992
 30
0.0
 11
197.0713910852682
 21
129.9999999999992
 31
0.0
  0
LINE
  5
150
330
144
100
AcDbEntity
  8
Tytuł (ISO)
100
AcDbLine
 10
220.0713910852682
 20
119.9999999999992
 30
0.0
 11
220.0713910852682
 21
129.9999999999992
 31
0.0
  0
LINE
  5
151
330
144
100
AcDbEntity
  8
Tytuł (ISO)
100
AcDbLine
 10
270.0713910852682
 20
109.9999999999992
 30
0.0
 11
175.0713910852681
 21
110.0
 31
0.0
  0
LINE
  5
152
330
144
100
AcDbEntity
  8
Tytuł (ISO)
100
AcDbLine
 10
235.0713910852681
 20
100.0
 30
0.0
 11
235.0713910852681
 21
110.0
 31
0.0
  0
LINE
  5
153
330
144
100
AcDbEntity
  8
Tytuł (ISO)
100
AcDbLine
 10
250.0713910852681
 20
100.0
 30
0.0
 11
250.0713910852681
 21
110.0
 31
0.0
  0
LINE
  5
154
330
144
100
AcDbEntity
  8
Tytuł (ISO)
100
AcDbLine
 10
250.0713910852682
 20
119.9999999999993
 30
0.0
 11
250.0713910852682
 21
129.9999999999992
 31
0.0
  0
TEXT
  5
156
330
144
100
AcDbEntity
  8
Tytuł (ISO)
100
AcDbText
 10
101.0713910852681
 20
126.9999999701967
 30
0.0
 40
2.000000029802322
  1
Zaprojektowany przez
  7
Styl tekstu41
 11
101.0713910852681
 21
128.999999999999
 31
0.0
100
AcDbText
 73
     3
  0
TEXT
  5
158
330
144
100
AcDbEntity
  8
Tytuł (ISO)
100
AcDbText
 10
133.0713910852681
 20
126.9999999701968
 30
0.0
 40
2.000000029802322
  1
Kreślony przez
  7
Styl tekstu41
 11
133.0713910852681
 21
128.9999999999991
 31
0.0
100
AcDbText
 73
     3
  0
TEXT
  5
159
330
144
100
AcDbEntity
  8
Tytuł (ISO)
100
AcDbText
 10
158.0713910852681
 20
126.9999999701968
 30
0.0
 40
2.000000029802322
  1
Zatwierdzony przez
  7
Styl tekstu41
 11
158.0713910852681
 21
128.9999999999991
 31
0.0
100
AcDbText
 73
     3
  0
TEXT
  5
15A
330
144
100
AcDbEntity
  8
Tytuł (ISO)
100
AcDbText
 10
221.0713910852682
 20
126.9999999701977
 30
0.0
 40
2.000000029802322
  1
Data
  7
Styl tekstu41
 11
221.0713910852682
 21
129.0
 31
0.0
100
AcDbText
 73
     3
  0
TEXT
  5
15B
330
144
100
AcDbEntity
  8
Tytuł (ISO)
100
AcDbText
 10
255.9251519986328
 20
102.2499999999996
 30
0.0
 40
2.5
  1
1 / 1 
  7
Tekst notatki (ISO)
 72
     1
 11
260.0713910852681
 21
103.4999999999996
 31
0.0
100
AcDbText
 73
     2
  0
TEXT
  5
15D
330
144
100
AcDbEntity
  8
Tytuł (ISO)
100
AcDbText
 10
238.2745307806752
 20
107.3514493703834
 30
0.0
 40
1.648550629615783
  1
Wydanie
  7
Styl tekstu45
 72
     1
 11
242.5713910852682
 21
108.9999999999992
 31
0.0
100
AcDbText
 73
     3
  0
TEXT
  5
15E
330
144
100
AcDbEntity
  8
Tytuł (ISO)
100
AcDbText
 10
256.7820398961556
 20
107.3514493703834
 30
0.0
 40
1.648550629615783
  1
Arkusz
  7
Styl tekstu45
 72
     1
 11
260.0713910852681
 21
108.9999999999992
 31
0.0
100
AcDbText
 73
     3
  0
TEXT
  5
15F
330
144
100
AcDbEntity
  8
Tytuł (ISO)
100
AcDbText
 10
191.3947773448403
 20
127.3514493703834
 30
0.0
 40
1.648550629615783
  1
Data
  7
Styl tekstu45
 72
     2
 11
196.0713910852681
 21
128.9999999999992
 31
0.0
100
AcDbText
 73
     3
  0
ATTDEF
  5
160
102
{ACAD_XDICTIONARY
360
CF0
102
}
330
144
100
AcDbEntity
  8
Tytuł (ISO)
100
AcDbText
 10
204.5198464244219
 20
113.7197783747482
 30
0.0
 40
2.5
  1
zestaw 1 - betonowanie
  7
Tekst notatki (ISO)
100
AcDbAttributeDefinition
  3
TYTUŁ
  2
TYTUŁ_001
 70
     0
280
     0
  0
ATTDEF
  5
162
102
{ACAD_XDICTIONARY
360
CF3
102
}
330
144
100
AcDbEntity
  8
Tytuł (ISO)
100
AcDbText
 10
175.9891211054159
 20
103.7197783747481
 30
0.0
 40
2.5
  1
zestaw 1 kt
  7
Tekst notatki (ISO)
100
AcDbAttributeDefinition
  3
NUMER CZĘŚCI
  2
NUMER_CZĘŚCI_001
 70
     0
280
     0
  0
ATTDEF
  5
163
102
{ACAD_XDICTIONARY
360
CF6
102
}
330
144
100
AcDbEntity
  8
Tytuł (ISO)
100
AcDbText
 10
137.4145052978323
 20
108.7081637900171
 30
0.0
 40
2.5
  1

  7
Tekst notatki (ISO)
 72
     1
 11
137.4145052978323
 21
109.9581637900171
 31
0.0
100
AcDbAttributeDefinition
  3
FIRMA
  2
FIRMA
 70
     0
 74
     2
280
     0
  0
ATTDEF
  5
165
102
{ACAD_XDICTIONARY
360
CF9
102
}
330
144
100
AcDbEntity
  8
Tytuł (ISO)
100
AcDbText
 10
100.8193349558363
 20
121.0517466225977
 30
0.0
 40
2.485507130622863
  1
Muller
  7
Styl tekstu44
100
AcDbAttributeDefinition
  3
AUTOR
  2
AUTOR_001
 70
     0
280
     0
  0
ATTDEF
  5
166
102
{ACAD_XDICTIONARY
360
CFC
102
}
330
144
100
AcDbEntity
  8
Tytuł (ISO)
100
AcDbText
 10
132.8193349558362
 20
121.7060910115864
 30
0.0
 40
2.485507130622863
  1
Pro-Design
  7
Styl tekstu44
100
AcDbAttributeDefinition
  3
SPRAWDZIŁ
  2
SPRAWDZIŁ_001
 70
     0
280
     0
  0
ATTDEF
  5
167
102
{ACAD_XDICTIONARY
360
CFF
102
}
330
144
100
AcDbEntity
  8
Tytuł (ISO)
100
AcDbText
 10
157.8193349558363
 20
121.0517466225986
 30
0.0
 40
2.485507130622863
  1
Muller
  7
Styl tekstu44
100
AcDbAttributeDefinition
  3
ZATWIERDZENIE KONSTRUKCJI
  2
ZATWIERDZENIE_KONSTRUKCJI_001
 70
     0
280
     0
  0
ATTDEF
  5
168
102
{ACAD_XDICTIONARY
360
D02
102
}
330
144
100
AcDbEntity
  8
Tytuł (ISO)
100
AcDbText
 10
196.0713910852681
 20
121.2854410472366
 30
0.0
 40
2.485507130622863
  1

  7
Styl tekstu44
 72
     2
 11
196.0713910852681
 21
120.9999999999991
 31
0.0
100
AcDbAttributeDefinition
  3
DATA ZATWIERDZENIA
  2
DATA_ZATWIERDZENIA
 70
     0
 74
     1
280
     0
  0
ATTDEF
  5
169
102
{ACAD_XDICTIONARY
360
D05
102
}
330
144
100
AcDbEntity
  8
Tytuł (ISO)
100
AcDbText
 10
220.889443283228
 20
121.0517466225986
 30
0.0
 40
2.485507130622863
  1
2011-07-26
  7
Styl tekstu44
100
AcDbAttributeDefinition
  3
DATA UTWORZENIA
  2
DATA_UTWORZENIA_001
 70
     0
280
     0
  0
ATTDEF
  5
16A
102
{ACAD_XDICTIONARY
360
D08
102
}
330
144
100
AcDbEntity
  8
Tytuł (ISO)
100
AcDbText
 10
240.7639699972897
 20
102.2508394895901
 30
0.0
 40
2.5
  1
01
  7
Tekst notatki (ISO)
100
AcDbAttributeDefinition
  3
NUMER WERSJI
  2
NUMER_WERSJI_001
 70
     0
280
     0
  0
ENDBLK
  5
146
330
144
100
AcDbEntity
  8
0
100
AcDbBlockEnd
  0
BLOCK
  5
691
330
690
100
AcDbEntity
  8
0
100
AcDbBlockBegin
  2
*D6
 70
     1
 10
0.0
 20
0.0
 30
0.0
  3
*D6
  1

  0
LINE
  5
76E
330
690
100
AcDbEntity
  8
Wymiar (ISO)
100
AcDbLine
 10
3506.622619184574
 20
5880.732896962822
 30
0.0
 11
6470.979848580729
 21
5880.732896962822
 31
0.0
  0
LINE
  5
76F
330
690
100
AcDbEntity
  8
Wymiar (ISO)
100
AcDbLine
 10
3506.622619184572
 20
791.3293803445331
 30
0.0
 11
6470.979848580727
 21
791.3293803445322
 31
0.0
  0
LINE
  5
770
330
690
100
AcDbEntity
  8
Wymiar (ISO)
100
AcDbLine
 10
6375.729848580728
 20
5805.732896962822
 30
0.0
 11
6375.729848580727
 21
866.3293803445323
 31
0.0
  0
SOLID
  5
771
330
690
100
AcDbEntity
  8
Wymiar (ISO)
100
AcDbTrace
 10
6363.229848580727
 20
5805.732896962822
 30
0.0
 11
6388.229848580728
 21
5805.732896962822
 31
0.0
 12
6375.729848580728
 22
5880.732896962822
 32
0.0
 13
6375.729848580728
 23
5880.732896962822
 33
0.0
  0
SOLID
  5
772
330
690
100
AcDbEntity
  8
Wymiar (ISO)
100
AcDbTrace
 10
6363.229848580727
 20
866.3293803445323
 30
0.0
 11
6388.229848580727
 21
866.3293803445323
 31
0.0
 12
6375.729848580727
 22
791.3293803445323
 32
0.0
 13
6375.729848580727
 23
791.3293803445323
 33
0.0
  0
MTEXT
  5
773
330
690
100
AcDbEntity
  8
Wymiar (ISO)
100
AcDbMText
 10
6243.568303919881
 20
3336.031138653677
 30
0.0
 40
105.0
 41
0.0
 46
0.0
 71
     2
 72
     1
  1
\A1; 5090
  7
Tekst etykiety (ISO)
 11
0.0000000000000001
 21
1.0
 31
0.0
 73
     1
 44
1.0
  0
POINT
  5
774
330
690
100
AcDbEntity
  8
Defpoints
 62
     0
100
AcDbPoint
 10
3506.622619184574
 20
5880.732896962822
 30
0.0
  0
POINT
  5
775
330
690
100
AcDbEntity
  8
Defpoints
 62
     0
100
AcDbPoint
 10
3506.622619184572
 20
791.3293803445331
 30
0.0
  0
POINT
  5
776
330
690
100
AcDbEntity
  8
Defpoints
 62
     0
100
AcDbPoint
 10
6375.729848580727
 20
791.3293803445323
 30
0.0
  0
ENDBLK
  5
692
330
690
100
AcDbEntity
  8
0
100
AcDbBlockEnd
  0
BLOCK
  5
779
330
778
100
AcDbEntity
  8
0
100
AcDbBlockBegin
  2
*D7
 70
     1
 10
0.0
 20
0.0
 30
0.0
  3
*D7
  1

  0
LINE
  5
850
330
778
100
AcDbEntity
  8
Wymiar (ISO)
100
AcDbLine
 10
6061.926100480509
 20
3917.854655271968
 30
0.0
 11
6061.926100480509
 21
403.0895065550603
 31
0.0
  0
LINE
  5
851
330
778
100
AcDbEntity
  8
Wymiar (ISO)
100
AcDbLine
 10
951.3191378886347
 20
3917.85465527197
 30
0.0
 11
951.3191378886345
 21
403.0895065550603
 31
0.0
  0
LINE
  5
852
330
778
100
AcDbEntity
  8
Wymiar (ISO)
100
AcDbLine
 10
5986.926100480509
 20
498.3395065550602
 30
0.0
 11
1026.319137888634
 21
498.3395065550602
 31
0.0
  0
SOLID
  5
853
330
778
100
AcDbEntity
  8
Wymiar (ISO)
100
AcDbTrace
 10
5986.926100480509
 20
510.8395065550602
 30
0.0
 11
5986.926100480509
 21
485.8395065550602
 31
0.0
 12
6061.926100480509
 22
498.3395065550602
 32
0.0
 13
6061.926100480509
 23
498.3395065550602
 33
0.0
  0
SOLID
  5
854
330
778
100
AcDbEntity
  8
Wymiar (ISO)
100
AcDbTrace
 10
1026.319137888634
 20
510.8395065550602
 30
0.0
 11
1026.319137888634
 21
485.8395065550602
 31
0.0
 12
951.3191378886345
 22
498.3395065550602
 32
0.0
 13
951.3191378886345
 23
498.3395065550602
 33
0.0
  0
MTEXT
  5
855
330
778
100
AcDbEntity
  8
Wymiar (ISO)
100
AcDbMText
 10
3506.622619184573
 20
630.5715683414941
 30
0.0
 40
105.0
 41
0.0
 46
0.0
 71
     2
 72
     1
  1
\A1; 5120
  7
Tekst etykiety (ISO)
 73
     1
 44
1.0
  0
POINT
  5
856
330
778
100
AcDbEntity
  8
Defpoints
 62
     0
100
AcDbPoint
 10
6061.926100480509
 20
3917.854655271968
 30
0.0
  0
POINT
  5
857
330
778
100
AcDbEntity
  8
Defpoints
 62
     0
100
AcDbPoint
 10
951.3191378886347
 20
3917.85465527197
 30
0.0
  0
POINT
  5
858
330
778
100
AcDbEntity
  8
Defpoints
 62
     0
100
AcDbPoint
 10
951.3191378886345
 20
498.3395065550602
 30
0.0
  0
ENDBLK
  5
77A
330
778
100
AcDbEntity
  8
0
100
AcDbBlockEnd
  0
BLOCK
  5
B28
330
B27
100
AcDbEntity
  8
0
100
AcDbBlockBegin
  2
*D8
 70
     1
 10
0.0
 20
0.0
 30
0.0
  3
*D8
  1

  0
LINE
  5
BFF
330
B27
100
AcDbEntity
  8
Wymiar (ISO)
100
AcDbLine
 10
2451.319137888634
 20
3917.8546552721
 30
0.0
 11
2451.319137888634
 21
4674.803544662512
 31
0.0
  0
LINE
  5
C00
330
B27
100
AcDbEntity
  8
Wymiar (ISO)
100
AcDbLine
 10
4561.92610048051
 20
3917.854655272098
 30
0.0
 11
4561.92610048051
 21
4674.803544662512
 31
0.0
  0
LINE
  5
C01
330
B27
100
AcDbEntity
  8
Wymiar (ISO)
100
AcDbLine
 10
2526.319137888634
 20
4579.553544662512
 30
0.0
 11
4486.92610048051
 21
4579.553544662512
 31
0.0
  0
SOLID
  5
C02
330
B27
100
AcDbEntity
  8
Wymiar (ISO)
100
AcDbTrace
 10
2526.319137888634
 20
4592.053544662511
 30
0.0
 11
2526.319137888634
 21
4567.053544662512
 31
0.0
 12
2451.319137888634
 22
4579.553544662512
 32
0.0
 13
2451.319137888634
 23
4579.553544662512
 33
0.0
  0
SOLID
  5
C03
330
B27
100
AcDbEntity
  8
Wymiar (ISO)
100
AcDbTrace
 10
4486.92610048051
 20
4592.053544662511
 30
0.0
 11
4486.92610048051
 21
4567.053544662512
 31
0.0
 12
4561.92610048051
 22
4579.553544662512
 32
0.0
 13
4561.92610048051
 23
4579.553544662512
 33
0.0
  0
MTEXT
  5
C04
330
B27
100
AcDbEntity
  8
Wymiar (ISO)
100
AcDbMText
 10
3506.622619184572
 20
4709.599575555729
 30
0.0
 40
105.0
 41
0.0
 46
0.0
 71
     2
 72
     1
  1
\A1;2111
  7
Tekst etykiety (ISO)
 73
     1
 44
1.0
  0
POINT
  5
C05
330
B27
100
AcDbEntity
  8
Defpoints
 62
     0
100
AcDbPoint
 10
2451.319137888634
 20
3917.8546552721
 30
0.0
  0
POINT
  5
C06
330
B27
100
AcDbEntity
  8
Defpoints
 62
     0
100
AcDbPoint
 10
4561.92610048051
 20
3917.854655272098
 30
0.0
  0
POINT
  5
C07
330
B27
100
AcDbEntity
  8
Defpoints
 62
     0
100
AcDbPoint
 10
4561.92610048051
 20
4579.553544662512
 30
0.0
  0
ENDBLK
  5
B29
330
B27
100
AcDbEntity
  8
0
100
AcDbBlockEnd
  0
BLOCK
  5
C0A
330
C09
100
AcDbEntity
  8
0
100
AcDbBlockBegin
  2
*D9
 70
     1
 10
0.0
 20
0.0
 30
0.0
  3
*D9
  1

  0
LINE
  5
CE7
330
C09
100
AcDbEntity
  8
Wymiar (ISO)
100
AcDbLine
 10
3506.622619184572
 20
4380.732896963013
 30
0.0
 11
2173.10693471472
 21
4380.732896963013
 31
0.0
  0
LINE
  5
CE8
330
C09
100
AcDbEntity
  8
Wymiar (ISO)
100
AcDbLine
 10
3506.622619184569
 20
2291.329380344661
 30
0.0
 11
2173.10693471472
 21
2291.329380344662
 31
0.0
  0
LINE
  5
CE9
330
C09
100
AcDbEntity
  8
Wymiar (ISO)
100
AcDbLine
 10
2268.35693471472
 20
4305.732896963013
 30
0.0
 11
2268.35693471472
 21
2366.329380344662
 31
0.0
  0
SOLID
  5
CEA
330
C09
100
AcDbEntity
  8
Wymiar (ISO)
100
AcDbTrace
 10
2255.856934714721
 20
4305.732896963013
 30
0.0
 11
2280.856934714721
 21
4305.732896963013
 31
0.0
 12
2268.35693471472
 22
4380.732896963013
 32
0.0
 13
2268.35693471472
 23
4380.732896963013
 33
0.0
  0
SOLID
  5
CEB
330
C09
100
AcDbEntity
  8
Wymiar (ISO)
100
AcDbTrace
 10
2255.85693471472
 20
2366.329380344662
 30
0.0
 11
2280.85693471472
 21
2366.329380344662
 31
0.0
 12
2268.35693471472
 22
2291.329380344662
 32
0.0
 13
2268.35693471472
 23
2291.329380344662
 33
0.0
  0
MTEXT
  5
CEC
330
C09
100
AcDbEntity
  8
Wymiar (ISO)
100
AcDbMText
 10
2135.70177017476
 20
3336.031138653837
 30
0.0
 40
105.0
 41
0.0
 46
0.0
 71
     2
 72
     1
  1
\A1;2089
  7
Tekst etykiety (ISO)
 11
0.0000000000000001
 21
1.0
 31
0.0
 73
     1
 44
1.0
  0
POINT
  5
CED
330
C09
100
AcDbEntity
  8
Defpoints
 62
     0
100
AcDbPoint
 10
3506.622619184572
 20
4380.732896963013
 30
0.0
  0
POINT
  5
CEE
330
C09
100
AcDbEntity
  8
Defpoints
 62
     0
100
AcDbPoint
 10
3506.622619184569
 20
2291.329380344661
 30
0.0
  0
POINT
  5
CEF
330
C09
100
AcDbEntity
  8
Defpoints
 62
     0
100
AcDbPoint
 10
2268.35693471472
 20
2291.329380344662
 30
0.0
  0
ENDBLK
  5
C0B
330
C09
100
AcDbEntity
  8
0
100
AcDbBlockEnd
  0
ENDSEC
  0
SECTION
  2
ENTITIES
  0
LINE
  5
48E
330
6C
100
AcDbEntity
  8
Widoczne (ISO)
100
AcDbLine
 10
3468.622619184568
 20
2712.26418124485
 30
0.0
 11
3468.622619184567
 21
2874.847581657647
 31
0.0
  0
LINE
  5
48F
330
6C
100
AcDbEntity
  8
Widoczne (ISO)
100
AcDbLine
 10
3544.622619184566
 20
2712.264181244851
 30
0.0
 11
3544.622619184565
 21
2874.847581657642
 31
0.0
  0
LINE
  5
490
330
6C
100
AcDbEntity
  8
Widoczne (ISO)
100
AcDbLine
 10
2871.702382764361
 20
3877.796220165919
 30
0.0
 11
3012.503737755433
 21
3796.504519959639
 31
0.0
  0
LINE
  5
491
330
6C
100
AcDbEntity
  8
Widoczne (ISO)
100
AcDbLine
 10
2833.702382764363
 20
3811.978289478303
 30
0.0
 11
2974.50373775543
 21
3730.686589272024
 31
0.0
  0
LINE
  5
492
330
6C
100
AcDbEntity
  8
Widoczne (ISO)
100
AcDbLine
 10
4179.542855604782
 20
3811.978289478298
 30
0.0
 11
4038.741500613713
 21
3730.686589272015
 31
0.0
  0
LINE
  5
493
330
6C
100
AcDbEntity
  8
Widoczne (ISO)
100
AcDbLine
 10
4141.542855604782
 20
3877.796220165913
 30
0.0
 11
4000.741500613716
 21
3796.504519959632
 31
0.0
  0
CIRCLE
  5
494
330
6C
100
AcDbEntity
  8
Widoczne (ISO)
100
AcDbCircle
 10
3506.622619184571
 20
3467.346230296607
 30
0.0
 40
275.0000000000002
  0
CIRCLE
  5
495
330
6C
100
AcDbEntity
  8
Widoczne (ISO)
100
AcDbCircle
 10
3506.622619184572
 20
4105.732896963013
 30
0.0
 40
274.999999999998
  0
CIRCLE
  5
496
330
6C
100
AcDbEntity
  8
Widoczne (ISO)
100
AcDbCircle
 10
2953.763635335943
 20
3148.153047516294
 30
0.0
 40
275.000000000001
  0
CIRCLE
  5
497
330
6C
100
AcDbEntity
  8
Widoczne (ISO)
100
AcDbCircle
 10
4059.481603033192
 20
3148.153047516296
 30
0.0
 40
274.9999999999998
  0
LINE
  5
498
330
6C
100
AcDbEntity
  8
Widoczne (ISO)
100
AcDbLine
 10
3778.475611050805
 20
3508.830574492526
 30
0.0
 11
3989.635321076788
 21
3630.743689918031
 31
0.0
  0
ARC
  5
499
330
6C
100
AcDbEntity
  8
Widoczne (ISO)
100
AcDbCircle
 10
3939.635321076789
 20
3717.346230296474
 30
0.0
 40
99.99999999999964
100
AcDbArc
 50
300.0
 51
120.0
  0
LINE
  5
49A
330
6C
100
AcDbEntity
  8
Widoczne (ISO)
100
AcDbLine
 10
3889.635321076789
 20
3803.948770674919
 30
0.0
 11
3678.475611050807
 21
3682.035655249413
 31
0.0
  0
LINE
  5
49B
330
6C
100
AcDbEntity
  8
Widoczne (ISO)
100
AcDbLine
 10
3334.769627318337
 20
3682.035655249413
 30
0.0
 11
3123.609917292354
 21
3803.948770674918
 31
0.0
  0
ARC
  5
49C
330
6C
100
AcDbEntity
  8
Widoczne (ISO)
100
AcDbCircle
 10
3073.609917292354
 20
3717.346230296474
 30
0.0
 40
99.99999999999966
100
AcDbArc
 50
59.99999999999994
 51
239.9999999999999
  0
LINE
  5
49D
330
6C
100
AcDbEntity
  8
Widoczne wąskie (ISO)
100
AcDbLine
 10
3889.635321076789
 20
3803.948770674919
 30
0.0
 11
3892.135321076789
 21
3799.618643655997
 31
0.0
  0
LINE
  5
49E
330
6C
100
AcDbEntity
  8
Widoczne wąskie (ISO)
100
AcDbLine
 10
3682.617585570841
 20
3678.653522661637
 30
0.0
 11
3892.135321076789
 21
3799.618643655997
 31
0.0
  0
LINE
  5
49F
330
6C
100
AcDbEntity
  8
Widoczne wąskie (ISO)
100
AcDbLine
 10
3989.635321076788
 20
3630.743689918031
 30
0.0
 11
3987.135321076788
 21
3635.073816936955
 31
0.0
  0
ARC
  5
4A0
330
6C
100
AcDbEntity
  8
Widoczne wąskie (ISO)
100
AcDbCircle
 10
3939.635321076789
 20
3717.346230296476
 30
0.0
 40
94.99999999999966
100
AcDbArc
 50
299.9999999999999
 51
119.9999999999999
  0
LINE
  5
4A1
330
6C
100
AcDbEntity
  8
Widoczne wąskie (ISO)
100
AcDbLine
 10
3987.135321076788
 20
3635.073816936955
 30
0.0
 11
3777.61758557084
 21
3514.108695942594
 31
0.0
  0
LINE
  5
4A2
330
6C
100
AcDbEntity
  8
Widoczne wąskie (ISO)
100
AcDbLine
 10
3606.622619184572
 20
2967.346230296477
 30
0.0
 11
3601.622619184571
 21
2967.346230296479
 31
0.0
  0
LINE
  5
4A3
330
6C
100
AcDbEntity
  8
Widoczne (ISO)
100
AcDbLine
 10
3606.622619184571
 20
2967.346230296477
 30
0.0
 11
3606.622619184571
 21
3211.172461147486
 31
0.0
  0
LINE
  5
4A4
330
6C
100
AcDbEntity
  8
Widoczne wąskie (ISO)
100
AcDbLine
 10
3601.622619184571
 20
3209.276472285199
 30
0.0
 11
3601.622619184571
 21
2967.346230296479
 31
0.0
  0
LINE
  5
4A5
330
6C
100
AcDbEntity
  8
Widoczne wąskie (ISO)
100
AcDbLine
 10
3406.622619184572
 20
2967.346230296477
 30
0.0
 11
3411.622619184572
 21
2967.346230296478
 31
0.0
  0
ARC
  5
4A6
330
6C
100
AcDbEntity
  8
Widoczne (ISO)
100
AcDbCircle
 10
3506.622619184572
 20
2967.346230296477
 30
0.0
 40
99.99999999999968
100
AcDbArc
 50
180.0
 51
0.0
  0
ARC
  5
4A7
330
6C
100
AcDbEntity
  8
Widoczne wąskie (ISO)
100
AcDbCircle
 10
3506.622619184572
 20
2967.346230296479
 30
0.0
 40
94.99999999999964
100
AcDbArc
 50
180.0
 51
0.0
  0
LINE
  5
4A8
330
6C
100
AcDbEntity
  8
Widoczne (ISO)
100
AcDbLine
 10
3406.622619184572
 20
3211.172461147486
 30
0.0
 11
3406.622619184572
 21
2967.346230296477
 31
0.0
  0
LINE
  5
4A9
330
6C
100
AcDbEntity
  8
Widoczne wąskie (ISO)
100
AcDbLine
 10
3411.622619184572
 20
2967.346230296478
 30
0.0
 11
3411.622619184572
 21
3209.276472285198
 31
0.0
  0
LINE
  5
4AA
330
6C
100
AcDbEntity
  8
Widoczne wąskie (ISO)
100
AcDbLine
 10
3023.609917292354
 20
3630.74368991803
 30
0.0
 11
3026.109917292354
 21
3635.073816936954
 31
0.0
  0
LINE
  5
4AB
330
6C
100
AcDbEntity
  8
Widoczne (ISO)
100
AcDbLine
 10
3023.609917292354
 20
3630.74368991803
 30
0.0
 11
3234.769627318336
 21
3508.830574492526
 31
0.0
  0
LINE
  5
4AC
330
6C
100
AcDbEntity
  8
Widoczne wąskie (ISO)
100
AcDbLine
 10
3235.627652798302
 20
3514.108695942594
 30
0.0
 11
3026.109917292354
 21
3635.073816936954
 31
0.0
  0
LINE
  5
4AD
330
6C
100
AcDbEntity
  8
Widoczne wąskie (ISO)
100
AcDbLine
 10
3123.609917292353
 20
3803.948770674918
 30
0.0
 11
3121.109917292353
 21
3799.618643655997
 31
0.0
  0
ARC
  5
4AE
330
6C
100
AcDbEntity
  8
Widoczne wąskie (ISO)
100
AcDbCircle
 10
3073.609917292354
 20
3717.346230296476
 30
0.0
 40
94.99999999999962
100
AcDbArc
 50
59.99999999999988
 51
239.9999999999999
  0
LINE
  5
4AF
330
6C
100
AcDbEntity
  8
Widoczne wąskie (ISO)
100
AcDbLine
 10
3121.109917292354
 20
3799.618643655997
 30
0.0
 11
3330.627652798302
 21
3678.653522661637
 31
0.0
  0
ARC
  5
4B0
330
6C
100
AcDbEntity
  8
Widoczne (ISO)
100
AcDbCircle
 10
3506.622619184569
 20
2566.329380344662
 30
0.0
 40
275.0000000000002
100
AcDbArc
 50
97.94264953486468
 51
82.05735046513611
  0
ARC
  5
4B1
330
6C
100
AcDbEntity
  8
Widoczne (ISO)
100
AcDbCircle
 10
2726.319137888634
 20
3917.8546552721
 30
0.0
 40
275.0000000000002
100
AcDbArc
 50
337.9426495348648
 51
322.0573504651359
  0
ARC
  5
4B2
330
6C
100
AcDbEntity
  8
Widoczne (ISO)
100
AcDbCircle
 10
4286.92610048051
 20
3917.854655272098
 30
0.0
 40
275.0000000000001
100
AcDbArc
 50
217.9426495348649
 51
202.0573504651362
  0
ELLIPSE
  5
4B3
330
6C
100
AcDbEntity
  8
Widoczne wąskie (ISO)
100
AcDbEllipse
 10
3506.622619184569
 20
2710.263074179558
 30
0.0
 11
59.24210589801403
 21
-0.0000000000008993
 31
0.0
210
0.0
220
0.0
230
1.0
 40
0.8480480961562603
 41
2.267164502014059
 42
7.157613458755391
  0
SPLINE
  5
4B4
330
6C
100
AcDbEntity
  8
Widoczne (ISO)
100
AcDbSpline
210
0.0
220
0.0
230
1.0
 70
     8
 71
     3
 72
    22
 73
    18
 74
     0
 42
0.0000000001
 43
0.0000000001
 40
0.0
 40
0.0
 40
0.0
 40
0.0
 40
0.3218956432129768
 40
0.3218956432129768
 40
0.6436280925513307
 40
0.6436280925513307
 40
0.9647159840183917
 40
0.9647159840183917
 40
1.284385026637111
 40
1.284385026637111
 40
1.602176235447345
 40
1.602176235447345
 40
1.919153237746299
 40
1.919153237746299
 40
2.237284394643721
 40
2.237284394643721
 40
2.459428483425747
 40
2.459428483425747
 40
2.459428483425747
 40
2.459428483425747
 10
3506.622619184569
 20
2658.017378383935
 30
0.0
 10
3500.163833920981
 20
2658.017378383935
 30
0.0
 10
3493.706078206809
 20
2658.906087864076
 30
0.0
 10
3481.443782662178
 20
2662.374103165522
 30
0.0
 10
3475.640832851297
 20
2664.952071088047
 30
0.0
 10
3465.285533270478
 20
2671.540157739001
 30
0.0
 10
3460.732353452073
 20
2675.546640284258
 30
0.0
 10
3453.351124327908
 20
2684.577997364843
 30
0.0
 10
3450.517177910745
 20
2689.597240835222
 30
0.0
 10
3446.86049410514
 20
2700.12679051155
 30
0.0
 10
3446.027440422903
 20
2705.631900755452
 30
0.0
 10
3446.432439085818
 20
2716.573475095488
 30
0.0
 10
3447.664936467624
 20
2722.007205248327
 30
0.0
 10
3452.063992457352
 20
2732.279628244685
 30
0.0
 10
3455.236017491984
 20
2737.114250788319
 30
0.0
 10
3461.984812890943
 20
2744.390680453064
 30
0.0
 10
3465.14862447559
 20
2747.115279168688
 30
0.0
 10
3468.622619184567
 20
2749.508252057411
 30
0.0
  0
SPLINE
  5
4B5
330
6C
100
AcDbEntity
  8
Widoczne (ISO)
100
AcDbSpline
210
0.0
220
0.0
230
1.0
 70
     8
 71
     3
 72
    24
 73
    20
 74
     0
 42
0.0000000001
 43
0.0000000001
 40
3.823756823753786
 40
3.823756823753786
 40
3.823756823753786
 40
3.823756823753786
 40
3.843880885115806
 40
3.843880885115806
 40
4.164773054829543
 40
4.164773054829543
 40
4.484103101600142
 40
4.484103101600142
 40
4.801612749909748
 40
4.801612749909748
 40
5.118666531826577
 40
5.118666531826577
 40
5.437139450749636
 40
5.437139450749636
 40
5.757429993521821
 40
5.757429993521821
 40
6.078830668680819
 40
6.078830668680819
 40
6.283185307179586
 40
6.283185307179586
 40
6.283185307179586
 40
6.283185307179586
 10
3544.622619184568
 20
2749.508252057413
 30
0.0
 10
3544.93732880875
 20
2749.291472337933
 30
0.0
 10
3545.249503216708
 20
2749.071981639906
 30
0.0
 10
3550.495477454012
 20
2745.307340908475
 30
0.0
 10
3554.765215393086
 20
2741.080951973316
 30
0.0
 10
3561.511444804172
 20
2731.699436896296
 30
0.0
 10
3563.9949091196
 20
2726.550112331862
 30
0.0
 10
3566.922850000816
 20
2715.862854295896
 30
0.0
 10
3567.377667466533
 20
2710.329683940167
 30
0.0
 10
3566.227987344774
 20
2699.431294133512
 30
0.0
 10
3564.627048098991
 20
2694.068631688753
 30
0.0
 10
3559.534373638828
 20
2684.029799961672
 30
0.0
 10
3556.035825122293
 20
2679.358412964579
 30
0.0
 10
3547.486425903984
 20
2671.170680456024
 30
0.0
 10
3542.428384017051
 20
2667.661978421379
 30
0.0
 10
3531.264467228316
 20
2662.168635801885
 30
0.0
 10
3525.156733256745
 20
2660.190024751794
 30
0.0
 10
3514.823199702629
 20
2658.373844520101
 30
0.0
 10
3510.722962744696
 20
2658.017378383935
 30
0.0
 10
3506.622619184569
 20
2658.017378383935
 30
0.0
  0
ELLIPSE
  5
4B6
330
6C
100
AcDbEntity
  8
Widoczne (ISO)
100
AcDbEllipse
 10
3506.622619184569
 20
2712.264181244856
 30
0.0
 11
38.00000000000013
 21
-0.0000000000001623
 31
0.0
210
0.0
220
0.0
230
1.0
 40
0.8480480961562603
 41
3.141592653589793
 42
6.283185307179586
  0
ELLIPSE
  5
4B7
330
6C
100
AcDbEntity
  8
Widoczne wąskie (ISO)
100
AcDbEllipse
 10
2850.969373210127
 20
3845.887808354755
 30
0.0
 11
-29.62105294898668
 21
-51.30516868137985
 31
0.0
210
0.0
220
0.0
230
0.9999999999999998
 40
0.8480480961564948
 41
2.267164502013573
 42
7.157613458754902
  0
SPLINE
  5
4B8
330
6C
100
AcDbEntity
  8
Widoczne (ISO)
100
AcDbSpline
210
0.0
220
0.0
230
1.0
 70
     8
 71
     3
 72
    22
 73
    18
 74
     0
 42
0.0000000001
 43
0.0000000001
 40
0.0
 40
0.0
 40
0.0
 40
0.0
 40
0.3218956432129768
 40
0.3218956432129768
 40
0.6436280925513307
 40
0.6436280925513307
 40
0.9647159840183917
 40
0.9647159840183917
 40
1.284385026637111
 40
1.284385026637111
 40
1.602176235447345
 40
1.602176235447345
 40
1.919153237746298
 40
1.919153237746298
 40
2.23728439464372
 40
2.23728439464372
 40
2.459428483425748
 40
2.459428483425748
 40
2.459428483425748
 40
2.459428483425748
 10
2805.723273412716
 20
3872.010656252579
 30
0.0
 10
2808.95266604451
 20
3877.604128368434
 30
0.0
 10
2812.951188887981
 20
3882.752354128271
 30
0.0
 10
2822.085726012064
 20
3891.637805927911
 30
0.0
 10
2827.219786628552
 20
3895.374323919757
 30
0.0
 10
2838.102886821022
 20
3901.048233095065
 30
0.0
 10
2843.849192394237
 20
3902.988161213174
 30
0.0
 10
2855.361191618756
 20
3904.864814605558
 30
0.0
 10
2861.124957180466
 20
3904.809462460594
 30
0.0
 10
2872.072156593379
 20
3902.711468691689
 30
0.0
 10
2877.256248756353
 20
3900.68035922127
 30
0.0
 10
2886.529430760764
 20
3894.858832920667
 30
0.0
 10
2890.61893041953
 20
3891.074593801504
 30
0.0
 10
2897.315581697933
 20
3882.128688063547
 30
0.0
 10
2899.916475121113
 20
3876.964322530297
 30
0.0
 10
2902.843650360155
 20
3867.481479437481
 30
0.0
 10
2903.62131627068
 20
3863.379238874575
 30
0.0
 10
2903.956694228395
 20
3859.174184759627
 30
0.0
  0
SPLINE
  5
4B9
330
6C
100
AcDbEntity
  8
Widoczne (ISO)
100
AcDbSpline
210
0.0
220
0.0
230
1.0
 70
     8
 71
     3
 72
    24
 73
    20
 74
     0
 42
0.0000000001
 43
0.0000000001
 40
3.82375682375379
 40
3.82375682375379
 40
3.82375682375379
 40
3.82375682375379
 40
3.843880885115806
 40
3.843880885115806
 40
4.164773054829543
 40
4.164773054829543
 40
4.484103101600142
 40
4.484103101600142
 40
4.801612749909748
 40
4.801612749909748
 40
5.118666531826577
 40
5.118666531826577
 40
5.437139450749636
 40
5.437139450749636
 40
5.757429993521821
 40
5.757429993521821
 40
6.078830668680819
 40
6.078830668680819
 40
6.283185307179586
 40
6.283185307179586
 40
6.283185307179586
 40
6.283185307179586
 10
2865.956694228395
 20
3793.356254072008
 30
0.0
 10
2865.61160267221
 20
3793.192097402391
 30
0.0
 10
2865.265430947845
 20
3793.0314917837
 30
0.0
 10
2859.382169319651
 20
3790.370665192313
 30
0.0
 10
2853.587140165993
 20
3788.786158137155
 30
0.0
 10
2842.089395077761
 20
3787.634509625909
 30
0.0
 10
2836.388217034916
 20
3788.058428721573
 30
0.0
 10
2825.66880963836
 20
3790.866386555648
 30
0.0
 10
2820.649534813973
 20
3793.239088254118
 30
0.0
 10
2811.786092441942
 20
3799.683935349118
 30
0.0
 10
2807.94236015575
 20
3803.751720628262
 30
0.0
 10
2801.794814085861
 20
3813.181521947512
 30
0.0
 10
2799.498548533737
 20
3818.547047337751
 30
0.0
 10
2796.68246379109
 20
3830.044910502181
 30
0.0
 10
2796.172859638243
 20
3836.179654286993
 30
0.0
 10
2796.997443772437
 20
3848.594561141523
 30
0.0
 10
2798.337783324634
 20
3854.873319445506
 30
0.0
 10
2801.931691883194
 20
3864.730512130076
 30
0.0
 10
2803.673101632652
 20
3868.459654565265
 30
0.0
 10
2805.723273412716
 20
3872.010656252579
 30
0.0
  0
ELLIPSE
  5
4BA
330
6C
100
AcDbEntity
  8
Widoczne (ISO)
100
AcDbEllipse
 10
2852.702382764367
 20
3844.887254822107
 30
0.0
 11
-19.0000000000002
 21
-32.90896534380875
 31
0.0
210
0.0
220
0.0
230
0.9999999999999998
 40
0.848048096156495
 41
3.14159265359017
 42
6.283185307179963
  0
ELLIPSE
  5
4BB
330
6C
100
AcDbEntity
  8
Widoczne wąskie (ISO)
100
AcDbEllipse
 10
4162.275865159017
 20
3845.887808354752
 30
0.0
 11
-29.62105294898488
 21
51.30516868138087
 31
0.0
210
0.0
220
0.0
230
1.0
 40
0.8480480961564955
 41
2.267164502014553
 42
7.157613458755883
  0
SPLINE
  5
4BC
330
6C
100
AcDbEntity
  8
Widoczne (ISO)
100
AcDbSpline
210
0.0
220
0.0
230
1.0
 70
     8
 71
     3
 72
    22
 73
    18
 74
     0
 42
0.0000000001
 43
0.0000000001
 40
0.0
 40
0.0
 40
0.0
 40
0.0
 40
0.3218956432129767
 40
0.3218956432129767
 40
0.6436280925513307
 40
0.6436280925513307
 40
0.9647159840183917
 40
0.9647159840183917
 40
1.284385026637111
 40
1.284385026637111
 40
1.602176235447345
 40
1.602176235447345
 40
1.919153237746298
 40
1.919153237746298
 40
2.23728439464372
 40
2.23728439464372
 40
2.45942848342575
 40
2.45942848342575
 40
2.45942848342575
 40
2.45942848342575
 10
4207.521964956428
 20
3872.010656252577
 30
0.0
 10
4210.751357588222
 20
3866.417184136721
 30
0.0
 10
4213.210590458922
 20
3860.380248896745
 30
0.0
 10
4216.338348879473
 20
3848.026781795656
 30
0.0
 10
4217.007238073864
 20
3841.712295881284
 30
0.0
 10
4216.479437462212
 20
3829.450300055017
 30
0.0
 10
4215.286311707404
 20
3823.503889391651
 30
0.0
 10
4211.155541607049
 20
3812.595878918676
 30
0.0
 10
4208.225722462501
 20
3807.631987593257
 30
0.0
 10
4200.935206855193
 20
3799.20043168583
 30
0.0
 10
4196.584168374458
 20
3795.726430912344
 30
0.0
 10
4186.905987707131
 20
3790.606382872905
 30
0.0
 10
4181.583990666559
 20
3788.956891839227
 30
0.0
 10
4170.488283398428
 20
3787.630374580819
 30
0.0
 10
4164.715364940615
 20
3787.960117570433
 30
0.0
 10
4155.039394302614
 20
3790.1665309985
 30
0.0
 10
4151.097916807442
 20
3791.544172845779
 30
0.0
 10
4147.28854414075
 20
3793.356254072004
 30
0.0
  0
SPLINE
  5
4BD
330
6C
100
AcDbEntity
  8
Widoczne (ISO)
100
AcDbSpline
210
0.0
220
0.0
230
1.0
 70
     8
 71
     3
 72
    24
 73
    20
 74
     0
 42
0.0000000001
 43
0.0000000001
 40
3.823756823753787
 40
3.823756823753787
 40
3.823756823753787
 40
3.823756823753787
 40
3.843880885115806
 40
3.843880885115806
 40
4.164773054829542
 40
4.164773054829542
 40
4.484103101600141
 40
4.484103101600141
 40
4.801612749909748
 40
4.801612749909748
 40
5.118666531826576
 40
5.118666531826576
 40
5.437139450749635
 40
5.437139450749635
 40
5.757429993521819
 40
5.757429993521819
 40
6.078830668680817
 40
6.078830668680817
 40
6.283185307179586
 40
6.283185307179586
 40
6.283185307179586
 40
6.283185307179586
 10
4109.288544140749
 20
3859.17418475962
 30
0.0
 10
4109.318926072754
 20
3859.555121148718
 30
0.0
 10
4109.352923389161
 20
3859.935217465435
 30
0.0
 10
4109.99021078005
 20
3866.360684788256
 30
0.0
 10
4111.515501994635
 20
3872.171580778576
 30
0.0
 10
4116.26701767178
 20
3882.704744366847
 30
0.0
 10
4119.484731399197
 20
3887.430149835619
 30
0.0
 10
4127.276197914536
 20
3895.309450037517
 30
0.0
 10
4131.840655273207
 20
3898.469918694777
 30
0.0
 10
4141.853777766995
 20
3902.923461406438
 30
0.0
 10
4147.298449298971
 20
3904.218338572056
 30
0.0
 10
4158.538669829025
 20
3904.827368979895
 30
0.0
 10
4164.333483897683
 20
3904.133230586751
 30
0.0
 10
4175.69896785864
 20
3900.82309993088
 30
0.0
 10
4181.266613898418
 20
3898.197058180714
 30
0.0
 10
4191.60594655296
 20
3891.275493945681
 30
0.0
 10
4196.373340972334
 20
3886.97534669179
 30
0.0
 10
4203.112965967888
 20
3878.934334238914
 30
0.0
 10
4205.471793176364
 20
3875.561657939891
 30
0.0
 10
4207.521964956428
 20
3872.010656252577
 30
0.0
  0
ELLIPSE
  5
4BE
330
6C
100
AcDbEntity
  8
Widoczne (ISO)
100
AcDbEllipse
 10
4160.542855604777
 20
3844.887254822104
 30
0.0
 11
-19.00000000000003
 21
32.90896534380883
 31
0.0
210
0.0
220
0.0
230
1.0
 40
0.8480480961564953
 41
3.141592653589379
 42
6.283185307179172
  0
CIRCLE
  5
4BF
330
6C
100
AcDbEntity
  8
Widoczne (ISO)
100
AcDbCircle
 10
3116.06930396576
 20
3624.888045273026
 30
0.0
 40
10.00000000000001
  0
CIRCLE
  5
4C0
330
6C
100
AcDbEntity
  8
Widoczne (ISO)
100
AcDbCircle
 10
3174.910803965757
 20
3726.804512866592
 30
0.0
 40
10.00000000000001
  0
CIRCLE
  5
4C1
330
6C
100
AcDbEntity
  8
Widoczne (ISO)
100
AcDbCircle
 10
3838.334490721975
 20
3726.804415319924
 30
0.0
 40
10.00000000000001
  0
CIRCLE
  5
4C2
330
6C
100
AcDbEntity
  8
Widoczne (ISO)
100
AcDbCircle
 10
3897.175990721978
 20
3624.887947726363
 30
0.0
 40
10.00000000000001
  0
CIRCLE
  5
4C3
330
6C
100
AcDbEntity
  8
Widoczne (ISO)
100
AcDbCircle
 10
3565.464062865977
 20
3050.346230296482
 30
0.0
 40
10.0
  0
CIRCLE
  5
4C4
330
6C
100
AcDbEntity
  8
Widoczne (ISO)
100
AcDbCircle
 10
3447.781062865978
 20
3050.346230296478
 30
0.0
 40
10.0
  0
CIRCLE
  5
4C5
330
6C
100
AcDbEntity
  8
Widoczne (ISO)
100
AcDbCircle
 10
3506.622619184571
 20
3467.346230296687
 30
0.0
 40
30.00000000000004
  0
CIRCLE
  5
4C6
330
6C
100
AcDbEntity
  8
Widoczne (ISO)
100
AcDbCircle
 10
3506.622619184572
 20
4105.732896963095
 30
0.0
 40
29.99999999999999
  0
CIRCLE
  5
4C7
330
6C
100
AcDbEntity
  8
Widoczne (ISO)
100
AcDbCircle
 10
2953.763635335941
 20
3148.153047516375
 30
0.0
 40
30.00000000000014
  0
CIRCLE
  5
4C8
330
6C
100
AcDbEntity
  8
Widoczne (ISO)
100
AcDbCircle
 10
4059.481603033192
 20
3148.153047516378
 30
0.0
 40
30.0
  0
LINE
  5
4C9
330
6C
100
AcDbEntity
  8
Widoczne (ISO)
100
AcDbLine
 10
2816.343938499576
 20
3867.568753113573
 30
0.0
 11
2817.769575396867
 21
3866.827014454392
 31
0.0
  0
LINE
  5
4CA
330
6C
100
AcDbEntity
  8
Widoczne (ISO)
100
AcDbLine
 10
2814.930761268224
 20
3866.613357473406
 30
0.0
 11
2816.343938499576
 21
3867.568753113573
 31
0.0
  0
LINE
  5
4CB
330
6C
100
AcDbEntity
  8
Widoczne (ISO)
100
AcDbLine
 10
2814.943220934162
 20
3864.916223174056
 30
0.0
 11
2814.930761268224
 21
3866.613357473406
 31
0.0
  0
LINE
  5
4CC
330
6C
100
AcDbEntity
  8
Widoczne (ISO)
100
AcDbLine
 10
2814.942813050582
 20
3864.971781101233
 30
0.0
 11
2815.398977110337
 21
3864.734445410292
 31
0.0
  0
LINE
  5
4CD
330
6C
100
AcDbEntity
  8
Widoczne (ISO)
100
AcDbLine
 10
2816.368857831453
 20
3864.174484514875
 30
0.0
 11
2814.943220934162
 21
3864.916223174056
 31
0.0
  0
LINE
  5
4CE
330
6C
100
AcDbEntity
  8
Widoczne (ISO)
100
AcDbLine
 10
2816.368857831453
 20
3864.174484514875
 30
0.0
 11
2815.398977110337
 21
3864.734445410292
 31
0.0
  0
LINE
  5
4CF
330
6C
100
AcDbEntity
  8
Widoczne (ISO)
100
AcDbLine
 10
2815.398977110337
 20
3864.734445410292
 30
0.0
 11
2816.812154341689
 21
3865.68984105046
 31
0.0
  0
LINE
  5
4D0
330
6C
100
AcDbEntity
  8
Widoczne (ISO)
100
AcDbLine
 10
2817.782035062805
 20
3865.129880155043
 30
0.0
 11
2816.368857831453
 21
3864.174484514875
 31
0.0
  0
LINE
  5
4D1
330
6C
100
AcDbEntity
  8
Widoczne (ISO)
100
AcDbLine
 10
2817.782035062805
 20
3865.129880155043
 30
0.0
 11
2816.812154341689
 21
3865.68984105046
 31
0.0
  0
LINE
  5
4D2
330
6C
100
AcDbEntity
  8
Widoczne (ISO)
100
AcDbLine
 10
2816.812154341689
 20
3865.68984105046
 30
0.0
 11
2816.800102559331
 21
3867.331417422632
 31
0.0
  0
LINE
  5
4D3
330
6C
100
AcDbEntity
  8
Widoczne (ISO)
100
AcDbLine
 10
2817.769575396867
 20
3866.827014454392
 30
0.0
 11
2817.782035062805
 21
3865.129880155043
 31
0.0
  0
ELLIPSE
  5
4D4
330
6C
100
AcDbEntity
  8
Widoczne (ISO)
100
AcDbEllipse
 10
2816.194751378662
 20
3865.964945630127
 30
0.0
 11
-2.499999999999924
 21
-4.330127018922119
 31
0.0
210
0.0
220
0.0
230
1.0
 40
0.927707759445138
 41
3.141592653590079
 42
6.283185307179872
  0
ELLIPSE
  5
4D5
330
6C
100
AcDbEntity
  8
Widoczne (ISO)
100
AcDbEllipse
 10
2816.356398165515
 20
3865.871618814225
 30
0.0
 11
2.499999999997567
 21
4.330127018923483
 31
0.0
210
0.0
220
0.0
230
1.0
 40
0.9277077594451379
 41
0.0
 42
6.283185307179586
  0
LINE
  5
4D6
330
6C
100
AcDbEntity
  8
Widoczne (ISO)
100
AcDbLine
 10
2818.694751378661
 20
3870.295072649049
 30
0.0
 11
2818.856398165515
 21
3870.201745833146
 31
0.0
  0
LINE
  5
4D7
330
6C
100
AcDbEntity
  8
Widoczne (ISO)
100
AcDbLine
 10
2813.694751378662
 20
3861.634818611205
 30
0.0
 11
2813.856398165514
 21
3861.541491795302
 31
0.0
  0
LINE
  5
4D8
330
6C
100
AcDbEntity
  8
Widoczne (ISO)
100
AcDbLine
 10
2826.178515229335
 20
3802.86157678143
 30
0.0
 11
2827.117733668668
 21
3804.286816063274
 31
0.0
  0
LINE
  5
4D9
330
6C
100
AcDbEntity
  8
Widoczne (ISO)
100
AcDbLine
 10
2826.844578538095
 20
3801.562642665972
 30
0.0
 11
2826.178515229335
 21
3802.86157678143
 31
0.0
  0
LINE
  5
4DA
330
6C
100
AcDbEntity
  8
Widoczne (ISO)
100
AcDbLine
 10
2826.192316218247
 20
3802.834662560078
 30
0.0
 11
2827.356883707135
 21
3802.926291889713
 31
0.0
  0
LINE
  5
4DB
330
6C
100
AcDbEntity
  8
Widoczne (ISO)
100
AcDbLine
 10
2828.449860286188
 20
3801.68894783236
 30
0.0
 11
2826.844578538095
 21
3801.562642665972
 31
0.0
  0
LINE
  5
4DC
330
6C
100
AcDbEntity
  8
Widoczne (ISO)
100
AcDbLine
 10
2828.449860286188
 20
3801.68894783236
 30
0.0
 11
2827.356883707135
 21
3802.926291889713
 31
0.0
  0
LINE
  5
4DD
330
6C
100
AcDbEntity
  8
Widoczne (ISO)
100
AcDbLine
 10
2827.356883707135
 20
3802.926291889713
 30
0.0
 11
2828.296102146468
 21
3804.351531171558
 31
0.0
  0
LINE
  5
4DE
330
6C
100
AcDbEntity
  8
Widoczne (ISO)
100
AcDbLine
 10
2829.389078725521
 20
3803.114187114205
 30
0.0
 11
2828.449860286188
 21
3801.68894783236
 31
0.0
  0
LINE
  5
4DF
330
6C
100
AcDbEntity
  8
Widoczne (ISO)
100
AcDbLine
 10
2829.389078725521
 20
3803.114187114205
 30
0.0
 11
2828.296102146468
 21
3804.351531171558
 31
0.0
  0
LINE
  5
4E0
330
6C
100
AcDbEntity
  8
Widoczne (ISO)
100
AcDbLine
 10
2828.296102146468
 20
3804.351531171558
 30
0.0
 11
2828.282301157555
 21
3804.378445392909
 31
0.0
  0
LINE
  5
4E1
330
6C
100
AcDbEntity
  8
Widoczne (ISO)
100
AcDbLine
 10
2828.723015416761
 20
3804.413121229662
 30
0.0
 11
2829.389078725521
 21
3803.114187114205
 31
0.0
  0
LINE
  5
4E2
330
6C
100
AcDbEntity
  8
Widoczne (ISO)
100
AcDbLine
 10
2827.117733668668
 20
3804.286816063274
 30
0.0
 11
2828.723015416761
 21
3804.413121229662
 31
0.0
  0
ELLIPSE
  5
4E3
330
6C
100
AcDbEntity
  8
Widoczne (ISO)
100
AcDbEllipse
 10
2827.601634214252
 20
3803.194105957376
 30
0.0
 11
-3.747382095168525
 21
-3.310155197692308
 31
0.0
210
0.0
220
0.0
230
1.0
 40
0.8349572099064928
 41
3.141592653589874
 42
6.283185307179667
  0
ELLIPSE
  5
4E4
330
6C
100
AcDbEntity
  8
Widoczne (ISO)
100
AcDbEllipse
 10
2827.783796977428
 20
3802.987881947817
 30
0.0
 11
-3.747382095167596
 21
-3.310155197693363
 31
0.0
210
0.0
220
0.0
230
1.0
 40
0.8349572099064927
 41
0.0
 42
6.283185307179586
  0
LINE
  5
4E5
330
6C
100
AcDbEntity
  8
Widoczne (ISO)
100
AcDbLine
 10
2831.349016309421
 20
3806.504261155068
 30
0.0
 11
2831.531179072597
 21
3806.298037145509
 31
0.0
  0
LINE
  5
4E6
330
6C
100
AcDbEntity
  8
Widoczne (ISO)
100
AcDbLine
 10
2823.854252119084
 20
3799.883950759684
 30
0.0
 11
2824.03641488226
 21
3799.677726750125
 31
0.0
  0
LINE
  5
4E7
330
6C
100
AcDbEntity
  8
Widoczne (ISO)
100
AcDbLine
 10
2875.706223533255
 20
3886.371410227932
 30
0.0
 11
2876.36742061481
 21
3887.95716521553
 31
0.0
  0
LINE
  5
4E8
330
6C
100
AcDbEntity
  8
Widoczne (ISO)
100
AcDbLine
 10
2877.324283209672
 20
3886.043536773408
 30
0.0
 11
2875.706223533255
 21
3886.371410227932
 31
0.0
  0
LINE
  5
4E9
330
6C
100
AcDbEntity
  8
Widoczne (ISO)
100
AcDbLine
 10
2877.985480291226
 20
3887.629291761006
 30
0.0
 11
2877.324283209672
 21
3886.043536773408
 31
0.0
  0
LINE
  5
4EA
330
6C
100
AcDbEntity
  8
Widoczne (ISO)
100
AcDbLine
 10
2877.985480291226
 20
3887.629291761006
 30
0.0
 11
2876.36742061481
 21
3887.95716521553
 31
0.0
  0
LINE
  5
4EB
330
6C
100
AcDbEntity
  8
Widoczne (ISO)
100
AcDbLine
 10
2876.36742061481
 20
3887.95716521553
 30
0.0
 11
2875.873104903554
 21
3888.81090937067
 31
0.0
  0
LINE
  5
4EC
330
6C
100
AcDbEntity
  8
Widoczne (ISO)
100
AcDbLine
 10
2877.190208264222
 20
3889.002824564722
 30
0.0
 11
2877.985480291226
 21
3887.629291761006
 31
0.0
  0
LINE
  5
4ED
330
6C
100
AcDbEntity
  8
Widoczne (ISO)
100
AcDbLine
 10
2875.733739155664
 20
3888.79060238084
 30
0.0
 11
2877.190208264222
 21
3889.002824564722
 31
0.0
  0
LINE
  5
4EE
330
6C
100
AcDbEntity
  8
Widoczne (ISO)
100
AcDbLine
 10
2875.07254207411
 20
3887.204847393242
 30
0.0
 11
2875.733739155664
 21
3888.79060238084
 31
0.0
  0
LINE
  5
4EF
330
6C
100
AcDbEntity
  8
Widoczne (ISO)
100
AcDbLine
 10
2875.867814101113
 20
3885.831314589526
 30
0.0
 11
2875.072542074109
 21
3887.204847393242
 31
0.0
  0
LINE
  5
4F0
330
6C
100
AcDbEntity
  8
Widoczne (ISO)
100
AcDbLine
 10
2875.566857785365
 20
3886.351103238101
 30
0.0
 11
2875.706223533255
 21
3886.371410227932
 31
0.0
  0
LINE
  5
4F1
330
6C
100
AcDbEntity
  8
Widoczne (ISO)
100
AcDbLine
 10
2877.324283209672
 20
3886.043536773408
 30
0.0
 11
2875.867814101113
 21
3885.831314589526
 31
0.0
  0
ELLIPSE
  5
4F2
330
6C
100
AcDbEntity
  8
Widoczne (ISO)
100
AcDbEllipse
 10
2876.259334569932
 20
3887.471715152878
 30
0.0
 11
-0.9929874440861832
 21
-4.900405690949095
 31
0.0
210
0.0
220
0.0
230
0.9999999999999998
 40
0.8349572099064031
 41
3.141592653590303
 42
6.283185307180096
  0
ELLIPSE
  5
4F3
330
6C
100
AcDbEntity
  8
Widoczne (ISO)
100
AcDbEllipse
 10
2876.529011182668
 20
3887.417069577124
 30
0.0
 11
0.9929874440840432
 21
4.900405690949529
 31
0.0
210
0.0
220
0.0
230
0.9999999999999998
 40
0.8349572099064033
 41
0.0
 42
6.283185307179586
  0
LINE
  5
4F4
330
6C
100
AcDbEntity
  8
Widoczne (ISO)
100
AcDbLine
 10
2877.252322014017
 20
3892.372120843827
 30
0.0
 11
2877.521998626754
 21
3892.317475268074
 31
0.0
  0
LINE
  5
4F5
330
6C
100
AcDbEntity
  8
Widoczne (ISO)
100
AcDbLine
 10
2875.266347125846
 20
3882.571309461929
 30
0.0
 11
2875.536023738582
 21
3882.516663886175
 31
0.0
  0
LINE
  5
4F6
330
6C
100
AcDbEntity
  8
Widoczne (ISO)
100
AcDbLine
 10
4198.364831453467
 20
3865.033842051771
 30
0.0
 11
4197.009648483002
 21
3864.170073611736
 31
0.0
  0
LINE
  5
4F7
330
6C
100
AcDbEntity
  8
Widoczne (ISO)
100
AcDbLine
 10
4198.244023174093
 20
3866.735387254257
 30
0.0
 11
4198.364831453467
 21
3865.033842051771
 31
0.0
  0
LINE
  5
4F8
330
6C
100
AcDbEntity
  8
Widoczne (ISO)
100
AcDbLine
 10
4196.768031924255
 20
3867.573164016706
 30
0.0
 11
4198.244023174093
 21
3866.735387254257
 31
0.0
  0
LINE
  5
4F9
330
6C
100
AcDbEntity
  8
Widoczne (ISO)
100
AcDbLine
 10
4196.816350442362
 20
3867.545738290658
 30
0.0
 11
4196.382729674906
 21
3867.269356472088
 31
0.0
  0
LINE
  5
4FA
330
6C
100
AcDbEntity
  8
Widoczne (ISO)
100
AcDbLine
 10
4195.41284895379
 20
3866.70939557667
 30
0.0
 11
4196.768031924254
 21
3867.573164016706
 31
0.0
  0
LINE
  5
4FB
330
6C
100
AcDbEntity
  8
Widoczne (ISO)
100
AcDbLine
 10
4195.41284895379
 20
3866.70939557667
 30
0.0
 11
4196.382729674906
 21
3867.269356472088
 31
0.0
  0
LINE
  5
4FC
330
6C
100
AcDbEntity
  8
Widoczne (ISO)
100
AcDbLine
 10
4196.382729674906
 20
3867.269356472088
 30
0.0
 11
4196.50353795428
 21
3865.567811269603
 31
0.0
  0
LINE
  5
4FD
330
6C
100
AcDbEntity
  8
Widoczne (ISO)
100
AcDbLine
 10
4195.533657233164
 20
3865.007850374185
 30
0.0
 11
4195.41284895379
 21
3866.70939557667
 31
0.0
  0
LINE
  5
4FE
330
6C
100
AcDbEntity
  8
Widoczne (ISO)
100
AcDbLine
 10
4195.533657233164
 20
3865.007850374185
 30
0.0
 11
4196.50353795428
 21
3865.567811269603
 31
0.0
  0
LINE
  5
4FF
330
6C
100
AcDbEntity
  8
Widoczne (ISO)
100
AcDbLine
 10
4196.50353795428
 20
3865.567811269603
 30
0.0
 11
4197.931210686011
 21
3864.7574602332
 31
0.0
  0
LINE
  5
500
330
6C
100
AcDbEntity
  8
Widoczne (ISO)
100
AcDbLine
 10
4197.009648483002
 20
3864.170073611736
 30
0.0
 11
4195.533657233164
 21
3865.007850374185
 31
0.0
  0
ELLIPSE
  5
501
330
6C
100
AcDbEntity
  8
Widoczne (ISO)
100
AcDbEllipse
 10
4197.050486990481
 20
3865.964945630123
 30
0.0
 11
-2.499999999999847
 21
4.330127018922167
 31
0.0
210
0.0
220
0.0
230
0.9999999999999998
 40
0.9277077594451384
 41
3.141592653589587
 42
6.283185307179381
  0
ELLIPSE
  5
502
330
6C
100
AcDbEntity
  8
Widoczne (ISO)
100
AcDbEllipse
 10
4196.888840203629
 20
3865.87161881422
 30
0.0
 11
2.499999999996753
 21
-4.330127018923953
 31
0.0
210
0.0
220
0.0
230
1.0
 40
0.9277077594451384
 41
0.0
 42
6.283185307179586
  0
LINE
  5
503
330
6C
100
AcDbEntity
  8
Widoczne (ISO)
100
AcDbLine
 10
4199.550486990482
 20
3861.634818611202
 30
0.0
 11
4199.388840203629
 21
3861.541491795298
 31
0.0
  0
LINE
  5
504
330
6C
100
AcDbEntity
  8
Widoczne (ISO)
100
AcDbLine
 10
4194.550486990482
 20
3870.295072649046
 30
0.0
 11
4194.388840203629
 21
3870.201745833142
 31
0.0
  0
LINE
  5
505
330
6C
100
AcDbEntity
  8
Widoczne (ISO)
100
AcDbLine
 10
4137.4094845778
 20
3888.870436934393
 30
0.0
 11
4138.174168782682
 21
3887.344430265306
 31
0.0
  0
LINE
  5
506
330
6C
100
AcDbEntity
  8
Widoczne (ISO)
100
AcDbLine
 10
4135.951542981592
 20
3888.943076246206
 30
0.0
 11
4137.4094845778
 21
3888.870436934393
 31
0.0
  0
LINE
  5
507
330
6C
100
AcDbEntity
  8
Widoczne (ISO)
100
AcDbLine
 10
4137.379275683932
 20
3888.871942038071
 30
0.0
 11
4136.876345266684
 21
3887.817582343455
 31
0.0
  0
LINE
  5
508
330
6C
100
AcDbEntity
  8
Widoczne (ISO)
100
AcDbLine
 10
4135.258285590267
 20
3887.489708888931
 30
0.0
 11
4135.951542981592
 21
3888.943076246206
 31
0.0
  0
LINE
  5
509
330
6C
100
AcDbEntity
  8
Widoczne (ISO)
100
AcDbLine
 10
4135.258285590267
 20
3887.489708888931
 30
0.0
 11
4136.876345266683
 21
3887.817582343455
 31
0.0
  0
LINE
  5
50A
330
6C
100
AcDbEntity
  8
Widoczne (ISO)
100
AcDbLine
 10
4136.876345266684
 20
3887.817582343455
 30
0.0
 11
4137.641029471565
 21
3886.291575674368
 31
0.0
  0
LINE
  5
50B
330
6C
100
AcDbEntity
  8
Widoczne (ISO)
100
AcDbLine
 10
4136.022969795148
 20
3885.963702219844
 30
0.0
 11
4135.258285590267
 21
3887.489708888931
 31
0.0
  0
LINE
  5
50C
330
6C
100
AcDbEntity
  8
Widoczne (ISO)
100
AcDbLine
 10
4136.022969795148
 20
3885.963702219844
 30
0.0
 11
4137.641029471565
 21
3886.291575674368
 31
0.0
  0
LINE
  5
50D
330
6C
100
AcDbEntity
  8
Widoczne (ISO)
100
AcDbLine
 10
4137.641029471565
 20
3886.291575674368
 30
0.0
 11
4137.671238365434
 21
3886.290070570689
 31
0.0
  0
LINE
  5
50E
330
6C
100
AcDbEntity
  8
Widoczne (ISO)
100
AcDbLine
 10
4137.480911391357
 20
3885.891062908032
 30
0.0
 11
4136.022969795148
 21
3885.963702219844
 31
0.0
  0
LINE
  5
50F
330
6C
100
AcDbEntity
  8
Widoczne (ISO)
100
AcDbLine
 10
4138.174168782682
 20
3887.344430265306
 30
0.0
 11
4137.480911391357
 21
3885.891062908032
 31
0.0
  0
ELLIPSE
  5
510
330
6C
100
AcDbEntity
  8
Widoczne (ISO)
100
AcDbEllipse
 10
4136.98590379921
 20
3887.471715152872
 30
0.0
 11
-0.9929874440862629
 21
4.90040569094908
 31
0.0
210
0.0
220
0.0
230
1.0
 40
0.8349572099064022
 41
3.141592653589263
 42
6.283185307179055
  0
ELLIPSE
  5
511
330
6C
100
AcDbEntity
  8
Widoczne (ISO)
100
AcDbEllipse
 10
4136.716227186474
 20
3887.417069577118
 30
0.0
 11
-0.9929874440841228
 21
4.900405690949512
 31
0.0
210
0.0
220
0.0
230
0.9999999999999998
 40
0.8349572099064021
 41
0.0
 42
6.283185307179586
  0
LINE
  5
512
330
6C
100
AcDbEntity
  8
Widoczne (ISO)
100
AcDbLine
 10
4137.978891243298
 20
3882.571309461923
 30
0.0
 11
4137.709214630561
 21
3882.51666388617
 31
0.0
  0
LINE
  5
513
330
6C
100
AcDbEntity
  8
Widoczne (ISO)
100
AcDbLine
 10
4135.992916355125
 20
3892.372120843822
 30
0.0
 11
4135.723239742389
 21
3892.317475268067
 31
0.0
  0
LINE
  5
514
330
6C
100
AcDbEntity
  8
Widoczne (ISO)
100
AcDbLine
 10
4184.967267656319
 20
3804.223266628719
 30
0.0
 11
4186.00997321898
 21
3802.857775665386
 31
0.0
  0
LINE
  5
515
330
6C
100
AcDbEntity
  8
Widoczne (ISO)
100
AcDbLine
 10
4183.874291077266
 20
3802.985922571366
 30
0.0
 11
4184.967267656319
 21
3804.223266628719
 31
0.0
  0
LINE
  5
516
330
6C
100
AcDbEntity
  8
Widoczne (ISO)
100
AcDbLine
 10
4184.916996639926
 20
3801.620431608033
 30
0.0
 11
4183.874291077266
 21
3802.985922571366
 31
0.0
  0
LINE
  5
517
330
6C
100
AcDbEntity
  8
Widoczne (ISO)
100
AcDbLine
 10
4184.916996639926
 20
3801.620431608033
 30
0.0
 11
4186.00997321898
 21
3802.857775665386
 31
0.0
  0
LINE
  5
518
330
6C
100
AcDbEntity
  8
Widoczne (ISO)
100
AcDbLine
 10
4186.00997321898
 20
3802.857775665386
 30
0.0
 11
4186.996495201291
 21
3802.858993551253
 31
0.0
  0
LINE
  5
519
330
6C
100
AcDbEntity
  8
Widoczne (ISO)
100
AcDbLine
 10
4186.504146954378
 20
3801.62239098448
 30
0.0
 11
4184.916996639926
 21
3801.620431608033
 31
0.0
  0
LINE
  5
51A
330
6C
100
AcDbEntity
  8
Widoczne (ISO)
100
AcDbLine
 10
4187.04859170617
 20
3802.98984132426
 30
0.0
 11
4186.504146954378
 21
3801.62239098448
 31
0.0
  0
LINE
  5
51B
330
6C
100
AcDbEntity
  8
Widoczne (ISO)
100
AcDbLine
 10
4186.005886143508
 20
3804.355332287593
 30
0.0
 11
4187.04859170617
 21
3802.98984132426
 31
0.0
  0
LINE
  5
51C
330
6C
100
AcDbEntity
  8
Widoczne (ISO)
100
AcDbLine
 10
4184.418735829057
 20
3804.353372911146
 30
0.0
 11
4186.005886143508
 21
3804.355332287593
 31
0.0
  0
LINE
  5
51D
330
6C
100
AcDbEntity
  8
Widoczne (ISO)
100
AcDbLine
 10
4185.019364161198
 20
3804.354114401725
 30
0.0
 11
4184.967267656319
 21
3804.223266628719
 31
0.0
  0
LINE
  5
51E
330
6C
100
AcDbEntity
  8
Widoczne (ISO)
100
AcDbLine
 10
4183.874291077266
 20
3802.985922571366
 30
0.0
 11
4184.418735829057
 21
3804.353372911146
 31
0.0
  0
ELLIPSE
  5
51F
330
6C
100
AcDbEntity
  8
Widoczne (ISO)
100
AcDbEllipse
 10
4185.643604154893
 20
3803.194105957372
 30
0.0
 11
-3.74738209516866
 21
3.310155197692159
 31
0.0
210
0.0
220
0.0
230
1.0
 40
0.8349572099064941
 41
3.141592653589473
 42
6.283185307179266
  0
ELLIPSE
  5
520
330
6C
100
AcDbEntity
  8
Widoczne (ISO)
100
AcDbEllipse
 10
4185.461441391718
 20
3802.987881947814
 30
0.0
 11
3.74738209516766
 21
-3.310155197693292
 31
0.0
210
0.0
220
0.0
230
1.0
 40
0.8349572099064943
 41
0.0
 42
6.283185307179586
  0
LINE
  5
521
330
6C
100
AcDbEntity
  8
Widoczne (ISO)
100
AcDbLine
 10
4189.390986250062
 20
3799.88395075968
 30
0.0
 11
4189.208823486886
 21
3799.677726750121
 31
0.0
  0
LINE
  5
522
330
6C
100
AcDbEntity
  8
Widoczne (ISO)
100
AcDbLine
 10
4181.896222059724
 20
3806.504261155064
 30
0.0
 11
4181.714059296548
 21
3806.298037145506
 31
0.0
  0
LINE
  5
523
330
6C
100
AcDbEntity
  8
Widoczne (ISO)
100
AcDbLine
 10
3505.159087600668
 20
2669.436095723745
 30
0.0
 11
3505.088633673842
 21
2671.041602822961
 31
0.0
  0
LINE
  5
524
330
6C
100
AcDbEntity
  8
Widoczne (ISO)
100
AcDbLine
 10
3506.693073111394
 20
2668.689946161429
 30
0.0
 11
3505.159087600668
 21
2669.436095723745
 31
0.0
  0
LINE
  5
525
330
6C
100
AcDbEntity
  8
Widoczne (ISO)
100
AcDbLine
 10
3508.156604695295
 20
2669.549303698327
 30
0.0
 11
3506.693073111394
 21
2668.689946161429
 31
0.0
  0
LINE
  5
526
330
6C
100
AcDbEntity
  8
Widoczne (ISO)
100
AcDbLine
 10
3508.108694060768
 20
2669.521171497196
 30
0.0
 11
3508.08615076847
 21
2670.034889006708
 31
0.0
  0
LINE
  5
527
330
6C
100
AcDbEntity
  8
Widoczne (ISO)
100
AcDbLine
 10
3508.08615076847
 20
2671.154810797544
 30
0.0
 11
3508.156604695295
 21
2669.549303698328
 31
0.0
  0
LINE
  5
528
330
6C
100
AcDbEntity
  8
Widoczne (ISO)
100
AcDbLine
 10
3508.08615076847
 20
2671.154810797544
 30
0.0
 11
3508.08615076847
 21
2670.034889006708
 31
0.0
  0
LINE
  5
529
330
6C
100
AcDbEntity
  8
Widoczne (ISO)
100
AcDbLine
 10
3508.08615076847
 20
2670.034889006708
 30
0.0
 11
3506.552165257743
 21
2670.781038569024
 31
0.0
  0
LINE
  5
52A
330
6C
100
AcDbEntity
  8
Widoczne (ISO)
100
AcDbLine
 10
3506.552165257743
 20
2671.900960359861
 30
0.0
 11
3508.08615076847
 21
2671.154810797544
 31
0.0
  0
LINE
  5
52B
330
6C
100
AcDbEntity
  8
Widoczne (ISO)
100
AcDbLine
 10
3506.552165257743
 20
2671.900960359861
 30
0.0
 11
3506.552165257743
 21
2670.781038569024
 31
0.0
  0
LINE
  5
52C
330
6C
100
AcDbEntity
  8
Widoczne (ISO)
100
AcDbLine
 10
3506.552165257743
 20
2670.781038569024
 30
0.0
 11
3505.13654430837
 21
2669.949813233256
 31
0.0
  0
LINE
  5
52D
330
6C
100
AcDbEntity
  8
Widoczne (ISO)
100
AcDbLine
 10
3505.088633673842
 20
2671.041602822961
 30
0.0
 11
3506.552165257743
 21
2671.900960359861
 31
0.0
  0
ELLIPSE
  5
52E
330
6C
100
AcDbEntity
  8
Widoczne (ISO)
100
AcDbEllipse
 10
3506.622619184569
 20
2670.108799628839
 30
0.0
 11
4.999999999999897
 21
-0.0000000000001174
 31
0.0
210
0.0
220
0.0
230
1.0
 40
0.9277077594449732
 41
3.141592653589823
 42
6.283185307179616
  0
ELLIPSE
  5
52F
330
6C
100
AcDbEntity
  8
Widoczne (ISO)
100
AcDbEllipse
 10
3506.622619184569
 20
2670.295453260645
 30
0.0
 11
-4.999999999999897
 21
0.0000000000004528
 31
0.0
210
0.0
220
0.0
230
1.0
 40
0.9277077594449735
 41
0.0
 42
6.283185307179586
  0
LINE
  5
530
330
6C
100
AcDbEntity
  8
Widoczne (ISO)
100
AcDbLine
 10
3501.622619184569
 20
2670.108799628839
 30
0.0
 11
3501.622619184569
 21
2670.295453260645
 31
0.0
  0
LINE
  5
531
330
6C
100
AcDbEntity
  8
Widoczne (ISO)
100
AcDbLine
 10
3511.622619184568
 20
2670.108799628839
 30
0.0
 11
3511.622619184568
 21
2670.295453260644
 31
0.0
  0
LINE
  5
532
330
6C
100
AcDbEntity
  8
Widoczne (ISO)
100
AcDbLine
 10
3556.279857746576
 20
2710.306677173244
 30
0.0
 11
3554.575955102361
 21
2710.407444560487
 31
0.0
  0
LINE
  5
533
330
6C
100
AcDbEntity
  8
Widoczne (ISO)
100
AcDbLine
 10
3557.071736034024
 20
2711.532971976887
 30
0.0
 11
3556.279857746576
 21
2710.306677173244
 31
0.0
  0
LINE
  5
534
330
6C
100
AcDbEntity
  8
Widoczne (ISO)
100
AcDbLine
 10
3556.296265651533
 20
2710.332086290914
 30
0.0
 11
3555.634628579893
 21
2711.294816655894
 31
0.0
  0
LINE
  5
535
330
6C
100
AcDbEntity
  8
Widoczne (ISO)
100
AcDbLine
 10
3556.159711677257
 20
2712.860034167773
 30
0.0
 11
3557.071736034024
 21
2711.532971976887
 31
0.0
  0
LINE
  5
536
330
6C
100
AcDbEntity
  8
Widoczne (ISO)
100
AcDbLine
 10
3556.159711677257
 20
2712.860034167773
 30
0.0
 11
3555.634628579893
 21
2711.294816655894
 31
0.0
  0
LINE
  5
537
330
6C
100
AcDbEntity
  8
Widoczne (ISO)
100
AcDbLine
 10
3555.634628579893
 20
2711.294816655894
 30
0.0
 11
3553.930725935678
 21
2711.395584043136
 31
0.0
  0
LINE
  5
538
330
6C
100
AcDbEntity
  8
Widoczne (ISO)
100
AcDbLine
 10
3554.455809033041
 20
2712.960801555016
 30
0.0
 11
3556.159711677257
 21
2712.860034167773
 31
0.0
  0
LINE
  5
539
330
6C
100
AcDbEntity
  8
Widoczne (ISO)
100
AcDbLine
 10
3554.455809033041
 20
2712.960801555016
 30
0.0
 11
3553.930725935678
 21
2711.395584043136
 31
0.0
  0
LINE
  5
53A
330
6C
100
AcDbEntity
  8
Widoczne (ISO)
100
AcDbLine
 10
3553.930725935678
 20
2711.395584043136
 30
0.0
 11
3553.914318030722
 21
2711.370174925467
 31
0.0
  0
LINE
  5
53B
330
6C
100
AcDbEntity
  8
Widoczne (ISO)
100
AcDbLine
 10
3553.663930745595
 20
2711.734506751373
 30
0.0
 11
3554.455809033041
 21
2712.960801555016
 31
0.0
  0
LINE
  5
53C
330
6C
100
AcDbEntity
  8
Widoczne (ISO)
100
AcDbLine
 10
3554.575955102361
 20
2710.407444560487
 30
0.0
 11
3553.663930745595
 21
2711.734506751373
 31
0.0
  0
ELLIPSE
  5
53D
330
6C
100
AcDbEntity
  8
Widoczne (ISO)
100
AcDbEllipse
 10
3555.280319540248
 20
2711.372869778817
 30
0.0
 11
4.740369539254864
 21
-1.590250493256853
 31
0.0
210
0.0
220
0.0
230
0.9999999999999998
 40
0.8349572099062164
 41
3.14159265358981
 42
6.283185307179603
  0
ELLIPSE
  5
53E
330
6C
100
AcDbEntity
  8
Widoczne (ISO)
100
AcDbEllipse
 10
3555.367833389809
 20
2711.63373936413
 30
0.0
 11
4.740369539255099
 21
-1.590250493256153
 31
0.0
210
0.0
220
0.0
230
1.0
 40
0.8349572099062164
 41
0.0
 42
6.283185307179586
  0
LINE
  5
53F
330
6C
100
AcDbEntity
  8
Widoczne (ISO)
100
AcDbLine
 10
3550.539950000994
 20
2712.963120272074
 30
0.0
 11
3550.627463850555
 21
2713.223989857387
 31
0.0
  0
LINE
  5
540
330
6C
100
AcDbEntity
  8
Widoczne (ISO)
100
AcDbLine
 10
3560.020689079503
 20
2709.78261928556
 30
0.0
 11
3560.108202929064
 21
2710.043488870873
 31
0.0
  0
LINE
  5
541
330
6C
100
AcDbEntity
  8
Widoczne (ISO)
100
AcDbLine
 10
3459.194366364137
 20
2711.444014032413
 30
0.0
 11
3457.490463719922
 21
2711.223750008148
 31
0.0
  0
LINE
  5
542
330
6C
100
AcDbEntity
  8
Widoczne (ISO)
100
AcDbLine
 10
3458.669283266773
 20
2713.009231544292
 30
0.0
 11
3459.194366364137
 21
2711.444014032413
 31
0.0
  0
LINE
  5
543
330
6C
100
AcDbEntity
  8
Widoczne (ISO)
100
AcDbLine
 10
3456.965380622558
 20
2712.788967520027
 30
0.0
 11
3458.669283266773
 21
2713.009231544292
 31
0.0
  0
LINE
  5
544
330
6C
100
AcDbEntity
  8
Widoczne (ISO)
100
AcDbLine
 10
3456.965380622558
 20
2712.788967520027
 30
0.0
 11
3457.490463719922
 21
2711.223750008147
 31
0.0
  0
LINE
  5
545
330
6C
100
AcDbEntity
  8
Widoczne (ISO)
100
AcDbLine
 10
3457.490463719922
 20
2711.223750008148
 30
0.0
 11
3456.998257448866
 21
2710.368787967141
 31
0.0
  0
LINE
  5
546
330
6C
100
AcDbEntity
  8
Widoczne (ISO)
100
AcDbLine
 10
3456.173502335111
 20
2711.413475339864
 30
0.0
 11
3456.965380622558
 21
2712.788967520027
 31
0.0
  0
LINE
  5
547
330
6C
100
AcDbEntity
  8
Widoczne (ISO)
100
AcDbLine
 10
3457.085526691879
 20
2710.258247183967
 30
0.0
 11
3456.173502335111
 21
2711.413475339865
 31
0.0
  0
LINE
  5
548
330
6C
100
AcDbEntity
  8
Widoczne (ISO)
100
AcDbLine
 10
3458.789429336094
 20
2710.478511208231
 30
0.0
 11
3457.085526691879
 21
2710.258247183967
 31
0.0
  0
LINE
  5
549
330
6C
100
AcDbEntity
  8
Widoczne (ISO)
100
AcDbLine
 10
3459.581307623541
 20
2711.854003388394
 30
0.0
 11
3458.789429336094
 21
2710.478511208231
 31
0.0
  0
LINE
  5
54A
330
6C
100
AcDbEntity
  8
Widoczne (ISO)
100
AcDbLine
 10
3459.28163560715
 20
2711.333473249237
 30
0.0
 11
3459.194366364137
 21
2711.444014032413
 31
0.0
  0
LINE
  5
54B
330
6C
100
AcDbEntity
  8
Widoczne (ISO)
100
AcDbLine
 10
3458.669283266773
 20
2713.009231544292
 30
0.0
 11
3459.581307623541
 21
2711.854003388394
 31
0.0
  0
ELLIPSE
  5
54C
330
6C
100
AcDbEntity
  8
Widoczne (ISO)
100
AcDbEllipse
 10
3457.964918828886
 20
2711.372869778816
 30
0.0
 11
4.740369539254866
 21
1.590250493256855
 31
0.0
210
0.0
220
0.0
230
1.0
 40
0.8349572099062172
 41
3.141592653589786
 42
6.283185307179579
  0
ELLIPSE
  5
54D
330
6C
100
AcDbEntity
  8
Widoczne (ISO)
100
AcDbEllipse
 10
3457.877404979326
 20
2711.633739364129
 30
0.0
 11
-4.740369539255069
 21
-1.590250493256253
 31
0.0
210
0.0
220
0.0
230
1.0
 40
0.8349572099062172
 41
0.0
 42
6.283185307179586
  0
LINE
  5
54E
330
6C
100
AcDbEntity
  8
Widoczne (ISO)
100
AcDbLine
 10
3453.224549289632
 20
2709.782619285559
 30
0.0
 11
3453.137035440072
 21
2710.043488870872
 31
0.0
  0
LINE
  5
54F
330
6C
100
AcDbEntity
  8
Widoczne (ISO)
100
AcDbLine
 10
3462.705288368141
 20
2712.963120272073
 30
0.0
 11
3462.617774518581
 21
2713.223989857386
 31
0.0
  0
ARC
  5
550
330
6C
100
AcDbEntity
  8
Widoczne (ISO)
100
AcDbCircle
 10
2726.319137888634
 20
3917.85465527197
 30
0.0
 40
1774.999999999999
100
AcDbArc
 50
90.47104746344583
 51
209.5289595489321
  0
ARC
  5
551
330
6C
100
AcDbEntity
  8
Widoczne (ISO)
100
AcDbCircle
 10
3506.622619184572
 20
4105.732896962823
 30
0.0
 40
1774.999999999999
100
AcDbArc
 50
63.39553085574826
 51
116.6044691442515
  0
ARC
  5
552
330
6C
100
AcDbEntity
  8
Widoczne (ISO)
100
AcDbCircle
 10
2953.763635335944
 20
3148.153047516105
 30
0.0
 40
1775.000000000001
100
AcDbArc
 50
183.3955418362988
 51
236.6044580589631
  0
ARC
  5
553
330
6C
100
AcDbEntity
  8
Widoczne (ISO)
100
AcDbCircle
 10
4286.926100480509
 20
3917.854655271969
 30
0.0
 40
1774.999999999999
100
AcDbArc
 50
330.4710404510672
 51
89.52895253655405
  0
ARC
  5
554
330
6C
100
AcDbEntity
  8
Widoczne (ISO)
100
AcDbCircle
 10
3506.622619184569
 20
2566.329380344533
 30
0.0
 40
1774.999999999999
100
AcDbArc
 50
210.4710347456635
 51
329.5289652543368
  0
ARC
  5
555
330
6C
100
AcDbEntity
  8
Widoczne (ISO)
100
AcDbCircle
 10
4059.481603033191
 20
3148.153047516107
 30
0.0
 40
1774.999999999999
100
AcDbArc
 50
303.3955419410371
 51
356.6044581637005
  0
ELLIPSE
  5
556
330
6C
100
AcDbEntity
  8
Widoczne wąskie (ISO)
100
AcDbEllipse
 10
3506.622619184572
 20
2294.525449143434
 30
0.0
 11
-0.0000000000002712
 21
44.80877932776007
 31
0.0
210
0.0
220
0.0
230
1.0
 40
0.8480480961564182
 41
1.583257868952114
 42
4.69992743822749
  0
ELLIPSE
  5
557
330
6C
100
AcDbEntity
  8
Widoczne wąskie (ISO)
100
AcDbEllipse
 10
2490.930028620004
 20
4053.756620872518
 30
0.0
 11
38.80554121041139
 21
-22.4043896638798
 31
0.0
210
0.0
220
0.0
230
1.0
 40
0.8480480961564181
 41
1.583257868952106
 42
4.69992743822746
  0
ELLIPSE
  5
558
330
6C
100
AcDbEntity
  8
Widoczne wąskie (ISO)
100
AcDbEllipse
 10
4522.315209749138
 20
4053.756620872518
 30
0.0
 11
-38.80554121041112
 21
-22.40438966388026
 31
0.0
210
0.0
220
0.0
230
1.0
 40
0.8480480961564184
 41
1.583257868952109
 42
4.699927438227463
  0
DIMENSION
  5
68E
330
6C
100
AcDbEntity
  8
Wymiar (ISO)
100
AcDbDimension
  2
*D6
 10
6375.729848580727
 20
791.3293803445323
 30
0.0
 11
6375.729848580727
 21
3336.031138653677
 31
0.0
 70
   160
  1
 5090
 71
     2
 42
5089.40351661829
 73
     0
 74
     0
 75
     0
  3
Domyślne (ISO)
100
AcDbAlignedDimension
 13
3506.622619184574
 23
5880.732896962822
 33
0.0
 14
3506.622619184572
 24
791.3293803445331
 34
0.0
 50
90.0
100
AcDbRotatedDimension
1001
ACAD
1000
DSTYLE
1002
{
1070
   172
1070
     0
1070
   289
1070
     1
1070
    74
1070
     0
1070
   271
1070
     0
1070
   272
1070
     0
1070
    48
1040
0.0
1070
    47
1040
0.0
1002
}
  0
DIMENSION
  5
777
330
6C
100
AcDbEntity
  8
Wymiar (ISO)
100
AcDbDimension
  2
*D7
 10
951.3191378886345
 20
498.3395065550602
 30
0.0
 11
3506.622619184573
 21
498.3395065550602
 31
0.0
 70
   160
  1
 5120
 71
     2
 42
5110.606962591874
 73
     0
 74
     0
 75
     0
  3
Domyślne (ISO)
100
AcDbAlignedDimension
 13
6061.926100480509
 23
3917.854655271968
 33
0.0
 14
951.3191378886347
 24
3917.85465527197
 34
0.0
 50
180.0
100
AcDbRotatedDimension
1001
ACAD
1000
DSTYLE
1002
{
1070
   172
1070
     0
1070
   289
1070
     1
1070
    74
1070
     0
1070
   271
1070
     0
1070
   272
1070
     0
1070
    48
1040
0.0
1070
    47
1040
0.0
1002
}
  0
ENDSEC
  0
SECTION
  2
OBJECTS
  0
DICTIONARY
  5
C
330
0
100
AcDbDictionary
281
     1
  3
ACAD_COLOR
350
63
  3
ACAD_GROUP
350
D
  3
ACAD_LAYOUT
350
62
  3
ACAD_MATERIAL
350
10
  3
ACAD_MLEADERSTYLE
350
66
  3
ACAD_MLINESTYLE
350
5F
  3
ACAD_PLOTSETTINGS
350
61
  3
ACAD_PLOTSTYLENAME
350
E
  3
ACAD_SCALELIST
350
42
  3
ACAD_TABLESTYLE
350
64
  3
ACAD_VISUALSTYLE
350
29
  3
ACDB_RECOMPOSE_DATA
350
E51
  3
AcDbVariableDictionary
350
D27
  0
DICTIONARY
  5
DEE
330
8
100
AcDbDictionary
280
     1
281
     1
  0
DICTIONARY
  5
D32
330
2
100
AcDbDictionary
280
     1
281
     1
  3
ACAD_LAYERSTATES
360
D33
  0
DICTIONARY
  5
CF0
330
160
100
AcDbDictionary
280
     1
281
     1
  3
ACAD_MLATT
360
E40
  3
ACAD_XREC_ROUNDTRIP
360
E3F
  0
DICTIONARY
  5
CF3
330
162
100
AcDbDictionary
280
     1
281
     1
  3
ACAD_MLATT
360
E42
  3
ACAD_XREC_ROUNDTRIP
360
E41
  0
DICTIONARY
  5
CF6
330
163
100
AcDbDictionary
280
     1
281
     1
  3
ACAD_MLATT
360
E44
  3
ACAD_XREC_ROUNDTRIP
360
E43
  0
DICTIONARY
  5
CF9
330
165
100
AcDbDictionary
280
     1
281
     1
  3
ACAD_MLATT
360
E46
  3
ACAD_XREC_ROUNDTRIP
360
E45
  0
DICTIONARY
  5
CFC
330
166
100
AcDbDictionary
280
     1
281
     1
  3
ACAD_MLATT
360
E48
  3
ACAD_XREC_ROUNDTRIP
360
E47
  0
DICTIONARY
  5
CFF
330
167
100
AcDbDictionary
280
     1
281
     1
  3
ACAD_MLATT
360
E4A
  3
ACAD_XREC_ROUNDTRIP
360
E49
  0
DICTIONARY
  5
D02
330
168
100
AcDbDictionary
280
     1
281
     1
  3
ACAD_MLATT
360
E4C
  3
ACAD_XREC_ROUNDTRIP
360
E4B
  0
DICTIONARY
  5
D05
330
169
100
AcDbDictionary
280
     1
281
     1
  3
ACAD_MLATT
360
E4E
  3
ACAD_XREC_ROUNDTRIP
360
E4D
  0
DICTIONARY
  5
D08
330
16A
100
AcDbDictionary
280
     1
281
     1
  3
ACAD_MLATT
360
E50
  3
ACAD_XREC_ROUNDTRIP
360
E4F
  0
DICTIONARY
  5
63
102
{ACAD_REACTORS
330
C
102
}
330
C
100
AcDbDictionary
281
     1
  0
DICTIONARY
  5
D
102
{ACAD_REACTORS
330
C
102
}
330
C
100
AcDbDictionary
281
     1
  0
DICTIONARY
  5
62
102
{ACAD_REACTORS
330
C
102
}
330
C
100
AcDbDictionary
281
     1
  3
Layout1
350
6B
  3
Layout2
350
73
  3
Model
350
6F
  0
DICTIONARY
  5
10
102
{ACAD_REACTORS
330
C
102
}
330
C
100
AcDbDictionary
281
     1
  3
ByBlock
350
19
  3
ByLayer
350
11
  3
Global
350
21
  0
DICTIONARY
  5
66
102
{ACAD_REACTORS
330
C
102
}
330
C
100
AcDbDictionary
281
     1
  3
Standard
350
67
  0
DICTIONARY
  5
5F
102
{ACAD_REACTORS
330
C
102
}
330
C
100
AcDbDictionary
281
     1
  3
Standard
350
60
  0
DICTIONARY
  5
61
102
{ACAD_REACTORS
330
C
102
}
330
C
100
AcDbDictionary
281
     1
  0
ACDBDICTIONARYWDFLT
  5
E
102
{ACAD_REACTORS
330
C
102
}
330
C
100
AcDbDictionary
281
     1
  3
Normal
350
F
100
AcDbDictionaryWithDefault
340
F
  0
DICTIONARY
  5
42
102
{ACAD_REACTORS
330
C
102
}
330
C
100
AcDbDictionary
281
     1
  3
A0
350
43
  3
A1
350
44
  3
A2
350
45
  3
A3
350
46
  3
A4
350
47
  3
A5
350
48
  3
A6
350
49
  3
A7
350
4A
  3
A8
350
4B
  3
A9
350
4C
  3
B0
350
4D
  3
B1
350
4E
  3
B2
350
4F
  3
B3
350
50
  3
B4
350
51
  3
B5
350
52
  3
B6
350
53
  0
DICTIONARY
  5
64
102
{ACAD_REACTORS
330
C
102
}
330
C
100
AcDbDictionary
281
     1
  3
Standard
350
65
  0
DICTIONARY
  5
29
102
{ACAD_REACTORS
330
C
102
}
330
C
100
AcDbDictionary
281
     1
  3
2dWireframe
350
2F
  3
3D Hidden
350
E37
  3
3dWireframe
350
E36
  3
Basic
350
2E
  3
Brighten
350
35
  3
ColorChange
350
39
  3
Conceptual
350
32
  3
Dim
350
34
  3
EdgeColorOff
350
41
  3
Facepattern
350
38
  3
Flat
350
2A
  3
FlatWithEdges
350
2B
  3
Gouraud
350
2C
  3
GouraudWithEdges
350
2D
  3
Hidden
350
31
  3
JitterOff
350
3F
  3
Linepattern
350
37
  3
OverhangOff
350
40
  3
Realistic
350
33
  3
Shaded
350
3E
  3
Shaded with edges
350
3D
  3
Shades of Gray
350
3A
  3
Sketchy
350
3B
  3
Thicken
350
36
  3
Wireframe
350
30
  3
X-Ray
350
3C
  0
XRECORD
  5
E51
102
{ACAD_REACTORS
330
C
102
}
330
C
100
AcDbXrecord
280
     1
 90
        1
330
65
330
160
330
162
330
163
330
165
330
166
330
167
330
168
330
169
330
16A
  0
DICTIONARY
  5
D27
102
{ACAD_REACTORS
330
C
102
}
330
C
100
AcDbDictionary
281
     1
  3
CANNOSCALE
350
D2A
  3
CMLEADERSTYLE
350
D29
  3
CTABLESTYLE
350
D28
  3
DIMASSOC
350
E33
  3
HIDETEXT
350
E32
  3
INDEXCTL
350
E31
  3
LAYEREVAL
350
E2E
  3
LAYERNOTIFY
350
E2F
  3
LIGHTINGUNITS
350
E2D
  3
MSLTSCALE
350
E2C
  3
SORTENTS
350
E30
  3
XCLIPFRAME
350
E3D
  0
DICTIONARY
  5
D33
102
{ACAD_REACTORS
330
D32
102
}
330
D32
100
AcDbDictionary
281
     1
  0
XRECORD
  5
E40
102
{ACAD_REACTORS
330
CF0
102
}
330
CF0
100
AcDbXrecord
280
     1
 70
     4
 70
     0
 70
     0
 40
1.0
  2
TYTUŁ
  1
Embedded Object
 10
222.5713910852681
 20
115.0
 30
0.0
 40
2.5
 41
93.99999999999998
 46
0.0
 71
     5
 72
     5
  1
zestaw 1 - betonowanie
  7
Tekst notatki (ISO)
 73
     1
 44
1.0
  0
XRECORD
  5
E3F
102
{ACAD_REACTORS
330
CF0
102
}
330
CF0
100
AcDbXrecord
280
     1
102
ACAD_MATT_HEIGHT
140
2.5
  0
XRECORD
  5
E42
102
{ACAD_REACTORS
330
CF3
102
}
330
CF3
100
AcDbXrecord
280
     1
 70
     4
 70
     0
 70
     0
 40
1.0
  2
NUMER_CZĘŚCI
  1
Embedded Object
 10
176.0713910852681
 20
105.0
 30
0.0
 40
2.5
 41
58.99999999999998
 46
0.0
 71
     4
 72
     5
  1
zestaw 1 kt
  7
Tekst notatki (ISO)
 73
     1
 44
1.0
  0
XRECORD
  5
E41
102
{ACAD_REACTORS
330
CF3
102
}
330
CF3
100
AcDbXrecord
280
     1
102
ACAD_MATT_HEIGHT
140
2.5
  0
XRECORD
  5
E44
102
{ACAD_REACTORS
330
CF6
102
}
330
CF6
100
AcDbXrecord
280
     1
 70
     4
 70
     0
 70
     0
 40
1.0
  2
FIRMA
  1
Embedded Object
 10
137.4145052978323
 20
109.9581637900171
 30
0.0
 40
2.5
 41
73.37793693868924
 46
0.0
 71
     5
 72
     5
  1

  7
Tekst notatki (ISO)
 73
     1
 44
1.0
  0
XRECORD
  5
E43
102
{ACAD_REACTORS
330
CF6
102
}
330
CF6
100
AcDbXrecord
280
     1
102
ACAD_MATT_HEIGHT
140
2.5
  0
XRECORD
  5
E46
102
{ACAD_REACTORS
330
CF9
102
}
330
CF9
100
AcDbXrecord
280
     1
 70
     4
 70
     0
 70
     0
 40
1.0
  2
AUTOR
  1
Embedded Object
 10
101.0713910852681
 20
120.9999999999991
 30
0.0
 40
2.485507130622863
 41
18.08427483161038
 46
0.0
 71
     7
 72
     5
  1
Muller
  7
Styl tekstu44
 73
     1
 44
1.0
  0
XRECORD
  5
E45
102
{ACAD_REACTORS
330
CF9
102
}
330
CF9
100
AcDbXrecord
280
     1
102
ACAD_MATT_HEIGHT
140
2.485507130622863
  0
XRECORD
  5
E48
102
{ACAD_REACTORS
330
CFC
102
}
330
CFC
100
AcDbXrecord
280
     1
 70
     4
 70
     0
 70
     0
 40
1.0
  2
SPRAWDZIŁ
  1
Embedded Object
 10
133.0713910852681
 20
120.9999999999991
 30
0.0
 40
2.485507130622863
 41
24.19635020868251
 46
0.0
 71
     7
 72
     5
  1
Pro-Design
  7
Styl tekstu44
 73
     1
 44
1.0
  0
XRECORD
  5
E47
102
{ACAD_REACTORS
330
CFC
102
}
330
CFC
100
AcDbXrecord
280
     1
102
ACAD_MATT_HEIGHT
140
2.485507130622863
  0
XRECORD
  5
E4A
102
{ACAD_REACTORS
330
CFF
102
}
330
CFF
100
AcDbXrecord
280
     1
 70
     4
 70
     0
 70
     0
 40
1.0
  2
ZATWIERDZENIE_KONSTRUKCJI
  1
Embedded Object
 10
158.0713910852681
 20
121.0
 30
0.0
 40
2.485507130622863
 41
19.9788309932064
 46
0.0
 71
     7
 72
     5
  1
Muller
  7
Styl tekstu44
 73
     1
 44
1.0
  0
XRECORD
  5
E49
102
{ACAD_REACTORS
330
CFF
102
}
330
CFF
100
AcDbXrecord
280
     1
102
ACAD_MATT_HEIGHT
140
2.485507130622863
  0
XRECORD
  5
E4C
102
{ACAD_REACTORS
330
D02
102
}
330
D02
100
AcDbXrecord
280
     1
 70
     4
 70
     0
 70
     0
 40
1.0
  2
DATA_ZATWIERDZENIA
  1
Embedded Object
 10
196.0713910852681
 20
120.9999999999991
 30
0.0
 40
2.485507130622863
 41
16.36541081572819
 46
0.0
 71
     9
 72
     5
  1

  7
Styl tekstu44
 73
     1
 44
1.0
  0
XRECORD
  5
E4B
102
{ACAD_REACTORS
330
D02
102
}
330
D02
100
AcDbXrecord
280
     1
102
ACAD_MATT_HEIGHT
140
2.485507130622863
  0
XRECORD
  5
E4E
102
{ACAD_REACTORS
330
D05
102
}
330
D05
100
AcDbXrecord
280
     1
 70
     4
 70
     0
 70
     0
 40
1.0
  2
DATA_UTWORZENIA
  1
Embedded Object
 10
221.0713910852682
 20
121.0
 30
0.0
 40
2.485507130622863
 41
28.66652440062225
 46
0.0
 71
     7
 72
     5
  1
2011-07-26
  7
Styl tekstu44
 73
     1
 44
1.0
  0
XRECORD
  5
E4D
102
{ACAD_REACTORS
330
D05
102
}
330
D05
100
AcDbXrecord
280
     1
102
ACAD_MATT_HEIGHT
140
2.485507130622863
  0
XRECORD
  5
E50
102
{ACAD_REACTORS
330
D08
102
}
330
D08
100
AcDbXrecord
280
     1
 70
     4
 70
     0
 70
     0
 40
1.0
  2
NUMER_WERSJI
  1
Embedded Object
 10
242.5713910852682
 20
103.4999999999998
 30
0.0
 40
2.5
 41
15.0
 46
0.0
 71
     5
 72
     5
  1
01
  7
Tekst notatki (ISO)
 73
     1
 44
1.0
  0
XRECORD
  5
E4F
102
{ACAD_REACTORS
330
D08
102
}
330
D08
100
AcDbXrecord
280
     1
102
ACAD_MATT_HEIGHT
140
2.5
  0
LAYOUT
  5
6B
102
{ACAD_REACTORS
330
62
102
}
330
62
100
AcDbPlotSettings
  1

  2

  4

  6

 40
0.0
 41
0.0
 42
0.0
 43
0.0
 44
0.0
 45
0.0
 46
0.0
 47
0.0
 48
0.0
 49
0.0
140
0.0
141
0.0
142
1.0
143
1.0
 70
   688
 72
     0
 73
     0
 74
     5
  7

 75
    16
147
1.0
 76
     0
 77
     2
 78
   300
148
0.0
149
0.0
100
AcDbLayout
  1
Layout1
 70
     1
 71
     1
 10
0.0
 20
0.0
 11
12600.0
 21
8910.0
 12
0.0
 22
0.0
 32
0.0
 14
0.0
 24
0.0
 34
0.0
 15
12600.0
 25
8910.0
 35
0.0
146
0.0
 13
0.0
 23
0.0
 33
0.0
 16
1.0
 26
0.0
 36
0.0
 17
0.0
 27
1.0
 37
0.0
 76
     0
330
68
  0
LAYOUT
  5
73
102
{ACAD_REACTORS
330
62
102
}
330
62
100
AcDbPlotSettings
  1

  2

  4

  6

 40
0.0
 41
0.0
 42
0.0
 43
0.0
 44
0.0
 45
0.0
 46
0.0
 47
0.0
 48
0.0
 49
0.0
140
0.0
141
0.0
142
1.0
143
1.0
 70
   688
 72
     0
 73
     0
 74
     5
  7

 75
    16
147
1.0
 76
     0
 77
     2
 78
   300
148
0.0
149
0.0
100
AcDbLayout
  1
Layout2
 70
     1
 71
     2
 10
0.0
 20
0.0
 11
12.0
 21
9.0
 12
0.0
 22
0.0
 32
0.0
 14
0.0
 24
0.0
 34
0.0
 15
0.0
 25
0.0
 35
0.0
146
0.0
 13
0.0
 23
0.0
 33
0.0
 16
1.0
 26
0.0
 36
0.0
 17
0.0
 27
1.0
 37
0.0
 76
     0
330
70
  0
LAYOUT
  5
6F
102
{ACAD_XDICTIONARY
360
D5F
102
}
102
{ACAD_REACTORS
330
62
102
}
330
62
100
AcDbPlotSettings
  1

  2

  4

  6

 40
0.0
 41
0.0
 42
0.0
 43
0.0
 44
0.0
 45
0.0
 46
0.0
 47
0.0
 48
0.0
 49
0.0
140
0.0
141
0.0
142
1.0
143
1.0
 70
  1712
 72
     0
 73
     0
 74
     0
  7

 75
     0
147
1.0
 76
     0
 77
     2
 78
   300
148
0.0
149
0.0
100
AcDbLayout
  1
Model
 70
     1
 71
     0
 10
0.0
 20
0.0
 11
12.0
 21
9.0
 12
0.0
 22
0.0
 32
0.0
 14
0.0
 24
0.0
 34
0.0
 15
0.0
 25
0.0
 35
0.0
146
0.0
 13
0.0
 23
0.0
 33
0.0
 16
1.0
 26
0.0
 36
0.0
 17
0.0
 27
1.0
 37
0.0
 76
     0
330
6C
331
57
  0
MATERIAL
  5
19
102
{ACAD_XDICTIONARY
360
1A
102
}
102
{ACAD_REACTORS
330
10
102
}
330
10
100
AcDbMaterial
  1
ByBlock
 72
     0
 43
0.0208333333333333
 43
0.0
 43
0.0
 43
0.0
 43
0.0
 43
0.0208333333333333
 43
0.0
 43
0.0
 43
0.0
 43
0.0
 43
1.0
 43
0.0
 43
0.0
 43
0.0
 43
0.0
 43
1.0
 77
     0
 47
0.0208333333333333
 47
0.0
 47
0.0
 47
0.0
 47
0.0
 47
0.0208333333333333
 47
0.0
 47
0.0
 47
0.0
 47
0.0
 47
1.0
 47
0.0
 47
0.0
 47
0.0
 47
0.0
 47
1.0
171
     0
 49
0.0208333333333333
 49
0.0
 49
0.0
 49
0.0
 49
0.0
 49
0.0208333333333333
 49
0.0
 49
0.0
 49
0.0
 49
0.0
 49
1.0
 49
0.0
 49
0.0
 49
0.0
 49
0.0
 49
1.0
175
     0
142
0.0208333333333333
142
0.0
142
0.0
142
0.0
142
0.0
142
0.0208333333333333
142
0.0
142
0.0
142
0.0
142
0.0
142
1.0
142
0.0
142
0.0
142
0.0
142
0.0
142
1.0
179
     0
144
0.0208333333333333
144
0.0
144
0.0
144
0.0
144
0.0
144
0.0208333333333333
144
0.0
144
0.0
144
0.0
144
0.0
144
1.0
144
0.0
144
0.0
144
0.0
144
0.0
144
1.0
147
0.0208333333333333
147
0.0
147
0.0
147
0.0
147
0.0
147
0.0208333333333333
147
0.0
147
0.0
147
0.0
147
0.0
147
1.0
147
0.0
147
0.0
147
0.0
147
0.0
147
1.0
  0
MATERIAL
  5
11
102
{ACAD_XDICTIONARY
360
12
102
}
102
{ACAD_REACTORS
330
10
102
}
330
10
100
AcDbMaterial
  1
ByLayer
 72
     0
 43
0.0208333333333333
 43
0.0
 43
0.0
 43
0.0
 43
0.0
 43
0.0208333333333333
 43
0.0
 43
0.0
 43
0.0
 43
0.0
 43
1.0
 43
0.0
 43
0.0
 43
0.0
 43
0.0
 43
1.0
 77
     0
 47
0.0208333333333333
 47
0.0
 47
0.0
 47
0.0
 47
0.0
 47
0.0208333333333333
 47
0.0
 47
0.0
 47
0.0
 47
0.0
 47
1.0
 47
0.0
 47
0.0
 47
0.0
 47
0.0
 47
1.0
171
     0
 49
0.0208333333333333
 49
0.0
 49
0.0
 49
0.0
 49
0.0
 49
0.0208333333333333
 49
0.0
 49
0.0
 49
0.0
 49
0.0
 49
1.0
 49
0.0
 49
0.0
 49
0.0
 49
0.0
 49
1.0
175
     0
142
0.0208333333333333
142
0.0
142
0.0
142
0.0
142
0.0
142
0.0208333333333333
142
0.0
142
0.0
142
0.0
142
0.0
142
1.0
142
0.0
142
0.0
142
0.0
142
0.0
142
1.0
179
     0
144
0.0208333333333333
144
0.0
144
0.0
144
0.0
144
0.0
144
0.0208333333333333
144
0.0
144
0.0
144
0.0
144
0.0
144
1.0
144
0.0
144
0.0
144
0.0
144
0.0
144
1.0
147
0.0208333333333333
147
0.0
147
0.0
147
0.0
147
0.0
147
0.0208333333333333
147
0.0
147
0.0
147
0.0
147
0.0
147
1.0
147
0.0
147
0.0
147
0.0
147
0.0
147
1.0
  0
MATERIAL
  5
21
102
{ACAD_XDICTIONARY
360
22
102
}
102
{ACAD_REACTORS
330
10
102
}
330
10
100
AcDbMaterial
  1
Global
 72
     0
 43
0.0208333333333333
 43
0.0
 43
0.0
 43
0.0
 43
0.0
 43
0.0208333333333333
 43
0.0
 43
0.0
 43
0.0
 43
0.0
 43
1.0
 43
0.0
 43
0.0
 43
0.0
 43
0.0
 43
1.0
 77
     0
 47
0.0208333333333333
 47
0.0
 47
0.0
 47
0.0
 47
0.0
 47
0.0208333333333333
 47
0.0
 47
0.0
 47
0.0
 47
0.0
 47
1.0
 47
0.0
 47
0.0
 47
0.0
 47
0.0
 47
1.0
171
     0
 49
0.0208333333333333
 49
0.0
 49
0.0
 49
0.0
 49
0.0
 49
0.0208333333333333
 49
0.0
 49
0.0
 49
0.0
 49
0.0
 49
1.0
 49
0.0
 49
0.0
 49
0.0
 49
0.0
 49
1.0
175
     0
142
0.0208333333333333
142
0.0
142
0.0
142
0.0
142
0.0
142
0.0208333333333333
142
0.0
142
0.0
142
0.0
142
0.0
142
1.0
142
0.0
142
0.0
142
0.0
142
0.0
142
1.0
179
     0
144
0.0208333333333333
144
0.0
144
0.0
144
0.0
144
0.0
144
0.0208333333333333
144
0.0
144
0.0
144
0.0
144
0.0
144
1.0
144
0.0
144
0.0
144
0.0
144
0.0
144
1.0
147
0.0208333333333333
147
0.0
147
0.0
147
0.0
147
0.0
147
0.0208333333333333
147
0.0
147
0.0
147
0.0
147
0.0
147
1.0
147
0.0
147
0.0
147
0.0
147
0.0
147
1.0
  0
MLEADERSTYLE
  5
67
102
{ACAD_REACTORS
330
66
102
}
330
66
100
AcDbMLeaderStyle
170
     2
171
     1
172
     0
 90
        2
 40
0.0
 41
0.0
173
     1
 91
-1056964608
340
5B
 92
       -2
290
     1
 42
0.09
291
     1
 43
0.36
  3
Standard
 44
0.18
300

342
55
174
     1
178
     6
175
     1
176
     0
 93
-1056964608
 45
0.18
292
     0
297
     0
 46
0.18
 94
-1056964608
 47
1.0
 49
1.0
140
1.0
293
     1
141
0.0
294
     1
177
     0
142
1.0
295
     0
296
     0
143
0.125
1001
ACAD_MLEADERVER
1070
     2
  0
MLINESTYLE
  5
60
102
{ACAD_REACTORS
330
5F
102
}
330
5F
100
AcDbMlineStyle
  2
STANDARD
 70
     0
  3

 62
   256
 51
90.0
 52
90.0
 71
     2
 49
0.5
 62
   256
  6
BYLAYER
 49
-0.5
 62
   256
  6
BYLAYER
  0
ACDBPLACEHOLDER
  5
F
102
{ACAD_REACTORS
330
E
102
}
330
E
  0
SCALE
  5
43
102
{ACAD_REACTORS
330
42
102
}
330
42
100
AcDbScale
 70
     0
300
1:1
140
1.0
141
1.0
290
     1
  0
SCALE
  5
44
102
{ACAD_REACTORS
330
42
102
}
330
42
100
AcDbScale
 70
     0
300
1/128" = 1'-0"
140
0.0078125
141
12.0
290
     0
  0
SCALE
  5
45
102
{ACAD_REACTORS
330
42
102
}
330
42
100
AcDbScale
 70
     0
300
1/64" = 1'-0"
140
0.015625
141
12.0
290
     0
  0
SCALE
  5
46
102
{ACAD_REACTORS
330
42
102
}
330
42
100
AcDbScale
 70
     0
300
1/32" = 1'-0"
140
0.03125
141
12.0
290
     0
  0
SCALE
  5
47
102
{ACAD_REACTORS
330
42
102
}
330
42
100
AcDbScale
 70
     0
300
1/16" = 1'-0"
140
0.0625
141
12.0
290
     0
  0
SCALE
  5
48
102
{ACAD_REACTORS
330
42
102
}
330
42
100
AcDbScale
 70
     0
300
3/32" = 1'-0"
140
0.09375
141
12.0
290
     0
  0
SCALE
  5
49
102
{ACAD_REACTORS
330
42
102
}
330
42
100
AcDbScale
 70
     0
300
1/8" = 1'-0"
140
0.125
141
12.0
290
     0
  0
SCALE
  5
4A
102
{ACAD_REACTORS
330
42
102
}
330
42
100
AcDbScale
 70
     0
300
3/16" = 1'-0"
140
0.1875
141
12.0
290
     0
  0
SCALE
  5
4B
102
{ACAD_REACTORS
330
42
102
}
330
42
100
AcDbScale
 70
     0
300
1/4" = 1'-0"
140
0.25
141
12.0
290
     0
  0
SCALE
  5
4C
102
{ACAD_REACTORS
330
42
102
}
330
42
100
AcDbScale
 70
     0
300
3/8" = 1'-0"
140
0.375
141
12.0
290
     0
  0
SCALE
  5
4D
102
{ACAD_REACTORS
330
42
102
}
330
42
100
AcDbScale
 70
     0
300
1/2" = 1'-0"
140
0.5
141
12.0
290
     0
  0
SCALE
  5
4E
102
{ACAD_REACTORS
330
42
102
}
330
42
100
AcDbScale
 70
     0
300
3/4" = 1'-0"
140
0.75
141
12.0
290
     0
  0
SCALE
  5
4F
102
{ACAD_REACTORS
330
42
102
}
330
42
100
AcDbScale
 70
     0
300
1" = 1'-0"
140
1.0
141
12.0
290
     0
  0
SCALE
  5
50
102
{ACAD_REACTORS
330
42
102
}
330
42
100
AcDbScale
 70
     0
300
1-1/2" = 1'-0"
140
1.5
141
12.0
290
     0
  0
SCALE
  5
51
102
{ACAD_REACTORS
330
42
102
}
330
42
100
AcDbScale
 70
     0
300
3" = 1'-0"
140
3.0
141
12.0
290
     0
  0
SCALE
  5
52
102
{ACAD_REACTORS
330
42
102
}
330
42
100
AcDbScale
 70
     0
300
6" = 1'-0"
140
6.0
141
12.0
290
     0
  0
SCALE
  5
53
102
{ACAD_REACTORS
330
42
102
}
330
42
100
AcDbScale
 70
     0
300
1'-0" = 1'-0"
140
12.0
141
12.0
290
     0
  0
TABLESTYLE
  5
65
102
{ACAD_XDICTIONARY
360
DD8
102
}
102
{ACAD_REACTORS
330
64
102
}
330
64
100
AcDbTableStyle
  3
Standard
 70
     0
 71
     0
 40
0.06
 41
0.06
280
     0
281
     0
  7
Standard
140
0.18
170
     2
 62
     0
 63
     7
283
     0
 90
      512
 91
        0
  1

274
    -2
284
     1
 64
     0
275
    -2
285
     1
 65
     0
276
    -2
286
     1
 66
     0
277
    -2
287
     1
 67
     0
278
    -2
288
     1
 68
     0
279
    -2
289
     1
 69
     0
  7
Standard
140
0.25
170
     5
 62
     0
 63
     7
283
     0
 90
      512
 91
        0
  1

274
    -2
284
     1
 64
     0
275
    -2
285
     1
 65
     0
276
    -2
286
     1
 66
     0
277
    -2
287
     1
 67
     0
278
    -2
288
     1
 68
     0
279
    -2
289
     1
 69
     0
  7
Standard
140
0.18
170
     5
 62
     0
 63
     7
283
     0
 90
      512
 91
        0
  1

274
    -2
284
     1
 64
     0
275
    -2
285
     1
 65
     0
276
    -2
286
     1
 66
     0
277
    -2
287
     1
 67
     0
278
    -2
288
     1
 68
     0
279
    -2
289
     1
 69
     0
  0
VISUALSTYLE
  5
2F
102
{ACAD_XDICTIONARY
360
DFD
102
}
102
{ACAD_REACTORS
330
29
102
}
330
29
100
AcDbVisualStyle
  2
2dWireframe
 70
     4
 71
     0
 72
     2
 73
     0
 90
        0
 40
-0.6
 41
-30.0
 62
     5
 63
     7
 74
     1
 91
        4
 64
     7
 65
   257
 75
     1
175
     1
 42
1.0
 92
        0
 66
   257
 43
1.0
 76
     1
 77
     6
 78
     2
 67
     7
 79
     5
170
     0
171
     0
290
     0
174
     0
 93
        1
 44
0.0
173
     0
291
     0
 45
0.0
1001
ACAD
1000
AcDbSavedByObjectVersion
1070
     0
  0
VISUALSTYLE
  5
E37
102
{ACAD_XDICTIONARY
360
E54
102
}
102
{ACAD_REACTORS
330
29
102
}
330
29
100
AcDbVisualStyle
  2
3D Hidden
 70
     6
 71
     1
 72
     2
 73
     2
 90
        0
 40
-0.6
 41
-30.0
 62
     5
 63
     7
421
 16777215
 74
     2
 91
        2
 64
     7
 65
   257
 75
     2
175
     1
 42
179.0
 92
        0
 66
   257
 43
1.0
 76
     1
 77
     6
 78
     2
 67
     7
 79
     3
170
     0
171
     0
290
     0
174
     0
 93
        1
 44
0.0
173
     0
291
     0
 45
0.0
1001
ACAD
1000
AcDbSavedByObjectVersion
1070
     0
  0
VISUALSTYLE
  5
E36
102
{ACAD_XDICTIONARY
360
E52
102
}
102
{ACAD_REACTORS
330
29
102
}
330
29
100
AcDbVisualStyle
  2
3dWireframe
 70
     5
 71
     0
 72
     2
 73
     0
 90
        0
 40
-0.6
 41
-30.0
 62
     5
 63
     7
421
 16777215
 74
     1
 91
        4
 64
     7
 65
   257
 75
     1
175
     1
 42
1.0
 92
        0
 66
   257
 43
1.0
 76
     1
 77
     6
 78
     2
 67
     7
 79
     5
170
     0
171
     0
290
     0
174
     0
 93
        1
 44
0.0
173
     0
291
     0
 45
0.0
1001
ACAD
1000
AcDbSavedByObjectVersion
1070
     0
  0
VISUALSTYLE
  5
2E
102
{ACAD_XDICTIONARY
360
DFB
102
}
102
{ACAD_REACTORS
330
29
102
}
330
29
100
AcDbVisualStyle
  2
Basic
 70
     7
 71
     1
 72
     0
 73
     1
 90
        0
 40
-0.6
 41
-30.0
 62
     5
 63
     7
 74
     0
 91
        4
 64
     7
 65
   257
 75
     1
175
     1
 42
1.0
 92
        8
 66
     7
 43
1.0
 76
     1
 77
     6
 78
     2
 67
     7
 79
     5
170
     0
171
     0
290
     0
174
     0
 93
        1
 44
0.0
173
     0
291
     1
 45
0.0
1001
ACAD
1000
AcDbSavedByObjectVersion
1070
     0
  0
VISUALSTYLE
  5
35
102
{ACAD_XDICTIONARY
360
E09
102
}
102
{ACAD_REACTORS
330
29
102
}
330
29
100
AcDbVisualStyle
  2
Brighten
 70
    12
 71
     2
 72
     2
 73
     0
 90
        0
 40
-0.6
 41
-30.0
 62
     5
 63
     7
 74
     1
 91
        4
 64
     7
 65
   257
 75
     1
175
     1
 42
1.0
 92
        8
 66
     7
 43
1.0
 76
     1
 77
     6
 78
     2
 67
     7
 79
     5
170
     0
171
     0
290
     0
174
     0
 93
        1
 44
50.0
173
     0
291
     1
 45
0.0
1001
ACAD
1000
AcDbSavedByObjectVersion
1070
     0
  0
VISUALSTYLE
  5
39
102
{ACAD_XDICTIONARY
360
E11
102
}
102
{ACAD_REACTORS
330
29
102
}
330
29
100
AcDbVisualStyle
  2
ColorChange
 70
    16
 71
     2
 72
     2
 73
     3
 90
        0
 40
-0.6
 41
-30.0
 62
     5
 63
     8
 74
     1
 91
        4
 64
     7
 65
   257
 75
     1
175
     1
 42
1.0
 92
        8
 66
     8
 43
1.0
 76
     1
 77
     6
 78
     2
 67
     7
 79
     5
170
     0
171
     0
290
     0
174
     0
 93
        1
 44
0.0
173
     0
291
     1
 45
0.0
1001
ACAD
1000
AcDbSavedByObjectVersion
1070
     0
  0
VISUALSTYLE
  5
32
102
{ACAD_XDICTIONARY
360
E03
102
}
102
{ACAD_REACTORS
330
29
102
}
330
29
100
AcDbVisualStyle
  2
Conceptual
 70
     9
 71
     3
 72
     2
 73
     0
 90
        0
 40
-0.6
 41
-30.0
 62
     5
 63
     7
 74
     2
 91
        2
 64
     7
 65
   257
 75
     1
175
     1
 42
179.0
 92
        8
 66
     7
 43
1.0
 76
     1
 77
     6
 78
     2
 67
     7
 79
     3
170
     0
171
     0
290
     0
174
     0
 93
        1
 44
0.0
173
     0
291
     0
 45
0.0
1001
ACAD
1000
AcDbSavedByObjectVersion
1070
     0
  0
VISUALSTYLE
  5
34
102
{ACAD_XDICTIONARY
360
E07
102
}
102
{ACAD_REACTORS
330
29
102
}
330
29
100
AcDbVisualStyle
  2
Dim
 70
    11
 71
     2
 72
     2
 73
     0
 90
        0
 40
-0.6
 41
-30.0
 62
     5
 63
     7
 74
     1
 91
        4
 64
     7
 65
   257
 75
     1
175
     1
 42
1.0
 92
        8
 66
     7
 43
1.0
 76
     1
 77
     6
 78
     2
 67
     7
 79
     5
170
     0
171
     0
290
     0
174
     0
 93
        1
 44
-50.0
173
     0
291
     1
 45
0.0
1001
ACAD
1000
AcDbSavedByObjectVersion
1070
     0
  0
VISUALSTYLE
  5
41
102
{ACAD_XDICTIONARY
360
E21
102
}
102
{ACAD_REACTORS
330
29
102
}
330
29
100
AcDbVisualStyle
  2
EdgeColorOff
 70
    22
 71
     2
 72
     2
 73
     0
 90
        0
 40
-0.6
 41
-30.0
 62
     5
 63
     7
 74
     1
 91
        4
 64
     7
 65
   257
 75
     1
175
     1
 42
1.0
 92
        8
 66
     7
 43
1.0
 76
     1
 77
     6
 78
     2
 67
     7
 79
     5
170
     0
171
     0
290
     0
174
     0
 93
        1
 44
0.0
173
     0
291
     1
 45
0.0
1001
ACAD
1000
AcDbSavedByObjectVersion
1070
     0
  0
VISUALSTYLE
  5
38
102
{ACAD_XDICTIONARY
360
E0F
102
}
102
{ACAD_REACTORS
330
29
102
}
330
29
100
AcDbVisualStyle
  2
Facepattern
 70
    15
 71
     2
 72
     2
 73
     0
 90
        0
 40
-0.6
 41
-30.0
 62
     5
 63
     7
 74
     1
 91
        4
 64
     7
 65
   257
 75
     1
175
     1
 42
1.0
 92
        8
 66
     7
 43
1.0
 76
     1
 77
     6
 78
     2
 67
     7
 79
     5
170
     0
171
     0
290
     0
174
     0
 93
        1
 44
0.0
173
     0
291
     1
 45
0.0
1001
ACAD
1000
AcDbSavedByObjectVersion
1070
     0
  0
VISUALSTYLE
  5
2A
102
{ACAD_XDICTIONARY
360
DF3
102
}
102
{ACAD_REACTORS
330
29
102
}
330
29
100
AcDbVisualStyle
  2
Flat
 70
     0
 71
     2
 72
     1
 73
     1
 90
        2
 40
-0.6
 41
30.0
 62
     5
 63
     7
 74
     0
 91
        0
 64
     7
 65
   257
 75
     1
175
     1
 42
1.0
 92
        8
 66
     7
 43
1.0
 76
     1
 77
     6
 78
     2
 67
     7
 79
     5
170
     0
171
     0
290
     0
174
     0
 93
       13
 44
0.0
173
     0
291
     1
 45
0.0
1001
ACAD
1000
AcDbSavedByObjectVersion
1070
     0
  0
VISUALSTYLE
  5
2B
102
{ACAD_XDICTIONARY
360
DF5
102
}
102
{ACAD_REACTORS
330
29
102
}
330
29
100
AcDbVisualStyle
  2
FlatWithEdges
 70
     1
 71
     2
 72
     1
 73
     1
 90
        2
 40
-0.6
 41
30.0
 62
     5
 63
     7
 74
     1
 91
        0
 64
     7
 65
   257
 75
     1
175
     1
 42
1.0
 92
        0
 66
   257
 43
1.0
 76
     1
 77
     6
 78
     2
 67
     7
 79
     5
170
     0
171
     0
290
     0
174
     0
 93
       13
 44
0.0
173
     0
291
     1
 45
0.0
1001
ACAD
1000
AcDbSavedByObjectVersion
1070
     0
  0
VISUALSTYLE
  5
2C
102
{ACAD_XDICTIONARY
360
DF7
102
}
102
{ACAD_REACTORS
330
29
102
}
330
29
100
AcDbVisualStyle
  2
Gouraud
 70
     2
 71
     2
 72
     2
 73
     1
 90
        2
 40
-0.6
 41
30.0
 62
     5
 63
     7
 74
     0
 91
        0
 64
     7
 65
   257
 75
     1
175
     1
 42
1.0
 92
        0
 66
     7
 43
1.0
 76
     1
 77
     6
 78
     2
 67
     7
 79
     5
170
     0
171
     0
290
     0
174
     0
 93
       13
 44
0.0
173
     0
291
     1
 45
0.0
1001
ACAD
1000
AcDbSavedByObjectVersion
1070
     0
  0
VISUALSTYLE
  5
2D
102
{ACAD_XDICTIONARY
360
DF9
102
}
102
{ACAD_REACTORS
330
29
102
}
330
29
100
AcDbVisualStyle
  2
GouraudWithEdges
 70
     3
 71
     2
 72
     2
 73
     1
 90
        2
 40
-0.6
 41
30.0
 62
     5
 63
     7
 74
     1
 91
        0
 64
     7
 65
   257
 75
     1
175
     1
 42
1.0
 92
        0
 66
   257
 43
1.0
 76
     1
 77
     6
 78
     2
 67
     7
 79
     5
170
     0
171
     0
290
     0
174
     0
 93
       13
 44
0.0
173
     0
291
     1
 45
0.0
1001
ACAD
1000
AcDbSavedByObjectVersion
1070
     0
  0
VISUALSTYLE
  5
31
102
{ACAD_XDICTIONARY
360
E01
102
}
102
{ACAD_REACTORS
330
29
102
}
330
29
100
AcDbVisualStyle
  2
Hidden
 70
     6
 71
     1
 72
     2
 73
     2
 90
        0
 40
-0.6
 41
-30.0
 62
     5
 63
     7
 74
     2
 91
        2
 64
     7
 65
   257
 75
     2
175
     1
 42
40.0
 92
        0
 66
   257
 43
1.0
 76
     1
 77
     6
 78
     2
 67
     7
 79
     3
170
     0
171
     0
290
     0
174
     0
 93
        1
 44
0.0
173
     0
291
     0
 45
0.0
1001
ACAD
1000
AcDbSavedByObjectVersion
1070
     0
  0
VISUALSTYLE
  5
3F
102
{ACAD_XDICTIONARY
360
E1D
102
}
102
{ACAD_REACTORS
330
29
102
}
330
29
100
AcDbVisualStyle
  2
JitterOff
 70
    20
 71
     2
 72
     2
 73
     0
 90
        0
 40
-0.6
 41
-30.0
 62
     5
 63
     7
 74
     1
 91
        4
 64
     7
 65
   257
 75
     1
175
     1
 42
1.0
 92
       10
 66
     7
 43
1.0
 76
     1
 77
     6
 78
     2
 67
     7
 79
     5
170
     0
171
     0
290
     0
174
     0
 93
        1
 44
0.0
173
     0
291
     1
 45
0.0
1001
ACAD
1000
AcDbSavedByObjectVersion
1070
     0
  0
VISUALSTYLE
  5
37
102
{ACAD_XDICTIONARY
360
E0D
102
}
102
{ACAD_REACTORS
330
29
102
}
330
29
100
AcDbVisualStyle
  2
Linepattern
 70
    14
 71
     2
 72
     2
 73
     0
 90
        0
 40
-0.6
 41
-30.0
 62
     5
 63
     7
 74
     1
 91
        4
 64
     7
 65
   257
 75
     7
175
     7
 42
1.0
 92
        8
 66
     7
 43
1.0
 76
     1
 77
     6
 78
     2
 67
     7
 79
     5
170
     0
171
     0
290
     0
174
     0
 93
        1
 44
0.0
173
     0
291
     1
 45
0.0
1001
ACAD
1000
AcDbSavedByObjectVersion
1070
     0
  0
VISUALSTYLE
  5
40
102
{ACAD_XDICTIONARY
360
E1F
102
}
102
{ACAD_REACTORS
330
29
102
}
330
29
100
AcDbVisualStyle
  2
OverhangOff
 70
    21
 71
     2
 72
     2
 73
     0
 90
        0
 40
-0.6
 41
-30.0
 62
     5
 63
     7
 74
     1
 91
        4
 64
     7
 65
   257
 75
     1
175
     1
 42
1.0
 92
        9
 66
     7
 43
1.0
 76
     1
 77
     6
 78
     2
 67
     7
 79
     5
170
     0
171
     0
290
     0
174
     0
 93
        1
 44
0.0
173
     0
291
     1
 45
0.0
1001
ACAD
1000
AcDbSavedByObjectVersion
1070
     0
  0
VISUALSTYLE
  5
33
102
{ACAD_XDICTIONARY
360
E05
102
}
102
{ACAD_REACTORS
330
29
102
}
330
29
100
AcDbVisualStyle
  2
Realistic
 70
     8
 71
     2
 72
     2
 73
     0
 90
        2
 40
-0.6
 41
30.0
 62
     5
 63
     7
 74
     0
 91
        0
 64
     7
 65
   257
 75
     1
175
     1
 42
1.0
 92
        8
 66
   257
 43
1.0
 76
     1
 77
     6
 78
     2
 67
     7
 79
     3
170
     0
171
     0
290
     0
174
     0
 93
       13
 44
0.0
173
     0
291
     0
 45
0.0
1001
ACAD
1000
AcDbSavedByObjectVersion
1070
     0
  0
VISUALSTYLE
  5
3E
102
{ACAD_XDICTIONARY
360
E1B
102
}
102
{ACAD_REACTORS
330
29
102
}
330
29
100
AcDbVisualStyle
  2
Shaded
 70
    27
 71
     2
 72
     2
 73
     1
 90
        2
 40
-0.6
 41
30.0
 62
     5
 63
     7
 74
     0
 91
        4
 64
     7
 65
   257
 75
     1
175
     1
 42
1.0
 92
        8
 66
   257
 43
1.0
 76
     1
 77
     6
 78
     2
 67
     8
 79
     3
170
     0
171
     0
290
     0
174
     0
 93
        5
 44
0.0
173
     0
291
     0
 45
0.0
1001
ACAD
1000
AcDbSavedByObjectVersion
1070
     0
  0
VISUALSTYLE
  5
3D
102
{ACAD_XDICTIONARY
360
E19
102
}
102
{ACAD_REACTORS
330
29
102
}
330
29
100
AcDbVisualStyle
  2
Shaded with edges
 70
    26
 71
     2
 72
     2
 73
     1
 90
        2
 40
-0.6
 41
30.0
 62
     5
 63
     7
 74
     1
 91
       10
 64
     7
 65
   257
 75
     2
175
     1
 42
1.0
 92
        8
 66
   257
 43
1.0
 76
     1
 77
     6
 78
     2
 67
     7
 79
     3
170
     0
171
     0
290
     0
174
     0
 93
        5
 44
0.0
173
     0
291
     0
 45
0.0
1001
ACAD
1000
AcDbSavedByObjectVersion
1070
     0
  0
VISUALSTYLE
  5
3A
102
{ACAD_XDICTIONARY
360
E13
102
}
102
{ACAD_REACTORS
330
29
102
}
330
29
100
AcDbVisualStyle
  2
Shades of Gray
 70
    23
 71
     2
 72
     2
 73
     3
 90
        0
 40
-0.6
 41
-30.0
 62
     5
 63
     7
 74
     2
 91
        2
 64
     7
 65
     7
 75
     1
175
     1
 42
40.0
 92
        8
 66
     7
 43
1.0
 76
     1
 77
     6
 78
     2
 67
     7
 79
     3
170
     0
171
     0
290
     0
174
     0
 93
        1
 44
0.0
173
     0
291
     0
 45
0.0
1001
ACAD
1000
AcDbSavedByObjectVersion
1070
     0
  0
VISUALSTYLE
  5
3B
102
{ACAD_XDICTIONARY
360
E15
102
}
102
{ACAD_REACTORS
330
29
102
}
330
29
100
AcDbVisualStyle
  2
Sketchy
 70
    24
 71
     1
 72
     2
 73
     2
 90
        0
 40
-0.6
 41
-30.0
 62
     5
 63
     7
 74
     2
 91
        2
 64
     7
 65
     7
 75
     1
175
     1
 42
40.0
 92
       11
 66
     7
 43
1.0
 76
     1
 77
     6
 78
     2
 67
     7
 79
     6
170
     0
171
     0
290
     0
174
     0
 93
        1
 44
0.0
173
     0
291
     0
 45
0.0
1001
ACAD
1000
AcDbSavedByObjectVersion
1070
     0
  0
VISUALSTYLE
  5
36
102
{ACAD_XDICTIONARY
360
E0B
102
}
102
{ACAD_REACTORS
330
29
102
}
330
29
100
AcDbVisualStyle
  2
Thicken
 70
    13
 71
     2
 72
     2
 73
     0
 90
        0
 40
-0.6
 41
-30.0
 62
     5
 63
     7
 74
     1
 91
        4
 64
     7
 65
   257
 75
     1
175
     1
 42
1.0
 92
       12
 66
     7
 43
1.0
 76
     1
 77
     6
 78
     2
 67
     7
 79
     5
170
     0
171
     0
290
     0
174
     0
 93
        1
 44
0.0
173
     0
291
     1
 45
0.0
1001
ACAD
1000
AcDbSavedByObjectVersion
1070
     0
  0
VISUALSTYLE
  5
30
102
{ACAD_XDICTIONARY
360
DFF
102
}
102
{ACAD_REACTORS
330
29
102
}
330
29
100
AcDbVisualStyle
  2
Wireframe
 70
     5
 71
     0
 72
     2
 73
     0
 90
        0
 40
-0.6
 41
-30.0
 62
     5
 63
     7
 74
     1
 91
        4
 64
     7
 65
   257
 75
     1
175
     1
 42
1.0
 92
        0
 66
   257
 43
1.0
 76
     1
 77
     6
 78
     2
 67
     7
 79
     3
170
     0
171
     0
290
     0
174
     0
 93
        1
 44
0.0
173
     0
291
     0
 45
0.0
1001
ACAD
1000
AcDbSavedByObjectVersion
1070
     0
  0
VISUALSTYLE
  5
3C
102
{ACAD_XDICTIONARY
360
E17
102
}
102
{ACAD_REACTORS
330
29
102
}
330
29
100
AcDbVisualStyle
  2
X-Ray
 70
    25
 71
     2
 72
     2
 73
     1
 90
        1
 40
0.5
 41
-30.0
 62
     5
 63
     7
 74
     1
 91
        0
 64
     7
 65
   257
 75
     1
175
     1
 42
1.0
 92
        8
 66
     7
 43
1.0
 76
     1
 77
     6
 78
     2
 67
     7
 79
     3
170
     0
171
     0
290
     0
174
     0
 93
       13
 44
0.0
173
     0
291
     0
 45
0.0
1001
ACAD
1000
AcDbSavedByObjectVersion
1070
     0
  0
DICTIONARYVAR
  5
D2A
102
{ACAD_REACTORS
330
D27
102
}
330
D27
100
DictionaryVariables
280
     0
  1
1:1
  0
DICTIONARYVAR
  5
D29
102
{ACAD_REACTORS
330
D27
102
}
330
D27
100
DictionaryVariables
280
     0
  1
STANDARD
  0
DICTIONARYVAR
  5
D28
102
{ACAD_REACTORS
330
D27
102
}
330
D27
100
DictionaryVariables
280
     0
  1
STANDARD
  0
DICTIONARYVAR
  5
E33
102
{ACAD_REACTORS
330
D27
102
}
330
D27
100
DictionaryVariables
280
     0
  1
1
  0
DICTIONARYVAR
  5
E32
102
{ACAD_REACTORS
330
D27
102
}
330
D27
100
DictionaryVariables
280
     0
  1
1
  0
DICTIONARYVAR
  5
E31
102
{ACAD_REACTORS
330
D27
102
}
330
D27
100
DictionaryVariables
280
     0
  1
0
  0
DICTIONARYVAR
  5
E2E
102
{ACAD_REACTORS
330
D27
102
}
330
D27
100
DictionaryVariables
280
     0
  1
0
  0
DICTIONARYVAR
  5
E2F
102
{ACAD_REACTORS
330
D27
102
}
330
D27
100
DictionaryVariables
280
     0
  1
0
  0
DICTIONARYVAR
  5
E2D
102
{ACAD_REACTORS
330
D27
102
}
330
D27
100
DictionaryVariables
280
     0
  1
2
  0
DICTIONARYVAR
  5
E2C
102
{ACAD_REACTORS
330
D27
102
}
330
D27
100
DictionaryVariables
280
     0
  1
1
  0
DICTIONARYVAR
  5
E30
102
{ACAD_REACTORS
330
D27
102
}
330
D27
100
DictionaryVariables
280
     0
  1
127
  0
DICTIONARYVAR
  5
E3D
102
{ACAD_REACTORS
330
D27
102
}
330
D27
100
DictionaryVariables
280
     0
  1
2
  0
DICTIONARY
  5
D5F
330
6F
100
AcDbDictionary
280
     1
281
     1
  3
ADSK_XREC_LAYOUTTHUMBNAIL
360
D60
  0
DICTIONARY
  5
1A
330
19
100
AcDbDictionary
280
     1
281
     1
  3
BUMPTILE
360
1C
  3
DIFFUSETILE
360
1B
  3
OPACITYTILE
360
1F
  3
REFLECTIONTILE
360
1E
  3
REFRACTIONTILE
360
20
  3
SPECULARTILE
360
1D
  0
DICTIONARY
  5
12
330
11
100
AcDbDictionary
280
     1
281
     1
  3
BUMPTILE
360
14
  3
DIFFUSETILE
360
13
  3
OPACITYTILE
360
17
  3
REFLECTIONTILE
360
16
  3
REFRACTIONTILE
360
18
  3
SPECULARTILE
360
15
  0
DICTIONARY
  5
22
330
21
100
AcDbDictionary
280
     1
281
     1
  3
BUMPTILE
360
24
  3
DIFFUSETILE
360
23
  3
OPACITYTILE
360
27
  3
REFLECTIONTILE
360
26
  3
REFRACTIONTILE
360
28
  3
SPECULARTILE
360
25
  0
DICTIONARY
  5
DD8
330
65
100
AcDbDictionary
280
     1
281
     1
  3
ACAD_ROUNDTRIP_2008_TABLESTYLE_CELLSTYLEMAP
360
E3E
  0
DICTIONARY
  5
DFD
330
2F
100
AcDbDictionary
280
     1
281
     1
  3
ACAD_XREC_ROUNDTRIP
360
DFE
  0
DICTIONARY
  5
E54
330
E37
100
AcDbDictionary
280
     1
281
     1
  3
ACAD_XREC_ROUNDTRIP
360
E55
  0
DICTIONARY
  5
E52
330
E36
100
AcDbDictionary
280
     1
281
     1
  3
ACAD_XREC_ROUNDTRIP
360
E53
  0
DICTIONARY
  5
DFB
330
2E
100
AcDbDictionary
280
     1
281
     1
  3
ACAD_XREC_ROUNDTRIP
360
DFC
  0
DICTIONARY
  5
E09
330
35
100
AcDbDictionary
280
     1
281
     1
  3
ACAD_XREC_ROUNDTRIP
360
E0A
  0
DICTIONARY
  5
E11
330
39
100
AcDbDictionary
280
     1
281
     1
  3
ACAD_XREC_ROUNDTRIP
360
E12
  0
DICTIONARY
  5
E03
330
32
100
AcDbDictionary
280
     1
281
     1
  3
ACAD_XREC_ROUNDTRIP
360
E04
  0
DICTIONARY
  5
E07
330
34
100
AcDbDictionary
280
     1
281
     1
  3
ACAD_XREC_ROUNDTRIP
360
E08
  0
DICTIONARY
  5
E21
330
41
100
AcDbDictionary
280
     1
281
     1
  3
ACAD_XREC_ROUNDTRIP
360
E22
  0
DICTIONARY
  5
E0F
330
38
100
AcDbDictionary
280
     1
281
     1
  3
ACAD_XREC_ROUNDTRIP
360
E10
  0
DICTIONARY
  5
DF3
330
2A
100
AcDbDictionary
280
     1
281
     1
  3
ACAD_XREC_ROUNDTRIP
360
DF4
  0
DICTIONARY
  5
DF5
330
2B
100
AcDbDictionary
280
     1
281
     1
  3
ACAD_XREC_ROUNDTRIP
360
DF6
  0
DICTIONARY
  5
DF7
330
2C
100
AcDbDictionary
280
     1
281
     1
  3
ACAD_XREC_ROUNDTRIP
360
DF8
  0
DICTIONARY
  5
DF9
330
2D
100
AcDbDictionary
280
     1
281
     1
  3
ACAD_XREC_ROUNDTRIP
360
DFA
  0
DICTIONARY
  5
E01
330
31
100
AcDbDictionary
280
     1
281
     1
  3
ACAD_XREC_ROUNDTRIP
360
E02
  0
DICTIONARY
  5
E1D
330
3F
100
AcDbDictionary
280
     1
281
     1
  3
ACAD_XREC_ROUNDTRIP
360
E1E
  0
DICTIONARY
  5
E0D
330
37
100
AcDbDictionary
280
     1
281
     1
  3
ACAD_XREC_ROUNDTRIP
360
E0E
  0
DICTIONARY
  5
E1F
330
40
100
AcDbDictionary
280
     1
281
     1
  3
ACAD_XREC_ROUNDTRIP
360
E20
  0
DICTIONARY
  5
E05
330
33
100
AcDbDictionary
280
     1
281
     1
  3
ACAD_XREC_ROUNDTRIP
360
E06
  0
DICTIONARY
  5
E1B
330
3E
100
AcDbDictionary
280
     1
281
     1
  3
ACAD_XREC_ROUNDTRIP
360
E1C
  0
DICTIONARY
  5
E19
330
3D
100
AcDbDictionary
280
     1
281
     1
  3
ACAD_XREC_ROUNDTRIP
360
E1A
  0
DICTIONARY
  5
E13
330
3A
100
AcDbDictionary
280
     1
281
     1
  3
ACAD_XREC_ROUNDTRIP
360
E14
  0
DICTIONARY
  5
E15
330
3B
100
AcDbDictionary
280
     1
281
     1
  3
ACAD_XREC_ROUNDTRIP
360
E16
  0
DICTIONARY
  5
E0B
330
36
100
AcDbDictionary
280
     1
281
     1
  3
ACAD_XREC_ROUNDTRIP
360
E0C
  0
DICTIONARY
  5
DFF
330
30
100
AcDbDictionary
280
     1
281
     1
  3
ACAD_XREC_ROUNDTRIP
360
E00
  0
DICTIONARY
  5
E17
330
3C
100
AcDbDictionary
280
     1
281
     1
  3
ACAD_XREC_ROUNDTRIP
360
E18
  0
XRECORD
  5
D60
102
{ACAD_REACTORS
330
D5F
102
}
330
D5F
100
AcDbXrecord
280
     1
310
280000000001000080000000010008000000000000800000000000000000000000010000000000003028210000000000FFFFFF000000000000000000000000000000000000000000000000000000000000000000330000006600000099000000CC000000FF00000000330000333300006633000099330000CC330000FF3300
310
0000660000336600006666000099660000CC660000FF66000000990000339900006699000099990000CC990000FF99000000CC000033CC000066CC000099CC0000CCCC0000FFCC000000FF000033FF000066FF000099FF0000CCFF0000FFFF000000003300330033006600330099003300CC003300FF003300003333003333
310
33006633330099333300CC333300FF33330000663300336633006666330099663300CC663300FF66330000993300339933006699330099993300CC993300FF99330000CC330033CC330066CC330099CC3300CCCC3300FFCC330000FF330033FF330066FF330099FF3300CCFF3300FFFF330000006600330066006600660099
310
006600CC006600FF00660000336600333366006633660099336600CC336600FF33660000666600336666006666660099666600CC666600FF66660000996600339966006699660099996600CC996600FF99660000CC660033CC660066CC660099CC6600CCCC6600FFCC660000FF660033FF660066FF660099FF6600CCFF6600
310
FFFF660000009900330099006600990099009900CC009900FF00990000339900333399006633990099339900CC339900FF33990000669900336699006666990099669900CC669900FF66990000999900339999006699990099999900CC999900FF99990000CC990033CC990066CC990099CC9900CCCC9900FFCC990000FF99
310
0033FF990066FF990099FF9900CCFF9900FFFF99000000CC003300CC006600CC009900CC00CC00CC00FF00CC000033CC003333CC006633CC009933CC00CC33CC00FF33CC000066CC003366CC006666CC009966CC00CC66CC00FF66CC000099CC003399CC006699CC009999CC00CC99CC00FF99CC0000CCCC0033CCCC0066CC
310
CC0099CCCC00CCCCCC00FFCCCC0000FFCC0033FFCC0066FFCC0099FFCC00CCFFCC00FFFFCC000000FF003300FF006600FF009900FF00CC00FF00FF00FF000033FF003333FF006633FF009933FF00CC33FF00FF33FF000066FF003366FF006666FF009966FF00CC66FF00FF66FF000099FF003399FF006699FF009999FF00CC
310
99FF00FF99FF0000CCFF0033CCFF0066CCFF0099CCFF00CCCCFF00FFCCFF0000FFFF0033FFFF0066FFFF0099FFFF00CCFFFF00FFFFFF00000000000D0D0D001A1A1A00282828003535350043434300505050005D5D5D006B6B6B00787878008686860093939300A1A1A100AEAEAE00BBBBBB00C9C9C900D6D6D600E4E4E400
310
F1F1F100FFFFFF000000000000000000000000000000000000000000000000000000000000000000000000000000000000000000000000000000000000000000000000000000000000000000000000000000000000000000000000000000000000000000000000000000000000000000000000000000000000000000000000
310
00000000000000000000000000000000000000000000000000000000000000000000000000000000000000000000000000000000000000000000000000000000000000000000000000000000000000000000000000000000000000000000000000000000000000000000000000000000000000000000000000000000000000
310
00000000000000000000000000000000000000000000000000000000000000000000000000000000000000000000000000000000000000000000000000000000000000000000000000000000000000000000000000000000000000000000000000000000000000000000000000000000000000000000000000000000000000
310
00000000000000000000000000000000000000000000000000000000000000000000000000000000000000000000000000000000000000000000000000000000000000000000000000000000000000000000000000000000000000000000000000000000000000000000000000000000000000000000000000000000000000
310
00000000000000000000000000000000000000000000000000000000000000000000000000000000000000000000000000000000000000000000000000000000000000000000000000000000000000000000000000000000000000000000000000000000000000000000000000000000000000000000000000000000000000
310
00000000000000000000000000000000000000000000000000000000000000000000000000000000000000000000000000000000000000000000000000000000000000000000000000000000000000000000000000000000000000000000000000000000000000000000000000000000000000000000000000000000000000
310
00000000000000000000000000000000000000000000000000000000000000000000000000000000000000000000000000000000000000000093000000000000000000000000000000000000000000000000000000000000000000000000000000000000000000000000000000000000000000000000000000000000000000
310
00000000000000930000000000000000000000000000000000000000000000000000000000000000000000000000000000000000000000000000000000000000000000000000000000000000000000000000000000000000000000000000000000000000000000000000000000000000000000000000000000000000000000
310
00000000000000000000000000000000000000000000000000000000000000000000000000000000000000000000000000000000000000000000009393939393939393939393939393939393939393939393939393939393939393939393939393939393939393939393939393939393939393939393939393939393939393
310
93939393939393939393000000000000000000000000000000000000000000000000000000000000000000000000000000000000000000000000000000000000000000000000000000000000000000000000000000000000000000000000000000000000000000000000000000000000000000000000000000000000000000
310
00000000000000000000000000000000000000000000000000000000000000000000000000000000000000000000000000000000000000000000000000930000000000000000000000000000000000000000000000000000000000000000000093939393939300000000000000000000000000000000000000000000000000
310
00000000000000000000009300000000000000000000000000000000000000000000000000000000000000000000000000000000000000000000000000000000000000000000000000000000000000000000000000000000000000000000000000000000000000000000000000000000000000000000000000000000000000
310
00000000000000000000000000000000000000000000000000000000000000000000000000000000000000000000000000000000000000000000000000000093000000000000000000000000000000000000000000000000000000000000000000009393939393930000000000000000000000000000000000000000000000
310
00000000000000000000000000930000000000000000000000000000000000000000000000000000000000000000000000000000000000000000000000000000000000000000000000000000000000000000000000000000000000000000000000000000000000000000000000000000000000000000000000000000000000
310
00000000000000000000000000000000000000000000000000000000000000000000000000000000000000000000000000000000000000000000000000000000009300000000000000000000000000000000000000000000000000000000000000000000000000000000000000000000000000000000000000000000000000
310
00000000000000000000000000000093000000000000000000000000000000000000000000000000000000000000000000000000000000000000000000000000000000000000000000000000000000000000000000000000000000000000000000000000000000000000000000000000000000000000000000000000000000
310
00000000000000000000000000000000000000000000000000000000000000000000000000000000000000000000000000000000000000000000000000000000000000930000000000000000000000000000000000000000000000000000000000000000000000000000000000000000000000000000000000000000000000
310
00000000000000000000000000000000009300000000000000000000000000000000000000000000000000000000000000000000000000000000000000000000000000000000000000000000000000000000000000000000000000000000000000000000000000000000000000000000000000000000000000000000000000
310
0000000000000000000000000000000000000000000000000000000000000000000000000000000000000000000000000000000000000000000000000000000000000000009300000000000000000000000000000000000000000000000000000000000000F5F5F5F5F5F59393939393939393939393939393939393939393
310
93939393939393939393939393939393939393939393939393930000000000000000000000000000000000000000000000000000000000000000000000000000000000000000000000000000000000000000000000000000000000000000000000000000000000000000000000000000000000000000000000000000000000
310
00000000000000000000000000000000000000000000000000000000000000000000000000000000000000000000000000000000000000000000000000000000000000000000009300000000000000000000000000000000000000000000000000000000F5F5F500000000000000000000000000F5F5F50000000000000000
310
00000000000000000000000000000000000000000093000000930000000000000000000000000000000000000000000000000000000000000000000000000000000000000000000000000000000000000000000000000000000000000000000000000000000000000000000000000000000000000000000000000000000000
310
00000000000000000000000000000000000000000000000000000000000000000000000000000000000000000000000000000000000000000000000000000000000000000000000000930000000000000000000000000000000000000000000000000000F5F500000000000000000000000000000000000000F5F500000000
310
00000000000000000000000000000000000000000000009300000093000000000000000000000000000000000000000000000000000000000000000000000000000000000000000000000000000000000000000000000000000000000000000000000000000000000000000000000000000000000000000000000000000000
310
00000000000000000000000000000000000000000000000000000000000000000000000000000000000000000000000000000000000000000000000000000000000000000000000000000093000000000000000000000000000000000000000000000000F5F50000000000000000000000000000000000000000000000F5F5
310
00000000000000000000000000000000000000000000000000930000009300000000000000000000000000000000000000000000000000000000000000000000000000000000000000000000000000000000000000000000000000000000000000000000000000000000000000000000000000000000000000000000000000
310
00000000000000000000000000000000000000000000000000000000000000000000000000000000000000000000000000000000000000000000000000000000000000000000000000000000009300000000000000000000000000000000000000000000F5F500000000000000000000000000000000000000000000000000
310
0000F5F5000000000000000000000000000000000000000000000093000000930000000000000000000000000000000000000000000000000000000000000000000000000000000000000000000000000000000000000000000000000000000000000000000000000000000000000000000000000000000000000000000000
310
0000000000000000000000000000000000000000000000000000000000000000000000000000000000000000000000000000000000000000000000000000000000000000000000000000000000000093000000000000000000000000000000000000000000F500000000000000000000000000000000000000000000000000
310
000000000000F5000000000000000000000000000000000000000000009300000093000000000000000000000000000000000000000000000000000000000000000000000000000000000000000000000000000000000000000000000000000000000000000000000000000000000000000000000000000000000000000000
310
0000000000000000000000000000000000000000000000000000000000000000000000000000000000000000000000000000000000000000000000000000000000000000000000000000000000000000009300000000000000000000000000000000000000F5F5000000000000000000000000000000000000000000000000
310
000000000000000000F5F50000000000000000000000000000000000000000930000009300000000000000000000000000000000000000000000000000000000000000000000000000000000000000000000000000000000000000000000000000000000000000000000000000000000000000000000000000000000000000
310
00000000000000000000000000000000000000000000000000000000000000000000000000000000000000000000000000000000000000000000000000000000000000000000000000000000000000000000009300000000000000000000000000000000000000F50000000000000000000000000000000000000000000000
310
000000000000000000000000F5000000000000000000000000000000000000000093000000930000000000000000000000000000000000000000000000000000000000000000000000000000000000000000000000000000000000000000000000000000000000000000000000000000000000000000000000000000000000
310
00000000000000000000000000000000000000000000000000000000000000000000000000000000000000000000000000000000000000000000000000000000000000000000000000000000000000000000000000930000000000000000000000000000000000F5F500000000000000000000000000000000000000000000
310
000000000000000000000000000000F5F50000000000000000000000000000000000009300000093000000000000000000000000000000000000000000000000000000000000000000000000000000000000000000000000000000000000000000000000000000000000000000000000000000000000000000000000000000
310
0000000000000000000000000000000000000000000000000000000000000000000000000000000000000000000000000000000000000000000000000000000000000000000000000000000000000000000000000000009300000000000000000000000000000000F500000000000000000000000000000000000000000000
310
00000000000000000000000000000000000000F50000000000000000000000000000000000930000009300000000000000000000000000000000000000000000000000000000000000000000000000000000000000000000000000000000000000000000000000000000000000000000000000000000000000000000000000
310
00000000000000000000000000000000000000000000000000000000000000000000000000000000000000000000000000000000000000000000000000000000000000000000000000000000000000000000000000000000009300000000000000000000000000000000F50000000000000000000000000000000000000000
310
000000000000000000000000000000000000000000F5000000000000000000000000000000000093000000930000000000000000000000000000000000000000000000000000000000000000000000000000000000000000000000000000000000000000000000000000000000000000000000000000000000000000000000
310
0000000000000000000000000000000000000000000000000000000000000000000000000000000000000000000000000000000000000000000000000000000000000000000000000000000000000000000000000000000000000093000000000000000000000000000000F500000000000000000000000000000000000000
310
000000000000000000000000000000000000000000000000F5000000000000000000000000000000009300000093000000000000000000000000000000000000000000000000000000000000000000000000000000000000000000000000000000000000000000000000000000000000000000000000000000000000000000
310
00000000000000000000000000000000000000000000000000000000000000000000000000000000000000000000000000000000000000000000000000000000000000000000000000000000000000000000000000000000000000000093000000000000000000000000000000F50000000000000000000000000000000000
310
000000000000000000000000000000000000000000000000000000F5000000000000000000000000000000930000009300000000000000000000000000000000000000000000000000000000000000000000000000000000000000000000000000000000000000000000000000000000000000000000000000000000000000
310
00000000000000000000000000000000000000000000000000000000000000000000000000000000000000000000000000000000000000000000000000000000000000000000000000000000000000000000000000000000000000000000009300000000000000000000000000F5F500000000000000000000000000000000
310
0000000000000000000000000000000000000000000000000000000000F5F5000000000000000000000000000093000000930000000000000000000000000000000000000000000000000000000000000000000000000000000000000000000000000000000000000000000000000000000000000000000000000000000000
310
0000000000000000000000000000000000000000000000000000000000000000000000000000000000000000000000000000000000000000000000000000000000000000000000000000000000000000000000000000000000000000000000000093000000000000000000000000F500000000000000000000000000000000
310
000000000000000000000000000000000000000000000000000000000000000000F5000000000000000000000000009300000093000000000000000000000000000000000000000000000000000000000000000000000000000000000000000000000000000000000000000000000000000000000000000000000000000000
310
000000000000000000000000000000000000000000000000000000000000000000000000000000000000000000000000000000000000000000000000000000000000000000000000000000000000000000000000000000000000000000000000000000930000000000000000000000F5000000000000000000000000000000
310
000000000000000000000000000000000000000000000000000000000000000000000000F5000000000000000000000000930000009300000000000000000000000000000000000000000000000000000000000000000000000000000000000000000000000000000000000000000000000000000000000000000000000000
310
00000000000000000000000000000000000000000000000000000000000000000000000000000000000000000000000000000000000000000000000000000000000000000000000000000000000000000000000000000000000000000000000000000000009300000000000000000000F50000000000000000000000000000
310
000000000000000000000000000000000000000000000000000000000000000000000000000000F5000000000000000000000093000000930000000000000000000000000000000000000000000000000000000000000000000000000000000000000000000000000000000000000000000000000000000000000000000000
310
0000000000000000000000000000000000000000000000000000000000000000000000000000000000000000000000000000000000000000000000000000000000000000000000000000000000000000000000000000000000000000000000000000000000000093000000000000000000F500000000000000000000000000
310
000000000000000000000000000000000000000000000000000000000000000000000000000000000000F5000000000000000000009300000093000000000000000000000000000000000000000000000000000000000000000000000000000000000000000000000000000000000000000000000000000000000000000000
310
000000000000000000000000000000000000000000000000000000000000000000000000000000000000000000000000000000000000000000000000000000000000000000000000000000000000000000000000000000000000000000000000000000000000000000930000000000000000F5000000000000000000000000
310
000000000000000000000000000000000000000000000000000000000000000000000000000000000000000000F5000000000000000000930000009300000000000000000000000000000000000000000000000000000000000000000000000000000000000000000000000000000000000000000000000000000000000000
310
00000000000000000000000000000000000000000000000000000000000000000000000000000000000000000000000000000000000000000000000000000000000000000000000000000000000000000000000000000000000000000000000000000000000000000000009300000000000000F50000000000000000000000
310
000000000000000000000000000000000000000000000000000000000000000000000000000000000000000000000000F5000000000000000093000000930000000000000000000000000000000000000000000000000000000000000000000000000000000000000000000000000000000000000000000000000000000000
310
0000000000000000000000000000000000000000000000000000000000000000000000000000000000000000000000000000000000000000000000000000000000000000000000000000000000000000000000000000000000000000000000000000000000000000000000000093000000000000F500000000000000000000
310
000000000000000000000000000000000000000000000000000000000000000000000000000000000000000000000000000000F5000000000000009300000093000000000000000000000000000000000000000000000000000000000000000000000000000000000000000000000000000000000000000000000000000000
310
00000000000000000000000000000000000000000000000000000000000000000000000000000000000000000000000000000000000000000000000000000000000000000000000000000000000000000000000000000000000000000000000000000000000000000000000000000093000000000000F50000000000000000
310
00000000000000000000000000000000000000000000F5000000000000000000000000000000000000000000000000000000000000F500000000000000930000009300000000000000000000000000000000000000000000000000000000000000000000000000000000000000000000000000000000000000000000000000
310
0000000000000000000000000000000000000000000000000000000000000000000000000000000000000000000000000000000000000000000000000000000000000000000000000000000000000000000000000000000000000000000000000000000000000000000000000000000000930000000000F500000000000000
310
00000000939393939393939393939393939393939393939393F5F50000000000000000000000000000000000000000000000000000000000F500000000000093000000930000000000000000000000000000000000000000000000000000000000000000000000000000000000000000000000000000000000000000000000
310
00000000000000000000000000000000000000000000000000000000000000000000000000000000000000000000000000000000000000000000000000000000000000000000000000000000000000000000000000000000000000000000000000000000000000000000000000000000000000930000000000F50000000000
310
0000000000000093930000000000000000000000000000F5F5000000F5F500000000000000000000000000000000000000000000000000000000F50000000000009300000093000000000000000000000000000000000000000000000000000000000000000000000000000000000000000000000000000000000000000000
310
0000000000000000000000000000000000000000000000000000000000000000000000000000000000000000000000000000000000000000000000000000000000000000000000000000000000000000000000000000000000000000000000000000000000000000000000000000000000000000009300000000F500000000
310
000000000000000000930000000000000000000000000000F5F50000000000F5F500000000000000000000000000000000000000000000000000000000F50000000000930000009300000000000000000000000000000000000000000000000000000000000000000000000000000000000000000000000000000000000000
310
00000000000000000000000000000000000000000000000000000000000000000000000000000000000000000000000000000000000000000000000000000000000000000000000000000000000000000000000000000000000000000000000000000000000000000000000000000000000000000000009300000000F50000
310
0000000000000000000000930000000000000000000000000000F500000000000000F500000000000000000000000000000000000000000000000000000000F5000000000093000000930000000000000000000000000000000000000000000000000000000000000000000000000000000000000000000000000000000000
310
0000000000000000000000000000000000000000000000000000000000000000000000000000000000000000000000000000000000000000000000000000000000000000000000000000000000000000000000000000000000000000000000000000000000000000000000000000000000000000000000000093000000F500
310
00000000000000000000000000930000000000000000000000000000F500000000000000F50000000000000000000000000000000000000000000000000000000000F5000000009300000093000000000000000000000000000000000000000000000000000000000000000000000000000000000000000000000000000000
310
00000000000000000000000000000000000000000000000000000000000000000000000000000000000000000000000000000000000000000000000000000000000000000000000000000000000000000000000000000000000000000000000000000000000000000000000000000000000000000000000000000093000000
310
F50000000000000000000000000000930000000000000000000000000000F5000000F5000000F50000000000000000000000000000000000000000000000000000000000F500000000930000009300000000000000000000000000000000000000000000000000000000000000000000000000000000000000000000000000
310
00000000000000000000000000000000000000000000000000000000000000000000000000000000000000000000000000000000000000000000000000000000000000000000000000000000000000000000000000000000000000000000000000000000000000000000000000000000000000000000000000000000009300
310
0000F50000000000000000000000000000930000000000000000000000000000F50000F5F5F50000F50000000000000000000000000000000000000000000000000000000000F50000000093000000930000000000000000000000000000000000000000000000000000000000000000000000000000000000000000000000
310
00000000000000000000000000000000000000000000000000000000000000000000000000000000000000000000000000000000000000000000000000000000000000000000000000000000000000000000000000000000000000000000000000000000000000000000000000000000000000000000000000000000000000
310
93000000F5000000000000000000000000000093000000000000000000000000000000F5F5F500F5F5F5000000000000000000000000000000000000000000000000000000000000F5000000009300000093000000000000000000000000000000000000000000000000000000000000000000000000000000000000000000
310
00000000000000000000000000000000000000000000000000000000000000000000000000000000000000000000000000000000000000000000000000000000000000000000000000000000000000000000000000000000000000000000000000000000000000000000000000000000000000000000000000000000000000
310
0000930000F50000000000000000000000000000009300000000000000000000000000000000F5F500F5F50000000000000000000000000000000000000000000000000000000000000000F5000000930000009300000000000000000000000000000000000000000000000000000000000000000000000000000000000000
310
00000000000000000000000000000000000000000000000000000000000000000000000000000000000000000000000000000000000000000000000000000000000000000000000000000000000000000000000000000000000000000000000000000000000000000000000000000000000000000000000000000000000000
310
00000000930000F50000000000000000000000000000009300000000000000F5F5F5F5F5F500000000F5F5F500000000F5F5F5F5F5F50000000000000000000000000000000000000000000000F500000093000000930000000000000000000000000000000000000000000000000000000000000000000000000000000000
310
00000000000000000000000000000000000000000000000000000000000000000000000000000000000000000000000000000000000000000000000000000000000000000000000000000000000000000000000000000000000000000000000000000000000000000000000000000000000000000000000000000000000000
310
000000000000930000F500000000000000000000000000000093000000000000F5F500000000F5F5000000F500F5F50000F5F500000000F5F500000000000000000000000000000000000000000000F50000009300000093000000000000000000000000000000000000000000000000000000000000000000000000000000
310
00000000000000000000000000000000000000000000000000000000000000000000000000000000000000000000000000000000000000000000000000000000000000000000000000000000000000000000000000000000000000000000000000000000000000000000000000000000000000000000000000000000000000
310
0000000000000000930000F500000000000000000000000000000093000000000000F5000000000000F5F50000F500F5F50000F5000000000000F500000000000000000000000000000000000000000000F5000000930000009300000000000000000000000000000000000000000000000000000000000000000000000000
310
00000000000000000000000000000000000000000000000000000000000000000000000000000000000000000000000000000000000000000000000000000000000000000000000000000000000000000000000000000000000000000000000000000000000000000000000000000000000000000000000000000000000000
310
000000000000000000009300F50000000000000000000000000000000093000000000000F50000F5F5000000F50000F500F5F500F5000000F5F50000F50000000000000000000000000000000000000000000000F5000093000000930000000000000000000000000000000000000000000000000000000000000000000000
310
00000000000000000000000000000000000000000000000000000000000000000000000000000000000000000000000000000000000000000000000000000000000000000000000000000000000000000000000000000000000000000000000000000000000000000000000000000000000000000000000000000000000000
310
0000000000000000000000009300F50000000000000000000000000000939393000000000000F50000F5F5000000F50000F5F5F5F500F5000000F5F50000F50000000000000000000000000000000000000000000000F500009300939393000000000000000000000000000000000000000000000000000000000000000000
310
00000000000000000000000000000000000000000000000000000000000000000000000000000000000000000000000000000000000000000000000000000000000000000000000000000000000000000000000000000000000000000000000000000000000000000000000000000000000000000000000000000000000000
310
00000000000000000000000000009300F50000000000000000000000000000939393000000000000F500000000000000F5F5F5F500F5F5F5F5F5000000000000F50000000000000000000000000000000000000000000000F50000930093939300000000000000000000000000000000000000000000000000000000000000
310
00000000000000000000000000000000000000000000000000000000000000000000000000000000000000000000000000000000000000000000000000000000000000000000000000000000000000000000000000000000000000000000000000000000000000000000000000000000000000000000000000000000000000
310
0000000000000000000000000000000093F5000000000000000000000000000000939393000000000000F5000000000000F500F50000000000F500F5000000000000F5000000000000000000000000000000000000000000000000F50093009393930000000000000000000000000000000000000000000000000000000000
310
00000000000000000000000000000000000000000000000000000000000000000000000000000000000000000000000000000000000000000000000000000000000000000000000000000000000000000000000000000000000000000000000000000000000000000000000000000000000000000000000000000000000000
310
00000000000000000000000000000000000093F500000000000000000000000000000093939300000000000000F5F5000000F5F5F500000000000000F5F5F5000000F5F500000000000000000000000000000000000000000000000000F5009300939393000000000000000000000000000000000000000000000000000000
310
00000000000000000000000000000000000000000000000000000000000000000000000000000000000000000000000000000000000000000000000000000000000000000000000000000000000000000000000000000000000000000000000000000000000000000000000000000000000000000000000000000000000000
310
000000000000000000000000000000000000000093F50000000000000000000000000000009393930000000000000000F5F5F5F50000F5000000F5000000F50000F5F5F5F50000000000000000000000000000000000000000000000000000F500930093939300000000000000000000000000000000000000000000000000
310
00000000000000000000000000000000000000000000000000000000000000000000000000000000000000000000000000000000000000000000000000000000000000000000000000000000000000000000000000000000000000000000000000000000000000000000000000000000000000000000000000000000000000
310
0000000000000000000000000000000000000000000093000000000000000000000000000000000000930000000000000000000000000000F5000000F5000000F5000000000000000000000000000000000000000000000000000000000000000000F593000000930000000000000000000000000000000000000000000000
310
00000000000000000000000000000000000000000000000000000000000000000000000000000000000000000000000000000000000000000000000000000000000000000000000000000000000000000000000000000000000000000000000000000000000000000000000000000000000000000000000000000000000000
310
0000000000000000000000000000000000000000000000009300000000000000000000000000000000000093000000000000000000000000F5F5F500000000000000F5F5F500000000000000000000000000000000000000000000000000000000000000F59300000093000000000000000000000000000000000000000000
310
00000000000000000000000000000000000000000000000000000000000000000000000000000000000000000000000000000000000000000000000000000000000000000000000000000000000000000000000000000000000000000000000000000000000000000000000000000000000000000000000000000000000000
310
000000000000000000000000000000000000000000000000000093000000000000000000000000000000000000930000000000F5F5F5F500F5F5F50000F50000000000F50000F5F5F500F5F5F5F5000000000000000000000000000000000000000000000000F5930000009300000000000000000000000000000000000000
310
00000000000000000000000000000000000000000000000000000000000000000000000000000000000000000000000000000000000000000000000000000000000000000000000000000000000000000000000000000000000000000000000000000000000000000000000000000000000000000000000000000000000000
310
000000000000000000000000000000000000000000000000000000009300000000000000000000000000000000000093000000F5F5000000F5F5F50000F500F5F5F500F5F5F500F50000F5F5F5000000F5F500000000000000000000000000000000000000000000F593000000930000000000000000000000000000000000
310
00000000000000000000000000000000000000000000000000000000000000000000000000000000000000000000000000000000000000000000000000000000000000000000000000000000000000000000000000000000000000000000000000000000000000000000000000000000000000000000000000000000000000
310
0000000000000000000000000000000000000000000000000000000000009300000000000000000000000000000000000093000000F500000000F5F5F5F500F5F50000F5F5F50000F5F500F5F5F5F500000000F500000000000000000000000000000000000000000000F59300000093000000000000000000000000000000
310
00000000000000000000000000000000000000000000000000000000000000000000000000000000000000000000000000000000000000000000000000000000000000000000000000000000000000000000000000000000000000000000000000000000000000000000000000000000000000000000000000000000000000
310
000000000000000000000000000000000000000000000000000000000000000093000000000000000000000000000000000000930000F500000000F5F5F5F5F5F5000000F5F5F5F5F5000000F5F5F5F5F5F500000000F5000000000000000000000000000000000000000000F5930000009300000000000000000000000000
310
00000000000000000000000000000000000000000000000000000000000000000000000000000000000000000000000000000000000000000000000000000000000000000000000000000000000000000000000000000000000000000000000000000000000000000000000000000000000000000000000000000000000000
310
00000000000000000000000000000000000000000000000000000000000000000000930000000000000000000000000000000000009300009300000000F5F5F5F500000000F5F5000000F5F500000000F5F5F5F500000000930000000000000000000000000000000000000000000093000000930000000000000000000000
310
00000000000000000000000000000000000000000000000000000000000000000000000000000000000000000000000000000000000000000000000000000000000000000000000000000000000000000000000000000000000000000000000000000000000000000000000000000000000000000000000000000000000000
310
000000000000000000000000000000000000000000000000000000000000000000000000F50000000000000000000000000000000000009300009300000000000000F5000000F5F50000000000F5F5000000F50000000000000093000000000000000000000000000000000000000000F50000000093000000000000000000
310
00000000000000000000000000000000000000000000000000000000000000000000000000000000000000000000000000000000000000000000000000000000000000000000000000000000000000000000000000000000000000000000000000000000000000000000000000000000000000000000000000000000000000
310
0000000000000000000000000000000000000000000000000000000000000000000000000000F500000000000000000000000000000000000093000093F5000000000000F5000000F500000000000000F5000000F5000000000000F593000000000000000000000000000000000000000000F5000000009300000000000000
310
00000000000000000000000000000000000000000000000000000000000000000000000000000000000000000000000000000000000000000000000000000000000000000000000000000000000000000000000000000000000000000000000000000000000000000000000000000000000000000000000000000000000000
310
00000000000000000000000000000000000000000000000000000000000000000000000000000000F500000000000000000000000000000000000093000093F5F500000000F5F5000000F5000000F5000000F5000000F5F500000000F5F593000000000000000000000000000000000000000000F500000000930000000000
310
00000000000000000000000000000000000000000000000000000000000000000000000000000000000000000000000000000000000000000000000000000000000000000000000000000000000000000000000000000000000000000000000000000000000000000000000000000000000000000000000000000000000000
310
000000000000000000000000000000000000000000000000000000000000000000000000000000000000F50000000000000000000000000000000000009300009300F5F5F5F5F5F500000000F5000000F5000000F50000000000F5F5F5F5F50093000000000000000000000000000000000000000000F50000000093000000
310
00000000000000000000000000000000000000000000000000000000000000000000000000000000000000000000000000000000000000000000000000000000000000000000000000000000000000000000000000000000000000000000000000000000000000000000000000000000000000000000000000000000000000
310
0000000000000000000000000000000000000000000000000000000000000000000000000000000000000000F5000000000000000000000000000000000000930000930000000000000000000000F5F50000000000F5F5000000000000000000000093000000000000000000000000000000000000000000F5000000009300
310
00000000000000000000000000000000000000000000000000000000000000000000000000000000000000000000000000000000000000000000000000000000000000000000000000000000000000000000000000000000000000000000000000000000000000000000000000000000000000000000000000000000000000
310
00000000000000000000000000000000000000000000000000000000000000000000000000000000000000000000F500000000000000000000000000000000000093930093000000000000000000000000F5F5000000F5F500000000000000000000000093000000000000000000000000000000000000000000F500000000
310
93000000000000000000000000000000000000000000000000000000000000000000000000000000000000000000000000000000000000000000000000000000000000000000000000000000000000000000000000000000000000000000000000000000000000000000000000000000000000000000000000000000000000
310
000000000000000000000000000000000000000000000000000000000000000000000000000000000000000000000000F50000000000000000000000000000000000939393939393939393939393939393939393939393F5F50000000000000000000000000093000000000000000000000000000000000000000000F50000
310
00009300000000000000000000000000000000000000000000000000000000000000000000000000000000000000000000000000000000000000000000000000000000000000000000000000000000000000000000000000000000000000000000000000000000000000000000000000000000000000000000000000000000
310
000000000000000000000000000000000000000000000000000000000000000000000000000000000000000000000000000000F500000000000000000000000000000000000000009300000000000000000000000000000000000000000000000000000000000000930000000000000000000000000000000000000000F500
310
00000000930000000000000000000000000000000000000000000000000000000000000000000000000000000000000000000000000000000000000000000000000000000000000000000000000000000000000000000000000000000000000000000000000000000000000000000000000000000000000000000000000000
310
0000000000000000000000000000000000000000000000000000000000000000000000000000000000000000000000000000000000F500000000000000000000000000000000000000009300000000000000000000000000000000000000000000000000000000000000930000000000000000000000000000000000000000
310
F5000000000093000000000000000000000000000000000000000000000000000000000000000000000000000000000000000000000000000000000000000000000000000000000000000000000000000000000000000000000000000000000000000000000000000000000000000000000000000000000000000000000000
310
00000000000000000000000000000000000000000000000000000000000000000000000000000000000000000000000000000000000000F50000000000000000000000000000000000000000939393939393939393939393939393939393939393939393939393939393939393000000000000000000000000000000000000
310
0000F500000000009300000000000000000000000000000000000000000000000000000000000000000000000000000000000000000000000000000000000000000000000000000000000000000000000000000000000000000000000000000000000000000000000000000000000000000000000000000000000000000000
310
00000000000000000000000000000000000000000000000000000000000000000000000000000000000000000000000000000000000000000000F50000000000000000000000000000000000000093000000000000000000000000009393939300000000000000000000000000009300000000000000000000000000000000
310
000000F5000000000000930000000000000000000000000000000000000000000000000000000000000000000000000000000000000000000000000000000000000000000000000000000000000000000000000000000000000000000000000000000000000000000000000000000000000000000000000000000000000000
310
000000000000000000000000000000000000000000000000000000000000000000000000000000000000000000000000000000000000000000000000F5000000000000000000000000000000000000009300000000000000000000000000939393930000000000000000000000000000930000000000000000000000000000
310
0000000000F500000000000093000000000000000000000000000000000000000000000000000000000000000000000000000000000000000000000000000000000000000000000000000000000000000000000000000000000000000000000000000000000000000000000000000000000000000000000000000000000000
310
000000000000000000000000000000000000000000000000000000000000000000000000000000000000000000000000000000000000000000000000000000F5000000000000000000000000000000000000000000000000000000000000000000000000000000000000000000000000000000000000000000000000000000
310
000000000000F5000000000000009300000000000000000000000000000000000000000000000000000000000000000000000000000000000000000000000000000000000000000000000000000000000000000000000000000000000000000000000000000000000000000000000000000000000000000000000000000000
310
000000000000000000000000000000000000000000000000000000000000000000000000000000000000000000000000000000000000000000000000000000000000F5000000000000000000000000000000000000000000000000000000000000000000000000000000000000000000000000000000000000000000000000
310
00000000000000F50000000000000000930000000000000000000000000000000000000000000000000000000000000000000000000000000000000000000000000000000000000000000000000000000000000000000000000000000000000000000000000000000000000000000000000000000000000000000000000000
310
0000000000000000000000000000000000000000000000000000000000000000000000000000000000000000000000000000000000000000000000000000000000000000F500000000000000000000000000000000000000000000000000000000000000000000000000000000000000000000000000000000000000000000
310
000000000000000000F5000000000000000093000000000000000000000000000000000000000000000000000000000000000000000000000000000000000000000000000000000000000000000000000000000000000000000000000000000000000000000000000000000000000000000000000000000000000000000000
310
0000000000000000000000000000000000000000000000000000000000000000000000000000000000000000000000000000000000000000000000000000000000000000000000F500000000000000000000000000000000000000000000000000000000000000000000000000000000000000000000000000000000000000
310
00000000000000000000F50000000000000000009300000000000000000000000000000000000000000000000000000000000000000000000000000000000000000000000000000000000000000000000000000000000000000000000000000000000000000000000000000000000000000000000000000000000000000000
310
0000000000000000000000000000000000000000000000000000000000000000000000000000000000000000000000000000000000000000000000000000000000000000000000000000F500000000000000000000000000000000000000000000000000000000000000000000000000000000000000000000000000000000
310
000000000000000000000000F5000000000000000000930000000000000000000000000000000000000000000000000000000000000000000000000000000000000000000000000000000000000000000000000000000000000000000000000000000000000000000000000000000000000000000000000000000000000000
310
00000000000000000000000000000000000000000000000000000000000000000000000000000000000000000000000000000000000000000000000000000000000000000000000000000000F50000000000000000000000000000000000000000000000000000000000000000000000000000000000000000000000000000
310
00000000000000000000000000F500000000000000000000930000000000000000000000000000000000000000000000000000000000F5F5F5F5F5F5F5F5F5F5F5F5F5F5F5F5F5F5F5F5F5F5F5F500000000000000000000000000000000000000000000000000000000000000000000000000000000000000000000000000
310
00000000000000000000000000000000000000000000000000000000000000000000000000000000000000000000000000000000000000000000000000000000000000000000000000000000000000F5F500000000000000000000000000000000000000000000000000000000000000000000000000000000000000000000
310
00000000000000000000000000F5F5000000000000000000000093000000000000000000000000000000000000000000000000F5F5F5F5F500000000000000000000000000F5000000000000000000F5F5F5F5F5F5F50000000000000000000000000000000000000000000000000000000000000000000000000000000000
310
00000000000000000000000000000000000000000000000000000000000000000000000000000000000000000000000000000000000000000000000000000000000000000000000000000000000000000000F50000000000000000000000000000000000000000000000000000000000000000000000000000000000000000
310
000000000000000000000000000000F500000000000000000000000093000000000000000000000000000000000000000000F5F5F5F5000000000000000000000000000000000000000000000000000000000000000000F5F5F5F5000000000000000000000000000000000000000000000000000000000000000000000000
310
00000000000000000000000000000000000000000000000000000000000000000000000000000000000000000000000000000000000000000000000000000000000000000000000000000000000000000000000000F5F500000000000000000000000000000000000000000000000000000000000000000000000000000000
310
000000000000000000000000000000F5F5000000000000000000000000009300000000000000000000000000000000000000F5F5F500000000000000000000000000000000000000000000000000000000000000000000000000000000F5F5F500000000000000000000000000000000000000000000000000000000000000
310
0000000000000000000000000000000000000000000000000000000000000000000000000000000000000000000000000000000000000000000000000000000000000000000000000000000000000000000000000000000000F500000000000000000000000000000000000000000000000000000000000000000000000000
310
00000000000000000000000000000000F5000000000000000000000000000000930000000000000000000000000000000000F5F5000000000000000000000000000000000000000000000000000000000000000000000000000000000000000000F5F5F5F50000000000000000000000000000000000000000000000000000
310
0000000000000000000000000000000000000000000000000000000000000000000000000000000000000000000000000000000000000000000000000000000000000000000000000000000000000000000000000000000000000000F5F5000000000000000000000000000000000000000000000000000000000000000000
310
00000000000000000000000000000000F5F50000000000000000000000000000000093000000000000000000000000000000F5F5F50000000000000000000000000000000000000000000000000000000000000000000000000000000000000000000000000000F5F5F5F50000000000000000000000000000000000000000
310
000000000000000000000000000000000000000000000000000000000000000000000000000000000000000000000000000000000000000000000000000000000000000000000000000000000000000000000000000000000000000000000000F5F50000000000000000000000000000000000000000000000000000000000
310
00000000000000000000000000000000F5F5000000000000000000000000000000000000930000000000000000000000000000F5F50000000000000000000000000000000000000000000000000000000000000000000000000000000000000000000000000000000000000000F5F5F5000000000000000000000000000000
310
00000000000000000000000000000000000000000000000000000000000000000000000000000000000000000000000000000000000000000000000000000000000000000000000000000000000000000000000000000000000000000000000000000000F5F5F5000000000000000000000000000000000000000000000000
310
000000000000000000000000000000F5F5F500000000000000000000000000000000000000009300000000000000000000000000F500000000000000000000000000000000000000000000000000000000000000000000000000000000000000000000000000000000000000000000000000F5F50000000000000000000000
310
000000000000000000000000000000000000000000000000000000000000000000000000000000000000000000000000000000000000000000000000000000000000000000000000000000000000000000000000000000000000000000000000000000000000000000F5F5F5F5000000000000000000000000000000000000
310
00000000000000000000000000F5F5F5F5000000000000000000000000000000000000000000000093000000000000000000000000F5000000000000000000000000000000000000000000000000000000000000000000000000000000000000000000000000000000000000000000000000000000F5F5F500000000000000
310
000000000000000000000000000000000000000000000000000000000000000000000000000000000000000000000000000000000000000000000000000000000000000000000000000000000000000000000000000000000000000000000000000000000000000000000000000000F5F5F5F5F50000000000000000000000
310
00000000000000000000F5F5F5F5F5000000000000000000000000000000000000000000000000000000930000000000000000000000F5000000000000000000000000000000000000000000000000000000000000000000000000000000000000000000000000000000000000000000000000000000000000F5F500000000
310
00000000000000000000000000000000000000000000000000000000000000000000000000000000000000000000000000000000000000000000000000000000000000000000000000000000000000000000000000000000000000000000000000000000000000000000000000000000000000000000F5F5F5000000000000
310
000000000000000000F5F5F500000000000000000000000000000000000000000000000000000000000000009300000000000000000000F5F50000000000000000000000000000000000000000000000000000000000000000000000000000000000000000000000000000000000000000000000000000000000000000F500
310
000000000000000000000000000000000000000000000000000000000000000000000000000000000000000000000000000000000000000000000000000000000000000000000000000000000000000000000000000000000000000000000000000000000000000000000000000000000000000000000000000000F5F5F5F5
310
F5F5000000F5F5F5F5F5F500000000000000000000000000000000000000000000000000000000000000000000009300000000000000000000F5000000000000000000000000000000000000000000000000000000000000000000000000000000000000000000000000000000000000000000000000000000000000000000
310
00F5F500000000000000000000000000000000000000000000000000000000000000000000000000000000000000000000000000000000000000000000000000000000000000000000000000000000000000000000000000000000000000000000000000000000000000000000000000000000000000000000000000000000
310
00000000F59393939393939393939393939393939393939393939393939393939393939393939393939393939393939393939300000000000000F50000000000000000000000000000000000000000000000000000000000000000000000000000000000000000000000000000000000000000000000000000000000000000
310
00000000F50000000000000000000000000000000000000000000000000000000000000000000000000000000000000000000000000000000000000000000000000000000000000000000000000000000000000000000000000000000000000000000000000000000000000000000000000000000000000000000000000000
310
000000000000000000000000000000000000000000000000000000000000000000000000000000000000000000000000000000000000000000000000F500000000000000000000000000000000000000000000F5F5000000000000000000000000000000000000000000000000000000000000000000000000000000000000
310
00000000000000F50000000000000000000000000000000000000000000000000000000000000000000000000000000000000000000000000000000000000000000000000000000000000000000000000000000000000000000000000000000000000000000000000000000000000000000000000000000000000000000000
310
0000000000000000000000000000000000000000000000000000000000000000000000000000000000000000000000000000000000000000000000000000F500000000000000000000000000000000000000000000F5F500000000000000000000000000000000000000000000000000000000000000000000000000000000
310
000000000000000000F5F50000000000000000000000000000000000000000000000000000000000000000000000000000000000000000000000000000000000000000000000000000000000000000000000000000000000000000000000000000000000000000000000000000000000000000000000000000000000000000
310
00000000000000000000000000000000000000000000000000000000000000000000000000000000000000000000000000000000000000000000000000000000F500000000000000000000000000000000000000000000F5F500000000000000000000000000F5F50000000000000000000000000000000000000000000000
310
000000000000000000000000F500000000000000000000000000000000000000000000000000000000000000000000000000000000000000000000000000000000000000000000000000000000000000000000000000000000000000000000000000000000000000000000000000000000000000000000000000F5F5F5F5F5
310
F5F5F5F50000000000F5F5F5F5F5F5F5F5000000000000F5F5F5F5F5F5F5F5F500000000000000000000000000000000000000000000F50000000000000000000000F50000000000000000000000000000000000000000000000F5F5000000000000000000000000F5F5000000000000000000000000000000000000000000
310
0000000000000000000000000000F5F5000000000000000000000000000000000000000000000000000000000000000000000000000000000000000000000000000000000000000000000000000000000000000000000000000000000000000000000000000000000000000000000000000000000000000000000000F5F5F5
310
F5F5F5F5F5F50000000000F5F5F5F5F5F5F5F5000000000000F5F5F5F5F5F5F5F5F50000000000000000000000000000000000000000F5F5F5F5F5F5F5F5F50000000000F50000000000000000000000000000000000000000000000F5F5F5F5F5F50000000000000000F5F500000000000000000000000000000000000000
310
0000000000000000000000000000000000F5000000000000000000000000000000000000000000000000000000000000000000000000000000000000000000000000000000000000000000000000000000000000000000000000000000000000000000000000000000000000000000000000000000000000000000000000F5
310
F5F5F5F5F5F5F5F5F5F5F5F5F5F5F5F5F5F5F5F5F5F5F5F5F5F5F5F5F5F5F5F5F5F5F5F500000000000000000000000000000000000000000000F5F5F5F5F500000000000000F500000000000000000000000000000000000000000000F50000000000F5F500000000000000F5F5000000000000000000000000F5F5F50000
310
00000000000000000000000000000000000000F50000000000000000000000000000000000000000000000000000000000000000000000000000000000000000000000000000000000000000000000000000000000000000000000000000000000000000000000000000000000000000000000000000000000000000000000
310
00F5F5F5F5F5F5F5F5F5F5F5F5F5F5F5F5F5F5F5F5F5F5F5F5F5F5F5F5F5F5F5F5F5F5F5F5F500000000000000000000000000000000000000000000F5F5F5F5F500000000000000F5F50000000000000000000000000000000000000000F5F5000000000000F5000000000000F5F5F5F50000000000000000000000F5F500
310
000000000000000000000000000000000000000000F5000000000000000000000000000000000000000000000000000000000000000000000000000000000000000000000000000000000000000000000000000000000000000000000000000000000000000000000000000000000000000000000000000000000000000000
310
0000000000F5F50000000000F5F5000000000000F500F5000000000000F5F5000000000000F5F50000000000000000000000000000000000000000000000000000000000000000000000F5000000000000000000000000000000000000000000F500000000000000F5F500000000F5F50000F5F50000000000F5F5F5F5F500
310
F500000000000000000000000000000000000000000000F500000000000000000000000000000000000000000000000000000000000000000000000000000000000000000000000000000000000000000000000000000000000000000000000000000000000000000000000000000000F5F5F5F5F5F5F5F5F5F5F5F5F5F5F5
310
F5F5F5F5F5F5F5F5F5F5F5F5F5F5F5F5F5F5F5F5F5F5F5F5F5F5F5F5F5F5F5F5F5F5F5F5F5F5F5F5F5F5F5F5F5F5F5F5F5F5F5F5F5F5F5F5F5F5F5F5F5F5F500F50000000000000000000000F5000000000000000000000000000000000000000000F50000000000000000F5000000F5000000000000F5000000F5F5000000
310
F5F500000000000000000000000000000000000000000000F5F50000000000000000000000000000000000000000000000000000000000000000000000000000000000000000000000000000000000000000000000000000000000000000000000000000000000000000000000000000000000000000000000000000000000
310
00000000000000000000F5F500000000F5F5000000000000F500F5000000000000F5F500000000F5F50000000000000000000000000000000000000000000000F5F5F5F5F5F5F5F5F50000000000F5000000000000000000000000000000000000000000F5F5000000000000F5000000F5F5000000000000F5F500F5F50000
310
000000F5F5000000000000000000000000000000000000000000F500000000000000000000000000000000000000000000000000000000000000000000000000000000000000000000000000000000000000000000000000000000000000000000000000000000000000000000000000000000000000000000000000000000
310
000000000000000000000000F5F5F5F5F500F5F5000000000000F500F5000000000000F5F500F5F5F5F5F500000000000000000000000000000000000000000000000000F5F5F5F5F500000000000000F500000000000000000000000000000000000000000000F50000000000F5F5000000F50000000000000000F500F500
310
000000000000F5000000000000000000000000000000000000000000F50000000000000000000000000000000000000000000000000000000000000000000000000000000000000000000000000000000000000000000000000000000000000000000000000000000000000000000000000000000000000000000000000000
310
000000000000000000000000000000F5F50000F5F5F500000000F5F5F5F5F5F5F500000000F5F5F50000F5F5F500000000000000000000000000000000000000000000000000F5F5F5F5F500000000000000F50000000000000000000000000000000000000000000000F5F500F5F5F500000000F5F5000000000000F5F500
310
F500000000000000F50000000000000000000000000000000000000000F500000000000000000000000000000000000000000000000000000000000000000000000000000000000000000000000000000000000000000000000000000000000000000000000000000000000000000000000000000000000000000000000000
310
00000000000000000000000000000000F50000000000F5F5000000F5F50000000000F5F5000000F5F50000000000F500000000000000000000000000000000000000000000000000000000000000000000000000F5000000000000000000000000000000000000000000000000F5F5F500F50000000000F5000000000000F5
310
F500F500000000000000F50000000000000000000000000000000000000000F50000000000000000000000000000000000000000000000000000000000000000000000000000000000000000000000000000000000000000000000000000000000000000000000000000000000000000000000000000000000000000000000
310
0000000000000000000000000000000000F5F50000000000F5F5F50000F500000000000000F50000F5F5F50000000000F5F500000000000000000000000000000000000000000000000000000000000000000000000000F50000000000000000000000000000000000000000000000F5F5F5F500F500000000F5F500F5F500
310
F5F5F500F5F5000000000000F500000000000000000000000000000000000000F500000000000000000000000000000000000000000000000000000000000000000000000000000000000000000000000000000000000000000000000000000000000000000000000000000000000000000000000000000000000000000000
310
00000000000000000000000000000000000000F500000000F5F50000F5F500F500000000000000F500F5F50000F5F500000000F500000000000000000000000000000000000000000000000000000000000000000000000000F5F5000000000000000000000000000000000000000000F5000000F500F50000000000F5F5F5
310
F5F5F5F5F50000F5F5F5000000F500000000000000000000000000000000000000F5000000000000000000000000000000000000000000000000000000000000000000000000000000000000000000000000000000000000000000000000000000000000000000000000000000000000000000000000000000000000000000
310
000000000000000000000000000000000000000000F5000000F5F50000000000F5F500000000000000F5F50000000000F5F5000000F50000000000000000000000000000000000000000000000000000000000000000000000000000F50000000000000000000000000000000000000000F50000000000F5F5F50000000000
310
0000000000F5F5F500F5F5F5F5F5F5000000000000000000000000000000000000F5F50000000000000000000000000000000000000000000000000000000000000000000000000000000000000000000000000000000000000000000000000000000000000000000000000000000000000000000000000000000000000000
310
0000000000000000000000000000000000000000000000F5F50000F5000000000000F5F500000000000000F5F5000000000000F5000000F5000000000000000000000000000000000000000000000000000000000000000000000000000000F500000000000000000000000000000000000000F50000000000F500F5F5F500
310
0000000000F5F5F500F5F5F5000000000000000000000000000000000000000000F5F5F500000000000000000000000000000000000000000000000000000000000000000000000000000000000000000000000000000000000000000000000000000000000000000000000000000000000000000000000000000000000000
310
0000000000000000000000000000000000000000000000000000F50000F500000000000000F5F50000000000F5F500000000000000F50000F50000000000000000000000000000000000000000000000000000000000000000000000000000000000F5000000000000000000000000000000000000F50000000000F5F5F5F5
310
F5F5F5000000F5F500000000F5F5000000000000000000000000000000000000000000F500000000000000000000000000000000000000000000000000000000000000000000000000000000000000000000000000000000000000000000000000000000000000000000000000000000000000000000000000000000000000
310
0000000000000000000000000000000000000000000000000000000000F5F5F500000000000000F500F5F500F5F500F500000000000000F5F5F500000000000000000000000000000000000000000000000000000000000000000000000000000000000000F50000000000000000000000000000000000F50000000000F5F5
310
00F5F5F5F5F50000F500000000F5F500F500000000000000000000000000000000000000F5000000000000000000000000000000000000000000000000000000000000000000000000000000000000000000000000000000000000000000000000000000000000000000000000000000000000000000000000000000000000
310
000000000000000000000000000000000000000000000000000000000000000000F5000000000000F5F50000F5F5F50000F5F5000000000000F500000000000000000000000000000000000000000000000000000000000000000000000000000000000000000000F5F5000000000000000000000000000000F50000000000
310
00F5F5F50000F5F5F5F5F5F5F5F5F5F5F500F5000000000000000000000000000000000000F5F500000000000000000000000000000000000000000000000000000000000000000000000000000000000000000000000000000000000000000000000000000000000000000000000000000000000000000000000000000000
310
0000000000000000000000000000000000000000000000000000000000000000000000F5F50000000000F5F5F500F500F500F5F5F50000000000F5F50000000000000000000000000000000000000000000000000000000000000000000000000000000000000000000000F500000000000000000000000000000000F5F5F5
310
F500F5F50000F500F5F5F5F5F5F5F5F500F5F500F50000000000000000000000000000000000F5F5000000000000000000000000000000000000000000000000000000000000000000000000000000000000000000000000000000000000000000000000000000000000000000000000000000000000000000000000000000
310
0000000000000000000000000000000000000000000000000000000000000000000000000000F5F5F500F5F5000000F5F500F5F5000000F5F500F5F5F500000000000000000000000000000000000000000000000000000000000000000000000000000000000000000000000000F500000000000000000000000000000000
310
F5F5F5F5F5000000F5F5F5F5F5F5F5F5F5F5F5F500F5F500000000000000000000000000000000F5000000000000000000000000000000000000000000000000000000000000000000000000000000000000000000000000000000000000000000000000000000000000000000000000000000000000000000000000000000
310
000000000000000000000000000000000000000000000000000000000000000000000000000000000000F5F5F50000000000F500F50000000000F5F5F5000000000000000000000000000000000000000000000000000000000000000000000000000000000000000000000000000000F5F500000000000000000000000000
310
000000000000F50000F5F5F5F5F5F5F5F5F50000000000F5000000000000000000000000000000F5F50000000000000000000000000000000000000000000000000000000000000000000000000000000000000000000000000000000000000000000000000000000000000000000000000000000000000000000000000000
310
00000000000000000000000000000000000000000000000000000000000000000000000000000000000000000000F5F5F5F5F5F5F5F5F5F5F5F5F5F5F5F50000000000000000000000000000000000000000000000000000000000000000000000000000000000000000000000000000000000F5F500000000000000000000
310
0000000000000000F50000F5F5F5000000F5F5F5F5F5F5F5F50000000000000000000000000000F5F50000000000000000000000000000000000000000000000000000000000000000000000000000000000000000000000000000000000000000000000000000000000000000000000000000000000000000000000000000
310
0000000000000000000000000000000000000000000000000000000000000000000000000000000000000000000000F5F5F5F5F5F5F5F5F5F5F5F5F5F5F5F5F5000000000000000000000000000000000000000000000000000000000000000000F50000000000000000000000000000000000000000F5F500000000000000
310
0000000000000000000000F5F5F5F50000000000F5F500F5F50000000000000000000000000000F5F50000000000000000000000000000000000000000000000000000000000000000000000000000000000000000000000000000000000000000000000000000000000000000000000000000000000000000000000000000
310
0000000000000000000000000000000000000000000000000000000000000000000000000000000000000000000000000000000000000000F500F50000000000000000000000000000000000000000000000000000000000000000000000000000F5F5F5F5F5F5F5F5F500000000000000000000000000000000F500000000
310
0000000000000000000000000000F5F500000000000000F500000000000000000000000000F5F5F5F50000000000000000000000000000000000000000000000000000000000000000000000000000000000000000000000000000000000000000000000000000000000000000000000000000000000000000000000000000
310
00000000000000000000000000000000000000000000000000000000000000000000000000000000000000000000000000000000000000000000F5F5F500000000000000000000000000000000000000000000000000000000000000000000000000000000F5F5F5F5F5F5000000000000000000000000000000000000F5F5
310
0000000000000000000000000000000000F500000000000000F500000000000000000000F5F5F500000000000000000000000000000000000000000000000000000000000000000000000000000000000000000000000000000000000000000000000000000000000000000000000000000000000000000000000000000000
310
00000000000000000000000000000000000000000000000000000000000000000000000000000000000000000000000000000000000000000000F5F5F5F5F5F5F50000000000000000000000000000000000000000000000000000000000000000000000000000F5F5F5F5F5F5000000000000000000000000000000000000
310
00F5F5F5000000000000000000000000000000F500000000000000F50000000000000000F5F50000000000000000000000000000000000000000000000000000000000000000000000000000000000000000000000000000000000000000000000000000000000000000000000000000000000000000000000000000000000
310
000000000000000000000000000000000000000000000000000000000000000000000000000000000000000000000000000000000000000000000000F50000000000F50000000000000000000000000000000000000000000000000000000000000000000000000000F5F5F5F5F5F500000000000000000000000000000000
310
000000000000F5F5F5000000000000000000000000F500000000000000F50000000000F5F5F50000000000000000000000000000000000000000000000000000000000000000000000000000000000000000000000000000000000000000000000000000000000000000000000000000000000000000000000000000000000
310
00000000000000000000000000000000000000000000000000000000000000000000000000000000000000000000000000000000000000000000000000F500000000000000F5000000000000000000000000000000000000000000000000000000000000000000000000000000000000000000000000000000000000000000
310
0000000000000000000000F5F5F5F5000000000000000000F50000F50000F50000F5F5F5F5000000000000000000000000000000000000000000000000000000000000000000000000000000000000000000000000000000000000000000000000000000000000000000000000000000000000000000000000000000000000
310
000000000000000000000000000000000000000000000000000000000000000000000000000000000000000000000000000000000000000000000000000000F500000000000000F500000000000000000000000000000000000000000000000000000000000000000000000000000000000000000000000000000000000000
310
0000000000000000000000000000000000F5F5F5F5F5F5F5F5F5F5F5F5F5F5F5F5F5F50000000000000000000000000000000000000000000000000000000000000000000000000000000000000000000000000000000000000000000000000000000000000000000000000000000000000000000000000000000000000000
310
0000000000000000000000000000000000000000000000000000000000000000000000000000000000000000000000000000000000000000000000000000000000F500000000000000F50000000000000000000000000000000000000000000000000000000000000000000000000000000000000000000000000000000000
310
00000000000000000000000000000000000000000000000000000000000000000000000000000000000000000000000000000000000000000000000000000000000000000000000000000000000000000000000000000000000000000000000000000000000000000000000000000000000000000000000000000000000000
310
00000000000000000000000000000000000000000000000000000000000000000000000000000000000000000000000000000000000000000000000000000000000000F500000000000000F5000000000000000000000000000000000000000000000000000000000000000000000000000000000000000000000000000000
310
00000000000000000000000000000000000000000000000000000000000000000000000000000000000000000000000000000000000000000000000000000000000000000000000000000000000000000000000000000000000000000000000000000000000000000000000000000000000000000000000000000000000000
310
00000000000000000000000000000000000000000000000000000000000000000000000000000000000000000000000000000000000000000000000000000000000000000000F50000000000F50000000000000000000000000000000000000000000000000000000000000000000000000000000000000000000000000000
310
00000000000000000000000000000000000000000000000000000000000000000000000000000000000000000000000000000000000000000000000000000000000000000000000000000000000000000000000000000000000000000000000000000000000000000000000000000000000000000000000000000000000000
310
000000000000000000000000000000000000000000000000000000000000000000000000000000000000000000000000000000000000000000000000000000000000000000000000F5F5F500F5F5F5000000000000000000000000000000000000000000000000000000000000000000000000000000000000000000000000
310
00000000000000000000000000000000000000000000000000000000000000000000000000000000000000000000000000000000000000000000000000000000000000000000000000000000000000000000000000000000000000000000000000000000000000000000000000000000000000000000000000000000000000
310
00000000000000000000000000000000000000000000000000000000000000000000000000000000000000000000000000000000000000000000000000000000000000000000000000000000F5F5F500000000000000000000000000000000000000000000000000000000000000000000000000000000F500000000000000
310
00000000000000000000000000000000000000000000000000000000000000000000000000000000000000000000000000000000000000000000000000000000000000000000000000000000000000000000000000000000000000000000000000000000000000000000000000000000000000000000000000000000000000
310
0000000000000000000000000000000000000000000000000000000000000000000000000000000000000000000000000000000000000000000000000000000000000000000000000000000000000000000000000000000000000000000000000000000000000000000000000000000000000000000000F5F5F5F5F5F5F5F5
310
F5000000000000000000000000000000000000000000000000000000000000000000000000000000000000000000000000000000000000000000000000000000000000000000000000000000000000000000000000000000000000000000000000000000000000000000000000000000000000000000000000000000000000
310
000000000000000000000000000000000000000000000000000000000000000000000000000000000000000000000000000000000000000000000000000000000000000000000000000000000000000000000000000000000000000000000000000000000000000000000000000000000000000000000000000000F5F5F5F5
310
F5F50000000000000000000000000000000000000000000000000000000000000000000000000000000000000000000000000000000000000000000000000000000000000000000000000000000000000000000000000000000000000000000000000000000000000000000000000000000000000000000000000000000000
310
0000000000000000000000000000000000000000000000000000000000000000000000000000000000000000000000000000000000000000000000000000000000000000000000000000000000000000000000000000000000000000000000000000000000000000000000000000000000000000000000000000000000F5F5
310
F5F5F5F5000000000000000000000000000000000000000000000000000000000000000000000000000000000000000000000000000000000000000000000000000000000000000000000000000000000000000000000000000000000000000000000000000000000000000000000000000000000000000000000000000000
310
00000000000000000000000000000000000000000000000000000000000000000000000000000000000000000000000000000000000000000000000000000000000000000000000000000000000000000000000000000000000000000000000000000000000000000000000000000000000000000000000000000000000000
310
00000000000000000000000000000000000000000000000000000000000000000000000000000000000000000000000000000000000000000000000000000000000000000000000000000000000000000000000000000000000000000000000000000000000000000000000000000000000000000000000000000000000000
310
00000000000000000000000000000000000000000000000000000000000000000000000000000000000000000000000000000000000000000000000000000000000000000000000000000000000000000000000000000000000000000000000000000000000000000000000000000000000000000000000000000000000000
310
00000000000000000000000000000000000000000000000000000000000000000000000000000000000000000000000000000000000000000000000000000000000000000000000000000000000000000000000000000000000000000000000000000000000000000000000000000000000000000000000000000000000000
310
00000000000000000000000000000000000000000000000000000000000000000000000000000000000000000000000000000000000000000000000000000000000000000000000000000000000000000000000000000000000000000000000000000000000000000000000000000000000000000000000000000000000000
310
00000000000000000000000000000000000000000000000000000000000000000000000000000000000000000000000000000000000000000000000000000000000000000000000000000000000000000000000000000000000000000000000000000000000000000000000000000000000000000000000000000000000000
310
0000000000000000000000000000000000000000000000000000000000000000000000000000000000000000000000000000
  0
XRECORD
  5
1C
102
{ACAD_REACTORS
330
1A
102
}
330
1A
100
AcDbXrecord
280
     1
270
     1
271
     1
  0
XRECORD
  5
1B
102
{ACAD_REACTORS
330
1A
102
}
330
1A
100
AcDbXrecord
280
     1
270
     1
271
     1
  0
XRECORD
  5
1F
102
{ACAD_REACTORS
330
1A
102
}
330
1A
100
AcDbXrecord
280
     1
270
     1
271
     1
  0
XRECORD
  5
1E
102
{ACAD_REACTORS
330
1A
102
}
330
1A
100
AcDbXrecord
280
     1
270
     1
271
     1
  0
XRECORD
  5
20
102
{ACAD_REACTORS
330
1A
102
}
330
1A
100
AcDbXrecord
280
     1
270
     1
271
     1
  0
XRECORD
  5
1D
102
{ACAD_REACTORS
330
1A
102
}
330
1A
100
AcDbXrecord
280
     1
270
     1
271
     1
  0
XRECORD
  5
14
102
{ACAD_REACTORS
330
12
102
}
330
12
100
AcDbXrecord
280
     1
270
     1
271
     1
  0
XRECORD
  5
13
102
{ACAD_REACTORS
330
12
102
}
330
12
100
AcDbXrecord
280
     1
270
     1
271
     1
  0
XRECORD
  5
17
102
{ACAD_REACTORS
330
12
102
}
330
12
100
AcDbXrecord
280
     1
270
     1
271
     1
  0
XRECORD
  5
16
102
{ACAD_REACTORS
330
12
102
}
330
12
100
AcDbXrecord
280
     1
270
     1
271
     1
  0
XRECORD
  5
18
102
{ACAD_REACTORS
330
12
102
}
330
12
100
AcDbXrecord
280
     1
270
     1
271
     1
  0
XRECORD
  5
15
102
{ACAD_REACTORS
330
12
102
}
330
12
100
AcDbXrecord
280
     1
270
     1
271
     1
  0
XRECORD
  5
24
102
{ACAD_REACTORS
330
22
102
}
330
22
100
AcDbXrecord
280
     1
270
     1
271
     1
  0
XRECORD
  5
23
102
{ACAD_REACTORS
330
22
102
}
330
22
100
AcDbXrecord
280
     1
270
     1
271
     1
  0
XRECORD
  5
27
102
{ACAD_REACTORS
330
22
102
}
330
22
100
AcDbXrecord
280
     1
270
     1
271
     1
  0
XRECORD
  5
26
102
{ACAD_REACTORS
330
22
102
}
330
22
100
AcDbXrecord
280
     1
270
     1
271
     1
  0
XRECORD
  5
28
102
{ACAD_REACTORS
330
22
102
}
330
22
100
AcDbXrecord
280
     1
270
     1
271
     1
  0
XRECORD
  5
25
102
{ACAD_REACTORS
330
22
102
}
330
22
100
AcDbXrecord
280
     1
270
     1
271
     1
  0
CELLSTYLEMAP
  5
E3E
102
{ACAD_REACTORS
330
DD8
102
}
330
DD8
100
AcDbCellStyleMap
 90
        3
300
CELLSTYLE
  1
TABLEFORMAT_BEGIN
 90
        5
170
     1
 91
        0
 92
    32768
 62
   257
 93
        1
300
CONTENTFORMAT
  1
CONTENTFORMAT_BEGIN
 90
        0
 91
        0
 92
      512
 93
        0
300

 40
0.0
140
1.0
 94
        5
 62
     0
340
55
144
0.25
309
CONTENTFORMAT_END
171
     0
 94
        0
309
TABLEFORMAT_END
  1
CELLSTYLE_BEGIN
 90
        1
 91
        1
300
_TITLE
309
CELLSTYLE_END
300
CELLSTYLE
  1
TABLEFORMAT_BEGIN
 90
        5
170
     1
 91
        0
 92
        0
 62
   257
 93
        1
300
CONTENTFORMAT
  1
CONTENTFORMAT_BEGIN
 90
        0
 91
        0
 92
      512
 93
        0
300

 40
0.0
140
1.0
 94
        5
 62
     0
340
55
144
0.18
309
CONTENTFORMAT_END
171
     0
 94
        0
309
TABLEFORMAT_END
  1
CELLSTYLE_BEGIN
 90
        2
 91
        1
300
_HEADER
309
CELLSTYLE_END
300
CELLSTYLE
  1
TABLEFORMAT_BEGIN
 90
        5
170
     1
 91
        0
 92
        0
 62
   257
 93
        1
300
CONTENTFORMAT
  1
CONTENTFORMAT_BEGIN
 90
        0
 91
        0
 92
      512
 93
        0
300

 40
0.0
140
1.0
 94
        2
 62
     0
340
55
144
0.18
309
CONTENTFORMAT_END
171
     0
 94
        0
309
TABLEFORMAT_END
  1
CELLSTYLE_BEGIN
 90
        3
 91
        2
300
_DATA
309
CELLSTYLE_END
  0
XRECORD
  5
DFE
102
{ACAD_REACTORS
330
DFD
102
}
330
DFD
100
AcDbXrecord
280
     1
102
RTVSPropertyOp28
 70
     1
102
RTVSPropertyOp29
 70
     1
102
RTVSPropertyOp30
 70
     1
102
RTVSPropertyOp31
 70
     1
102
RTVSPropertyOp32
 70
     1
102
RTVSPropertyOp0
 70
     1
102
RTVSPropertyOp1
 70
     1
102
RTVSPropertyOp2
 70
     1
102
RTVSPropertyOp3
 70
     1
102
RTVSPropertyOp4
 70
     1
102
RTVSPropertyOp5
 70
     1
102
RTVSPropertyOp6
 70
     1
102
RTVSPropertyOp7
 70
     1
102
RTVSPropertyOp8
 70
     1
102
RTVSPropertyOp9
 70
     1
102
RTVSPropertyOp10
 70
     1
102
RTVSPropertyOp11
 70
     1
102
RTVSPropertyOp12
 70
     1
102
RTVSPropertyOp13
 70
     1
102
RTVSPropertyOp14
 70
     1
102
RTVSPropertyOp15
 70
     1
102
RTVSPropertyOp16
 70
     1
102
RTVSPropertyOp17
 70
     1
102
RTVSPropertyOp18
 70
     1
102
RTVSPropertyOp19
 70
     1
102
RTVSPropertyOp20
 70
     1
102
RTVSPropertyOp21
 70
     1
102
RTVSPropertyOp22
 70
     1
102
RTVSPropertyOp23
 70
     1
102
RTVSPropertyOp24
 70
     1
102
RTVSPropertyOp25
 70
     1
102
RTVSPropertyOp26
 70
     1
102
RTVSPropertyOp27
 70
     1
  0
XRECORD
  5
E55
102
{ACAD_REACTORS
330
E54
102
}
330
E54
100
AcDbXrecord
280
     1
102
RTVSPropertyOp0
 70
     1
102
RTVSPropertyOp1
 70
     1
102
RTVSPropertyOp2
 70
     1
102
RTVSPropertyOp3
 70
     1
102
RTVSPropertyOp4
 70
     1
102
RTVSPropertyOp5
 70
     1
102
RTVSPropertyOp6
 70
     1
102
RTVSPropertyOp7
 70
     1
102
RTVSPropertyOp8
 70
     1
102
RTVSPropertyOp9
 70
     1
102
RTVSPropertyOp10
 70
     1
102
RTVSPropertyOp11
 70
     1
102
RTVSPropertyOp12
 70
     1
102
RTVSPropertyOp13
 70
     1
102
RTVSPropertyOp14
 70
     1
102
RTVSPropertyOp15
 70
     1
102
RTVSPropertyOp16
 70
     1
102
RTVSPropertyOp17
 70
     1
102
RTVSPropertyOp18
 70
     1
102
RTVSPropertyOp19
 70
     1
102
RTVSPropertyOp20
 70
     1
102
RTVSPropertyOp21
 70
     1
102
RTVSPropertyOp22
 70
     1
102
RTVSPropertyOp23
 70
     1
102
RTVSPropertyOp24
 70
     1
102
RTVSPropertyOp25
 70
     1
102
RTVSPropertyOp26
 70
     1
102
RTVSPropertyOp27
 70
     1
  0
XRECORD
  5
E53
102
{ACAD_REACTORS
330
E52
102
}
330
E52
100
AcDbXrecord
280
     1
102
RTVSPropertyOp0
 70
     1
102
RTVSPropertyOp1
 70
     1
102
RTVSPropertyOp2
 70
     1
102
RTVSPropertyOp3
 70
     1
102
RTVSPropertyOp4
 70
     1
102
RTVSPropertyOp5
 70
     1
102
RTVSPropertyOp6
 70
     1
102
RTVSPropertyOp7
 70
     1
102
RTVSPropertyOp8
 70
     1
102
RTVSPropertyOp9
 70
     1
102
RTVSPropertyOp10
 70
     1
102
RTVSPropertyOp11
 70
     1
102
RTVSPropertyOp12
 70
     1
102
RTVSPropertyOp13
 70
     1
102
RTVSPropertyOp14
 70
     1
102
RTVSPropertyOp15
 70
     1
102
RTVSPropertyOp16
 70
     1
102
RTVSPropertyOp17
 70
     1
102
RTVSPropertyOp18
 70
     1
102
RTVSPropertyOp19
 70
     1
102
RTVSPropertyOp20
 70
     1
102
RTVSPropertyOp21
 70
     1
102
RTVSPropertyOp22
 70
     1
102
RTVSPropertyOp23
 70
     1
102
RTVSPropertyOp24
 70
     1
102
RTVSPropertyOp25
 70
     1
102
RTVSPropertyOp26
 70
     1
102
RTVSPropertyOp27
 70
     1
  0
XRECORD
  5
DFC
102
{ACAD_REACTORS
330
DFB
102
}
330
DFB
100
AcDbXrecord
280
     1
102
RTVSPropertyOp28
 70
     1
102
RTVSPropertyOp29
 70
     1
102
RTVSPropertyOp30
 70
     1
102
RTVSPropertyOp31
 70
     1
102
RTVSPropertyOp32
 70
     1
102
RTVSPropertyOp0
 70
     1
102
RTVSPropertyOp1
 70
     1
102
RTVSPropertyOp2
 70
     1
102
RTVSPropertyOp3
 70
     1
102
RTVSPropertyOp4
 70
     1
102
RTVSPropertyOp5
 70
     1
102
RTVSPropertyOp6
 70
     1
102
RTVSPropertyOp7
 70
     1
102
RTVSPropertyOp8
 70
     1
102
RTVSPropertyOp9
 70
     1
102
RTVSPropertyOp10
 70
     1
102
RTVSPropertyOp11
 70
     1
102
RTVSPropertyOp12
 70
     1
102
RTVSPropertyOp13
 70
     1
102
RTVSPropertyOp14
 70
     1
102
RTVSPropertyOp15
 70
     1
102
RTVSPropertyOp16
 70
     1
102
RTVSPropertyOp17
 70
     1
102
RTVSPropertyOp18
 70
     1
102
RTVSPropertyOp19
 70
     1
102
RTVSPropertyOp20
 70
     1
102
RTVSPropertyOp21
 70
     1
102
RTVSPropertyOp22
 70
     1
102
RTVSPropertyOp23
 70
     1
102
RTVSPropertyOp24
 70
     1
102
RTVSPropertyOp25
 70
     1
102
RTVSPropertyOp26
 70
     1
102
RTVSPropertyOp27
 70
     1
  0
XRECORD
  5
E0A
102
{ACAD_REACTORS
330
E09
102
}
330
E09
100
AcDbXrecord
280
     1
102
RTVSPropertyOp28
 70
     1
102
RTVSPropertyOp29
 70
     1
102
RTVSPropertyOp30
 70
     1
102
RTVSPropertyOp31
 70
     1
102
RTVSPropertyOp32
 70
     1
102
RTVSPropertyOp0
 70
     1
102
RTVSPropertyOp1
 70
     1
102
RTVSPropertyOp2
 70
     1
102
RTVSPropertyOp3
 70
     1
102
RTVSPropertyOp4
 70
     1
102
RTVSPropertyOp5
 70
     1
102
RTVSPropertyOp6
 70
     1
102
RTVSPropertyOp7
 70
     1
102
RTVSPropertyOp8
 70
     1
102
RTVSPropertyOp9
 70
     1
102
RTVSPropertyOp10
 70
     1
102
RTVSPropertyOp11
 70
     1
102
RTVSPropertyOp12
 70
     1
102
RTVSPropertyOp13
 70
     1
102
RTVSPropertyOp14
 70
     1
102
RTVSPropertyOp15
 70
     1
102
RTVSPropertyOp16
 70
     1
102
RTVSPropertyOp17
 70
     1
102
RTVSPropertyOp18
 70
     1
102
RTVSPropertyOp19
 70
     1
102
RTVSPropertyOp20
 70
     1
102
RTVSPropertyOp21
 70
     1
102
RTVSPropertyOp22
 70
     1
102
RTVSPropertyOp23
 70
     1
102
RTVSPropertyOp24
 70
     1
102
RTVSPropertyOp25
 70
     1
102
RTVSPropertyOp26
 70
     1
102
RTVSPropertyOp27
 70
     1
  0
XRECORD
  5
E12
102
{ACAD_REACTORS
330
E11
102
}
330
E11
100
AcDbXrecord
280
     1
102
RTVSPropertyOp28
 70
     1
102
RTVSPropertyOp29
 70
     1
102
RTVSPropertyOp30
 70
     1
102
RTVSPropertyOp31
 70
     1
102
RTVSPropertyOp32
 70
     1
102
RTVSPropertyOp0
 70
     1
102
RTVSPropertyOp1
 70
     1
102
RTVSPropertyOp2
 70
     1
102
RTVSPropertyOp3
 70
     1
102
RTVSPropertyOp4
 70
     1
102
RTVSPropertyOp5
 70
     1
102
RTVSPropertyOp6
 70
     1
102
RTVSPropertyOp7
 70
     1
102
RTVSPropertyOp8
 70
     1
102
RTVSPropertyOp9
 70
     1
102
RTVSPropertyOp10
 70
     1
102
RTVSPropertyOp11
 70
     1
102
RTVSPropertyOp12
 70
     1
102
RTVSPropertyOp13
 70
     1
102
RTVSPropertyOp14
 70
     1
102
RTVSPropertyOp15
 70
     1
102
RTVSPropertyOp16
 70
     1
102
RTVSPropertyOp17
 70
     1
102
RTVSPropertyOp18
 70
     1
102
RTVSPropertyOp19
 70
     1
102
RTVSPropertyOp20
 70
     1
102
RTVSPropertyOp21
 70
     1
102
RTVSPropertyOp22
 70
     1
102
RTVSPropertyOp23
 70
     1
102
RTVSPropertyOp24
 70
     1
102
RTVSPropertyOp25
 70
     1
102
RTVSPropertyOp26
 70
     1
102
RTVSPropertyOp27
 70
     1
  0
XRECORD
  5
E04
102
{ACAD_REACTORS
330
E03
102
}
330
E03
100
AcDbXrecord
280
     1
102
RTVSPropertyOp28
 70
     1
102
RTVSPropertyOp29
 70
     1
102
RTVSPropertyOp30
 70
     1
102
RTVSPropertyOp31
 70
     1
102
RTVSPropertyOp32
 70
     1
102
RTVSPropertyOp0
 70
     1
102
RTVSPropertyOp1
 70
     1
102
RTVSPropertyOp2
 70
     1
102
RTVSPropertyOp3
 70
     1
102
RTVSPropertyOp4
 70
     1
102
RTVSPropertyOp5
 70
     1
102
RTVSPropertyOp6
 70
     1
102
RTVSPropertyOp7
 70
     1
102
RTVSPropertyOp8
 70
     1
102
RTVSPropertyOp9
 70
     1
102
RTVSPropertyOp10
 70
     1
102
RTVSPropertyOp11
 70
     1
102
RTVSPropertyOp12
 70
     1
102
RTVSPropertyOp13
 70
     1
102
RTVSPropertyOp14
 70
     1
102
RTVSPropertyOp15
 70
     1
102
RTVSPropertyOp16
 70
     1
102
RTVSPropertyOp17
 70
     1
102
RTVSPropertyOp18
 70
     1
102
RTVSPropertyOp19
 70
     1
102
RTVSPropertyOp20
 70
     1
102
RTVSPropertyOp21
 70
     1
102
RTVSPropertyOp22
 70
     1
102
RTVSPropertyOp23
 70
     1
102
RTVSPropertyOp24
 70
     1
102
RTVSPropertyOp25
 70
     1
102
RTVSPropertyOp26
 70
     1
102
RTVSPropertyOp27
 70
     1
  0
XRECORD
  5
E08
102
{ACAD_REACTORS
330
E07
102
}
330
E07
100
AcDbXrecord
280
     1
102
RTVSPropertyOp28
 70
     1
102
RTVSPropertyOp29
 70
     1
102
RTVSPropertyOp30
 70
     1
102
RTVSPropertyOp31
 70
     1
102
RTVSPropertyOp32
 70
     1
102
RTVSPropertyOp0
 70
     1
102
RTVSPropertyOp1
 70
     1
102
RTVSPropertyOp2
 70
     1
102
RTVSPropertyOp3
 70
     1
102
RTVSPropertyOp4
 70
     1
102
RTVSPropertyOp5
 70
     1
102
RTVSPropertyOp6
 70
     1
102
RTVSPropertyOp7
 70
     1
102
RTVSPropertyOp8
 70
     1
102
RTVSPropertyOp9
 70
     1
102
RTVSPropertyOp10
 70
     1
102
RTVSPropertyOp11
 70
     1
102
RTVSPropertyOp12
 70
     1
102
RTVSPropertyOp13
 70
     1
102
RTVSPropertyOp14
 70
     1
102
RTVSPropertyOp15
 70
     1
102
RTVSPropertyOp16
 70
     1
102
RTVSPropertyOp17
 70
     1
102
RTVSPropertyOp18
 70
     1
102
RTVSPropertyOp19
 70
     1
102
RTVSPropertyOp20
 70
     1
102
RTVSPropertyOp21
 70
     1
102
RTVSPropertyOp22
 70
     1
102
RTVSPropertyOp23
 70
     1
102
RTVSPropertyOp24
 70
     1
102
RTVSPropertyOp25
 70
     1
102
RTVSPropertyOp26
 70
     1
102
RTVSPropertyOp27
 70
     1
  0
XRECORD
  5
E22
102
{ACAD_REACTORS
330
E21
102
}
330
E21
100
AcDbXrecord
280
     1
102
RTVSPropertyOp28
 70
     1
102
RTVSPropertyOp29
 70
     1
102
RTVSPropertyOp30
 70
     1
102
RTVSPropertyOp31
 70
     1
102
RTVSPropertyOp32
 70
     1
102
RTVSPropertyOp0
 70
     0
102
RTVSPropertyOp1
 70
     0
102
RTVSPropertyOp2
 70
     0
102
RTVSPropertyOp3
 70
     0
102
RTVSPropertyOp4
 70
     0
102
RTVSPropertyOp5
 70
     0
102
RTVSPropertyOp6
 70
     0
102
RTVSPropertyOp7
 70
     0
102
RTVSPropertyOp8
 70
     0
102
RTVSPropertyOp9
 70
     0
102
RTVSPropertyOp10
 70
     0
102
RTVSPropertyOp11
 70
     0
102
RTVSPropertyOp12
 70
     0
102
RTVSPropertyOp13
 70
     0
102
RTVSPropertyOp14
 70
     2
102
RTVSPropertyOp15
 70
     0
102
RTVSPropertyOp16
 70
     0
102
RTVSPropertyOp17
 70
     0
102
RTVSPropertyOp18
 70
     0
102
RTVSPropertyOp19
 70
     0
102
RTVSPropertyOp20
 70
     0
102
RTVSPropertyOp21
 70
     0
102
RTVSPropertyOp22
 70
     0
102
RTVSPropertyOp23
 70
     0
102
RTVSPropertyOp24
 70
     0
102
RTVSPropertyOp25
 70
     0
102
RTVSPropertyOp26
 70
     0
102
RTVSPropertyOp27
 70
     0
  0
XRECORD
  5
E10
102
{ACAD_REACTORS
330
E0F
102
}
330
E0F
100
AcDbXrecord
280
     1
102
RTVSPropertyOp28
 70
     1
102
RTVSPropertyOp29
 70
     1
102
RTVSPropertyOp30
 70
     1
102
RTVSPropertyOp31
 70
     1
102
RTVSPropertyOp32
 70
     1
102
RTVSPropertyOp0
 70
     1
102
RTVSPropertyOp1
 70
     1
102
RTVSPropertyOp2
 70
     1
102
RTVSPropertyOp3
 70
     1
102
RTVSPropertyOp4
 70
     1
102
RTVSPropertyOp5
 70
     1
102
RTVSPropertyOp6
 70
     1
102
RTVSPropertyOp7
 70
     1
102
RTVSPropertyOp8
 70
     1
102
RTVSPropertyOp9
 70
     1
102
RTVSPropertyOp10
 70
     1
102
RTVSPropertyOp11
 70
     1
102
RTVSPropertyOp12
 70
     1
102
RTVSPropertyOp13
 70
     1
102
RTVSPropertyOp14
 70
     1
102
RTVSPropertyOp15
 70
     1
102
RTVSPropertyOp16
 70
     1
102
RTVSPropertyOp17
 70
     1
102
RTVSPropertyOp18
 70
     1
102
RTVSPropertyOp19
 70
     1
102
RTVSPropertyOp20
 70
     1
102
RTVSPropertyOp21
 70
     1
102
RTVSPropertyOp22
 70
     1
102
RTVSPropertyOp23
 70
     1
102
RTVSPropertyOp24
 70
     1
102
RTVSPropertyOp25
 70
     1
102
RTVSPropertyOp26
 70
     1
102
RTVSPropertyOp27
 70
     1
  0
XRECORD
  5
DF4
102
{ACAD_REACTORS
330
DF3
102
}
330
DF3
100
AcDbXrecord
280
     1
102
RTVSPropertyOp28
 70
     1
102
RTVSPropertyOp29
 70
     1
102
RTVSPropertyOp30
 70
     1
102
RTVSPropertyOp31
 70
     1
102
RTVSPropertyOp32
 70
     1
102
RTVSPropertyOp0
 70
     1
102
RTVSPropertyOp1
 70
     1
102
RTVSPropertyOp2
 70
     1
102
RTVSPropertyOp3
 70
     1
102
RTVSPropertyOp4
 70
     1
102
RTVSPropertyOp5
 70
     1
102
RTVSPropertyOp6
 70
     1
102
RTVSPropertyOp7
 70
     1
102
RTVSPropertyOp8
 70
     1
102
RTVSPropertyOp9
 70
     1
102
RTVSPropertyOp10
 70
     1
102
RTVSPropertyOp11
 70
     1
102
RTVSPropertyOp12
 70
     1
102
RTVSPropertyOp13
 70
     1
102
RTVSPropertyOp14
 70
     1
102
RTVSPropertyOp15
 70
     1
102
RTVSPropertyOp16
 70
     1
102
RTVSPropertyOp17
 70
     1
102
RTVSPropertyOp18
 70
     1
102
RTVSPropertyOp19
 70
     1
102
RTVSPropertyOp20
 70
     1
102
RTVSPropertyOp21
 70
     1
102
RTVSPropertyOp22
 70
     1
102
RTVSPropertyOp23
 70
     1
102
RTVSPropertyOp24
 70
     1
102
RTVSPropertyOp25
 70
     1
102
RTVSPropertyOp26
 70
     1
102
RTVSPropertyOp27
 70
     1
  0
XRECORD
  5
DF6
102
{ACAD_REACTORS
330
DF5
102
}
330
DF5
100
AcDbXrecord
280
     1
102
RTVSPropertyOp28
 70
     1
102
RTVSPropertyOp29
 70
     1
102
RTVSPropertyOp30
 70
     1
102
RTVSPropertyOp31
 70
     1
102
RTVSPropertyOp32
 70
     1
102
RTVSPropertyOp0
 70
     1
102
RTVSPropertyOp1
 70
     1
102
RTVSPropertyOp2
 70
     1
102
RTVSPropertyOp3
 70
     1
102
RTVSPropertyOp4
 70
     1
102
RTVSPropertyOp5
 70
     1
102
RTVSPropertyOp6
 70
     1
102
RTVSPropertyOp7
 70
     1
102
RTVSPropertyOp8
 70
     1
102
RTVSPropertyOp9
 70
     1
102
RTVSPropertyOp10
 70
     1
102
RTVSPropertyOp11
 70
     1
102
RTVSPropertyOp12
 70
     1
102
RTVSPropertyOp13
 70
     1
102
RTVSPropertyOp14
 70
     1
102
RTVSPropertyOp15
 70
     1
102
RTVSPropertyOp16
 70
     1
102
RTVSPropertyOp17
 70
     1
102
RTVSPropertyOp18
 70
     1
102
RTVSPropertyOp19
 70
     1
102
RTVSPropertyOp20
 70
     1
102
RTVSPropertyOp21
 70
     1
102
RTVSPropertyOp22
 70
     1
102
RTVSPropertyOp23
 70
     1
102
RTVSPropertyOp24
 70
     1
102
RTVSPropertyOp25
 70
     1
102
RTVSPropertyOp26
 70
     1
102
RTVSPropertyOp27
 70
     1
  0
XRECORD
  5
DF8
102
{ACAD_REACTORS
330
DF7
102
}
330
DF7
100
AcDbXrecord
280
     1
102
RTVSPropertyOp28
 70
     1
102
RTVSPropertyOp29
 70
     1
102
RTVSPropertyOp30
 70
     1
102
RTVSPropertyOp31
 70
     1
102
RTVSPropertyOp32
 70
     1
102
RTVSPropertyOp0
 70
     1
102
RTVSPropertyOp1
 70
     1
102
RTVSPropertyOp2
 70
     1
102
RTVSPropertyOp3
 70
     1
102
RTVSPropertyOp4
 70
     1
102
RTVSPropertyOp5
 70
     1
102
RTVSPropertyOp6
 70
     1
102
RTVSPropertyOp7
 70
     1
102
RTVSPropertyOp8
 70
     1
102
RTVSPropertyOp9
 70
     1
102
RTVSPropertyOp10
 70
     1
102
RTVSPropertyOp11
 70
     1
102
RTVSPropertyOp12
 70
     1
102
RTVSPropertyOp13
 70
     1
102
RTVSPropertyOp14
 70
     1
102
RTVSPropertyOp15
 70
     1
102
RTVSPropertyOp16
 70
     1
102
RTVSPropertyOp17
 70
     1
102
RTVSPropertyOp18
 70
     1
102
RTVSPropertyOp19
 70
     1
102
RTVSPropertyOp20
 70
     1
102
RTVSPropertyOp21
 70
     1
102
RTVSPropertyOp22
 70
     1
102
RTVSPropertyOp23
 70
     1
102
RTVSPropertyOp24
 70
     1
102
RTVSPropertyOp25
 70
     1
102
RTVSPropertyOp26
 70
     1
102
RTVSPropertyOp27
 70
     1
  0
XRECORD
  5
DFA
102
{ACAD_REACTORS
330
DF9
102
}
330
DF9
100
AcDbXrecord
280
     1
102
RTVSPropertyOp28
 70
     1
102
RTVSPropertyOp29
 70
     1
102
RTVSPropertyOp30
 70
     1
102
RTVSPropertyOp31
 70
     1
102
RTVSPropertyOp32
 70
     1
102
RTVSPropertyOp0
 70
     1
102
RTVSPropertyOp1
 70
     1
102
RTVSPropertyOp2
 70
     1
102
RTVSPropertyOp3
 70
     1
102
RTVSPropertyOp4
 70
     1
102
RTVSPropertyOp5
 70
     1
102
RTVSPropertyOp6
 70
     1
102
RTVSPropertyOp7
 70
     1
102
RTVSPropertyOp8
 70
     1
102
RTVSPropertyOp9
 70
     1
102
RTVSPropertyOp10
 70
     1
102
RTVSPropertyOp11
 70
     1
102
RTVSPropertyOp12
 70
     1
102
RTVSPropertyOp13
 70
     1
102
RTVSPropertyOp14
 70
     1
102
RTVSPropertyOp15
 70
     1
102
RTVSPropertyOp16
 70
     1
102
RTVSPropertyOp17
 70
     1
102
RTVSPropertyOp18
 70
     1
102
RTVSPropertyOp19
 70
     1
102
RTVSPropertyOp20
 70
     1
102
RTVSPropertyOp21
 70
     1
102
RTVSPropertyOp22
 70
     1
102
RTVSPropertyOp23
 70
     1
102
RTVSPropertyOp24
 70
     1
102
RTVSPropertyOp25
 70
     1
102
RTVSPropertyOp26
 70
     1
102
RTVSPropertyOp27
 70
     1
  0
XRECORD
  5
E02
102
{ACAD_REACTORS
330
E01
102
}
330
E01
100
AcDbXrecord
280
     1
102
RTVSPropertyOp28
 70
     1
102
RTVSPropertyOp29
 70
     1
102
RTVSPropertyOp30
 70
     1
102
RTVSPropertyOp31
 70
     1
102
RTVSPropertyOp32
 70
     1
102
RTVSPropertyOp0
 70
     1
102
RTVSPropertyOp1
 70
     1
102
RTVSPropertyOp2
 70
     1
102
RTVSPropertyOp3
 70
     1
102
RTVSPropertyOp4
 70
     1
102
RTVSPropertyOp5
 70
     1
102
RTVSPropertyOp6
 70
     1
102
RTVSPropertyOp7
 70
     1
102
RTVSPropertyOp8
 70
     1
102
RTVSPropertyOp9
 70
     1
102
RTVSPropertyOp10
 70
     1
102
RTVSPropertyOp11
 70
     1
102
RTVSPropertyOp12
 70
     1
102
RTVSPropertyOp13
 70
     1
102
RTVSPropertyOp14
 70
     1
102
RTVSPropertyOp15
 70
     1
102
RTVSPropertyOp16
 70
     1
102
RTVSPropertyOp17
 70
     1
102
RTVSPropertyOp18
 70
     1
102
RTVSPropertyOp19
 70
     1
102
RTVSPropertyOp20
 70
     1
102
RTVSPropertyOp21
 70
     1
102
RTVSPropertyOp22
 70
     1
102
RTVSPropertyOp23
 70
     1
102
RTVSPropertyOp24
 70
     1
102
RTVSPropertyOp25
 70
     1
102
RTVSPropertyOp26
 70
     1
102
RTVSPropertyOp27
 70
     1
  0
XRECORD
  5
E1E
102
{ACAD_REACTORS
330
E1D
102
}
330
E1D
100
AcDbXrecord
280
     1
102
RTVSPropertyOp28
 70
     1
102
RTVSPropertyOp29
 70
     1
102
RTVSPropertyOp30
 70
     1
102
RTVSPropertyOp31
 70
     1
102
RTVSPropertyOp32
 70
     1
102
RTVSPropertyOp0
 70
     0
102
RTVSPropertyOp1
 70
     0
102
RTVSPropertyOp2
 70
     0
102
RTVSPropertyOp3
 70
     0
102
RTVSPropertyOp4
 70
     0
102
RTVSPropertyOp5
 70
     0
102
RTVSPropertyOp6
 70
     0
102
RTVSPropertyOp7
 70
     0
102
RTVSPropertyOp8
 70
     0
102
RTVSPropertyOp9
 70
     0
102
RTVSPropertyOp10
 70
     0
102
RTVSPropertyOp11
 70
     0
102
RTVSPropertyOp12
 70
     0
102
RTVSPropertyOp13
 70
     0
102
RTVSPropertyOp14
 70
     2
102
RTVSPropertyOp15
 70
     0
102
RTVSPropertyOp16
 70
     0
102
RTVSPropertyOp17
 70
     0
102
RTVSPropertyOp18
 70
     0
102
RTVSPropertyOp19
 70
     0
102
RTVSPropertyOp20
 70
     0
102
RTVSPropertyOp21
 70
     0
102
RTVSPropertyOp22
 70
     0
102
RTVSPropertyOp23
 70
     0
102
RTVSPropertyOp24
 70
     0
102
RTVSPropertyOp25
 70
     0
102
RTVSPropertyOp26
 70
     0
102
RTVSPropertyOp27
 70
     0
  0
XRECORD
  5
E0E
102
{ACAD_REACTORS
330
E0D
102
}
330
E0D
100
AcDbXrecord
280
     1
102
RTVSPropertyOp28
 70
     1
102
RTVSPropertyOp29
 70
     1
102
RTVSPropertyOp30
 70
     1
102
RTVSPropertyOp31
 70
     1
102
RTVSPropertyOp32
 70
     1
102
RTVSPropertyOp0
 70
     1
102
RTVSPropertyOp1
 70
     1
102
RTVSPropertyOp2
 70
     1
102
RTVSPropertyOp3
 70
     1
102
RTVSPropertyOp4
 70
     1
102
RTVSPropertyOp5
 70
     1
102
RTVSPropertyOp6
 70
     1
102
RTVSPropertyOp7
 70
     1
102
RTVSPropertyOp8
 70
     1
102
RTVSPropertyOp9
 70
     1
102
RTVSPropertyOp10
 70
     1
102
RTVSPropertyOp11
 70
     1
102
RTVSPropertyOp12
 70
     1
102
RTVSPropertyOp13
 70
     1
102
RTVSPropertyOp14
 70
     1
102
RTVSPropertyOp15
 70
     1
102
RTVSPropertyOp16
 70
     1
102
RTVSPropertyOp17
 70
     1
102
RTVSPropertyOp18
 70
     1
102
RTVSPropertyOp19
 70
     1
102
RTVSPropertyOp20
 70
     1
102
RTVSPropertyOp21
 70
     1
102
RTVSPropertyOp22
 70
     1
102
RTVSPropertyOp23
 70
     1
102
RTVSPropertyOp24
 70
     1
102
RTVSPropertyOp25
 70
     1
102
RTVSPropertyOp26
 70
     1
102
RTVSPropertyOp27
 70
     1
  0
XRECORD
  5
E20
102
{ACAD_REACTORS
330
E1F
102
}
330
E1F
100
AcDbXrecord
280
     1
102
RTVSPropertyOp28
 70
     1
102
RTVSPropertyOp29
 70
     1
102
RTVSPropertyOp30
 70
     1
102
RTVSPropertyOp31
 70
     1
102
RTVSPropertyOp32
 70
     1
102
RTVSPropertyOp0
 70
     0
102
RTVSPropertyOp1
 70
     0
102
RTVSPropertyOp2
 70
     0
102
RTVSPropertyOp3
 70
     0
102
RTVSPropertyOp4
 70
     0
102
RTVSPropertyOp5
 70
     0
102
RTVSPropertyOp6
 70
     0
102
RTVSPropertyOp7
 70
     0
102
RTVSPropertyOp8
 70
     0
102
RTVSPropertyOp9
 70
     0
102
RTVSPropertyOp10
 70
     0
102
RTVSPropertyOp11
 70
     0
102
RTVSPropertyOp12
 70
     0
102
RTVSPropertyOp13
 70
     0
102
RTVSPropertyOp14
 70
     2
102
RTVSPropertyOp15
 70
     0
102
RTVSPropertyOp16
 70
     0
102
RTVSPropertyOp17
 70
     0
102
RTVSPropertyOp18
 70
     0
102
RTVSPropertyOp19
 70
     0
102
RTVSPropertyOp20
 70
     0
102
RTVSPropertyOp21
 70
     0
102
RTVSPropertyOp22
 70
     0
102
RTVSPropertyOp23
 70
     0
102
RTVSPropertyOp24
 70
     0
102
RTVSPropertyOp25
 70
     0
102
RTVSPropertyOp26
 70
     0
102
RTVSPropertyOp27
 70
     0
  0
XRECORD
  5
E06
102
{ACAD_REACTORS
330
E05
102
}
330
E05
100
AcDbXrecord
280
     1
102
RTVSPropertyOp28
 70
     1
102
RTVSPropertyOp29
 70
     1
102
RTVSPropertyOp30
 70
     1
102
RTVSPropertyOp31
 70
     1
102
RTVSPropertyOp32
 70
     1
102
RTVSPropertyOp0
 70
     1
102
RTVSPropertyOp1
 70
     1
102
RTVSPropertyOp2
 70
     1
102
RTVSPropertyOp3
 70
     1
102
RTVSPropertyOp4
 70
     1
102
RTVSPropertyOp5
 70
     1
102
RTVSPropertyOp6
 70
     1
102
RTVSPropertyOp7
 70
     1
102
RTVSPropertyOp8
 70
     1
102
RTVSPropertyOp9
 70
     1
102
RTVSPropertyOp10
 70
     1
102
RTVSPropertyOp11
 70
     1
102
RTVSPropertyOp12
 70
     1
102
RTVSPropertyOp13
 70
     1
102
RTVSPropertyOp14
 70
     1
102
RTVSPropertyOp15
 70
     1
102
RTVSPropertyOp16
 70
     1
102
RTVSPropertyOp17
 70
     1
102
RTVSPropertyOp18
 70
     1
102
RTVSPropertyOp19
 70
     1
102
RTVSPropertyOp20
 70
     1
102
RTVSPropertyOp21
 70
     1
102
RTVSPropertyOp22
 70
     1
102
RTVSPropertyOp23
 70
     1
102
RTVSPropertyOp24
 70
     1
102
RTVSPropertyOp25
 70
     1
102
RTVSPropertyOp26
 70
     1
102
RTVSPropertyOp27
 70
     1
  0
XRECORD
  5
E1C
102
{ACAD_REACTORS
330
E1B
102
}
330
E1B
100
AcDbXrecord
280
     1
102
RTVSPropertyOp28
 70
     1
102
RTVSPropertyOp29
 70
     1
102
RTVSPropertyOp30
 70
     1
102
RTVSPropertyOp31
 70
     1
102
RTVSPropertyOp32
 70
     1
102
RTVSPropertyOp0
 70
     1
102
RTVSPropertyOp1
 70
     1
102
RTVSPropertyOp2
 70
     1
102
RTVSPropertyOp3
 70
     1
102
RTVSPropertyOp4
 70
     1
102
RTVSPropertyOp5
 70
     1
102
RTVSPropertyOp6
 70
     1
102
RTVSPropertyOp7
 70
     1
102
RTVSPropertyOp8
 70
     1
102
RTVSPropertyOp9
 70
     1
102
RTVSPropertyOp10
 70
     1
102
RTVSPropertyOp11
 70
     1
102
RTVSPropertyOp12
 70
     1
102
RTVSPropertyOp13
 70
     1
102
RTVSPropertyOp14
 70
     1
102
RTVSPropertyOp15
 70
     1
102
RTVSPropertyOp16
 70
     1
102
RTVSPropertyOp17
 70
     1
102
RTVSPropertyOp18
 70
     1
102
RTVSPropertyOp19
 70
     1
102
RTVSPropertyOp20
 70
     1
102
RTVSPropertyOp21
 70
     1
102
RTVSPropertyOp22
 70
     1
102
RTVSPropertyOp23
 70
     1
102
RTVSPropertyOp24
 70
     1
102
RTVSPropertyOp25
 70
     1
102
RTVSPropertyOp26
 70
     1
102
RTVSPropertyOp27
 70
     1
  0
XRECORD
  5
E1A
102
{ACAD_REACTORS
330
E19
102
}
330
E19
100
AcDbXrecord
280
     1
102
RTVSPropertyOp28
 70
     1
102
RTVSPropertyOp29
 70
     1
102
RTVSPropertyOp30
 70
     1
102
RTVSPropertyOp31
 70
     1
102
RTVSPropertyOp32
 70
     1
102
RTVSPropertyOp0
 70
     1
102
RTVSPropertyOp1
 70
     1
102
RTVSPropertyOp2
 70
     1
102
RTVSPropertyOp3
 70
     1
102
RTVSPropertyOp4
 70
     1
102
RTVSPropertyOp5
 70
     1
102
RTVSPropertyOp6
 70
     1
102
RTVSPropertyOp7
 70
     1
102
RTVSPropertyOp8
 70
     1
102
RTVSPropertyOp9
 70
     1
102
RTVSPropertyOp10
 70
     1
102
RTVSPropertyOp11
 70
     1
102
RTVSPropertyOp12
 70
     1
102
RTVSPropertyOp13
 70
     1
102
RTVSPropertyOp14
 70
     1
102
RTVSPropertyOp15
 70
     1
102
RTVSPropertyOp16
 70
     1
102
RTVSPropertyOp17
 70
     1
102
RTVSPropertyOp18
 70
     1
102
RTVSPropertyOp19
 70
     1
102
RTVSPropertyOp20
 70
     1
102
RTVSPropertyOp21
 70
     1
102
RTVSPropertyOp22
 70
     1
102
RTVSPropertyOp23
 70
     1
102
RTVSPropertyOp24
 70
     1
102
RTVSPropertyOp25
 70
     1
102
RTVSPropertyOp26
 70
     1
102
RTVSPropertyOp27
 70
     1
  0
XRECORD
  5
E14
102
{ACAD_REACTORS
330
E13
102
}
330
E13
100
AcDbXrecord
280
     1
102
RTVSPropertyOp28
 70
     1
102
RTVSPropertyOp29
 70
     1
102
RTVSPropertyOp30
 70
     1
102
RTVSPropertyOp31
 70
     1
102
RTVSPropertyOp32
 70
     1
102
RTVSPropertyOp0
 70
     1
102
RTVSPropertyOp1
 70
     1
102
RTVSPropertyOp2
 70
     1
102
RTVSPropertyOp3
 70
     1
102
RTVSPropertyOp4
 70
     1
102
RTVSPropertyOp5
 70
     1
102
RTVSPropertyOp6
 70
     1
102
RTVSPropertyOp7
 70
     1
102
RTVSPropertyOp8
 70
     1
102
RTVSPropertyOp9
 70
     1
102
RTVSPropertyOp10
 70
     1
102
RTVSPropertyOp11
 70
     1
102
RTVSPropertyOp12
 70
     1
102
RTVSPropertyOp13
 70
     1
102
RTVSPropertyOp14
 70
     1
102
RTVSPropertyOp15
 70
     1
102
RTVSPropertyOp16
 70
     1
102
RTVSPropertyOp17
 70
     1
102
RTVSPropertyOp18
 70
     1
102
RTVSPropertyOp19
 70
     1
102
RTVSPropertyOp20
 70
     1
102
RTVSPropertyOp21
 70
     1
102
RTVSPropertyOp22
 70
     1
102
RTVSPropertyOp23
 70
     1
102
RTVSPropertyOp24
 70
     1
102
RTVSPropertyOp25
 70
     1
102
RTVSPropertyOp26
 70
     1
102
RTVSPropertyOp27
 70
     1
  0
XRECORD
  5
E16
102
{ACAD_REACTORS
330
E15
102
}
330
E15
100
AcDbXrecord
280
     1
102
RTVSPropertyOp28
 70
     1
102
RTVSPropertyOp29
 70
     1
102
RTVSPropertyOp30
 70
     1
102
RTVSPropertyOp31
 70
     1
102
RTVSPropertyOp32
 70
     1
102
RTVSPropertyOp0
 70
     1
102
RTVSPropertyOp1
 70
     1
102
RTVSPropertyOp2
 70
     1
102
RTVSPropertyOp3
 70
     1
102
RTVSPropertyOp4
 70
     1
102
RTVSPropertyOp5
 70
     1
102
RTVSPropertyOp6
 70
     1
102
RTVSPropertyOp7
 70
     1
102
RTVSPropertyOp8
 70
     1
102
RTVSPropertyOp9
 70
     1
102
RTVSPropertyOp10
 70
     1
102
RTVSPropertyOp11
 70
     1
102
RTVSPropertyOp12
 70
     1
102
RTVSPropertyOp13
 70
     1
102
RTVSPropertyOp14
 70
     1
102
RTVSPropertyOp15
 70
     1
102
RTVSPropertyOp16
 70
     1
102
RTVSPropertyOp17
 70
     1
102
RTVSPropertyOp18
 70
     1
102
RTVSPropertyOp19
 70
     1
102
RTVSPropertyOp20
 70
     1
102
RTVSPropertyOp21
 70
     1
102
RTVSPropertyOp22
 70
     1
102
RTVSPropertyOp23
 70
     1
102
RTVSPropertyOp24
 70
     1
102
RTVSPropertyOp25
 70
     1
102
RTVSPropertyOp26
 70
     1
102
RTVSPropertyOp27
 70
     1
  0
XRECORD
  5
E0C
102
{ACAD_REACTORS
330
E0B
102
}
330
E0B
100
AcDbXrecord
280
     1
102
RTVSPropertyOp28
 70
     1
102
RTVSPropertyOp29
 70
     1
102
RTVSPropertyOp30
 70
     1
102
RTVSPropertyOp31
 70
     1
102
RTVSPropertyOp32
 70
     1
102
RTVSPropertyOp0
 70
     1
102
RTVSPropertyOp1
 70
     1
102
RTVSPropertyOp2
 70
     1
102
RTVSPropertyOp3
 70
     1
102
RTVSPropertyOp4
 70
     1
102
RTVSPropertyOp5
 70
     1
102
RTVSPropertyOp6
 70
     1
102
RTVSPropertyOp7
 70
     1
102
RTVSPropertyOp8
 70
     1
102
RTVSPropertyOp9
 70
     1
102
RTVSPropertyOp10
 70
     1
102
RTVSPropertyOp11
 70
     1
102
RTVSPropertyOp12
 70
     1
102
RTVSPropertyOp13
 70
     1
102
RTVSPropertyOp14
 70
     1
102
RTVSPropertyOp15
 70
     1
102
RTVSPropertyOp16
 70
     1
102
RTVSPropertyOp17
 70
     1
102
RTVSPropertyOp18
 70
     1
102
RTVSPropertyOp19
 70
     1
102
RTVSPropertyOp20
 70
     1
102
RTVSPropertyOp21
 70
     1
102
RTVSPropertyOp22
 70
     1
102
RTVSPropertyOp23
 70
     1
102
RTVSPropertyOp24
 70
     1
102
RTVSPropertyOp25
 70
     1
102
RTVSPropertyOp26
 70
     1
102
RTVSPropertyOp27
 70
     1
  0
XRECORD
  5
E00
102
{ACAD_REACTORS
330
DFF
102
}
330
DFF
100
AcDbXrecord
280
     1
102
RTVSPropertyOp28
 70
     1
102
RTVSPropertyOp29
 70
     1
102
RTVSPropertyOp30
 70
     1
102
RTVSPropertyOp31
 70
     1
102
RTVSPropertyOp32
 70
     1
102
RTVSPropertyOp0
 70
     1
102
RTVSPropertyOp1
 70
     1
102
RTVSPropertyOp2
 70
     1
102
RTVSPropertyOp3
 70
     1
102
RTVSPropertyOp4
 70
     1
102
RTVSPropertyOp5
 70
     1
102
RTVSPropertyOp6
 70
     1
102
RTVSPropertyOp7
 70
     1
102
RTVSPropertyOp8
 70
     1
102
RTVSPropertyOp9
 70
     1
102
RTVSPropertyOp10
 70
     1
102
RTVSPropertyOp11
 70
     1
102
RTVSPropertyOp12
 70
     1
102
RTVSPropertyOp13
 70
     1
102
RTVSPropertyOp14
 70
     1
102
RTVSPropertyOp15
 70
     1
102
RTVSPropertyOp16
 70
     1
102
RTVSPropertyOp17
 70
     1
102
RTVSPropertyOp18
 70
     1
102
RTVSPropertyOp19
 70
     1
102
RTVSPropertyOp20
 70
     1
102
RTVSPropertyOp21
 70
     1
102
RTVSPropertyOp22
 70
     1
102
RTVSPropertyOp23
 70
     1
102
RTVSPropertyOp24
 70
     1
102
RTVSPropertyOp25
 70
     1
102
RTVSPropertyOp26
 70
     1
102
RTVSPropertyOp27
 70
     1
  0
XRECORD
  5
E18
102
{ACAD_REACTORS
330
E17
102
}
330
E17
100
AcDbXrecord
280
     1
102
RTVSPropertyOp28
 70
     1
102
RTVSPropertyOp29
 70
     1
102
RTVSPropertyOp30
 70
     1
102
RTVSPropertyOp31
 70
     1
102
RTVSPropertyOp32
 70
     1
102
RTVSPropertyOp0
 70
     1
102
RTVSPropertyOp1
 70
     1
102
RTVSPropertyOp2
 70
     1
102
RTVSPropertyOp3
 70
     1
102
RTVSPropertyOp4
 70
     1
102
RTVSPropertyOp5
 70
     1
102
RTVSPropertyOp6
 70
     1
102
RTVSPropertyOp7
 70
     1
102
RTVSPropertyOp8
 70
     1
102
RTVSPropertyOp9
 70
     1
102
RTVSPropertyOp10
 70
     1
102
RTVSPropertyOp11
 70
     1
102
RTVSPropertyOp12
 70
     1
102
RTVSPropertyOp13
 70
     1
102
RTVSPropertyOp14
 70
     1
102
RTVSPropertyOp15
 70
     1
102
RTVSPropertyOp16
 70
     1
102
RTVSPropertyOp17
 70
     1
102
RTVSPropertyOp18
 70
     1
102
RTVSPropertyOp19
 70
     1
102
RTVSPropertyOp20
 70
     1
102
RTVSPropertyOp21
 70
     1
102
RTVSPropertyOp22
 70
     1
102
RTVSPropertyOp23
 70
     1
102
RTVSPropertyOp24
 70
     1
102
RTVSPropertyOp25
 70
     1
102
RTVSPropertyOp26
 70
     1
102
RTVSPropertyOp27
 70
     1
  0
ENDSEC
  0
EOF
