  0
SECTION
  2
HEADER
  9
$ACADVER
  1
AC1015
  9
$ACADMAINTVER
 70
    20
  9
$DWGCODEPAGE
  3
ANSI_1250
  9
$INSBASE
 10
0.0
 20
0.0
 30
0.0
  9
$EXTMIN
 10
19200.18426671217
 20
-22.00134202912076
 30
0.0
  9
$EXTMAX
 10
47166.64751997108
 20
9298.499819410031
 30
0.0
  9
$LIMMIN
 10
0.0
 20
0.0
  9
$LIMMAX
 10
20790.0
 20
14700.0
  9
$ORTHOMODE
 70
     0
  9
$REGENMODE
 70
     1
  9
$FILLMODE
 70
     1
  9
$QTEXTMODE
 70
     0
  9
$MIRRTEXT
 70
     0
  9
$LTSCALE
 40
70.0
  9
$ATTMODE
 70
     1
  9
$TEXTSIZE
 40
0.2
  9
$TRACEWID
 40
0.05
  9
$TEXTSTYLE
  7
Standard
  9
$CLAYER
  8
0
  9
$CELTYPE
  6
ByLayer
  9
$CECOLOR
 62
   256
  9
$CELTSCALE
 40
1.0
  9
$DISPSILH
 70
     0
  9
$DIMSCALE
 40
1.0
  9
$DIMASZ
 40
1.799999999999999
  9
$DIMEXO
 40
0.0625
  9
$DIMDLI
 40
0.38
  9
$DIMRND
 40
0.0
  9
$DIMDLE
 40
0.0
  9
$DIMEXE
 40
0.18
  9
$DIMTP
 40
0.0
  9
$DIMTM
 40
0.0
  9
$DIMTXT
 40
0.25
  9
$DIMCEN
 40
0.09
  9
$DIMTSZ
 40
0.0
  9
$DIMTOL
 70
     0
  9
$DIMLIM
 70
     0
  9
$DIMTIH
 70
     1
  9
$DIMTOH
 70
     1
  9
$DIMSE1
 70
     0
  9
$DIMSE2
 70
     0
  9
$DIMTAD
 70
     0
  9
$DIMZIN
 70
     0
  9
$DIMBLK
  1

  9
$DIMASO
 70
     1
  9
$DIMSHO
 70
     1
  9
$DIMPOST
  1

  9
$DIMAPOST
  1

  9
$DIMALT
 70
     0
  9
$DIMALTD
 70
     2
  9
$DIMALTF
 40
25.4
  9
$DIMLFAC
 40
1.0
  9
$DIMTOFL
 70
     0
  9
$DIMTVP
 40
0.0
  9
$DIMTIX
 70
     0
  9
$DIMSOXD
 70
     0
  9
$DIMSAH
 70
     0
  9
$DIMBLK1
  1

  9
$DIMBLK2
  1

  9
$DIMSTYLE
  2
Standard
  9
$DIMCLRD
 70
     0
  9
$DIMCLRE
 70
     0
  9
$DIMCLRT
 70
     0
  9
$DIMTFAC
 40
1.0
  9
$DIMGAP
 40
0.09
  9
$DIMJUST
 70
     0
  9
$DIMSD1
 70
     0
  9
$DIMSD2
 70
     0
  9
$DIMTOLJ
 70
     1
  9
$DIMTZIN
 70
     0
  9
$DIMALTZ
 70
     0
  9
$DIMALTTZ
 70
     0
  9
$DIMUPT
 70
     0
  9
$DIMDEC
 70
     4
  9
$DIMTDEC
 70
     4
  9
$DIMALTU
 70
     2
  9
$DIMALTTD
 70
     2
  9
$DIMTXSTY
  7
Standard
  9
$DIMAUNIT
 70
     0
  9
$DIMADEC
 70
     0
  9
$DIMALTRND
 40
0.0
  9
$DIMAZIN
 70
     0
  9
$DIMDSEP
 70
    46
  9
$DIMATFIT
 70
     3
  9
$DIMFRAC
 70
     0
  9
$DIMLDRBLK
  1

  9
$DIMLUNIT
 70
     2
  9
$DIMLWD
 70
    -2
  9
$DIMLWE
 70
    -2
  9
$DIMTMOVE
 70
     0
  9
$LUNITS
 70
     2
  9
$LUPREC
 70
     4
  9
$SKETCHINC
 40
0.1
  9
$FILLETRAD
 40
0.0
  9
$AUNITS
 70
     0
  9
$AUPREC
 70
     0
  9
$MENU
  1
.
  9
$ELEVATION
 40
0.0
  9
$PELEVATION
 40
0.0
  9
$THICKNESS
 40
0.0
  9
$LIMCHECK
 70
     0
  9
$CHAMFERA
 40
0.0
  9
$CHAMFERB
 40
0.0
  9
$CHAMFERC
 40
0.0
  9
$CHAMFERD
 40
0.0
  9
$SKPOLY
 70
     0
  9
$TDCREATE
 40
2459237.341137072
  9
$TDUCREATE
 40
2459237.299470405
  9
$TDUPDATE
 40
2459237.345180891
  9
$TDUUPDATE
 40
2459237.303514225
  9
$TDINDWG
 40
0.0017746412
  9
$TDUSRTIMER
 40
0.0017746065
  9
$USRTIMER
 70
     1
  9
$ANGBASE
 50
0.0
  9
$ANGDIR
 70
     0
  9
$PDMODE
 70
     0
  9
$PDSIZE
 40
0.0
  9
$PLINEWID
 40
0.0
  9
$SPLFRAME
 70
     0
  9
$SPLINETYPE
 70
     6
  9
$SPLINESEGS
 70
     8
  9
$HANDSEED
  5
A9B
  9
$SURFTAB1
 70
     6
  9
$SURFTAB2
 70
     6
  9
$SURFTYPE
 70
     6
  9
$SURFU
 70
     6
  9
$SURFV
 70
     6
  9
$UCSBASE
  2

  9
$UCSNAME
  2

  9
$UCSORG
 10
0.0
 20
0.0
 30
0.0
  9
$UCSXDIR
 10
1.0
 20
0.0
 30
0.0
  9
$UCSYDIR
 10
0.0
 20
1.0
 30
0.0
  9
$UCSORTHOREF
  2

  9
$UCSORTHOVIEW
 70
     0
  9
$UCSORGTOP
 10
0.0
 20
0.0
 30
0.0
  9
$UCSORGBOTTOM
 10
0.0
 20
0.0
 30
0.0
  9
$UCSORGLEFT
 10
0.0
 20
0.0
 30
0.0
  9
$UCSORGRIGHT
 10
0.0
 20
0.0
 30
0.0
  9
$UCSORGFRONT
 10
0.0
 20
0.0
 30
0.0
  9
$UCSORGBACK
 10
0.0
 20
0.0
 30
0.0
  9
$PUCSBASE
  2

  9
$PUCSNAME
  2

  9
$PUCSORG
 10
0.0
 20
0.0
 30
0.0
  9
$PUCSXDIR
 10
1.0
 20
0.0
 30
0.0
  9
$PUCSYDIR
 10
0.0
 20
1.0
 30
0.0
  9
$PUCSORTHOREF
  2

  9
$PUCSORTHOVIEW
 70
     0
  9
$PUCSORGTOP
 10
0.0
 20
0.0
 30
0.0
  9
$PUCSORGBOTTOM
 10
0.0
 20
0.0
 30
0.0
  9
$PUCSORGLEFT
 10
0.0
 20
0.0
 30
0.0
  9
$PUCSORGRIGHT
 10
0.0
 20
0.0
 30
0.0
  9
$PUCSORGFRONT
 10
0.0
 20
0.0
 30
0.0
  9
$PUCSORGBACK
 10
0.0
 20
0.0
 30
0.0
  9
$USERI1
 70
     0
  9
$USERI2
 70
     0
  9
$USERI3
 70
     0
  9
$USERI4
 70
     0
  9
$USERI5
 70
     0
  9
$USERR1
 40
0.0
  9
$USERR2
 40
0.0
  9
$USERR3
 40
0.0
  9
$USERR4
 40
0.0
  9
$USERR5
 40
0.0
  9
$WORLDVIEW
 70
     1
  9
$SHADEDGE
 70
     3
  9
$SHADEDIF
 70
    70
  9
$TILEMODE
 70
     1
  9
$MAXACTVP
 70
    64
  9
$PINSBASE
 10
0.0
 20
0.0
 30
0.0
  9
$PLIMCHECK
 70
     0
  9
$PEXTMIN
 10
0.0
 20
0.0
 30
0.0
  9
$PEXTMAX
 10
20790.0
 20
14700.0
 30
0.0
  9
$PLIMMIN
 10
0.0
 20
0.0
  9
$PLIMMAX
 10
20790.0
 20
14700.0
  9
$UNITMODE
 70
     0
  9
$VISRETAIN
 70
     1
  9
$PLINEGEN
 70
     0
  9
$PSLTSCALE
 70
     1
  9
$TREEDEPTH
 70
  3020
  9
$CMLSTYLE
  2
Standard
  9
$CMLJUST
 70
     0
  9
$CMLSCALE
 40
1.0
  9
$PROXYGRAPHICS
 70
     1
  9
$MEASUREMENT
 70
     1
  9
$CELWEIGHT
370
    -1
  9
$ENDCAPS
280
     0
  9
$JOINSTYLE
280
     0
  9
$LWDISPLAY
290
     0
  9
$INSUNITS
 70
     4
  9
$HYPERLINKBASE
  1
WWW.MULLER.COM.PL
  9
$STYLESHEET
  1

  9
$XEDIT
290
     1
  9
$CEPSNTYPE
380
     0
  9
$PSTYLEMODE
290
     1
  9
$FINGERPRINTGUID
  2
{3FEDE37B-FD71-4794-B903-38D59FB5ED31}
  9
$VERSIONGUID
  2
{EC90B7F8-A5DA-4C87-A837-4C7ECD3DD68B}
  9
$EXTNAMES
290
     1
  9
$PSVPSCALE
 40
0.0
  9
$OLESTARTUP
290
     0
  0
ENDSEC
  0
SECTION
  2
CLASSES
  0
CLASS
  1
ACDBDICTIONARYWDFLT
  2
AcDbDictionaryWithDefault
  3
ObjectDBX Classes
 90
        0
280
     0
281
     0
  0
CLASS
  1
MATERIAL
  2
AcDbMaterial
  3
ObjectDBX Classes
 90
     1153
280
     0
281
     0
  0
CLASS
  1
VISUALSTYLE
  2
AcDbVisualStyle
  3
ObjectDBX Classes
 90
     4095
280
     0
281
     0
  0
CLASS
  1
SCALE
  2
AcDbScale
  3
ObjectDBX Classes
 90
     1153
280
     0
281
     0
  0
CLASS
  1
TABLESTYLE
  2
AcDbTableStyle
  3
ObjectDBX Classes
 90
     4095
280
     0
281
     0
  0
CLASS
  1
MLEADERSTYLE
  2
AcDbMLeaderStyle
  3
ACDB_MLEADERSTYLE_CLASS
 90
     4095
280
     0
281
     0
  0
CLASS
  1
CELLSTYLEMAP
  2
AcDbCellStyleMap
  3
ObjectDBX Classes
 90
     1152
280
     0
281
     0
  0
CLASS
  1
DICTIONARYVAR
  2
AcDbDictionaryVar
  3
ObjectDBX Classes
 90
        0
280
     0
281
     0
  0
CLASS
  1
ACDBPLACEHOLDER
  2
AcDbPlaceHolder
  3
ObjectDBX Classes
 90
        0
280
     0
281
     0
  0
CLASS
  1
LAYOUT
  2
AcDbLayout
  3
ObjectDBX Classes
 90
        0
280
     0
281
     0
  0
CLASS
  1
EXACXREFPANELOBJECT
  2
ExAcXREFPanelObject
  3
EXAC_ESW
 90
     1025
280
     0
281
     0
  0
CLASS
  1
NPOCOLLECTION
  2
AcDbImpNonPersistentObjectsCollection
  3
ObjectDBX Classes
 90
     1153
280
     0
281
     0
  0
CLASS
  1
SORTENTSTABLE
  2
AcDbSortentsTable
  3
ObjectDBX Classes
 90
        0
280
     0
281
     0
  0
CLASS
  1
ACAD_EVALUATION_GRAPH
  2
AcDbEvalGraph
  3
ObjectDBX Classes
 90
     1153
280
     0
281
     0
  0
CLASS
  1
ACAECUSTOBJ
  2
AcAeEditorObj
  3
AcAeEditorObj
 90
     1024
280
     0
281
     0
  0
CLASS
  1
ACDB_DYNAMICBLOCKPURGEPREVENTER_VERSION
  2
AcDbDynamicBlockPurgePreventer
  3
ObjectDBX Classes
 90
     1153
280
     0
281
     0
  0
ENDSEC
  0
SECTION
  2
TABLES
  0
TABLE
  2
VPORT
  5
8
102
{ACAD_XDICTIONARY
360
8B9
102
}
330
0
100
AcDbSymbolTable
 70
     1
  0
VPORT
  5
57
330
8
100
AcDbSymbolTableRecord
100
AcDbViewportTableRecord
  2
*Active
 70
     0
 10
0.0
 20
0.0
 11
1.0
 21
1.0
 12
25251.41139477398
 22
4611.408477334698
 13
0.0
 23
0.0
 14
1.0
 24
1.0
 15
0.0
 25
0.0
 16
0.0
 26
0.0
 36
1.0
 17
0.0
 27
0.0
 37
0.0
 40
10561.18787387805
 41
2.430203045685279
 42
50.0
 43
0.0
 44
0.0
 50
0.0
 51
0.0
 71
     0
 72
   100
 73
     1
 74
     1
 75
     0
 76
     0
 77
     0
 78
     0
281
     0
 65
     1
110
0.0
120
0.0
130
0.0
111
1.0
121
0.0
131
0.0
112
0.0
122
1.0
132
0.0
 79
     0
146
0.0
  0
ENDTAB
  0
TABLE
  2
LTYPE
  5
5
330
0
100
AcDbSymbolTable
 70
     1
  0
LTYPE
  5
5B
330
5
100
AcDbSymbolTableRecord
100
AcDbLinetypeTableRecord
  2
ByBlock
 70
     0
  3

 72
    65
 73
     0
 40
0.0
  0
LTYPE
  5
5C
330
5
100
AcDbSymbolTableRecord
100
AcDbLinetypeTableRecord
  2
ByLayer
 70
     0
  3

 72
    65
 73
     0
 40
0.0
  0
LTYPE
  5
5D
330
5
100
AcDbSymbolTableRecord
100
AcDbLinetypeTableRecord
  2
Continuous
 70
     0
  3
Solid line
 72
    65
 73
     0
 40
0.0
  0
ENDTAB
  0
TABLE
  2
LAYER
  5
2
330
0
100
AcDbSymbolTable
 70
     5
  0
LAYER
  5
54
330
2
100
AcDbSymbolTableRecord
100
AcDbLayerTableRecord
  2
0
 70
     0
 62
     7
  6
Continuous
370
    -3
390
F
  0
LAYER
  5
BA
330
2
100
AcDbSymbolTableRecord
100
AcDbLayerTableRecord
  2
Dimension (ISO)
 70
     0
 62
   161
  6
Continuous
370
    18
390
F
  0
LAYER
  5
C5
330
2
100
AcDbSymbolTableRecord
100
AcDbLayerTableRecord
  2
Title (ISO)
 70
     0
 62
     7
  6
Continuous
370
    30
390
F
  0
LAYER
  5
C8
330
2
100
AcDbSymbolTableRecord
100
AcDbLayerTableRecord
  2
Visible (ISO)
 70
     0
 62
     7
  6
Continuous
370
    35
390
F
  0
LAYER
  5
22E
330
2
100
AcDbSymbolTableRecord
100
AcDbLayerTableRecord
  2
Defpoints
 70
     0
 62
     7
  6
Continuous
290
     0
370
    -3
390
F
  0
ENDTAB
  0
TABLE
  2
STYLE
  5
3
330
0
100
AcDbSymbolTable
 70
     3
  0
STYLE
  5
55
330
3
100
AcDbSymbolTableRecord
100
AcDbTextStyleTableRecord
  2
Standard
 70
     0
 40
0.0
 41
1.0
 50
0.0
 71
     0
 42
0.2
  3
tahoma.ttf
  4

1001
ACAD
1000
Tahoma
1071
      256
  0
STYLE
  5
CD
330
3
100
AcDbSymbolTableRecord
100
AcDbTextStyleTableRecord
  2
Label Text (ISO)
 70
     0
 40
0.0
 41
1.0
 50
0.0
 71
     0
 42
0.2
  3
tahoma.ttf
  4

1001
ACAD
1000
Tahoma
1071
      256
  0
STYLE
  5
CE
330
3
100
AcDbSymbolTableRecord
100
AcDbTextStyleTableRecord
  2
Note Text (ISO)
 70
     0
 40
0.0
 41
1.0
 50
0.0
 71
     0
 42
0.2
  3
tahoma.ttf
  4

1001
ACAD
1000
Tahoma
1071
      256
  0
ENDTAB
  0
TABLE
  2
VIEW
  5
6
330
0
100
AcDbSymbolTable
 70
     0
  0
ENDTAB
  0
TABLE
  2
UCS
  5
7
330
0
100
AcDbSymbolTable
 70
     0
  0
ENDTAB
  0
TABLE
  2
APPID
  5
9
330
0
100
AcDbSymbolTable
 70
     7
  0
APPID
  5
56
330
9
100
AcDbSymbolTableRecord
100
AcDbRegAppTableRecord
  2
ACAD
 70
     0
  0
APPID
  5
5E
330
9
100
AcDbSymbolTableRecord
100
AcDbRegAppTableRecord
  2
AcadAnnotative
 70
     0
  0
APPID
  5
89B
330
9
100
AcDbSymbolTableRecord
100
AcDbRegAppTableRecord
  2
AcadAnnoPO
 70
     0
  0
APPID
  5
8EF
330
9
100
AcDbSymbolTableRecord
100
AcDbRegAppTableRecord
  2
ACAD_MLEADERVER
 70
     0
  0
APPID
  5
A29
330
9
100
AcDbSymbolTableRecord
100
AcDbRegAppTableRecord
  2
ACAUTHENVIRON
 70
     0
  0
APPID
  5
A3F
330
9
100
AcDbSymbolTableRecord
100
AcDbRegAppTableRecord
  2
AcDbDynamicBlockTrueName
 70
     0
  0
APPID
  5
A40
330
9
100
AcDbSymbolTableRecord
100
AcDbRegAppTableRecord
  2
AcDbDynamicBlockGUID
 70
     0
  0
ENDTAB
  0
TABLE
  2
DIMSTYLE
  5
A
330
0
100
AcDbSymbolTable
 70
     2
100
AcDbDimStyleTable
 71
     2
340
D5
340
58
  0
DIMSTYLE
105
58
330
A
100
AcDbSymbolTableRecord
100
AcDbDimStyleTableRecord
  2
Standard
 70
     0
340
55
  0
DIMSTYLE
105
D5
102
{ACAD_REACTORS
330
3F8
330
4DF
330
5E2
330
6C9
330
7B1
330
930
330
931
330
9C0
330
9C1
102
}
330
A
100
AcDbSymbolTableRecord
100
AcDbDimStyleTableRecord
  2
Default (ISO)
 70
     0
 40
70.0
 41
2.5
 42
0.5
 43
5.999999999999999
 44
1.0
 45
0.00000001
 46
10.0
 73
     0
 77
     1
 78
     8
 79
     2
140
3.5
143
0.03937
146
0.7142857313156128
147
0.762
171
     3
172
     1
176
   256
177
   256
178
   256
271
     2
272
     2
274
     3
278
    44
340
CD
371
    -1
372
    -1
  0
ENDTAB
  0
TABLE
  2
BLOCK_RECORD
  5
1
330
0
100
AcDbSymbolTable
 70
    18
  0
BLOCK_RECORD
  5
6C
102
{ACAD_XDICTIONARY
360
9DA
102
}
330
1
100
AcDbSymbolTableRecord
100
AcDbBlockTableRecord
  2
*Model_Space
340
6F
  0
BLOCK_RECORD
  5
68
330
1
100
AcDbSymbolTableRecord
100
AcDbBlockTableRecord
  2
*Paper_Space
340
6B
  0
BLOCK_RECORD
  5
70
330
1
100
AcDbSymbolTableRecord
100
AcDbBlockTableRecord
  2
*Paper_Space0
340
73
  0
BLOCK_RECORD
  5
22F
330
1
100
AcDbSymbolTableRecord
100
AcDbBlockTableRecord
  2
*D1
340
0
  0
BLOCK_RECORD
  5
311
330
1
100
AcDbSymbolTableRecord
100
AcDbBlockTableRecord
  2
*D2
340
0
  0
BLOCK_RECORD
  5
3F9
330
1
100
AcDbSymbolTableRecord
100
AcDbBlockTableRecord
  2
*D3
340
0
  0
BLOCK_RECORD
  5
4E0
330
1
100
AcDbSymbolTableRecord
100
AcDbBlockTableRecord
  2
*D4
340
0
  0
BLOCK_RECORD
  5
5E3
330
1
100
AcDbSymbolTableRecord
100
AcDbBlockTableRecord
  2
*D5
340
0
  0
BLOCK_RECORD
  5
6CA
330
1
100
AcDbSymbolTableRecord
100
AcDbBlockTableRecord
  2
*D6
340
0
  0
BLOCK_RECORD
  5
7B2
330
1
100
AcDbSymbolTableRecord
100
AcDbBlockTableRecord
  2
*D7
340
0
  0
BLOCK_RECORD
  5
893
330
1
100
AcDbSymbolTableRecord
100
AcDbBlockTableRecord
  2
Tabelki rysunkowe Rzut
340
0
102
{BLKREFS
331
89E
102
}
  0
BLOCK_RECORD
  5
90F
102
{ACAD_XDICTIONARY
360
A2A
102
}
330
1
100
AcDbSymbolTableRecord
100
AcDbBlockTableRecord
  2
3200_Stol-do-tenisa-stolowego
340
0
310
2800000020000000200000000100080000000000000400000000000000000000000000000000000000000000000080000080000000808000800000008000800080800000C0C0C000C0DCC000F0CAA6000020400000206000002080000020A0000020C0000020E00000400000004020000040400000406000004080000040A0
310
000040C0000040E00000600000006020000060400000606000006080000060A0000060C0000060E00000800000008020000080400000806000008080000080A0000080C0000080E00000A0000000A0200000A0400000A0600000A0800000A0A00000A0C00000A0E00000C0000000C0200000C0400000C0600000C0800000C0
310
A00000C0C00000C0E00000E0000000E0200000E0400000E0600000E0800000E0A00000E0C00000E0E00040000000400020004000400040006000400080004000A0004000C0004000E00040200000402020004020400040206000402080004020A0004020C0004020E000404000004040200040404000404060004040800040
310
40A0004040C0004040E00040600000406020004060400040606000406080004060A0004060C0004060E00040800000408020004080400040806000408080004080A0004080C0004080E00040A0000040A0200040A0400040A0600040A0800040A0A00040A0C00040A0E00040C0000040C0200040C0400040C0600040C08000
310
40C0A00040C0C00040C0E00040E0000040E0200040E0400040E0600040E0800040E0A00040E0C00040E0E00080000000800020008000400080006000800080008000A0008000C0008000E00080200000802020008020400080206000802080008020A0008020C0008020E00080400000804020008040400080406000804080
310
008040A0008040C0008040E00080600000806020008060400080606000806080008060A0008060C0008060E00080800000808020008080400080806000808080008080A0008080C0008080E00080A0000080A0200080A0400080A0600080A0800080A0A00080A0C00080A0E00080C0000080C0200080C0400080C0600080C0
310
800080C0A00080C0C00080C0E00080E0000080E0200080E0400080E0600080E0800080E0A00080E0C00080E0E000C0000000C0002000C0004000C0006000C0008000C000A000C000C000C000E000C0200000C0202000C0204000C0206000C0208000C020A000C020C000C020E000C0400000C0402000C0404000C0406000C0
310
408000C040A000C040C000C040E000C0600000C0602000C0604000C0606000C0608000C060A000C060C000C060E000C0800000C0802000C0804000C0806000C0808000C080A000C080C000C080E000C0A00000C0A02000C0A04000C0A06000C0A08000C0A0A000C0A0C000C0A0E000C0C00000C0C02000C0C04000C0C06000
310
C0C08000C0C0A000F0FBFF00A4A0A000808080000000FF0000FF000000FFFF00FF000000FF00FF00FFFF0000FFFFFF0049494949494949494949494949494949494949494949494949494949494949494949494949494949494949494949494949494949494949494949494949494949494949494949494949494949494949
310
49494949494949494949494949494949494949494949494949494949494949494949494949494949494949494949494949494949494949494949494949494949494949494949494949494949494949494949494949494949494949494949494949494949494949494949494949494949494949494949494949494949494949
310
49494949494949494949494949494949494949FFFFFFFFFFFFFFFFFFFFFFFFFFFFFFFFFFFFFFFFFFFFFFFFFFFFFFFFFFFF4949FF49494949494949494949494949494949494949494949494949494949FF4949FF49494949494949494949494949494949494949494949494949494949FF4949FF4949494949494949494949
310
4949494949494949494949494949494949FF4949FF494949494949494949EAEAEAEAEAEAEAEAEAEA494949494949494949FF4949FF494949494949494949EA4949EAEAEAEA4949EA494949494949494949FF4949FF494949494949494949FFFFFFFFFFFFFFFFFFFFEAEA49494949494949FF4949FF494949494949494949FF
310
494949FFFF494949FFEAEA49494949494949FF4949FF494949494949494949FFFFFFFFFFFFFFFFFFFFEAEA49494949494949FF4949FF494949494949494949FFFFFFFFFFFFFFFFFFFFEAEA49494949494949FF4949FF494949494949494949FF494949FFFF494949FFEAEA49494949494949FF4949FF494949494949494949
310
FFFFFFFFFFFFFFFFFFFFEAEA49494949494949FF4949FF49494949494949494949494949494949494949494949494949494949FF4949FF49494949494949494949494949494949494949494949494949494949FF4949FF49494949494949494949494949494949494949494949494949494949FF4949FF4949494949494949
310
4949494949494949494949494949494949494949FF4949FF49494949494949494949494949494949494949494949494949494949FF4949FFFFFFFFFFFFFFFFFFFFFFFFFFFFFFFFFFFFFFFFFFFFFFFFFFFFFFFFFFFF494949494949494949494949494949494949494949494949494949494949494949494949494949494949
310
49494949494949494949494949494949494949494949494949494949494949494949494949494949494949494949494949494949494949494949494949494949494949494949494949494949494949494949494949494949494949494949494949494949494949494949494949494949494949494949494949494949494949
310
4949494949494949494949494949494949494949494949494949494949494949494949494949494949494949494949494949494949494949
102
{BLKREFS
331
932
331
99D
102
}
1001
AcDbDynamicBlockGUID
1000
{45610A6F-BD0D-47A9-B0E7-0C7CE082597C}
1001
ACAD
1000
DesignCenter Data
1002
{
1070
     1
1070
     4
1002
}
  0
BLOCK_RECORD
  5
984
330
1
100
AcDbSymbolTableRecord
100
AcDbBlockTableRecord
  2
*D10
340
0
  0
BLOCK_RECORD
  5
990
330
1
100
AcDbSymbolTableRecord
100
AcDbBlockTableRecord
  2
*D11
340
0
  0
BLOCK_RECORD
  5
9C2
330
1
100
AcDbSymbolTableRecord
100
AcDbBlockTableRecord
  2
*D13
340
0
  0
BLOCK_RECORD
  5
9CE
330
1
100
AcDbSymbolTableRecord
100
AcDbBlockTableRecord
  2
*D14
340
0
  0
BLOCK_RECORD
  5
A11
330
1
100
AcDbSymbolTableRecord
100
AcDbBlockTableRecord
  2
*D16
340
0
  0
BLOCK_RECORD
  5
A1D
330
1
100
AcDbSymbolTableRecord
100
AcDbBlockTableRecord
  2
*D17
340
0
  0
ENDTAB
  0
ENDSEC
  0
SECTION
  2
BLOCKS
  0
BLOCK
  5
6D
330
6C
100
AcDbEntity
  8
0
100
AcDbBlockBegin
  2
*Model_Space
 70
     0
 10
0.0
 20
0.0
 30
0.0
  3
*Model_Space
  1

  0
ENDBLK
  5
6E
330
6C
100
AcDbEntity
  8
0
100
AcDbBlockEnd
  0
BLOCK
  5
69
330
68
100
AcDbEntity
 67
     1
  8
0
100
AcDbBlockBegin
  2
*Paper_Space
 70
     0
 10
0.0
 20
0.0
 30
0.0
  3
*Paper_Space
  1

  0
ENDBLK
  5
6A
330
68
100
AcDbEntity
 67
     1
  8
0
100
AcDbBlockEnd
  0
BLOCK
  5
71
330
70
100
AcDbEntity
 67
     1
  8
0
100
AcDbBlockBegin
  2
*Paper_Space0
 70
     0
 10
0.0
 20
0.0
 30
0.0
  3
*Paper_Space0
  1

  0
ENDBLK
  5
72
330
70
100
AcDbEntity
 67
     1
  8
0
100
AcDbBlockEnd
  0
BLOCK
  5
230
330
22F
100
AcDbEntity
  8
0
100
AcDbBlockBegin
  2
*D1
 70
     1
 10
0.0
 20
0.0
 30
0.0
  3
*D1
  1

  0
LINE
  5
307
330
22F
100
AcDbEntity
  8
Dimension (ISO)
100
AcDbLine
 10
23098.31775062408
 20
3617.927977305143
 30
0.0
 11
23098.31775062408
 21
3022.711043652867
 31
0.0
  0
LINE
  5
308
330
22F
100
AcDbEntity
  8
Dimension (ISO)
100
AcDbLine
 10
25838.31775062408
 20
3617.927977305142
 30
0.0
 11
25838.31775062408
 21
3022.711043652867
 31
0.0
  0
LINE
  5
309
330
22F
100
AcDbEntity
  8
Dimension (ISO)
100
AcDbLine
 10
23273.31775062408
 20
3092.711043652867
 30
0.0
 11
25663.31775062408
 21
3092.711043652867
 31
0.0
  0
SOLID
  5
30A
330
22F
100
AcDbEntity
  8
Dimension (ISO)
100
AcDbTrace
 10
23273.31775062408
 20
3121.877710319533
 30
0.0
 11
23273.31775062408
 21
3063.5443769862
 31
0.0
 12
23098.31775062408
 22
3092.711043652867
 32
0.0
 13
23098.31775062408
 23
3092.711043652867
 33
0.0
  0
SOLID
  5
30B
330
22F
100
AcDbEntity
  8
Dimension (ISO)
100
AcDbTrace
 10
25663.31775062408
 20
3121.877710319533
 30
0.0
 11
25663.31775062408
 21
3063.5443769862
 31
0.0
 12
25838.31775062408
 22
3092.711043652867
 32
0.0
 13
25838.31775062408
 23
3092.711043652867
 33
0.0
  0
MTEXT
  5
30C
330
22F
100
AcDbEntity
  8
Dimension (ISO)
100
AcDbMText
 10
24468.31775062408
 20
3401.252519505677
 30
0.0
 40
245.0
 41
0.0
 71
     2
 72
     1
  1
\A1;2740
  7
Label Text (ISO)
 73
     1
 44
1.0
1001
ACAD
1000
MTEXTBEGIN
1070
    73
1070
     1
1070
    44
1040
1.0
1070
    74
1070
     0
1000
MTEXTEND
  0
POINT
  5
30D
330
22F
100
AcDbEntity
  8
Defpoints
 62
     0
100
AcDbPoint
 10
23098.31775062408
 20
3652.927977305143
 30
0.0
  0
POINT
  5
30E
330
22F
100
AcDbEntity
  8
Defpoints
 62
     0
100
AcDbPoint
 10
25838.31775062408
 20
3652.927977305142
 30
0.0
  0
POINT
  5
30F
330
22F
100
AcDbEntity
  8
Defpoints
 62
     0
100
AcDbPoint
 10
25838.31775062408
 20
3092.711043652867
 30
0.0
  0
ENDBLK
  5
231
330
22F
100
AcDbEntity
  8
0
100
AcDbBlockEnd
  0
BLOCK
  5
312
330
311
100
AcDbEntity
  8
0
100
AcDbBlockBegin
  2
*D2
 70
     1
 10
0.0
 20
0.0
 30
0.0
  3
*D2
  1

  0
LINE
  5
3EF
330
311
100
AcDbEntity
  8
Dimension (ISO)
100
AcDbLine
 10
25863.31775062407
 20
3642.927977305142
 30
0.0
 11
26438.98496965771
 21
3642.927977305142
 31
0.0
  0
LINE
  5
3F0
330
311
100
AcDbEntity
  8
Dimension (ISO)
100
AcDbLine
 10
25863.31775062407
 20
5162.927977305141
 30
0.0
 11
26438.98496965771
 21
5162.927977305141
 31
0.0
  0
LINE
  5
3F1
330
311
100
AcDbEntity
  8
Dimension (ISO)
100
AcDbLine
 10
26368.98496965771
 20
3817.927977305142
 30
0.0
 11
26368.98496965771
 21
4987.927977305141
 31
0.0
  0
SOLID
  5
3F2
330
311
100
AcDbEntity
  8
Dimension (ISO)
100
AcDbTrace
 10
26339.81830299104
 20
3817.927977305142
 30
0.0
 11
26398.15163632438
 21
3817.927977305142
 31
0.0
 12
26368.98496965771
 22
3642.927977305142
 32
0.0
 13
26368.98496965771
 23
3642.927977305142
 33
0.0
  0
SOLID
  5
3F3
330
311
100
AcDbEntity
  8
Dimension (ISO)
100
AcDbTrace
 10
26339.81830299104
 20
4987.927977305141
 30
0.0
 11
26398.15163632438
 21
4987.927977305141
 31
0.0
 12
26368.98496965771
 22
5162.927977305141
 32
0.0
 13
26368.98496965771
 23
5162.927977305141
 33
0.0
  0
MTEXT
  5
3F4
330
311
100
AcDbEntity
  8
Dimension (ISO)
100
AcDbMText
 10
26060.4434938049
 20
4402.927977305142
 30
0.0
 40
245.0
 41
0.0
 71
     2
 72
     1
  1
\A1;1520
  7
Label Text (ISO)
 11
0.0000000000000001
 21
1.0
 31
0.0
 73
     1
 44
1.0
1001
ACAD
1000
MTEXTBEGIN
1070
    73
1070
     1
1070
    44
1040
1.0
1070
    74
1070
     0
1000
MTEXTEND
  0
POINT
  5
3F5
330
311
100
AcDbEntity
  8
Defpoints
 62
     0
100
AcDbPoint
 10
25828.31775062409
 20
3642.927977305142
 30
0.0
  0
POINT
  5
3F6
330
311
100
AcDbEntity
  8
Defpoints
 62
     0
100
AcDbPoint
 10
25828.31775062409
 20
5162.927977305141
 30
0.0
  0
POINT
  5
3F7
330
311
100
AcDbEntity
  8
Defpoints
 62
     0
100
AcDbPoint
 10
26368.98496965771
 20
5162.927977305141
 30
0.0
  0
ENDBLK
  5
313
330
311
100
AcDbEntity
  8
0
100
AcDbBlockEnd
  0
BLOCK
  5
3FA
330
3F9
100
AcDbEntity
  8
0
100
AcDbBlockBegin
  2
*D3
 70
     1
 10
0.0
 20
0.0
 30
0.0
  3
*D3
  1

  0
LINE
  5
4D7
330
3F9
100
AcDbEntity
  8
Dimension (ISO)
100
AcDbLine
 10
23073.31775062574
 20
9067.691213039669
 30
0.0
 11
22602.51747551598
 21
9067.691213039669
 31
0.0
  0
LINE
  5
4D8
330
3F9
100
AcDbEntity
  8
Dimension (ISO)
100
AcDbLine
 10
22672.51747551598
 20
8892.691213039665
 30
0.0
 11
22672.51747551598
 21
8485.191213039668
 31
0.0
  0
SOLID
  5
4D9
330
3F9
100
AcDbEntity
  8
Dimension (ISO)
100
AcDbTrace
 10
22643.35080884931
 20
8892.691213039665
 30
0.0
 11
22701.68414218265
 21
8892.691213039665
 31
0.0
 12
22672.51747551598
 22
9067.691213039669
 32
0.0
 13
22672.51747551598
 23
9067.691213039669
 33
0.0
  0
SOLID
  5
4DA
330
3F9
100
AcDbEntity
  8
Dimension (ISO)
100
AcDbTrace
 10
22643.35080884931
 20
8485.191213039668
 30
0.0
 11
22701.68414218265
 21
8485.191213039668
 31
0.0
 12
22672.51747551598
 22
8310.191213039667
 32
0.0
 13
22672.51747551598
 23
8310.191213039667
 33
0.0
  0
MTEXT
  5
4DB
330
3F9
100
AcDbEntity
  8
Dimension (ISO)
100
AcDbMText
 10
22362.98875991132
 20
8688.941213039671
 30
0.0
 40
245.0
 41
0.0
 71
     2
 72
     1
  1
\A1;758
  7
Label Text (ISO)
 11
0.0000000000000001
 21
1.0
 31
0.0
 73
     1
 44
1.0
1001
ACAD
1000
MTEXTBEGIN
1070
    73
1070
     1
1070
    44
1040
1.0
1070
    74
1070
     0
1000
MTEXTEND
  0
POINT
  5
4DC
330
3F9
100
AcDbEntity
  8
Defpoints
 62
     0
100
AcDbPoint
 10
23108.31775062574
 20
9067.691213039669
 30
0.0
  0
POINT
  5
4DD
330
3F9
100
AcDbEntity
  8
Defpoints
 62
     0
100
AcDbPoint
 10
22672.51747551598
 20
8310.191213039667
 30
0.0
  0
POINT
  5
4DE
330
3F9
100
AcDbEntity
  8
Defpoints
 62
     0
100
AcDbPoint
 10
22672.51747551598
 20
8310.191213039667
 30
0.0
  0
ENDBLK
  5
3FB
330
3F9
100
AcDbEntity
  8
0
100
AcDbBlockEnd
  0
BLOCK
  5
4E1
330
4E0
100
AcDbEntity
  8
0
100
AcDbBlockBegin
  2
*D4
 70
     1
 10
0.0
 20
0.0
 30
0.0
  3
*D4
  1

  0
LINE
  5
5D8
330
4E0
100
AcDbEntity
  8
Dimension (ISO)
100
AcDbLine
 10
25318.31775062574
 20
7850.191213039669
 30
0.0
 11
26706.5781374276
 21
7850.191213039669
 31
0.0
  0
LINE
  5
5D9
330
4E0
100
AcDbEntity
  8
Dimension (ISO)
100
AcDbLine
 10
26636.5781374276
 20
7675.191213039669
 30
0.0
 11
26636.5781374276
 21
7500.191213039669
 31
0.0
  0
LINE
  5
5DA
330
4E0
100
AcDbEntity
  8
Dimension (ISO)
100
AcDbLine
 10
26636.5781374276
 20
8485.191213039671
 30
0.0
 11
26636.5781374276
 21
9298.499819410031
 31
0.0
  0
LINE
  5
5DB
330
4E0
100
AcDbEntity
  8
Dimension (ISO)
100
AcDbLine
 10
26636.5781374276
 20
7850.191213039669
 30
0.0
 11
26636.5781374276
 21
8310.19121303967
 31
0.0
  0
SOLID
  5
5DC
330
4E0
100
AcDbEntity
  8
Dimension (ISO)
100
AcDbTrace
 10
26607.41147076092
 20
7675.191213039669
 30
0.0
 11
26665.74480409426
 21
7675.191213039669
 31
0.0
 12
26636.5781374276
 22
7850.191213039669
 32
0.0
 13
26636.5781374276
 23
7850.191213039669
 33
0.0
  0
SOLID
  5
5DD
330
4E0
100
AcDbEntity
  8
Dimension (ISO)
100
AcDbTrace
 10
26607.41147076092
 20
8485.191213039671
 30
0.0
 11
26665.74480409426
 21
8485.191213039671
 31
0.0
 12
26636.5781374276
 22
8310.19121303967
 32
0.0
 13
26636.5781374276
 23
8310.19121303967
 33
0.0
  0
MTEXT
  5
5DE
330
4E0
100
AcDbEntity
  8
Dimension (ISO)
100
AcDbMText
 10
26328.20120153342
 20
8979.345516224853
 30
0.0
 40
245.0
 41
0.0
 71
     2
 72
     1
  1
\A1;460
  7
Label Text (ISO)
 11
0.0000000000000001
 21
1.0
 31
0.0
 73
     1
 44
1.0
1001
ACAD
1000
MTEXTBEGIN
1070
    73
1070
     1
1070
    44
1040
1.0
1070
    74
1070
     0
1000
MTEXTEND
  0
POINT
  5
5DF
330
4E0
100
AcDbEntity
  8
Defpoints
 62
     0
100
AcDbPoint
 10
26171.24293627508
 20
8310.19121303967
 30
0.0
  0
POINT
  5
5E0
330
4E0
100
AcDbEntity
  8
Defpoints
 62
     0
100
AcDbPoint
 10
25283.31775062574
 20
7850.191213039669
 30
0.0
  0
POINT
  5
5E1
330
4E0
100
AcDbEntity
  8
Defpoints
 62
     0
100
AcDbPoint
 10
26636.5781374276
 20
7850.191213039669
 30
0.0
  0
ENDBLK
  5
4E2
330
4E0
100
AcDbEntity
  8
0
100
AcDbBlockEnd
  0
BLOCK
  5
5E4
330
5E3
100
AcDbEntity
  8
0
100
AcDbBlockBegin
  2
*D5
 70
     1
 10
0.0
 20
0.0
 30
0.0
  3
*D5
  1

  0
LINE
  5
6C1
330
5E3
100
AcDbEntity
  8
Dimension (ISO)
100
AcDbLine
 10
24430.81775062574
 20
9209.691213039668
 30
0.0
 11
22060.55222146332
 21
9209.691213039668
 31
0.0
  0
LINE
  5
6C2
330
5E3
100
AcDbEntity
  8
Dimension (ISO)
100
AcDbLine
 10
22130.55222146333
 20
8485.191213039666
 30
0.0
 11
22130.55222146333
 21
9034.691213039669
 31
0.0
  0
SOLID
  5
6C3
330
5E3
100
AcDbEntity
  8
Dimension (ISO)
100
AcDbTrace
 10
22101.38555479665
 20
8485.191213039666
 30
0.0
 11
22159.71888812999
 21
8485.191213039666
 31
0.0
 12
22130.55222146333
 22
8310.191213039665
 32
0.0
 13
22130.55222146333
 23
8310.191213039665
 33
0.0
  0
SOLID
  5
6C4
330
5E3
100
AcDbEntity
  8
Dimension (ISO)
100
AcDbTrace
 10
22101.38555479665
 20
9034.691213039669
 30
0.0
 11
22159.71888812999
 21
9034.691213039669
 31
0.0
 12
22130.55222146333
 22
9209.691213039668
 32
0.0
 13
22130.55222146333
 23
9209.691213039668
 33
0.0
  0
MTEXT
  5
6C5
330
5E3
100
AcDbEntity
  8
Dimension (ISO)
100
AcDbMText
 10
21822.17528556915
 20
8759.94121303967
 30
0.0
 40
245.0
 41
0.0
 71
     2
 72
     1
  1
\A1;900
  7
Label Text (ISO)
 11
0.0000000000000001
 21
1.0
 31
0.0
 73
     1
 44
1.0
1001
ACAD
1000
MTEXTBEGIN
1070
    73
1070
     1
1070
    44
1040
1.0
1070
    74
1070
     0
1000
MTEXTEND
  0
POINT
  5
6C6
330
5E3
100
AcDbEntity
  8
Defpoints
 62
     0
100
AcDbPoint
 10
22130.55222146332
 20
8310.191213039665
 30
0.0
  0
POINT
  5
6C7
330
5E3
100
AcDbEntity
  8
Defpoints
 62
     0
100
AcDbPoint
 10
24465.81775062574
 20
9209.691213039668
 30
0.0
  0
POINT
  5
6C8
330
5E3
100
AcDbEntity
  8
Defpoints
 62
     0
100
AcDbPoint
 10
22130.55222146333
 20
9209.691213039668
 30
0.0
  0
ENDBLK
  5
5E5
330
5E3
100
AcDbEntity
  8
0
100
AcDbBlockEnd
  0
BLOCK
  5
6CB
330
6CA
100
AcDbEntity
  8
0
100
AcDbBlockBegin
  2
*D6
 70
     1
 10
0.0
 20
0.0
 30
0.0
  3
*D6
  1

  0
LINE
  5
7A8
330
6CA
100
AcDbEntity
  8
Dimension (ISO)
100
AcDbLine
 10
20063.31775062407
 20
7162.927977304921
 30
0.0
 11
19528.31775062408
 21
7162.927977304921
 31
0.0
  0
LINE
  5
7A9
330
6CA
100
AcDbEntity
  8
Dimension (ISO)
100
AcDbLine
 10
20063.31775062407
 20
1642.927977304918
 30
0.0
 11
19528.31775062408
 21
1642.927977304918
 31
0.0
  0
LINE
  5
7AA
330
6CA
100
AcDbEntity
  8
Dimension (ISO)
100
AcDbLine
 10
19598.31775062408
 20
6987.92797730492
 30
0.0
 11
19598.31775062408
 21
1817.927977304918
 31
0.0
  0
SOLID
  5
7AB
330
6CA
100
AcDbEntity
  8
Dimension (ISO)
100
AcDbTrace
 10
19569.15108395741
 20
6987.92797730492
 30
0.0
 11
19627.48441729075
 21
6987.92797730492
 31
0.0
 12
19598.31775062408
 22
7162.927977304921
 32
0.0
 13
19598.31775062408
 23
7162.927977304921
 33
0.0
  0
SOLID
  5
7AC
330
6CA
100
AcDbEntity
  8
Dimension (ISO)
100
AcDbTrace
 10
19569.15108395741
 20
1817.927977304918
 30
0.0
 11
19627.48441729075
 21
1817.927977304918
 31
0.0
 12
19598.31775062408
 22
1642.927977304918
 32
0.0
 13
19598.31775062408
 23
1642.927977304918
 33
0.0
  0
MTEXT
  5
7AD
330
6CA
100
AcDbEntity
  8
Dimension (ISO)
100
AcDbMText
 10
19289.77627477127
 20
4402.927977304917
 30
0.0
 40
245.0
 41
0.0
 71
     2
 72
     1
  1
\A1;5520
  7
Label Text (ISO)
 11
0.0000000000000001
 21
1.0
 31
0.0
 73
     1
 44
1.0
1001
ACAD
1000
MTEXTBEGIN
1070
    73
1070
     1
1070
    44
1040
1.0
1070
    74
1070
     0
1000
MTEXTEND
  0
POINT
  5
7AE
330
6CA
100
AcDbEntity
  8
Defpoints
 62
     0
100
AcDbPoint
 10
20098.31775062408
 20
7162.927977304921
 30
0.0
  0
POINT
  5
7AF
330
6CA
100
AcDbEntity
  8
Defpoints
 62
     0
100
AcDbPoint
 10
20098.31775062408
 20
1642.927977304918
 30
0.0
  0
POINT
  5
7B0
330
6CA
100
AcDbEntity
  8
Defpoints
 62
     0
100
AcDbPoint
 10
19598.31775062408
 20
1642.927977304918
 30
0.0
  0
ENDBLK
  5
6CC
330
6CA
100
AcDbEntity
  8
0
100
AcDbBlockEnd
  0
BLOCK
  5
7B3
330
7B2
100
AcDbEntity
  8
0
100
AcDbBlockBegin
  2
*D7
 70
     1
 10
0.0
 20
0.0
 30
0.0
  3
*D7
  1

  0
LINE
  5
88A
330
7B2
100
AcDbEntity
  8
Dimension (ISO)
100
AcDbLine
 10
20098.31775062408
 20
1607.927977304918
 30
0.0
 11
20098.31775062408
 21
1072.92797730492
 31
0.0
  0
LINE
  5
88B
330
7B2
100
AcDbEntity
  8
Dimension (ISO)
100
AcDbLine
 10
28838.31775062408
 20
1607.927977304919
 30
0.0
 11
28838.31775062408
 21
1072.92797730492
 31
0.0
  0
LINE
  5
88C
330
7B2
100
AcDbEntity
  8
Dimension (ISO)
100
AcDbLine
 10
20273.31775062408
 20
1142.927977304919
 30
0.0
 11
28663.31775062408
 21
1142.927977304919
 31
0.0
  0
SOLID
  5
88D
330
7B2
100
AcDbEntity
  8
Dimension (ISO)
100
AcDbTrace
 10
20273.31775062408
 20
1172.094643971586
 30
0.0
 11
20273.31775062408
 21
1113.761310638253
 31
0.0
 12
20098.31775062408
 22
1142.927977304919
 32
0.0
 13
20098.31775062408
 23
1142.927977304919
 33
0.0
  0
SOLID
  5
88E
330
7B2
100
AcDbEntity
  8
Dimension (ISO)
100
AcDbTrace
 10
28663.31775062408
 20
1172.094643971586
 30
0.0
 11
28663.31775062408
 21
1113.761310638253
 31
0.0
 12
28838.31775062408
 22
1142.927977304919
 32
0.0
 13
28838.31775062408
 23
1142.927977304919
 33
0.0
  0
MTEXT
  5
88F
330
7B2
100
AcDbEntity
  8
Dimension (ISO)
100
AcDbMText
 10
24468.31775062408
 20
1452.456692909577
 30
0.0
 40
245.0
 41
0.0
 71
     2
 72
     1
  1
\A1;8740
  7
Label Text (ISO)
 73
     1
 44
1.0
1001
ACAD
1000
MTEXTBEGIN
1070
    73
1070
     1
1070
    44
1040
1.0
1070
    74
1070
     0
1000
MTEXTEND
  0
POINT
  5
890
330
7B2
100
AcDbEntity
  8
Defpoints
 62
     0
100
AcDbPoint
 10
20098.31775062408
 20
1642.927977304918
 30
0.0
  0
POINT
  5
891
330
7B2
100
AcDbEntity
  8
Defpoints
 62
     0
100
AcDbPoint
 10
28838.31775062408
 20
1642.927977304919
 30
0.0
  0
POINT
  5
892
330
7B2
100
AcDbEntity
  8
Defpoints
 62
     0
100
AcDbPoint
 10
28838.31775062408
 20
1142.927977304919
 30
0.0
  0
ENDBLK
  5
7B4
330
7B2
100
AcDbEntity
  8
0
100
AcDbBlockEnd
  0
BLOCK
  5
894
330
893
100
AcDbEntity
  8
0
100
AcDbBlockBegin
  2
Tabelki rysunkowe Rzut
 70
     2
 10
0.0
 20
0.0
 30
0.0
  3
Tabelki rysunkowe Rzut
  1

  0
TEXT
  5
896
330
893
100
AcDbEntity
  8
Title (ISO)
100
AcDbText
 10
166.7768162971836
 20
11.24130542460445
 30
0.0
 40
2.5
  1
Obowiązuje od:
  7
Note Text (ISO)
 11
166.7768162971836
 21
13.74130542460445
 31
0.0
100
AcDbText
 73
     3
  0
TEXT
  5
898
330
893
100
AcDbEntity
  8
Title (ISO)
100
AcDbText
 10
166.7768162971836
 20
18.24130542460446
 30
0.0
 40
2.5
  1
Nr kat.:
  7
Note Text (ISO)
 11
166.7768162971836
 21
20.74130542460446
 31
0.0
100
AcDbText
 73
     3
  0
TEXT
  5
899
330
893
100
AcDbEntity
  8
Title (ISO)
100
AcDbText
 10
166.7768162971836
 20
14.74130542460445
 30
0.0
 40
2.5
  1
Nazwa:
  7
Note Text (ISO)
 11
166.7768162971836
 21
17.24130542460445
 31
0.0
100
AcDbText
 73
     3
  0
ATTDEF
  5
89A
102
{ACAD_XDICTIONARY
360
8A5
102
}
330
893
100
AcDbEntity
  8
Title (ISO)
100
AcDbText
 10
178.4510943371881
 20
18.13720873189256
 30
0.0
 40
2.5
  1
3200
  7
Note Text (ISO)
100
AcDbAttributeDefinition
  3
Numer katalogowy
  2
Numer_katalogowy_001
 70
     0
  0
ATTDEF
  5
89C
102
{ACAD_XDICTIONARY
360
8A8
102
}
330
893
100
AcDbEntity
  8
Title (ISO)
100
AcDbText
 10
190.4107988369824
 20
11.13720873189255
 30
0.0
 40
2.5
  1
2021-01-22
  7
Note Text (ISO)
100
AcDbAttributeDefinition
  3
DATA UTWORZENIA
  2
DATA_UTWORZENIA_001
 70
     0
  0
ATTDEF
  5
89D
102
{ACAD_XDICTIONARY
360
8AB
102
}
330
893
100
AcDbEntity
  8
Title (ISO)
100
AcDbText
 10
178.5182535041975
 20
14.11336722921949
 30
0.0
 40
2.5
  1
Stół do tenisa stołowego do wkopania
  7
Note Text (ISO)
100
AcDbAttributeDefinition
  3
Nazwa
  2
Nazwa_001
 70
     0
  0
ENDBLK
  5
895
330
893
100
AcDbEntity
  8
0
100
AcDbBlockEnd
  0
BLOCK
  5
910
330
90F
100
AcDbEntity
  8
0
100
AcDbBlockBegin
  2
3200_Stol-do-tenisa-stolowego
 70
     0
 10
0.0
 20
0.0
 30
0.0
  3
3200_Stol-do-tenisa-stolowego
  1

  0
LINE
  5
9F1
330
90F
100
AcDbEntity
  8
Visible (ISO)
100
AcDbLine
 10
0.0
 20
-749.9999999999995
 30
0.0
 11
0.0
 21
-760.0000000000027
 31
0.0
  0
LINE
  5
9F2
330
90F
100
AcDbEntity
  8
Visible (ISO)
100
AcDbLine
 10
-5.0
 20
-760.0000000000027
 30
0.0
 11
-5.0
 21
-749.9999999999995
 31
0.0
  0
LINE
  5
9F3
330
90F
100
AcDbEntity
  8
Visible (ISO)
100
AcDbLine
 10
-5.0
 20
-760.0000000000027
 30
0.0
 11
0.0
 21
-760.0000000000027
 31
0.0
  0
LINE
  5
9F4
330
90F
100
AcDbEntity
  8
Visible (ISO)
100
AcDbLine
 10
-5.0
 20
750.0
 30
0.0
 11
-5.0
 21
759.9999999999964
 31
0.0
  0
LINE
  5
9F5
330
90F
100
AcDbEntity
  8
Visible (ISO)
100
AcDbLine
 10
0.0
 20
759.9999999999964
 30
0.0
 11
-5.0
 21
759.9999999999964
 31
0.0
  0
LINE
  5
9F6
330
90F
100
AcDbEntity
  8
Visible (ISO)
100
AcDbLine
 10
0.0
 20
759.9999999999964
 30
0.0
 11
0.0
 21
750.0
 31
0.0
  0
LINE
  5
9F7
330
90F
100
AcDbEntity
  8
Visible (ISO)
100
AcDbLine
 10
-5.0
 20
750.0
 30
0.0
 11
-5.0
 21
-750.0000000000003
 31
0.0
  0
LINE
  5
9F8
330
90F
100
AcDbEntity
  8
Visible (ISO)
100
AcDbLine
 10
0.0
 20
-750.0000000000003
 30
0.0
 11
0.0
 21
750.0
 31
0.0
  0
ARC
  5
9F9
330
90F
100
AcDbEntity
  8
Visible (ISO)
100
AcDbCircle
 10
1357.500000000003
 20
749.9999999999554
 30
0.0
 40
9.999999999999856
100
AcDbArc
 50
0.0
 51
90.0
  0
LINE
  5
9FA
330
90F
100
AcDbEntity
  8
Visible (ISO)
100
AcDbLine
 10
1357.500000000003
 20
759.9999999999554
 30
0.0
 11
0.0
 21
759.9999999999554
 31
0.0
  0
ARC
  5
9FB
330
90F
100
AcDbEntity
  8
Visible (ISO)
100
AcDbCircle
 10
1357.500000000003
 20
-750.000000000045
 30
0.0
 40
9.999999999999856
100
AcDbArc
 50
270.0
 51
0.0
  0
LINE
  5
9FC
330
90F
100
AcDbEntity
  8
Visible (ISO)
100
AcDbLine
 10
1367.5
 20
-750.000000000045
 30
0.0
 11
1367.5
 21
749.9999999999554
 31
0.0
  0
LINE
  5
9FD
330
90F
100
AcDbEntity
  8
Visible (ISO)
100
AcDbLine
 10
1357.500000000003
 20
3.499999999958162
 30
0.0
 11
1357.500000000003
 21
-3.500000000041836
 31
0.0
  0
LINE
  5
9FE
330
90F
100
AcDbEntity
  8
Visible (ISO)
100
AcDbLine
 10
0.0
 20
-760.0000000000449
 30
0.0
 11
1357.500000000003
 21
-760.0000000000449
 31
0.0
  0
LINE
  5
9FF
330
90F
100
AcDbEntity
  8
Visible (ISO)
100
AcDbLine
 10
1357.500000000003
 20
-3.500000000041836
 30
0.0
 11
7.5
 21
-3.500000000041836
 31
0.0
  0
LINE
  5
A00
330
90F
100
AcDbEntity
  8
Visible (ISO)
100
AcDbLine
 10
7.5
 20
-3.500000000041836
 30
0.0
 11
7.5
 21
3.499999999958162
 31
0.0
  0
LINE
  5
A01
330
90F
100
AcDbEntity
  8
Visible (ISO)
100
AcDbLine
 10
7.5
 20
3.499999999958162
 30
0.0
 11
1357.500000000003
 21
3.499999999958162
 31
0.0
  0
ARC
  5
A02
330
90F
100
AcDbEntity
  8
Visible (ISO)
100
AcDbCircle
 10
-1362.500000000004
 20
-750.0000000000459
 30
0.0
 40
9.999999999999856
100
AcDbArc
 50
180.0
 51
270.0
  0
LINE
  5
A03
330
90F
100
AcDbEntity
  8
Visible (ISO)
100
AcDbLine
 10
-1362.500000000004
 20
-760.0000000000449
 30
0.0
 11
-5.0
 21
-760.0000000000459
 31
0.0
  0
ARC
  5
A04
330
90F
100
AcDbEntity
  8
Visible (ISO)
100
AcDbCircle
 10
-1362.500000000004
 20
749.9999999999545
 30
0.0
 40
9.999999999999856
100
AcDbArc
 50
90.0
 51
180.0
  0
LINE
  5
A05
330
90F
100
AcDbEntity
  8
Visible (ISO)
100
AcDbLine
 10
-1372.5
 20
749.9999999999545
 30
0.0
 11
-1372.5
 21
-750.0000000000459
 31
0.0
  0
LINE
  5
A06
330
90F
100
AcDbEntity
  8
Visible (ISO)
100
AcDbLine
 10
-1362.500000000004
 20
-3.500000000042746
 30
0.0
 11
-1362.500000000004
 21
3.499999999957252
 31
0.0
  0
LINE
  5
A07
330
90F
100
AcDbEntity
  8
Visible (ISO)
100
AcDbLine
 10
-5.0
 20
759.9999999999536
 30
0.0
 11
-1362.500000000004
 21
759.9999999999545
 31
0.0
  0
LINE
  5
A08
330
90F
100
AcDbEntity
  8
Visible (ISO)
100
AcDbLine
 10
-1362.500000000004
 20
3.499999999957252
 30
0.0
 11
-12.5
 21
3.499999999957252
 31
0.0
  0
LINE
  5
A09
330
90F
100
AcDbEntity
  8
Visible (ISO)
100
AcDbLine
 10
-12.5
 20
3.499999999957252
 30
0.0
 11
-12.5
 21
-3.500000000042746
 31
0.0
  0
LINE
  5
A0A
330
90F
100
AcDbEntity
  8
Visible (ISO)
100
AcDbLine
 10
-12.5
 20
-3.500000000042746
 30
0.0
 11
-1362.500000000004
 21
-3.500000000042746
 31
0.0
  0
LINE
  5
A0B
330
90F
100
AcDbEntity
  8
Visible (ISO)
100
AcDbLine
 10
-4372.500000000004
 20
-2760.00000000027
 30
0.0
 11
-4372.500000000004
 21
2759.999999999735
 31
0.0
  0
LINE
  5
A0C
330
90F
100
AcDbEntity
  8
Visible (ISO)
100
AcDbLine
 10
-4372.500000000004
 20
2759.999999999735
 30
0.0
 11
4367.499999999995
 21
2759.999999999733
 31
0.0
  0
LINE
  5
A0D
330
90F
100
AcDbEntity
  8
Visible (ISO)
100
AcDbLine
 10
4367.499999999995
 20
2759.999999999733
 30
0.0
 11
4367.5
 21
-2760.000000000267
 31
0.0
  0
LINE
  5
A0E
330
90F
100
AcDbEntity
  8
Visible (ISO)
100
AcDbLine
 10
4367.5
 20
-2760.000000000268
 30
0.0
 11
-4372.500000000004
 21
-2760.00000000027
 31
0.0
  0
ENDBLK
  5
911
330
90F
100
AcDbEntity
  8
0
100
AcDbBlockEnd
  0
BLOCK
  5
985
330
984
100
AcDbEntity
  8
0
100
AcDbBlockBegin
  2
*D10
 70
     1
 10
0.0
 20
0.0
 30
0.0
  3
*D10
  1

  0
LINE
  5
986
330
984
100
AcDbEntity
  8
Dimension (ISO)
100
AcDbLine
 10
23098.31775062408
 20
3617.927977305143
 30
0.0
 11
23098.31775062408
 21
3022.711043652867
 31
0.0
  0
LINE
  5
987
330
984
100
AcDbEntity
  8
Dimension (ISO)
100
AcDbLine
 10
25838.31775062408
 20
3617.927977305142
 30
0.0
 11
25838.31775062408
 21
3022.711043652867
 31
0.0
  0
LINE
  5
988
330
984
100
AcDbEntity
  8
Dimension (ISO)
100
AcDbLine
 10
23273.31775062408
 20
3092.711043652867
 30
0.0
 11
25663.31775062408
 21
3092.711043652867
 31
0.0
  0
SOLID
  5
989
330
984
100
AcDbEntity
  8
Dimension (ISO)
100
AcDbTrace
 10
23273.31775062408
 20
3121.877710319533
 30
0.0
 11
23273.31775062408
 21
3063.5443769862
 31
0.0
 12
23098.31775062408
 22
3092.711043652867
 32
0.0
 13
23098.31775062408
 23
3092.711043652867
 33
0.0
  0
SOLID
  5
98A
330
984
100
AcDbEntity
  8
Dimension (ISO)
100
AcDbTrace
 10
25663.31775062408
 20
3121.877710319533
 30
0.0
 11
25663.31775062408
 21
3063.5443769862
 31
0.0
 12
25838.31775062408
 22
3092.711043652867
 32
0.0
 13
25838.31775062408
 23
3092.711043652867
 33
0.0
  0
MTEXT
  5
98B
330
984
100
AcDbEntity
  8
Dimension (ISO)
100
AcDbMText
 10
24468.31775062408
 20
3401.252519505677
 30
0.0
 40
245.0
 41
0.0
 71
     2
 72
     1
  1
\A1;2740
  7
Label Text (ISO)
 73
     1
 44
1.0
1001
ACAD
1000
MTEXTBEGIN
1070
    73
1070
     1
1070
    44
1040
1.0
1070
    74
1070
     0
1000
MTEXTEND
  0
POINT
  5
98C
330
984
100
AcDbEntity
  8
Defpoints
 62
     0
100
AcDbPoint
 10
23098.31775062408
 20
3652.927977305143
 30
0.0
  0
POINT
  5
98D
330
984
100
AcDbEntity
  8
Defpoints
 62
     0
100
AcDbPoint
 10
25838.31775062408
 20
3652.927977305142
 30
0.0
  0
POINT
  5
98E
330
984
100
AcDbEntity
  8
Defpoints
 62
     0
100
AcDbPoint
 10
25838.31775062408
 20
3092.711043652867
 30
0.0
  0
ENDBLK
  5
98F
330
984
100
AcDbEntity
  8
0
100
AcDbBlockEnd
  0
BLOCK
  5
991
330
990
100
AcDbEntity
  8
0
100
AcDbBlockBegin
  2
*D11
 70
     1
 10
0.0
 20
0.0
 30
0.0
  3
*D11
  1

  0
LINE
  5
992
330
990
100
AcDbEntity
  8
Dimension (ISO)
100
AcDbLine
 10
25863.31775062407
 20
3642.927977305142
 30
0.0
 11
26438.98496965771
 21
3642.927977305142
 31
0.0
  0
LINE
  5
993
330
990
100
AcDbEntity
  8
Dimension (ISO)
100
AcDbLine
 10
25863.31775062407
 20
5162.927977305141
 30
0.0
 11
26438.98496965771
 21
5162.927977305141
 31
0.0
  0
LINE
  5
994
330
990
100
AcDbEntity
  8
Dimension (ISO)
100
AcDbLine
 10
26368.98496965771
 20
3817.927977305142
 30
0.0
 11
26368.98496965771
 21
4987.927977305141
 31
0.0
  0
SOLID
  5
995
330
990
100
AcDbEntity
  8
Dimension (ISO)
100
AcDbTrace
 10
26339.81830299104
 20
3817.927977305142
 30
0.0
 11
26398.15163632438
 21
3817.927977305142
 31
0.0
 12
26368.98496965771
 22
3642.927977305142
 32
0.0
 13
26368.98496965771
 23
3642.927977305142
 33
0.0
  0
SOLID
  5
996
330
990
100
AcDbEntity
  8
Dimension (ISO)
100
AcDbTrace
 10
26339.81830299104
 20
4987.927977305141
 30
0.0
 11
26398.15163632438
 21
4987.927977305141
 31
0.0
 12
26368.98496965771
 22
5162.927977305141
 32
0.0
 13
26368.98496965771
 23
5162.927977305141
 33
0.0
  0
MTEXT
  5
997
330
990
100
AcDbEntity
  8
Dimension (ISO)
100
AcDbMText
 10
26060.4434938049
 20
4402.927977305142
 30
0.0
 40
245.0
 41
0.0
 71
     2
 72
     1
  1
\A1;1520
  7
Label Text (ISO)
 11
0.0000000000000001
 21
1.0
 31
0.0
 73
     1
 44
1.0
1001
ACAD
1000
MTEXTBEGIN
1070
    73
1070
     1
1070
    44
1040
1.0
1070
    74
1070
     0
1000
MTEXTEND
  0
POINT
  5
998
330
990
100
AcDbEntity
  8
Defpoints
 62
     0
100
AcDbPoint
 10
25828.31775062409
 20
3642.927977305142
 30
0.0
  0
POINT
  5
999
330
990
100
AcDbEntity
  8
Defpoints
 62
     0
100
AcDbPoint
 10
25828.31775062409
 20
5162.927977305141
 30
0.0
  0
POINT
  5
99A
330
990
100
AcDbEntity
  8
Defpoints
 62
     0
100
AcDbPoint
 10
26368.98496965771
 20
5162.927977305141
 30
0.0
  0
ENDBLK
  5
99B
330
990
100
AcDbEntity
  8
0
100
AcDbBlockEnd
  0
BLOCK
  5
9C3
330
9C2
100
AcDbEntity
  8
0
100
AcDbBlockBegin
  2
*D13
 70
     1
 10
0.0
 20
0.0
 30
0.0
  3
*D13
  1

  0
LINE
  5
A42
330
9C2
100
AcDbEntity
  8
Dimension (ISO)
100
AcDbLine
 10
23098.31775062409
 20
3617.927977305143
 30
0.0
 11
23098.31775062409
 21
3022.711043652867
 31
0.0
  0
LINE
  5
A43
330
9C2
100
AcDbEntity
  8
Dimension (ISO)
100
AcDbLine
 10
25838.31775062409
 20
3617.927977305142
 30
0.0
 11
25838.31775062409
 21
3022.711043652867
 31
0.0
  0
LINE
  5
A44
330
9C2
100
AcDbEntity
  8
Dimension (ISO)
100
AcDbLine
 10
23273.31775062409
 20
3092.711043652867
 30
0.0
 11
25663.31775062409
 21
3092.711043652867
 31
0.0
  0
SOLID
  5
A45
330
9C2
100
AcDbEntity
  8
Dimension (ISO)
100
AcDbTrace
 10
23273.31775062409
 20
3121.877710319533
 30
0.0
 11
23273.31775062409
 21
3063.5443769862
 31
0.0
 12
23098.31775062409
 22
3092.711043652867
 32
0.0
 13
23098.31775062409
 23
3092.711043652867
 33
0.0
  0
SOLID
  5
A46
330
9C2
100
AcDbEntity
  8
Dimension (ISO)
100
AcDbTrace
 10
25663.31775062409
 20
3121.877710319533
 30
0.0
 11
25663.31775062409
 21
3063.5443769862
 31
0.0
 12
25838.31775062409
 22
3092.711043652867
 32
0.0
 13
25838.31775062409
 23
3092.711043652867
 33
0.0
  0
MTEXT
  5
A47
330
9C2
100
AcDbEntity
  8
Dimension (ISO)
100
AcDbMText
 10
24468.31775062409
 20
3401.252521154545
 30
0.0
 40
245.0
 41
0.0
 71
     2
 72
     1
  1
\A1;2740
  7
Label Text (ISO)
 73
     1
 44
1.0
1001
ACAD
1000
MTEXTBEGIN
1070
    73
1070
     1
1070
    44
1040
1.0
1070
    74
1070
     0
1000
MTEXTEND
  0
POINT
  5
A48
330
9C2
100
AcDbEntity
  8
Defpoints
 62
     0
100
AcDbPoint
 10
23098.31775062409
 20
3652.927977305143
 30
0.0
  0
POINT
  5
A49
330
9C2
100
AcDbEntity
  8
Defpoints
 62
     0
100
AcDbPoint
 10
25838.31775062409
 20
3652.927977305142
 30
0.0
  0
POINT
  5
A4A
330
9C2
100
AcDbEntity
  8
Defpoints
 62
     0
100
AcDbPoint
 10
25838.31775062409
 20
3092.711043652867
 30
0.0
  0
ENDBLK
  5
9C4
330
9C2
100
AcDbEntity
  8
0
100
AcDbBlockEnd
  0
BLOCK
  5
9CF
330
9CE
100
AcDbEntity
  8
0
100
AcDbBlockBegin
  2
*D14
 70
     1
 10
0.0
 20
0.0
 30
0.0
  3
*D14
  1

  0
LINE
  5
A4B
330
9CE
100
AcDbEntity
  8
Dimension (ISO)
100
AcDbLine
 10
25863.31775062408
 20
3642.927977305142
 30
0.0
 11
26438.98496965772
 21
3642.927977305142
 31
0.0
  0
LINE
  5
A4C
330
9CE
100
AcDbEntity
  8
Dimension (ISO)
100
AcDbLine
 10
25863.31775062408
 20
5162.927977305141
 30
0.0
 11
26438.98496965772
 21
5162.927977305141
 31
0.0
  0
LINE
  5
A4D
330
9CE
100
AcDbEntity
  8
Dimension (ISO)
100
AcDbLine
 10
26368.98496965772
 20
3817.927977305142
 30
0.0
 11
26368.98496965772
 21
4987.927977305141
 31
0.0
  0
SOLID
  5
A4E
330
9CE
100
AcDbEntity
  8
Dimension (ISO)
100
AcDbTrace
 10
26339.81830299105
 20
3817.927977305142
 30
0.0
 11
26398.15163632439
 21
3817.927977305142
 31
0.0
 12
26368.98496965772
 22
3642.927977305142
 32
0.0
 13
26368.98496965772
 23
3642.927977305142
 33
0.0
  0
SOLID
  5
A4F
330
9CE
100
AcDbEntity
  8
Dimension (ISO)
100
AcDbTrace
 10
26339.81830299105
 20
4987.927977305141
 30
0.0
 11
26398.15163632439
 21
4987.927977305141
 31
0.0
 12
26368.98496965772
 22
5162.927977305141
 32
0.0
 13
26368.98496965772
 23
5162.927977305141
 33
0.0
  0
MTEXT
  5
A50
330
9CE
100
AcDbEntity
  8
Dimension (ISO)
100
AcDbMText
 10
26060.44349215604
 20
4402.927977305142
 30
0.0
 40
245.0
 41
0.0
 71
     2
 72
     1
  1
\A1;1520
  7
Label Text (ISO)
 11
0.0000000000000001
 21
1.0
 31
0.0
 73
     1
 44
1.0
1001
ACAD
1000
MTEXTBEGIN
1070
    73
1070
     1
1070
    44
1040
1.0
1070
    74
1070
     0
1000
MTEXTEND
  0
POINT
  5
A51
330
9CE
100
AcDbEntity
  8
Defpoints
 62
     0
100
AcDbPoint
 10
25828.31775062408
 20
3642.927977305142
 30
0.0
  0
POINT
  5
A52
330
9CE
100
AcDbEntity
  8
Defpoints
 62
     0
100
AcDbPoint
 10
25828.31775062408
 20
5162.927977305141
 30
0.0
  0
POINT
  5
A53
330
9CE
100
AcDbEntity
  8
Defpoints
 62
     0
100
AcDbPoint
 10
26368.98496965772
 20
5162.927977305141
 30
0.0
  0
ENDBLK
  5
9D0
330
9CE
100
AcDbEntity
  8
0
100
AcDbBlockEnd
  0
BLOCK
  5
A12
330
A11
100
AcDbEntity
  8
0
100
AcDbBlockBegin
  2
*D16
 70
     1
 10
0.0
 20
0.0
 30
0.0
  3
*D16
  1

  0
LINE
  5
A2D
330
A11
100
AcDbEntity
  8
Dimension (ISO)
100
AcDbLine
 10
-1372.5
 20
-785.0000000000436
 30
0.0
 11
-1372.5
 21
-1380.21693365232
 31
0.0
  0
LINE
  5
A2E
330
A11
100
AcDbEntity
  8
Dimension (ISO)
100
AcDbLine
 10
1367.5
 20
-785.0000000000449
 30
0.0
 11
1367.5
 21
-1380.21693365232
 31
0.0
  0
LINE
  5
A2F
330
A11
100
AcDbEntity
  8
Dimension (ISO)
100
AcDbLine
 10
-1197.5
 20
-1310.21693365232
 30
0.0
 11
1192.5
 21
-1310.21693365232
 31
0.0
  0
SOLID
  5
A30
330
A11
100
AcDbEntity
  8
Dimension (ISO)
100
AcDbTrace
 10
-1197.5
 20
-1281.050266985653
 30
0.0
 11
-1197.5
 21
-1339.383600318987
 31
0.0
 12
-1372.5
 22
-1310.21693365232
 32
0.0
 13
-1372.5
 23
-1310.21693365232
 33
0.0
  0
SOLID
  5
A31
330
A11
100
AcDbEntity
  8
Dimension (ISO)
100
AcDbTrace
 10
1192.5
 20
-1281.050266985653
 30
0.0
 11
1192.5
 21
-1339.383600318987
 31
0.0
 12
1367.5
 22
-1310.21693365232
 32
0.0
 13
1367.5
 23
-1310.21693365232
 33
0.0
  0
MTEXT
  5
A32
330
A11
100
AcDbEntity
  8
Dimension (ISO)
100
AcDbMText
 10
-2.500000000003625
 20
-1001.675456150641
 30
0.0
 40
245.0
 41
0.0
 71
     2
 72
     1
  1
\A1;2740
  7
Label Text (ISO)
 73
     1
 44
1.0
1001
ACAD
1000
MTEXTBEGIN
1070
    73
1070
     1
1070
    44
1040
1.0
1070
    74
1070
     0
1000
MTEXTEND
  0
POINT
  5
A33
330
A11
100
AcDbEntity
  8
Defpoints
 62
     0
100
AcDbPoint
 10
-1372.5
 20
-750.0000000000436
 30
0.0
  0
POINT
  5
A34
330
A11
100
AcDbEntity
  8
Defpoints
 62
     0
100
AcDbPoint
 10
1367.5
 20
-750.000000000045
 30
0.0
  0
POINT
  5
A35
330
A11
100
AcDbEntity
  8
Defpoints
 62
     0
100
AcDbPoint
 10
1367.5
 20
-1310.21693365232
 30
0.0
  0
ENDBLK
  5
A13
330
A11
100
AcDbEntity
  8
0
100
AcDbBlockEnd
  0
BLOCK
  5
A1E
330
A1D
100
AcDbEntity
  8
0
100
AcDbBlockBegin
  2
*D17
 70
     1
 10
0.0
 20
0.0
 30
0.0
  3
*D17
  1

  0
LINE
  5
A36
330
A1D
100
AcDbEntity
  8
Dimension (ISO)
100
AcDbLine
 10
1392.499999999996
 20
-760.0000000000449
 30
0.0
 11
1968.167219033632
 21
-760.0000000000449
 31
0.0
  0
LINE
  5
A37
330
A1D
100
AcDbEntity
  8
Dimension (ISO)
100
AcDbLine
 10
1392.499999999996
 20
759.9999999999545
 30
0.0
 11
1968.167219033632
 21
759.9999999999544
 31
0.0
  0
LINE
  5
A38
330
A1D
100
AcDbEntity
  8
Dimension (ISO)
100
AcDbLine
 10
1898.167219033632
 20
-585.0000000000449
 30
0.0
 11
1898.167219033632
 21
584.9999999999544
 31
0.0
  0
SOLID
  5
A39
330
A1D
100
AcDbEntity
  8
Dimension (ISO)
100
AcDbTrace
 10
1869.000552366965
 20
-585.0000000000449
 30
0.0
 11
1927.333885700298
 21
-585.0000000000449
 31
0.0
 12
1898.167219033632
 22
-760.0000000000449
 32
0.0
 13
1898.167219033632
 23
-760.0000000000449
 33
0.0
  0
SOLID
  5
A3A
330
A1D
100
AcDbEntity
  8
Dimension (ISO)
100
AcDbTrace
 10
1869.000552366965
 20
584.9999999999544
 30
0.0
 11
1927.333885700299
 21
584.9999999999544
 31
0.0
 12
1898.167219033632
 22
759.9999999999544
 32
0.0
 13
1898.167219033632
 23
759.9999999999544
 33
0.0
  0
MTEXT
  5
A3B
330
A1D
100
AcDbEntity
  8
Dimension (ISO)
100
AcDbMText
 10
1589.625741531953
 20
-0.0000000000436335
 30
0.0
 40
245.0
 41
0.0
 71
     2
 72
     1
  1
\A1;1520
  7
Label Text (ISO)
 11
0.0000000000000001
 21
1.0
 31
0.0
 73
     1
 44
1.0
1001
ACAD
1000
MTEXTBEGIN
1070
    73
1070
     1
1070
    44
1040
1.0
1070
    74
1070
     0
1000
MTEXTEND
  0
POINT
  5
A3C
330
A1D
100
AcDbEntity
  8
Defpoints
 62
     0
100
AcDbPoint
 10
1357.499999999996
 20
-760.0000000000449
 30
0.0
  0
POINT
  5
A3D
330
A1D
100
AcDbEntity
  8
Defpoints
 62
     0
100
AcDbPoint
 10
1357.499999999996
 20
759.9999999999545
 30
0.0
  0
POINT
  5
A3E
330
A1D
100
AcDbEntity
  8
Defpoints
 62
     0
100
AcDbPoint
 10
1898.167219033632
 20
759.9999999999544
 30
0.0
  0
ENDBLK
  5
A1F
330
A1D
100
AcDbEntity
  8
0
100
AcDbBlockEnd
  0
ENDSEC
  0
SECTION
  2
ENTITIES
  0
LINE
  5
172
330
6C
100
AcDbEntity
  8
Visible (ISO)
100
AcDbLine
 10
24470.81775062574
 20
9209.691213039668
 30
0.0
 11
24470.81775062574
 21
9199.691213039669
 31
0.0
  0
LINE
  5
173
330
6C
100
AcDbEntity
  8
Visible (ISO)
100
AcDbLine
 10
24470.81775062574
 20
9209.691213039668
 30
0.0
 11
24465.81775062574
 21
9209.691213039668
 31
0.0
  0
LINE
  5
174
330
6C
100
AcDbEntity
  8
Visible (ISO)
100
AcDbLine
 10
24465.81775062574
 20
9199.691213039669
 30
0.0
 11
24465.81775062574
 21
9209.691213039668
 31
0.0
  0
LINE
  5
175
330
6C
100
AcDbEntity
  8
Visible (ISO)
100
AcDbLine
 10
24465.81775062574
 20
9089.691213039669
 30
0.0
 11
24465.81775062574
 21
9079.691213039669
 31
0.0
  0
LINE
  5
176
330
6C
100
AcDbEntity
  8
Visible (ISO)
100
AcDbLine
 10
24465.81775062574
 20
9089.691213039669
 30
0.0
 11
24465.81775062574
 21
9099.691213039669
 31
0.0
  0
LINE
  5
177
330
6C
100
AcDbEntity
  8
Visible (ISO)
100
AcDbLine
 10
24470.81775062574
 20
9099.691213039669
 30
0.0
 11
24470.81775062574
 21
9089.691213039669
 31
0.0
  0
LINE
  5
178
330
6C
100
AcDbEntity
  8
Visible (ISO)
100
AcDbLine
 10
24465.81775062574
 20
9089.691213039669
 30
0.0
 11
24470.81775062574
 21
9089.691213039669
 31
0.0
  0
LINE
  5
179
330
6C
100
AcDbEntity
  8
Visible (ISO)
100
AcDbLine
 10
24470.81775062574
 20
9079.691213039669
 30
0.0
 11
24470.81775062574
 21
9089.691213039669
 31
0.0
  0
LINE
  5
17A
330
6C
100
AcDbEntity
  8
Visible (ISO)
100
AcDbLine
 10
24465.81775062574
 20
9199.691213039669
 30
0.0
 11
24465.81775062574
 21
9099.691213039669
 31
0.0
  0
LINE
  5
17B
330
6C
100
AcDbEntity
  8
Visible (ISO)
100
AcDbLine
 10
24470.81775062574
 20
9099.691213039669
 30
0.0
 11
24470.81775062574
 21
9199.691213039669
 31
0.0
  0
LINE
  5
17C
330
6C
100
AcDbEntity
  8
Visible (ISO)
100
AcDbLine
 10
24465.81775062574
 20
9079.691213039669
 30
0.0
 11
24465.81775062574
 21
9067.691213039669
 31
0.0
  0
LINE
  5
17D
330
6C
100
AcDbEntity
  8
Visible (ISO)
100
AcDbLine
 10
24470.81775062574
 20
9067.691213039669
 30
0.0
 11
24470.81775062574
 21
9079.691213039669
 31
0.0
  0
ARC
  5
17E
330
6C
100
AcDbEntity
  8
Visible (ISO)
100
AcDbCircle
 10
25828.31775062574
 20
8997.691213039669
 30
0.0
 40
9.9999999999999
100
AcDbArc
 50
270.0
 51
0.0
  0
ARC
  5
17F
330
6C
100
AcDbEntity
  8
Visible (ISO)
100
AcDbCircle
 10
25828.31775062574
 20
9057.691213039669
 30
0.0
 40
9.999999999999852
100
AcDbArc
 50
0.0
 51
90.0
  0
LINE
  5
180
330
6C
100
AcDbEntity
  8
Visible (ISO)
100
AcDbLine
 10
25838.31775062574
 20
8997.691213039669
 30
0.0
 11
25838.31775062574
 21
9057.691213039669
 31
0.0
  0
LINE
  5
181
330
6C
100
AcDbEntity
  8
Visible (ISO)
100
AcDbLine
 10
24468.31775062574
 20
9057.691213039669
 30
0.0
 11
24468.31775062574
 21
9067.691213039669
 31
0.0
  0
LINE
  5
182
330
6C
100
AcDbEntity
  8
Visible (ISO)
100
AcDbLine
 10
25828.31775062574
 20
9067.691213039669
 30
0.0
 11
24468.31775062574
 21
9067.691213039669
 31
0.0
  0
LINE
  5
183
330
6C
100
AcDbEntity
  8
Visible (ISO)
100
AcDbLine
 10
24468.31775062574
 20
8987.691213039669
 30
0.0
 11
24468.31775062574
 21
8997.691213039669
 31
0.0
  0
LINE
  5
184
330
6C
100
AcDbEntity
  8
Visible (ISO)
100
AcDbLine
 10
24468.31775062574
 20
8987.691213039669
 30
0.0
 11
25828.31775062574
 21
8987.691213039669
 31
0.0
  0
LINE
  5
185
330
6C
100
AcDbEntity
  8
Visible (ISO)
100
AcDbLine
 10
24468.31775062574
 20
9057.691213039669
 30
0.0
 11
24468.31775062574
 21
8997.691213039669
 31
0.0
  0
ARC
  5
186
330
6C
100
AcDbEntity
  8
Visible (ISO)
100
AcDbCircle
 10
23108.31775062574
 20
8997.691213039667
 30
0.0
 40
9.999999999999852
100
AcDbArc
 50
180.0
 51
270.0
  0
ARC
  5
187
330
6C
100
AcDbEntity
  8
Visible (ISO)
100
AcDbCircle
 10
23108.31775062574
 20
9057.691213039666
 30
0.0
 40
9.9999999999999
100
AcDbArc
 50
90.0
 51
180.0
  0
LINE
  5
188
330
6C
100
AcDbEntity
  8
Visible (ISO)
100
AcDbLine
 10
23098.31775062574
 20
9057.691213039666
 30
0.0
 11
23098.31775062574
 21
8997.691213039667
 31
0.0
  0
LINE
  5
189
330
6C
100
AcDbEntity
  8
Visible (ISO)
100
AcDbLine
 10
24468.31775062574
 20
9067.691213039669
 30
0.0
 11
24468.31775062574
 21
9057.691213039666
 31
0.0
  0
LINE
  5
18A
330
6C
100
AcDbEntity
  8
Visible (ISO)
100
AcDbLine
 10
24468.31775062574
 20
9067.691213039669
 30
0.0
 11
23108.31775062574
 21
9067.691213039669
 31
0.0
  0
LINE
  5
18B
330
6C
100
AcDbEntity
  8
Visible (ISO)
100
AcDbLine
 10
24468.31775062574
 20
8997.691213039667
 30
0.0
 11
24468.31775062574
 21
8987.691213039667
 31
0.0
  0
LINE
  5
18C
330
6C
100
AcDbEntity
  8
Visible (ISO)
100
AcDbLine
 10
23108.31775062574
 20
8987.691213039667
 30
0.0
 11
24468.31775062574
 21
8987.691213039667
 31
0.0
  0
LINE
  5
18D
330
6C
100
AcDbEntity
  8
Visible (ISO)
100
AcDbLine
 10
24468.31775062574
 20
9057.691213039666
 30
0.0
 11
24468.31775062574
 21
8997.691213039667
 31
0.0
  0
ARC
  5
18E
330
6C
100
AcDbEntity
  8
Visible (ISO)
100
AcDbCircle
 10
25273.31775062574
 20
8922.691213039668
 30
0.0
 40
9.999999999999856
100
AcDbArc
 50
270.0
 51
0.0
  0
ARC
  5
18F
330
6C
100
AcDbEntity
  8
Visible (ISO)
100
AcDbCircle
 10
23663.31775062575
 20
8922.691213039668
 30
0.0
 40
9.999999999999902
100
AcDbArc
 50
180.0
 51
270.0
  0
LINE
  5
190
330
6C
100
AcDbEntity
  8
Visible (ISO)
100
AcDbLine
 10
25283.31775062574
 20
8922.691213039668
 30
0.0
 11
25283.31775062574
 21
8987.691213039669
 31
0.0
  0
LINE
  5
191
330
6C
100
AcDbEntity
  8
Visible (ISO)
100
AcDbLine
 10
23653.31775062575
 20
8987.691213039669
 30
0.0
 11
23653.31775062575
 21
8922.691213039668
 31
0.0
  0
LINE
  5
192
330
6C
100
AcDbEntity
  8
Visible (ISO)
100
AcDbLine
 10
23663.31775062575
 20
8912.69121303967
 30
0.0
 11
25273.31775062574
 21
8912.69121303967
 31
0.0
  0
LINE
  5
193
330
6C
100
AcDbEntity
  8
Visible (ISO)
100
AcDbLine
 10
23743.31775062574
 20
8832.691213039671
 30
0.0
 11
23733.31775062574
 21
8832.691213039671
 31
0.0
  0
LINE
  5
194
330
6C
100
AcDbEntity
  8
Visible (ISO)
100
AcDbLine
 10
23743.31775062574
 20
8832.691213039671
 30
0.0
 11
23754.5918908665
 21
8832.691213039671
 31
0.0
  0
ARC
  5
195
330
6C
100
AcDbEntity
  8
Visible (ISO)
100
AcDbCircle
 10
23754.5918908665
 20
8837.69121303967
 30
0.0
 40
4.999999999999997
100
AcDbArc
 50
270.0
 51
314.9918970754977
  0
LINE
  5
196
330
6C
100
AcDbEntity
  8
Visible (ISO)
100
AcDbLine
 10
23758.12692473229
 20
8834.155179164303
 30
0.0
 11
23778.19892473229
 21
8854.227179164302
 31
0.0
  0
ARC
  5
197
330
6C
100
AcDbEntity
  8
Visible (ISO)
100
AcDbCircle
 10
23774.66292473229
 20
8857.762179164303
 30
0.0
 40
4.999952099770428
100
AcDbArc
 50
315.0081029244769
 51
0.0
  0
LINE
  5
198
330
6C
100
AcDbEntity
  8
Visible (ISO)
100
AcDbLine
 10
23779.66287683205
 20
8857.762179164303
 30
0.0
 11
23779.66287683205
 21
8912.69121303967
 31
0.0
  0
LINE
  5
199
330
6C
100
AcDbEntity
  8
Visible (ISO)
100
AcDbLine
 10
25193.31775062574
 20
8832.691213039669
 30
0.0
 11
25203.31775062574
 21
8832.691213039669
 31
0.0
  0
LINE
  5
19A
330
6C
100
AcDbEntity
  8
Visible (ISO)
100
AcDbLine
 10
25156.97262441944
 20
8857.762179164303
 30
0.0
 11
25156.97262441944
 21
8912.69121303967
 31
0.0
  0
ARC
  5
19B
330
6C
100
AcDbEntity
  8
Visible (ISO)
100
AcDbCircle
 10
25161.97257651919
 20
8857.762179164303
 30
0.0
 40
4.999952099770427
100
AcDbArc
 50
180.0
 51
224.9918970755231
  0
LINE
  5
19C
330
6C
100
AcDbEntity
  8
Visible (ISO)
100
AcDbLine
 10
25178.50857651919
 20
8834.155179164303
 30
0.0
 11
25158.4365765192
 21
8854.227179164302
 31
0.0
  0
ARC
  5
19D
330
6C
100
AcDbEntity
  8
Visible (ISO)
100
AcDbCircle
 10
25182.04361038498
 20
8837.69121303967
 30
0.0
 40
4.999999999999995
100
AcDbArc
 50
225.0081029245023
 51
270.0
  0
LINE
  5
19E
330
6C
100
AcDbEntity
  8
Visible (ISO)
100
AcDbLine
 10
25193.31775062574
 20
8832.691213039669
 30
0.0
 11
25182.04361038498
 21
8832.691213039669
 31
0.0
  0
LINE
  5
19F
330
6C
100
AcDbEntity
  8
Visible (ISO)
100
AcDbLine
 10
25283.31775062574
 20
8408.651582957949
 30
0.0
 11
25283.31775062574
 21
8900.19121303967
 31
0.0
  0
LINE
  5
1A0
330
6C
100
AcDbEntity
  8
Visible (ISO)
100
AcDbLine
 10
25203.31775062574
 20
8900.19121303967
 30
0.0
 11
25203.31775062574
 21
8408.651582957949
 31
0.0
  0
LINE
  5
1A1
330
6C
100
AcDbEntity
  8
Visible (ISO)
100
AcDbLine
 10
25283.31775062574
 20
8900.19121303967
 30
0.0
 11
25278.31775062574
 21
8900.19121303967
 31
0.0
  0
LINE
  5
1A2
330
6C
100
AcDbEntity
  8
Visible (ISO)
100
AcDbLine
 10
25278.31775062574
 20
8900.19121303967
 30
0.0
 11
25278.31775062574
 21
8310.191213039669
 31
0.0
  0
LINE
  5
1A3
330
6C
100
AcDbEntity
  8
Visible (ISO)
100
AcDbLine
 10
25278.31775062574
 20
8310.191213039669
 30
0.0
 11
25283.31775062574
 21
8408.651582957949
 31
0.0
  0
LINE
  5
1A4
330
6C
100
AcDbEntity
  8
Visible (ISO)
100
AcDbLine
 10
25208.31775062574
 20
8900.19121303967
 30
0.0
 11
25203.31775062574
 21
8900.19121303967
 31
0.0
  0
LINE
  5
1A5
330
6C
100
AcDbEntity
  8
Visible (ISO)
100
AcDbLine
 10
25203.31775062574
 20
8408.651582957949
 30
0.0
 11
25208.31775062574
 21
8310.191213039669
 31
0.0
  0
LINE
  5
1A6
330
6C
100
AcDbEntity
  8
Visible (ISO)
100
AcDbLine
 10
25208.31775062574
 20
8310.191213039669
 30
0.0
 11
25208.31775062574
 21
8900.19121303967
 31
0.0
  0
LINE
  5
1A7
330
6C
100
AcDbEntity
  8
Visible (ISO)
100
AcDbLine
 10
25283.31775062574
 20
7850.191213039669
 30
0.0
 11
25283.31775062574
 21
8300.191213039669
 31
0.0
  0
LINE
  5
1A8
330
6C
100
AcDbEntity
  8
Visible (ISO)
100
AcDbLine
 10
25283.31775062574
 20
8310.191213039669
 30
0.0
 11
25283.31775062574
 21
8408.651582957949
 31
0.0
  0
LINE
  5
1A9
330
6C
100
AcDbEntity
  8
Visible (ISO)
100
AcDbLine
 10
25283.31775062574
 20
8900.19121303967
 30
0.0
 11
25283.31775062574
 21
8922.691213039668
 31
0.0
  0
LINE
  5
1AA
330
6C
100
AcDbEntity
  8
Visible (ISO)
100
AcDbLine
 10
25203.31775062574
 20
8912.69121303967
 30
0.0
 11
25203.31775062574
 21
8900.19121303967
 31
0.0
  0
LINE
  5
1AB
330
6C
100
AcDbEntity
  8
Visible (ISO)
100
AcDbLine
 10
25203.31775062574
 20
8408.651582957949
 30
0.0
 11
25203.31775062574
 21
8310.191213039669
 31
0.0
  0
LINE
  5
1AC
330
6C
100
AcDbEntity
  8
Visible (ISO)
100
AcDbLine
 10
25203.31775062574
 20
8300.191213039669
 30
0.0
 11
25203.31775062574
 21
7850.191213039669
 31
0.0
  0
LINE
  5
1AD
330
6C
100
AcDbEntity
  8
Visible (ISO)
100
AcDbLine
 10
25278.31775062574
 20
8900.19121303967
 30
0.0
 11
25208.31775062574
 21
8900.19121303967
 31
0.0
  0
LINE
  5
1AE
330
6C
100
AcDbEntity
  8
Visible (ISO)
100
AcDbLine
 10
25283.31775062574
 20
7850.191213039669
 30
0.0
 11
25203.31775062574
 21
7850.191213039669
 31
0.0
  0
LINE
  5
1AF
330
6C
100
AcDbEntity
  8
Visible (ISO)
100
AcDbLine
 10
23653.31775062574
 20
8408.651582957949
 30
0.0
 11
23653.31775062574
 21
8310.191213039669
 31
0.0
  0
LINE
  5
1B0
330
6C
100
AcDbEntity
  8
Visible (ISO)
100
AcDbLine
 10
23653.31775062574
 20
8300.191213039669
 30
0.0
 11
23653.31775062574
 21
7850.191213039669
 31
0.0
  0
LINE
  5
1B1
330
6C
100
AcDbEntity
  8
Visible (ISO)
100
AcDbLine
 10
23653.31775062574
 20
8922.691213039668
 30
0.0
 11
23653.31775062574
 21
8900.19121303967
 31
0.0
  0
LINE
  5
1B2
330
6C
100
AcDbEntity
  8
Visible (ISO)
100
AcDbLine
 10
23733.31775062574
 20
8900.19121303967
 30
0.0
 11
23733.31775062574
 21
8912.69121303967
 31
0.0
  0
LINE
  5
1B3
330
6C
100
AcDbEntity
  8
Visible (ISO)
100
AcDbLine
 10
23733.31775062574
 20
7850.191213039669
 30
0.0
 11
23733.31775062574
 21
8300.191213039669
 31
0.0
  0
LINE
  5
1B4
330
6C
100
AcDbEntity
  8
Visible (ISO)
100
AcDbLine
 10
23733.31775062574
 20
8310.191213039669
 30
0.0
 11
23733.31775062574
 21
8408.651582957949
 31
0.0
  0
LINE
  5
1B5
330
6C
100
AcDbEntity
  8
Visible (ISO)
100
AcDbLine
 10
23658.31775062574
 20
8900.19121303967
 30
0.0
 11
23728.31775062574
 21
8900.19121303967
 31
0.0
  0
LINE
  5
1B6
330
6C
100
AcDbEntity
  8
Visible (ISO)
100
AcDbLine
 10
23653.31775062574
 20
7850.191213039669
 30
0.0
 11
23733.31775062574
 21
7850.191213039669
 31
0.0
  0
LINE
  5
1B7
330
6C
100
AcDbEntity
  8
Visible (ISO)
100
AcDbLine
 10
23653.31775062574
 20
8900.19121303967
 30
0.0
 11
23653.31775062574
 21
8408.651582957949
 31
0.0
  0
LINE
  5
1B8
330
6C
100
AcDbEntity
  8
Visible (ISO)
100
AcDbLine
 10
23733.31775062574
 20
8408.651582957949
 30
0.0
 11
23733.31775062574
 21
8900.19121303967
 31
0.0
  0
LINE
  5
1B9
330
6C
100
AcDbEntity
  8
Visible (ISO)
100
AcDbLine
 10
23658.31775062574
 20
8900.19121303967
 30
0.0
 11
23653.31775062574
 21
8900.19121303967
 31
0.0
  0
LINE
  5
1BA
330
6C
100
AcDbEntity
  8
Visible (ISO)
100
AcDbLine
 10
23653.31775062574
 20
8408.651582957949
 30
0.0
 11
23658.31775062574
 21
8310.191213039669
 31
0.0
  0
LINE
  5
1BB
330
6C
100
AcDbEntity
  8
Visible (ISO)
100
AcDbLine
 10
23658.31775062574
 20
8310.191213039669
 30
0.0
 11
23658.31775062574
 21
8900.19121303967
 31
0.0
  0
LINE
  5
1BC
330
6C
100
AcDbEntity
  8
Visible (ISO)
100
AcDbLine
 10
23728.31775062574
 20
8900.19121303967
 30
0.0
 11
23728.31775062574
 21
8310.191213039669
 31
0.0
  0
LINE
  5
1BD
330
6C
100
AcDbEntity
  8
Visible (ISO)
100
AcDbLine
 10
23733.31775062574
 20
8900.19121303967
 30
0.0
 11
23728.31775062574
 21
8900.19121303967
 31
0.0
  0
LINE
  5
1BE
330
6C
100
AcDbEntity
  8
Visible (ISO)
100
AcDbLine
 10
23728.31775062574
 20
8310.191213039669
 30
0.0
 11
23733.31775062574
 21
8408.651582957949
 31
0.0
  0
LINE
  5
1BF
330
6C
100
AcDbEntity
  8
Visible (ISO)
100
AcDbLine
 10
25285.81775062574
 20
8880.191213039671
 30
0.0
 11
25285.81775062574
 21
8850.19121303967
 31
0.0
  0
LINE
  5
1C0
330
6C
100
AcDbEntity
  8
Visible (ISO)
100
AcDbLine
 10
25283.31775062574
 20
8880.191213039671
 30
0.0
 11
25285.81775062574
 21
8880.191213039671
 31
0.0
  0
LINE
  5
1C1
330
6C
100
AcDbEntity
  8
Visible (ISO)
100
AcDbLine
 10
25283.31775062574
 20
8850.19121303967
 30
0.0
 11
25285.81775062574
 21
8850.19121303967
 31
0.0
  0
LINE
  5
1C2
330
6C
100
AcDbEntity
  8
Visible (ISO)
100
AcDbLine
 10
23650.81775062574
 20
8850.19121303967
 30
0.0
 11
23650.81775062574
 21
8880.191213039671
 31
0.0
  0
LINE
  5
1C3
330
6C
100
AcDbEntity
  8
Visible (ISO)
100
AcDbLine
 10
23653.31775062574
 20
8850.19121303967
 30
0.0
 11
23650.81775062574
 21
8850.19121303967
 31
0.0
  0
LINE
  5
1C4
330
6C
100
AcDbEntity
  8
Visible (ISO)
100
AcDbLine
 10
23653.31775062574
 20
8880.191213039671
 30
0.0
 11
23650.81775062574
 21
8880.191213039671
 31
0.0
  0
CIRCLE
  5
1C5
330
6C
100
AcDbEntity
  8
Visible (ISO)
100
AcDbCircle
 10
25243.31775062574
 20
8942.691213039669
 30
0.0
 40
10.0
  0
CIRCLE
  5
1C6
330
6C
100
AcDbEntity
  8
Visible (ISO)
100
AcDbCircle
 10
23693.31775062574
 20
8942.691213039669
 30
0.0
 40
10.0
  0
SPLINE
  5
1C7
330
6C
100
AcDbEntity
  8
Visible (ISO)
100
AcDbSpline
210
0.0
220
0.0
230
1.0
 70
    12
 71
     2
 72
     6
 73
     3
 74
     0
 42
0.0000000001
 43
0.0000000001
 40
0.4978532609589538
 40
0.4978532609589538
 40
0.4978532609589538
 40
0.9957065219179071
 40
0.9957065219179071
 40
0.9957065219179071
 10
25292.21785062574
 20
8869.441213039669
 30
0.0
 41
1.0
 10
25292.21785062574
 20
8871.413644904007
 30
0.0
 41
1.037954849302034
 10
25291.45866124718
 20
8873.69121303967
 30
0.0
 41
1.0
  0
LINE
  5
1C8
330
6C
100
AcDbEntity
  8
Visible (ISO)
100
AcDbLine
 10
25292.21785062574
 20
8869.441213039669
 30
0.0
 11
25292.21785062574
 21
8873.69121303967
 31
0.0
  0
SPLINE
  5
1C9
330
6C
100
AcDbEntity
  8
Visible (ISO)
100
AcDbSpline
210
0.0
220
0.0
230
1.0
 70
    28
 71
     2
 72
     6
 73
     3
 74
     0
 42
0.0000000001
 43
0.0000000001
 40
0.0
 40
0.0
 40
0.0
 40
0.4978532609589536
 40
0.4978532609589536
 40
0.4978532609589536
 10
25291.45866124718
 20
8873.69121303967
 30
0.0
 41
1.0
 10
25292.21785062574
 20
8873.69121303967
 30
0.0
 41
1.037954849302054
 10
25292.21785062574
 20
8873.69121303967
 30
0.0
 41
1.0
  0
SPLINE
  5
1CA
330
6C
100
AcDbEntity
  8
Visible (ISO)
100
AcDbSpline
210
0.0
220
0.0
230
1.0
 70
    12
 71
     2
 72
     6
 73
     3
 74
     0
 42
0.0000000001
 43
0.0000000001
 40
0.4978532609589542
 40
0.4978532609589542
 40
0.4978532609589542
 40
0.9957065219179083
 40
0.9957065219179083
 40
0.9957065219179083
 10
25292.21785062574
 20
8860.941213039671
 30
0.0
 41
1.0
 10
25292.21785062574
 20
8862.913644904008
 30
0.0
 41
1.037954849302014
 10
25291.45866124718
 20
8865.19121303967
 30
0.0
 41
1.0
  0
LINE
  5
1CB
330
6C
100
AcDbEntity
  8
Visible (ISO)
100
AcDbLine
 10
25292.21785062574
 20
8860.941213039671
 30
0.0
 11
25292.21785062574
 21
8869.441213039669
 31
0.0
  0
SPLINE
  5
1CC
330
6C
100
AcDbEntity
  8
Visible (ISO)
100
AcDbSpline
210
0.0
220
0.0
230
1.0
 70
    12
 71
     2
 72
     6
 73
     3
 74
     0
 42
0.0000000001
 43
0.0000000001
 40
0.0
 40
0.0
 40
0.0
 40
0.4978532609589538
 40
0.4978532609589538
 40
0.4978532609589538
 10
25291.45866124718
 20
8865.19121303967
 30
0.0
 41
1.0
 10
25292.21785062574
 20
8867.468781175334
 30
0.0
 41
1.037954849302049
 10
25292.21785062574
 20
8869.441213039669
 30
0.0
 41
1.0
  0
SPLINE
  5
1CD
330
6C
100
AcDbEntity
  8
Visible (ISO)
100
AcDbSpline
210
0.0
220
0.0
230
1.0
 70
    28
 71
     2
 72
     6
 73
     3
 74
     0
 42
0.0000000001
 43
0.0000000001
 40
0.4978532609589534
 40
0.4978532609589534
 40
0.4978532609589534
 40
0.9957065219179066
 40
0.9957065219179066
 40
0.9957065219179066
 10
25292.21785062574
 20
8856.69121303967
 30
0.0
 41
1.0
 10
25292.21785062574
 20
8856.69121303967
 30
0.0
 41
1.037954849302054
 10
25291.45866124718
 20
8856.69121303967
 30
0.0
 41
1.0
  0
LINE
  5
1CE
330
6C
100
AcDbEntity
  8
Visible (ISO)
100
AcDbLine
 10
25292.21785062574
 20
8856.69121303967
 30
0.0
 11
25292.21785062574
 21
8860.941213039671
 31
0.0
  0
SPLINE
  5
1CF
330
6C
100
AcDbEntity
  8
Visible (ISO)
100
AcDbSpline
210
0.0
220
0.0
230
1.0
 70
    12
 71
     2
 72
     6
 73
     3
 74
     0
 42
0.0000000001
 43
0.0000000001
 40
0.0
 40
0.0
 40
0.0
 40
0.4978532609589542
 40
0.4978532609589542
 40
0.4978532609589542
 10
25291.45866124718
 20
8856.69121303967
 30
0.0
 41
1.0
 10
25292.21785062574
 20
8858.968781175333
 30
0.0
 41
1.037954849302022
 10
25292.21785062574
 20
8860.941213039671
 30
0.0
 41
1.0
  0
LINE
  5
1D0
330
6C
100
AcDbEntity
  8
Visible (ISO)
100
AcDbLine
 10
25286.41785062574
 20
8856.69121303967
 30
0.0
 11
25291.45866124718
 21
8856.69121303967
 31
0.0
  0
LINE
  5
1D1
330
6C
100
AcDbEntity
  8
Visible (ISO)
100
AcDbLine
 10
25286.41785062574
 20
8865.19121303967
 30
0.0
 11
25291.45866124718
 21
8865.19121303967
 31
0.0
  0
LINE
  5
1D2
330
6C
100
AcDbEntity
  8
Visible (ISO)
100
AcDbLine
 10
25286.41785062574
 20
8856.69121303967
 30
0.0
 11
25286.41785062574
 21
8865.19121303967
 31
0.0
  0
LINE
  5
1D3
330
6C
100
AcDbEntity
  8
Visible (ISO)
100
AcDbLine
 10
25286.41785062574
 20
8873.69121303967
 30
0.0
 11
25291.45866124718
 21
8873.69121303967
 31
0.0
  0
LINE
  5
1D4
330
6C
100
AcDbEntity
  8
Visible (ISO)
100
AcDbLine
 10
25286.41785062574
 20
8865.19121303967
 30
0.0
 11
25286.41785062574
 21
8873.69121303967
 31
0.0
  0
LINE
  5
1D5
330
6C
100
AcDbEntity
  8
Visible (ISO)
100
AcDbLine
 10
25286.41785062574
 20
8857.391213039669
 30
0.0
 11
25285.81775062574
 21
8857.391213039669
 31
0.0
  0
LINE
  5
1D6
330
6C
100
AcDbEntity
  8
Visible (ISO)
100
AcDbLine
 10
25286.41785062574
 20
8872.99121303967
 30
0.0
 11
25285.81775062574
 21
8872.99121303967
 31
0.0
  0
SPLINE
  5
1D7
330
6C
100
AcDbEntity
  8
Visible (ISO)
100
AcDbSpline
210
0.0
220
0.0
230
1.0
 70
    12
 71
     2
 72
     6
 73
     3
 74
     0
 42
0.0000000001
 43
0.0000000001
 40
0.0
 40
0.0
 40
0.0
 40
0.4978532609589533
 40
0.4978532609589533
 40
0.4978532609589533
 10
23645.1768400043
 20
8873.69121303967
 30
0.0
 41
1.0
 10
23644.41765062574
 20
8871.413644904007
 30
0.0
 41
1.037954849302014
 10
23644.41765062574
 20
8869.441213039669
 30
0.0
 41
1.0
  0
SPLINE
  5
1D8
330
6C
100
AcDbEntity
  8
Visible (ISO)
100
AcDbSpline
210
0.0
220
0.0
230
1.0
 70
    28
 71
     2
 72
     6
 73
     3
 74
     0
 42
0.0000000001
 43
0.0000000001
 40
0.4978532609589536
 40
0.4978532609589536
 40
0.4978532609589536
 40
0.9957065219179071
 40
0.9957065219179071
 40
0.9957065219179071
 10
23644.41765062574
 20
8873.69121303967
 30
0.0
 41
1.0
 10
23644.41765062574
 20
8873.69121303967
 30
0.0
 41
1.037954849302055
 10
23645.1768400043
 20
8873.69121303967
 30
0.0
 41
1.0
  0
LINE
  5
1D9
330
6C
100
AcDbEntity
  8
Visible (ISO)
100
AcDbLine
 10
23644.41765062574
 20
8873.69121303967
 30
0.0
 11
23644.41765062574
 21
8869.441213039669
 31
0.0
  0
SPLINE
  5
1DA
330
6C
100
AcDbEntity
  8
Visible (ISO)
100
AcDbSpline
210
0.0
220
0.0
230
1.0
 70
    12
 71
     2
 72
     6
 73
     3
 74
     0
 42
0.0000000001
 43
0.0000000001
 40
0.0
 40
0.0
 40
0.0
 40
0.4978532609589534
 40
0.4978532609589534
 40
0.4978532609589534
 10
23645.1768400043
 20
8865.19121303967
 30
0.0
 41
1.0
 10
23644.41765062574
 20
8862.913644904008
 30
0.0
 41
1.037954849302042
 10
23644.41765062574
 20
8860.941213039671
 30
0.0
 41
1.0
  0
SPLINE
  5
1DB
330
6C
100
AcDbEntity
  8
Visible (ISO)
100
AcDbSpline
210
0.0
220
0.0
230
1.0
 70
    12
 71
     2
 72
     6
 73
     3
 74
     0
 42
0.0000000001
 43
0.0000000001
 40
0.4978532609589533
 40
0.4978532609589533
 40
0.4978532609589533
 40
0.9957065219179066
 40
0.9957065219179066
 40
0.9957065219179066
 10
23644.41765062574
 20
8869.441213039669
 30
0.0
 41
1.0
 10
23644.41765062574
 20
8867.468781175334
 30
0.0
 41
1.037954849302044
 10
23645.1768400043
 20
8865.19121303967
 30
0.0
 41
1.0
  0
LINE
  5
1DC
330
6C
100
AcDbEntity
  8
Visible (ISO)
100
AcDbLine
 10
23644.41765062574
 20
8869.441213039669
 30
0.0
 11
23644.41765062574
 21
8860.941213039671
 31
0.0
  0
SPLINE
  5
1DD
330
6C
100
AcDbEntity
  8
Visible (ISO)
100
AcDbSpline
210
0.0
220
0.0
230
1.0
 70
    28
 71
     2
 72
     6
 73
     3
 74
     0
 42
0.0000000001
 43
0.0000000001
 40
0.0
 40
0.0
 40
0.0
 40
0.4978532609589534
 40
0.4978532609589534
 40
0.4978532609589534
 10
23645.1768400043
 20
8856.69121303967
 30
0.0
 41
1.0
 10
23644.41765062574
 20
8856.69121303967
 30
0.0
 41
1.037954849302042
 10
23644.41765062574
 20
8856.69121303967
 30
0.0
 41
1.0
  0
SPLINE
  5
1DE
330
6C
100
AcDbEntity
  8
Visible (ISO)
100
AcDbSpline
210
0.0
220
0.0
230
1.0
 70
    12
 71
     2
 72
     6
 73
     3
 74
     0
 42
0.0000000001
 43
0.0000000001
 40
0.4978532609589534
 40
0.4978532609589534
 40
0.4978532609589534
 40
0.9957065219179067
 40
0.9957065219179067
 40
0.9957065219179067
 10
23644.41765062574
 20
8860.941213039671
 30
0.0
 41
1.0
 10
23644.41765062574
 20
8858.968781175333
 30
0.0
 41
1.037954849302042
 10
23645.1768400043
 20
8856.69121303967
 30
0.0
 41
1.0
  0
LINE
  5
1DF
330
6C
100
AcDbEntity
  8
Visible (ISO)
100
AcDbLine
 10
23644.41765062574
 20
8860.941213039671
 30
0.0
 11
23644.41765062574
 21
8856.69121303967
 31
0.0
  0
LINE
  5
1E0
330
6C
100
AcDbEntity
  8
Visible (ISO)
100
AcDbLine
 10
23650.21765062575
 20
8856.69121303967
 30
0.0
 11
23645.1768400043
 21
8856.69121303967
 31
0.0
  0
LINE
  5
1E1
330
6C
100
AcDbEntity
  8
Visible (ISO)
100
AcDbLine
 10
23650.21765062575
 20
8873.69121303967
 30
0.0
 11
23650.21765062575
 21
8865.19121303967
 31
0.0
  0
LINE
  5
1E2
330
6C
100
AcDbEntity
  8
Visible (ISO)
100
AcDbLine
 10
23650.21765062575
 20
8865.19121303967
 30
0.0
 11
23650.21765062575
 21
8856.69121303967
 31
0.0
  0
LINE
  5
1E3
330
6C
100
AcDbEntity
  8
Visible (ISO)
100
AcDbLine
 10
23650.21765062575
 20
8873.69121303967
 30
0.0
 11
23645.1768400043
 21
8873.69121303967
 31
0.0
  0
LINE
  5
1E4
330
6C
100
AcDbEntity
  8
Visible (ISO)
100
AcDbLine
 10
23650.21765062575
 20
8865.19121303967
 30
0.0
 11
23645.1768400043
 21
8865.19121303967
 31
0.0
  0
LINE
  5
1E5
330
6C
100
AcDbEntity
  8
Visible (ISO)
100
AcDbLine
 10
23650.21765062574
 20
8872.99121303967
 30
0.0
 11
23650.81775062574
 21
8872.99121303967
 31
0.0
  0
LINE
  5
1E6
330
6C
100
AcDbEntity
  8
Visible (ISO)
100
AcDbLine
 10
23650.21765062574
 20
8857.391213039669
 30
0.0
 11
23650.81775062574
 21
8857.391213039669
 31
0.0
  0
SPLINE
  5
1E7
330
6C
100
AcDbEntity
  8
Visible (ISO)
100
AcDbSpline
210
0.0
220
0.0
230
1.0
 70
    28
 71
     2
 72
     6
 73
     3
 74
     0
 42
0.0000000001
 43
0.0000000001
 40
0.4978532609589538
 40
0.4978532609589538
 40
0.4978532609589538
 40
0.9957065219179071
 40
0.9957065219179071
 40
0.9957065219179071
 10
25247.56775062574
 20
8950.052428971835
 30
0.0
 41
1.0
 10
25249.54018249009
 20
8948.913644904008
 30
0.0
 41
1.037954849302034
 10
25251.81775062574
 20
8947.598690327781
 30
0.0
 41
1.0
  0
ARC
  5
1E8
330
6C
100
AcDbEntity
  8
Visible (ISO)
100
AcDbCircle
 10
25243.31775062574
 20
8942.691213039669
 30
0.0
 40
8.500000000000026
100
AcDbArc
 50
0.0
 51
59.99999999998792
  0
SPLINE
  5
1E9
330
6C
100
AcDbEntity
  8
Visible (ISO)
100
AcDbSpline
210
0.0
220
0.0
230
1.0
 70
    28
 71
     2
 72
     6
 73
     3
 74
     0
 42
0.0000000001
 43
0.0000000001
 40
0.0
 40
0.0
 40
0.0
 40
0.4978532609589536
 40
0.4978532609589536
 40
0.4978532609589536
 10
25251.81775062574
 20
8947.598690327781
 30
0.0
 41
1.0
 10
25251.81775062574
 20
8944.968781175333
 30
0.0
 41
1.037954849302054
 10
25251.81775062574
 20
8942.691213039669
 30
0.0
 41
1.0
  0
SPLINE
  5
1EA
330
6C
100
AcDbEntity
  8
Visible (ISO)
100
AcDbSpline
210
0.0
220
0.0
230
1.0
 70
    28
 71
     2
 72
     6
 73
     3
 74
     0
 42
0.0000000001
 43
0.0000000001
 40
0.0
 40
0.0
 40
0.0
 40
0.4978532609589533
 40
0.4978532609589533
 40
0.4978532609589533
 10
25251.81775062574
 20
8937.783735751557
 30
0.0
 41
1.0
 10
25249.54018249009
 20
8936.468781175333
 30
0.0
 41
1.037954849302054
 10
25247.56775062574
 20
8935.329997107501
 30
0.0
 41
1.0
  0
SPLINE
  5
1EB
330
6C
100
AcDbEntity
  8
Visible (ISO)
100
AcDbSpline
210
0.0
220
0.0
230
1.0
 70
    28
 71
     2
 72
     6
 73
     3
 74
     0
 42
0.0000000001
 43
0.0000000001
 40
0.4978532609589536
 40
0.4978532609589536
 40
0.4978532609589536
 40
0.9957065219179071
 40
0.9957065219179071
 40
0.9957065219179071
 10
25251.81775062574
 20
8942.691213039669
 30
0.0
 41
1.0
 10
25251.81775062574
 20
8940.413644904005
 30
0.0
 41
1.037954849302055
 10
25251.81775062574
 20
8937.783735751557
 30
0.0
 41
1.0
  0
ARC
  5
1EC
330
6C
100
AcDbEntity
  8
Visible (ISO)
100
AcDbCircle
 10
25243.31775062574
 20
8942.691213039669
 30
0.0
 40
8.50000000000003
100
AcDbArc
 50
300.0000000000162
 51
0.0
  0
SPLINE
  5
1ED
330
6C
100
AcDbEntity
  8
Visible (ISO)
100
AcDbSpline
210
0.0
220
0.0
230
1.0
 70
    28
 71
     2
 72
     6
 73
     3
 74
     0
 42
0.0000000001
 43
0.0000000001
 40
0.4978532609589542
 40
0.4978532609589542
 40
0.4978532609589542
 40
0.9957065219179083
 40
0.9957065219179083
 40
0.9957065219179083
 10
25239.06775062574
 20
8950.052428971835
 30
0.0
 41
1.0
 10
25241.04018249007
 20
8951.191213039669
 30
0.0
 41
1.037954849302014
 10
25243.31775062574
 20
8952.506167615892
 30
0.0
 41
1.0
  0
ARC
  5
1EE
330
6C
100
AcDbEntity
  8
Visible (ISO)
100
AcDbCircle
 10
25243.31775062574
 20
8942.691213039669
 30
0.0
 40
8.500000000000023
100
AcDbArc
 50
59.99999999998372
 51
119.9999999999788
  0
SPLINE
  5
1EF
330
6C
100
AcDbEntity
  8
Visible (ISO)
100
AcDbSpline
210
0.0
220
0.0
230
1.0
 70
    28
 71
     2
 72
     6
 73
     3
 74
     0
 42
0.0000000001
 43
0.0000000001
 40
0.0
 40
0.0
 40
0.0
 40
0.4978532609589538
 40
0.4978532609589538
 40
0.4978532609589538
 10
25243.31775062574
 20
8952.506167615892
 30
0.0
 41
1.0
 10
25245.5953187614
 20
8951.191213039669
 30
0.0
 41
1.037954849302049
 10
25247.56775062574
 20
8950.052428971835
 30
0.0
 41
1.0
  0
SPLINE
  5
1F0
330
6C
100
AcDbEntity
  8
Visible (ISO)
100
AcDbSpline
210
0.0
220
0.0
230
1.0
 70
    28
 71
     2
 72
     6
 73
     3
 74
     0
 42
0.0000000001
 43
0.0000000001
 40
0.0
 40
0.0
 40
0.0
 40
0.4978532609589534
 40
0.4978532609589534
 40
0.4978532609589534
 10
25243.31775062574
 20
8932.876258463446
 30
0.0
 41
1.0
 10
25241.04018249007
 20
8934.191213039669
 30
0.0
 41
1.037954849302042
 10
25239.06775062574
 20
8935.329997107501
 30
0.0
 41
1.0
  0
SPLINE
  5
1F1
330
6C
100
AcDbEntity
  8
Visible (ISO)
100
AcDbSpline
210
0.0
220
0.0
230
1.0
 70
    28
 71
     2
 72
     6
 73
     3
 74
     0
 42
0.0000000001
 43
0.0000000001
 40
0.4978532609589533
 40
0.4978532609589533
 40
0.4978532609589533
 40
0.9957065219179067
 40
0.9957065219179067
 40
0.9957065219179067
 10
25247.56775062574
 20
8935.329997107501
 30
0.0
 41
1.0
 10
25245.5953187614
 20
8934.191213039669
 30
0.0
 41
1.037954849302047
 10
25243.31775062574
 20
8932.876258463446
 30
0.0
 41
1.0
  0
ARC
  5
1F2
330
6C
100
AcDbEntity
  8
Visible (ISO)
100
AcDbCircle
 10
25243.31775062574
 20
8942.691213039669
 30
0.0
 40
8.500000000000026
100
AcDbArc
 50
239.9999999999837
 51
299.9999999999788
  0
SPLINE
  5
1F3
330
6C
100
AcDbEntity
  8
Visible (ISO)
100
AcDbSpline
210
0.0
220
0.0
230
1.0
 70
    28
 71
     2
 72
     6
 73
     3
 74
     0
 42
0.0000000001
 43
0.0000000001
 40
0.4978532609589534
 40
0.4978532609589534
 40
0.4978532609589534
 40
0.9957065219179066
 40
0.9957065219179066
 40
0.9957065219179066
 10
25234.81775062574
 20
8942.691213039669
 30
0.0
 41
1.0
 10
25234.81775062574
 20
8944.968781175333
 30
0.0
 41
1.037954849302054
 10
25234.81775062574
 20
8947.598690327781
 30
0.0
 41
1.0
  0
ARC
  5
1F4
330
6C
100
AcDbEntity
  8
Visible (ISO)
100
AcDbCircle
 10
25243.31775062574
 20
8942.691213039669
 30
0.0
 40
8.500000000000023
100
AcDbArc
 50
120.0000000000162
 51
180.0
  0
SPLINE
  5
1F5
330
6C
100
AcDbEntity
  8
Visible (ISO)
100
AcDbSpline
210
0.0
220
0.0
230
1.0
 70
    28
 71
     2
 72
     6
 73
     3
 74
     0
 42
0.0000000001
 43
0.0000000001
 40
0.0
 40
0.0
 40
0.0
 40
0.4978532609589542
 40
0.4978532609589542
 40
0.4978532609589542
 10
25234.81775062574
 20
8947.598690327781
 30
0.0
 41
1.0
 10
25237.0953187614
 20
8948.913644904008
 30
0.0
 41
1.037954849302022
 10
25239.06775062574
 20
8950.052428971835
 30
0.0
 41
1.0
  0
SPLINE
  5
1F6
330
6C
100
AcDbEntity
  8
Visible (ISO)
100
AcDbSpline
210
0.0
220
0.0
230
1.0
 70
    28
 71
     2
 72
     6
 73
     3
 74
     0
 42
0.0000000001
 43
0.0000000001
 40
0.0
 40
0.0
 40
0.0
 40
0.4978532609589534
 40
0.4978532609589534
 40
0.4978532609589534
 10
25234.81775062574
 20
8937.783735751557
 30
0.0
 41
1.0
 10
25234.81775062574
 20
8940.413644904005
 30
0.0
 41
1.037954849302042
 10
25234.81775062574
 20
8942.691213039669
 30
0.0
 41
1.0
  0
SPLINE
  5
1F7
330
6C
100
AcDbEntity
  8
Visible (ISO)
100
AcDbSpline
210
0.0
220
0.0
230
1.0
 70
    28
 71
     2
 72
     6
 73
     3
 74
     0
 42
0.0000000001
 43
0.0000000001
 40
0.4978532609589534
 40
0.4978532609589534
 40
0.4978532609589534
 40
0.9957065219179067
 40
0.9957065219179067
 40
0.9957065219179067
 10
25239.06775062574
 20
8935.329997107501
 30
0.0
 41
1.0
 10
25237.0953187614
 20
8936.468781175333
 30
0.0
 41
1.037954849302042
 10
25234.81775062574
 20
8937.783735751557
 30
0.0
 41
1.0
  0
ARC
  5
1F8
330
6C
100
AcDbEntity
  8
Visible (ISO)
100
AcDbCircle
 10
25243.31775062574
 20
8942.691213039669
 30
0.0
 40
8.500000000000021
100
AcDbArc
 50
180.0
 51
239.9999999999879
  0
SPLINE
  5
1F9
330
6C
100
AcDbEntity
  8
Visible (ISO)
100
AcDbSpline
210
0.0
220
0.0
230
1.0
 70
    28
 71
     2
 72
     6
 73
     3
 74
     0
 42
0.0000000001
 43
0.0000000001
 40
0.4978532609589538
 40
0.4978532609589538
 40
0.4978532609589538
 40
0.9957065219179071
 40
0.9957065219179071
 40
0.9957065219179071
 10
23697.56775062574
 20
8950.052428971835
 30
0.0
 41
1.0
 10
23699.54018249007
 20
8948.913644904008
 30
0.0
 41
1.037954849302034
 10
23701.81775062574
 20
8947.598690327781
 30
0.0
 41
1.0
  0
ARC
  5
1FA
330
6C
100
AcDbEntity
  8
Visible (ISO)
100
AcDbCircle
 10
23693.31775062574
 20
8942.691213039669
 30
0.0
 40
8.500000000000026
100
AcDbArc
 50
0.0
 51
59.99999999998792
  0
SPLINE
  5
1FB
330
6C
100
AcDbEntity
  8
Visible (ISO)
100
AcDbSpline
210
0.0
220
0.0
230
1.0
 70
    28
 71
     2
 72
     6
 73
     3
 74
     0
 42
0.0000000001
 43
0.0000000001
 40
0.0
 40
0.0
 40
0.0
 40
0.4978532609589536
 40
0.4978532609589536
 40
0.4978532609589536
 10
23701.81775062574
 20
8947.598690327781
 30
0.0
 41
1.0
 10
23701.81775062574
 20
8944.968781175333
 30
0.0
 41
1.037954849302054
 10
23701.81775062574
 20
8942.691213039669
 30
0.0
 41
1.0
  0
SPLINE
  5
1FC
330
6C
100
AcDbEntity
  8
Visible (ISO)
100
AcDbSpline
210
0.0
220
0.0
230
1.0
 70
    28
 71
     2
 72
     6
 73
     3
 74
     0
 42
0.0000000001
 43
0.0000000001
 40
0.0
 40
0.0
 40
0.0
 40
0.4978532609589533
 40
0.4978532609589533
 40
0.4978532609589533
 10
23701.81775062574
 20
8937.783735751557
 30
0.0
 41
1.0
 10
23699.54018249007
 20
8936.468781175333
 30
0.0
 41
1.037954849302054
 10
23697.56775062574
 20
8935.329997107501
 30
0.0
 41
1.0
  0
SPLINE
  5
1FD
330
6C
100
AcDbEntity
  8
Visible (ISO)
100
AcDbSpline
210
0.0
220
0.0
230
1.0
 70
    28
 71
     2
 72
     6
 73
     3
 74
     0
 42
0.0000000001
 43
0.0000000001
 40
0.4978532609589536
 40
0.4978532609589536
 40
0.4978532609589536
 40
0.9957065219179071
 40
0.9957065219179071
 40
0.9957065219179071
 10
23701.81775062574
 20
8942.691213039669
 30
0.0
 41
1.0
 10
23701.81775062574
 20
8940.413644904005
 30
0.0
 41
1.037954849302055
 10
23701.81775062574
 20
8937.783735751557
 30
0.0
 41
1.0
  0
ARC
  5
1FE
330
6C
100
AcDbEntity
  8
Visible (ISO)
100
AcDbCircle
 10
23693.31775062574
 20
8942.691213039669
 30
0.0
 40
8.50000000000003
100
AcDbArc
 50
300.0000000000162
 51
0.0
  0
SPLINE
  5
1FF
330
6C
100
AcDbEntity
  8
Visible (ISO)
100
AcDbSpline
210
0.0
220
0.0
230
1.0
 70
    28
 71
     2
 72
     6
 73
     3
 74
     0
 42
0.0000000001
 43
0.0000000001
 40
0.4978532609589542
 40
0.4978532609589542
 40
0.4978532609589542
 40
0.9957065219179083
 40
0.9957065219179083
 40
0.9957065219179083
 10
23689.06775062574
 20
8950.052428971835
 30
0.0
 41
1.0
 10
23691.04018249009
 20
8951.191213039669
 30
0.0
 41
1.037954849302014
 10
23693.31775062574
 20
8952.506167615892
 30
0.0
 41
1.0
  0
ARC
  5
200
330
6C
100
AcDbEntity
  8
Visible (ISO)
100
AcDbCircle
 10
23693.31775062574
 20
8942.691213039669
 30
0.0
 40
8.500000000000023
100
AcDbArc
 50
59.99999999998372
 51
119.9999999999788
  0
SPLINE
  5
201
330
6C
100
AcDbEntity
  8
Visible (ISO)
100
AcDbSpline
210
0.0
220
0.0
230
1.0
 70
    28
 71
     2
 72
     6
 73
     3
 74
     0
 42
0.0000000001
 43
0.0000000001
 40
0.0
 40
0.0
 40
0.0
 40
0.4978532609589538
 40
0.4978532609589538
 40
0.4978532609589538
 10
23693.31775062574
 20
8952.506167615892
 30
0.0
 41
1.0
 10
23695.5953187614
 20
8951.191213039669
 30
0.0
 41
1.037954849302049
 10
23697.56775062574
 20
8950.052428971835
 30
0.0
 41
1.0
  0
SPLINE
  5
202
330
6C
100
AcDbEntity
  8
Visible (ISO)
100
AcDbSpline
210
0.0
220
0.0
230
1.0
 70
    28
 71
     2
 72
     6
 73
     3
 74
     0
 42
0.0000000001
 43
0.0000000001
 40
0.0
 40
0.0
 40
0.0
 40
0.4978532609589534
 40
0.4978532609589534
 40
0.4978532609589534
 10
23693.31775062574
 20
8932.876258463446
 30
0.0
 41
1.0
 10
23691.04018249009
 20
8934.191213039669
 30
0.0
 41
1.037954849302042
 10
23689.06775062574
 20
8935.329997107501
 30
0.0
 41
1.0
  0
SPLINE
  5
203
330
6C
100
AcDbEntity
  8
Visible (ISO)
100
AcDbSpline
210
0.0
220
0.0
230
1.0
 70
    28
 71
     2
 72
     6
 73
     3
 74
     0
 42
0.0000000001
 43
0.0000000001
 40
0.4978532609589533
 40
0.4978532609589533
 40
0.4978532609589533
 40
0.9957065219179067
 40
0.9957065219179067
 40
0.9957065219179067
 10
23697.56775062574
 20
8935.329997107501
 30
0.0
 41
1.0
 10
23695.5953187614
 20
8934.191213039669
 30
0.0
 41
1.037954849302047
 10
23693.31775062574
 20
8932.876258463446
 30
0.0
 41
1.0
  0
ARC
  5
204
330
6C
100
AcDbEntity
  8
Visible (ISO)
100
AcDbCircle
 10
23693.31775062574
 20
8942.691213039669
 30
0.0
 40
8.500000000000023
100
AcDbArc
 50
239.9999999999837
 51
299.9999999999788
  0
SPLINE
  5
205
330
6C
100
AcDbEntity
  8
Visible (ISO)
100
AcDbSpline
210
0.0
220
0.0
230
1.0
 70
    28
 71
     2
 72
     6
 73
     3
 74
     0
 42
0.0000000001
 43
0.0000000001
 40
0.4978532609589534
 40
0.4978532609589534
 40
0.4978532609589534
 40
0.9957065219179066
 40
0.9957065219179066
 40
0.9957065219179066
 10
23684.81775062574
 20
8942.691213039669
 30
0.0
 41
1.0
 10
23684.81775062574
 20
8944.968781175333
 30
0.0
 41
1.037954849302054
 10
23684.81775062574
 20
8947.598690327781
 30
0.0
 41
1.0
  0
ARC
  5
206
330
6C
100
AcDbEntity
  8
Visible (ISO)
100
AcDbCircle
 10
23693.31775062574
 20
8942.691213039669
 30
0.0
 40
8.500000000000023
100
AcDbArc
 50
120.0000000000162
 51
180.0
  0
SPLINE
  5
207
330
6C
100
AcDbEntity
  8
Visible (ISO)
100
AcDbSpline
210
0.0
220
0.0
230
1.0
 70
    28
 71
     2
 72
     6
 73
     3
 74
     0
 42
0.0000000001
 43
0.0000000001
 40
0.0
 40
0.0
 40
0.0
 40
0.4978532609589542
 40
0.4978532609589542
 40
0.4978532609589542
 10
23684.81775062574
 20
8947.598690327781
 30
0.0
 41
1.0
 10
23687.0953187614
 20
8948.913644904008
 30
0.0
 41
1.037954849302022
 10
23689.06775062574
 20
8950.052428971835
 30
0.0
 41
1.0
  0
SPLINE
  5
208
330
6C
100
AcDbEntity
  8
Visible (ISO)
100
AcDbSpline
210
0.0
220
0.0
230
1.0
 70
    28
 71
     2
 72
     6
 73
     3
 74
     0
 42
0.0000000001
 43
0.0000000001
 40
0.0
 40
0.0
 40
0.0
 40
0.4978532609589534
 40
0.4978532609589534
 40
0.4978532609589534
 10
23684.81775062574
 20
8937.783735751557
 30
0.0
 41
1.0
 10
23684.81775062574
 20
8940.413644904005
 30
0.0
 41
1.037954849302042
 10
23684.81775062574
 20
8942.691213039669
 30
0.0
 41
1.0
  0
SPLINE
  5
209
330
6C
100
AcDbEntity
  8
Visible (ISO)
100
AcDbSpline
210
0.0
220
0.0
230
1.0
 70
    28
 71
     2
 72
     6
 73
     3
 74
     0
 42
0.0000000001
 43
0.0000000001
 40
0.4978532609589534
 40
0.4978532609589534
 40
0.4978532609589534
 40
0.9957065219179067
 40
0.9957065219179067
 40
0.9957065219179067
 10
23689.06775062574
 20
8935.329997107501
 30
0.0
 41
1.0
 10
23687.0953187614
 20
8936.468781175333
 30
0.0
 41
1.037954849302042
 10
23684.81775062574
 20
8937.783735751557
 30
0.0
 41
1.0
  0
ARC
  5
20A
330
6C
100
AcDbEntity
  8
Visible (ISO)
100
AcDbCircle
 10
23693.31775062574
 20
8942.691213039669
 30
0.0
 40
8.500000000000021
100
AcDbArc
 50
180.0
 51
239.9999999999879
  0
LINE
  5
20B
330
6C
100
AcDbEntity
  8
Visible (ISO)
100
AcDbLine
 10
20098.31775062574
 20
8300.191213039662
 30
0.0
 11
20098.31775062574
 21
8310.191213039662
 31
0.0
  0
LINE
  5
20C
330
6C
100
AcDbEntity
  8
Visible (ISO)
100
AcDbLine
 10
28838.31775062574
 20
8300.191213039674
 30
0.0
 11
28838.31775062574
 21
8310.191213039674
 31
0.0
  0
LINE
  5
20D
330
6C
100
AcDbEntity
  8
Visible (ISO)
100
AcDbLine
 10
28838.31775062574
 20
8310.191213039674
 30
0.0
 11
20098.31775062574
 21
8310.191213039662
 31
0.0
  0
LINE
  5
20E
330
6C
100
AcDbEntity
  8
Visible (ISO)
100
AcDbLine
 10
28838.31775062574
 20
8300.191213039674
 30
0.0
 11
20098.31775062574
 21
8300.191213039662
 31
0.0
  0
DIMENSION
  5
3F8
330
6C
100
AcDbEntity
  8
Dimension (ISO)
100
AcDbDimension
  2
*D3
 10
22672.51747551598
 20
8310.191213039667
 30
0.0
 11
22672.51747551597
 21
8688.941213039671
 31
0.0
 70
   160
  1
<>
 71
     2
 42
757.5
  3
Default (ISO)
100
AcDbAlignedDimension
 13
23108.31775062574
 23
9067.691213039669
 33
0.0
 14
22672.51747551598
 24
8310.191213039667
 34
0.0
 50
90.0
100
AcDbRotatedDimension
1001
ACAD
1000
DSTYLE
1002
{
1070
   172
1070
     0
1070
   289
1070
     1
1070
    74
1070
     0
1070
   271
1070
     0
1070
    76
1070
     1
1070
   272
1070
     2
1070
    48
1040
0.0
1070
    47
1040
0.0
1002
}
  0
DIMENSION
  5
4DF
330
6C
100
AcDbEntity
  8
Dimension (ISO)
100
AcDbDimension
  2
*D4
 10
26636.5781374276
 20
7850.191213039669
 30
0.0
 11
26636.5781374276
 21
8979.345516224853
 31
0.0
 70
   160
  1
<>
 71
     2
 42
460.0000000000008
  3
Default (ISO)
100
AcDbAlignedDimension
 13
26171.24293627508
 23
8310.19121303967
 33
0.0
 14
25283.31775062574
 24
7850.191213039669
 34
0.0
 50
90.0
100
AcDbRotatedDimension
1001
ACAD
1000
DSTYLE
1002
{
1070
   172
1070
     1
1070
   289
1070
     1
1070
    74
1070
     0
1070
   271
1070
     2
1070
    75
1070
     1
1070
   272
1070
     2
1070
    48
1040
0.0
1070
    47
1040
0.0
1002
}
  0
DIMENSION
  5
5E2
330
6C
100
AcDbEntity
  8
Dimension (ISO)
100
AcDbDimension
  2
*D5
 10
22130.55222146333
 20
9209.691213039668
 30
0.0
 11
22130.55222146332
 21
8759.94121303967
 31
0.0
 70
   160
  1
<>
 71
     2
 42
899.5000000000036
  3
Default (ISO)
100
AcDbAlignedDimension
 13
22130.55222146332
 23
8310.191213039665
 33
0.0
 14
24465.81775062574
 24
9209.691213039668
 34
0.0
 50
90.0
100
AcDbRotatedDimension
1001
ACAD
1000
DSTYLE
1002
{
1070
   172
1070
     0
1070
   289
1070
     1
1070
    74
1070
     0
1070
   271
1070
     0
1070
    75
1070
     1
1070
   272
1070
     2
1070
    48
1040
0.0
1070
    47
1040
0.0
1002
}
  0
DIMENSION
  5
6C9
330
6C
100
AcDbEntity
  8
Dimension (ISO)
100
AcDbDimension
  2
*D6
 10
19598.31775062408
 20
1642.927977304918
 30
0.0
 11
19598.31775062408
 21
4402.927977304917
 31
0.0
 70
   160
  1
<>
 71
     2
 42
5520.000000000003
  3
Default (ISO)
100
AcDbAlignedDimension
 13
20098.31775062408
 23
7162.927977304921
 33
0.0
 14
20098.31775062408
 24
1642.927977304918
 34
0.0
 50
270.0
100
AcDbRotatedDimension
1001
ACAD
1000
DSTYLE
1002
{
1070
   172
1070
     0
1070
   289
1070
     1
1070
    74
1070
     0
1070
   271
1070
     2
1070
   272
1070
     2
1070
    48
1040
0.0
1070
    47
1040
0.0
1002
}
  0
DIMENSION
  5
7B1
330
6C
100
AcDbEntity
  8
Dimension (ISO)
100
AcDbDimension
  2
*D7
 10
28838.31775062408
 20
1142.927977304919
 30
0.0
 11
24468.31775062408
 21
1142.927977304919
 31
0.0
 70
   160
  1
<>
 71
     2
 42
8740.000000000001
  3
Default (ISO)
100
AcDbAlignedDimension
 13
20098.31775062408
 23
1642.927977304918
 33
0.0
 14
28838.31775062408
 24
1642.927977304919
 34
0.0
100
AcDbRotatedDimension
1001
ACAD
1000
DSTYLE
1002
{
1070
   172
1070
     0
1070
   289
1070
     1
1070
    74
1070
     0
1070
   271
1070
     2
1070
   272
1070
     2
1070
    48
1040
0.0
1070
    47
1040
0.0
1002
}
  0
INSERT
  5
89E
330
6C
100
AcDbEntity
  8
0
100
AcDbBlockReference
 66
     1
  2
Tabelki rysunkowe Rzut
 10
8415.622859197148
 20
-751.8913797223119
 30
0.0
 41
70.0
 42
70.0
 43
70.0
  0
ATTRIB
  5
8A0
102
{ACAD_XDICTIONARY
360
8AE
102
}
330
89E
100
AcDbEntity
  8
Title (ISO)
100
AcDbText
 10
20907.19946280032
 20
517.7132315101673
 30
0.0
 40
175.0
  1
3200
  7
Note Text (ISO)
100
AcDbAttribute
  2
Numer_katalogowy_001
 70
     0
  0
ATTRIB
  5
8A1
102
{ACAD_XDICTIONARY
360
8B1
102
}
330
89E
100
AcDbEntity
  8
Title (ISO)
100
AcDbText
 10
21744.37877778593
 20
27.71323151016736
 30
0.0
 40
175.0
  1
2021-01-22
  7
Note Text (ISO)
100
AcDbAttribute
  2
DATA_UTWORZENIA_001
 70
     0
  0
ATTRIB
  5
8A2
102
{ACAD_XDICTIONARY
360
8B4
102
}
330
89E
100
AcDbEntity
  8
Title (ISO)
100
AcDbText
 10
20911.90060449098
 20
236.044326323053
 30
0.0
 40
175.0
  1
Stół do tenisa stołowego do wkopania
  7
Note Text (ISO)
100
AcDbAttribute
  2
Nazwa_001
 70
     0
  0
SEQEND
  5
89F
330
89E
100
AcDbEntity
  8
0
  0
INSERT
  5
932
330
6C
100
AcDbEntity
  8
0
100
AcDbBlockReference
  2
3200_Stol-do-tenisa-stolowego
 10
24470.81775062408
 20
4402.927977305187
 30
0.0
  0
DIMENSION
  5
9C0
330
6C
100
AcDbEntity
  8
Dimension (ISO)
100
AcDbDimension
  2
*D13
 10
25838.31775062409
 20
3092.711043652867
 30
0.0
 11
24468.31775062409
 21
3092.711043652867
 31
0.0
 70
   160
  1
<>
 71
     2
 42
2740.0
  3
Default (ISO)
100
AcDbAlignedDimension
 13
23098.31775062409
 23
3652.927977305143
 33
0.0
 14
25838.31775062409
 24
3652.927977305142
 34
0.0
 50
180.0
100
AcDbRotatedDimension
1001
ACAD
1000
DSTYLE
1002
{
1070
   172
1070
     0
1070
   289
1070
     1
1070
    74
1070
     0
1070
   271
1070
     2
1070
   272
1070
     2
1070
    48
1040
0.0
1070
    47
1040
0.0
1002
}
  0
DIMENSION
  5
9C1
330
6C
100
AcDbEntity
  8
Dimension (ISO)
100
AcDbDimension
  2
*D14
 10
26368.98496965772
 20
5162.927977305141
 30
0.0
 11
26368.98496965772
 21
4402.927977305142
 31
0.0
 70
   160
  1
<>
 71
     2
 42
1519.999999999999
  3
Default (ISO)
100
AcDbAlignedDimension
 13
25828.31775062408
 23
3642.927977305142
 33
0.0
 14
25828.31775062408
 24
5162.927977305141
 34
0.0
 50
270.0
100
AcDbRotatedDimension
1001
ACAD
1000
DSTYLE
1002
{
1070
   172
1070
     0
1070
   289
1070
     1
1070
    74
1070
     0
1070
   271
1070
     2
1070
   272
1070
     2
1070
    48
1040
0.0
1070
    47
1040
0.0
1002
}
  0
ENDSEC
  0
SECTION
  2
OBJECTS
  0
DICTIONARY
  5
C
330
0
100
AcDbDictionary
281
     1
  3
ACAD_COLOR
350
63
  3
ACAD_GROUP
350
D
  3
ACAD_LAYOUT
350
62
  3
ACAD_MATERIAL
350
10
  3
ACAD_MLEADERSTYLE
350
66
  3
ACAD_MLINESTYLE
350
5F
  3
ACAD_PLOTSETTINGS
350
61
  3
ACAD_PLOTSTYLENAME
350
E
  3
ACAD_SCALELIST
350
42
  3
ACAD_TABLESTYLE
350
64
  3
ACAD_VISUALSTYLE
350
29
  3
ACDB_RECOMPOSE_DATA
350
A62
  3
AcDbVariableDictionary
350
8FA
  3
DWGPROPS
350
A63
  0
DICTIONARY
  5
8B9
330
8
100
AcDbDictionary
280
     1
281
     1
  0
DICTIONARY
  5
9DA
330
6C
100
AcDbDictionary
280
     1
281
     1
  3
ACAD_SORTENTS
360
9DB
  0
DICTIONARY
  5
A2A
330
90F
100
AcDbDictionary
280
     1
281
     1
  0
DICTIONARY
  5
8A5
330
89A
100
AcDbDictionary
280
     1
281
     1
  3
ACAD_MLATT
360
A57
  3
ACAD_XREC_ROUNDTRIP
360
A56
  0
DICTIONARY
  5
8A8
330
89C
100
AcDbDictionary
280
     1
281
     1
  3
ACAD_MLATT
360
A59
  3
ACAD_XREC_ROUNDTRIP
360
A58
  0
DICTIONARY
  5
8AB
330
89D
100
AcDbDictionary
280
     1
281
     1
  3
ACAD_MLATT
360
A5B
  3
ACAD_XREC_ROUNDTRIP
360
A5A
  0
DICTIONARY
  5
8AE
330
8A0
100
AcDbDictionary
280
     1
281
     1
  3
ACAD_MLATT
360
A5D
  3
ACAD_XREC_ROUNDTRIP
360
A5C
  0
DICTIONARY
  5
8B1
330
8A1
100
AcDbDictionary
280
     1
281
     1
  3
ACAD_MLATT
360
A5F
  3
ACAD_XREC_ROUNDTRIP
360
A5E
  0
DICTIONARY
  5
8B4
330
8A2
100
AcDbDictionary
280
     1
281
     1
  3
ACAD_MLATT
360
A61
  3
ACAD_XREC_ROUNDTRIP
360
A60
  0
DICTIONARY
  5
63
102
{ACAD_REACTORS
330
C
102
}
330
C
100
AcDbDictionary
281
     1
  0
DICTIONARY
  5
D
102
{ACAD_REACTORS
330
C
102
}
330
C
100
AcDbDictionary
281
     1
  0
DICTIONARY
  5
62
102
{ACAD_REACTORS
330
C
102
}
330
C
100
AcDbDictionary
281
     1
  3
Layout1
350
6B
  3
Layout2
350
73
  3
Model
350
6F
  0
DICTIONARY
  5
10
102
{ACAD_REACTORS
330
C
102
}
330
C
100
AcDbDictionary
281
     1
  3
ByBlock
350
19
  3
ByLayer
350
11
  3
Global
350
21
  0
DICTIONARY
  5
66
102
{ACAD_REACTORS
330
C
102
}
330
C
100
AcDbDictionary
281
     1
  3
Standard
350
67
  0
DICTIONARY
  5
5F
102
{ACAD_REACTORS
330
C
102
}
330
C
100
AcDbDictionary
281
     1
  3
Standard
350
60
  0
DICTIONARY
  5
61
102
{ACAD_REACTORS
330
C
102
}
330
C
100
AcDbDictionary
281
     1
  0
ACDBDICTIONARYWDFLT
  5
E
102
{ACAD_REACTORS
330
C
102
}
330
C
100
AcDbDictionary
281
     1
  3
Normal
350
F
100
AcDbDictionaryWithDefault
340
F
  0
DICTIONARY
  5
42
102
{ACAD_REACTORS
330
C
102
}
330
C
100
AcDbDictionary
281
     1
  3
A0
350
43
  3
A1
350
44
  3
A2
350
45
  3
A3
350
46
  3
A4
350
47
  3
A5
350
48
  3
A6
350
49
  3
A7
350
4A
  3
A8
350
4B
  3
A9
350
4C
  3
B0
350
4D
  3
B1
350
4E
  3
B2
350
4F
  3
B3
350
50
  3
B4
350
51
  3
B5
350
52
  3
B6
350
53
  0
DICTIONARY
  5
64
102
{ACAD_REACTORS
330
C
102
}
330
C
100
AcDbDictionary
281
     1
  3
Standard
350
65
  0
DICTIONARY
  5
29
102
{ACAD_REACTORS
330
C
102
}
330
C
100
AcDbDictionary
281
     1
  3
2dWireframe
350
2F
  3
Basic
350
2E
  3
Brighten
350
35
  3
ColorChange
350
39
  3
Conceptual
350
32
  3
Dim
350
34
  3
EdgeColorOff
350
41
  3
Facepattern
350
38
  3
Flat
350
2A
  3
FlatWithEdges
350
2B
  3
Gouraud
350
2C
  3
GouraudWithEdges
350
2D
  3
Hidden
350
31
  3
JitterOff
350
3F
  3
Linepattern
350
37
  3
OverhangOff
350
40
  3
Realistic
350
33
  3
Shaded
350
3E
  3
Shaded with edges
350
3D
  3
Shades of Gray
350
3A
  3
Sketchy
350
3B
  3
Thicken
350
36
  3
Wireframe
350
30
  3
X-Ray
350
3C
  0
XRECORD
  5
A62
102
{ACAD_REACTORS
330
C
102
}
330
C
100
AcDbXrecord
280
     1
 90
        1
330
65
330
89A
330
89C
330
89D
330
8A0
330
8A1
330
8A2
  0
DICTIONARY
  5
8FA
102
{ACAD_REACTORS
330
C
102
}
330
C
100
AcDbDictionary
281
     1
  3
CANNOSCALE
350
8FE
  3
CMLEADERSTYLE
350
8FC
  3
CTABLESTYLE
350
8FB
  3
DIMASSOC
350
905
  3
HIDETEXT
350
904
  3
INDEXCTL
350
903
  3
LAYEREVAL
350
900
  3
LAYERNOTIFY
350
901
  3
LIGHTINGUNITS
350
8FF
  3
MSLTSCALE
350
8FD
  3
SORTENTS
350
902
  3
XCLIPFRAME
350
A54
  0
XRECORD
  5
A63
102
{ACAD_REACTORS
330
C
102
}
330
C
100
AcDbXrecord
280
     1
  1
DWGPROPS COOKIE
  2

  3

  4
Maruszak Marcin
  6

  7

  8
Natalia
  9
v1
300
Menadżer=
301
Firma=Muller Jelcz-Laskowice Sp.z o.o.
302
Kategoria=
303
Numer części=
304
Opis=
305
Projekt=
306
Projektant=Maruszak Marcin
307
Inżynier=Maruszak Marcin
308
Zatwierdził=Ośkiewicz Ryszard
309
Centrum kosztów=
 40
0.0017745138888889
 41
2459237.341137072
 42
2459237.345180891
  1
WWW.MULLER.COM.PL
 90
       19
300
Dostawca=
300
Stan użytkownika=
300
Stan projektu=PracaWToku
300
Sprawdził=
300
Zatwierdził konstrukcję=
300
Zatwierdził do produkcji=
300
Kolor=szary
300
Stanowisko=Ploter
300
mat.=
  0
SORTENTSTABLE
  5
9DB
102
{ACAD_REACTORS
330
9DA
102
}
330
9DA
100
AcDbSortentsTable
330
6C
331
932
  5
932
331
202
  5
202
331
1F1
  5
1F1
331
1E7
  5
1E7
331
1D6
  5
1D6
331
1C5
  5
1C5
331
1B4
  5
1B4
331
1A3
  5
1A3
331
192
  5
192
331
181
  5
181
331
9C0
  5
9C0
331
203
  5
203
331
1F2
  5
1F2
331
1D7
  5
1D7
331
1C6
  5
1C6
331
1B5
  5
1B5
331
1A4
  5
1A4
331
193
  5
193
331
182
  5
182
331
9C1
  5
9C1
331
204
  5
204
331
1F3
  5
1F3
331
1D8
  5
1D8
331
1C7
  5
1C7
331
1B6
  5
1B6
331
1A5
  5
1A5
331
194
  5
194
331
183
  5
183
331
172
  5
172
331
205
  5
205
331
1F4
  5
1F4
331
1D9
  5
1D9
331
1C8
  5
1C8
331
1B7
  5
1B7
331
1A6
  5
1A6
331
195
  5
195
331
184
  5
184
331
173
  5
173
331
206
  5
206
331
1F5
  5
1F5
331
1DA
  5
1DA
331
1C9
  5
1C9
331
1B8
  5
1B8
331
1A7
  5
1A7
331
196
  5
196
331
185
  5
185
331
174
  5
174
331
207
  5
207
331
1F6
  5
1F6
331
1DB
  5
1DB
331
1CA
  5
1CA
331
1B9
  5
1B9
331
1A8
  5
1A8
331
197
  5
197
331
186
  5
186
331
175
  5
175
331
208
  5
208
331
4DF
  5
4DF
331
1F7
  5
1F7
331
1DC
  5
1DC
331
1CB
  5
1CB
331
1BA
  5
1BA
331
1A9
  5
1A9
331
198
  5
198
331
187
  5
187
331
176
  5
176
331
7B1
  5
7B1
331
209
  5
209
331
1F8
  5
1F8
331
1DD
  5
1DD
331
1CC
  5
1CC
331
1BB
  5
1BB
331
1AA
  5
1AA
331
199
  5
199
331
188
  5
188
331
177
  5
177
331
3F8
  5
3F8
331
20A
  5
20A
331
1F9
  5
1F9
331
1E8
  5
1E8
331
1DE
  5
1DE
331
1CD
  5
1CD
331
1BC
  5
1BC
331
1AB
  5
1AB
331
19A
  5
19A
331
189
  5
189
331
178
  5
178
331
5E2
  5
5E2
331
20B
  5
20B
331
1FA
  5
1FA
331
1E9
  5
1E9
331
89E
  5
89E
331
1DF
  5
1DF
331
1CE
  5
1CE
331
1BD
  5
1BD
331
1AC
  5
1AC
331
19B
  5
19B
331
18A
  5
18A
331
179
  5
179
331
20C
  5
20C
331
1FB
  5
1FB
331
1EA
  5
1EA
331
1E0
  5
1E0
331
1CF
  5
1CF
331
1BE
  5
1BE
331
1AD
  5
1AD
331
19C
  5
19C
331
18B
  5
18B
331
17A
  5
17A
331
20D
  5
20D
331
1FC
  5
1FC
331
1EB
  5
1EB
331
1E1
  5
1E1
331
1D0
  5
1D0
331
1BF
  5
1BF
331
1AE
  5
1AE
331
19D
  5
19D
331
18C
  5
18C
331
17B
  5
17B
331
20E
  5
20E
331
1FD
  5
1FD
331
1EC
  5
1EC
331
1E2
  5
1E2
331
1D1
  5
1D1
331
1C0
  5
1C0
331
1AF
  5
1AF
331
19E
  5
19E
331
18D
  5
18D
331
17C
  5
17C
331
1FE
  5
1FE
331
1ED
  5
1ED
331
1E3
  5
1E3
331
1D2
  5
1D2
331
1C1
  5
1C1
331
1B0
  5
1B0
331
19F
  5
19F
331
18E
  5
18E
331
17D
  5
17D
331
1FF
  5
1FF
331
1EE
  5
1EE
331
1E4
  5
1E4
331
1D3
  5
1D3
331
1C2
  5
1C2
331
1B1
  5
1B1
331
1A0
  5
1A0
331
18F
  5
18F
331
17E
  5
17E
331
200
  5
200
331
1EF
  5
1EF
331
1E5
  5
1E5
331
1D4
  5
1D4
331
1C3
  5
1C3
331
1B2
  5
1B2
331
1A1
  5
1A1
331
190
  5
190
331
17F
  5
17F
331
6C9
  5
6C9
331
201
  5
201
331
1F0
  5
1F0
331
1E6
  5
1E6
331
1D5
  5
1D5
331
1C4
  5
1C4
331
1B3
  5
1B3
331
1A2
  5
1A2
331
191
  5
191
331
180
  5
180
  0
XRECORD
  5
A57
102
{ACAD_REACTORS
330
8A5
102
}
330
8A5
100
AcDbXrecord
280
     1
 70
     4
 70
     0
 70
     0
 40
1.0
  2
Numer_katalogowy
  1
Embedded Object
 10
178.613955317712
 20
20.68925708649297
 30
0.0
 40
2.5
 41
39.63119806127143
 46
0.0
 71
     1
 72
     5
  1
3200
  7
Note Text (ISO)
 73
     1
 44
1.0
  0
XRECORD
  5
A56
102
{ACAD_REACTORS
330
8A5
102
}
330
8A5
100
AcDbXrecord
280
     1
102
ACAD_MATT_HEIGHT
140
2.5
  0
XRECORD
  5
A59
102
{ACAD_REACTORS
330
8A8
102
}
330
8A8
100
AcDbXrecord
280
     1
 70
     4
 70
     0
 70
     0
 40
1.0
  2
DATA_UTWORZENIA
  1
Embedded Object
 10
190.5938075676742
 20
13.68925708649296
 30
0.0
 40
2.5
 41
40.52963831958745
 46
0.0
 71
     1
 72
     5
  1
2021-01-22
  7
Note Text (ISO)
 73
     1
 44
1.0
  0
XRECORD
  5
A58
102
{ACAD_REACTORS
330
8A8
102
}
330
8A8
100
AcDbXrecord
280
     1
102
ACAD_MATT_HEIGHT
140
2.5
  0
XRECORD
  5
A5B
102
{ACAD_REACTORS
330
8AB
102
}
330
8AB
100
AcDbXrecord
280
     1
 70
     4
 70
     0
 70
     0
 40
1.0
  2
Nazwa
  1
Embedded Object
 10
178.6475349011082
 20
16.92733633600257
 30
0.0
 40
2.5
 41
130.6981294552399
 46
0.0
 71
     1
 72
     5
  1
Stół do tenisa stołowego do wkopania
  7
Note Text (ISO)
 73
     1
 44
1.0
  0
XRECORD
  5
A5A
102
{ACAD_REACTORS
330
8AB
102
}
330
8AB
100
AcDbXrecord
280
     1
102
ACAD_MATT_HEIGHT
140
2.5
  0
XRECORD
  5
A5D
102
{ACAD_REACTORS
330
8AE
102
}
330
8AE
100
AcDbXrecord
280
     1
 70
     2
 70
     0
 70
     0
 40
1.0
  2
Numer_katalogowy
  1
Embedded Object
 10
20918.59973143699
 20
696.3566163321956
 30
0.0
 40
175.0
 41
2774.183864289
 46
0.0
 71
     1
 72
     5
  1
3200
  7
Note Text (ISO)
 73
     1
 44
1.0
  0
XRECORD
  5
A5C
102
{ACAD_REACTORS
330
8AE
102
}
330
8AE
100
AcDbXrecord
280
     1
102
ACAD_MATT_HEIGHT
140
175.0
  0
XRECORD
  5
A5F
102
{ACAD_REACTORS
330
8B1
102
}
330
8B1
100
AcDbXrecord
280
     1
 70
     2
 70
     0
 70
     0
 40
1.0
  2
DATA_UTWORZENIA
  1
Embedded Object
 10
21757.18938893435
 20
206.3566163321956
 30
0.0
 40
175.0
 41
2837.074682371122
 46
0.0
 71
     1
 72
     5
  1
2021-01-22
  7
Note Text (ISO)
 73
     1
 44
1.0
  0
XRECORD
  5
A5E
102
{ACAD_REACTORS
330
8B1
102
}
330
8B1
100
AcDbXrecord
280
     1
102
ACAD_MATT_HEIGHT
140
175.0
  0
XRECORD
  5
A61
102
{ACAD_REACTORS
330
8B4
102
}
330
8B4
100
AcDbXrecord
280
     1
 70
     2
 70
     0
 70
     0
 40
1.0
  2
Nazwa
  1
Embedded Object
 10
20920.95030227473
 20
433.0221637978683
 30
0.0
 40
175.0
 41
9148.8690618668
 46
0.0
 71
     1
 72
     5
  1
Stół do tenisa stołowego do wkopania
  7
Note Text (ISO)
 73
     1
 44
1.0
  0
XRECORD
  5
A60
102
{ACAD_REACTORS
330
8B4
102
}
330
8B4
100
AcDbXrecord
280
     1
102
ACAD_MATT_HEIGHT
140
175.0
  0
LAYOUT
  5
6B
102
{ACAD_XDICTIONARY
360
A95
102
}
102
{ACAD_REACTORS
330
62
102
}
330
62
100
AcDbPlotSettings
  1

  2

  4

  6

 40
0.0
 41
0.0
 42
0.0
 43
0.0
 44
0.0
 45
0.0
 46
0.0
 47
0.0
 48
0.0
 49
0.0
140
0.0
141
0.0
142
1.0
143
1.0
 70
   688
 72
     0
 73
     0
 74
     5
  7

 75
    16
147
1.0
148
0.0
149
0.0
100
AcDbLayout
  1
Layout1
 70
     1
 71
     1
 10
0.0
 20
0.0
 11
20790.0
 21
14700.0
 12
0.0
 22
0.0
 32
0.0
 14
0.0
 24
0.0
 34
0.0
 15
20790.0
 25
14700.0
 35
0.0
146
0.0
 13
0.0
 23
0.0
 33
0.0
 16
1.0
 26
0.0
 36
0.0
 17
0.0
 27
1.0
 37
0.0
 76
     0
330
68
  0
LAYOUT
  5
73
102
{ACAD_XDICTIONARY
360
A99
102
}
102
{ACAD_REACTORS
330
62
102
}
330
62
100
AcDbPlotSettings
  1

  2

  4

  6

 40
0.0
 41
0.0
 42
0.0
 43
0.0
 44
0.0
 45
0.0
 46
0.0
 47
0.0
 48
0.0
 49
0.0
140
0.0
141
0.0
142
1.0
143
1.0
 70
   688
 72
     0
 73
     0
 74
     5
  7

 75
    16
147
1.0
148
0.0
149
0.0
100
AcDbLayout
  1
Layout2
 70
     1
 71
     2
 10
0.0
 20
0.0
 11
12.0
 21
9.0
 12
0.0
 22
0.0
 32
0.0
 14
0.0
 24
0.0
 34
0.0
 15
0.0
 25
0.0
 35
0.0
146
0.0
 13
0.0
 23
0.0
 33
0.0
 16
1.0
 26
0.0
 36
0.0
 17
0.0
 27
1.0
 37
0.0
 76
     0
330
70
  0
LAYOUT
  5
6F
102
{ACAD_XDICTIONARY
360
A97
102
}
102
{ACAD_REACTORS
330
62
102
}
330
62
100
AcDbPlotSettings
  1

  2

  4

  6

 40
0.0
 41
0.0
 42
0.0
 43
0.0
 44
0.0
 45
0.0
 46
0.0
 47
0.0
 48
0.0
 49
0.0
140
0.0
141
0.0
142
1.0
143
1.0
 70
  1712
 72
     0
 73
     0
 74
     0
  7

 75
     0
147
1.0
148
0.0
149
0.0
100
AcDbLayout
  1
Model
 70
     1
 71
     0
 10
0.0
 20
0.0
 11
12.0
 21
9.0
 12
0.0
 22
0.0
 32
0.0
 14
0.0
 24
0.0
 34
0.0
 15
0.0
 25
0.0
 35
0.0
146
0.0
 13
0.0
 23
0.0
 33
0.0
 16
1.0
 26
0.0
 36
0.0
 17
0.0
 27
1.0
 37
0.0
 76
     0
330
6C
331
57
  0
MATERIAL
  5
19
102
{ACAD_XDICTIONARY
360
1A
102
}
102
{ACAD_REACTORS
330
10
102
}
330
10
100
AcDbMaterial
  1
ByBlock
 72
     0
 43
0.0208333333333333
 43
0.0
 43
0.0
 43
0.0
 43
0.0
 43
0.0208333333333333
 43
0.0
 43
0.0
 43
0.0
 43
0.0
 43
1.0
 43
0.0
 43
0.0
 43
0.0
 43
0.0
 43
1.0
 77
     0
 47
0.0208333333333333
 47
0.0
 47
0.0
 47
0.0
 47
0.0
 47
0.0208333333333333
 47
0.0
 47
0.0
 47
0.0
 47
0.0
 47
1.0
 47
0.0
 47
0.0
 47
0.0
 47
0.0
 47
1.0
171
     0
 49
0.0208333333333333
 49
0.0
 49
0.0
 49
0.0
 49
0.0
 49
0.0208333333333333
 49
0.0
 49
0.0
 49
0.0
 49
0.0
 49
1.0
 49
0.0
 49
0.0
 49
0.0
 49
0.0
 49
1.0
175
     0
142
0.0208333333333333
142
0.0
142
0.0
142
0.0
142
0.0
142
0.0208333333333333
142
0.0
142
0.0
142
0.0
142
0.0
142
1.0
142
0.0
142
0.0
142
0.0
142
0.0
142
1.0
179
     0
144
0.0208333333333333
144
0.0
144
0.0
144
0.0
144
0.0
144
0.0208333333333333
144
0.0
144
0.0
144
0.0
144
0.0
144
1.0
144
0.0
144
0.0
144
0.0
144
0.0
144
1.0
147
0.0208333333333333
147
0.0
147
0.0
147
0.0
147
0.0
147
0.0208333333333333
147
0.0
147
0.0
147
0.0
147
0.0
147
1.0
147
0.0
147
0.0
147
0.0
147
0.0
147
1.0
  0
MATERIAL
  5
11
102
{ACAD_XDICTIONARY
360
12
102
}
102
{ACAD_REACTORS
330
10
102
}
330
10
100
AcDbMaterial
  1
ByLayer
 72
     0
 43
0.0208333333333333
 43
0.0
 43
0.0
 43
0.0
 43
0.0
 43
0.0208333333333333
 43
0.0
 43
0.0
 43
0.0
 43
0.0
 43
1.0
 43
0.0
 43
0.0
 43
0.0
 43
0.0
 43
1.0
 77
     0
 47
0.0208333333333333
 47
0.0
 47
0.0
 47
0.0
 47
0.0
 47
0.0208333333333333
 47
0.0
 47
0.0
 47
0.0
 47
0.0
 47
1.0
 47
0.0
 47
0.0
 47
0.0
 47
0.0
 47
1.0
171
     0
 49
0.0208333333333333
 49
0.0
 49
0.0
 49
0.0
 49
0.0
 49
0.0208333333333333
 49
0.0
 49
0.0
 49
0.0
 49
0.0
 49
1.0
 49
0.0
 49
0.0
 49
0.0
 49
0.0
 49
1.0
175
     0
142
0.0208333333333333
142
0.0
142
0.0
142
0.0
142
0.0
142
0.0208333333333333
142
0.0
142
0.0
142
0.0
142
0.0
142
1.0
142
0.0
142
0.0
142
0.0
142
0.0
142
1.0
179
     0
144
0.0208333333333333
144
0.0
144
0.0
144
0.0
144
0.0
144
0.0208333333333333
144
0.0
144
0.0
144
0.0
144
0.0
144
1.0
144
0.0
144
0.0
144
0.0
144
0.0
144
1.0
147
0.0208333333333333
147
0.0
147
0.0
147
0.0
147
0.0
147
0.0208333333333333
147
0.0
147
0.0
147
0.0
147
0.0
147
1.0
147
0.0
147
0.0
147
0.0
147
0.0
147
1.0
  0
MATERIAL
  5
21
102
{ACAD_XDICTIONARY
360
22
102
}
102
{ACAD_REACTORS
330
10
102
}
330
10
100
AcDbMaterial
  1
Global
 72
     0
 43
0.0208333333333333
 43
0.0
 43
0.0
 43
0.0
 43
0.0
 43
0.0208333333333333
 43
0.0
 43
0.0
 43
0.0
 43
0.0
 43
1.0
 43
0.0
 43
0.0
 43
0.0
 43
0.0
 43
1.0
 77
     0
 47
0.0208333333333333
 47
0.0
 47
0.0
 47
0.0
 47
0.0
 47
0.0208333333333333
 47
0.0
 47
0.0
 47
0.0
 47
0.0
 47
1.0
 47
0.0
 47
0.0
 47
0.0
 47
0.0
 47
1.0
171
     0
 49
0.0208333333333333
 49
0.0
 49
0.0
 49
0.0
 49
0.0
 49
0.0208333333333333
 49
0.0
 49
0.0
 49
0.0
 49
0.0
 49
1.0
 49
0.0
 49
0.0
 49
0.0
 49
0.0
 49
1.0
175
     0
142
0.0208333333333333
142
0.0
142
0.0
142
0.0
142
0.0
142
0.0208333333333333
142
0.0
142
0.0
142
0.0
142
0.0
142
1.0
142
0.0
142
0.0
142
0.0
142
0.0
142
1.0
179
     0
144
0.0208333333333333
144
0.0
144
0.0
144
0.0
144
0.0
144
0.0208333333333333
144
0.0
144
0.0
144
0.0
144
0.0
144
1.0
144
0.0
144
0.0
144
0.0
144
0.0
144
1.0
147
0.0208333333333333
147
0.0
147
0.0
147
0.0
147
0.0
147
0.0208333333333333
147
0.0
147
0.0
147
0.0
147
0.0
147
1.0
147
0.0
147
0.0
147
0.0
147
0.0
147
1.0
  0
MLEADERSTYLE
  5
67
102
{ACAD_REACTORS
330
66
102
}
330
66
100
AcDbMLeaderStyle
170
     2
171
     1
172
     0
 90
        2
 40
0.0
 41
0.0
173
     1
 91
-1056964608
340
5B
 92
       -2
290
     1
 42
0.09
291
     1
 43
0.36
  3
Standard
 44
0.18
300

342
55
174
     1
178
     6
175
     1
176
     0
 93
-1056964608
 45
0.18
292
     0
297
     0
 46
0.18
 94
-1056964608
 47
1.0
 49
1.0
140
1.0
293
     1
141
0.0
294
     1
177
     0
142
1.0
295
     0
296
     0
143
0.125
1001
ACAD_MLEADERVER
1070
     2
  0
MLINESTYLE
  5
60
102
{ACAD_REACTORS
330
5F
102
}
330
5F
100
AcDbMlineStyle
  2
STANDARD
 70
     0
  3

 62
   256
 51
90.0
 52
90.0
 71
     2
 49
0.5
 62
   256
  6
BYLAYER
 49
-0.5
 62
   256
  6
BYLAYER
  0
ACDBPLACEHOLDER
  5
F
102
{ACAD_REACTORS
330
E
102
}
330
E
  0
SCALE
  5
43
102
{ACAD_REACTORS
330
42
102
}
330
42
100
AcDbScale
 70
     0
300
1:1
140
1.0
141
1.0
290
     1
  0
SCALE
  5
44
102
{ACAD_REACTORS
330
42
102
}
330
42
100
AcDbScale
 70
     0
300
1/128" = 1'-0"
140
0.0078125
141
12.0
290
     0
  0
SCALE
  5
45
102
{ACAD_REACTORS
330
42
102
}
330
42
100
AcDbScale
 70
     0
300
1/64" = 1'-0"
140
0.015625
141
12.0
290
     0
  0
SCALE
  5
46
102
{ACAD_REACTORS
330
42
102
}
330
42
100
AcDbScale
 70
     0
300
1/32" = 1'-0"
140
0.03125
141
12.0
290
     0
  0
SCALE
  5
47
102
{ACAD_REACTORS
330
42
102
}
330
42
100
AcDbScale
 70
     0
300
1/16" = 1'-0"
140
0.0625
141
12.0
290
     0
  0
SCALE
  5
48
102
{ACAD_REACTORS
330
42
102
}
330
42
100
AcDbScale
 70
     0
300
3/32" = 1'-0"
140
0.09375
141
12.0
290
     0
  0
SCALE
  5
49
102
{ACAD_REACTORS
330
42
102
}
330
42
100
AcDbScale
 70
     0
300
1/8" = 1'-0"
140
0.125
141
12.0
290
     0
  0
SCALE
  5
4A
102
{ACAD_REACTORS
330
42
102
}
330
42
100
AcDbScale
 70
     0
300
3/16" = 1'-0"
140
0.1875
141
12.0
290
     0
  0
SCALE
  5
4B
102
{ACAD_REACTORS
330
42
102
}
330
42
100
AcDbScale
 70
     0
300
1/4" = 1'-0"
140
0.25
141
12.0
290
     0
  0
SCALE
  5
4C
102
{ACAD_REACTORS
330
42
102
}
330
42
100
AcDbScale
 70
     0
300
3/8" = 1'-0"
140
0.375
141
12.0
290
     0
  0
SCALE
  5
4D
102
{ACAD_REACTORS
330
42
102
}
330
42
100
AcDbScale
 70
     0
300
1/2" = 1'-0"
140
0.5
141
12.0
290
     0
  0
SCALE
  5
4E
102
{ACAD_REACTORS
330
42
102
}
330
42
100
AcDbScale
 70
     0
300
3/4" = 1'-0"
140
0.75
141
12.0
290
     0
  0
SCALE
  5
4F
102
{ACAD_REACTORS
330
42
102
}
330
42
100
AcDbScale
 70
     0
300
1" = 1'-0"
140
1.0
141
12.0
290
     0
  0
SCALE
  5
50
102
{ACAD_REACTORS
330
42
102
}
330
42
100
AcDbScale
 70
     0
300
1-1/2" = 1'-0"
140
1.5
141
12.0
290
     0
  0
SCALE
  5
51
102
{ACAD_REACTORS
330
42
102
}
330
42
100
AcDbScale
 70
     0
300
3" = 1'-0"
140
3.0
141
12.0
290
     0
  0
SCALE
  5
52
102
{ACAD_REACTORS
330
42
102
}
330
42
100
AcDbScale
 70
     0
300
6" = 1'-0"
140
6.0
141
12.0
290
     0
  0
SCALE
  5
53
102
{ACAD_REACTORS
330
42
102
}
330
42
100
AcDbScale
 70
     0
300
1'-0" = 1'-0"
140
12.0
141
12.0
290
     0
  0
TABLESTYLE
  5
65
102
{ACAD_XDICTIONARY
360
8A3
102
}
102
{ACAD_REACTORS
330
64
102
}
330
64
100
AcDbTableStyle
  3
Standard
 70
     0
 71
     0
 40
0.06
 41
0.06
280
     0
281
     0
  7
Standard
140
0.18
170
     2
 62
     0
 63
     7
283
     0
274
    -2
284
     1
 64
     0
275
    -2
285
     1
 65
     0
276
    -2
286
     1
 66
     0
277
    -2
287
     1
 67
     0
278
    -2
288
     1
 68
     0
279
    -2
289
     1
 69
     0
  7
Standard
140
0.25
170
     5
 62
     0
 63
     7
283
     0
274
    -2
284
     1
 64
     0
275
    -2
285
     1
 65
     0
276
    -2
286
     1
 66
     0
277
    -2
287
     1
 67
     0
278
    -2
288
     1
 68
     0
279
    -2
289
     1
 69
     0
  7
Standard
140
0.18
170
     5
 62
     0
 63
     7
283
     0
274
    -2
284
     1
 64
     0
275
    -2
285
     1
 65
     0
276
    -2
286
     1
 66
     0
277
    -2
287
     1
 67
     0
278
    -2
288
     1
 68
     0
279
    -2
289
     1
 69
     0
  0
VISUALSTYLE
  5
2F
102
{ACAD_XDICTIONARY
360
A6E
102
}
102
{ACAD_REACTORS
330
29
102
}
330
29
100
AcDbVisualStyle
  2

 70
     4
 71
     0
 72
     2
 73
     0
 90
        0
 40
-0.6
 41
-30.0
 62
     5
 63
     7
 74
     1
 91
        4
 64
     7
 65
   257
 75
     1
175
     1
 42
1.0
 92
        0
 66
   257
 43
1.0
 76
     1
 77
     6
 78
     2
 67
     7
 79
     5
170
     0
171
     0
290
     0
174
     0
 93
        1
 44
0.0
173
     0
291
     0
 45
0.0
1001
ACAD
1000
AcDbSavedByObjectVersion
1070
     0
  0
VISUALSTYLE
  5
2E
102
{ACAD_XDICTIONARY
360
A6C
102
}
102
{ACAD_REACTORS
330
29
102
}
330
29
100
AcDbVisualStyle
  2

 70
     7
 71
     1
 72
     0
 73
     1
 90
        0
 40
-0.6
 41
-30.0
 62
     5
 63
     7
 74
     0
 91
        4
 64
     7
 65
   257
 75
     1
175
     1
 42
1.0
 92
        8
 66
     7
 43
1.0
 76
     1
 77
     6
 78
     2
 67
     7
 79
     5
170
     0
171
     0
290
     0
174
     0
 93
        1
 44
0.0
173
     0
291
     1
 45
0.0
1001
ACAD
1000
AcDbSavedByObjectVersion
1070
     0
  0
VISUALSTYLE
  5
35
102
{ACAD_XDICTIONARY
360
A7A
102
}
102
{ACAD_REACTORS
330
29
102
}
330
29
100
AcDbVisualStyle
  2

 70
    12
 71
     2
 72
     2
 73
     0
 90
        0
 40
-0.6
 41
-30.0
 62
     5
 63
     7
 74
     1
 91
        4
 64
     7
 65
   257
 75
     1
175
     1
 42
1.0
 92
        8
 66
     7
 43
1.0
 76
     1
 77
     6
 78
     2
 67
     7
 79
     5
170
     0
171
     0
290
     0
174
     0
 93
        1
 44
50.0
173
     0
291
     1
 45
0.0
1001
ACAD
1000
AcDbSavedByObjectVersion
1070
     0
  0
VISUALSTYLE
  5
39
102
{ACAD_XDICTIONARY
360
A82
102
}
102
{ACAD_REACTORS
330
29
102
}
330
29
100
AcDbVisualStyle
  2

 70
    16
 71
     2
 72
     2
 73
     3
 90
        0
 40
-0.6
 41
-30.0
 62
     5
 63
     8
 74
     1
 91
        4
 64
     7
 65
   257
 75
     1
175
     1
 42
1.0
 92
        8
 66
     8
 43
1.0
 76
     1
 77
     6
 78
     2
 67
     7
 79
     5
170
     0
171
     0
290
     0
174
     0
 93
        1
 44
0.0
173
     0
291
     1
 45
0.0
1001
ACAD
1000
AcDbSavedByObjectVersion
1070
     0
  0
VISUALSTYLE
  5
32
102
{ACAD_XDICTIONARY
360
A74
102
}
102
{ACAD_REACTORS
330
29
102
}
330
29
100
AcDbVisualStyle
  2

 70
     9
 71
     3
 72
     2
 73
     0
 90
        0
 40
-0.6
 41
-30.0
 62
     5
 63
     7
 74
     2
 91
        2
 64
     7
 65
   257
 75
     1
175
     1
 42
179.0
 92
        8
 66
     7
 43
1.0
 76
     1
 77
     6
 78
     2
 67
     7
 79
     3
170
     0
171
     0
290
     0
174
     0
 93
        1
 44
0.0
173
     0
291
     0
 45
0.0
1001
ACAD
1000
AcDbSavedByObjectVersion
1070
     0
  0
VISUALSTYLE
  5
34
102
{ACAD_XDICTIONARY
360
A78
102
}
102
{ACAD_REACTORS
330
29
102
}
330
29
100
AcDbVisualStyle
  2

 70
    11
 71
     2
 72
     2
 73
     0
 90
        0
 40
-0.6
 41
-30.0
 62
     5
 63
     7
 74
     1
 91
        4
 64
     7
 65
   257
 75
     1
175
     1
 42
1.0
 92
        8
 66
     7
 43
1.0
 76
     1
 77
     6
 78
     2
 67
     7
 79
     5
170
     0
171
     0
290
     0
174
     0
 93
        1
 44
-50.0
173
     0
291
     1
 45
0.0
1001
ACAD
1000
AcDbSavedByObjectVersion
1070
     0
  0
VISUALSTYLE
  5
41
102
{ACAD_XDICTIONARY
360
A92
102
}
102
{ACAD_REACTORS
330
29
102
}
330
29
100
AcDbVisualStyle
  2

 70
    22
 71
     2
 72
     2
 73
     0
 90
        0
 40
-0.6
 41
-30.0
 62
     5
 63
     7
 74
     1
 91
        4
 64
     7
 65
   257
 75
     1
175
     1
 42
1.0
 92
        8
 66
     7
 43
1.0
 76
     1
 77
     6
 78
     2
 67
     7
 79
     5
170
     0
171
     0
290
     0
174
     0
 93
        1
 44
0.0
173
     0
291
     1
 45
0.0
1001
ACAD
1000
AcDbSavedByObjectVersion
1070
     0
  0
VISUALSTYLE
  5
38
102
{ACAD_XDICTIONARY
360
A80
102
}
102
{ACAD_REACTORS
330
29
102
}
330
29
100
AcDbVisualStyle
  2

 70
    15
 71
     2
 72
     2
 73
     0
 90
        0
 40
-0.6
 41
-30.0
 62
     5
 63
     7
 74
     1
 91
        4
 64
     7
 65
   257
 75
     1
175
     1
 42
1.0
 92
        8
 66
     7
 43
1.0
 76
     1
 77
     6
 78
     2
 67
     7
 79
     5
170
     0
171
     0
290
     0
174
     0
 93
        1
 44
0.0
173
     0
291
     1
 45
0.0
1001
ACAD
1000
AcDbSavedByObjectVersion
1070
     0
  0
VISUALSTYLE
  5
2A
102
{ACAD_XDICTIONARY
360
A64
102
}
102
{ACAD_REACTORS
330
29
102
}
330
29
100
AcDbVisualStyle
  2

 70
     0
 71
     2
 72
     1
 73
     1
 90
        2
 40
-0.6
 41
30.0
 62
     5
 63
     7
 74
     0
 91
        0
 64
     7
 65
   257
 75
     1
175
     1
 42
1.0
 92
        8
 66
     7
 43
1.0
 76
     1
 77
     6
 78
     2
 67
     7
 79
     5
170
     0
171
     0
290
     0
174
     0
 93
       13
 44
0.0
173
     0
291
     1
 45
0.0
1001
ACAD
1000
AcDbSavedByObjectVersion
1070
     0
  0
VISUALSTYLE
  5
2B
102
{ACAD_XDICTIONARY
360
A66
102
}
102
{ACAD_REACTORS
330
29
102
}
330
29
100
AcDbVisualStyle
  2

 70
     1
 71
     2
 72
     1
 73
     1
 90
        2
 40
-0.6
 41
30.0
 62
     5
 63
     7
 74
     1
 91
        0
 64
     7
 65
   257
 75
     1
175
     1
 42
1.0
 92
        0
 66
   257
 43
1.0
 76
     1
 77
     6
 78
     2
 67
     7
 79
     5
170
     0
171
     0
290
     0
174
     0
 93
       13
 44
0.0
173
     0
291
     1
 45
0.0
1001
ACAD
1000
AcDbSavedByObjectVersion
1070
     0
  0
VISUALSTYLE
  5
2C
102
{ACAD_XDICTIONARY
360
A68
102
}
102
{ACAD_REACTORS
330
29
102
}
330
29
100
AcDbVisualStyle
  2

 70
     2
 71
     2
 72
     2
 73
     1
 90
        2
 40
-0.6
 41
30.0
 62
     5
 63
     7
 74
     0
 91
        0
 64
     7
 65
   257
 75
     1
175
     1
 42
1.0
 92
        0
 66
     7
 43
1.0
 76
     1
 77
     6
 78
     2
 67
     7
 79
     5
170
     0
171
     0
290
     0
174
     0
 93
       13
 44
0.0
173
     0
291
     1
 45
0.0
1001
ACAD
1000
AcDbSavedByObjectVersion
1070
     0
  0
VISUALSTYLE
  5
2D
102
{ACAD_XDICTIONARY
360
A6A
102
}
102
{ACAD_REACTORS
330
29
102
}
330
29
100
AcDbVisualStyle
  2

 70
     3
 71
     2
 72
     2
 73
     1
 90
        2
 40
-0.6
 41
30.0
 62
     5
 63
     7
 74
     1
 91
        0
 64
     7
 65
   257
 75
     1
175
     1
 42
1.0
 92
        0
 66
   257
 43
1.0
 76
     1
 77
     6
 78
     2
 67
     7
 79
     5
170
     0
171
     0
290
     0
174
     0
 93
       13
 44
0.0
173
     0
291
     1
 45
0.0
1001
ACAD
1000
AcDbSavedByObjectVersion
1070
     0
  0
VISUALSTYLE
  5
31
102
{ACAD_XDICTIONARY
360
A72
102
}
102
{ACAD_REACTORS
330
29
102
}
330
29
100
AcDbVisualStyle
  2

 70
     6
 71
     1
 72
     2
 73
     2
 90
        0
 40
-0.6
 41
-30.0
 62
     5
 63
     7
 74
     2
 91
        2
 64
     7
 65
   257
 75
     2
175
     1
 42
40.0
 92
        0
 66
   257
 43
1.0
 76
     1
 77
     6
 78
     2
 67
     7
 79
     3
170
     0
171
     0
290
     0
174
     0
 93
        1
 44
0.0
173
     0
291
     0
 45
0.0
1001
ACAD
1000
AcDbSavedByObjectVersion
1070
     0
  0
VISUALSTYLE
  5
3F
102
{ACAD_XDICTIONARY
360
A8E
102
}
102
{ACAD_REACTORS
330
29
102
}
330
29
100
AcDbVisualStyle
  2

 70
    20
 71
     2
 72
     2
 73
     0
 90
        0
 40
-0.6
 41
-30.0
 62
     5
 63
     7
 74
     1
 91
        4
 64
     7
 65
   257
 75
     1
175
     1
 42
1.0
 92
       10
 66
     7
 43
1.0
 76
     1
 77
     6
 78
     2
 67
     7
 79
     5
170
     0
171
     0
290
     0
174
     0
 93
        1
 44
0.0
173
     0
291
     1
 45
0.0
1001
ACAD
1000
AcDbSavedByObjectVersion
1070
     0
  0
VISUALSTYLE
  5
37
102
{ACAD_XDICTIONARY
360
A7E
102
}
102
{ACAD_REACTORS
330
29
102
}
330
29
100
AcDbVisualStyle
  2

 70
    14
 71
     2
 72
     2
 73
     0
 90
        0
 40
-0.6
 41
-30.0
 62
     5
 63
     7
 74
     1
 91
        4
 64
     7
 65
   257
 75
     7
175
     7
 42
1.0
 92
        8
 66
     7
 43
1.0
 76
     1
 77
     6
 78
     2
 67
     7
 79
     5
170
     0
171
     0
290
     0
174
     0
 93
        1
 44
0.0
173
     0
291
     1
 45
0.0
1001
ACAD
1000
AcDbSavedByObjectVersion
1070
     0
  0
VISUALSTYLE
  5
40
102
{ACAD_XDICTIONARY
360
A90
102
}
102
{ACAD_REACTORS
330
29
102
}
330
29
100
AcDbVisualStyle
  2

 70
    21
 71
     2
 72
     2
 73
     0
 90
        0
 40
-0.6
 41
-30.0
 62
     5
 63
     7
 74
     1
 91
        4
 64
     7
 65
   257
 75
     1
175
     1
 42
1.0
 92
        9
 66
     7
 43
1.0
 76
     1
 77
     6
 78
     2
 67
     7
 79
     5
170
     0
171
     0
290
     0
174
     0
 93
        1
 44
0.0
173
     0
291
     1
 45
0.0
1001
ACAD
1000
AcDbSavedByObjectVersion
1070
     0
  0
VISUALSTYLE
  5
33
102
{ACAD_XDICTIONARY
360
A76
102
}
102
{ACAD_REACTORS
330
29
102
}
330
29
100
AcDbVisualStyle
  2

 70
     8
 71
     2
 72
     2
 73
     0
 90
        2
 40
-0.6
 41
30.0
 62
     5
 63
     7
 74
     0
 91
        0
 64
     7
 65
   257
 75
     1
175
     1
 42
1.0
 92
        8
 66
   257
 43
1.0
 76
     1
 77
     6
 78
     2
 67
     7
 79
     3
170
     0
171
     0
290
     0
174
     0
 93
       13
 44
0.0
173
     0
291
     0
 45
0.0
1001
ACAD
1000
AcDbSavedByObjectVersion
1070
     0
  0
VISUALSTYLE
  5
3E
102
{ACAD_XDICTIONARY
360
A8C
102
}
102
{ACAD_REACTORS
330
29
102
}
330
29
100
AcDbVisualStyle
  2

 70
    27
 71
     2
 72
     2
 73
     1
 90
        2
 40
-0.6
 41
30.0
 62
     5
 63
     7
 74
     0
 91
        4
 64
     7
 65
   257
 75
     1
175
     1
 42
1.0
 92
        8
 66
   257
 43
1.0
 76
     1
 77
     6
 78
     2
 67
     8
 79
     3
170
     0
171
     0
290
     0
174
     0
 93
        5
 44
0.0
173
     0
291
     0
 45
0.0
1001
ACAD
1000
AcDbSavedByObjectVersion
1070
     0
  0
VISUALSTYLE
  5
3D
102
{ACAD_XDICTIONARY
360
A8A
102
}
102
{ACAD_REACTORS
330
29
102
}
330
29
100
AcDbVisualStyle
  2

 70
    26
 71
     2
 72
     2
 73
     1
 90
        2
 40
-0.6
 41
30.0
 62
     5
 63
     7
 74
     1
 91
       10
 64
     7
 65
   257
 75
     2
175
     1
 42
1.0
 92
        8
 66
   257
 43
1.0
 76
     1
 77
     6
 78
     2
 67
     7
 79
     3
170
     0
171
     0
290
     0
174
     0
 93
        5
 44
0.0
173
     0
291
     0
 45
0.0
1001
ACAD
1000
AcDbSavedByObjectVersion
1070
     0
  0
VISUALSTYLE
  5
3A
102
{ACAD_XDICTIONARY
360
A84
102
}
102
{ACAD_REACTORS
330
29
102
}
330
29
100
AcDbVisualStyle
  2

 70
    23
 71
     2
 72
     2
 73
     3
 90
        0
 40
-0.6
 41
-30.0
 62
     5
 63
     7
 74
     2
 91
        2
 64
     7
 65
     7
 75
     1
175
     1
 42
40.0
 92
        8
 66
     7
 43
1.0
 76
     1
 77
     6
 78
     2
 67
     7
 79
     3
170
     0
171
     0
290
     0
174
     0
 93
        1
 44
0.0
173
     0
291
     0
 45
0.0
1001
ACAD
1000
AcDbSavedByObjectVersion
1070
     0
  0
VISUALSTYLE
  5
3B
102
{ACAD_XDICTIONARY
360
A86
102
}
102
{ACAD_REACTORS
330
29
102
}
330
29
100
AcDbVisualStyle
  2

 70
    24
 71
     1
 72
     2
 73
     2
 90
        0
 40
-0.6
 41
-30.0
 62
     5
 63
     7
 74
     2
 91
        2
 64
     7
 65
     7
 75
     1
175
     1
 42
40.0
 92
       11
 66
     7
 43
1.0
 76
     1
 77
     6
 78
     2
 67
     7
 79
     6
170
     0
171
     0
290
     0
174
     0
 93
        1
 44
0.0
173
     0
291
     0
 45
0.0
1001
ACAD
1000
AcDbSavedByObjectVersion
1070
     0
  0
VISUALSTYLE
  5
36
102
{ACAD_XDICTIONARY
360
A7C
102
}
102
{ACAD_REACTORS
330
29
102
}
330
29
100
AcDbVisualStyle
  2

 70
    13
 71
     2
 72
     2
 73
     0
 90
        0
 40
-0.6
 41
-30.0
 62
     5
 63
     7
 74
     1
 91
        4
 64
     7
 65
   257
 75
     1
175
     1
 42
1.0
 92
       12
 66
     7
 43
1.0
 76
     1
 77
     6
 78
     2
 67
     7
 79
     5
170
     0
171
     0
290
     0
174
     0
 93
        1
 44
0.0
173
     0
291
     1
 45
0.0
1001
ACAD
1000
AcDbSavedByObjectVersion
1070
     0
  0
VISUALSTYLE
  5
30
102
{ACAD_XDICTIONARY
360
A70
102
}
102
{ACAD_REACTORS
330
29
102
}
330
29
100
AcDbVisualStyle
  2

 70
     5
 71
     0
 72
     2
 73
     0
 90
        0
 40
-0.6
 41
-30.0
 62
     5
 63
     7
 74
     1
 91
        4
 64
     7
 65
   257
 75
     1
175
     1
 42
1.0
 92
        0
 66
   257
 43
1.0
 76
     1
 77
     6
 78
     2
 67
     7
 79
     3
170
     0
171
     0
290
     0
174
     0
 93
        1
 44
0.0
173
     0
291
     0
 45
0.0
1001
ACAD
1000
AcDbSavedByObjectVersion
1070
     0
  0
VISUALSTYLE
  5
3C
102
{ACAD_XDICTIONARY
360
A88
102
}
102
{ACAD_REACTORS
330
29
102
}
330
29
100
AcDbVisualStyle
  2

 70
    25
 71
     2
 72
     2
 73
     1
 90
        1
 40
0.5
 41
-30.0
 62
     5
 63
     7
 74
     1
 91
        0
 64
     7
 65
   257
 75
     1
175
     1
 42
1.0
 92
        8
 66
     7
 43
1.0
 76
     1
 77
     6
 78
     2
 67
     7
 79
     3
170
     0
171
     0
290
     0
174
     0
 93
       13
 44
0.0
173
     0
291
     0
 45
0.0
1001
ACAD
1000
AcDbSavedByObjectVersion
1070
     0
  0
DICTIONARYVAR
  5
8FE
102
{ACAD_REACTORS
330
8FA
102
}
330
8FA
100
DictionaryVariables
280
     0
  1
1:1
  0
DICTIONARYVAR
  5
8FC
102
{ACAD_REACTORS
330
8FA
102
}
330
8FA
100
DictionaryVariables
280
     0
  1
STANDARD
  0
DICTIONARYVAR
  5
8FB
102
{ACAD_REACTORS
330
8FA
102
}
330
8FA
100
DictionaryVariables
280
     0
  1
STANDARD
  0
DICTIONARYVAR
  5
905
102
{ACAD_REACTORS
330
8FA
102
}
330
8FA
100
DictionaryVariables
280
     0
  1
1
  0
DICTIONARYVAR
  5
904
102
{ACAD_REACTORS
330
8FA
102
}
330
8FA
100
DictionaryVariables
280
     0
  1
1
  0
DICTIONARYVAR
  5
903
102
{ACAD_REACTORS
330
8FA
102
}
330
8FA
100
DictionaryVariables
280
     0
  1
0
  0
DICTIONARYVAR
  5
900
102
{ACAD_REACTORS
330
8FA
102
}
330
8FA
100
DictionaryVariables
280
     0
  1
0
  0
DICTIONARYVAR
  5
901
102
{ACAD_REACTORS
330
8FA
102
}
330
8FA
100
DictionaryVariables
280
     0
  1
0
  0
DICTIONARYVAR
  5
8FF
102
{ACAD_REACTORS
330
8FA
102
}
330
8FA
100
DictionaryVariables
280
     0
  1
2
  0
DICTIONARYVAR
  5
8FD
102
{ACAD_REACTORS
330
8FA
102
}
330
8FA
100
DictionaryVariables
280
     0
  1
1
  0
DICTIONARYVAR
  5
902
102
{ACAD_REACTORS
330
8FA
102
}
330
8FA
100
DictionaryVariables
280
     0
  1
127
  0
DICTIONARYVAR
  5
A54
102
{ACAD_REACTORS
330
8FA
102
}
330
8FA
100
DictionaryVariables
280
     0
  1
2
  0
DICTIONARY
  5
A95
330
6B
100
AcDbDictionary
280
     1
281
     1
  3
ACAD_XREC_ROUNDTRIP
360
A96
  0
DICTIONARY
  5
A99
330
73
100
AcDbDictionary
280
     1
281
     1
  3
ACAD_XREC_ROUNDTRIP
360
A9A
  0
DICTIONARY
  5
A97
330
6F
100
AcDbDictionary
280
     1
281
     1
  3
ACAD_XREC_ROUNDTRIP
360
A98
  0
DICTIONARY
  5
1A
330
19
100
AcDbDictionary
280
     1
281
     1
  3
ACAD_XREC_ROUNDTRIP
360
944
  3
BUMPTILE
360
1C
  3
DIFFUSETILE
360
1B
  3
OPACITYTILE
360
1F
  3
REFLECTIONTILE
360
1E
  3
REFRACTIONTILE
360
20
  3
SPECULARTILE
360
1D
  0
DICTIONARY
  5
12
330
11
100
AcDbDictionary
280
     1
281
     1
  3
ACAD_XREC_ROUNDTRIP
360
943
  3
BUMPTILE
360
14
  3
DIFFUSETILE
360
13
  3
OPACITYTILE
360
17
  3
REFLECTIONTILE
360
16
  3
REFRACTIONTILE
360
18
  3
SPECULARTILE
360
15
  0
DICTIONARY
  5
22
330
21
100
AcDbDictionary
280
     1
281
     1
  3
ACAD_XREC_ROUNDTRIP
360
945
  3
BUMPTILE
360
24
  3
DIFFUSETILE
360
23
  3
OPACITYTILE
360
27
  3
REFLECTIONTILE
360
26
  3
REFRACTIONTILE
360
28
  3
SPECULARTILE
360
25
  0
DICTIONARY
  5
8A3
330
65
100
AcDbDictionary
280
     1
281
     1
  3
ACAD_ROUNDTRIP_2008_TABLESTYLE_CELLSTYLEMAP
360
A55
  3
ACAD_XREC_ROUNDTRIP
360
A94
  0
DICTIONARY
  5
A6E
330
2F
100
AcDbDictionary
280
     1
281
     1
  3
ACAD_XREC_ROUNDTRIP
360
A6F
  0
DICTIONARY
  5
A6C
330
2E
100
AcDbDictionary
280
     1
281
     1
  3
ACAD_XREC_ROUNDTRIP
360
A6D
  0
DICTIONARY
  5
A7A
330
35
100
AcDbDictionary
280
     1
281
     1
  3
ACAD_XREC_ROUNDTRIP
360
A7B
  0
DICTIONARY
  5
A82
330
39
100
AcDbDictionary
280
     1
281
     1
  3
ACAD_XREC_ROUNDTRIP
360
A83
  0
DICTIONARY
  5
A74
330
32
100
AcDbDictionary
280
     1
281
     1
  3
ACAD_XREC_ROUNDTRIP
360
A75
  0
DICTIONARY
  5
A78
330
34
100
AcDbDictionary
280
     1
281
     1
  3
ACAD_XREC_ROUNDTRIP
360
A79
  0
DICTIONARY
  5
A92
330
41
100
AcDbDictionary
280
     1
281
     1
  3
ACAD_XREC_ROUNDTRIP
360
A93
  0
DICTIONARY
  5
A80
330
38
100
AcDbDictionary
280
     1
281
     1
  3
ACAD_XREC_ROUNDTRIP
360
A81
  0
DICTIONARY
  5
A64
330
2A
100
AcDbDictionary
280
     1
281
     1
  3
ACAD_XREC_ROUNDTRIP
360
A65
  0
DICTIONARY
  5
A66
330
2B
100
AcDbDictionary
280
     1
281
     1
  3
ACAD_XREC_ROUNDTRIP
360
A67
  0
DICTIONARY
  5
A68
330
2C
100
AcDbDictionary
280
     1
281
     1
  3
ACAD_XREC_ROUNDTRIP
360
A69
  0
DICTIONARY
  5
A6A
330
2D
100
AcDbDictionary
280
     1
281
     1
  3
ACAD_XREC_ROUNDTRIP
360
A6B
  0
DICTIONARY
  5
A72
330
31
100
AcDbDictionary
280
     1
281
     1
  3
ACAD_XREC_ROUNDTRIP
360
A73
  0
DICTIONARY
  5
A8E
330
3F
100
AcDbDictionary
280
     1
281
     1
  3
ACAD_XREC_ROUNDTRIP
360
A8F
  0
DICTIONARY
  5
A7E
330
37
100
AcDbDictionary
280
     1
281
     1
  3
ACAD_XREC_ROUNDTRIP
360
A7F
  0
DICTIONARY
  5
A90
330
40
100
AcDbDictionary
280
     1
281
     1
  3
ACAD_XREC_ROUNDTRIP
360
A91
  0
DICTIONARY
  5
A76
330
33
100
AcDbDictionary
280
     1
281
     1
  3
ACAD_XREC_ROUNDTRIP
360
A77
  0
DICTIONARY
  5
A8C
330
3E
100
AcDbDictionary
280
     1
281
     1
  3
ACAD_XREC_ROUNDTRIP
360
A8D
  0
DICTIONARY
  5
A8A
330
3D
100
AcDbDictionary
280
     1
281
     1
  3
ACAD_XREC_ROUNDTRIP
360
A8B
  0
DICTIONARY
  5
A84
330
3A
100
AcDbDictionary
280
     1
281
     1
  3
ACAD_XREC_ROUNDTRIP
360
A85
  0
DICTIONARY
  5
A86
330
3B
100
AcDbDictionary
280
     1
281
     1
  3
ACAD_XREC_ROUNDTRIP
360
A87
  0
DICTIONARY
  5
A7C
330
36
100
AcDbDictionary
280
     1
281
     1
  3
ACAD_XREC_ROUNDTRIP
360
A7D
  0
DICTIONARY
  5
A70
330
30
100
AcDbDictionary
280
     1
281
     1
  3
ACAD_XREC_ROUNDTRIP
360
A71
  0
DICTIONARY
  5
A88
330
3C
100
AcDbDictionary
280
     1
281
     1
  3
ACAD_XREC_ROUNDTRIP
360
A89
  0
XRECORD
  5
A96
102
{ACAD_REACTORS
330
A95
102
}
330
A95
100
AcDbXrecord
280
     1
102
SHADEPLOT
 70
     0
102
SHADEPLOTRESLEVEL
 70
     2
102
SHADEPLOTCUSTOMDPI
 70
   300
  0
XRECORD
  5
A9A
102
{ACAD_REACTORS
330
A99
102
}
330
A99
100
AcDbXrecord
280
     1
102
SHADEPLOT
 70
     0
102
SHADEPLOTRESLEVEL
 70
     2
102
SHADEPLOTCUSTOMDPI
 70
   300
  0
XRECORD
  5
A98
102
{ACAD_REACTORS
330
A97
102
}
330
A97
100
AcDbXrecord
280
     1
102
SHADEPLOT
 70
     0
102
SHADEPLOTRESLEVEL
 70
     2
102
SHADEPLOTCUSTOMDPI
 70
   300
  0
XRECORD
  5
944
102
{ACAD_REACTORS
330
1A
102
}
330
1A
100
AcDbXrecord
280
     1
102
MATERIAL
148
0.0
149
0.0
149
0.0
 93
        0
 94
      127
282
     0
 72
     0
 77
     0
171
     0
175
     0
179
     0
273
     0
  0
XRECORD
  5
1C
102
{ACAD_REACTORS
330
1A
102
}
330
1A
100
AcDbXrecord
280
     1
270
     1
271
     1
  0
XRECORD
  5
1B
102
{ACAD_REACTORS
330
1A
102
}
330
1A
100
AcDbXrecord
280
     1
270
     1
271
     1
  0
XRECORD
  5
1F
102
{ACAD_REACTORS
330
1A
102
}
330
1A
100
AcDbXrecord
280
     1
270
     1
271
     1
  0
XRECORD
  5
1E
102
{ACAD_REACTORS
330
1A
102
}
330
1A
100
AcDbXrecord
280
     1
270
     1
271
     1
  0
XRECORD
  5
20
102
{ACAD_REACTORS
330
1A
102
}
330
1A
100
AcDbXrecord
280
     1
270
     1
271
     1
  0
XRECORD
  5
1D
102
{ACAD_REACTORS
330
1A
102
}
330
1A
100
AcDbXrecord
280
     1
270
     1
271
     1
  0
XRECORD
  5
943
102
{ACAD_REACTORS
330
12
102
}
330
12
100
AcDbXrecord
280
     1
102
MATERIAL
148
0.0
149
0.0
149
0.0
 93
        0
 94
      127
282
     0
 72
     0
 77
     0
171
     0
175
     0
179
     0
273
     0
  0
XRECORD
  5
14
102
{ACAD_REACTORS
330
12
102
}
330
12
100
AcDbXrecord
280
     1
270
     1
271
     1
  0
XRECORD
  5
13
102
{ACAD_REACTORS
330
12
102
}
330
12
100
AcDbXrecord
280
     1
270
     1
271
     1
  0
XRECORD
  5
17
102
{ACAD_REACTORS
330
12
102
}
330
12
100
AcDbXrecord
280
     1
270
     1
271
     1
  0
XRECORD
  5
16
102
{ACAD_REACTORS
330
12
102
}
330
12
100
AcDbXrecord
280
     1
270
     1
271
     1
  0
XRECORD
  5
18
102
{ACAD_REACTORS
330
12
102
}
330
12
100
AcDbXrecord
280
     1
270
     1
271
     1
  0
XRECORD
  5
15
102
{ACAD_REACTORS
330
12
102
}
330
12
100
AcDbXrecord
280
     1
270
     1
271
     1
  0
XRECORD
  5
945
102
{ACAD_REACTORS
330
22
102
}
330
22
100
AcDbXrecord
280
     1
102
MATERIAL
148
0.0
149
0.0
149
0.0
 93
        0
 94
      127
282
     0
 72
     0
 77
     0
171
     0
175
     0
179
     0
273
     0
  0
XRECORD
  5
24
102
{ACAD_REACTORS
330
22
102
}
330
22
100
AcDbXrecord
280
     1
270
     1
271
     1
  0
XRECORD
  5
23
102
{ACAD_REACTORS
330
22
102
}
330
22
100
AcDbXrecord
280
     1
270
     1
271
     1
  0
XRECORD
  5
27
102
{ACAD_REACTORS
330
22
102
}
330
22
100
AcDbXrecord
280
     1
270
     1
271
     1
  0
XRECORD
  5
26
102
{ACAD_REACTORS
330
22
102
}
330
22
100
AcDbXrecord
280
     1
270
     1
271
     1
  0
XRECORD
  5
28
102
{ACAD_REACTORS
330
22
102
}
330
22
100
AcDbXrecord
280
     1
270
     1
271
     1
  0
XRECORD
  5
25
102
{ACAD_REACTORS
330
22
102
}
330
22
100
AcDbXrecord
280
     1
270
     1
271
     1
  0
CELLSTYLEMAP
  5
A55
102
{ACAD_REACTORS
330
8A3
102
}
330
8A3
100
AcDbCellStyleMap
 90
        3
300
CELLSTYLE
  1
TABLEFORMAT_BEGIN
 90
        5
170
     1
 91
        0
 92
    32768
 62
   257
 93
        1
300
CONTENTFORMAT
  1
CONTENTFORMAT_BEGIN
 90
        0
 91
        0
 92
      512
 93
        0
300

 40
0.0
140
1.0
 94
        5
 62
     0
340
55
144
0.25
309
CONTENTFORMAT_END
171
     1
301
MARGIN
  1
CELLMARGIN_BEGIN
 40
0.06
 40
0.06
 40
0.06
 40
0.06
 40
0.18
 40
0.18
309
CELLMARGIN_END
 94
        6
 95
        1
302
GRIDFORMAT
  1
GRIDFORMAT_BEGIN
 90
        0
 91
        1
 62
     0
 92
       -2
340
0
 93
        0
 40
0.045
309
GRIDFORMAT_END
 95
        2
302
GRIDFORMAT
  1
GRIDFORMAT_BEGIN
 90
        0
 91
        1
 62
     0
 92
       -2
340
0
 93
        0
 40
0.045
309
GRIDFORMAT_END
 95
        4
302
GRIDFORMAT
  1
GRIDFORMAT_BEGIN
 90
        0
 91
        1
 62
     0
 92
       -2
340
0
 93
        0
 40
0.045
309
GRIDFORMAT_END
 95
        8
302
GRIDFORMAT
  1
GRIDFORMAT_BEGIN
 90
        0
 91
        1
 62
     0
 92
       -2
340
0
 93
        0
 40
0.045
309
GRIDFORMAT_END
 95
       16
302
GRIDFORMAT
  1
GRIDFORMAT_BEGIN
 90
        0
 91
        1
 62
     0
 92
       -2
340
0
 93
        0
 40
0.045
309
GRIDFORMAT_END
 95
       32
302
GRIDFORMAT
  1
GRIDFORMAT_BEGIN
 90
        0
 91
        1
 62
     0
 92
       -2
340
0
 93
        0
 40
0.045
309
GRIDFORMAT_END
309
TABLEFORMAT_END
  1
CELLSTYLE_BEGIN
 90
        1
 91
        1
300
_TITLE
309
CELLSTYLE_END
300
CELLSTYLE
  1
TABLEFORMAT_BEGIN
 90
        5
170
     1
 91
        0
 92
        0
 62
   257
 93
        1
300
CONTENTFORMAT
  1
CONTENTFORMAT_BEGIN
 90
        0
 91
        0
 92
      512
 93
        0
300

 40
0.0
140
1.0
 94
        5
 62
     0
340
55
144
0.18
309
CONTENTFORMAT_END
171
     1
301
MARGIN
  1
CELLMARGIN_BEGIN
 40
0.06
 40
0.06
 40
0.06
 40
0.06
 40
0.18
 40
0.18
309
CELLMARGIN_END
 94
        6
 95
        1
302
GRIDFORMAT
  1
GRIDFORMAT_BEGIN
 90
        0
 91
        1
 62
     0
 92
       -2
340
0
 93
        0
 40
0.045
309
GRIDFORMAT_END
 95
        2
302
GRIDFORMAT
  1
GRIDFORMAT_BEGIN
 90
        0
 91
        1
 62
     0
 92
       -2
340
0
 93
        0
 40
0.045
309
GRIDFORMAT_END
 95
        4
302
GRIDFORMAT
  1
GRIDFORMAT_BEGIN
 90
        0
 91
        1
 62
     0
 92
       -2
340
0
 93
        0
 40
0.045
309
GRIDFORMAT_END
 95
        8
302
GRIDFORMAT
  1
GRIDFORMAT_BEGIN
 90
        0
 91
        1
 62
     0
 92
       -2
340
0
 93
        0
 40
0.045
309
GRIDFORMAT_END
 95
       16
302
GRIDFORMAT
  1
GRIDFORMAT_BEGIN
 90
        0
 91
        1
 62
     0
 92
       -2
340
0
 93
        0
 40
0.045
309
GRIDFORMAT_END
 95
       32
302
GRIDFORMAT
  1
GRIDFORMAT_BEGIN
 90
        0
 91
        1
 62
     0
 92
       -2
340
0
 93
        0
 40
0.045
309
GRIDFORMAT_END
309
TABLEFORMAT_END
  1
CELLSTYLE_BEGIN
 90
        2
 91
        1
300
_HEADER
309
CELLSTYLE_END
300
CELLSTYLE
  1
TABLEFORMAT_BEGIN
 90
        5
170
     1
 91
        0
 92
        0
 62
   257
 93
        1
300
CONTENTFORMAT
  1
CONTENTFORMAT_BEGIN
 90
        0
 91
        0
 92
      512
 93
        0
300

 40
0.0
140
1.0
 94
        2
 62
     0
340
55
144
0.18
309
CONTENTFORMAT_END
171
     1
301
MARGIN
  1
CELLMARGIN_BEGIN
 40
0.06
 40
0.06
 40
0.06
 40
0.06
 40
0.18
 40
0.18
309
CELLMARGIN_END
 94
        6
 95
        1
302
GRIDFORMAT
  1
GRIDFORMAT_BEGIN
 90
        0
 91
        1
 62
     0
 92
       -2
340
0
 93
        0
 40
0.045
309
GRIDFORMAT_END
 95
        2
302
GRIDFORMAT
  1
GRIDFORMAT_BEGIN
 90
        0
 91
        1
 62
     0
 92
       -2
340
0
 93
        0
 40
0.045
309
GRIDFORMAT_END
 95
        4
302
GRIDFORMAT
  1
GRIDFORMAT_BEGIN
 90
        0
 91
        1
 62
     0
 92
       -2
340
0
 93
        0
 40
0.045
309
GRIDFORMAT_END
 95
        8
302
GRIDFORMAT
  1
GRIDFORMAT_BEGIN
 90
        0
 91
        1
 62
     0
 92
       -2
340
0
 93
        0
 40
0.045
309
GRIDFORMAT_END
 95
       16
302
GRIDFORMAT
  1
GRIDFORMAT_BEGIN
 90
        0
 91
        1
 62
     0
 92
       -2
340
0
 93
        0
 40
0.045
309
GRIDFORMAT_END
 95
       32
302
GRIDFORMAT
  1
GRIDFORMAT_BEGIN
 90
        0
 91
        1
 62
     0
 92
       -2
340
0
 93
        0
 40
0.045
309
GRIDFORMAT_END
309
TABLEFORMAT_END
  1
CELLSTYLE_BEGIN
 90
        3
 91
        2
300
_DATA
309
CELLSTYLE_END
  0
XRECORD
  5
A94
102
{ACAD_REACTORS
330
8A3
102
}
330
8A3
100
AcDbXrecord
280
     1
102
ACAD_ROUNDTRIP_PRE2007_TABLESTYLE
 90
      512
 91
        0
  1

 92
      512
 93
        0
  2

 94
      512
 95
        0
  3

  0
XRECORD
  5
A6F
102
{ACAD_REACTORS
330
A6E
102
}
330
A6E
100
AcDbXrecord
280
     1
102
RTVSPropertyOp0
 70
     1
102
RTVSPropertyOp1
 70
     1
102
RTVSPropertyOp2
 70
     1
102
RTVSPropertyOp3
 70
     1
102
RTVSPropertyOp4
 70
     1
102
RTVSPropertyOp5
 70
     1
102
RTVSPropertyOp6
 70
     1
102
RTVSPropertyOp7
 70
     1
102
RTVSPropertyOp8
 70
     1
102
RTVSPropertyOp9
 70
     1
102
RTVSPropertyOp10
 70
     1
102
RTVSPropertyOp11
 70
     1
102
RTVSPropertyOp12
 70
     1
102
RTVSPropertyOp13
 70
     1
102
RTVSPropertyOp14
 70
     1
102
RTVSPropertyOp15
 70
     1
102
RTVSPropertyOp16
 70
     1
102
RTVSPropertyOp17
 70
     1
102
RTVSPropertyOp18
 70
     1
102
RTVSPropertyOp19
 70
     1
102
RTVSPropertyOp20
 70
     1
102
RTVSPropertyOp21
 70
     1
102
RTVSPropertyOp22
 70
     1
102
RTVSPropertyOp23
 70
     1
102
RTVSPropertyOp24
 70
     1
102
RTVSPropertyOp25
 70
     1
102
RTVSPropertyOp26
 70
     1
102
RTVSPropertyOp27
 70
     1
102
RTVSPropertyOp28
 70
     1
102
RTVSPropertyOp29
 70
     1
102
RTVSPropertyOp30
 70
     1
102
RTVSPropertyOp31
 70
     1
102
RTVSPropertyOp32
 70
     1
  0
XRECORD
  5
A6D
102
{ACAD_REACTORS
330
A6C
102
}
330
A6C
100
AcDbXrecord
280
     1
102
RTVSPropertyOp0
 70
     1
102
RTVSPropertyOp1
 70
     1
102
RTVSPropertyOp2
 70
     1
102
RTVSPropertyOp3
 70
     1
102
RTVSPropertyOp4
 70
     1
102
RTVSPropertyOp5
 70
     1
102
RTVSPropertyOp6
 70
     1
102
RTVSPropertyOp7
 70
     1
102
RTVSPropertyOp8
 70
     1
102
RTVSPropertyOp9
 70
     1
102
RTVSPropertyOp10
 70
     1
102
RTVSPropertyOp11
 70
     1
102
RTVSPropertyOp12
 70
     1
102
RTVSPropertyOp13
 70
     1
102
RTVSPropertyOp14
 70
     1
102
RTVSPropertyOp15
 70
     1
102
RTVSPropertyOp16
 70
     1
102
RTVSPropertyOp17
 70
     1
102
RTVSPropertyOp18
 70
     1
102
RTVSPropertyOp19
 70
     1
102
RTVSPropertyOp20
 70
     1
102
RTVSPropertyOp21
 70
     1
102
RTVSPropertyOp22
 70
     1
102
RTVSPropertyOp23
 70
     1
102
RTVSPropertyOp24
 70
     1
102
RTVSPropertyOp25
 70
     1
102
RTVSPropertyOp26
 70
     1
102
RTVSPropertyOp27
 70
     1
102
RTVSPropertyOp28
 70
     1
102
RTVSPropertyOp29
 70
     1
102
RTVSPropertyOp30
 70
     1
102
RTVSPropertyOp31
 70
     1
102
RTVSPropertyOp32
 70
     1
  0
XRECORD
  5
A7B
102
{ACAD_REACTORS
330
A7A
102
}
330
A7A
100
AcDbXrecord
280
     1
102
RTVSPropertyOp0
 70
     1
102
RTVSPropertyOp1
 70
     1
102
RTVSPropertyOp2
 70
     1
102
RTVSPropertyOp3
 70
     1
102
RTVSPropertyOp4
 70
     1
102
RTVSPropertyOp5
 70
     1
102
RTVSPropertyOp6
 70
     1
102
RTVSPropertyOp7
 70
     1
102
RTVSPropertyOp8
 70
     1
102
RTVSPropertyOp9
 70
     1
102
RTVSPropertyOp10
 70
     1
102
RTVSPropertyOp11
 70
     1
102
RTVSPropertyOp12
 70
     1
102
RTVSPropertyOp13
 70
     1
102
RTVSPropertyOp14
 70
     1
102
RTVSPropertyOp15
 70
     1
102
RTVSPropertyOp16
 70
     1
102
RTVSPropertyOp17
 70
     1
102
RTVSPropertyOp18
 70
     1
102
RTVSPropertyOp19
 70
     1
102
RTVSPropertyOp20
 70
     1
102
RTVSPropertyOp21
 70
     1
102
RTVSPropertyOp22
 70
     1
102
RTVSPropertyOp23
 70
     1
102
RTVSPropertyOp24
 70
     1
102
RTVSPropertyOp25
 70
     1
102
RTVSPropertyOp26
 70
     1
102
RTVSPropertyOp27
 70
     1
102
RTVSPropertyOp28
 70
     1
102
RTVSPropertyOp29
 70
     1
102
RTVSPropertyOp30
 70
     1
102
RTVSPropertyOp31
 70
     1
102
RTVSPropertyOp32
 70
     1
  0
XRECORD
  5
A83
102
{ACAD_REACTORS
330
A82
102
}
330
A82
100
AcDbXrecord
280
     1
102
RTVSPropertyOp0
 70
     1
102
RTVSPropertyOp1
 70
     1
102
RTVSPropertyOp2
 70
     1
102
RTVSPropertyOp3
 70
     1
102
RTVSPropertyOp4
 70
     1
102
RTVSPropertyOp5
 70
     1
102
RTVSPropertyOp6
 70
     1
102
RTVSPropertyOp7
 70
     1
102
RTVSPropertyOp8
 70
     1
102
RTVSPropertyOp9
 70
     1
102
RTVSPropertyOp10
 70
     1
102
RTVSPropertyOp11
 70
     1
102
RTVSPropertyOp12
 70
     1
102
RTVSPropertyOp13
 70
     1
102
RTVSPropertyOp14
 70
     1
102
RTVSPropertyOp15
 70
     1
102
RTVSPropertyOp16
 70
     1
102
RTVSPropertyOp17
 70
     1
102
RTVSPropertyOp18
 70
     1
102
RTVSPropertyOp19
 70
     1
102
RTVSPropertyOp20
 70
     1
102
RTVSPropertyOp21
 70
     1
102
RTVSPropertyOp22
 70
     1
102
RTVSPropertyOp23
 70
     1
102
RTVSPropertyOp24
 70
     1
102
RTVSPropertyOp25
 70
     1
102
RTVSPropertyOp26
 70
     1
102
RTVSPropertyOp27
 70
     1
102
RTVSPropertyOp28
 70
     1
102
RTVSPropertyOp29
 70
     1
102
RTVSPropertyOp30
 70
     1
102
RTVSPropertyOp31
 70
     1
102
RTVSPropertyOp32
 70
     1
  0
XRECORD
  5
A75
102
{ACAD_REACTORS
330
A74
102
}
330
A74
100
AcDbXrecord
280
     1
102
RTVSPropertyOp0
 70
     1
102
RTVSPropertyOp1
 70
     1
102
RTVSPropertyOp2
 70
     1
102
RTVSPropertyOp3
 70
     1
102
RTVSPropertyOp4
 70
     1
102
RTVSPropertyOp5
 70
     1
102
RTVSPropertyOp6
 70
     1
102
RTVSPropertyOp7
 70
     1
102
RTVSPropertyOp8
 70
     1
102
RTVSPropertyOp9
 70
     1
102
RTVSPropertyOp10
 70
     1
102
RTVSPropertyOp11
 70
     1
102
RTVSPropertyOp12
 70
     1
102
RTVSPropertyOp13
 70
     1
102
RTVSPropertyOp14
 70
     1
102
RTVSPropertyOp15
 70
     1
102
RTVSPropertyOp16
 70
     1
102
RTVSPropertyOp17
 70
     1
102
RTVSPropertyOp18
 70
     1
102
RTVSPropertyOp19
 70
     1
102
RTVSPropertyOp20
 70
     1
102
RTVSPropertyOp21
 70
     1
102
RTVSPropertyOp22
 70
     1
102
RTVSPropertyOp23
 70
     1
102
RTVSPropertyOp24
 70
     1
102
RTVSPropertyOp25
 70
     1
102
RTVSPropertyOp26
 70
     1
102
RTVSPropertyOp27
 70
     1
102
RTVSPropertyOp28
 70
     1
102
RTVSPropertyOp29
 70
     1
102
RTVSPropertyOp30
 70
     1
102
RTVSPropertyOp31
 70
     1
102
RTVSPropertyOp32
 70
     1
  0
XRECORD
  5
A79
102
{ACAD_REACTORS
330
A78
102
}
330
A78
100
AcDbXrecord
280
     1
102
RTVSPropertyOp0
 70
     1
102
RTVSPropertyOp1
 70
     1
102
RTVSPropertyOp2
 70
     1
102
RTVSPropertyOp3
 70
     1
102
RTVSPropertyOp4
 70
     1
102
RTVSPropertyOp5
 70
     1
102
RTVSPropertyOp6
 70
     1
102
RTVSPropertyOp7
 70
     1
102
RTVSPropertyOp8
 70
     1
102
RTVSPropertyOp9
 70
     1
102
RTVSPropertyOp10
 70
     1
102
RTVSPropertyOp11
 70
     1
102
RTVSPropertyOp12
 70
     1
102
RTVSPropertyOp13
 70
     1
102
RTVSPropertyOp14
 70
     1
102
RTVSPropertyOp15
 70
     1
102
RTVSPropertyOp16
 70
     1
102
RTVSPropertyOp17
 70
     1
102
RTVSPropertyOp18
 70
     1
102
RTVSPropertyOp19
 70
     1
102
RTVSPropertyOp20
 70
     1
102
RTVSPropertyOp21
 70
     1
102
RTVSPropertyOp22
 70
     1
102
RTVSPropertyOp23
 70
     1
102
RTVSPropertyOp24
 70
     1
102
RTVSPropertyOp25
 70
     1
102
RTVSPropertyOp26
 70
     1
102
RTVSPropertyOp27
 70
     1
102
RTVSPropertyOp28
 70
     1
102
RTVSPropertyOp29
 70
     1
102
RTVSPropertyOp30
 70
     1
102
RTVSPropertyOp31
 70
     1
102
RTVSPropertyOp32
 70
     1
  0
XRECORD
  5
A93
102
{ACAD_REACTORS
330
A92
102
}
330
A92
100
AcDbXrecord
280
     1
102
RTVSPropertyOp0
 70
     0
102
RTVSPropertyOp1
 70
     0
102
RTVSPropertyOp2
 70
     0
102
RTVSPropertyOp3
 70
     0
102
RTVSPropertyOp4
 70
     0
102
RTVSPropertyOp5
 70
     0
102
RTVSPropertyOp6
 70
     0
102
RTVSPropertyOp7
 70
     0
102
RTVSPropertyOp8
 70
     0
102
RTVSPropertyOp9
 70
     0
102
RTVSPropertyOp10
 70
     0
102
RTVSPropertyOp11
 70
     0
102
RTVSPropertyOp12
 70
     0
102
RTVSPropertyOp13
 70
     0
102
RTVSPropertyOp14
 70
     2
102
RTVSPropertyOp15
 70
     0
102
RTVSPropertyOp16
 70
     0
102
RTVSPropertyOp17
 70
     0
102
RTVSPropertyOp18
 70
     0
102
RTVSPropertyOp19
 70
     0
102
RTVSPropertyOp20
 70
     0
102
RTVSPropertyOp21
 70
     0
102
RTVSPropertyOp22
 70
     0
102
RTVSPropertyOp23
 70
     0
102
RTVSPropertyOp24
 70
     0
102
RTVSPropertyOp25
 70
     0
102
RTVSPropertyOp26
 70
     0
102
RTVSPropertyOp27
 70
     0
102
RTVSPropertyOp28
 70
     0
102
RTVSPropertyOp29
 70
     0
102
RTVSPropertyOp30
 70
     0
102
RTVSPropertyOp31
 70
     0
102
RTVSPropertyOp32
 70
     0
  0
XRECORD
  5
A81
102
{ACAD_REACTORS
330
A80
102
}
330
A80
100
AcDbXrecord
280
     1
102
RTVSPropertyOp0
 70
     1
102
RTVSPropertyOp1
 70
     1
102
RTVSPropertyOp2
 70
     1
102
RTVSPropertyOp3
 70
     1
102
RTVSPropertyOp4
 70
     1
102
RTVSPropertyOp5
 70
     1
102
RTVSPropertyOp6
 70
     1
102
RTVSPropertyOp7
 70
     1
102
RTVSPropertyOp8
 70
     1
102
RTVSPropertyOp9
 70
     1
102
RTVSPropertyOp10
 70
     1
102
RTVSPropertyOp11
 70
     1
102
RTVSPropertyOp12
 70
     1
102
RTVSPropertyOp13
 70
     1
102
RTVSPropertyOp14
 70
     1
102
RTVSPropertyOp15
 70
     1
102
RTVSPropertyOp16
 70
     1
102
RTVSPropertyOp17
 70
     1
102
RTVSPropertyOp18
 70
     1
102
RTVSPropertyOp19
 70
     1
102
RTVSPropertyOp20
 70
     1
102
RTVSPropertyOp21
 70
     1
102
RTVSPropertyOp22
 70
     1
102
RTVSPropertyOp23
 70
     1
102
RTVSPropertyOp24
 70
     1
102
RTVSPropertyOp25
 70
     1
102
RTVSPropertyOp26
 70
     1
102
RTVSPropertyOp27
 70
     1
102
RTVSPropertyOp28
 70
     1
102
RTVSPropertyOp29
 70
     1
102
RTVSPropertyOp30
 70
     1
102
RTVSPropertyOp31
 70
     1
102
RTVSPropertyOp32
 70
     1
  0
XRECORD
  5
A65
102
{ACAD_REACTORS
330
A64
102
}
330
A64
100
AcDbXrecord
280
     1
102
RTVSPropertyOp0
 70
     1
102
RTVSPropertyOp1
 70
     1
102
RTVSPropertyOp2
 70
     1
102
RTVSPropertyOp3
 70
     1
102
RTVSPropertyOp4
 70
     1
102
RTVSPropertyOp5
 70
     1
102
RTVSPropertyOp6
 70
     1
102
RTVSPropertyOp7
 70
     1
102
RTVSPropertyOp8
 70
     1
102
RTVSPropertyOp9
 70
     1
102
RTVSPropertyOp10
 70
     1
102
RTVSPropertyOp11
 70
     1
102
RTVSPropertyOp12
 70
     1
102
RTVSPropertyOp13
 70
     1
102
RTVSPropertyOp14
 70
     1
102
RTVSPropertyOp15
 70
     1
102
RTVSPropertyOp16
 70
     1
102
RTVSPropertyOp17
 70
     1
102
RTVSPropertyOp18
 70
     1
102
RTVSPropertyOp19
 70
     1
102
RTVSPropertyOp20
 70
     1
102
RTVSPropertyOp21
 70
     1
102
RTVSPropertyOp22
 70
     1
102
RTVSPropertyOp23
 70
     1
102
RTVSPropertyOp24
 70
     1
102
RTVSPropertyOp25
 70
     1
102
RTVSPropertyOp26
 70
     1
102
RTVSPropertyOp27
 70
     1
102
RTVSPropertyOp28
 70
     1
102
RTVSPropertyOp29
 70
     1
102
RTVSPropertyOp30
 70
     1
102
RTVSPropertyOp31
 70
     1
102
RTVSPropertyOp32
 70
     1
  0
XRECORD
  5
A67
102
{ACAD_REACTORS
330
A66
102
}
330
A66
100
AcDbXrecord
280
     1
102
RTVSPropertyOp0
 70
     1
102
RTVSPropertyOp1
 70
     1
102
RTVSPropertyOp2
 70
     1
102
RTVSPropertyOp3
 70
     1
102
RTVSPropertyOp4
 70
     1
102
RTVSPropertyOp5
 70
     1
102
RTVSPropertyOp6
 70
     1
102
RTVSPropertyOp7
 70
     1
102
RTVSPropertyOp8
 70
     1
102
RTVSPropertyOp9
 70
     1
102
RTVSPropertyOp10
 70
     1
102
RTVSPropertyOp11
 70
     1
102
RTVSPropertyOp12
 70
     1
102
RTVSPropertyOp13
 70
     1
102
RTVSPropertyOp14
 70
     1
102
RTVSPropertyOp15
 70
     1
102
RTVSPropertyOp16
 70
     1
102
RTVSPropertyOp17
 70
     1
102
RTVSPropertyOp18
 70
     1
102
RTVSPropertyOp19
 70
     1
102
RTVSPropertyOp20
 70
     1
102
RTVSPropertyOp21
 70
     1
102
RTVSPropertyOp22
 70
     1
102
RTVSPropertyOp23
 70
     1
102
RTVSPropertyOp24
 70
     1
102
RTVSPropertyOp25
 70
     1
102
RTVSPropertyOp26
 70
     1
102
RTVSPropertyOp27
 70
     1
102
RTVSPropertyOp28
 70
     1
102
RTVSPropertyOp29
 70
     1
102
RTVSPropertyOp30
 70
     1
102
RTVSPropertyOp31
 70
     1
102
RTVSPropertyOp32
 70
     1
  0
XRECORD
  5
A69
102
{ACAD_REACTORS
330
A68
102
}
330
A68
100
AcDbXrecord
280
     1
102
RTVSPropertyOp0
 70
     1
102
RTVSPropertyOp1
 70
     1
102
RTVSPropertyOp2
 70
     1
102
RTVSPropertyOp3
 70
     1
102
RTVSPropertyOp4
 70
     1
102
RTVSPropertyOp5
 70
     1
102
RTVSPropertyOp6
 70
     1
102
RTVSPropertyOp7
 70
     1
102
RTVSPropertyOp8
 70
     1
102
RTVSPropertyOp9
 70
     1
102
RTVSPropertyOp10
 70
     1
102
RTVSPropertyOp11
 70
     1
102
RTVSPropertyOp12
 70
     1
102
RTVSPropertyOp13
 70
     1
102
RTVSPropertyOp14
 70
     1
102
RTVSPropertyOp15
 70
     1
102
RTVSPropertyOp16
 70
     1
102
RTVSPropertyOp17
 70
     1
102
RTVSPropertyOp18
 70
     1
102
RTVSPropertyOp19
 70
     1
102
RTVSPropertyOp20
 70
     1
102
RTVSPropertyOp21
 70
     1
102
RTVSPropertyOp22
 70
     1
102
RTVSPropertyOp23
 70
     1
102
RTVSPropertyOp24
 70
     1
102
RTVSPropertyOp25
 70
     1
102
RTVSPropertyOp26
 70
     1
102
RTVSPropertyOp27
 70
     1
102
RTVSPropertyOp28
 70
     1
102
RTVSPropertyOp29
 70
     1
102
RTVSPropertyOp30
 70
     1
102
RTVSPropertyOp31
 70
     1
102
RTVSPropertyOp32
 70
     1
  0
XRECORD
  5
A6B
102
{ACAD_REACTORS
330
A6A
102
}
330
A6A
100
AcDbXrecord
280
     1
102
RTVSPropertyOp0
 70
     1
102
RTVSPropertyOp1
 70
     1
102
RTVSPropertyOp2
 70
     1
102
RTVSPropertyOp3
 70
     1
102
RTVSPropertyOp4
 70
     1
102
RTVSPropertyOp5
 70
     1
102
RTVSPropertyOp6
 70
     1
102
RTVSPropertyOp7
 70
     1
102
RTVSPropertyOp8
 70
     1
102
RTVSPropertyOp9
 70
     1
102
RTVSPropertyOp10
 70
     1
102
RTVSPropertyOp11
 70
     1
102
RTVSPropertyOp12
 70
     1
102
RTVSPropertyOp13
 70
     1
102
RTVSPropertyOp14
 70
     1
102
RTVSPropertyOp15
 70
     1
102
RTVSPropertyOp16
 70
     1
102
RTVSPropertyOp17
 70
     1
102
RTVSPropertyOp18
 70
     1
102
RTVSPropertyOp19
 70
     1
102
RTVSPropertyOp20
 70
     1
102
RTVSPropertyOp21
 70
     1
102
RTVSPropertyOp22
 70
     1
102
RTVSPropertyOp23
 70
     1
102
RTVSPropertyOp24
 70
     1
102
RTVSPropertyOp25
 70
     1
102
RTVSPropertyOp26
 70
     1
102
RTVSPropertyOp27
 70
     1
102
RTVSPropertyOp28
 70
     1
102
RTVSPropertyOp29
 70
     1
102
RTVSPropertyOp30
 70
     1
102
RTVSPropertyOp31
 70
     1
102
RTVSPropertyOp32
 70
     1
  0
XRECORD
  5
A73
102
{ACAD_REACTORS
330
A72
102
}
330
A72
100
AcDbXrecord
280
     1
102
RTVSPropertyOp0
 70
     1
102
RTVSPropertyOp1
 70
     1
102
RTVSPropertyOp2
 70
     1
102
RTVSPropertyOp3
 70
     1
102
RTVSPropertyOp4
 70
     1
102
RTVSPropertyOp5
 70
     1
102
RTVSPropertyOp6
 70
     1
102
RTVSPropertyOp7
 70
     1
102
RTVSPropertyOp8
 70
     1
102
RTVSPropertyOp9
 70
     1
102
RTVSPropertyOp10
 70
     1
102
RTVSPropertyOp11
 70
     1
102
RTVSPropertyOp12
 70
     1
102
RTVSPropertyOp13
 70
     1
102
RTVSPropertyOp14
 70
     1
102
RTVSPropertyOp15
 70
     1
102
RTVSPropertyOp16
 70
     1
102
RTVSPropertyOp17
 70
     1
102
RTVSPropertyOp18
 70
     1
102
RTVSPropertyOp19
 70
     1
102
RTVSPropertyOp20
 70
     1
102
RTVSPropertyOp21
 70
     1
102
RTVSPropertyOp22
 70
     1
102
RTVSPropertyOp23
 70
     1
102
RTVSPropertyOp24
 70
     1
102
RTVSPropertyOp25
 70
     1
102
RTVSPropertyOp26
 70
     1
102
RTVSPropertyOp27
 70
     1
102
RTVSPropertyOp28
 70
     1
102
RTVSPropertyOp29
 70
     1
102
RTVSPropertyOp30
 70
     1
102
RTVSPropertyOp31
 70
     1
102
RTVSPropertyOp32
 70
     1
  0
XRECORD
  5
A8F
102
{ACAD_REACTORS
330
A8E
102
}
330
A8E
100
AcDbXrecord
280
     1
102
RTVSPropertyOp0
 70
     0
102
RTVSPropertyOp1
 70
     0
102
RTVSPropertyOp2
 70
     0
102
RTVSPropertyOp3
 70
     0
102
RTVSPropertyOp4
 70
     0
102
RTVSPropertyOp5
 70
     0
102
RTVSPropertyOp6
 70
     0
102
RTVSPropertyOp7
 70
     0
102
RTVSPropertyOp8
 70
     0
102
RTVSPropertyOp9
 70
     0
102
RTVSPropertyOp10
 70
     0
102
RTVSPropertyOp11
 70
     0
102
RTVSPropertyOp12
 70
     0
102
RTVSPropertyOp13
 70
     0
102
RTVSPropertyOp14
 70
     2
102
RTVSPropertyOp15
 70
     0
102
RTVSPropertyOp16
 70
     0
102
RTVSPropertyOp17
 70
     0
102
RTVSPropertyOp18
 70
     0
102
RTVSPropertyOp19
 70
     0
102
RTVSPropertyOp20
 70
     0
102
RTVSPropertyOp21
 70
     0
102
RTVSPropertyOp22
 70
     0
102
RTVSPropertyOp23
 70
     0
102
RTVSPropertyOp24
 70
     0
102
RTVSPropertyOp25
 70
     0
102
RTVSPropertyOp26
 70
     0
102
RTVSPropertyOp27
 70
     0
102
RTVSPropertyOp28
 70
     0
102
RTVSPropertyOp29
 70
     0
102
RTVSPropertyOp30
 70
     0
102
RTVSPropertyOp31
 70
     0
102
RTVSPropertyOp32
 70
     0
  0
XRECORD
  5
A7F
102
{ACAD_REACTORS
330
A7E
102
}
330
A7E
100
AcDbXrecord
280
     1
102
RTVSPropertyOp0
 70
     1
102
RTVSPropertyOp1
 70
     1
102
RTVSPropertyOp2
 70
     1
102
RTVSPropertyOp3
 70
     1
102
RTVSPropertyOp4
 70
     1
102
RTVSPropertyOp5
 70
     1
102
RTVSPropertyOp6
 70
     1
102
RTVSPropertyOp7
 70
     1
102
RTVSPropertyOp8
 70
     1
102
RTVSPropertyOp9
 70
     1
102
RTVSPropertyOp10
 70
     1
102
RTVSPropertyOp11
 70
     1
102
RTVSPropertyOp12
 70
     1
102
RTVSPropertyOp13
 70
     1
102
RTVSPropertyOp14
 70
     1
102
RTVSPropertyOp15
 70
     1
102
RTVSPropertyOp16
 70
     1
102
RTVSPropertyOp17
 70
     1
102
RTVSPropertyOp18
 70
     1
102
RTVSPropertyOp19
 70
     1
102
RTVSPropertyOp20
 70
     1
102
RTVSPropertyOp21
 70
     1
102
RTVSPropertyOp22
 70
     1
102
RTVSPropertyOp23
 70
     1
102
RTVSPropertyOp24
 70
     1
102
RTVSPropertyOp25
 70
     1
102
RTVSPropertyOp26
 70
     1
102
RTVSPropertyOp27
 70
     1
102
RTVSPropertyOp28
 70
     1
102
RTVSPropertyOp29
 70
     1
102
RTVSPropertyOp30
 70
     1
102
RTVSPropertyOp31
 70
     1
102
RTVSPropertyOp32
 70
     1
  0
XRECORD
  5
A91
102
{ACAD_REACTORS
330
A90
102
}
330
A90
100
AcDbXrecord
280
     1
102
RTVSPropertyOp0
 70
     0
102
RTVSPropertyOp1
 70
     0
102
RTVSPropertyOp2
 70
     0
102
RTVSPropertyOp3
 70
     0
102
RTVSPropertyOp4
 70
     0
102
RTVSPropertyOp5
 70
     0
102
RTVSPropertyOp6
 70
     0
102
RTVSPropertyOp7
 70
     0
102
RTVSPropertyOp8
 70
     0
102
RTVSPropertyOp9
 70
     0
102
RTVSPropertyOp10
 70
     0
102
RTVSPropertyOp11
 70
     0
102
RTVSPropertyOp12
 70
     0
102
RTVSPropertyOp13
 70
     0
102
RTVSPropertyOp14
 70
     2
102
RTVSPropertyOp15
 70
     0
102
RTVSPropertyOp16
 70
     0
102
RTVSPropertyOp17
 70
     0
102
RTVSPropertyOp18
 70
     0
102
RTVSPropertyOp19
 70
     0
102
RTVSPropertyOp20
 70
     0
102
RTVSPropertyOp21
 70
     0
102
RTVSPropertyOp22
 70
     0
102
RTVSPropertyOp23
 70
     0
102
RTVSPropertyOp24
 70
     0
102
RTVSPropertyOp25
 70
     0
102
RTVSPropertyOp26
 70
     0
102
RTVSPropertyOp27
 70
     0
102
RTVSPropertyOp28
 70
     0
102
RTVSPropertyOp29
 70
     0
102
RTVSPropertyOp30
 70
     0
102
RTVSPropertyOp31
 70
     0
102
RTVSPropertyOp32
 70
     0
  0
XRECORD
  5
A77
102
{ACAD_REACTORS
330
A76
102
}
330
A76
100
AcDbXrecord
280
     1
102
RTVSPropertyOp0
 70
     1
102
RTVSPropertyOp1
 70
     1
102
RTVSPropertyOp2
 70
     1
102
RTVSPropertyOp3
 70
     1
102
RTVSPropertyOp4
 70
     1
102
RTVSPropertyOp5
 70
     1
102
RTVSPropertyOp6
 70
     1
102
RTVSPropertyOp7
 70
     1
102
RTVSPropertyOp8
 70
     1
102
RTVSPropertyOp9
 70
     1
102
RTVSPropertyOp10
 70
     1
102
RTVSPropertyOp11
 70
     1
102
RTVSPropertyOp12
 70
     1
102
RTVSPropertyOp13
 70
     1
102
RTVSPropertyOp14
 70
     1
102
RTVSPropertyOp15
 70
     1
102
RTVSPropertyOp16
 70
     1
102
RTVSPropertyOp17
 70
     1
102
RTVSPropertyOp18
 70
     1
102
RTVSPropertyOp19
 70
     1
102
RTVSPropertyOp20
 70
     1
102
RTVSPropertyOp21
 70
     1
102
RTVSPropertyOp22
 70
     1
102
RTVSPropertyOp23
 70
     1
102
RTVSPropertyOp24
 70
     1
102
RTVSPropertyOp25
 70
     1
102
RTVSPropertyOp26
 70
     1
102
RTVSPropertyOp27
 70
     1
102
RTVSPropertyOp28
 70
     1
102
RTVSPropertyOp29
 70
     1
102
RTVSPropertyOp30
 70
     1
102
RTVSPropertyOp31
 70
     1
102
RTVSPropertyOp32
 70
     1
  0
XRECORD
  5
A8D
102
{ACAD_REACTORS
330
A8C
102
}
330
A8C
100
AcDbXrecord
280
     1
102
RTVSPropertyOp0
 70
     1
102
RTVSPropertyOp1
 70
     1
102
RTVSPropertyOp2
 70
     1
102
RTVSPropertyOp3
 70
     1
102
RTVSPropertyOp4
 70
     1
102
RTVSPropertyOp5
 70
     1
102
RTVSPropertyOp6
 70
     1
102
RTVSPropertyOp7
 70
     1
102
RTVSPropertyOp8
 70
     1
102
RTVSPropertyOp9
 70
     1
102
RTVSPropertyOp10
 70
     1
102
RTVSPropertyOp11
 70
     1
102
RTVSPropertyOp12
 70
     1
102
RTVSPropertyOp13
 70
     1
102
RTVSPropertyOp14
 70
     1
102
RTVSPropertyOp15
 70
     1
102
RTVSPropertyOp16
 70
     1
102
RTVSPropertyOp17
 70
     1
102
RTVSPropertyOp18
 70
     1
102
RTVSPropertyOp19
 70
     1
102
RTVSPropertyOp20
 70
     1
102
RTVSPropertyOp21
 70
     1
102
RTVSPropertyOp22
 70
     1
102
RTVSPropertyOp23
 70
     1
102
RTVSPropertyOp24
 70
     1
102
RTVSPropertyOp25
 70
     1
102
RTVSPropertyOp26
 70
     1
102
RTVSPropertyOp27
 70
     1
102
RTVSPropertyOp28
 70
     1
102
RTVSPropertyOp29
 70
     1
102
RTVSPropertyOp30
 70
     1
102
RTVSPropertyOp31
 70
     1
102
RTVSPropertyOp32
 70
     1
  0
XRECORD
  5
A8B
102
{ACAD_REACTORS
330
A8A
102
}
330
A8A
100
AcDbXrecord
280
     1
102
RTVSPropertyOp0
 70
     1
102
RTVSPropertyOp1
 70
     1
102
RTVSPropertyOp2
 70
     1
102
RTVSPropertyOp3
 70
     1
102
RTVSPropertyOp4
 70
     1
102
RTVSPropertyOp5
 70
     1
102
RTVSPropertyOp6
 70
     1
102
RTVSPropertyOp7
 70
     1
102
RTVSPropertyOp8
 70
     1
102
RTVSPropertyOp9
 70
     1
102
RTVSPropertyOp10
 70
     1
102
RTVSPropertyOp11
 70
     1
102
RTVSPropertyOp12
 70
     1
102
RTVSPropertyOp13
 70
     1
102
RTVSPropertyOp14
 70
     1
102
RTVSPropertyOp15
 70
     1
102
RTVSPropertyOp16
 70
     1
102
RTVSPropertyOp17
 70
     1
102
RTVSPropertyOp18
 70
     1
102
RTVSPropertyOp19
 70
     1
102
RTVSPropertyOp20
 70
     1
102
RTVSPropertyOp21
 70
     1
102
RTVSPropertyOp22
 70
     1
102
RTVSPropertyOp23
 70
     1
102
RTVSPropertyOp24
 70
     1
102
RTVSPropertyOp25
 70
     1
102
RTVSPropertyOp26
 70
     1
102
RTVSPropertyOp27
 70
     1
102
RTVSPropertyOp28
 70
     1
102
RTVSPropertyOp29
 70
     1
102
RTVSPropertyOp30
 70
     1
102
RTVSPropertyOp31
 70
     1
102
RTVSPropertyOp32
 70
     1
  0
XRECORD
  5
A85
102
{ACAD_REACTORS
330
A84
102
}
330
A84
100
AcDbXrecord
280
     1
102
RTVSPropertyOp0
 70
     1
102
RTVSPropertyOp1
 70
     1
102
RTVSPropertyOp2
 70
     1
102
RTVSPropertyOp3
 70
     1
102
RTVSPropertyOp4
 70
     1
102
RTVSPropertyOp5
 70
     1
102
RTVSPropertyOp6
 70
     1
102
RTVSPropertyOp7
 70
     1
102
RTVSPropertyOp8
 70
     1
102
RTVSPropertyOp9
 70
     1
102
RTVSPropertyOp10
 70
     1
102
RTVSPropertyOp11
 70
     1
102
RTVSPropertyOp12
 70
     1
102
RTVSPropertyOp13
 70
     1
102
RTVSPropertyOp14
 70
     1
102
RTVSPropertyOp15
 70
     1
102
RTVSPropertyOp16
 70
     1
102
RTVSPropertyOp17
 70
     1
102
RTVSPropertyOp18
 70
     1
102
RTVSPropertyOp19
 70
     1
102
RTVSPropertyOp20
 70
     1
102
RTVSPropertyOp21
 70
     1
102
RTVSPropertyOp22
 70
     1
102
RTVSPropertyOp23
 70
     1
102
RTVSPropertyOp24
 70
     1
102
RTVSPropertyOp25
 70
     1
102
RTVSPropertyOp26
 70
     1
102
RTVSPropertyOp27
 70
     1
102
RTVSPropertyOp28
 70
     1
102
RTVSPropertyOp29
 70
     1
102
RTVSPropertyOp30
 70
     1
102
RTVSPropertyOp31
 70
     1
102
RTVSPropertyOp32
 70
     1
  0
XRECORD
  5
A87
102
{ACAD_REACTORS
330
A86
102
}
330
A86
100
AcDbXrecord
280
     1
102
RTVSPropertyOp0
 70
     1
102
RTVSPropertyOp1
 70
     1
102
RTVSPropertyOp2
 70
     1
102
RTVSPropertyOp3
 70
     1
102
RTVSPropertyOp4
 70
     1
102
RTVSPropertyOp5
 70
     1
102
RTVSPropertyOp6
 70
     1
102
RTVSPropertyOp7
 70
     1
102
RTVSPropertyOp8
 70
     1
102
RTVSPropertyOp9
 70
     1
102
RTVSPropertyOp10
 70
     1
102
RTVSPropertyOp11
 70
     1
102
RTVSPropertyOp12
 70
     1
102
RTVSPropertyOp13
 70
     1
102
RTVSPropertyOp14
 70
     1
102
RTVSPropertyOp15
 70
     1
102
RTVSPropertyOp16
 70
     1
102
RTVSPropertyOp17
 70
     1
102
RTVSPropertyOp18
 70
     1
102
RTVSPropertyOp19
 70
     1
102
RTVSPropertyOp20
 70
     1
102
RTVSPropertyOp21
 70
     1
102
RTVSPropertyOp22
 70
     1
102
RTVSPropertyOp23
 70
     1
102
RTVSPropertyOp24
 70
     1
102
RTVSPropertyOp25
 70
     1
102
RTVSPropertyOp26
 70
     1
102
RTVSPropertyOp27
 70
     1
102
RTVSPropertyOp28
 70
     1
102
RTVSPropertyOp29
 70
     1
102
RTVSPropertyOp30
 70
     1
102
RTVSPropertyOp31
 70
     1
102
RTVSPropertyOp32
 70
     1
  0
XRECORD
  5
A7D
102
{ACAD_REACTORS
330
A7C
102
}
330
A7C
100
AcDbXrecord
280
     1
102
RTVSPropertyOp0
 70
     1
102
RTVSPropertyOp1
 70
     1
102
RTVSPropertyOp2
 70
     1
102
RTVSPropertyOp3
 70
     1
102
RTVSPropertyOp4
 70
     1
102
RTVSPropertyOp5
 70
     1
102
RTVSPropertyOp6
 70
     1
102
RTVSPropertyOp7
 70
     1
102
RTVSPropertyOp8
 70
     1
102
RTVSPropertyOp9
 70
     1
102
RTVSPropertyOp10
 70
     1
102
RTVSPropertyOp11
 70
     1
102
RTVSPropertyOp12
 70
     1
102
RTVSPropertyOp13
 70
     1
102
RTVSPropertyOp14
 70
     1
102
RTVSPropertyOp15
 70
     1
102
RTVSPropertyOp16
 70
     1
102
RTVSPropertyOp17
 70
     1
102
RTVSPropertyOp18
 70
     1
102
RTVSPropertyOp19
 70
     1
102
RTVSPropertyOp20
 70
     1
102
RTVSPropertyOp21
 70
     1
102
RTVSPropertyOp22
 70
     1
102
RTVSPropertyOp23
 70
     1
102
RTVSPropertyOp24
 70
     1
102
RTVSPropertyOp25
 70
     1
102
RTVSPropertyOp26
 70
     1
102
RTVSPropertyOp27
 70
     1
102
RTVSPropertyOp28
 70
     1
102
RTVSPropertyOp29
 70
     1
102
RTVSPropertyOp30
 70
     1
102
RTVSPropertyOp31
 70
     1
102
RTVSPropertyOp32
 70
     1
  0
XRECORD
  5
A71
102
{ACAD_REACTORS
330
A70
102
}
330
A70
100
AcDbXrecord
280
     1
102
RTVSPropertyOp0
 70
     1
102
RTVSPropertyOp1
 70
     1
102
RTVSPropertyOp2
 70
     1
102
RTVSPropertyOp3
 70
     1
102
RTVSPropertyOp4
 70
     1
102
RTVSPropertyOp5
 70
     1
102
RTVSPropertyOp6
 70
     1
102
RTVSPropertyOp7
 70
     1
102
RTVSPropertyOp8
 70
     1
102
RTVSPropertyOp9
 70
     1
102
RTVSPropertyOp10
 70
     1
102
RTVSPropertyOp11
 70
     1
102
RTVSPropertyOp12
 70
     1
102
RTVSPropertyOp13
 70
     1
102
RTVSPropertyOp14
 70
     1
102
RTVSPropertyOp15
 70
     1
102
RTVSPropertyOp16
 70
     1
102
RTVSPropertyOp17
 70
     1
102
RTVSPropertyOp18
 70
     1
102
RTVSPropertyOp19
 70
     1
102
RTVSPropertyOp20
 70
     1
102
RTVSPropertyOp21
 70
     1
102
RTVSPropertyOp22
 70
     1
102
RTVSPropertyOp23
 70
     1
102
RTVSPropertyOp24
 70
     1
102
RTVSPropertyOp25
 70
     1
102
RTVSPropertyOp26
 70
     1
102
RTVSPropertyOp27
 70
     1
102
RTVSPropertyOp28
 70
     1
102
RTVSPropertyOp29
 70
     1
102
RTVSPropertyOp30
 70
     1
102
RTVSPropertyOp31
 70
     1
102
RTVSPropertyOp32
 70
     1
  0
XRECORD
  5
A89
102
{ACAD_REACTORS
330
A88
102
}
330
A88
100
AcDbXrecord
280
     1
102
RTVSPropertyOp0
 70
     1
102
RTVSPropertyOp1
 70
     1
102
RTVSPropertyOp2
 70
     1
102
RTVSPropertyOp3
 70
     1
102
RTVSPropertyOp4
 70
     1
102
RTVSPropertyOp5
 70
     1
102
RTVSPropertyOp6
 70
     1
102
RTVSPropertyOp7
 70
     1
102
RTVSPropertyOp8
 70
     1
102
RTVSPropertyOp9
 70
     1
102
RTVSPropertyOp10
 70
     1
102
RTVSPropertyOp11
 70
     1
102
RTVSPropertyOp12
 70
     1
102
RTVSPropertyOp13
 70
     1
102
RTVSPropertyOp14
 70
     1
102
RTVSPropertyOp15
 70
     1
102
RTVSPropertyOp16
 70
     1
102
RTVSPropertyOp17
 70
     1
102
RTVSPropertyOp18
 70
     1
102
RTVSPropertyOp19
 70
     1
102
RTVSPropertyOp20
 70
     1
102
RTVSPropertyOp21
 70
     1
102
RTVSPropertyOp22
 70
     1
102
RTVSPropertyOp23
 70
     1
102
RTVSPropertyOp24
 70
     1
102
RTVSPropertyOp25
 70
     1
102
RTVSPropertyOp26
 70
     1
102
RTVSPropertyOp27
 70
     1
102
RTVSPropertyOp28
 70
     1
102
RTVSPropertyOp29
 70
     1
102
RTVSPropertyOp30
 70
     1
102
RTVSPropertyOp31
 70
     1
102
RTVSPropertyOp32
 70
     1
  0
ENDSEC
  0
EOF
