  0
SECTION
  2
HEADER
  9
$ACADVER
  1
AC1015
  9
$ACADMAINTVER
 70
    20
  9
$DWGCODEPAGE
  3
ANSI_1250
  9
$INSBASE
 10
0.0
 20
0.0
 30
0.0
  9
$EXTMIN
 10
5380.464845923241
 20
-6.286097722605928
 30
0.0
  9
$EXTMAX
 10
7987.672854244141
 20
1922.942348121512
 30
0.0
  9
$LIMMIN
 10
0.0
 20
0.0
  9
$LIMMAX
 10
5940.0
 20
4200.0
  9
$ORTHOMODE
 70
     0
  9
$REGENMODE
 70
     1
  9
$FILLMODE
 70
     1
  9
$QTEXTMODE
 70
     0
  9
$MIRRTEXT
 70
     0
  9
$LTSCALE
 40
20.0
  9
$ATTMODE
 70
     1
  9
$TEXTSIZE
 40
0.2
  9
$TRACEWID
 40
0.05
  9
$TEXTSTYLE
  7
Standard
  9
$CLAYER
  8
0
  9
$CELTYPE
  6
ByLayer
  9
$CECOLOR
 62
   256
  9
$CELTSCALE
 40
1.0
  9
$DISPSILH
 70
     0
  9
$DIMSCALE
 40
1.0
  9
$DIMASZ
 40
1.799999999999999
  9
$DIMEXO
 40
0.0625
  9
$DIMDLI
 40
0.38
  9
$DIMRND
 40
0.0
  9
$DIMDLE
 40
0.0
  9
$DIMEXE
 40
0.18
  9
$DIMTP
 40
0.0
  9
$DIMTM
 40
0.0
  9
$DIMTXT
 40
0.25
  9
$DIMCEN
 40
0.09
  9
$DIMTSZ
 40
0.0
  9
$DIMTOL
 70
     0
  9
$DIMLIM
 70
     0
  9
$DIMTIH
 70
     1
  9
$DIMTOH
 70
     1
  9
$DIMSE1
 70
     0
  9
$DIMSE2
 70
     0
  9
$DIMTAD
 70
     0
  9
$DIMZIN
 70
     0
  9
$DIMBLK
  1

  9
$DIMASO
 70
     1
  9
$DIMSHO
 70
     1
  9
$DIMPOST
  1

  9
$DIMAPOST
  1

  9
$DIMALT
 70
     0
  9
$DIMALTD
 70
     2
  9
$DIMALTF
 40
25.4
  9
$DIMLFAC
 40
1.0
  9
$DIMTOFL
 70
     0
  9
$DIMTVP
 40
0.0
  9
$DIMTIX
 70
     0
  9
$DIMSOXD
 70
     0
  9
$DIMSAH
 70
     0
  9
$DIMBLK1
  1

  9
$DIMBLK2
  1

  9
$DIMSTYLE
  2
Standard
  9
$DIMCLRD
 70
     0
  9
$DIMCLRE
 70
     0
  9
$DIMCLRT
 70
     0
  9
$DIMTFAC
 40
1.0
  9
$DIMGAP
 40
0.09
  9
$DIMJUST
 70
     0
  9
$DIMSD1
 70
     0
  9
$DIMSD2
 70
     0
  9
$DIMTOLJ
 70
     1
  9
$DIMTZIN
 70
     0
  9
$DIMALTZ
 70
     0
  9
$DIMALTTZ
 70
     0
  9
$DIMUPT
 70
     0
  9
$DIMDEC
 70
     4
  9
$DIMTDEC
 70
     4
  9
$DIMALTU
 70
     2
  9
$DIMALTTD
 70
     2
  9
$DIMTXSTY
  7
Standard
  9
$DIMAUNIT
 70
     0
  9
$DIMADEC
 70
     0
  9
$DIMALTRND
 40
0.0
  9
$DIMAZIN
 70
     0
  9
$DIMDSEP
 70
    46
  9
$DIMATFIT
 70
     3
  9
$DIMFRAC
 70
     0
  9
$DIMLDRBLK
  1

  9
$DIMLUNIT
 70
     2
  9
$DIMLWD
 70
    -2
  9
$DIMLWE
 70
    -2
  9
$DIMTMOVE
 70
     0
  9
$LUNITS
 70
     2
  9
$LUPREC
 70
     4
  9
$SKETCHINC
 40
0.1
  9
$FILLETRAD
 40
0.0
  9
$AUNITS
 70
     0
  9
$AUPREC
 70
     0
  9
$MENU
  1
.
  9
$ELEVATION
 40
0.0
  9
$PELEVATION
 40
0.0
  9
$THICKNESS
 40
0.0
  9
$LIMCHECK
 70
     0
  9
$CHAMFERA
 40
0.0
  9
$CHAMFERB
 40
0.0
  9
$CHAMFERC
 40
0.0
  9
$CHAMFERD
 40
0.0
  9
$SKPOLY
 70
     0
  9
$TDCREATE
 40
2460056.429819283
  9
$TDUCREATE
 40
2460056.346485949
  9
$TDUPDATE
 40
2460056.456927083
  9
$TDUUPDATE
 40
2460056.373593750
  9
$TDINDWG
 40
0.0070355208
  9
$TDUSRTIMER
 40
0.0070355208
  9
$USRTIMER
 70
     1
  9
$ANGBASE
 50
0.0
  9
$ANGDIR
 70
     0
  9
$PDMODE
 70
     0
  9
$PDSIZE
 40
0.0
  9
$PLINEWID
 40
0.0
  9
$SPLFRAME
 70
     0
  9
$SPLINETYPE
 70
     6
  9
$SPLINESEGS
 70
     8
  9
$HANDSEED
  5
904
  9
$SURFTAB1
 70
     6
  9
$SURFTAB2
 70
     6
  9
$SURFTYPE
 70
     6
  9
$SURFU
 70
     6
  9
$SURFV
 70
     6
  9
$UCSBASE
  2

  9
$UCSNAME
  2

  9
$UCSORG
 10
0.0
 20
0.0
 30
0.0
  9
$UCSXDIR
 10
1.0
 20
0.0
 30
0.0
  9
$UCSYDIR
 10
0.0
 20
1.0
 30
0.0
  9
$UCSORTHOREF
  2

  9
$UCSORTHOVIEW
 70
     0
  9
$UCSORGTOP
 10
0.0
 20
0.0
 30
0.0
  9
$UCSORGBOTTOM
 10
0.0
 20
0.0
 30
0.0
  9
$UCSORGLEFT
 10
0.0
 20
0.0
 30
0.0
  9
$UCSORGRIGHT
 10
0.0
 20
0.0
 30
0.0
  9
$UCSORGFRONT
 10
0.0
 20
0.0
 30
0.0
  9
$UCSORGBACK
 10
0.0
 20
0.0
 30
0.0
  9
$PUCSBASE
  2

  9
$PUCSNAME
  2

  9
$PUCSORG
 10
0.0
 20
0.0
 30
0.0
  9
$PUCSXDIR
 10
1.0
 20
0.0
 30
0.0
  9
$PUCSYDIR
 10
0.0
 20
1.0
 30
0.0
  9
$PUCSORTHOREF
  2

  9
$PUCSORTHOVIEW
 70
     0
  9
$PUCSORGTOP
 10
0.0
 20
0.0
 30
0.0
  9
$PUCSORGBOTTOM
 10
0.0
 20
0.0
 30
0.0
  9
$PUCSORGLEFT
 10
0.0
 20
0.0
 30
0.0
  9
$PUCSORGRIGHT
 10
0.0
 20
0.0
 30
0.0
  9
$PUCSORGFRONT
 10
0.0
 20
0.0
 30
0.0
  9
$PUCSORGBACK
 10
0.0
 20
0.0
 30
0.0
  9
$USERI1
 70
     0
  9
$USERI2
 70
     0
  9
$USERI3
 70
     0
  9
$USERI4
 70
     0
  9
$USERI5
 70
     0
  9
$USERR1
 40
0.0
  9
$USERR2
 40
0.0
  9
$USERR3
 40
0.0
  9
$USERR4
 40
0.0
  9
$USERR5
 40
0.0
  9
$WORLDVIEW
 70
     1
  9
$SHADEDGE
 70
     3
  9
$SHADEDIF
 70
    70
  9
$TILEMODE
 70
     1
  9
$MAXACTVP
 70
    64
  9
$PINSBASE
 10
0.0
 20
0.0
 30
0.0
  9
$PLIMCHECK
 70
     0
  9
$PEXTMIN
 10
0.0
 20
0.0
 30
0.0
  9
$PEXTMAX
 10
5940.0
 20
4200.0
 30
0.0
  9
$PLIMMIN
 10
0.0
 20
0.0
  9
$PLIMMAX
 10
5940.0
 20
4200.0
  9
$UNITMODE
 70
     0
  9
$VISRETAIN
 70
     1
  9
$PLINEGEN
 70
     0
  9
$PSLTSCALE
 70
     1
  9
$TREEDEPTH
 70
  3020
  9
$CMLSTYLE
  2
Standard
  9
$CMLJUST
 70
     0
  9
$CMLSCALE
 40
1.0
  9
$PROXYGRAPHICS
 70
     1
  9
$MEASUREMENT
 70
     1
  9
$CELWEIGHT
370
    -1
  9
$ENDCAPS
280
     0
  9
$JOINSTYLE
280
     0
  9
$LWDISPLAY
290
     0
  9
$INSUNITS
 70
     4
  9
$HYPERLINKBASE
  1
www.muller.com.pl
  9
$STYLESHEET
  1

  9
$XEDIT
290
     1
  9
$CEPSNTYPE
380
     0
  9
$PSTYLEMODE
290
     1
  9
$FINGERPRINTGUID
  2
{4564BEE9-524C-4E11-ABBA-E7DD0D8F185B}
  9
$VERSIONGUID
  2
{4FEE9F5C-7365-4A27-8F01-2DC5B8CEF73B}
  9
$EXTNAMES
290
     1
  9
$PSVPSCALE
 40
0.0
  9
$OLESTARTUP
290
     0
  0
ENDSEC
  0
SECTION
  2
CLASSES
  0
CLASS
  1
ACDBDICTIONARYWDFLT
  2
AcDbDictionaryWithDefault
  3
ObjectDBX Classes
 90
        0
280
     0
281
     0
  0
CLASS
  1
MATERIAL
  2
AcDbMaterial
  3
ObjectDBX Classes
 90
     1153
280
     0
281
     0
  0
CLASS
  1
VISUALSTYLE
  2
AcDbVisualStyle
  3
ObjectDBX Classes
 90
     4095
280
     0
281
     0
  0
CLASS
  1
SCALE
  2
AcDbScale
  3
ObjectDBX Classes
 90
     1153
280
     0
281
     0
  0
CLASS
  1
TABLESTYLE
  2
AcDbTableStyle
  3
ObjectDBX Classes
 90
     4095
280
     0
281
     0
  0
CLASS
  1
MLEADERSTYLE
  2
AcDbMLeaderStyle
  3
ACDB_MLEADERSTYLE_CLASS
 90
     4095
280
     0
281
     0
  0
CLASS
  1
CELLSTYLEMAP
  2
AcDbCellStyleMap
  3
ObjectDBX Classes
 90
     1152
280
     0
281
     0
  0
CLASS
  1
DICTIONARYVAR
  2
AcDbDictionaryVar
  3
ObjectDBX Classes
 90
        0
280
     0
281
     0
  0
CLASS
  1
ACDBPLACEHOLDER
  2
AcDbPlaceHolder
  3
ObjectDBX Classes
 90
        0
280
     0
281
     0
  0
CLASS
  1
LAYOUT
  2
AcDbLayout
  3
ObjectDBX Classes
 90
        0
280
     0
281
     0
  0
ENDSEC
  0
SECTION
  2
TABLES
  0
TABLE
  2
VPORT
  5
8
102
{ACAD_XDICTIONARY
360
859
102
}
330
0
100
AcDbSymbolTable
 70
     1
  0
VPORT
  5
57
330
8
100
AcDbSymbolTableRecord
100
AcDbViewportTableRecord
  2
*Active
 70
     0
 10
0.0
 20
0.0
 11
1.0
 21
1.0
 12
6734.750388760126
 22
1124.15558185815
 13
0.0
 23
0.0
 14
1.0
 24
1.0
 15
0.0
 25
0.0
 16
0.0
 26
0.0
 36
1.0
 17
0.0
 27
0.0
 37
0.0
 40
2322.02368864979
 41
2.461439588688945
 42
50.0
 43
0.0
 44
0.0
 50
0.0
 51
0.0
 71
     0
 72
   100
 73
     1
 74
     1
 75
     0
 76
     0
 77
     0
 78
     0
281
     0
 65
     1
110
0.0
120
0.0
130
0.0
111
1.0
121
0.0
131
0.0
112
0.0
122
1.0
132
0.0
 79
     0
146
0.0
  0
ENDTAB
  0
TABLE
  2
LTYPE
  5
5
330
0
100
AcDbSymbolTable
 70
    59
  0
LTYPE
  5
5B
330
5
100
AcDbSymbolTableRecord
100
AcDbLinetypeTableRecord
  2
ByBlock
 70
     0
  3

 72
    65
 73
     0
 40
0.0
  0
LTYPE
  5
5C
330
5
100
AcDbSymbolTableRecord
100
AcDbLinetypeTableRecord
  2
ByLayer
 70
     0
  3

 72
    65
 73
     0
 40
0.0
  0
LTYPE
  5
5D
330
5
100
AcDbSymbolTableRecord
100
AcDbLinetypeTableRecord
  2
Continuous
 70
     0
  3
Solid line
 72
    65
 73
     0
 40
0.0
  0
LTYPE
  5
74
330
5
100
AcDbSymbolTableRecord
100
AcDbLinetypeTableRecord
  2
Section_View_Lines
 70
     0
  3
Section View Lines
 72
    65
 73
     4
 40
0.8406
 49
0.6614
 74
     0
 49
-0.0827
 74
     0
 49
0.0138
 74
     0
 49
-0.0827
 74
     0
  0
LTYPE
  5
75
330
5
100
AcDbSymbolTableRecord
100
AcDbLinetypeTableRecord
  2
CHAIN
 70
     0
  3
Chain ____ _ ____ _ ____ _ ____ _ ____ _ ____
 72
    65
 73
     4
 40
0.3543
 49
0.2362
 74
     0
 49
-0.0295
 74
     0
 49
0.0591
 74
     0
 49
-0.0295
 74
     0
  0
LTYPE
  5
76
330
5
100
AcDbSymbolTableRecord
100
AcDbLinetypeTableRecord
  2
DASH_DOT
 70
     0
  3
Dash dot _._._._._._._._._._._._._._._.
 72
    65
 73
     4
 40
0.182
 49
0.1181
 74
     0
 49
-0.0295
 74
     0
 49
0.0049
 74
     0
 49
-0.0295
 74
     0
  0
LTYPE
  5
77
330
5
100
AcDbSymbolTableRecord
100
AcDbLinetypeTableRecord
  2
DASH_DOUBLE_DOT
 70
     0
  3
Dash Double Dot __ __ . __ __ . __ __ . __ _
 72
    65
 73
     6
 40
0.2164
 49
0.1181
 74
     0
 49
-0.0295
 74
     0
 49
0.0049
 74
     0
 49
-0.0295
 74
     0
 49
0.0049
 74
     0
 49
-0.0295
 74
     0
  0
LTYPE
  5
78
330
5
100
AcDbSymbolTableRecord
100
AcDbLinetypeTableRecord
  2
DASH_TRIPLE_DOT
 70
     0
  3
Dash Triple-Dot _ . . . _ . . . _ . . . _
 72
    65
 73
     8
 40
0.2508
 49
0.1181
 74
     0
 49
-0.0295
 74
     0
 49
0.0049
 74
     0
 49
-0.0295
 74
     0
 49
0.0049
 74
     0
 49
-0.0295
 74
     0
 49
0.0049
 74
     0
 49
-0.0295
 74
     0
  0
LTYPE
  5
79
330
5
100
AcDbSymbolTableRecord
100
AcDbLinetypeTableRecord
  2
DASHED
 70
     0
  3
Dashed __ __ __ __ __ __ __ __ __ __ __ __ __ _
 72
    65
 73
     2
 40
0.2068
 49
0.1655
 74
     0
 49
-0.0413
 74
     0
  0
LTYPE
  5
7A
330
5
100
AcDbSymbolTableRecord
100
AcDbLinetypeTableRecord
  2
DASHED_SPACE
 70
     0
  3
Dashed Space __ __ __ __ __ __ __ __ __ __ __ _
 72
    65
 73
     2
 40
0.2067
 49
0.1654
 74
     0
 49
-0.0413
 74
     0
  0
LTYPE
  5
7B
330
5
100
AcDbSymbolTableRecord
100
AcDbLinetypeTableRecord
  2
DOTTED
 70
     0
  3
Dotted . . . . . . . . . . . . . . . . . . . . 
 72
    65
 73
     2
 40
0.0481
 49
0.0068
 74
     0
 49
-0.0413
 74
     0
  0
LTYPE
  5
7C
330
5
100
AcDbSymbolTableRecord
100
AcDbLinetypeTableRecord
  2
DOUBLE_DASH_CHAIN
 70
     0
  3
Double Dash Chain ___ _ _ ___ _ _ ___ _ _ ___ _
 72
    65
 73
     6
 40
1.240299999999999
 49
0.6614
 74
     0
 49
-0.0827
 74
     0
 49
0.1654
 74
     0
 49
-0.0827
 74
     0
 49
0.1654
 74
     0
 49
-0.0827
 74
     0
  0
LTYPE
  5
7D
330
5
100
AcDbSymbolTableRecord
100
AcDbLinetypeTableRecord
  2
DOUBLE_DASH_DOT
 70
     0
  3
Double Dash Dot __ __ . __ __ . __ __ . __ _
 72
    65
 73
     6
 40
0.3296
 49
0.1181
 74
     0
 49
-0.0295
 74
     0
 49
0.1181
 74
     0
 49
-0.0295
 74
     0
 49
0.0049
 74
     0
 49
-0.0295
 74
     0
  0
LTYPE
  5
7E
330
5
100
AcDbSymbolTableRecord
100
AcDbLinetypeTableRecord
  2
DOUBLE_DASH_DOUBLE_DOT
 70
     0
  3
Double Dash Double Dot _ _ . . _ _ . . _ _
 72
    65
 73
     8
 40
0.364
 49
0.1181
 74
     0
 49
-0.0295
 74
     0
 49
0.1181
 74
     0
 49
-0.0295
 74
     0
 49
0.0049
 74
     0
 49
-0.0295
 74
     0
 49
0.0049
 74
     0
 49
-0.0295
 74
     0
  0
LTYPE
  5
7F
330
5
100
AcDbSymbolTableRecord
100
AcDbLinetypeTableRecord
  2
DOUBLE_DASH_TRIPLE_DOT
 70
     0
  3
Double Dash Triple Dot __ __ . . . __ __ . . .
 72
    65
 73
    10
 40
0.3984
 49
0.1181
 74
     0
 49
-0.0295
 74
     0
 49
0.1181
 74
     0
 49
-0.0295
 74
     0
 49
0.0049
 74
     0
 49
-0.0295
 74
     0
 49
0.0049
 74
     0
 49
-0.0295
 74
     0
 49
0.0049
 74
     0
 49
-0.0295
 74
     0
  0
LTYPE
  5
80
330
5
100
AcDbSymbolTableRecord
100
AcDbLinetypeTableRecord
  2
LONG_DASH_DOTTED
 70
     0
  3
Long Dash Dotted ____ . ____ . ____ . ____ . _
 72
    65
 73
     4
 40
0.3001
 49
0.2362
 74
     0
 49
-0.0295
 74
     0
 49
0.0049
 74
     0
 49
-0.0295
 74
     0
  0
LTYPE
  5
81
330
5
100
AcDbSymbolTableRecord
100
AcDbLinetypeTableRecord
  2
LONG_DASH_DOUBLE_DOT
 70
     0
  3
Long Dash Double Dot ____ . . ____ . . ____ . .
 72
    65
 73
     6
 40
0.3345
 49
0.2362
 74
     0
 49
-0.0295
 74
     0
 49
0.0049
 74
     0
 49
-0.0295
 74
     0
 49
0.0049
 74
     0
 49
-0.0295
 74
     0
  0
LTYPE
  5
82
330
5
100
AcDbSymbolTableRecord
100
AcDbLinetypeTableRecord
  2
LONG_DASH_TRIPLE_DOT
 70
     0
  3
Long Dash Triple Dot ____ ... ____ ... ____
 72
    65
 73
     8
 40
0.3689
 49
0.2362
 74
     0
 49
-0.0295
 74
     0
 49
0.0049
 74
     0
 49
-0.0295
 74
     0
 49
0.0049
 74
     0
 49
-0.0295
 74
     0
 49
0.0049
 74
     0
 49
-0.0295
 74
     0
  0
LTYPE
  5
83
330
5
100
AcDbSymbolTableRecord
100
AcDbLinetypeTableRecord
  2
BORDER
 70
     0
  3
Border __ __ . __ __ . __ __ . __ __ . __ __ .
 72
    65
 73
     6
 40
44.45
 49
12.7
 74
     0
 49
-6.349999999999999
 74
     0
 49
12.7
 74
     0
 49
-6.349999999999999
 74
     0
 49
0.0
 74
     0
 49
-6.349999999999999
 74
     0
  0
LTYPE
  5
84
330
5
100
AcDbSymbolTableRecord
100
AcDbLinetypeTableRecord
  2
BORDER2
 70
     0
  3
Border (.5x) __.__.__.__.__.__.__.__.__.__.__.
 72
    65
 73
     6
 40
22.225
 49
6.349999999999999
 74
     0
 49
-3.174999999999999
 74
     0
 49
6.349999999999999
 74
     0
 49
-3.174999999999999
 74
     0
 49
0.0
 74
     0
 49
-3.174999999999999
 74
     0
  0
LTYPE
  5
85
330
5
100
AcDbSymbolTableRecord
100
AcDbLinetypeTableRecord
  2
BORDERX2
 70
     0
  3
Border (2x) ____  ____  .  ____  ____  .  ___
 72
    65
 73
     6
 40
88.9
 49
25.4
 74
     0
 49
-12.7
 74
     0
 49
25.4
 74
     0
 49
-12.7
 74
     0
 49
0.0
 74
     0
 49
-12.7
 74
     0
  0
LTYPE
  5
86
330
5
100
AcDbSymbolTableRecord
100
AcDbLinetypeTableRecord
  2
CENTER
 70
     0
  3
Center ____ _ ____ _ ____ _ ____ _ ____ _ ____
 72
    65
 73
     4
 40
50.8
 49
31.75
 74
     0
 49
-6.349999999999999
 74
     0
 49
6.349999999999999
 74
     0
 49
-6.349999999999999
 74
     0
  0
LTYPE
  5
87
330
5
100
AcDbSymbolTableRecord
100
AcDbLinetypeTableRecord
  2
CENTER2
 70
     0
  3
Center (.5x) ___ _ ___ _ ___ _ ___ _ ___ _ ___
 72
    65
 73
     4
 40
28.575
 49
19.05
 74
     0
 49
-3.174999999999999
 74
     0
 49
3.174999999999999
 74
     0
 49
-3.174999999999999
 74
     0
  0
LTYPE
  5
88
330
5
100
AcDbSymbolTableRecord
100
AcDbLinetypeTableRecord
  2
CENTERX2
 70
     0
  3
Center (2x) ________  __  ________  __  _____
 72
    65
 73
     4
 40
101.6
 49
63.5
 74
     0
 49
-12.7
 74
     0
 49
12.7
 74
     0
 49
-12.7
 74
     0
  0
LTYPE
  5
89
330
5
100
AcDbSymbolTableRecord
100
AcDbLinetypeTableRecord
  2
DASHDOT2
 70
     0
  3
Dash dot (.5x) _._._._._._._._._._._._._._._.
 72
    65
 73
     4
 40
12.7
 49
6.349999999999999
 74
     0
 49
-3.174999999999999
 74
     0
 49
0.0
 74
     0
 49
-3.174999999999999
 74
     0
  0
LTYPE
  5
8A
330
5
100
AcDbSymbolTableRecord
100
AcDbLinetypeTableRecord
  2
DASHDOTX2
 70
     0
  3
Dash dot (2x) ____  .  ____  .  ____  .  ___
 72
    65
 73
     4
 40
50.8
 49
25.4
 74
     0
 49
-12.7
 74
     0
 49
0.0
 74
     0
 49
-12.7
 74
     0
  0
LTYPE
  5
8B
330
5
100
AcDbSymbolTableRecord
100
AcDbLinetypeTableRecord
  2
DASHED2
 70
     0
  3
Dashed (.5x) _ _ _ _ _ _ _ _ _ _ _ _ _ _ _ _ _
 72
    65
 73
     2
 40
9.524999999999998
 49
6.349999999999999
 74
     0
 49
-3.174999999999999
 74
     0
  0
LTYPE
  5
8C
330
5
100
AcDbSymbolTableRecord
100
AcDbLinetypeTableRecord
  2
DASHEDX2
 70
     0
  3
Dashed (2x) ____  ____  ____  ____  ____  ___
 72
    65
 73
     2
 40
38.1
 49
25.4
 74
     0
 49
-12.7
 74
     0
  0
LTYPE
  5
8D
330
5
100
AcDbSymbolTableRecord
100
AcDbLinetypeTableRecord
  2
DIVIDE
 70
     0
  3
Divide ____ . . ____ . . ____ . . ____ . . ____
 72
    65
 73
     6
 40
31.75
 49
12.7
 74
     0
 49
-6.349999999999999
 74
     0
 49
0.0
 74
     0
 49
-6.349999999999999
 74
     0
 49
0.0
 74
     0
 49
-6.349999999999999
 74
     0
  0
LTYPE
  5
8E
330
5
100
AcDbSymbolTableRecord
100
AcDbLinetypeTableRecord
  2
DIVIDE2
 70
     0
  3
Divide (.5x) __..__..__..__..__..__..__..__.._
 72
    65
 73
     6
 40
15.875
 49
6.349999999999999
 74
     0
 49
-3.174999999999999
 74
     0
 49
0.0
 74
     0
 49
-3.174999999999999
 74
     0
 49
0.0
 74
     0
 49
-3.174999999999999
 74
     0
  0
LTYPE
  5
8F
330
5
100
AcDbSymbolTableRecord
100
AcDbLinetypeTableRecord
  2
DIVIDEX2
 70
     0
  3
Divide (2x) ________  .  .  ________  .  .  _
 72
    65
 73
     6
 40
63.49999999999999
 49
25.4
 74
     0
 49
-12.7
 74
     0
 49
0.0
 74
     0
 49
-12.7
 74
     0
 49
0.0
 74
     0
 49
-12.7
 74
     0
  0
LTYPE
  5
90
330
5
100
AcDbSymbolTableRecord
100
AcDbLinetypeTableRecord
  2
DOT
 70
     0
  3
Dot . . . . . . . . . . . . . . . . . . . . . .
 72
    65
 73
     2
 40
6.349999999999999
 49
0.0
 74
     0
 49
-6.349999999999999
 74
     0
  0
LTYPE
  5
91
330
5
100
AcDbSymbolTableRecord
100
AcDbLinetypeTableRecord
  2
DOT2
 70
     0
  3
Dot (.5x) .....................................
 72
    65
 73
     2
 40
3.174999999999999
 49
0.0
 74
     0
 49
-3.174999999999999
 74
     0
  0
LTYPE
  5
92
330
5
100
AcDbSymbolTableRecord
100
AcDbLinetypeTableRecord
  2
DOTX2
 70
     0
  3
Dot (2x) .  .  .  .  .  .  .  .  .  .  .  .  . 
 72
    65
 73
     2
 40
12.7
 49
0.0
 74
     0
 49
-12.7
 74
     0
  0
LTYPE
  5
93
330
5
100
AcDbSymbolTableRecord
100
AcDbLinetypeTableRecord
  2
HIDDEN
 70
     0
  3
Hidden __ __ __ __ __ __ __ __ __ __ __ __ __ _
 72
    65
 73
     2
 40
9.524999999999998
 49
6.349999999999999
 74
     0
 49
-3.174999999999999
 74
     0
  0
LTYPE
  5
94
330
5
100
AcDbSymbolTableRecord
100
AcDbLinetypeTableRecord
  2
HIDDEN2
 70
     0
  3
Hidden (.5x) _ _ _ _ _ _ _ _ _ _ _ _ _ _ _ _ _
 72
    65
 73
     2
 40
4.762499999999999
 49
3.174999999999999
 74
     0
 49
-1.587499999999999
 74
     0
  0
LTYPE
  5
95
330
5
100
AcDbSymbolTableRecord
100
AcDbLinetypeTableRecord
  2
HIDDENX2
 70
     0
  3
Hidden (2x) ____ ____ ____ ____ ____ ____ ____
 72
    65
 73
     2
 40
19.05
 49
12.7
 74
     0
 49
-6.349999999999999
 74
     0
  0
LTYPE
  5
96
330
5
100
AcDbSymbolTableRecord
100
AcDbLinetypeTableRecord
  2
PHANTOM
 70
     0
  3
Phantom ______  __  __  ______  __  __  ______
 72
    65
 73
     6
 40
63.5
 49
31.75
 74
     0
 49
-6.349999999999999
 74
     0
 49
6.349999999999999
 74
     0
 49
-6.349999999999999
 74
     0
 49
6.349999999999999
 74
     0
 49
-6.349999999999999
 74
     0
  0
LTYPE
  5
97
330
5
100
AcDbSymbolTableRecord
100
AcDbLinetypeTableRecord
  2
PHANTOM2
 70
     0
  3
Phantom (.5x) ___ _ _ ___ _ _ ___ _ _ ___ _ _
 72
    65
 73
     6
 40
31.75
 49
15.875
 74
     0
 49
-3.174999999999999
 74
     0
 49
3.174999999999999
 74
     0
 49
-3.174999999999999
 74
     0
 49
3.174999999999999
 74
     0
 49
-3.174999999999999
 74
     0
  0
LTYPE
  5
98
330
5
100
AcDbSymbolTableRecord
100
AcDbLinetypeTableRecord
  2
PHANTOMX2
 70
     0
  3
Phantom (2x) ____________    ____    ____   _
 72
    65
 73
     6
 40
127.0
 49
63.5
 74
     0
 49
-12.7
 74
     0
 49
12.7
 74
     0
 49
-12.7
 74
     0
 49
12.7
 74
     0
 49
-12.7
 74
     0
  0
LTYPE
  5
99
330
5
100
AcDbSymbolTableRecord
100
AcDbLinetypeTableRecord
  2
ACAD_ISO02W100
 70
     0
  3
ISO dash __ __ __ __ __ __ __ __ __ __ __ __ __
 72
    65
 73
     2
 40
15.0
 49
12.0
 74
     0
 49
-3.0
 74
     0
  0
LTYPE
  5
9A
330
5
100
AcDbSymbolTableRecord
100
AcDbLinetypeTableRecord
  2
ACAD_ISO03W100
 70
     0
  3
ISO dash space __    __    __    __    __    __
 72
    65
 73
     2
 40
30.0
 49
12.0
 74
     0
 49
-18.0
 74
     0
  0
LTYPE
  5
9B
330
5
100
AcDbSymbolTableRecord
100
AcDbLinetypeTableRecord
  2
ACAD_ISO04W100
 70
     0
  3
ISO long-dash dot ____ . ____ . ____ . ____ . _
 72
    65
 73
     4
 40
30.0
 49
24.0
 74
     0
 49
-3.0
 74
     0
 49
0.0
 74
     0
 49
-3.0
 74
     0
  0
LTYPE
  5
9C
330
5
100
AcDbSymbolTableRecord
100
AcDbLinetypeTableRecord
  2
ACAD_ISO05W100
 70
     0
  3
ISO long-dash double-dot ____ .. ____ .. ____ .
 72
    65
 73
     6
 40
33.0
 49
24.0
 74
     0
 49
-3.0
 74
     0
 49
0.0
 74
     0
 49
-3.0
 74
     0
 49
0.0
 74
     0
 49
-3.0
 74
     0
  0
LTYPE
  5
9D
330
5
100
AcDbSymbolTableRecord
100
AcDbLinetypeTableRecord
  2
ACAD_ISO06W100
 70
     0
  3
ISO long-dash triple-dot ____ ... ____ ... ____
 72
    65
 73
     8
 40
36.0
 49
24.0
 74
     0
 49
-3.0
 74
     0
 49
0.0
 74
     0
 49
-3.0
 74
     0
 49
0.0
 74
     0
 49
-3.0
 74
     0
 49
0.0
 74
     0
 49
-3.0
 74
     0
  0
LTYPE
  5
9E
330
5
100
AcDbSymbolTableRecord
100
AcDbLinetypeTableRecord
  2
ACAD_ISO07W100
 70
     0
  3
ISO dot . . . . . . . . . . . . . . . . . . . .
 72
    65
 73
     2
 40
3.0
 49
0.0
 74
     0
 49
-3.0
 74
     0
  0
LTYPE
  5
9F
330
5
100
AcDbSymbolTableRecord
100
AcDbLinetypeTableRecord
  2
ACAD_ISO08W100
 70
     0
  3
ISO long-dash short-dash ____ __ ____ __ ____ _
 72
    65
 73
     4
 40
36.0
 49
24.0
 74
     0
 49
-3.0
 74
     0
 49
6.0
 74
     0
 49
-3.0
 74
     0
  0
LTYPE
  5
A0
330
5
100
AcDbSymbolTableRecord
100
AcDbLinetypeTableRecord
  2
ACAD_ISO09W100
 70
     0
  3
ISO long-dash double-short-dash ____ __ __ ____
 72
    65
 73
     6
 40
45.0
 49
24.0
 74
     0
 49
-3.0
 74
     0
 49
6.0
 74
     0
 49
-3.0
 74
     0
 49
6.0
 74
     0
 49
-3.0
 74
     0
  0
LTYPE
  5
A1
330
5
100
AcDbSymbolTableRecord
100
AcDbLinetypeTableRecord
  2
ACAD_ISO10W100
 70
     0
  3
ISO dash dot __ . __ . __ . __ . __ . __ . __ .
 72
    65
 73
     4
 40
18.0
 49
12.0
 74
     0
 49
-3.0
 74
     0
 49
0.0
 74
     0
 49
-3.0
 74
     0
  0
LTYPE
  5
A2
330
5
100
AcDbSymbolTableRecord
100
AcDbLinetypeTableRecord
  2
ACAD_ISO11W100
 70
     0
  3
ISO double-dash dot __ __ . __ __ . __ __ . __ 
 72
    65
 73
     6
 40
33.0
 49
12.0
 74
     0
 49
-3.0
 74
     0
 49
12.0
 74
     0
 49
-3.0
 74
     0
 49
0.0
 74
     0
 49
-3.0
 74
     0
  0
LTYPE
  5
A3
330
5
100
AcDbSymbolTableRecord
100
AcDbLinetypeTableRecord
  2
ACAD_ISO12W100
 70
     0
  3
ISO dash double-dot __ . . __ . . __ . . __ . .
 72
    65
 73
     6
 40
21.0
 49
12.0
 74
     0
 49
-3.0
 74
     0
 49
0.0
 74
     0
 49
-3.0
 74
     0
 49
0.0
 74
     0
 49
-3.0
 74
     0
  0
LTYPE
  5
A4
330
5
100
AcDbSymbolTableRecord
100
AcDbLinetypeTableRecord
  2
ACAD_ISO13W100
 70
     0
  3
ISO double-dash double-dot __ __ . . __ __ . . 
 72
    65
 73
     8
 40
36.0
 49
12.0
 74
     0
 49
-3.0
 74
     0
 49
12.0
 74
     0
 49
-3.0
 74
     0
 49
0.0
 74
     0
 49
-3.0
 74
     0
 49
0.0
 74
     0
 49
-3.0
 74
     0
  0
LTYPE
  5
A5
330
5
100
AcDbSymbolTableRecord
100
AcDbLinetypeTableRecord
  2
ACAD_ISO14W100
 70
     0
  3
ISO dash triple-dot __ . . . __ . . . __ . . . 
 72
    65
 73
     8
 40
24.0
 49
12.0
 74
     0
 49
-3.0
 74
     0
 49
0.0
 74
     0
 49
-3.0
 74
     0
 49
0.0
 74
     0
 49
-3.0
 74
     0
 49
0.0
 74
     0
 49
-3.0
 74
     0
  0
LTYPE
  5
A6
330
5
100
AcDbSymbolTableRecord
100
AcDbLinetypeTableRecord
  2
ACAD_ISO15W100
 70
     0
  3
ISO double-dash triple-dot __ __ . . . __ __ . 
 72
    65
 73
    10
 40
39.0
 49
12.0
 74
     0
 49
-3.0
 74
     0
 49
12.0
 74
     0
 49
-3.0
 74
     0
 49
0.0
 74
     0
 49
-3.0
 74
     0
 49
0.0
 74
     0
 49
-3.0
 74
     0
 49
0.0
 74
     0
 49
-3.0
 74
     0
  0
LTYPE
  5
A9
330
5
100
AcDbSymbolTableRecord
100
AcDbLinetypeTableRecord
  2
FENCELINE1
 70
     0
  3
Fenceline circle ----0-----0----0-----0----0---
 72
    65
 73
     4
 40
36.83
 49
6.349999999999999
 74
     0
 49
-2.54
 74
     4
 75
   133
340
A8
 46
2.54
 50
0.0
 44
-2.54
 45
0.0
 49
-2.54
 74
     0
 49
25.4
 74
     0
  0
LTYPE
  5
AA
330
5
100
AcDbSymbolTableRecord
100
AcDbLinetypeTableRecord
  2
FENCELINE2
 70
     0
  3
Fenceline square ----[]-----[]----[]-----[]----
 72
    65
 73
     4
 40
36.83
 49
6.349999999999999
 74
     0
 49
-2.54
 74
     4
 75
   132
340
A8
 46
2.54
 50
0.0
 44
-2.54
 45
0.0
 49
-2.54
 74
     0
 49
25.4
 74
     0
  0
LTYPE
  5
AB
330
5
100
AcDbSymbolTableRecord
100
AcDbLinetypeTableRecord
  2
TRACKS
 70
     0
  3
Tracks -|-|-|-|-|-|-|-|-|-|-|-|-|-|-|-|-|-|-|-|
 72
    65
 73
     2
 40
7.62
 49
3.81
 74
     4
 75
   130
340
A8
 46
6.349999999999999
 50
0.0
 44
0.0
 45
0.0
 49
3.81
 74
     0
  0
LTYPE
  5
AC
330
5
100
AcDbSymbolTableRecord
100
AcDbLinetypeTableRecord
  2
BATTING
 70
     0
  3
Batting SSSSSSSSSSSSSSSSSSSSSSSSSSSSSSSSSSSSSSS
 72
    65
 73
     4
 40
10.16254
 49
0.00254
 74
     0
 49
-2.54
 74
     4
 75
   134
340
A8
 46
2.54
 50
0.0
 44
-2.54
 45
0.0
 49
-5.08
 74
     4
 75
   134
340
A8
 46
2.54
 50
180.0
 44
2.54
 45
0.0
 49
-2.54
 74
     0
  0
LTYPE
  5
AD
330
5
100
AcDbSymbolTableRecord
100
AcDbLinetypeTableRecord
  2
HOT_WATER_SUPPLY
 70
     0
  3
Hot water supply ---- HW ---- HW ---- HW ----
 72
    65
 73
     3
 40
22.86
 49
12.7
 74
     0
 49
-5.08
 74
     2
 75
     0
340
55
 46
2.54
 50
0.0
 44
-2.54
 45
-1.27
  9
HW
 49
-5.08
 74
     0
  0
LTYPE
  5
AE
330
5
100
AcDbSymbolTableRecord
100
AcDbLinetypeTableRecord
  2
GAS_LINE
 70
     0
  3
Gas line ----GAS----GAS----GAS----GAS----GAS---
 72
    65
 73
     3
 40
24.13
 49
12.7
 74
     0
 49
-5.08
 74
     2
 75
     0
340
55
 46
2.54
 50
0.0
 44
-2.54
 45
-1.27
  9
GAS
 49
-6.349999999999999
 74
     0
  0
LTYPE
  5
AF
330
5
100
AcDbSymbolTableRecord
100
AcDbLinetypeTableRecord
  2
ZIGZAG
 70
     0
  3
Zig zag /\/\/\/\/\/\/\/\/\/\/\/\/\/\/\/\/\/\/\/
 72
    65
 73
     4
 40
20.32254
 49
0.00254
 74
     0
 49
-5.08
 74
     4
 75
   131
340
A8
 46
5.08
 50
0.0
 44
-5.08
 45
0.0
 49
-10.16
 74
     4
 75
   131
340
A8
 46
5.08
 50
180.0
 44
5.08
 45
0.0
 49
-5.08
 74
     0
  0
ENDTAB
  0
TABLE
  2
LAYER
  5
2
330
0
100
AcDbSymbolTable
 70
     8
  0
LAYER
  5
54
330
2
100
AcDbSymbolTableRecord
100
AcDbLayerTableRecord
  2
0
 70
     0
 62
     7
  6
Continuous
370
    -3
390
F
  0
LAYER
  5
BA
330
2
100
AcDbSymbolTableRecord
100
AcDbLayerTableRecord
  2
Dimension (ISO)
 70
     0
 62
   161
  6
Continuous
370
    18
390
F
  0
LAYER
  5
BB
330
2
100
AcDbSymbolTableRecord
100
AcDbLayerTableRecord
  2
Hatch (ISO)
 70
     0
 62
   176
  6
Continuous
370
    18
390
F
  0
LAYER
  5
C3
330
2
100
AcDbSymbolTableRecord
100
AcDbLayerTableRecord
  2
Sketch Geometry (ISO)
 70
     0
 62
     7
  6
Continuous
370
    25
390
F
  0
LAYER
  5
C4
330
2
100
AcDbSymbolTableRecord
100
AcDbLayerTableRecord
  2
Symbol (ISO)
 70
     0
 62
     7
  6
Continuous
370
    25
390
F
  0
LAYER
  5
C5
330
2
100
AcDbSymbolTableRecord
100
AcDbLayerTableRecord
  2
Title (ISO)
 70
     0
 62
     7
  6
Continuous
370
    30
390
F
  0
LAYER
  5
C8
330
2
100
AcDbSymbolTableRecord
100
AcDbLayerTableRecord
  2
Visible (ISO)
 70
     0
 62
     7
  6
Continuous
370
    35
390
F
  0
LAYER
  5
38D
330
2
100
AcDbSymbolTableRecord
100
AcDbLayerTableRecord
  2
Defpoints
 70
     0
 62
     7
  6
Continuous
290
     0
370
    -3
390
F
  0
ENDTAB
  0
TABLE
  2
STYLE
  5
3
330
0
100
AcDbSymbolTable
 70
     8
  0
STYLE
  5
55
330
3
100
AcDbSymbolTableRecord
100
AcDbTextStyleTableRecord
  2
Standard
 70
     0
 40
0.0
 41
1.0
 50
0.0
 71
     0
 42
0.2
  3
tahoma.ttf
  4

1001
ACAD
1000
Tahoma
1071
      256
  0
STYLE
  5
5A
330
3
100
AcDbSymbolTableRecord
100
AcDbTextStyleTableRecord
  2
Annotative
 70
     0
 40
0.0
 41
1.0
 50
0.0
 71
     0
 42
0.2
  3
txt
  4

1001
AcadAnnotative
1000
AnnotativeData
1002
{
1070
     1
1070
     1
1002
}
  0
STYLE
  5
A8
330
3
100
AcDbSymbolTableRecord
100
AcDbTextStyleTableRecord
  2

 70
     1
 40
0.0
 41
1.0
 50
0.0
 71
     0
 42
0.2
  3
ltypeshp.shx
  4

  0
STYLE
  5
CD
330
3
100
AcDbSymbolTableRecord
100
AcDbTextStyleTableRecord
  2
Label Text (ISO)
 70
     0
 40
0.0
 41
1.0
 50
0.0
 71
     0
 42
0.2
  3
tahoma.ttf
  4

1001
ACAD
1000
Tahoma
1071
      256
  0
STYLE
  5
CE
330
3
100
AcDbSymbolTableRecord
100
AcDbTextStyleTableRecord
  2
Note Text (ISO)
 70
     0
 40
0.0
 41
1.0
 50
0.0
 71
     0
 42
0.2
  3
tahoma.ttf
  4

1001
ACAD
1000
Tahoma
1071
      256
  0
STYLE
  5
CF
330
3
100
AcDbSymbolTableRecord
100
AcDbTextStyleTableRecord
  2
Tekst duży
 70
     0
 40
0.0
 41
1.0
 50
0.0
 71
     0
 42
0.2
  3
tahoma.ttf
  4

1001
ACAD
1000
Tahoma
1071
      256
  0
STYLE
  5
D0
330
3
100
AcDbSymbolTableRecord
100
AcDbTextStyleTableRecord
  2
Tekst mały
 70
     0
 40
0.0
 41
1.0
 50
0.0
 71
     0
 42
0.2
  3
tahoma.ttf
  4

1001
ACAD
1000
Tahoma
1071
      256
  0
STYLE
  5
D1
330
3
100
AcDbSymbolTableRecord
100
AcDbTextStyleTableRecord
  2
Tekst notatki (ISO)
 70
     0
 40
0.0
 41
1.0
 50
0.0
 71
     0
 42
0.2
  3
tahoma.ttf
  4

1001
ACAD
1000
Tahoma
1071
      256
  0
ENDTAB
  0
TABLE
  2
VIEW
  5
6
330
0
100
AcDbSymbolTable
 70
     0
  0
ENDTAB
  0
TABLE
  2
UCS
  5
7
330
0
100
AcDbSymbolTable
 70
     0
  0
ENDTAB
  0
TABLE
  2
APPID
  5
9
330
0
100
AcDbSymbolTable
 70
     4
  0
APPID
  5
56
330
9
100
AcDbSymbolTableRecord
100
AcDbRegAppTableRecord
  2
ACAD
 70
     0
  0
APPID
  5
5E
330
9
100
AcDbSymbolTableRecord
100
AcDbRegAppTableRecord
  2
AcadAnnotative
 70
     0
  0
APPID
  5
83B
330
9
100
AcDbSymbolTableRecord
100
AcDbRegAppTableRecord
  2
AcadAnnoPO
 70
     0
  0
APPID
  5
88F
330
9
100
AcDbSymbolTableRecord
100
AcDbRegAppTableRecord
  2
ACAD_MLEADERVER
 70
     0
  0
ENDTAB
  0
TABLE
  2
DIMSTYLE
  5
A
330
0
100
AcDbSymbolTable
 70
    12
100
AcDbDimStyleTable
 71
     2
340
D6
340
58
  0
DIMSTYLE
105
58
330
A
100
AcDbSymbolTableRecord
100
AcDbDimStyleTableRecord
  2
Standard
 70
     0
340
55
  0
DIMSTYLE
105
59
330
A
100
AcDbSymbolTableRecord
100
AcDbDimStyleTableRecord
  2
Annotative
 70
     0
340
55
1001
AcadAnnotative
1000
AnnotativeData
1002
{
1070
     1
1070
     1
1002
}
  0
DIMSTYLE
105
D2
330
A
100
AcDbSymbolTableRecord
100
AcDbDimStyleTableRecord
  2
Default - Method 1b (ISO)
 70
     0
 40
20.0
 41
2.5
 42
0.0
 43
5.999999999999999
 44
3.174999999999999
 45
0.00000001
 46
10.0
 73
     0
 77
     1
 78
     8
 79
     2
140
2.5
143
0.03937
146
1.399999976158142
147
0.762
171
     3
172
     1
176
   256
177
   256
178
   256
179
     2
271
     2
272
     2
274
     3
278
    44
284
     8
286
     8
340
CE
371
    -1
372
    -1
  0
DIMSTYLE
105
D3
330
A
100
AcDbSymbolTableRecord
100
AcDbDimStyleTableRecord
  2
Default - Method 1b (ISO)$7
 70
     0
 40
20.0
 41
2.5
 42
0.0
 43
5.999999999999999
 44
3.174999999999999
 45
0.00000001
 46
10.0
 73
     0
 77
     1
 78
     8
 79
     2
140
2.5
143
0.03937
146
1.399999976158142
147
0.762
171
     3
172
     1
176
   256
177
   256
178
   256
179
     2
271
     2
272
     2
274
     3
278
    44
284
     8
286
     8
340
CE
371
    -1
372
    -1
  0
DIMSTYLE
105
D4
330
A
100
AcDbSymbolTableRecord
100
AcDbDimStyleTableRecord
  2
Default - mm [in] (ISO)
 70
     0
  4
 cal
 40
20.0
 41
2.5
 42
0.0
 43
5.999999999999999
 44
3.174999999999999
 45
0.00000001
 46
10.0
 73
     0
 74
     0
 77
     1
 78
     8
 79
     2
140
2.5
143
0.03937
146
1.399999976158142
147
0.762
170
     1
171
     3
172
     1
176
   256
177
   256
178
   256
179
     3
271
     3
272
     2
274
     3
275
     1
278
    44
284
     8
285
     8
286
     8
340
CE
371
    -1
372
    -1
  0
DIMSTYLE
105
D5
330
A
100
AcDbSymbolTableRecord
100
AcDbDimStyleTableRecord
  2
Default - mm [in] (ISO)$7
 70
     0
  4
 cal
 40
20.0
 41
2.5
 42
0.0
 43
5.999999999999999
 44
3.174999999999999
 45
0.00000001
 46
10.0
 73
     0
 74
     0
 77
     1
 78
     8
 79
     2
140
2.5
143
0.03937
146
1.399999976158142
147
0.762
170
     1
171
     3
172
     1
176
   256
177
   256
178
   256
179
     3
271
     3
272
     2
274
     3
275
     1
278
    44
284
     8
285
     8
286
     8
340
CE
371
    -1
372
    -1
  0
DIMSTYLE
105
D6
102
{ACAD_REACTORS
330
38C
330
46F
330
557
330
639
330
74B
102
}
330
A
100
AcDbSymbolTableRecord
100
AcDbDimStyleTableRecord
  2
Default (ISO)
 70
     0
 40
20.0
 41
2.5
 42
0.5
 43
5.999999999999999
 44
1.0
 45
0.00000001
 46
10.0
 73
     0
 77
     1
 78
     8
 79
     2
140
3.5
143
0.03937
146
0.7142857313156128
147
0.762
171
     3
172
     1
176
   256
177
   256
178
   256
271
     2
272
     2
274
     3
278
    44
340
CD
371
    -1
372
    -1
  0
DIMSTYLE
105
D7
330
A
100
AcDbSymbolTableRecord
100
AcDbDimStyleTableRecord
  2
Default (ISO)$7
 70
     0
 40
20.0
 41
2.5
 42
0.5
 43
5.999999999999999
 44
1.0
 45
0.00000001
 46
10.0
 73
     0
 77
     1
 78
     8
 79
     2
140
3.5
143
0.03937
146
0.7142857313156128
147
0.762
171
     3
172
     1
176
   256
177
   256
178
   256
271
     2
272
     2
274
     3
278
    44
340
CD
371
    -1
372
    -1
  0
DIMSTYLE
105
E6
330
A
100
AcDbSymbolTableRecord
100
AcDbDimStyleTableRecord
  2
Obiekt mieszany (ISO)
 70
     0
 40
20.0
 41
2.5
 42
0.0
 43
5.999999999999999
 44
3.174999999999999
 45
0.00000001
 46
10.0
 73
     0
 74
     0
 77
     1
140
3.5
143
0.03937
146
1.001485705375671
147
0.762
171
     3
172
     1
176
   256
177
   256
178
   256
179
     2
271
     2
272
     2
274
     3
278
    44
340
CD
341
D8
371
    -1
372
    -1
  0
DIMSTYLE
105
E7
330
A
100
AcDbSymbolTableRecord
100
AcDbDimStyleTableRecord
  2
Obiekt mieszany (ISO)$7
 70
     0
 40
20.0
 41
5.0
 42
0.0
 43
5.999999999999999
 44
3.174999999999999
 45
0.00000001
 46
10.0
 73
     0
 74
     0
 77
     1
140
3.5
143
0.03937
146
1.001485705375671
147
0.762
171
     3
172
     1
176
   256
177
   256
178
   256
179
     2
271
     2
272
     2
274
     3
278
    44
340
CD
341
D8
371
    25
372
    -1
  0
DIMSTYLE
105
E8
330
A
100
AcDbSymbolTableRecord
100
AcDbDimStyleTableRecord
  2
Alternate (ISO)
 70
     0
 40
20.0
 41
2.5
340
55
342
E9
  0
DIMSTYLE
105
FA
330
A
100
AcDbSymbolTableRecord
100
AcDbDimStyleTableRecord
  2
Datum (ISO)
 70
     0
 40
20.0
 41
2.5
340
55
342
E9
  0
ENDTAB
  0
TABLE
  2
BLOCK_RECORD
  5
1
330
0
100
AcDbSymbolTable
 70
    13
  0
BLOCK_RECORD
  5
6C
330
1
100
AcDbSymbolTableRecord
100
AcDbBlockTableRecord
  2
*Model_Space
340
6F
  0
BLOCK_RECORD
  5
68
330
1
100
AcDbSymbolTableRecord
100
AcDbBlockTableRecord
  2
*Paper_Space
340
6B
  0
BLOCK_RECORD
  5
70
330
1
100
AcDbSymbolTableRecord
100
AcDbBlockTableRecord
  2
*Paper_Space0
340
73
  0
BLOCK_RECORD
  5
D8
330
1
100
AcDbSymbolTableRecord
100
AcDbBlockTableRecord
  2
Filled-1
340
0
  0
BLOCK_RECORD
  5
E9
330
1
100
AcDbSymbolTableRecord
100
AcDbBlockTableRecord
  2
_Closed
340
0
  0
BLOCK_RECORD
  5
F0
330
1
100
AcDbSymbolTableRecord
100
AcDbBlockTableRecord
  2
DatumFilled45
340
0
  0
BLOCK_RECORD
  5
FB
330
1
100
AcDbSymbolTableRecord
100
AcDbBlockTableRecord
  2
Poziom gruntu
340
0
  0
BLOCK_RECORD
  5
105
330
1
100
AcDbSymbolTableRecord
100
AcDbBlockTableRecord
  2
Poziom
340
0
  0
BLOCK_RECORD
  5
10B
330
1
100
AcDbSymbolTableRecord
100
AcDbBlockTableRecord
  2
Podział ramki pełny
340
0
  0
BLOCK_RECORD
  5
38E
330
1
100
AcDbSymbolTableRecord
100
AcDbBlockTableRecord
  2
*D7
340
0
  0
BLOCK_RECORD
  5
470
330
1
100
AcDbSymbolTableRecord
100
AcDbBlockTableRecord
  2
*D8
340
0
  0
BLOCK_RECORD
  5
558
330
1
100
AcDbSymbolTableRecord
100
AcDbBlockTableRecord
  2
*D9
340
0
  0
BLOCK_RECORD
  5
63A
330
1
100
AcDbSymbolTableRecord
100
AcDbBlockTableRecord
  2
*D10
340
0
  0
BLOCK_RECORD
  5
74C
330
1
100
AcDbSymbolTableRecord
100
AcDbBlockTableRecord
  2
*D11
340
0
  0
BLOCK_RECORD
  5
833
330
1
100
AcDbSymbolTableRecord
100
AcDbBlockTableRecord
  2
Tabelki rysunkowe Rzut
340
0
102
{BLKREFS
331
83E
102
}
  0
ENDTAB
  0
ENDSEC
  0
SECTION
  2
BLOCKS
  0
BLOCK
  5
6D
330
6C
100
AcDbEntity
  8
0
100
AcDbBlockBegin
  2
*Model_Space
 70
     0
 10
0.0
 20
0.0
 30
0.0
  3
*Model_Space
  1

  0
ENDBLK
  5
6E
330
6C
100
AcDbEntity
  8
0
100
AcDbBlockEnd
  0
BLOCK
  5
69
330
68
100
AcDbEntity
 67
     1
  8
0
100
AcDbBlockBegin
  2
*Paper_Space
 70
     0
 10
0.0
 20
0.0
 30
0.0
  3
*Paper_Space
  1

  0
ENDBLK
  5
6A
330
68
100
AcDbEntity
 67
     1
  8
0
100
AcDbBlockEnd
  0
BLOCK
  5
71
330
70
100
AcDbEntity
 67
     1
  8
0
100
AcDbBlockBegin
  2
*Paper_Space0
 70
     0
 10
0.0
 20
0.0
 30
0.0
  3
*Paper_Space0
  1

  0
ENDBLK
  5
72
330
70
100
AcDbEntity
 67
     1
  8
0
100
AcDbBlockEnd
  0
BLOCK
  5
D9
330
D8
100
AcDbEntity
  8
0
100
AcDbBlockBegin
  2
Filled-1
 70
     0
 10
0.0
 20
0.0
 30
0.0
  3
Filled-1
  1

  0
LINE
  5
DB
330
D8
100
AcDbEntity
  8
0
 62
     0
100
AcDbLine
 10
-1.0
 20
0.0
 30
0.0
 11
0.0
 21
0.0
 31
0.0
  0
POLYLINE
  5
DC
330
D8
100
AcDbEntity
  8
0
 62
     0
100
AcDb2dPolyline
 66
     1
 10
0.0
 20
0.0
 30
0.0
 70
   128
  0
VERTEX
  5
DD
330
DC
100
AcDbEntity
  8
0
 62
     0
100
AcDbVertex
100
AcDb2dVertex
 10
-1.0
 20
-0.1
 30
0.0
  0
VERTEX
  5
DE
330
DC
100
AcDbEntity
  8
0
 62
     0
100
AcDbVertex
100
AcDb2dVertex
 10
0.0
 20
0.0
 30
0.0
  0
VERTEX
  5
E0
330
DC
100
AcDbEntity
  8
0
 62
     0
100
AcDbVertex
100
AcDb2dVertex
 10
-1.0
 20
0.1
 30
0.0
  0
VERTEX
  5
E1
330
DC
100
AcDbEntity
  8
0
 62
     0
100
AcDbVertex
100
AcDb2dVertex
 10
-1.0
 20
-0.1
 30
0.0
  0
SEQEND
  5
DF
330
DC
100
AcDbEntity
  8
0
 62
     0
  0
SOLID
  5
E2
330
D8
100
AcDbEntity
  8
0
 62
     0
100
AcDbTrace
 10
-1.0
 20
-0.1
 30
0.0
 11
0.0
 21
0.0
 31
0.0
 12
-1.0
 22
0.1
 32
0.0
 13
-1.0
 23
-0.1
 33
0.0
  0
LINE
  5
E3
330
D8
100
AcDbEntity
  8
0
 62
     0
100
AcDbLine
 10
-1.0
 20
-0.1
 30
0.0
 11
0.0
 21
0.0
 31
0.0
  0
LINE
  5
E4
330
D8
100
AcDbEntity
  8
0
 62
     0
100
AcDbLine
 10
0.0
 20
0.0
 30
0.0
 11
-1.0
 21
0.1
 31
0.0
  0
LINE
  5
E5
330
D8
100
AcDbEntity
  8
0
 62
     0
100
AcDbLine
 10
-1.0
 20
0.1
 30
0.0
 11
-1.0
 21
-0.1
 31
0.0
  0
ENDBLK
  5
DA
330
D8
100
AcDbEntity
  8
0
100
AcDbBlockEnd
  0
BLOCK
  5
EE
330
E9
100
AcDbEntity
  8
0
100
AcDbBlockBegin
  2
_Closed
 70
     0
 10
0.0
 20
0.0
 30
0.0
  3
_Closed
  1

  0
LINE
  5
EA
330
E9
100
AcDbEntity
  8
0
  6
ByBlock
 62
     0
370
    -2
100
AcDbLine
 10
-1.0
 20
0.1666666666666666
 30
0.0
 11
0.0
 21
0.0
 31
0.0
  0
LINE
  5
EB
330
E9
100
AcDbEntity
  8
0
  6
ByBlock
 62
     0
370
    -2
100
AcDbLine
 10
0.0
 20
0.0
 30
0.0
 11
-1.0
 21
-0.1666666666666666
 31
0.0
  0
LINE
  5
EC
330
E9
100
AcDbEntity
  8
0
  6
ByBlock
 62
     0
370
    -2
100
AcDbLine
 10
-1.0
 20
0.1666666666666666
 30
0.0
 11
-1.0
 21
-0.1666666666666666
 31
0.0
  0
LINE
  5
ED
330
E9
100
AcDbEntity
  8
0
  6
ByBlock
 62
     0
370
    -2
100
AcDbLine
 10
0.0
 20
0.0
 30
0.0
 11
-1.0
 21
0.0
 31
0.0
  0
ENDBLK
  5
EF
330
E9
100
AcDbEntity
  8
0
100
AcDbBlockEnd
  0
BLOCK
  5
F1
330
F0
100
AcDbEntity
  8
0
100
AcDbBlockBegin
  2
DatumFilled45
 70
     0
 10
0.0
 20
0.0
 30
0.0
  3
DatumFilled45
  1

  0
POLYLINE
  5
F3
330
F0
100
AcDbEntity
  8
0
 62
     0
100
AcDb2dPolyline
 66
     1
 10
0.0
 20
0.0
 30
0.0
 70
   128
  0
VERTEX
  5
F4
330
F3
100
AcDbEntity
  8
0
 62
     0
100
AcDbVertex
100
AcDb2dVertex
 10
0.0
 20
1.0
 30
0.0
  0
VERTEX
  5
F5
330
F3
100
AcDbEntity
  8
0
 62
     0
100
AcDbVertex
100
AcDb2dVertex
 10
0.0
 20
-1.0
 30
0.0
  0
VERTEX
  5
F7
330
F3
100
AcDbEntity
  8
0
 62
     0
100
AcDbVertex
100
AcDb2dVertex
 10
-1.0
 20
0.0
 30
0.0
  0
VERTEX
  5
F8
330
F3
100
AcDbEntity
  8
0
 62
     0
100
AcDbVertex
100
AcDb2dVertex
 10
0.0
 20
1.0
 30
0.0
  0
SEQEND
  5
F6
330
F3
100
AcDbEntity
  8
0
 62
     0
  0
SOLID
  5
F9
330
F0
100
AcDbEntity
  8
0
 62
     0
100
AcDbTrace
 10
0.0
 20
1.0
 30
0.0
 11
0.0
 21
-1.0
 31
0.0
 12
-1.0
 22
0.0
 32
0.0
 13
0.0
 23
1.0
 33
0.0
  0
ENDBLK
  5
F2
330
F0
100
AcDbEntity
  8
0
100
AcDbBlockEnd
  0
BLOCK
  5
FC
330
FB
100
AcDbEntity
  8
0
100
AcDbBlockBegin
  2
Poziom gruntu
 70
     0
 10
0.0
 20
0.0
 30
0.0
  3
Poziom gruntu
  1

  0
HATCH
  5
101
330
FB
100
AcDbEntity
  8
Hatch (ISO)
 62
     7
100
AcDbHatch
 10
0.0
 20
0.0
 30
0.0
210
0.0
220
0.0
230
1.0
  2
SOLID
 70
     1
 71
     0
 91
        1
 92
        1
 93
        3
 72
     1
 10
-1.750000000000024
 20
1.515544456622812
 11
1.750000000000024
 21
1.515544456622812
 72
     1
 10
1.750000000000024
 20
1.515544456622812
 11
0.0
 21
-1.515544456622794
 72
     1
 10
0.0
 20
-1.515544456622794
 11
-1.750000000000024
 21
1.515544456622812
 97
        0
 75
     0
 76
     1
 98
        1
 10
0.0
 20
0.0
  0
LINE
  5
102
330
FB
100
AcDbEntity
  8
Sketch Geometry (ISO)
100
AcDbLine
 10
0.0
 20
-1.515544456622794
 30
0.0
 11
-1.750000000000024
 21
1.515544456622812
 31
0.0
  0
LINE
  5
103
330
FB
100
AcDbEntity
  8
Sketch Geometry (ISO)
100
AcDbLine
 10
-1.750000000000024
 20
1.515544456622812
 30
0.0
 11
1.750000000000024
 21
1.515544456622812
 31
0.0
  0
LINE
  5
104
330
FB
100
AcDbEntity
  8
Sketch Geometry (ISO)
100
AcDbLine
 10
1.750000000000024
 20
1.515544456622812
 30
0.0
 11
0.0
 21
-1.515544456622794
 31
0.0
  0
ENDBLK
  5
FD
330
FB
100
AcDbEntity
  8
0
100
AcDbBlockEnd
  0
BLOCK
  5
106
330
105
100
AcDbEntity
  8
0
100
AcDbBlockBegin
  2
Poziom
 70
     0
 10
0.0
 20
0.0
 30
0.0
  3
Poziom
  1

  0
LINE
  5
108
330
105
100
AcDbEntity
  8
Sketch Geometry (ISO)
100
AcDbLine
 10
-4.613248654051878
 20
5.0
 30
0.0
 11
-4.613248654051878
 21
-5.0
 31
0.0
  0
LINE
  5
109
330
105
100
AcDbEntity
  8
Sketch Geometry (ISO)
100
AcDbLine
 10
-4.613248654051878
 20
-5.0
 30
0.0
 11
-7.5
 21
0.0
 31
0.0
  0
LINE
  5
10A
330
105
100
AcDbEntity
  8
Sketch Geometry (ISO)
100
AcDbLine
 10
-7.5
 20
0.0
 30
0.0
 11
7.5
 21
0.0
 31
0.0
  0
ENDBLK
  5
107
330
105
100
AcDbEntity
  8
0
100
AcDbBlockEnd
  0
BLOCK
  5
10C
330
10B
100
AcDbEntity
  8
0
100
AcDbBlockBegin
  2
Podział ramki pełny
 70
     0
 10
0.0
 20
0.0
 30
0.0
  3
Podział ramki pełny
  1

  0
LINE
  5
10E
330
10B
100
AcDbEntity
  8
Sketch Geometry (ISO)
100
AcDbLine
 10
0.0
 20
190.0
 30
0.0
 11
0.0
 21
-190.0
 31
0.0
  0
LINE
  5
10F
330
10B
100
AcDbEntity
  8
Sketch Geometry (ISO)
100
AcDbLine
 10
0.0
 20
119.9999999999998
 30
0.0
 11
-148.5
 21
120.0000000000001
 31
0.0
  0
LINE
  5
110
330
10B
100
AcDbEntity
  8
Sketch Geometry (ISO)
100
AcDbLine
 10
0.0
 20
119.9999999999998
 30
0.0
 11
148.5
 21
120.0000000000001
 31
0.0
  0
LINE
  5
111
330
10B
100
AcDbEntity
  8
Sketch Geometry (ISO)
100
AcDbLine
 10
0.0
 20
49.99999999999992
 30
0.0
 11
148.5
 21
49.99999999999992
 31
0.0
  0
LINE
  5
112
330
10B
100
AcDbEntity
  8
Sketch Geometry (ISO)
100
AcDbLine
 10
0.0
 20
49.99999999999992
 30
0.0
 11
-148.5
 21
49.99999999999992
 31
0.0
  0
LINE
  5
113
330
10B
100
AcDbEntity
  8
Sketch Geometry (ISO)
100
AcDbLine
 10
0.0
 20
-20.00000000000021
 30
0.0
 11
148.5
 21
-20.00000000000021
 31
0.0
  0
LINE
  5
114
330
10B
100
AcDbEntity
  8
Sketch Geometry (ISO)
100
AcDbLine
 10
0.0
 20
-20.00000000000021
 30
0.0
 11
-148.5
 21
-20.00000000000021
 31
0.0
  0
LINE
  5
115
330
10B
100
AcDbEntity
  8
Sketch Geometry (ISO)
100
AcDbLine
 10
0.0
 20
-90.00000000000035
 30
0.0
 11
148.5
 21
-90.00000000000035
 31
0.0
  0
LINE
  5
116
330
10B
100
AcDbEntity
  8
Sketch Geometry (ISO)
100
AcDbLine
 10
0.0
 20
-90.00000000000035
 30
0.0
 11
-148.5
 21
-90.00000000000035
 31
0.0
  0
LINE
  5
117
330
10B
100
AcDbEntity
  8
Sketch Geometry (ISO)
100
AcDbLine
 10
0.0
 20
-160.0000000000005
 30
0.0
 11
-148.4999999999999
 21
-160.0000000000005
 31
0.0
  0
LINE
  5
118
330
10B
100
AcDbEntity
  8
Sketch Geometry (ISO)
100
AcDbLine
 10
0.0
 20
119.9999999999998
 30
0.0
 11
-138.5
 21
119.9999999999999
 31
0.0
  0
LINE
  5
119
330
10B
100
AcDbEntity
  8
Sketch Geometry (ISO)
100
AcDbLine
 10
-138.5
 20
119.9999999999999
 30
0.0
 11
-138.5
 21
129.9999999999999
 31
0.0
  0
LINE
  5
11A
330
10B
100
AcDbEntity
  8
Sketch Geometry (ISO)
100
AcDbLine
 10
-138.5
 20
129.9999999999999
 30
0.0
 11
0.0
 21
129.9999999999999
 31
0.0
  0
LINE
  5
11B
330
10B
100
AcDbEntity
  8
Sketch Geometry (ISO)
100
AcDbLine
 10
0.0
 20
129.9999999999999
 30
0.0
 11
0.0
 21
119.9999999999998
 31
0.0
  0
LINE
  5
11C
330
10B
100
AcDbEntity
  8
Sketch Geometry (ISO)
100
AcDbLine
 10
0.0
 20
119.9999999999998
 30
0.0
 11
136.4093077252598
 21
119.9999999999998
 31
0.0
  0
LINE
  5
11D
330
10B
100
AcDbEntity
  8
Sketch Geometry (ISO)
100
AcDbLine
 10
0.0
 20
135.4651696825694
 30
0.0
 11
0.0
 21
119.9999999999998
 31
0.0
  0
LINE
  5
11E
330
10B
100
AcDbEntity
  8
Sketch Geometry (ISO)
100
AcDbLine
 10
-59.99999999999999
 20
129.9999999999999
 30
0.0
 11
-59.99999999999999
 21
119.9999999999999
 31
0.0
  0
LINE
  5
11F
330
10B
100
AcDbEntity
  8
Sketch Geometry (ISO)
100
AcDbLine
 10
-39.99999999999999
 20
129.9999999999999
 30
0.0
 11
-39.99999999999999
 21
119.9999999999999
 31
0.0
  0
LINE
  5
120
330
10B
100
AcDbEntity
  8
Sketch Geometry (ISO)
100
AcDbLine
 10
-19.99999999999998
 20
129.9999999999999
 30
0.0
 11
-19.99999999999998
 21
119.9999999999999
 31
0.0
  0
LINE
  5
121
330
10B
100
AcDbEntity
  8
Sketch Geometry (ISO)
100
AcDbLine
 10
0.0
 20
129.9999999999999
 30
0.0
 11
138.5
 21
129.9999999999998
 31
0.0
  0
LINE
  5
122
330
10B
100
AcDbEntity
  8
Sketch Geometry (ISO)
100
AcDbLine
 10
138.5
 20
129.9999999999998
 30
0.0
 11
138.5
 21
119.9999999999998
 31
0.0
  0
LINE
  5
123
330
10B
100
AcDbEntity
  8
Sketch Geometry (ISO)
100
AcDbLine
 10
138.5
 20
119.9999999999998
 30
0.0
 11
0.0
 21
120.0000000000001
 31
0.0
  0
LINE
  5
124
330
10B
100
AcDbEntity
  8
Sketch Geometry (ISO)
100
AcDbLine
 10
0.0
 20
120.0000000000001
 30
0.0
 11
0.0
 21
129.9999999999999
 31
0.0
  0
LINE
  5
125
330
10B
100
AcDbEntity
  8
Sketch Geometry (ISO)
100
AcDbLine
 10
118.5
 20
129.9999999999998
 30
0.0
 11
118.5
 21
119.9999999999998
 31
0.0
  0
LINE
  5
126
330
10B
100
AcDbEntity
  8
Sketch Geometry (ISO)
100
AcDbLine
 10
98.50000000000001
 20
129.9999999999998
 30
0.0
 11
98.50000000000001
 21
119.9999999999998
 31
0.0
  0
LINE
  5
127
330
10B
100
AcDbEntity
  8
Sketch Geometry (ISO)
100
AcDbLine
 10
78.5
 20
129.9999999999998
 30
0.0
 11
78.5
 21
119.9999999999998
 31
0.0
  0
LINE
  5
128
330
10B
100
AcDbEntity
  8
Sketch Geometry (ISO)
100
AcDbLine
 10
-138.5
 20
59.99999999999992
 30
0.0
 11
0.0
 21
59.99999999999992
 31
0.0
  0
LINE
  5
129
330
10B
100
AcDbEntity
  8
Sketch Geometry (ISO)
100
AcDbLine
 10
-138.5
 20
49.99999999999992
 30
0.0
 11
-138.5
 21
59.99999999999992
 31
0.0
  0
LINE
  5
12A
330
10B
100
AcDbEntity
  8
Sketch Geometry (ISO)
100
AcDbLine
 10
-59.99999999999996
 20
59.99999999999992
 30
0.0
 11
-59.99999999999996
 21
49.99999999999992
 31
0.0
  0
LINE
  5
12B
330
10B
100
AcDbEntity
  8
Sketch Geometry (ISO)
100
AcDbLine
 10
-39.99999999999996
 20
59.99999999999992
 30
0.0
 11
-39.99999999999996
 21
49.99999999999992
 31
0.0
  0
LINE
  5
12C
330
10B
100
AcDbEntity
  8
Sketch Geometry (ISO)
100
AcDbLine
 10
-19.99999999999996
 20
59.99999999999992
 30
0.0
 11
-19.99999999999996
 21
49.99999999999992
 31
0.0
  0
LINE
  5
12D
330
10B
100
AcDbEntity
  8
Sketch Geometry (ISO)
100
AcDbLine
 10
0.0
 20
59.99999999999992
 30
0.0
 11
0.0
 21
49.99999999999985
 31
0.0
  0
LINE
  5
12E
330
10B
100
AcDbEntity
  8
Sketch Geometry (ISO)
100
AcDbLine
 10
0.0
 20
50.00000000000007
 30
0.0
 11
0.0
 21
59.99999999999992
 31
0.0
  0
LINE
  5
12F
330
10B
100
AcDbEntity
  8
Sketch Geometry (ISO)
100
AcDbLine
 10
0.0
 20
49.99999999999985
 30
0.0
 11
-138.5
 21
49.99999999999992
 31
0.0
  0
LINE
  5
130
330
10B
100
AcDbEntity
  8
Sketch Geometry (ISO)
100
AcDbLine
 10
-138.5
 20
-10.00000000000007
 30
0.0
 11
0.0
 21
-10.00000000000007
 31
0.0
  0
LINE
  5
131
330
10B
100
AcDbEntity
  8
Sketch Geometry (ISO)
100
AcDbLine
 10
-138.5
 20
-20.00000000000007
 30
0.0
 11
-138.5
 21
-10.00000000000007
 31
0.0
  0
LINE
  5
132
330
10B
100
AcDbEntity
  8
Sketch Geometry (ISO)
100
AcDbLine
 10
-59.99999999999996
 20
-10.00000000000007
 30
0.0
 11
-59.99999999999996
 21
-20.00000000000007
 31
0.0
  0
LINE
  5
133
330
10B
100
AcDbEntity
  8
Sketch Geometry (ISO)
100
AcDbLine
 10
-39.99999999999996
 20
-10.00000000000007
 30
0.0
 11
-39.99999999999996
 21
-20.00000000000007
 31
0.0
  0
LINE
  5
134
330
10B
100
AcDbEntity
  8
Sketch Geometry (ISO)
100
AcDbLine
 10
-19.99999999999996
 20
-10.00000000000007
 30
0.0
 11
-19.99999999999996
 21
-20.00000000000007
 31
0.0
  0
LINE
  5
135
330
10B
100
AcDbEntity
  8
Sketch Geometry (ISO)
100
AcDbLine
 10
0.0
 20
-10.00000000000007
 30
0.0
 11
0.0
 21
-20.00000000000014
 31
0.0
  0
LINE
  5
136
330
10B
100
AcDbEntity
  8
Sketch Geometry (ISO)
100
AcDbLine
 10
0.0
 20
-19.99999999999993
 30
0.0
 11
0.0
 21
-10.00000000000007
 31
0.0
  0
LINE
  5
137
330
10B
100
AcDbEntity
  8
Sketch Geometry (ISO)
100
AcDbLine
 10
0.0
 20
-20.00000000000014
 30
0.0
 11
-138.5
 21
-20.00000000000007
 31
0.0
  0
LINE
  5
138
330
10B
100
AcDbEntity
  8
Sketch Geometry (ISO)
100
AcDbLine
 10
-138.5
 20
-80.00000000000007
 30
0.0
 11
0.0
 21
-80.00000000000007
 31
0.0
  0
LINE
  5
139
330
10B
100
AcDbEntity
  8
Sketch Geometry (ISO)
100
AcDbLine
 10
-138.5
 20
-90.00000000000007
 30
0.0
 11
-138.5
 21
-80.00000000000007
 31
0.0
  0
LINE
  5
13A
330
10B
100
AcDbEntity
  8
Sketch Geometry (ISO)
100
AcDbLine
 10
-59.99999999999994
 20
-80.00000000000007
 30
0.0
 11
-59.99999999999994
 21
-90.00000000000007
 31
0.0
  0
LINE
  5
13B
330
10B
100
AcDbEntity
  8
Sketch Geometry (ISO)
100
AcDbLine
 10
-39.99999999999995
 20
-80.00000000000007
 30
0.0
 11
-39.99999999999995
 21
-90.00000000000007
 31
0.0
  0
LINE
  5
13C
330
10B
100
AcDbEntity
  8
Sketch Geometry (ISO)
100
AcDbLine
 10
-19.99999999999994
 20
-80.00000000000007
 30
0.0
 11
-19.99999999999994
 21
-90.00000000000007
 31
0.0
  0
LINE
  5
13D
330
10B
100
AcDbEntity
  8
Sketch Geometry (ISO)
100
AcDbLine
 10
0.0
 20
-80.00000000000007
 30
0.0
 11
0.0
 21
-90.00000000000014
 31
0.0
  0
LINE
  5
13E
330
10B
100
AcDbEntity
  8
Sketch Geometry (ISO)
100
AcDbLine
 10
0.0
 20
-89.99999999999992
 30
0.0
 11
0.0
 21
-80.00000000000007
 31
0.0
  0
LINE
  5
13F
330
10B
100
AcDbEntity
  8
Sketch Geometry (ISO)
100
AcDbLine
 10
0.0
 20
-90.00000000000014
 30
0.0
 11
-138.5
 21
-90.00000000000007
 31
0.0
  0
LINE
  5
140
330
10B
100
AcDbEntity
  8
Sketch Geometry (ISO)
100
AcDbLine
 10
-138.5
 20
-150.0
 30
0.0
 11
0.0
 21
-150.0
 31
0.0
  0
LINE
  5
141
330
10B
100
AcDbEntity
  8
Sketch Geometry (ISO)
100
AcDbLine
 10
-138.5
 20
-160.0
 30
0.0
 11
-138.5
 21
-150.0
 31
0.0
  0
LINE
  5
142
330
10B
100
AcDbEntity
  8
Sketch Geometry (ISO)
100
AcDbLine
 10
-59.99999999999992
 20
-150.0
 30
0.0
 11
-59.99999999999992
 21
-160.0
 31
0.0
  0
LINE
  5
143
330
10B
100
AcDbEntity
  8
Sketch Geometry (ISO)
100
AcDbLine
 10
-39.99999999999993
 20
-150.0
 30
0.0
 11
-39.99999999999993
 21
-160.0
 31
0.0
  0
LINE
  5
144
330
10B
100
AcDbEntity
  8
Sketch Geometry (ISO)
100
AcDbLine
 10
-19.99999999999993
 20
-150.0
 30
0.0
 11
-19.99999999999993
 21
-160.0
 31
0.0
  0
LINE
  5
145
330
10B
100
AcDbEntity
  8
Sketch Geometry (ISO)
100
AcDbLine
 10
0.0
 20
-150.0
 30
0.0
 11
0.0
 21
-160.0000000000001
 31
0.0
  0
LINE
  5
146
330
10B
100
AcDbEntity
  8
Sketch Geometry (ISO)
100
AcDbLine
 10
0.0
 20
-159.9999999999999
 30
0.0
 11
0.0
 21
-150.0
 31
0.0
  0
LINE
  5
147
330
10B
100
AcDbEntity
  8
Sketch Geometry (ISO)
100
AcDbLine
 10
0.0
 20
-160.0000000000001
 30
0.0
 11
-138.5
 21
-160.0
 31
0.0
  0
LINE
  5
148
330
10B
100
AcDbEntity
  8
Sketch Geometry (ISO)
100
AcDbLine
 10
0.0
 20
49.99999999999985
 30
0.0
 11
148.5
 21
50.00000000000007
 31
0.0
  0
LINE
  5
149
330
10B
100
AcDbEntity
  8
Sketch Geometry (ISO)
100
AcDbLine
 10
0.0
 20
49.99999999999985
 30
0.0
 11
136.4093077252598
 21
49.99999999999985
 31
0.0
  0
LINE
  5
14A
330
10B
100
AcDbEntity
  8
Sketch Geometry (ISO)
100
AcDbLine
 10
138.5
 20
49.99999999999985
 30
0.0
 11
0.0
 21
50.00000000000007
 31
0.0
  0
LINE
  5
14B
330
10B
100
AcDbEntity
  8
Sketch Geometry (ISO)
100
AcDbLine
 10
0.0
 20
59.99999999999992
 30
0.0
 11
138.5
 21
59.99999999999985
 31
0.0
  0
LINE
  5
14C
330
10B
100
AcDbEntity
  8
Sketch Geometry (ISO)
100
AcDbLine
 10
78.5
 20
59.99999999999985
 30
0.0
 11
78.5
 21
49.99999999999985
 31
0.0
  0
LINE
  5
14D
330
10B
100
AcDbEntity
  8
Sketch Geometry (ISO)
100
AcDbLine
 10
98.50000000000001
 20
59.99999999999985
 30
0.0
 11
98.50000000000001
 21
49.99999999999985
 31
0.0
  0
LINE
  5
14E
330
10B
100
AcDbEntity
  8
Sketch Geometry (ISO)
100
AcDbLine
 10
118.5
 20
59.99999999999985
 30
0.0
 11
118.5
 21
49.99999999999985
 31
0.0
  0
LINE
  5
14F
330
10B
100
AcDbEntity
  8
Sketch Geometry (ISO)
100
AcDbLine
 10
138.5
 20
59.99999999999985
 30
0.0
 11
138.5
 21
49.99999999999985
 31
0.0
  0
LINE
  5
150
330
10B
100
AcDbEntity
  8
Sketch Geometry (ISO)
100
AcDbLine
 10
0.0
 20
59.99999999999992
 30
0.0
 11
0.0
 21
49.99999999999985
 31
0.0
  0
LINE
  5
151
330
10B
100
AcDbEntity
  8
Sketch Geometry (ISO)
100
AcDbLine
 10
0.0
 20
50.00000000000007
 30
0.0
 11
0.0
 21
59.99999999999992
 31
0.0
  0
LINE
  5
152
330
10B
100
AcDbEntity
  8
Sketch Geometry (ISO)
100
AcDbLine
 10
0.0
 20
65.46516968256945
 30
0.0
 11
0.0
 21
49.99999999999985
 31
0.0
  0
LINE
  5
153
330
10B
100
AcDbEntity
  8
Sketch Geometry (ISO)
100
AcDbLine
 10
0.0
 20
-20.00000000000014
 30
0.0
 11
148.5
 21
-19.99999999999993
 31
0.0
  0
LINE
  5
154
330
10B
100
AcDbEntity
  8
Sketch Geometry (ISO)
100
AcDbLine
 10
0.0
 20
-20.00000000000014
 30
0.0
 11
136.4093077252598
 21
-20.00000000000014
 31
0.0
  0
LINE
  5
155
330
10B
100
AcDbEntity
  8
Sketch Geometry (ISO)
100
AcDbLine
 10
138.5
 20
-20.00000000000014
 30
0.0
 11
0.0
 21
-19.99999999999993
 31
0.0
  0
LINE
  5
156
330
10B
100
AcDbEntity
  8
Sketch Geometry (ISO)
100
AcDbLine
 10
0.0
 20
-10.00000000000007
 30
0.0
 11
138.5
 21
-10.00000000000014
 31
0.0
  0
LINE
  5
157
330
10B
100
AcDbEntity
  8
Sketch Geometry (ISO)
100
AcDbLine
 10
78.50000000000003
 20
-10.00000000000014
 30
0.0
 11
78.50000000000003
 21
-20.00000000000014
 31
0.0
  0
LINE
  5
158
330
10B
100
AcDbEntity
  8
Sketch Geometry (ISO)
100
AcDbLine
 10
98.50000000000003
 20
-10.00000000000014
 30
0.0
 11
98.50000000000003
 21
-20.00000000000014
 31
0.0
  0
LINE
  5
159
330
10B
100
AcDbEntity
  8
Sketch Geometry (ISO)
100
AcDbLine
 10
118.5
 20
-10.00000000000014
 30
0.0
 11
118.5
 21
-20.00000000000014
 31
0.0
  0
LINE
  5
15A
330
10B
100
AcDbEntity
  8
Sketch Geometry (ISO)
100
AcDbLine
 10
138.5
 20
-10.00000000000014
 30
0.0
 11
138.5
 21
-20.00000000000014
 31
0.0
  0
LINE
  5
15B
330
10B
100
AcDbEntity
  8
Sketch Geometry (ISO)
100
AcDbLine
 10
0.0
 20
-10.00000000000007
 30
0.0
 11
0.0
 21
-20.00000000000014
 31
0.0
  0
LINE
  5
15C
330
10B
100
AcDbEntity
  8
Sketch Geometry (ISO)
100
AcDbLine
 10
0.0
 20
-19.99999999999993
 30
0.0
 11
0.0
 21
-10.00000000000007
 31
0.0
  0
LINE
  5
15D
330
10B
100
AcDbEntity
  8
Sketch Geometry (ISO)
100
AcDbLine
 10
0.0
 20
-4.534830317430547
 30
0.0
 11
0.0
 21
-20.00000000000014
 31
0.0
  0
LINE
  5
15E
330
10B
100
AcDbEntity
  8
Sketch Geometry (ISO)
100
AcDbLine
 10
0.0
 20
-90.00000000000014
 30
0.0
 11
148.5
 21
-89.99999999999992
 31
0.0
  0
LINE
  5
15F
330
10B
100
AcDbEntity
  8
Sketch Geometry (ISO)
100
AcDbLine
 10
0.0
 20
-90.00000000000014
 30
0.0
 11
136.4093077252598
 21
-90.00000000000014
 31
0.0
  0
LINE
  5
160
330
10B
100
AcDbEntity
  8
Sketch Geometry (ISO)
100
AcDbLine
 10
138.5
 20
-90.00000000000014
 30
0.0
 11
0.0
 21
-89.99999999999992
 31
0.0
  0
LINE
  5
161
330
10B
100
AcDbEntity
  8
Sketch Geometry (ISO)
100
AcDbLine
 10
0.0
 20
-80.00000000000007
 30
0.0
 11
138.5
 21
-80.00000000000014
 31
0.0
  0
LINE
  5
162
330
10B
100
AcDbEntity
  8
Sketch Geometry (ISO)
100
AcDbLine
 10
78.50000000000003
 20
-80.00000000000014
 30
0.0
 11
78.50000000000003
 21
-90.00000000000014
 31
0.0
  0
LINE
  5
163
330
10B
100
AcDbEntity
  8
Sketch Geometry (ISO)
100
AcDbLine
 10
98.50000000000003
 20
-80.00000000000014
 30
0.0
 11
98.50000000000003
 21
-90.00000000000014
 31
0.0
  0
LINE
  5
164
330
10B
100
AcDbEntity
  8
Sketch Geometry (ISO)
100
AcDbLine
 10
118.5
 20
-80.00000000000014
 30
0.0
 11
118.5
 21
-90.00000000000014
 31
0.0
  0
LINE
  5
165
330
10B
100
AcDbEntity
  8
Sketch Geometry (ISO)
100
AcDbLine
 10
138.5
 20
-80.00000000000014
 30
0.0
 11
138.5
 21
-90.00000000000014
 31
0.0
  0
LINE
  5
166
330
10B
100
AcDbEntity
  8
Sketch Geometry (ISO)
100
AcDbLine
 10
0.0
 20
-80.00000000000007
 30
0.0
 11
0.0
 21
-90.00000000000014
 31
0.0
  0
LINE
  5
167
330
10B
100
AcDbEntity
  8
Sketch Geometry (ISO)
100
AcDbLine
 10
0.0
 20
-89.99999999999992
 30
0.0
 11
0.0
 21
-80.00000000000007
 31
0.0
  0
LINE
  5
168
330
10B
100
AcDbEntity
  8
Sketch Geometry (ISO)
100
AcDbLine
 10
0.0
 20
-74.53483031743054
 30
0.0
 11
0.0
 21
-90.00000000000014
 31
0.0
  0
MTEXT
  5
169
330
10B
100
AcDbEntity
  8
Symbol (ISO)
100
AcDbMText
 10
-99.25
 20
124.9999999999998
 30
0.0
 40
2.5
 41
78.50000000000005
 71
     5
 72
     1
  1
Tabela kontroli
  7
Note Text (ISO)
 73
     1
 44
1.0
1001
ACAD
1000
MTEXTBEGIN
1070
    73
1070
     1
1070
    44
1040
1.0
1070
    74
1070
     0
1000
MTEXTEND
  0
MTEXT
  5
16B
330
10B
100
AcDbEntity
  8
Symbol (ISO)
100
AcDbMText
 10
39.24999999999992
 20
124.9999999999998
 30
0.0
 40
2.5
 41
78.49999999999987
 71
     5
 72
     1
  1
Tabela kontroli
  7
Note Text (ISO)
 73
     1
 44
1.0
1001
ACAD
1000
MTEXTBEGIN
1070
    73
1070
     1
1070
    44
1040
1.0
1070
    74
1070
     0
1000
MTEXTEND
  0
MTEXT
  5
16C
330
10B
100
AcDbEntity
  8
Symbol (ISO)
100
AcDbMText
 10
39.2500000000001
 20
55.00000000000003
 30
0.0
 40
2.5
 41
78.50000000000008
 71
     5
 72
     1
  1
Tabela kontroli
  7
Note Text (ISO)
 73
     1
 44
1.0
1001
ACAD
1000
MTEXTBEGIN
1070
    73
1070
     1
1070
    44
1040
1.0
1070
    74
1070
     0
1000
MTEXTEND
  0
MTEXT
  5
16D
330
10B
100
AcDbEntity
  8
Symbol (ISO)
100
AcDbMText
 10
-99.24999999999991
 20
-85.00000000000007
 30
0.0
 40
2.5
 41
78.50000000000015
 71
     5
 72
     1
  1
Tabela kontroli
  7
Note Text (ISO)
 73
     1
 44
1.0
1001
ACAD
1000
MTEXTBEGIN
1070
    73
1070
     1
1070
    44
1040
1.0
1070
    74
1070
     0
1000
MTEXTEND
  0
MTEXT
  5
16E
330
10B
100
AcDbEntity
  8
Symbol (ISO)
100
AcDbMText
 10
-99.25
 20
54.99999999999992
 30
0.0
 40
2.5
 41
78.50000000000003
 71
     5
 72
     1
  1
Tabela kontroli
  7
Note Text (ISO)
 73
     1
 44
1.0
1001
ACAD
1000
MTEXTBEGIN
1070
    73
1070
     1
1070
    44
1040
1.0
1070
    74
1070
     0
1000
MTEXTEND
  0
MTEXT
  5
16F
330
10B
100
AcDbEntity
  8
Symbol (ISO)
100
AcDbMText
 10
39.2500000000001
 20
-15.00000000000007
 30
0.0
 40
2.5
 41
78.50000000000008
 71
     5
 72
     1
  1
Tabela kontroli
  7
Note Text (ISO)
 73
     1
 44
1.0
1001
ACAD
1000
MTEXTBEGIN
1070
    73
1070
     1
1070
    44
1040
1.0
1070
    74
1070
     0
1000
MTEXTEND
  0
MTEXT
  5
170
330
10B
100
AcDbEntity
  8
Symbol (ISO)
100
AcDbMText
 10
-99.24999999999991
 20
-15.00000000000007
 30
0.0
 40
2.5
 41
78.50000000000015
 71
     5
 72
     1
  1
Tabela kontroli
  7
Note Text (ISO)
 73
     1
 44
1.0
1001
ACAD
1000
MTEXTBEGIN
1070
    73
1070
     1
1070
    44
1040
1.0
1070
    74
1070
     0
1000
MTEXTEND
  0
MTEXT
  5
171
330
10B
100
AcDbEntity
  8
Symbol (ISO)
100
AcDbMText
 10
-99.2499999999999
 20
-155.0
 30
0.0
 40
2.5
 41
78.50000000000015
 71
     5
 72
     1
  1
Tabela kontroli
  7
Note Text (ISO)
 73
     1
 44
1.0
1001
ACAD
1000
MTEXTBEGIN
1070
    73
1070
     1
1070
    44
1040
1.0
1070
    74
1070
     0
1000
MTEXTEND
  0
MTEXT
  5
172
330
10B
100
AcDbEntity
  8
Symbol (ISO)
100
AcDbMText
 10
39.25000000000017
 20
-85.00000000000001
 30
0.0
 40
2.5
 41
78.50000000000015
 71
     5
 72
     1
  1
Tabela kontroli
  7
Note Text (ISO)
 73
     1
 44
1.0
1001
ACAD
1000
MTEXTBEGIN
1070
    73
1070
     1
1070
    44
1040
1.0
1070
    74
1070
     0
1000
MTEXTEND
  0
ENDBLK
  5
10D
330
10B
100
AcDbEntity
  8
0
100
AcDbBlockEnd
  0
BLOCK
  5
38F
330
38E
100
AcDbEntity
  8
0
100
AcDbBlockBegin
  2
*D7
 70
     1
 10
0.0
 20
0.0
 30
0.0
  3
*D7
  1

  0
LINE
  5
466
330
38E
100
AcDbEntity
  8
Dimension (ISO)
100
AcDbLine
 10
5790.122975033399
 20
1534.830633864396
 30
0.0
 11
5790.122975033399
 21
1829.18992414668
 31
0.0
  0
LINE
  5
467
330
38E
100
AcDbEntity
  8
Dimension (ISO)
100
AcDbLine
 10
7790.122974833399
 20
1534.830633864395
 30
0.0
 11
7790.122974833399
 21
1829.18992414668
 31
0.0
  0
LINE
  5
468
330
38E
100
AcDbEntity
  8
Dimension (ISO)
100
AcDbLine
 10
5840.122975033398
 20
1809.18992414668
 30
0.0
 11
7740.122974833399
 21
1809.18992414668
 31
0.0
  0
SOLID
  5
469
330
38E
100
AcDbEntity
  8
Dimension (ISO)
100
AcDbTrace
 10
5840.122975033398
 20
1817.523257480013
 30
0.0
 11
5840.122975033398
 21
1800.856590813347
 31
0.0
 12
5790.122975033399
 22
1809.18992414668
 32
0.0
 13
5790.122975033399
 23
1809.18992414668
 33
0.0
  0
SOLID
  5
46A
330
38E
100
AcDbEntity
  8
Dimension (ISO)
100
AcDbTrace
 10
7740.122974833399
 20
1817.523257480013
 30
0.0
 11
7740.122974833399
 21
1800.856590813347
 31
0.0
 12
7790.122974833399
 22
1809.18992414668
 32
0.0
 13
7790.122974833399
 23
1809.18992414668
 33
0.0
  0
MTEXT
  5
46B
330
38E
100
AcDbEntity
  8
Dimension (ISO)
100
AcDbMText
 10
6790.1229749334
 20
1897.344631533197
 30
0.0
 40
70.0
 41
0.0
 71
     2
 72
     1
  1
\A1;2000
  7
Label Text (ISO)
 73
     1
 44
1.0
1001
ACAD
1000
MTEXTBEGIN
1070
    73
1070
     1
1070
    44
1040
1.0
1070
    74
1070
     0
1000
MTEXTEND
  0
POINT
  5
46C
330
38E
100
AcDbEntity
  8
Defpoints
 62
     0
100
AcDbPoint
 10
5790.122975033399
 20
1524.830633864396
 30
0.0
  0
POINT
  5
46D
330
38E
100
AcDbEntity
  8
Defpoints
 62
     0
100
AcDbPoint
 10
7790.122974833399
 20
1524.830633864396
 30
0.0
  0
POINT
  5
46E
330
38E
100
AcDbEntity
  8
Defpoints
 62
     0
100
AcDbPoint
 10
7790.122974833399
 20
1809.18992414668
 30
0.0
  0
ENDBLK
  5
390
330
38E
100
AcDbEntity
  8
0
100
AcDbBlockEnd
  0
BLOCK
  5
471
330
470
100
AcDbEntity
  8
0
100
AcDbBlockBegin
  2
*D8
 70
     1
 10
0.0
 20
0.0
 30
0.0
  3
*D8
  1

  0
LINE
  5
54E
330
470
100
AcDbEntity
  8
Dimension (ISO)
100
AcDbLine
 10
5780.1229749334
 20
1524.830633764406
 30
0.0
 11
5474.428821273012
 21
1524.830633764406
 31
0.0
  0
LINE
  5
54F
330
470
100
AcDbEntity
  8
Dimension (ISO)
100
AcDbLine
 10
5755.122974933399
 20
1016.830633864396
 30
0.0
 11
5474.428821273012
 21
1016.830633864396
 31
0.0
  0
LINE
  5
550
330
470
100
AcDbEntity
  8
Dimension (ISO)
100
AcDbLine
 10
5494.428821273013
 20
1474.830633764406
 30
0.0
 11
5494.428821273013
 21
1066.830633864396
 31
0.0
  0
SOLID
  5
551
330
470
100
AcDbEntity
  8
Dimension (ISO)
100
AcDbTrace
 10
5486.095487939679
 20
1474.830633764406
 30
0.0
 11
5502.762154606346
 21
1474.830633764406
 31
0.0
 12
5494.428821273013
 22
1524.830633764406
 32
0.0
 13
5494.428821273013
 23
1524.830633764406
 33
0.0
  0
SOLID
  5
552
330
470
100
AcDbEntity
  8
Dimension (ISO)
100
AcDbTrace
 10
5486.095487939679
 20
1066.830633864396
 30
0.0
 11
5502.762154606346
 21
1066.830633864396
 31
0.0
 12
5494.428821273013
 22
1016.830633864396
 32
0.0
 13
5494.428821273013
 23
1016.830633864396
 33
0.0
  0
MTEXT
  5
553
330
470
100
AcDbEntity
  8
Dimension (ISO)
100
AcDbMText
 10
5405.992045385968
 20
1270.830633814401
 30
0.0
 40
70.0
 41
0.0
 71
     2
 72
     1
  1
\A1;508
  7
Label Text (ISO)
 11
0.0000000000000001
 21
1.0
 31
0.0
 73
     1
 44
1.0
1001
ACAD
1000
MTEXTBEGIN
1070
    73
1070
     1
1070
    44
1040
1.0
1070
    74
1070
     0
1000
MTEXTEND
  0
POINT
  5
554
330
470
100
AcDbEntity
  8
Defpoints
 62
     0
100
AcDbPoint
 10
5790.1229749334
 20
1524.830633764406
 30
0.0
  0
POINT
  5
555
330
470
100
AcDbEntity
  8
Defpoints
 62
     0
100
AcDbPoint
 10
5765.1229749334
 20
1016.830633864396
 30
0.0
  0
POINT
  5
556
330
470
100
AcDbEntity
  8
Defpoints
 62
     0
100
AcDbPoint
 10
5494.428821273013
 20
1016.830633864396
 30
0.0
  0
ENDBLK
  5
472
330
470
100
AcDbEntity
  8
0
100
AcDbBlockEnd
  0
BLOCK
  5
559
330
558
100
AcDbEntity
  8
0
100
AcDbBlockBegin
  2
*D9
 70
     1
 10
0.0
 20
0.0
 30
0.0
  3
*D9
  1

  0
LINE
  5
630
330
558
100
AcDbEntity
  8
Dimension (ISO)
100
AcDbLine
 10
5790.122975033185
 20
665.468791203822
 30
0.0
 11
5790.122975033185
 21
837.2415798866116
 31
0.0
  0
LINE
  5
631
330
558
100
AcDbEntity
  8
Dimension (ISO)
100
AcDbLine
 10
7790.122974833185
 20
665.468791203822
 30
0.0
 11
7790.122974833185
 21
837.2415798866116
 31
0.0
  0
LINE
  5
632
330
558
100
AcDbEntity
  8
Dimension (ISO)
100
AcDbLine
 10
5840.122975033184
 20
817.2415798866115
 30
0.0
 11
7740.122974833184
 21
817.2415798866115
 31
0.0
  0
SOLID
  5
633
330
558
100
AcDbEntity
  8
Dimension (ISO)
100
AcDbTrace
 10
5840.122975033184
 20
825.5749132199449
 30
0.0
 11
5840.122975033184
 21
808.9082465532781
 31
0.0
 12
5790.122975033185
 22
817.2415798866115
 32
0.0
 13
5790.122975033185
 23
817.2415798866115
 33
0.0
  0
SOLID
  5
634
330
558
100
AcDbEntity
  8
Dimension (ISO)
100
AcDbTrace
 10
7740.122974833184
 20
825.5749132199449
 30
0.0
 11
7740.122974833184
 21
808.9082465532781
 31
0.0
 12
7790.122974833185
 22
817.2415798866115
 32
0.0
 13
7790.122974833185
 23
817.2415798866115
 33
0.0
  0
MTEXT
  5
635
330
558
100
AcDbEntity
  8
Dimension (ISO)
100
AcDbMText
 10
6790.122974933185
 20
905.3962872731286
 30
0.0
 40
70.0
 41
0.0
 71
     2
 72
     1
  1
\A1;2000
  7
Label Text (ISO)
 73
     1
 44
1.0
1001
ACAD
1000
MTEXTBEGIN
1070
    73
1070
     1
1070
    44
1040
1.0
1070
    74
1070
     0
1000
MTEXTEND
  0
POINT
  5
636
330
558
100
AcDbEntity
  8
Defpoints
 62
     0
100
AcDbPoint
 10
5790.122975033185
 20
655.4687912038221
 30
0.0
  0
POINT
  5
637
330
558
100
AcDbEntity
  8
Defpoints
 62
     0
100
AcDbPoint
 10
7790.122974833185
 20
655.4687912038221
 30
0.0
  0
POINT
  5
638
330
558
100
AcDbEntity
  8
Defpoints
 62
     0
100
AcDbPoint
 10
7790.122974833185
 20
817.2415798866115
 30
0.0
  0
ENDBLK
  5
55A
330
558
100
AcDbEntity
  8
0
100
AcDbBlockEnd
  0
BLOCK
  5
63B
330
63A
100
AcDbEntity
  8
0
100
AcDbBlockBegin
  2
*D10
 70
     1
 10
0.0
 20
0.0
 30
0.0
  3
*D10
  1

  0
LINE
  5
740
330
63A
100
AcDbEntity
  8
Dimension (ISO)
100
AcDbLine
 10
7796.122974833186
 20
659.4687912038209
 30
0.0
 11
7987.672854244141
 21
659.4687912038208
 31
0.0
  0
LINE
  5
741
330
63A
100
AcDbEntity
  8
Dimension (ISO)
100
AcDbLine
 10
7705.88623641446
 20
529.5859915184292
 30
0.0
 11
7987.672854244141
 21
529.5859915184291
 31
0.0
  0
LINE
  5
742
330
63A
100
AcDbEntity
  8
Dimension (ISO)
100
AcDbLine
 10
7967.672854244141
 20
479.5859915184292
 30
0.0
 11
7967.672854244141
 21
429.5859915184292
 31
0.0
  0
LINE
  5
743
330
63A
100
AcDbEntity
  8
Dimension (ISO)
100
AcDbLine
 10
7967.672854244141
 20
709.4687912038208
 30
0.0
 11
7967.672854244141
 21
933.0985552218377
 31
0.0
  0
LINE
  5
744
330
63A
100
AcDbEntity
  8
Dimension (ISO)
100
AcDbLine
 10
7967.672854244141
 20
529.5859915184291
 30
0.0
 11
7967.672854244141
 21
659.4687912038208
 31
0.0
  0
SOLID
  5
745
330
63A
100
AcDbEntity
  8
Dimension (ISO)
100
AcDbTrace
 10
7959.339520910808
 20
479.5859915184292
 30
0.0
 11
7976.006187577474
 21
479.5859915184292
 31
0.0
 12
7967.672854244141
 22
529.5859915184291
 32
0.0
 13
7967.672854244141
 23
529.5859915184291
 33
0.0
  0
SOLID
  5
746
330
63A
100
AcDbEntity
  8
Dimension (ISO)
100
AcDbTrace
 10
7959.339520910808
 20
709.4687912038208
 30
0.0
 11
7976.006187577474
 21
709.4687912038208
 31
0.0
 12
7967.672854244141
 22
659.4687912038208
 32
0.0
 13
7967.672854244141
 23
659.4687912038208
 33
0.0
  0
MTEXT
  5
747
330
63A
100
AcDbEntity
  8
Dimension (ISO)
100
AcDbMText
 10
7879.518146857624
 20
846.2836732128305
 30
0.0
 40
70.0
 41
0.0
 71
     2
 72
     1
  1
\A1;130
  7
Label Text (ISO)
 11
0.0000000000000001
 21
1.0
 31
0.0
 73
     1
 44
1.0
1001
ACAD
1000
MTEXTBEGIN
1070
    73
1070
     1
1070
    44
1040
1.0
1070
    74
1070
     0
1000
MTEXTEND
  0
POINT
  5
748
330
63A
100
AcDbEntity
  8
Defpoints
 62
     0
100
AcDbPoint
 10
7786.122974833185
 20
659.4687912038209
 30
0.0
  0
POINT
  5
749
330
63A
100
AcDbEntity
  8
Defpoints
 62
     0
100
AcDbPoint
 10
7695.886236414461
 20
529.5859915184292
 30
0.0
  0
POINT
  5
74A
330
63A
100
AcDbEntity
  8
Defpoints
 62
     0
100
AcDbPoint
 10
7967.672854244141
 20
529.5859915184291
 30
0.0
  0
ENDBLK
  5
63C
330
63A
100
AcDbEntity
  8
0
100
AcDbBlockEnd
  0
BLOCK
  5
74D
330
74C
100
AcDbEntity
  8
0
100
AcDbBlockBegin
  2
*D11
 70
     1
 10
0.0
 20
0.0
 30
0.0
  3
*D11
  1

  0
LINE
  5
82A
330
74C
100
AcDbEntity
  8
Dimension (ISO)
100
AcDbLine
 10
5755.122974933399
 20
1016.830633864396
 30
0.0
 11
5655.475815229356
 21
1016.830633864396
 31
0.0
  0
LINE
  5
82B
330
74C
100
AcDbEntity
  8
Dimension (ISO)
100
AcDbLine
 10
5820.122974933399
 20
1254.830633864395
 30
0.0
 11
5655.475815229356
 21
1254.830633864395
 31
0.0
  0
LINE
  5
82C
330
74C
100
AcDbEntity
  8
Dimension (ISO)
100
AcDbLine
 10
5675.475815229356
 20
1066.830633864396
 30
0.0
 11
5675.475815229356
 21
1204.830633864395
 31
0.0
  0
SOLID
  5
82D
330
74C
100
AcDbEntity
  8
Dimension (ISO)
100
AcDbTrace
 10
5667.142481896023
 20
1066.830633864396
 30
0.0
 11
5683.809148562689
 21
1066.830633864396
 31
0.0
 12
5675.475815229356
 22
1016.830633864396
 32
0.0
 13
5675.475815229356
 23
1016.830633864396
 33
0.0
  0
SOLID
  5
82E
330
74C
100
AcDbEntity
  8
Dimension (ISO)
100
AcDbTrace
 10
5667.142481896023
 20
1204.830633864395
 30
0.0
 11
5683.809148562689
 21
1204.830633864395
 31
0.0
 12
5675.475815229356
 22
1254.830633864395
 32
0.0
 13
5675.475815229356
 23
1254.830633864395
 33
0.0
  0
MTEXT
  5
82F
330
74C
100
AcDbEntity
  8
Dimension (ISO)
100
AcDbMText
 10
5587.039039342311
 20
1135.830633864395
 30
0.0
 40
70.0
 41
0.0
 71
     2
 72
     1
  1
\A1;238
  7
Label Text (ISO)
 11
0.0000000000000001
 21
1.0
 31
0.0
 73
     1
 44
1.0
1001
ACAD
1000
MTEXTBEGIN
1070
    73
1070
     1
1070
    44
1040
1.0
1070
    74
1070
     0
1000
MTEXTEND
  0
POINT
  5
830
330
74C
100
AcDbEntity
  8
Defpoints
 62
     0
100
AcDbPoint
 10
5765.1229749334
 20
1016.830633864396
 30
0.0
  0
POINT
  5
831
330
74C
100
AcDbEntity
  8
Defpoints
 62
     0
100
AcDbPoint
 10
5830.122974933399
 20
1254.830633864395
 30
0.0
  0
POINT
  5
832
330
74C
100
AcDbEntity
  8
Defpoints
 62
     0
100
AcDbPoint
 10
5675.475815229356
 20
1254.830633864395
 30
0.0
  0
ENDBLK
  5
74E
330
74C
100
AcDbEntity
  8
0
100
AcDbBlockEnd
  0
BLOCK
  5
834
330
833
100
AcDbEntity
  8
0
100
AcDbBlockBegin
  2
Tabelki rysunkowe Rzut
 70
     2
 10
0.0
 20
0.0
 30
0.0
  3
Tabelki rysunkowe Rzut
  1

  0
TEXT
  5
836
330
833
100
AcDbEntity
  8
Title (ISO)
100
AcDbText
 10
166.7768162971836
 20
11.24130542460445
 30
0.0
 40
2.5
  1
Obowiązuje od:
  7
Note Text (ISO)
 11
166.7768162971836
 21
13.74130542460445
 31
0.0
100
AcDbText
 73
     3
  0
TEXT
  5
838
330
833
100
AcDbEntity
  8
Title (ISO)
100
AcDbText
 10
166.7768162971836
 20
18.24130542460445
 30
0.0
 40
2.5
  1
Nr kat.:
  7
Note Text (ISO)
 11
166.7768162971836
 21
20.74130542460446
 31
0.0
100
AcDbText
 73
     3
  0
TEXT
  5
839
330
833
100
AcDbEntity
  8
Title (ISO)
100
AcDbText
 10
166.7768162971836
 20
14.74130542460445
 30
0.0
 40
2.5
  1
Nazwa:
  7
Note Text (ISO)
 11
166.7768162971836
 21
17.24130542460445
 31
0.0
100
AcDbText
 73
     3
  0
ATTDEF
  5
83A
102
{ACAD_XDICTIONARY
360
845
102
}
330
833
100
AcDbEntity
  8
Title (ISO)
100
AcDbText
 10
178.6424979631648
 20
18.14056669024303
 30
0.0
 40
2.5
  1
460
  7
Note Text (ISO)
100
AcDbAttributeDefinition
  3
Numer katalogowy
  2
Numer_katalogowy_001
 70
     0
  0
ATTDEF
  5
83C
102
{ACAD_XDICTIONARY
360
848
102
}
330
833
100
AcDbEntity
  8
Title (ISO)
100
AcDbText
 10
190.4107988369825
 20
11.13720873189256
 30
0.0
 40
2.5
  1
2023-04-21
  7
Note Text (ISO)
100
AcDbAttributeDefinition
  3
DATA UTWORZENIA
  2
DATA_UTWORZENIA_001
 70
     0
  0
ATTDEF
  5
83D
102
{ACAD_XDICTIONARY
360
84B
102
}
330
833
100
AcDbEntity
  8
Title (ISO)
100
AcDbText
 10
178.5182535041975
 20
14.5163222312757
 30
0.0
 40
2.5
  1
Stojak na hulajnogi
  7
Note Text (ISO)
100
AcDbAttributeDefinition
  3
Nazwa
  2
Nazwa_001
 70
     0
  0
ENDBLK
  5
835
330
833
100
AcDbEntity
  8
0
100
AcDbBlockEnd
  0
ENDSEC
  0
SECTION
  2
ENTITIES
  0
LINE
  5
173
330
6C
100
AcDbEntity
  8
Visible (ISO)
100
AcDbLine
 10
7786.122974833398
 20
1520.830633764395
 30
0.0
 11
7754.122974833399
 21
1488.830633764396
 31
0.0
  0
LINE
  5
174
330
6C
100
AcDbEntity
  8
Visible (ISO)
100
AcDbLine
 10
7754.122974833399
 20
1488.830633764396
 30
0.0
 11
7786.1229748334
 21
1520.830633764395
 31
0.0
  0
LINE
  5
175
330
6C
100
AcDbEntity
  8
Visible (ISO)
100
AcDbLine
 10
5794.122975033399
 20
1520.830633764406
 30
0.0
 11
5826.122975033399
 21
1488.830633764406
 31
0.0
  0
LINE
  5
176
330
6C
100
AcDbEntity
  8
Visible (ISO)
100
AcDbLine
 10
5826.122975033399
 20
1488.830633764406
 30
0.0
 11
5794.122975033399
 21
1520.830633764406
 31
0.0
  0
LINE
  5
177
330
6C
100
AcDbEntity
  8
Visible (ISO)
100
AcDbLine
 10
5750.122974933399
 20
1024.830633864396
 30
0.0
 11
5750.122974933399
 21
1016.830633864396
 31
0.0
  0
LINE
  5
178
330
6C
100
AcDbEntity
  8
Visible (ISO)
100
AcDbLine
 10
5870.122974933399
 20
1016.830633864396
 30
0.0
 11
5855.122974933399
 21
1016.830633864396
 31
0.0
  0
LINE
  5
179
330
6C
100
AcDbEntity
  8
Visible (ISO)
100
AcDbLine
 10
5765.122974933399
 20
1016.830633864396
 30
0.0
 11
5750.122974933399
 21
1016.830633864396
 31
0.0
  0
LINE
  5
17A
330
6C
100
AcDbEntity
  8
Visible (ISO)
100
AcDbLine
 10
5750.122974933399
 20
1024.830633864396
 30
0.0
 11
5765.122974933399
 21
1024.830633864396
 31
0.0
  0
LINE
  5
17B
330
6C
100
AcDbEntity
  8
Visible (ISO)
100
AcDbLine
 10
5870.122974933399
 20
1016.830633864396
 30
0.0
 11
5870.122974933399
 21
1024.830633864396
 31
0.0
  0
LINE
  5
17C
330
6C
100
AcDbEntity
  8
Visible (ISO)
100
AcDbLine
 10
5855.122974933399
 20
1024.830633864396
 30
0.0
 11
5870.122974933399
 21
1024.830633864396
 31
0.0
  0
LINE
  5
17D
330
6C
100
AcDbEntity
  8
Visible (ISO)
100
AcDbLine
 10
5765.122974933399
 20
1016.830633864396
 30
0.0
 11
5855.122974933399
 21
1016.830633864396
 31
0.0
  0
LINE
  5
17E
330
6C
100
AcDbEntity
  8
Visible (ISO)
100
AcDbLine
 10
5855.122974933399
 20
1024.830633864396
 30
0.0
 11
5765.122974933399
 21
1024.830633864396
 31
0.0
  0
LINE
  5
17F
330
6C
100
AcDbEntity
  8
Visible (ISO)
100
AcDbLine
 10
7815.122974933399
 20
1024.830633864396
 30
0.0
 11
7830.1229749334
 21
1024.830633864396
 31
0.0
  0
LINE
  5
180
330
6C
100
AcDbEntity
  8
Visible (ISO)
100
AcDbLine
 10
7830.1229749334
 20
1016.830633864396
 30
0.0
 11
7815.122974933399
 21
1016.830633864396
 31
0.0
  0
LINE
  5
181
330
6C
100
AcDbEntity
  8
Visible (ISO)
100
AcDbLine
 10
7830.122974933399
 20
1016.830633864396
 30
0.0
 11
7830.122974933399
 21
1024.830633864396
 31
0.0
  0
LINE
  5
182
330
6C
100
AcDbEntity
  8
Visible (ISO)
100
AcDbLine
 10
7725.122974933398
 20
1016.830633864396
 30
0.0
 11
7710.122974933398
 21
1016.830633864396
 31
0.0
  0
LINE
  5
183
330
6C
100
AcDbEntity
  8
Visible (ISO)
100
AcDbLine
 10
7710.122974933398
 20
1024.830633864396
 30
0.0
 11
7725.122974933398
 21
1024.830633864396
 31
0.0
  0
LINE
  5
184
330
6C
100
AcDbEntity
  8
Visible (ISO)
100
AcDbLine
 10
7710.122974933399
 20
1024.830633864396
 30
0.0
 11
7710.122974933399
 21
1016.830633864396
 31
0.0
  0
LINE
  5
185
330
6C
100
AcDbEntity
  8
Visible (ISO)
100
AcDbLine
 10
7725.122974933398
 20
1016.830633864396
 30
0.0
 11
7815.122974933399
 21
1016.830633864396
 31
0.0
  0
LINE
  5
186
330
6C
100
AcDbEntity
  8
Visible (ISO)
100
AcDbLine
 10
7815.122974933399
 20
1024.830633864396
 30
0.0
 11
7725.122974933398
 21
1024.830633864396
 31
0.0
  0
LINE
  5
187
330
6C
100
AcDbEntity
  8
Visible (ISO)
100
AcDbLine
 10
5935.886236414675
 20
1469.830633764406
 30
0.0
 11
5930.122974933399
 21
1469.830633764406
 31
0.0
  0
LINE
  5
188
330
6C
100
AcDbEntity
  8
Visible (ISO)
100
AcDbLine
 10
5930.122974933399
 20
1484.830633764406
 30
0.0
 11
5935.886236414675
 21
1484.830633764406
 31
0.0
  0
LINE
  5
189
330
6C
100
AcDbEntity
  8
Visible (ISO)
100
AcDbLine
 10
5930.122974933399
 20
1484.830633764406
 30
0.0
 11
5930.122974933399
 21
1469.830633764406
 31
0.0
  0
LINE
  5
18A
330
6C
100
AcDbEntity
  8
Visible (ISO)
100
AcDbLine
 10
5890.122974933399
 20
1469.830633764406
 30
0.0
 11
5884.359713452123
 21
1469.830633764406
 31
0.0
  0
LINE
  5
18B
330
6C
100
AcDbEntity
  8
Visible (ISO)
100
AcDbLine
 10
5884.359713452123
 20
1484.830633764406
 30
0.0
 11
5890.122974933399
 21
1484.830633764406
 31
0.0
  0
LINE
  5
18C
330
6C
100
AcDbEntity
  8
Visible (ISO)
100
AcDbLine
 10
5890.122974933399
 20
1469.830633764406
 30
0.0
 11
5890.122974933399
 21
1484.830633764406
 31
0.0
  0
LINE
  5
18D
330
6C
100
AcDbEntity
  8
Visible (ISO)
100
AcDbLine
 10
5943.097509106756
 20
1469.830633764406
 30
0.0
 11
5935.886236414674
 21
1469.830633764406
 31
0.0
  0
LINE
  5
18E
330
6C
100
AcDbEntity
  8
Visible (ISO)
100
AcDbLine
 10
5935.886236414674
 20
1484.830633764406
 30
0.0
 11
5943.097509106756
 21
1484.830633764406
 31
0.0
  0
LINE
  5
18F
330
6C
100
AcDbEntity
  8
Visible (ISO)
100
AcDbLine
 10
5884.359713452123
 20
1469.830633764406
 30
0.0
 11
5877.148440760041
 21
1469.830633764406
 31
0.0
  0
LINE
  5
190
330
6C
100
AcDbEntity
  8
Visible (ISO)
100
AcDbLine
 10
5877.148440760041
 20
1484.830633764406
 30
0.0
 11
5884.359713452123
 21
1484.830633764406
 31
0.0
  0
LINE
  5
191
330
6C
100
AcDbEntity
  8
Visible (ISO)
100
AcDbLine
 10
5930.122974933399
 20
1469.830633764406
 30
0.0
 11
5890.122974933399
 21
1469.830633764406
 31
0.0
  0
LINE
  5
192
330
6C
100
AcDbEntity
  8
Visible (ISO)
100
AcDbLine
 10
5890.122974933399
 20
1484.830633764406
 30
0.0
 11
5930.122974933399
 21
1484.830633764406
 31
0.0
  0
LINE
  5
193
330
6C
100
AcDbEntity
  8
Visible (ISO)
100
AcDbLine
 10
5877.148440760041
 20
1469.830633764406
 30
0.0
 11
5855.122974933399
 21
1469.830633764406
 31
0.0
  0
LINE
  5
194
330
6C
100
AcDbEntity
  8
Visible (ISO)
100
AcDbLine
 10
5855.122974933399
 20
1484.830633764406
 30
0.0
 11
5877.148440760041
 21
1484.830633764406
 31
0.0
  0
LINE
  5
195
330
6C
100
AcDbEntity
  8
Visible (ISO)
100
AcDbLine
 10
5855.122974933399
 20
1469.830633764406
 30
0.0
 11
5855.122974933399
 21
1484.830633764406
 31
0.0
  0
LINE
  5
196
330
6C
100
AcDbEntity
  8
Visible (ISO)
100
AcDbLine
 10
5943.097509106756
 20
1469.830633764405
 30
0.0
 11
5965.122974933399
 21
1469.830633764405
 31
0.0
  0
LINE
  5
197
330
6C
100
AcDbEntity
  8
Visible (ISO)
100
AcDbLine
 10
5965.122974933399
 20
1469.830633764405
 30
0.0
 11
5965.122974933399
 21
1484.830633764405
 31
0.0
  0
LINE
  5
198
330
6C
100
AcDbEntity
  8
Visible (ISO)
100
AcDbLine
 10
5965.1229749334
 20
1484.830633764405
 30
0.0
 11
5943.097509106756
 21
1484.830633764405
 31
0.0
  0
LINE
  5
199
330
6C
100
AcDbEntity
  8
Visible (ISO)
100
AcDbLine
 10
5935.886236414675
 20
1239.830633964396
 30
0.0
 11
5930.122974933399
 21
1239.830633964396
 31
0.0
  0
LINE
  5
19A
330
6C
100
AcDbEntity
  8
Visible (ISO)
100
AcDbLine
 10
5930.122974933399
 20
1254.830633964395
 30
0.0
 11
5935.886236414675
 21
1254.830633964395
 31
0.0
  0
LINE
  5
19B
330
6C
100
AcDbEntity
  8
Visible (ISO)
100
AcDbLine
 10
5930.122974933399
 20
1254.830633964395
 30
0.0
 11
5930.122974933399
 21
1239.830633964396
 31
0.0
  0
LINE
  5
19C
330
6C
100
AcDbEntity
  8
Visible (ISO)
100
AcDbLine
 10
5890.122974933399
 20
1239.830633964396
 30
0.0
 11
5884.359713452123
 21
1239.830633964396
 31
0.0
  0
LINE
  5
19D
330
6C
100
AcDbEntity
  8
Visible (ISO)
100
AcDbLine
 10
5884.359713452123
 20
1254.830633964395
 30
0.0
 11
5890.122974933399
 21
1254.830633964395
 31
0.0
  0
LINE
  5
19E
330
6C
100
AcDbEntity
  8
Visible (ISO)
100
AcDbLine
 10
5890.122974933399
 20
1239.830633964396
 30
0.0
 11
5890.122974933399
 21
1254.830633964395
 31
0.0
  0
LINE
  5
19F
330
6C
100
AcDbEntity
  8
Visible (ISO)
100
AcDbLine
 10
5943.097509106756
 20
1239.830633964396
 30
0.0
 11
5935.886236414674
 21
1239.830633964396
 31
0.0
  0
LINE
  5
1A0
330
6C
100
AcDbEntity
  8
Visible (ISO)
100
AcDbLine
 10
5935.886236414674
 20
1254.830633964395
 30
0.0
 11
5943.097509106756
 21
1254.830633964395
 31
0.0
  0
LINE
  5
1A1
330
6C
100
AcDbEntity
  8
Visible (ISO)
100
AcDbLine
 10
5884.359713452123
 20
1239.830633964396
 30
0.0
 11
5877.148440760041
 21
1239.830633964396
 31
0.0
  0
LINE
  5
1A2
330
6C
100
AcDbEntity
  8
Visible (ISO)
100
AcDbLine
 10
5877.148440760041
 20
1254.830633964395
 30
0.0
 11
5884.359713452123
 21
1254.830633964395
 31
0.0
  0
LINE
  5
1A3
330
6C
100
AcDbEntity
  8
Visible (ISO)
100
AcDbLine
 10
5930.122974933399
 20
1239.830633964396
 30
0.0
 11
5890.122974933399
 21
1239.830633964396
 31
0.0
  0
LINE
  5
1A4
330
6C
100
AcDbEntity
  8
Visible (ISO)
100
AcDbLine
 10
5890.122974933399
 20
1254.830633964395
 30
0.0
 11
5930.122974933399
 21
1254.830633964395
 31
0.0
  0
LINE
  5
1A5
330
6C
100
AcDbEntity
  8
Visible (ISO)
100
AcDbLine
 10
5877.148440760041
 20
1239.830633964396
 30
0.0
 11
5855.122974933399
 21
1239.830633964396
 31
0.0
  0
LINE
  5
1A6
330
6C
100
AcDbEntity
  8
Visible (ISO)
100
AcDbLine
 10
5855.122974933399
 20
1254.830633964395
 30
0.0
 11
5877.148440760041
 21
1254.830633964395
 31
0.0
  0
LINE
  5
1A7
330
6C
100
AcDbEntity
  8
Visible (ISO)
100
AcDbLine
 10
5855.122974933399
 20
1239.830633964396
 30
0.0
 11
5855.122974933399
 21
1254.830633964395
 31
0.0
  0
LINE
  5
1A8
330
6C
100
AcDbEntity
  8
Visible (ISO)
100
AcDbLine
 10
5943.097509106756
 20
1239.830633964396
 30
0.0
 11
5965.1229749334
 21
1239.830633964396
 31
0.0
  0
LINE
  5
1A9
330
6C
100
AcDbEntity
  8
Visible (ISO)
100
AcDbLine
 10
5965.122974933399
 20
1239.830633964396
 30
0.0
 11
5965.122974933399
 21
1254.830633964395
 31
0.0
  0
LINE
  5
1AA
330
6C
100
AcDbEntity
  8
Visible (ISO)
100
AcDbLine
 10
5965.122974933399
 20
1254.830633964395
 30
0.0
 11
5943.097509106756
 21
1254.830633964395
 31
0.0
  0
LINE
  5
1AB
330
6C
100
AcDbEntity
  8
Visible (ISO)
100
AcDbLine
 10
6155.886236414676
 20
1469.830633764404
 30
0.0
 11
6150.1229749334
 21
1469.830633764404
 31
0.0
  0
LINE
  5
1AC
330
6C
100
AcDbEntity
  8
Visible (ISO)
100
AcDbLine
 10
6150.1229749334
 20
1484.830633764404
 30
0.0
 11
6155.886236414676
 21
1484.830633764404
 31
0.0
  0
LINE
  5
1AD
330
6C
100
AcDbEntity
  8
Visible (ISO)
100
AcDbLine
 10
6150.1229749334
 20
1484.830633764404
 30
0.0
 11
6150.1229749334
 21
1469.830633764404
 31
0.0
  0
LINE
  5
1AE
330
6C
100
AcDbEntity
  8
Visible (ISO)
100
AcDbLine
 10
6110.122974933399
 20
1469.830633764404
 30
0.0
 11
6104.359713452122
 21
1469.830633764404
 31
0.0
  0
LINE
  5
1AF
330
6C
100
AcDbEntity
  8
Visible (ISO)
100
AcDbLine
 10
6104.359713452122
 20
1484.830633764405
 30
0.0
 11
6110.122974933399
 21
1484.830633764405
 31
0.0
  0
LINE
  5
1B0
330
6C
100
AcDbEntity
  8
Visible (ISO)
100
AcDbLine
 10
6110.122974933399
 20
1469.830633764404
 30
0.0
 11
6110.122974933399
 21
1484.830633764405
 31
0.0
  0
LINE
  5
1B1
330
6C
100
AcDbEntity
  8
Visible (ISO)
100
AcDbLine
 10
6163.097509106756
 20
1469.830633764404
 30
0.0
 11
6155.886236414675
 21
1469.830633764404
 31
0.0
  0
LINE
  5
1B2
330
6C
100
AcDbEntity
  8
Visible (ISO)
100
AcDbLine
 10
6155.886236414675
 20
1484.830633764404
 30
0.0
 11
6163.097509106756
 21
1484.830633764404
 31
0.0
  0
LINE
  5
1B3
330
6C
100
AcDbEntity
  8
Visible (ISO)
100
AcDbLine
 10
6104.359713452123
 20
1469.830633764404
 30
0.0
 11
6097.148440760042
 21
1469.830633764404
 31
0.0
  0
LINE
  5
1B4
330
6C
100
AcDbEntity
  8
Visible (ISO)
100
AcDbLine
 10
6097.148440760042
 20
1484.830633764405
 30
0.0
 11
6104.359713452123
 21
1484.830633764405
 31
0.0
  0
LINE
  5
1B5
330
6C
100
AcDbEntity
  8
Visible (ISO)
100
AcDbLine
 10
6150.1229749334
 20
1469.830633764404
 30
0.0
 11
6110.122974933399
 21
1469.830633764404
 31
0.0
  0
LINE
  5
1B6
330
6C
100
AcDbEntity
  8
Visible (ISO)
100
AcDbLine
 10
6110.122974933399
 20
1484.830633764405
 30
0.0
 11
6150.1229749334
 21
1484.830633764404
 31
0.0
  0
LINE
  5
1B7
330
6C
100
AcDbEntity
  8
Visible (ISO)
100
AcDbLine
 10
6097.148440760042
 20
1469.830633764405
 30
0.0
 11
6075.1229749334
 21
1469.830633764405
 31
0.0
  0
LINE
  5
1B8
330
6C
100
AcDbEntity
  8
Visible (ISO)
100
AcDbLine
 10
6075.1229749334
 20
1484.830633764405
 30
0.0
 11
6097.148440760042
 21
1484.830633764405
 31
0.0
  0
LINE
  5
1B9
330
6C
100
AcDbEntity
  8
Visible (ISO)
100
AcDbLine
 10
6075.1229749334
 20
1469.830633764405
 30
0.0
 11
6075.1229749334
 21
1484.830633764405
 31
0.0
  0
LINE
  5
1BA
330
6C
100
AcDbEntity
  8
Visible (ISO)
100
AcDbLine
 10
6163.097509106756
 20
1469.830633764404
 30
0.0
 11
6185.122974933399
 21
1469.830633764404
 31
0.0
  0
LINE
  5
1BB
330
6C
100
AcDbEntity
  8
Visible (ISO)
100
AcDbLine
 10
6185.122974933399
 20
1469.830633764404
 30
0.0
 11
6185.122974933399
 21
1484.830633764404
 31
0.0
  0
LINE
  5
1BC
330
6C
100
AcDbEntity
  8
Visible (ISO)
100
AcDbLine
 10
6185.122974933399
 20
1484.830633764404
 30
0.0
 11
6163.097509106757
 21
1484.830633764404
 31
0.0
  0
LINE
  5
1BD
330
6C
100
AcDbEntity
  8
Visible (ISO)
100
AcDbLine
 10
6155.886236414676
 20
1239.830633964394
 30
0.0
 11
6150.1229749334
 21
1239.830633964394
 31
0.0
  0
LINE
  5
1BE
330
6C
100
AcDbEntity
  8
Visible (ISO)
100
AcDbLine
 10
6150.1229749334
 20
1254.830633964394
 30
0.0
 11
6155.886236414676
 21
1254.830633964394
 31
0.0
  0
LINE
  5
1BF
330
6C
100
AcDbEntity
  8
Visible (ISO)
100
AcDbLine
 10
6150.1229749334
 20
1254.830633964394
 30
0.0
 11
6150.1229749334
 21
1239.830633964394
 31
0.0
  0
LINE
  5
1C0
330
6C
100
AcDbEntity
  8
Visible (ISO)
100
AcDbLine
 10
6110.122974933399
 20
1239.830633964394
 30
0.0
 11
6104.359713452122
 21
1239.830633964394
 31
0.0
  0
LINE
  5
1C1
330
6C
100
AcDbEntity
  8
Visible (ISO)
100
AcDbLine
 10
6104.359713452122
 20
1254.830633964394
 30
0.0
 11
6110.122974933399
 21
1254.830633964394
 31
0.0
  0
LINE
  5
1C2
330
6C
100
AcDbEntity
  8
Visible (ISO)
100
AcDbLine
 10
6110.122974933399
 20
1239.830633964394
 30
0.0
 11
6110.122974933399
 21
1254.830633964394
 31
0.0
  0
LINE
  5
1C3
330
6C
100
AcDbEntity
  8
Visible (ISO)
100
AcDbLine
 10
6163.097509106756
 20
1239.830633964394
 30
0.0
 11
6155.886236414675
 21
1239.830633964394
 31
0.0
  0
LINE
  5
1C4
330
6C
100
AcDbEntity
  8
Visible (ISO)
100
AcDbLine
 10
6155.886236414675
 20
1254.830633964394
 30
0.0
 11
6163.097509106756
 21
1254.830633964394
 31
0.0
  0
LINE
  5
1C5
330
6C
100
AcDbEntity
  8
Visible (ISO)
100
AcDbLine
 10
6104.359713452123
 20
1239.830633964394
 30
0.0
 11
6097.148440760042
 21
1239.830633964394
 31
0.0
  0
LINE
  5
1C6
330
6C
100
AcDbEntity
  8
Visible (ISO)
100
AcDbLine
 10
6097.148440760042
 20
1254.830633964394
 30
0.0
 11
6104.359713452123
 21
1254.830633964394
 31
0.0
  0
LINE
  5
1C7
330
6C
100
AcDbEntity
  8
Visible (ISO)
100
AcDbLine
 10
6150.1229749334
 20
1239.830633964394
 30
0.0
 11
6110.122974933399
 21
1239.830633964394
 31
0.0
  0
LINE
  5
1C8
330
6C
100
AcDbEntity
  8
Visible (ISO)
100
AcDbLine
 10
6110.122974933399
 20
1254.830633964394
 30
0.0
 11
6150.1229749334
 21
1254.830633964394
 31
0.0
  0
LINE
  5
1C9
330
6C
100
AcDbEntity
  8
Visible (ISO)
100
AcDbLine
 10
6097.148440760041
 20
1239.830633964394
 30
0.0
 11
6075.122974933399
 21
1239.830633964394
 31
0.0
  0
LINE
  5
1CA
330
6C
100
AcDbEntity
  8
Visible (ISO)
100
AcDbLine
 10
6075.1229749334
 20
1254.830633964394
 30
0.0
 11
6097.148440760041
 21
1254.830633964394
 31
0.0
  0
LINE
  5
1CB
330
6C
100
AcDbEntity
  8
Visible (ISO)
100
AcDbLine
 10
6075.1229749334
 20
1239.830633964394
 30
0.0
 11
6075.1229749334
 21
1254.830633964394
 31
0.0
  0
LINE
  5
1CC
330
6C
100
AcDbEntity
  8
Visible (ISO)
100
AcDbLine
 10
6163.097509106757
 20
1239.830633964394
 30
0.0
 11
6185.122974933399
 21
1239.830633964394
 31
0.0
  0
LINE
  5
1CD
330
6C
100
AcDbEntity
  8
Visible (ISO)
100
AcDbLine
 10
6185.122974933399
 20
1239.830633964394
 30
0.0
 11
6185.122974933399
 21
1254.830633964394
 31
0.0
  0
LINE
  5
1CE
330
6C
100
AcDbEntity
  8
Visible (ISO)
100
AcDbLine
 10
6185.122974933399
 20
1254.830633964394
 30
0.0
 11
6163.097509106757
 21
1254.830633964394
 31
0.0
  0
LINE
  5
1CF
330
6C
100
AcDbEntity
  8
Visible (ISO)
100
AcDbLine
 10
6375.886236414675
 20
1469.830633764403
 30
0.0
 11
6370.122974933399
 21
1469.830633764403
 31
0.0
  0
LINE
  5
1D0
330
6C
100
AcDbEntity
  8
Visible (ISO)
100
AcDbLine
 10
6370.122974933399
 20
1484.830633764403
 30
0.0
 11
6375.886236414675
 21
1484.830633764403
 31
0.0
  0
LINE
  5
1D1
330
6C
100
AcDbEntity
  8
Visible (ISO)
100
AcDbLine
 10
6370.122974933398
 20
1484.830633764403
 30
0.0
 11
6370.122974933398
 21
1469.830633764403
 31
0.0
  0
LINE
  5
1D2
330
6C
100
AcDbEntity
  8
Visible (ISO)
100
AcDbLine
 10
6330.122974933399
 20
1469.830633764403
 30
0.0
 11
6324.359713452122
 21
1469.830633764403
 31
0.0
  0
LINE
  5
1D3
330
6C
100
AcDbEntity
  8
Visible (ISO)
100
AcDbLine
 10
6324.359713452122
 20
1484.830633764404
 30
0.0
 11
6330.122974933399
 21
1484.830633764404
 31
0.0
  0
LINE
  5
1D4
330
6C
100
AcDbEntity
  8
Visible (ISO)
100
AcDbLine
 10
6330.122974933399
 20
1469.830633764403
 30
0.0
 11
6330.122974933399
 21
1484.830633764404
 31
0.0
  0
LINE
  5
1D5
330
6C
100
AcDbEntity
  8
Visible (ISO)
100
AcDbLine
 10
6383.097509106756
 20
1469.830633764403
 30
0.0
 11
6375.886236414674
 21
1469.830633764403
 31
0.0
  0
LINE
  5
1D6
330
6C
100
AcDbEntity
  8
Visible (ISO)
100
AcDbLine
 10
6375.886236414674
 20
1484.830633764403
 30
0.0
 11
6383.097509106756
 21
1484.830633764403
 31
0.0
  0
LINE
  5
1D7
330
6C
100
AcDbEntity
  8
Visible (ISO)
100
AcDbLine
 10
6324.359713452123
 20
1469.830633764403
 30
0.0
 11
6317.148440760043
 21
1469.830633764403
 31
0.0
  0
LINE
  5
1D8
330
6C
100
AcDbEntity
  8
Visible (ISO)
100
AcDbLine
 10
6317.148440760043
 20
1484.830633764404
 30
0.0
 11
6324.359713452123
 21
1484.830633764404
 31
0.0
  0
LINE
  5
1D9
330
6C
100
AcDbEntity
  8
Visible (ISO)
100
AcDbLine
 10
6370.122974933399
 20
1469.830633764403
 30
0.0
 11
6330.122974933399
 21
1469.830633764403
 31
0.0
  0
LINE
  5
1DA
330
6C
100
AcDbEntity
  8
Visible (ISO)
100
AcDbLine
 10
6330.122974933399
 20
1484.830633764404
 30
0.0
 11
6370.122974933399
 21
1484.830633764403
 31
0.0
  0
LINE
  5
1DB
330
6C
100
AcDbEntity
  8
Visible (ISO)
100
AcDbLine
 10
6317.148440760043
 20
1469.830633764404
 30
0.0
 11
6295.122974933399
 21
1469.830633764404
 31
0.0
  0
LINE
  5
1DC
330
6C
100
AcDbEntity
  8
Visible (ISO)
100
AcDbLine
 10
6295.122974933399
 20
1484.830633764404
 30
0.0
 11
6317.148440760043
 21
1484.830633764404
 31
0.0
  0
LINE
  5
1DD
330
6C
100
AcDbEntity
  8
Visible (ISO)
100
AcDbLine
 10
6295.122974933399
 20
1469.830633764404
 30
0.0
 11
6295.122974933399
 21
1484.830633764404
 31
0.0
  0
LINE
  5
1DE
330
6C
100
AcDbEntity
  8
Visible (ISO)
100
AcDbLine
 10
6383.097509106756
 20
1469.830633764403
 30
0.0
 11
6405.122974933398
 21
1469.830633764403
 31
0.0
  0
LINE
  5
1DF
330
6C
100
AcDbEntity
  8
Visible (ISO)
100
AcDbLine
 10
6405.122974933398
 20
1469.830633764403
 30
0.0
 11
6405.122974933398
 21
1484.830633764403
 31
0.0
  0
LINE
  5
1E0
330
6C
100
AcDbEntity
  8
Visible (ISO)
100
AcDbLine
 10
6405.122974933398
 20
1484.830633764403
 30
0.0
 11
6383.097509106756
 21
1484.830633764403
 31
0.0
  0
LINE
  5
1E1
330
6C
100
AcDbEntity
  8
Visible (ISO)
100
AcDbLine
 10
6375.886236414676
 20
1239.830633964393
 30
0.0
 11
6370.1229749334
 21
1239.830633964393
 31
0.0
  0
LINE
  5
1E2
330
6C
100
AcDbEntity
  8
Visible (ISO)
100
AcDbLine
 10
6370.1229749334
 20
1254.830633964393
 30
0.0
 11
6375.886236414676
 21
1254.830633964393
 31
0.0
  0
LINE
  5
1E3
330
6C
100
AcDbEntity
  8
Visible (ISO)
100
AcDbLine
 10
6370.1229749334
 20
1254.830633964393
 30
0.0
 11
6370.1229749334
 21
1239.830633964393
 31
0.0
  0
LINE
  5
1E4
330
6C
100
AcDbEntity
  8
Visible (ISO)
100
AcDbLine
 10
6330.122974933399
 20
1239.830633964393
 30
0.0
 11
6324.359713452123
 21
1239.830633964393
 31
0.0
  0
LINE
  5
1E5
330
6C
100
AcDbEntity
  8
Visible (ISO)
100
AcDbLine
 10
6324.359713452123
 20
1254.830633964393
 30
0.0
 11
6330.122974933399
 21
1254.830633964393
 31
0.0
  0
LINE
  5
1E6
330
6C
100
AcDbEntity
  8
Visible (ISO)
100
AcDbLine
 10
6330.122974933399
 20
1239.830633964393
 30
0.0
 11
6330.122974933399
 21
1254.830633964393
 31
0.0
  0
LINE
  5
1E7
330
6C
100
AcDbEntity
  8
Visible (ISO)
100
AcDbLine
 10
6383.097509106756
 20
1239.830633964393
 30
0.0
 11
6375.886236414675
 21
1239.830633964393
 31
0.0
  0
LINE
  5
1E8
330
6C
100
AcDbEntity
  8
Visible (ISO)
100
AcDbLine
 10
6375.886236414675
 20
1254.830633964393
 30
0.0
 11
6383.097509106756
 21
1254.830633964393
 31
0.0
  0
LINE
  5
1E9
330
6C
100
AcDbEntity
  8
Visible (ISO)
100
AcDbLine
 10
6324.359713452125
 20
1239.830633964393
 30
0.0
 11
6317.148440760043
 21
1239.830633964393
 31
0.0
  0
LINE
  5
1EA
330
6C
100
AcDbEntity
  8
Visible (ISO)
100
AcDbLine
 10
6317.148440760043
 20
1254.830633964393
 30
0.0
 11
6324.359713452125
 21
1254.830633964393
 31
0.0
  0
LINE
  5
1EB
330
6C
100
AcDbEntity
  8
Visible (ISO)
100
AcDbLine
 10
6370.1229749334
 20
1239.830633964393
 30
0.0
 11
6330.122974933399
 21
1239.830633964393
 31
0.0
  0
LINE
  5
1EC
330
6C
100
AcDbEntity
  8
Visible (ISO)
100
AcDbLine
 10
6330.122974933399
 20
1254.830633964393
 30
0.0
 11
6370.1229749334
 21
1254.830633964393
 31
0.0
  0
LINE
  5
1ED
330
6C
100
AcDbEntity
  8
Visible (ISO)
100
AcDbLine
 10
6317.148440760043
 20
1239.830633964393
 30
0.0
 11
6295.122974933401
 21
1239.830633964393
 31
0.0
  0
LINE
  5
1EE
330
6C
100
AcDbEntity
  8
Visible (ISO)
100
AcDbLine
 10
6295.122974933399
 20
1254.830633964393
 30
0.0
 11
6317.148440760041
 21
1254.830633964393
 31
0.0
  0
LINE
  5
1EF
330
6C
100
AcDbEntity
  8
Visible (ISO)
100
AcDbLine
 10
6295.122974933399
 20
1239.830633964393
 30
0.0
 11
6295.122974933399
 21
1254.830633964393
 31
0.0
  0
LINE
  5
1F0
330
6C
100
AcDbEntity
  8
Visible (ISO)
100
AcDbLine
 10
6383.097509106757
 20
1239.830633964393
 30
0.0
 11
6405.1229749334
 21
1239.830633964393
 31
0.0
  0
LINE
  5
1F1
330
6C
100
AcDbEntity
  8
Visible (ISO)
100
AcDbLine
 10
6405.1229749334
 20
1239.830633964393
 30
0.0
 11
6405.1229749334
 21
1254.830633964393
 31
0.0
  0
LINE
  5
1F2
330
6C
100
AcDbEntity
  8
Visible (ISO)
100
AcDbLine
 10
6405.1229749334
 20
1254.830633964393
 30
0.0
 11
6383.097509106757
 21
1254.830633964393
 31
0.0
  0
LINE
  5
1F3
330
6C
100
AcDbEntity
  8
Visible (ISO)
100
AcDbLine
 10
6595.886236414675
 20
1469.830633764402
 30
0.0
 11
6590.122974933399
 21
1469.830633764402
 31
0.0
  0
LINE
  5
1F4
330
6C
100
AcDbEntity
  8
Visible (ISO)
100
AcDbLine
 10
6590.122974933399
 20
1484.830633764402
 30
0.0
 11
6595.886236414675
 21
1484.830633764402
 31
0.0
  0
LINE
  5
1F5
330
6C
100
AcDbEntity
  8
Visible (ISO)
100
AcDbLine
 10
6590.122974933399
 20
1484.830633764402
 30
0.0
 11
6590.122974933399
 21
1469.830633764402
 31
0.0
  0
LINE
  5
1F6
330
6C
100
AcDbEntity
  8
Visible (ISO)
100
AcDbLine
 10
6550.122974933398
 20
1469.830633764402
 30
0.0
 11
6544.359713452123
 21
1469.830633764402
 31
0.0
  0
LINE
  5
1F7
330
6C
100
AcDbEntity
  8
Visible (ISO)
100
AcDbLine
 10
6544.359713452123
 20
1484.830633764402
 30
0.0
 11
6550.122974933398
 21
1484.830633764402
 31
0.0
  0
LINE
  5
1F8
330
6C
100
AcDbEntity
  8
Visible (ISO)
100
AcDbLine
 10
6550.122974933398
 20
1469.830633764402
 30
0.0
 11
6550.122974933398
 21
1484.830633764402
 31
0.0
  0
LINE
  5
1F9
330
6C
100
AcDbEntity
  8
Visible (ISO)
100
AcDbLine
 10
6603.097509106757
 20
1469.830633764402
 30
0.0
 11
6595.886236414675
 21
1469.830633764402
 31
0.0
  0
LINE
  5
1FA
330
6C
100
AcDbEntity
  8
Visible (ISO)
100
AcDbLine
 10
6595.886236414675
 20
1484.830633764402
 30
0.0
 11
6603.097509106756
 21
1484.830633764402
 31
0.0
  0
LINE
  5
1FB
330
6C
100
AcDbEntity
  8
Visible (ISO)
100
AcDbLine
 10
6544.359713452123
 20
1469.830633764402
 30
0.0
 11
6537.148440760041
 21
1469.830633764402
 31
0.0
  0
LINE
  5
1FC
330
6C
100
AcDbEntity
  8
Visible (ISO)
100
AcDbLine
 10
6537.148440760041
 20
1484.830633764402
 30
0.0
 11
6544.359713452123
 21
1484.830633764402
 31
0.0
  0
LINE
  5
1FD
330
6C
100
AcDbEntity
  8
Visible (ISO)
100
AcDbLine
 10
6590.122974933399
 20
1469.830633764402
 30
0.0
 11
6550.1229749334
 21
1469.830633764402
 31
0.0
  0
LINE
  5
1FE
330
6C
100
AcDbEntity
  8
Visible (ISO)
100
AcDbLine
 10
6550.122974933398
 20
1484.830633764402
 30
0.0
 11
6590.122974933398
 21
1484.830633764402
 31
0.0
  0
LINE
  5
1FF
330
6C
100
AcDbEntity
  8
Visible (ISO)
100
AcDbLine
 10
6537.148440760041
 20
1469.830633764402
 30
0.0
 11
6515.122974933399
 21
1469.830633764402
 31
0.0
  0
LINE
  5
200
330
6C
100
AcDbEntity
  8
Visible (ISO)
100
AcDbLine
 10
6515.122974933399
 20
1484.830633764402
 30
0.0
 11
6537.148440760041
 21
1484.830633764402
 31
0.0
  0
LINE
  5
201
330
6C
100
AcDbEntity
  8
Visible (ISO)
100
AcDbLine
 10
6515.122974933399
 20
1469.830633764402
 30
0.0
 11
6515.122974933399
 21
1484.830633764402
 31
0.0
  0
LINE
  5
202
330
6C
100
AcDbEntity
  8
Visible (ISO)
100
AcDbLine
 10
6603.097509106756
 20
1469.830633764402
 30
0.0
 11
6625.122974933399
 21
1469.830633764402
 31
0.0
  0
LINE
  5
203
330
6C
100
AcDbEntity
  8
Visible (ISO)
100
AcDbLine
 10
6625.122974933399
 20
1469.830633764402
 30
0.0
 11
6625.122974933399
 21
1484.830633764402
 31
0.0
  0
LINE
  5
204
330
6C
100
AcDbEntity
  8
Visible (ISO)
100
AcDbLine
 10
6625.122974933399
 20
1484.830633764402
 30
0.0
 11
6603.097509106756
 21
1484.830633764402
 31
0.0
  0
LINE
  5
205
330
6C
100
AcDbEntity
  8
Visible (ISO)
100
AcDbLine
 10
6595.886236414675
 20
1239.830633964392
 30
0.0
 11
6590.122974933399
 21
1239.830633964392
 31
0.0
  0
LINE
  5
206
330
6C
100
AcDbEntity
  8
Visible (ISO)
100
AcDbLine
 10
6590.122974933399
 20
1254.830633964392
 30
0.0
 11
6595.886236414675
 21
1254.830633964392
 31
0.0
  0
LINE
  5
207
330
6C
100
AcDbEntity
  8
Visible (ISO)
100
AcDbLine
 10
6590.122974933399
 20
1254.830633964392
 30
0.0
 11
6590.122974933399
 21
1239.830633964392
 31
0.0
  0
LINE
  5
208
330
6C
100
AcDbEntity
  8
Visible (ISO)
100
AcDbLine
 10
6550.122974933398
 20
1239.830633964392
 30
0.0
 11
6544.359713452123
 21
1239.830633964392
 31
0.0
  0
LINE
  5
209
330
6C
100
AcDbEntity
  8
Visible (ISO)
100
AcDbLine
 10
6544.359713452123
 20
1254.830633964392
 30
0.0
 11
6550.122974933398
 21
1254.830633964392
 31
0.0
  0
LINE
  5
20A
330
6C
100
AcDbEntity
  8
Visible (ISO)
100
AcDbLine
 10
6550.122974933398
 20
1239.830633964392
 30
0.0
 11
6550.122974933398
 21
1254.830633964392
 31
0.0
  0
LINE
  5
20B
330
6C
100
AcDbEntity
  8
Visible (ISO)
100
AcDbLine
 10
6603.097509106757
 20
1239.830633964392
 30
0.0
 11
6595.886236414675
 21
1239.830633964392
 31
0.0
  0
LINE
  5
20C
330
6C
100
AcDbEntity
  8
Visible (ISO)
100
AcDbLine
 10
6595.886236414675
 20
1254.830633964392
 30
0.0
 11
6603.097509106756
 21
1254.830633964392
 31
0.0
  0
LINE
  5
20D
330
6C
100
AcDbEntity
  8
Visible (ISO)
100
AcDbLine
 10
6544.359713452123
 20
1239.830633964392
 30
0.0
 11
6537.148440760041
 21
1239.830633964392
 31
0.0
  0
LINE
  5
20E
330
6C
100
AcDbEntity
  8
Visible (ISO)
100
AcDbLine
 10
6537.148440760041
 20
1254.830633964392
 30
0.0
 11
6544.359713452123
 21
1254.830633964392
 31
0.0
  0
LINE
  5
20F
330
6C
100
AcDbEntity
  8
Visible (ISO)
100
AcDbLine
 10
6590.122974933399
 20
1239.830633964392
 30
0.0
 11
6550.122974933398
 21
1239.830633964392
 31
0.0
  0
LINE
  5
210
330
6C
100
AcDbEntity
  8
Visible (ISO)
100
AcDbLine
 10
6550.122974933398
 20
1254.830633964392
 30
0.0
 11
6590.122974933398
 21
1254.830633964392
 31
0.0
  0
LINE
  5
211
330
6C
100
AcDbEntity
  8
Visible (ISO)
100
AcDbLine
 10
6537.148440760041
 20
1239.830633964392
 30
0.0
 11
6515.122974933399
 21
1239.830633964392
 31
0.0
  0
LINE
  5
212
330
6C
100
AcDbEntity
  8
Visible (ISO)
100
AcDbLine
 10
6515.122974933399
 20
1254.830633964392
 30
0.0
 11
6537.148440760041
 21
1254.830633964392
 31
0.0
  0
LINE
  5
213
330
6C
100
AcDbEntity
  8
Visible (ISO)
100
AcDbLine
 10
6515.122974933399
 20
1239.830633964392
 30
0.0
 11
6515.122974933399
 21
1254.830633964392
 31
0.0
  0
LINE
  5
214
330
6C
100
AcDbEntity
  8
Visible (ISO)
100
AcDbLine
 10
6603.097509106756
 20
1239.830633964392
 30
0.0
 11
6625.122974933399
 21
1239.830633964392
 31
0.0
  0
LINE
  5
215
330
6C
100
AcDbEntity
  8
Visible (ISO)
100
AcDbLine
 10
6625.122974933399
 20
1239.830633964392
 30
0.0
 11
6625.122974933399
 21
1254.830633964392
 31
0.0
  0
LINE
  5
216
330
6C
100
AcDbEntity
  8
Visible (ISO)
100
AcDbLine
 10
6625.122974933399
 20
1254.830633964392
 30
0.0
 11
6603.097509106756
 21
1254.830633964392
 31
0.0
  0
LINE
  5
217
330
6C
100
AcDbEntity
  8
Visible (ISO)
100
AcDbLine
 10
6815.886236414676
 20
1469.830633764401
 30
0.0
 11
6810.122974933399
 21
1469.830633764401
 31
0.0
  0
LINE
  5
218
330
6C
100
AcDbEntity
  8
Visible (ISO)
100
AcDbLine
 10
6810.122974933399
 20
1484.830633764401
 30
0.0
 11
6815.886236414676
 21
1484.830633764401
 31
0.0
  0
LINE
  5
219
330
6C
100
AcDbEntity
  8
Visible (ISO)
100
AcDbLine
 10
6810.122974933399
 20
1484.830633764401
 30
0.0
 11
6810.122974933399
 21
1469.830633764401
 31
0.0
  0
LINE
  5
21A
330
6C
100
AcDbEntity
  8
Visible (ISO)
100
AcDbLine
 10
6770.122974933399
 20
1469.830633764401
 30
0.0
 11
6764.359713452122
 21
1469.830633764401
 31
0.0
  0
LINE
  5
21B
330
6C
100
AcDbEntity
  8
Visible (ISO)
100
AcDbLine
 10
6764.359713452122
 20
1484.830633764401
 30
0.0
 11
6770.122974933399
 21
1484.830633764401
 31
0.0
  0
LINE
  5
21C
330
6C
100
AcDbEntity
  8
Visible (ISO)
100
AcDbLine
 10
6770.122974933399
 20
1469.830633764401
 30
0.0
 11
6770.122974933399
 21
1484.830633764401
 31
0.0
  0
LINE
  5
21D
330
6C
100
AcDbEntity
  8
Visible (ISO)
100
AcDbLine
 10
6823.097509106758
 20
1469.830633764401
 30
0.0
 11
6815.886236414676
 21
1469.830633764401
 31
0.0
  0
LINE
  5
21E
330
6C
100
AcDbEntity
  8
Visible (ISO)
100
AcDbLine
 10
6815.886236414676
 20
1484.830633764401
 30
0.0
 11
6823.097509106756
 21
1484.830633764401
 31
0.0
  0
LINE
  5
21F
330
6C
100
AcDbEntity
  8
Visible (ISO)
100
AcDbLine
 10
6764.359713452122
 20
1469.830633764401
 30
0.0
 11
6757.148440760042
 21
1469.830633764401
 31
0.0
  0
LINE
  5
220
330
6C
100
AcDbEntity
  8
Visible (ISO)
100
AcDbLine
 10
6757.14844076004
 20
1484.830633764401
 30
0.0
 11
6764.359713452122
 21
1484.830633764401
 31
0.0
  0
LINE
  5
221
330
6C
100
AcDbEntity
  8
Visible (ISO)
100
AcDbLine
 10
6810.122974933399
 20
1469.830633764401
 30
0.0
 11
6770.1229749334
 21
1469.830633764401
 31
0.0
  0
LINE
  5
222
330
6C
100
AcDbEntity
  8
Visible (ISO)
100
AcDbLine
 10
6770.122974933399
 20
1484.830633764401
 30
0.0
 11
6810.122974933398
 21
1484.830633764401
 31
0.0
  0
LINE
  5
223
330
6C
100
AcDbEntity
  8
Visible (ISO)
100
AcDbLine
 10
6757.148440760042
 20
1469.830633764401
 30
0.0
 11
6735.1229749334
 21
1469.830633764401
 31
0.0
  0
LINE
  5
224
330
6C
100
AcDbEntity
  8
Visible (ISO)
100
AcDbLine
 10
6735.1229749334
 20
1484.830633764401
 30
0.0
 11
6757.148440760042
 21
1484.830633764401
 31
0.0
  0
LINE
  5
225
330
6C
100
AcDbEntity
  8
Visible (ISO)
100
AcDbLine
 10
6735.1229749334
 20
1469.830633764401
 30
0.0
 11
6735.1229749334
 21
1484.830633764401
 31
0.0
  0
LINE
  5
226
330
6C
100
AcDbEntity
  8
Visible (ISO)
100
AcDbLine
 10
6823.097509106756
 20
1469.830633764401
 30
0.0
 11
6845.122974933399
 21
1469.830633764401
 31
0.0
  0
LINE
  5
227
330
6C
100
AcDbEntity
  8
Visible (ISO)
100
AcDbLine
 10
6845.122974933399
 20
1469.830633764401
 30
0.0
 11
6845.122974933399
 21
1484.830633764401
 31
0.0
  0
LINE
  5
228
330
6C
100
AcDbEntity
  8
Visible (ISO)
100
AcDbLine
 10
6845.122974933399
 20
1484.830633764401
 30
0.0
 11
6823.097509106756
 21
1484.830633764401
 31
0.0
  0
LINE
  5
229
330
6C
100
AcDbEntity
  8
Visible (ISO)
100
AcDbLine
 10
6815.886236414676
 20
1239.830633964391
 30
0.0
 11
6810.122974933399
 21
1239.830633964391
 31
0.0
  0
LINE
  5
22A
330
6C
100
AcDbEntity
  8
Visible (ISO)
100
AcDbLine
 10
6810.122974933399
 20
1254.830633964391
 30
0.0
 11
6815.886236414676
 21
1254.830633964391
 31
0.0
  0
LINE
  5
22B
330
6C
100
AcDbEntity
  8
Visible (ISO)
100
AcDbLine
 10
6810.122974933399
 20
1254.830633964391
 30
0.0
 11
6810.122974933399
 21
1239.830633964391
 31
0.0
  0
LINE
  5
22C
330
6C
100
AcDbEntity
  8
Visible (ISO)
100
AcDbLine
 10
6770.122974933399
 20
1239.830633964391
 30
0.0
 11
6764.359713452122
 21
1239.830633964391
 31
0.0
  0
LINE
  5
22D
330
6C
100
AcDbEntity
  8
Visible (ISO)
100
AcDbLine
 10
6764.359713452122
 20
1254.830633964391
 30
0.0
 11
6770.122974933399
 21
1254.830633964391
 31
0.0
  0
LINE
  5
22E
330
6C
100
AcDbEntity
  8
Visible (ISO)
100
AcDbLine
 10
6770.122974933399
 20
1239.830633964391
 30
0.0
 11
6770.122974933399
 21
1254.830633964391
 31
0.0
  0
LINE
  5
22F
330
6C
100
AcDbEntity
  8
Visible (ISO)
100
AcDbLine
 10
6823.097509106758
 20
1239.830633964391
 30
0.0
 11
6815.886236414676
 21
1239.830633964391
 31
0.0
  0
LINE
  5
230
330
6C
100
AcDbEntity
  8
Visible (ISO)
100
AcDbLine
 10
6815.886236414676
 20
1254.830633964391
 30
0.0
 11
6823.097509106756
 21
1254.830633964391
 31
0.0
  0
LINE
  5
231
330
6C
100
AcDbEntity
  8
Visible (ISO)
100
AcDbLine
 10
6764.359713452122
 20
1239.830633964391
 30
0.0
 11
6757.148440760042
 21
1239.830633964391
 31
0.0
  0
LINE
  5
232
330
6C
100
AcDbEntity
  8
Visible (ISO)
100
AcDbLine
 10
6757.14844076004
 20
1254.830633964391
 30
0.0
 11
6764.359713452122
 21
1254.830633964391
 31
0.0
  0
LINE
  5
233
330
6C
100
AcDbEntity
  8
Visible (ISO)
100
AcDbLine
 10
6810.122974933399
 20
1239.830633964391
 30
0.0
 11
6770.1229749334
 21
1239.830633964391
 31
0.0
  0
LINE
  5
234
330
6C
100
AcDbEntity
  8
Visible (ISO)
100
AcDbLine
 10
6770.122974933399
 20
1254.830633964391
 30
0.0
 11
6810.122974933398
 21
1254.830633964391
 31
0.0
  0
LINE
  5
235
330
6C
100
AcDbEntity
  8
Visible (ISO)
100
AcDbLine
 10
6757.148440760042
 20
1239.830633964391
 30
0.0
 11
6735.1229749334
 21
1239.830633964391
 31
0.0
  0
LINE
  5
236
330
6C
100
AcDbEntity
  8
Visible (ISO)
100
AcDbLine
 10
6735.1229749334
 20
1254.830633964391
 30
0.0
 11
6757.148440760042
 21
1254.830633964391
 31
0.0
  0
LINE
  5
237
330
6C
100
AcDbEntity
  8
Visible (ISO)
100
AcDbLine
 10
6735.1229749334
 20
1239.830633964391
 30
0.0
 11
6735.1229749334
 21
1254.830633964391
 31
0.0
  0
LINE
  5
238
330
6C
100
AcDbEntity
  8
Visible (ISO)
100
AcDbLine
 10
6823.097509106756
 20
1239.830633964391
 30
0.0
 11
6845.122974933399
 21
1239.830633964391
 31
0.0
  0
LINE
  5
239
330
6C
100
AcDbEntity
  8
Visible (ISO)
100
AcDbLine
 10
6845.122974933399
 20
1239.830633964391
 30
0.0
 11
6845.122974933399
 21
1254.830633964391
 31
0.0
  0
LINE
  5
23A
330
6C
100
AcDbEntity
  8
Visible (ISO)
100
AcDbLine
 10
6845.122974933399
 20
1254.830633964391
 30
0.0
 11
6823.097509106756
 21
1254.830633964391
 31
0.0
  0
LINE
  5
23B
330
6C
100
AcDbEntity
  8
Visible (ISO)
100
AcDbLine
 10
7035.886236414675
 20
1469.8306337644
 30
0.0
 11
7030.1229749334
 21
1469.8306337644
 31
0.0
  0
LINE
  5
23C
330
6C
100
AcDbEntity
  8
Visible (ISO)
100
AcDbLine
 10
7030.1229749334
 20
1484.8306337644
 30
0.0
 11
7035.886236414675
 21
1484.8306337644
 31
0.0
  0
LINE
  5
23D
330
6C
100
AcDbEntity
  8
Visible (ISO)
100
AcDbLine
 10
7030.1229749334
 20
1484.830633764399
 30
0.0
 11
7030.1229749334
 21
1469.8306337644
 31
0.0
  0
LINE
  5
23E
330
6C
100
AcDbEntity
  8
Visible (ISO)
100
AcDbLine
 10
6990.122974933399
 20
1469.8306337644
 30
0.0
 11
6984.359713452123
 21
1469.8306337644
 31
0.0
  0
LINE
  5
23F
330
6C
100
AcDbEntity
  8
Visible (ISO)
100
AcDbLine
 10
6984.359713452123
 20
1484.8306337644
 30
0.0
 11
6990.122974933399
 21
1484.8306337644
 31
0.0
  0
LINE
  5
240
330
6C
100
AcDbEntity
  8
Visible (ISO)
100
AcDbLine
 10
6990.122974933399
 20
1469.8306337644
 30
0.0
 11
6990.122974933399
 21
1484.8306337644
 31
0.0
  0
LINE
  5
241
330
6C
100
AcDbEntity
  8
Visible (ISO)
100
AcDbLine
 10
7043.097509106758
 20
1469.8306337644
 30
0.0
 11
7035.886236414675
 21
1469.8306337644
 31
0.0
  0
LINE
  5
242
330
6C
100
AcDbEntity
  8
Visible (ISO)
100
AcDbLine
 10
7035.886236414675
 20
1484.8306337644
 30
0.0
 11
7043.097509106757
 21
1484.8306337644
 31
0.0
  0
LINE
  5
243
330
6C
100
AcDbEntity
  8
Visible (ISO)
100
AcDbLine
 10
6984.359713452123
 20
1469.8306337644
 30
0.0
 11
6977.148440760043
 21
1469.8306337644
 31
0.0
  0
LINE
  5
244
330
6C
100
AcDbEntity
  8
Visible (ISO)
100
AcDbLine
 10
6977.148440760041
 20
1484.8306337644
 30
0.0
 11
6984.359713452123
 21
1484.8306337644
 31
0.0
  0
LINE
  5
245
330
6C
100
AcDbEntity
  8
Visible (ISO)
100
AcDbLine
 10
7030.1229749334
 20
1469.8306337644
 30
0.0
 11
6990.122974933401
 21
1469.8306337644
 31
0.0
  0
LINE
  5
246
330
6C
100
AcDbEntity
  8
Visible (ISO)
100
AcDbLine
 10
6990.122974933399
 20
1484.8306337644
 30
0.0
 11
7030.122974933398
 21
1484.8306337644
 31
0.0
  0
LINE
  5
247
330
6C
100
AcDbEntity
  8
Visible (ISO)
100
AcDbLine
 10
6977.148440760043
 20
1469.8306337644
 30
0.0
 11
6955.1229749334
 21
1469.8306337644
 31
0.0
  0
LINE
  5
248
330
6C
100
AcDbEntity
  8
Visible (ISO)
100
AcDbLine
 10
6955.1229749334
 20
1484.8306337644
 30
0.0
 11
6977.148440760043
 21
1484.8306337644
 31
0.0
  0
LINE
  5
249
330
6C
100
AcDbEntity
  8
Visible (ISO)
100
AcDbLine
 10
6955.1229749334
 20
1469.8306337644
 30
0.0
 11
6955.1229749334
 21
1484.8306337644
 31
0.0
  0
LINE
  5
24A
330
6C
100
AcDbEntity
  8
Visible (ISO)
100
AcDbLine
 10
7043.097509106757
 20
1469.8306337644
 30
0.0
 11
7065.122974933399
 21
1469.8306337644
 31
0.0
  0
LINE
  5
24B
330
6C
100
AcDbEntity
  8
Visible (ISO)
100
AcDbLine
 10
7065.122974933399
 20
1469.8306337644
 30
0.0
 11
7065.122974933399
 21
1484.830633764399
 31
0.0
  0
LINE
  5
24C
330
6C
100
AcDbEntity
  8
Visible (ISO)
100
AcDbLine
 10
7065.122974933399
 20
1484.830633764399
 30
0.0
 11
7043.097509106757
 21
1484.830633764399
 31
0.0
  0
LINE
  5
24D
330
6C
100
AcDbEntity
  8
Visible (ISO)
100
AcDbLine
 10
7035.886236414675
 20
1239.83063396439
 30
0.0
 11
7030.1229749334
 21
1239.83063396439
 31
0.0
  0
LINE
  5
24E
330
6C
100
AcDbEntity
  8
Visible (ISO)
100
AcDbLine
 10
7030.1229749334
 20
1254.83063396439
 30
0.0
 11
7035.886236414675
 21
1254.83063396439
 31
0.0
  0
LINE
  5
24F
330
6C
100
AcDbEntity
  8
Visible (ISO)
100
AcDbLine
 10
7030.1229749334
 20
1254.83063396439
 30
0.0
 11
7030.1229749334
 21
1239.83063396439
 31
0.0
  0
LINE
  5
250
330
6C
100
AcDbEntity
  8
Visible (ISO)
100
AcDbLine
 10
6990.122974933399
 20
1239.83063396439
 30
0.0
 11
6984.359713452123
 21
1239.83063396439
 31
0.0
  0
LINE
  5
251
330
6C
100
AcDbEntity
  8
Visible (ISO)
100
AcDbLine
 10
6984.359713452123
 20
1254.83063396439
 30
0.0
 11
6990.122974933399
 21
1254.83063396439
 31
0.0
  0
LINE
  5
252
330
6C
100
AcDbEntity
  8
Visible (ISO)
100
AcDbLine
 10
6990.122974933399
 20
1239.83063396439
 30
0.0
 11
6990.122974933399
 21
1254.83063396439
 31
0.0
  0
LINE
  5
253
330
6C
100
AcDbEntity
  8
Visible (ISO)
100
AcDbLine
 10
7043.097509106758
 20
1239.83063396439
 30
0.0
 11
7035.886236414675
 21
1239.83063396439
 31
0.0
  0
LINE
  5
254
330
6C
100
AcDbEntity
  8
Visible (ISO)
100
AcDbLine
 10
7035.886236414675
 20
1254.83063396439
 30
0.0
 11
7043.097509106757
 21
1254.83063396439
 31
0.0
  0
LINE
  5
255
330
6C
100
AcDbEntity
  8
Visible (ISO)
100
AcDbLine
 10
6984.359713452123
 20
1239.83063396439
 30
0.0
 11
6977.148440760043
 21
1239.83063396439
 31
0.0
  0
LINE
  5
256
330
6C
100
AcDbEntity
  8
Visible (ISO)
100
AcDbLine
 10
6977.148440760041
 20
1254.83063396439
 30
0.0
 11
6984.359713452123
 21
1254.83063396439
 31
0.0
  0
LINE
  5
257
330
6C
100
AcDbEntity
  8
Visible (ISO)
100
AcDbLine
 10
7030.1229749334
 20
1239.83063396439
 30
0.0
 11
6990.122974933399
 21
1239.83063396439
 31
0.0
  0
LINE
  5
258
330
6C
100
AcDbEntity
  8
Visible (ISO)
100
AcDbLine
 10
6990.122974933399
 20
1254.83063396439
 30
0.0
 11
7030.122974933398
 21
1254.83063396439
 31
0.0
  0
LINE
  5
259
330
6C
100
AcDbEntity
  8
Visible (ISO)
100
AcDbLine
 10
6977.148440760043
 20
1239.83063396439
 30
0.0
 11
6955.1229749334
 21
1239.83063396439
 31
0.0
  0
LINE
  5
25A
330
6C
100
AcDbEntity
  8
Visible (ISO)
100
AcDbLine
 10
6955.1229749334
 20
1254.83063396439
 30
0.0
 11
6977.148440760043
 21
1254.83063396439
 31
0.0
  0
LINE
  5
25B
330
6C
100
AcDbEntity
  8
Visible (ISO)
100
AcDbLine
 10
6955.1229749334
 20
1239.83063396439
 30
0.0
 11
6955.1229749334
 21
1254.83063396439
 31
0.0
  0
LINE
  5
25C
330
6C
100
AcDbEntity
  8
Visible (ISO)
100
AcDbLine
 10
7043.097509106757
 20
1239.83063396439
 30
0.0
 11
7065.122974933399
 21
1239.83063396439
 31
0.0
  0
LINE
  5
25D
330
6C
100
AcDbEntity
  8
Visible (ISO)
100
AcDbLine
 10
7065.122974933399
 20
1239.83063396439
 30
0.0
 11
7065.122974933399
 21
1254.83063396439
 31
0.0
  0
LINE
  5
25E
330
6C
100
AcDbEntity
  8
Visible (ISO)
100
AcDbLine
 10
7065.122974933399
 20
1254.83063396439
 30
0.0
 11
7043.097509106757
 21
1254.83063396439
 31
0.0
  0
LINE
  5
25F
330
6C
100
AcDbEntity
  8
Visible (ISO)
100
AcDbLine
 10
7255.886236414674
 20
1469.830633764399
 30
0.0
 11
7250.122974933399
 21
1469.830633764399
 31
0.0
  0
LINE
  5
260
330
6C
100
AcDbEntity
  8
Visible (ISO)
100
AcDbLine
 10
7250.122974933399
 20
1484.830633764399
 30
0.0
 11
7255.886236414674
 21
1484.830633764399
 31
0.0
  0
LINE
  5
261
330
6C
100
AcDbEntity
  8
Visible (ISO)
100
AcDbLine
 10
7250.122974933399
 20
1484.830633764399
 30
0.0
 11
7250.122974933399
 21
1469.830633764399
 31
0.0
  0
LINE
  5
262
330
6C
100
AcDbEntity
  8
Visible (ISO)
100
AcDbLine
 10
7210.122974933398
 20
1469.830633764399
 30
0.0
 11
7204.359713452122
 21
1469.830633764399
 31
0.0
  0
LINE
  5
263
330
6C
100
AcDbEntity
  8
Visible (ISO)
100
AcDbLine
 10
7204.359713452122
 20
1484.830633764399
 30
0.0
 11
7210.122974933398
 21
1484.830633764399
 31
0.0
  0
LINE
  5
264
330
6C
100
AcDbEntity
  8
Visible (ISO)
100
AcDbLine
 10
7210.122974933398
 20
1469.830633764399
 30
0.0
 11
7210.122974933398
 21
1484.830633764399
 31
0.0
  0
LINE
  5
265
330
6C
100
AcDbEntity
  8
Visible (ISO)
100
AcDbLine
 10
7263.097509106756
 20
1469.830633764399
 30
0.0
 11
7255.886236414674
 21
1469.830633764399
 31
0.0
  0
LINE
  5
266
330
6C
100
AcDbEntity
  8
Visible (ISO)
100
AcDbLine
 10
7255.886236414674
 20
1484.830633764399
 30
0.0
 11
7263.097509106756
 21
1484.830633764399
 31
0.0
  0
LINE
  5
267
330
6C
100
AcDbEntity
  8
Visible (ISO)
100
AcDbLine
 10
7204.359713452122
 20
1469.830633764399
 30
0.0
 11
7197.148440760042
 21
1469.830633764399
 31
0.0
  0
LINE
  5
268
330
6C
100
AcDbEntity
  8
Visible (ISO)
100
AcDbLine
 10
7197.14844076004
 20
1484.830633764399
 30
0.0
 11
7204.359713452122
 21
1484.830633764399
 31
0.0
  0
LINE
  5
269
330
6C
100
AcDbEntity
  8
Visible (ISO)
100
AcDbLine
 10
7250.122974933399
 20
1469.830633764399
 30
0.0
 11
7210.122974933399
 21
1469.830633764399
 31
0.0
  0
LINE
  5
26A
330
6C
100
AcDbEntity
  8
Visible (ISO)
100
AcDbLine
 10
7210.122974933398
 20
1484.830633764399
 30
0.0
 11
7250.122974933397
 21
1484.830633764399
 31
0.0
  0
LINE
  5
26B
330
6C
100
AcDbEntity
  8
Visible (ISO)
100
AcDbLine
 10
7197.148440760042
 20
1469.830633764399
 30
0.0
 11
7175.122974933398
 21
1469.830633764399
 31
0.0
  0
LINE
  5
26C
330
6C
100
AcDbEntity
  8
Visible (ISO)
100
AcDbLine
 10
7175.122974933398
 20
1484.830633764399
 30
0.0
 11
7197.148440760042
 21
1484.830633764399
 31
0.0
  0
LINE
  5
26D
330
6C
100
AcDbEntity
  8
Visible (ISO)
100
AcDbLine
 10
7175.122974933398
 20
1469.830633764399
 30
0.0
 11
7175.122974933398
 21
1484.830633764399
 31
0.0
  0
LINE
  5
26E
330
6C
100
AcDbEntity
  8
Visible (ISO)
100
AcDbLine
 10
7263.097509106756
 20
1469.830633764398
 30
0.0
 11
7285.122974933398
 21
1469.830633764398
 31
0.0
  0
LINE
  5
26F
330
6C
100
AcDbEntity
  8
Visible (ISO)
100
AcDbLine
 10
7285.122974933398
 20
1469.830633764398
 30
0.0
 11
7285.122974933398
 21
1484.830633764398
 31
0.0
  0
LINE
  5
270
330
6C
100
AcDbEntity
  8
Visible (ISO)
100
AcDbLine
 10
7285.122974933398
 20
1484.830633764398
 30
0.0
 11
7263.097509106756
 21
1484.830633764398
 31
0.0
  0
LINE
  5
271
330
6C
100
AcDbEntity
  8
Visible (ISO)
100
AcDbLine
 10
7255.886236414676
 20
1239.830633964388
 30
0.0
 11
7250.1229749334
 21
1239.830633964388
 31
0.0
  0
LINE
  5
272
330
6C
100
AcDbEntity
  8
Visible (ISO)
100
AcDbLine
 10
7250.1229749334
 20
1254.830633964388
 30
0.0
 11
7255.886236414676
 21
1254.830633964388
 31
0.0
  0
LINE
  5
273
330
6C
100
AcDbEntity
  8
Visible (ISO)
100
AcDbLine
 10
7250.1229749334
 20
1254.830633964388
 30
0.0
 11
7250.1229749334
 21
1239.830633964388
 31
0.0
  0
LINE
  5
274
330
6C
100
AcDbEntity
  8
Visible (ISO)
100
AcDbLine
 10
7210.122974933399
 20
1239.830633964388
 30
0.0
 11
7204.359713452124
 21
1239.830633964388
 31
0.0
  0
LINE
  5
275
330
6C
100
AcDbEntity
  8
Visible (ISO)
100
AcDbLine
 10
7204.359713452124
 20
1254.830633964388
 30
0.0
 11
7210.122974933399
 21
1254.830633964388
 31
0.0
  0
LINE
  5
276
330
6C
100
AcDbEntity
  8
Visible (ISO)
100
AcDbLine
 10
7210.122974933399
 20
1239.830633964388
 30
0.0
 11
7210.122974933399
 21
1254.830633964388
 31
0.0
  0
LINE
  5
277
330
6C
100
AcDbEntity
  8
Visible (ISO)
100
AcDbLine
 10
7263.097509106758
 20
1239.830633964388
 30
0.0
 11
7255.886236414676
 21
1239.830633964388
 31
0.0
  0
LINE
  5
278
330
6C
100
AcDbEntity
  8
Visible (ISO)
100
AcDbLine
 10
7255.886236414676
 20
1254.830633964388
 30
0.0
 11
7263.097509106756
 21
1254.830633964388
 31
0.0
  0
LINE
  5
279
330
6C
100
AcDbEntity
  8
Visible (ISO)
100
AcDbLine
 10
7204.359713452124
 20
1239.830633964388
 30
0.0
 11
7197.148440760043
 21
1239.830633964388
 31
0.0
  0
LINE
  5
27A
330
6C
100
AcDbEntity
  8
Visible (ISO)
100
AcDbLine
 10
7197.148440760042
 20
1254.830633964388
 30
0.0
 11
7204.359713452124
 21
1254.830633964388
 31
0.0
  0
LINE
  5
27B
330
6C
100
AcDbEntity
  8
Visible (ISO)
100
AcDbLine
 10
7250.1229749334
 20
1239.830633964388
 30
0.0
 11
7210.122974933399
 21
1239.830633964388
 31
0.0
  0
LINE
  5
27C
330
6C
100
AcDbEntity
  8
Visible (ISO)
100
AcDbLine
 10
7210.122974933399
 20
1254.830633964388
 30
0.0
 11
7250.1229749334
 21
1254.830633964388
 31
0.0
  0
LINE
  5
27D
330
6C
100
AcDbEntity
  8
Visible (ISO)
100
AcDbLine
 10
7197.148440760043
 20
1239.830633964388
 30
0.0
 11
7175.1229749334
 21
1239.830633964388
 31
0.0
  0
LINE
  5
27E
330
6C
100
AcDbEntity
  8
Visible (ISO)
100
AcDbLine
 10
7175.1229749334
 20
1254.830633964388
 30
0.0
 11
7197.148440760043
 21
1254.830633964388
 31
0.0
  0
LINE
  5
27F
330
6C
100
AcDbEntity
  8
Visible (ISO)
100
AcDbLine
 10
7175.1229749334
 20
1239.830633964388
 30
0.0
 11
7175.1229749334
 21
1254.830633964388
 31
0.0
  0
LINE
  5
280
330
6C
100
AcDbEntity
  8
Visible (ISO)
100
AcDbLine
 10
7263.097509106756
 20
1239.830633964388
 30
0.0
 11
7285.1229749334
 21
1239.830633964388
 31
0.0
  0
LINE
  5
281
330
6C
100
AcDbEntity
  8
Visible (ISO)
100
AcDbLine
 10
7285.1229749334
 20
1239.830633964388
 30
0.0
 11
7285.1229749334
 21
1254.830633964388
 31
0.0
  0
LINE
  5
282
330
6C
100
AcDbEntity
  8
Visible (ISO)
100
AcDbLine
 10
7285.1229749334
 20
1254.830633964388
 30
0.0
 11
7263.097509106756
 21
1254.830633964388
 31
0.0
  0
LINE
  5
283
330
6C
100
AcDbEntity
  8
Visible (ISO)
100
AcDbLine
 10
7475.886236414675
 20
1469.830633764397
 30
0.0
 11
7470.122974933399
 21
1469.830633764397
 31
0.0
  0
LINE
  5
284
330
6C
100
AcDbEntity
  8
Visible (ISO)
100
AcDbLine
 10
7470.122974933399
 20
1484.830633764397
 30
0.0
 11
7475.886236414675
 21
1484.830633764397
 31
0.0
  0
LINE
  5
285
330
6C
100
AcDbEntity
  8
Visible (ISO)
100
AcDbLine
 10
7470.122974933399
 20
1484.830633764397
 30
0.0
 11
7470.122974933399
 21
1469.830633764397
 31
0.0
  0
LINE
  5
286
330
6C
100
AcDbEntity
  8
Visible (ISO)
100
AcDbLine
 10
7430.122974933398
 20
1469.830633764398
 30
0.0
 11
7424.359713452123
 21
1469.830633764398
 31
0.0
  0
LINE
  5
287
330
6C
100
AcDbEntity
  8
Visible (ISO)
100
AcDbLine
 10
7424.359713452123
 20
1484.830633764398
 30
0.0
 11
7430.122974933398
 21
1484.830633764398
 31
0.0
  0
LINE
  5
288
330
6C
100
AcDbEntity
  8
Visible (ISO)
100
AcDbLine
 10
7430.122974933398
 20
1469.830633764398
 30
0.0
 11
7430.122974933398
 21
1484.830633764398
 31
0.0
  0
LINE
  5
289
330
6C
100
AcDbEntity
  8
Visible (ISO)
100
AcDbLine
 10
7483.097509106757
 20
1469.830633764397
 30
0.0
 11
7475.886236414675
 21
1469.830633764397
 31
0.0
  0
LINE
  5
28A
330
6C
100
AcDbEntity
  8
Visible (ISO)
100
AcDbLine
 10
7475.886236414675
 20
1484.830633764397
 30
0.0
 11
7483.097509106755
 21
1484.830633764397
 31
0.0
  0
LINE
  5
28B
330
6C
100
AcDbEntity
  8
Visible (ISO)
100
AcDbLine
 10
7424.359713452123
 20
1469.830633764398
 30
0.0
 11
7417.148440760041
 21
1469.830633764398
 31
0.0
  0
LINE
  5
28C
330
6C
100
AcDbEntity
  8
Visible (ISO)
100
AcDbLine
 10
7417.14844076004
 20
1484.830633764398
 30
0.0
 11
7424.359713452123
 21
1484.830633764398
 31
0.0
  0
LINE
  5
28D
330
6C
100
AcDbEntity
  8
Visible (ISO)
100
AcDbLine
 10
7470.122974933399
 20
1469.830633764397
 30
0.0
 11
7430.1229749334
 21
1469.830633764398
 31
0.0
  0
LINE
  5
28E
330
6C
100
AcDbEntity
  8
Visible (ISO)
100
AcDbLine
 10
7430.122974933398
 20
1484.830633764398
 30
0.0
 11
7470.122974933397
 21
1484.830633764397
 31
0.0
  0
LINE
  5
28F
330
6C
100
AcDbEntity
  8
Visible (ISO)
100
AcDbLine
 10
7417.148440760041
 20
1469.830633764398
 30
0.0
 11
7395.122974933399
 21
1469.830633764398
 31
0.0
  0
LINE
  5
290
330
6C
100
AcDbEntity
  8
Visible (ISO)
100
AcDbLine
 10
7395.122974933399
 20
1484.830633764398
 30
0.0
 11
7417.148440760041
 21
1484.830633764398
 31
0.0
  0
LINE
  5
291
330
6C
100
AcDbEntity
  8
Visible (ISO)
100
AcDbLine
 10
7395.122974933399
 20
1469.830633764398
 30
0.0
 11
7395.122974933399
 21
1484.830633764398
 31
0.0
  0
LINE
  5
292
330
6C
100
AcDbEntity
  8
Visible (ISO)
100
AcDbLine
 10
7483.097509106755
 20
1469.830633764397
 30
0.0
 11
7505.122974933398
 21
1469.830633764397
 31
0.0
  0
LINE
  5
293
330
6C
100
AcDbEntity
  8
Visible (ISO)
100
AcDbLine
 10
7505.122974933398
 20
1469.830633764397
 30
0.0
 11
7505.122974933398
 21
1484.830633764397
 31
0.0
  0
LINE
  5
294
330
6C
100
AcDbEntity
  8
Visible (ISO)
100
AcDbLine
 10
7505.122974933398
 20
1484.830633764397
 30
0.0
 11
7483.097509106755
 21
1484.830633764397
 31
0.0
  0
LINE
  5
295
330
6C
100
AcDbEntity
  8
Visible (ISO)
100
AcDbLine
 10
7475.886236414675
 20
1239.830633964387
 30
0.0
 11
7470.122974933399
 21
1239.830633964387
 31
0.0
  0
LINE
  5
296
330
6C
100
AcDbEntity
  8
Visible (ISO)
100
AcDbLine
 10
7470.122974933399
 20
1254.830633964387
 30
0.0
 11
7475.886236414675
 21
1254.830633964387
 31
0.0
  0
LINE
  5
297
330
6C
100
AcDbEntity
  8
Visible (ISO)
100
AcDbLine
 10
7470.122974933399
 20
1254.830633964387
 30
0.0
 11
7470.122974933399
 21
1239.830633964387
 31
0.0
  0
LINE
  5
298
330
6C
100
AcDbEntity
  8
Visible (ISO)
100
AcDbLine
 10
7430.122974933398
 20
1239.830633964387
 30
0.0
 11
7424.359713452123
 21
1239.830633964387
 31
0.0
  0
LINE
  5
299
330
6C
100
AcDbEntity
  8
Visible (ISO)
100
AcDbLine
 10
7424.359713452123
 20
1254.830633964387
 30
0.0
 11
7430.122974933398
 21
1254.830633964387
 31
0.0
  0
LINE
  5
29A
330
6C
100
AcDbEntity
  8
Visible (ISO)
100
AcDbLine
 10
7430.122974933398
 20
1239.830633964387
 30
0.0
 11
7430.122974933398
 21
1254.830633964387
 31
0.0
  0
LINE
  5
29B
330
6C
100
AcDbEntity
  8
Visible (ISO)
100
AcDbLine
 10
7483.097509106757
 20
1239.830633964387
 30
0.0
 11
7475.886236414675
 21
1239.830633964387
 31
0.0
  0
LINE
  5
29C
330
6C
100
AcDbEntity
  8
Visible (ISO)
100
AcDbLine
 10
7475.886236414675
 20
1254.830633964387
 30
0.0
 11
7483.097509106755
 21
1254.830633964387
 31
0.0
  0
LINE
  5
29D
330
6C
100
AcDbEntity
  8
Visible (ISO)
100
AcDbLine
 10
7424.359713452123
 20
1239.830633964387
 30
0.0
 11
7417.148440760041
 21
1239.830633964387
 31
0.0
  0
LINE
  5
29E
330
6C
100
AcDbEntity
  8
Visible (ISO)
100
AcDbLine
 10
7417.14844076004
 20
1254.830633964387
 30
0.0
 11
7424.359713452123
 21
1254.830633964387
 31
0.0
  0
LINE
  5
29F
330
6C
100
AcDbEntity
  8
Visible (ISO)
100
AcDbLine
 10
7470.122974933399
 20
1239.830633964387
 30
0.0
 11
7430.122974933398
 21
1239.830633964387
 31
0.0
  0
LINE
  5
2A0
330
6C
100
AcDbEntity
  8
Visible (ISO)
100
AcDbLine
 10
7430.122974933398
 20
1254.830633964387
 30
0.0
 11
7470.122974933399
 21
1254.830633964387
 31
0.0
  0
LINE
  5
2A1
330
6C
100
AcDbEntity
  8
Visible (ISO)
100
AcDbLine
 10
7417.148440760041
 20
1239.830633964387
 30
0.0
 11
7395.122974933399
 21
1239.830633964387
 31
0.0
  0
LINE
  5
2A2
330
6C
100
AcDbEntity
  8
Visible (ISO)
100
AcDbLine
 10
7395.122974933399
 20
1254.830633964387
 30
0.0
 11
7417.148440760041
 21
1254.830633964387
 31
0.0
  0
LINE
  5
2A3
330
6C
100
AcDbEntity
  8
Visible (ISO)
100
AcDbLine
 10
7395.122974933399
 20
1239.830633964387
 30
0.0
 11
7395.122974933399
 21
1254.830633964387
 31
0.0
  0
LINE
  5
2A4
330
6C
100
AcDbEntity
  8
Visible (ISO)
100
AcDbLine
 10
7483.097509106755
 20
1239.830633964387
 30
0.0
 11
7505.122974933398
 21
1239.830633964387
 31
0.0
  0
LINE
  5
2A5
330
6C
100
AcDbEntity
  8
Visible (ISO)
100
AcDbLine
 10
7505.122974933398
 20
1239.830633964387
 30
0.0
 11
7505.122974933398
 21
1254.830633964387
 31
0.0
  0
LINE
  5
2A6
330
6C
100
AcDbEntity
  8
Visible (ISO)
100
AcDbLine
 10
7505.122974933398
 20
1254.830633964387
 30
0.0
 11
7483.097509106755
 21
1254.830633964387
 31
0.0
  0
LINE
  5
2A7
330
6C
100
AcDbEntity
  8
Visible (ISO)
100
AcDbLine
 10
7695.886236414676
 20
1469.830633764396
 30
0.0
 11
7690.122974933399
 21
1469.830633764396
 31
0.0
  0
LINE
  5
2A8
330
6C
100
AcDbEntity
  8
Visible (ISO)
100
AcDbLine
 10
7690.122974933399
 20
1484.830633764396
 30
0.0
 11
7695.886236414676
 21
1484.830633764396
 31
0.0
  0
LINE
  5
2A9
330
6C
100
AcDbEntity
  8
Visible (ISO)
100
AcDbLine
 10
7690.122974933399
 20
1484.830633764396
 30
0.0
 11
7690.122974933399
 21
1469.830633764396
 31
0.0
  0
LINE
  5
2AA
330
6C
100
AcDbEntity
  8
Visible (ISO)
100
AcDbLine
 10
7650.122974933399
 20
1469.830633764396
 30
0.0
 11
7644.359713452122
 21
1469.830633764396
 31
0.0
  0
LINE
  5
2AB
330
6C
100
AcDbEntity
  8
Visible (ISO)
100
AcDbLine
 10
7644.359713452122
 20
1484.830633764396
 30
0.0
 11
7650.122974933399
 21
1484.830633764396
 31
0.0
  0
LINE
  5
2AC
330
6C
100
AcDbEntity
  8
Visible (ISO)
100
AcDbLine
 10
7650.122974933399
 20
1469.830633764396
 30
0.0
 11
7650.122974933399
 21
1484.830633764396
 31
0.0
  0
LINE
  5
2AD
330
6C
100
AcDbEntity
  8
Visible (ISO)
100
AcDbLine
 10
7703.097509106758
 20
1469.830633764396
 30
0.0
 11
7695.886236414676
 21
1469.830633764396
 31
0.0
  0
LINE
  5
2AE
330
6C
100
AcDbEntity
  8
Visible (ISO)
100
AcDbLine
 10
7695.886236414676
 20
1484.830633764396
 30
0.0
 11
7703.097509106756
 21
1484.830633764396
 31
0.0
  0
LINE
  5
2AF
330
6C
100
AcDbEntity
  8
Visible (ISO)
100
AcDbLine
 10
7644.359713452122
 20
1469.830633764396
 30
0.0
 11
7637.148440760042
 21
1469.830633764396
 31
0.0
  0
LINE
  5
2B0
330
6C
100
AcDbEntity
  8
Visible (ISO)
100
AcDbLine
 10
7637.14844076004
 20
1484.830633764396
 30
0.0
 11
7644.359713452122
 21
1484.830633764396
 31
0.0
  0
LINE
  5
2B1
330
6C
100
AcDbEntity
  8
Visible (ISO)
100
AcDbLine
 10
7690.122974933399
 20
1469.830633764396
 30
0.0
 11
7650.1229749334
 21
1469.830633764396
 31
0.0
  0
LINE
  5
2B2
330
6C
100
AcDbEntity
  8
Visible (ISO)
100
AcDbLine
 10
7650.122974933399
 20
1484.830633764396
 30
0.0
 11
7690.122974933398
 21
1484.830633764396
 31
0.0
  0
LINE
  5
2B3
330
6C
100
AcDbEntity
  8
Visible (ISO)
100
AcDbLine
 10
7637.148440760042
 20
1469.830633764396
 30
0.0
 11
7615.122974933399
 21
1469.830633764396
 31
0.0
  0
LINE
  5
2B4
330
6C
100
AcDbEntity
  8
Visible (ISO)
100
AcDbLine
 10
7615.122974933399
 20
1484.830633764397
 30
0.0
 11
7637.148440760042
 21
1484.830633764397
 31
0.0
  0
LINE
  5
2B5
330
6C
100
AcDbEntity
  8
Visible (ISO)
100
AcDbLine
 10
7615.122974933399
 20
1469.830633764396
 30
0.0
 11
7615.122974933399
 21
1484.830633764397
 31
0.0
  0
LINE
  5
2B6
330
6C
100
AcDbEntity
  8
Visible (ISO)
100
AcDbLine
 10
7703.097509106756
 20
1469.830633764396
 30
0.0
 11
7725.122974933398
 21
1469.830633764396
 31
0.0
  0
LINE
  5
2B7
330
6C
100
AcDbEntity
  8
Visible (ISO)
100
AcDbLine
 10
7725.122974933398
 20
1469.830633764396
 30
0.0
 11
7725.122974933398
 21
1484.830633764396
 31
0.0
  0
LINE
  5
2B8
330
6C
100
AcDbEntity
  8
Visible (ISO)
100
AcDbLine
 10
7725.122974933398
 20
1484.830633764396
 30
0.0
 11
7703.097509106756
 21
1484.830633764396
 31
0.0
  0
LINE
  5
2B9
330
6C
100
AcDbEntity
  8
Visible (ISO)
100
AcDbLine
 10
7695.886236414676
 20
1239.830633964386
 30
0.0
 11
7690.122974933399
 21
1239.830633964386
 31
0.0
  0
LINE
  5
2BA
330
6C
100
AcDbEntity
  8
Visible (ISO)
100
AcDbLine
 10
7690.122974933399
 20
1254.830633964386
 30
0.0
 11
7695.886236414676
 21
1254.830633964386
 31
0.0
  0
LINE
  5
2BB
330
6C
100
AcDbEntity
  8
Visible (ISO)
100
AcDbLine
 10
7690.122974933399
 20
1254.830633964386
 30
0.0
 11
7690.122974933399
 21
1239.830633964386
 31
0.0
  0
LINE
  5
2BC
330
6C
100
AcDbEntity
  8
Visible (ISO)
100
AcDbLine
 10
7650.122974933399
 20
1239.830633964386
 30
0.0
 11
7644.359713452122
 21
1239.830633964386
 31
0.0
  0
LINE
  5
2BD
330
6C
100
AcDbEntity
  8
Visible (ISO)
100
AcDbLine
 10
7644.359713452122
 20
1254.830633964386
 30
0.0
 11
7650.122974933399
 21
1254.830633964386
 31
0.0
  0
LINE
  5
2BE
330
6C
100
AcDbEntity
  8
Visible (ISO)
100
AcDbLine
 10
7650.122974933399
 20
1239.830633964386
 30
0.0
 11
7650.122974933399
 21
1254.830633964386
 31
0.0
  0
LINE
  5
2BF
330
6C
100
AcDbEntity
  8
Visible (ISO)
100
AcDbLine
 10
7703.097509106758
 20
1239.830633964386
 30
0.0
 11
7695.886236414676
 21
1239.830633964386
 31
0.0
  0
LINE
  5
2C0
330
6C
100
AcDbEntity
  8
Visible (ISO)
100
AcDbLine
 10
7695.886236414676
 20
1254.830633964386
 30
0.0
 11
7703.097509106756
 21
1254.830633964386
 31
0.0
  0
LINE
  5
2C1
330
6C
100
AcDbEntity
  8
Visible (ISO)
100
AcDbLine
 10
7644.359713452122
 20
1239.830633964386
 30
0.0
 11
7637.148440760042
 21
1239.830633964386
 31
0.0
  0
LINE
  5
2C2
330
6C
100
AcDbEntity
  8
Visible (ISO)
100
AcDbLine
 10
7637.14844076004
 20
1254.830633964386
 30
0.0
 11
7644.359713452122
 21
1254.830633964386
 31
0.0
  0
LINE
  5
2C3
330
6C
100
AcDbEntity
  8
Visible (ISO)
100
AcDbLine
 10
7690.122974933399
 20
1239.830633964386
 30
0.0
 11
7650.122974933399
 21
1239.830633964386
 31
0.0
  0
LINE
  5
2C4
330
6C
100
AcDbEntity
  8
Visible (ISO)
100
AcDbLine
 10
7650.122974933399
 20
1254.830633964386
 30
0.0
 11
7690.122974933399
 21
1254.830633964386
 31
0.0
  0
LINE
  5
2C5
330
6C
100
AcDbEntity
  8
Visible (ISO)
100
AcDbLine
 10
7637.148440760042
 20
1239.830633964386
 30
0.0
 11
7615.122974933399
 21
1239.830633964386
 31
0.0
  0
LINE
  5
2C6
330
6C
100
AcDbEntity
  8
Visible (ISO)
100
AcDbLine
 10
7615.122974933399
 20
1254.830633964386
 30
0.0
 11
7637.148440760042
 21
1254.830633964386
 31
0.0
  0
LINE
  5
2C7
330
6C
100
AcDbEntity
  8
Visible (ISO)
100
AcDbLine
 10
7615.122974933399
 20
1239.830633964386
 30
0.0
 11
7615.122974933399
 21
1254.830633964386
 31
0.0
  0
LINE
  5
2C8
330
6C
100
AcDbEntity
  8
Visible (ISO)
100
AcDbLine
 10
7703.097509106756
 20
1239.830633964386
 30
0.0
 11
7725.122974933398
 21
1239.830633964386
 31
0.0
  0
LINE
  5
2C9
330
6C
100
AcDbEntity
  8
Visible (ISO)
100
AcDbLine
 10
7725.122974933398
 20
1239.830633964386
 30
0.0
 11
7725.122974933398
 21
1254.830633964386
 31
0.0
  0
LINE
  5
2CA
330
6C
100
AcDbEntity
  8
Visible (ISO)
100
AcDbLine
 10
7725.122974933398
 20
1254.830633964386
 30
0.0
 11
7703.097509106756
 21
1254.830633964386
 31
0.0
  0
LINE
  5
2CB
330
6C
100
AcDbEntity
  8
Visible (ISO)
100
AcDbLine
 10
7750.122974933399
 20
1254.830633864395
 30
0.0
 11
7725.122974933398
 21
1254.830633864395
 31
0.0
  0
LINE
  5
2CC
330
6C
100
AcDbEntity
  8
Visible (ISO)
100
AcDbLine
 10
7615.122974933399
 20
1254.830633864395
 30
0.0
 11
7505.122974933399
 21
1254.830633864395
 31
0.0
  0
LINE
  5
2CD
330
6C
100
AcDbEntity
  8
Visible (ISO)
100
AcDbLine
 10
7395.122974933399
 20
1254.830633864395
 30
0.0
 11
7285.1229749334
 21
1254.830633864395
 31
0.0
  0
LINE
  5
2CE
330
6C
100
AcDbEntity
  8
Visible (ISO)
100
AcDbLine
 10
7175.122974933398
 20
1254.830633864395
 30
0.0
 11
7065.122974933399
 21
1254.830633864395
 31
0.0
  0
LINE
  5
2CF
330
6C
100
AcDbEntity
  8
Visible (ISO)
100
AcDbLine
 10
6955.1229749334
 20
1254.830633864395
 30
0.0
 11
6845.122974933399
 21
1254.830633864395
 31
0.0
  0
LINE
  5
2D0
330
6C
100
AcDbEntity
  8
Visible (ISO)
100
AcDbLine
 10
6735.1229749334
 20
1254.830633864395
 30
0.0
 11
6625.122974933399
 21
1254.830633864395
 31
0.0
  0
LINE
  5
2D1
330
6C
100
AcDbEntity
  8
Visible (ISO)
100
AcDbLine
 10
6515.122974933399
 20
1254.830633864395
 30
0.0
 11
6405.1229749334
 21
1254.830633864395
 31
0.0
  0
LINE
  5
2D2
330
6C
100
AcDbEntity
  8
Visible (ISO)
100
AcDbLine
 10
6295.122974933399
 20
1254.830633864395
 30
0.0
 11
6185.122974933399
 21
1254.830633864395
 31
0.0
  0
LINE
  5
2D3
330
6C
100
AcDbEntity
  8
Visible (ISO)
100
AcDbLine
 10
6075.1229749334
 20
1254.830633864395
 30
0.0
 11
5965.1229749334
 21
1254.830633864395
 31
0.0
  0
LINE
  5
2D4
330
6C
100
AcDbEntity
  8
Visible (ISO)
100
AcDbLine
 10
5855.122974933399
 20
1254.830633864395
 30
0.0
 11
5830.122974933399
 21
1254.830633864395
 31
0.0
  0
LINE
  5
2D5
330
6C
100
AcDbEntity
  8
Visible (ISO)
100
AcDbLine
 10
5830.122974933399
 20
1294.830633864395
 30
0.0
 11
7750.122974933399
 21
1294.830633864395
 31
0.0
  0
LINE
  5
2D6
330
6C
100
AcDbEntity
  8
Visible (ISO)
100
AcDbLine
 10
5830.122974933399
 20
1484.830633864396
 30
0.0
 11
5830.122974933399
 21
1294.830633864395
 31
0.0
  0
LINE
  5
2D7
330
6C
100
AcDbEntity
  8
Visible (ISO)
100
AcDbLine
 10
5830.122974933399
 20
1254.830633864395
 30
0.0
 11
5830.1229749334
 21
1024.830633864395
 31
0.0
  0
LINE
  5
2D8
330
6C
100
AcDbEntity
  8
Visible (ISO)
100
AcDbLine
 10
7750.122974933399
 20
1024.830633864395
 30
0.0
 11
7750.122974933399
 21
1254.830633864395
 31
0.0
  0
LINE
  5
2D9
330
6C
100
AcDbEntity
  8
Visible (ISO)
100
AcDbLine
 10
7750.122974933399
 20
1294.830633864395
 30
0.0
 11
7750.122974933399
 21
1484.830633864396
 31
0.0
  0
LINE
  5
2DA
330
6C
100
AcDbEntity
  8
Visible (ISO)
100
AcDbLine
 10
7750.122974933399
 20
1484.830633864396
 30
0.0
 11
7725.1229749334
 21
1484.830633864396
 31
0.0
  0
LINE
  5
2DB
330
6C
100
AcDbEntity
  8
Visible (ISO)
100
AcDbLine
 10
7615.122974933399
 20
1484.830633864396
 30
0.0
 11
7505.122974933399
 21
1484.830633864396
 31
0.0
  0
LINE
  5
2DC
330
6C
100
AcDbEntity
  8
Visible (ISO)
100
AcDbLine
 10
7395.122974933399
 20
1484.830633864396
 30
0.0
 11
7285.1229749334
 21
1484.830633864396
 31
0.0
  0
LINE
  5
2DD
330
6C
100
AcDbEntity
  8
Visible (ISO)
100
AcDbLine
 10
7175.122974933398
 20
1484.830633864396
 30
0.0
 11
7065.122974933399
 21
1484.830633864396
 31
0.0
  0
LINE
  5
2DE
330
6C
100
AcDbEntity
  8
Visible (ISO)
100
AcDbLine
 10
6955.1229749334
 20
1484.830633864396
 30
0.0
 11
6845.122974933399
 21
1484.830633864396
 31
0.0
  0
LINE
  5
2DF
330
6C
100
AcDbEntity
  8
Visible (ISO)
100
AcDbLine
 10
6735.1229749334
 20
1484.830633864396
 30
0.0
 11
6625.122974933399
 21
1484.830633864396
 31
0.0
  0
LINE
  5
2E0
330
6C
100
AcDbEntity
  8
Visible (ISO)
100
AcDbLine
 10
6515.122974933399
 20
1484.830633864396
 30
0.0
 11
6405.1229749334
 21
1484.830633864396
 31
0.0
  0
LINE
  5
2E1
330
6C
100
AcDbEntity
  8
Visible (ISO)
100
AcDbLine
 10
6295.122974933399
 20
1484.830633864396
 30
0.0
 11
6185.122974933399
 21
1484.830633864396
 31
0.0
  0
LINE
  5
2E2
330
6C
100
AcDbEntity
  8
Visible (ISO)
100
AcDbLine
 10
6075.122974933399
 20
1484.830633864396
 30
0.0
 11
5965.1229749334
 21
1484.830633864396
 31
0.0
  0
LINE
  5
2E3
330
6C
100
AcDbEntity
  8
Visible (ISO)
100
AcDbLine
 10
5855.122974933399
 20
1484.830633864396
 30
0.0
 11
5830.122974933399
 21
1484.830633864396
 31
0.0
  0
LINE
  5
2E4
330
6C
100
AcDbEntity
  8
Visible (ISO)
100
AcDbLine
 10
5790.1229749334
 20
1024.830633864395
 30
0.0
 11
5790.1229749334
 21
1524.830633864396
 31
0.0
  0
LINE
  5
2E5
330
6C
100
AcDbEntity
  8
Visible (ISO)
100
AcDbLine
 10
7790.1229749334
 20
1524.830633864396
 30
0.0
 11
7790.1229749334
 21
1024.830633864395
 31
0.0
  0
LINE
  5
2E6
330
6C
100
AcDbEntity
  8
Visible (ISO)
100
AcDbLine
 10
5790.1229749334
 20
1524.830633864396
 30
0.0
 11
7790.1229749334
 21
1524.830633864396
 31
0.0
  0
LINE
  5
2E7
330
6C
100
AcDbEntity
  8
Visible (ISO)
100
AcDbLine
 10
7744.622974933399
 20
1258.830633964395
 30
0.0
 11
7744.622974933399
 21
1290.830633964396
 31
0.0
  0
LINE
  5
2E8
330
6C
100
AcDbEntity
  8
Visible (ISO)
100
AcDbLine
 10
5835.622974933399
 20
1258.830633964395
 30
0.0
 11
5835.622974933399
 21
1290.830633964396
 31
0.0
  0
LINE
  5
2E9
330
6C
100
AcDbEntity
  8
Visible (ISO)
100
AcDbLine
 10
5830.6229749334
 20
1219.830633864395
 30
0.0
 11
5835.622974933399
 21
1219.830633864395
 31
0.0
  0
LINE
  5
2EA
330
6C
100
AcDbEntity
  8
Visible (ISO)
100
AcDbLine
 10
5835.622974933399
 20
1329.830633864395
 30
0.0
 11
5835.622974933399
 21
1314.830633864395
 31
0.0
  0
LINE
  5
2EB
330
6C
100
AcDbEntity
  8
Visible (ISO)
100
AcDbLine
 10
5835.622974933399
 20
1234.830633864395
 30
0.0
 11
5835.622974933399
 21
1219.830633864395
 31
0.0
  0
LINE
  5
2EC
330
6C
100
AcDbEntity
  8
Visible (ISO)
100
AcDbLine
 10
5830.6229749334
 20
1219.830633864395
 30
0.0
 11
5830.6229749334
 21
1234.830633864395
 31
0.0
  0
LINE
  5
2ED
330
6C
100
AcDbEntity
  8
Visible (ISO)
100
AcDbLine
 10
5835.622974933399
 20
1329.830633864395
 30
0.0
 11
5830.6229749334
 21
1329.830633864395
 31
0.0
  0
LINE
  5
2EE
330
6C
100
AcDbEntity
  8
Visible (ISO)
100
AcDbLine
 10
5830.6229749334
 20
1314.830633864395
 30
0.0
 11
5830.6229749334
 21
1329.830633864395
 31
0.0
  0
LINE
  5
2EF
330
6C
100
AcDbEntity
  8
Visible (ISO)
100
AcDbLine
 10
5835.622974933399
 20
1234.830633864395
 30
0.0
 11
5835.622974933399
 21
1314.830633864395
 31
0.0
  0
LINE
  5
2F0
330
6C
100
AcDbEntity
  8
Visible (ISO)
100
AcDbLine
 10
5830.6229749334
 20
1314.830633864395
 30
0.0
 11
5830.6229749334
 21
1234.830633864395
 31
0.0
  0
LINE
  5
2F1
330
6C
100
AcDbEntity
  8
Visible (ISO)
100
AcDbLine
 10
7744.622974933398
 20
1219.830633864395
 30
0.0
 11
7744.622974933398
 21
1234.830633864395
 31
0.0
  0
LINE
  5
2F2
330
6C
100
AcDbEntity
  8
Visible (ISO)
100
AcDbLine
 10
7744.622974933398
 20
1219.830633864395
 30
0.0
 11
7749.622974933399
 21
1219.830633864395
 31
0.0
  0
LINE
  5
2F3
330
6C
100
AcDbEntity
  8
Visible (ISO)
100
AcDbLine
 10
7749.622974933399
 20
1234.830633864395
 30
0.0
 11
7749.622974933399
 21
1219.830633864395
 31
0.0
  0
LINE
  5
2F4
330
6C
100
AcDbEntity
  8
Visible (ISO)
100
AcDbLine
 10
7744.622974933398
 20
1314.830633864396
 30
0.0
 11
7744.622974933398
 21
1329.830633864396
 31
0.0
  0
LINE
  5
2F5
330
6C
100
AcDbEntity
  8
Visible (ISO)
100
AcDbLine
 10
7749.622974933399
 20
1329.830633864396
 30
0.0
 11
7749.622974933399
 21
1314.830633864396
 31
0.0
  0
LINE
  5
2F6
330
6C
100
AcDbEntity
  8
Visible (ISO)
100
AcDbLine
 10
7749.622974933399
 20
1329.830633864396
 30
0.0
 11
7744.622974933398
 21
1329.830633864396
 31
0.0
  0
LINE
  5
2F7
330
6C
100
AcDbEntity
  8
Visible (ISO)
100
AcDbLine
 10
7744.622974933398
 20
1314.830633864396
 30
0.0
 11
7744.622974933398
 21
1234.830633864395
 31
0.0
  0
LINE
  5
2F8
330
6C
100
AcDbEntity
  8
Visible (ISO)
100
AcDbLine
 10
7749.622974933399
 20
1234.830633864395
 30
0.0
 11
7749.622974933399
 21
1314.830633864396
 31
0.0
  0
LINE
  5
2F9
330
6C
100
AcDbEntity
  8
Visible (ISO)
100
AcDbLine
 10
5790.122974933185
 20
655.4687912038221
 30
0.0
 11
5790.122974933185
 21
623.4687912038221
 31
0.0
  0
LINE
  5
2FA
330
6C
100
AcDbEntity
  8
Visible (ISO)
100
AcDbLine
 10
7790.122974933185
 20
655.4687912038221
 30
0.0
 11
7790.122974933185
 21
623.4687912038221
 31
0.0
  0
ARC
  5
2FB
330
6C
100
AcDbEntity
  8
Visible (ISO)
100
AcDbCircle
 10
5765.122974933184
 20
684.4687911036738
 30
0.0
 40
15.00000000000002
100
AcDbArc
 50
90.0
 51
180.0
  0
ARC
  5
2FC
330
6C
100
AcDbEntity
  8
Visible (ISO)
100
AcDbCircle
 10
5765.122974933184
 20
594.4687911036738
 30
0.0
 40
15.00000000000002
100
AcDbArc
 50
180.0
 51
270.0
  0
ARC
  5
2FD
330
6C
100
AcDbEntity
  8
Visible (ISO)
100
AcDbCircle
 10
5855.122974933184
 20
684.4687911036738
 30
0.0
 40
15.00000000000002
100
AcDbArc
 50
0.0
 51
90.0
  0
ARC
  5
2FE
330
6C
100
AcDbEntity
  8
Visible (ISO)
100
AcDbCircle
 10
5855.122974933184
 20
594.4687911036735
 30
0.0
 40
14.99999999999981
100
AcDbArc
 50
270.0
 51
287.4022140103863
  0
LINE
  5
2FF
330
6C
100
AcDbEntity
  8
Visible (ISO)
100
AcDbLine
 10
5750.122974933184
 20
594.4687911036737
 30
0.0
 11
5750.122974933184
 21
684.4687911036738
 31
0.0
  0
LINE
  5
300
330
6C
100
AcDbEntity
  8
Visible (ISO)
100
AcDbLine
 10
5855.122974933184
 20
579.4687911036738
 30
0.0
 11
5765.122974933184
 21
579.4687911036738
 31
0.0
  0
LINE
  5
301
330
6C
100
AcDbEntity
  8
Visible (ISO)
100
AcDbLine
 10
5870.122974933185
 20
684.4687911036738
 30
0.0
 11
5870.122974933185
 21
659.4687911161737
 31
0.0
  0
LINE
  5
302
330
6C
100
AcDbEntity
  8
Visible (ISO)
100
AcDbLine
 10
5765.122974933184
 20
699.4687911036737
 30
0.0
 11
5855.122974933184
 21
699.4687911036739
 31
0.0
  0
CIRCLE
  5
303
330
6C
100
AcDbEntity
  8
Visible (ISO)
100
AcDbCircle
 10
5765.122974933184
 20
594.4687911036738
 30
0.0
 40
6.500000000000007
  0
ARC
  5
304
330
6C
100
AcDbEntity
  8
Visible (ISO)
100
AcDbCircle
 10
5855.122974933184
 20
594.4687911036738
 30
0.0
 40
6.500000000000007
100
AcDbArc
 50
81.2254196246701
 51
295.0807504076975
  0
CIRCLE
  5
305
330
6C
100
AcDbEntity
  8
Visible (ISO)
100
AcDbCircle
 10
5855.122974933184
 20
684.4687911036738
 30
0.0
 40
6.500000000000007
  0
CIRCLE
  5
306
330
6C
100
AcDbEntity
  8
Visible (ISO)
100
AcDbCircle
 10
5765.122974933184
 20
684.4687911036738
 30
0.0
 40
6.500000000000007
  0
ARC
  5
307
330
6C
100
AcDbEntity
  8
Visible (ISO)
100
AcDbCircle
 10
7815.122974933185
 20
594.4687911036737
 30
0.0
 40
15.00000000000002
100
AcDbArc
 50
270.0
 51
0.0
  0
ARC
  5
308
330
6C
100
AcDbEntity
  8
Visible (ISO)
100
AcDbCircle
 10
7815.122974933185
 20
684.4687911036738
 30
0.0
 40
15.00000000000002
100
AcDbArc
 50
0.0
 51
90.0
  0
ARC
  5
309
330
6C
100
AcDbEntity
  8
Visible (ISO)
100
AcDbCircle
 10
7725.122974933184
 20
594.4687911036735
 30
0.0
 40
14.99999999999989
100
AcDbArc
 50
252.5977859896165
 51
270.0
  0
ARC
  5
30A
330
6C
100
AcDbEntity
  8
Visible (ISO)
100
AcDbCircle
 10
7725.122974933184
 20
684.4687911036738
 30
0.0
 40
15.00000000000002
100
AcDbArc
 50
90.0
 51
180.0
  0
LINE
  5
30B
330
6C
100
AcDbEntity
  8
Visible (ISO)
100
AcDbLine
 10
7830.122974933184
 20
684.4687911036738
 30
0.0
 11
7830.122974933184
 21
594.4687911036737
 31
0.0
  0
LINE
  5
30C
330
6C
100
AcDbEntity
  8
Visible (ISO)
100
AcDbLine
 10
7725.122974933184
 20
699.4687911036737
 30
0.0
 11
7815.122974933185
 21
699.4687911036737
 31
0.0
  0
LINE
  5
30D
330
6C
100
AcDbEntity
  8
Visible (ISO)
100
AcDbLine
 10
7710.122974933184
 20
659.4687911161736
 30
0.0
 11
7710.122974933184
 21
684.4687911036738
 31
0.0
  0
LINE
  5
30E
330
6C
100
AcDbEntity
  8
Visible (ISO)
100
AcDbLine
 10
7815.122974933185
 20
579.4687911036738
 30
0.0
 11
7725.122974933184
 21
579.4687911036738
 31
0.0
  0
CIRCLE
  5
30F
330
6C
100
AcDbEntity
  8
Visible (ISO)
100
AcDbCircle
 10
7815.122974933185
 20
684.4687911036738
 30
0.0
 40
6.500000000000007
  0
CIRCLE
  5
310
330
6C
100
AcDbEntity
  8
Visible (ISO)
100
AcDbCircle
 10
7725.122974933184
 20
684.4687911036738
 30
0.0
 40
6.500000000000007
  0
ARC
  5
311
330
6C
100
AcDbEntity
  8
Visible (ISO)
100
AcDbCircle
 10
7725.122974933184
 20
594.4687911036737
 30
0.0
 40
6.500000000000009
100
AcDbArc
 50
244.9192495922958
 51
98.77458037532356
  0
CIRCLE
  5
312
330
6C
100
AcDbEntity
  8
Visible (ISO)
100
AcDbCircle
 10
7815.122974933185
 20
594.4687911036737
 30
0.0
 40
6.500000000000007
  0
ARC
  5
313
330
6C
100
AcDbEntity
  8
Visible (ISO)
100
AcDbCircle
 10
5935.122974933184
 20
534.5273913111198
 30
0.0
 40
5.000000000000002
100
AcDbArc
 50
180.0
 51
278.7806624284055
  0
ARC
  5
314
330
6C
100
AcDbEntity
  8
Visible (ISO)
100
AcDbCircle
 10
5885.122974933184
 20
534.5273913111198
 30
0.0
 40
5.000000000000006
100
AcDbArc
 50
261.2193375715945
 51
0.0
  0
ARC
  5
315
330
6C
100
AcDbEntity
  8
Visible (ISO)
100
AcDbCircle
 10
5934.359713451907
 20
539.4687911038102
 30
0.0
 40
10.00000000000001
100
AcDbArc
 50
278.7806624284014
 51
330.9008650323457
  0
ARC
  5
316
330
6C
100
AcDbEntity
  8
Visible (ISO)
100
AcDbCircle
 10
5940.122974933184
 20
571.9687911038102
 30
0.0
 40
9.999999999999918
100
AcDbArc
 50
157.3801350519596
 51
180.0
  0
ARC
  5
317
330
6C
100
AcDbEntity
  8
Visible (ISO)
100
AcDbCircle
 10
5880.122974933184
 20
571.9687911038102
 30
0.0
 40
10.00000000000024
100
AcDbArc
 50
0.0
 51
22.61986494804136
  0
ARC
  5
318
330
6C
100
AcDbEntity
  8
Visible (ISO)
100
AcDbCircle
 10
5885.88623641446
 20
539.4687911038102
 30
0.0
 40
9.999999999999964
100
AcDbArc
 50
209.0991349676542
 51
261.2193375715984
  0
LINE
  5
319
330
6C
100
AcDbEntity
  8
Visible (ISO)
100
AcDbLine
 10
5890.122974933185
 20
571.9687911038102
 30
0.0
 11
5890.122974933185
 21
534.5273913111198
 31
0.0
  0
ARC
  5
31A
330
6C
100
AcDbEntity
  8
Visible (ISO)
100
AcDbCircle
 10
6029.622974933183
 20
619.46879110381
 30
0.0
 40
174.4999999999992
100
AcDbArc
 50
180.0
 51
209.0991349676526
  0
ARC
  5
31B
330
6C
100
AcDbEntity
  8
Visible (ISO)
100
AcDbCircle
 10
5910.122974933184
 20
584.4687911038102
 30
0.0
 40
22.5
100
AcDbArc
 50
337.3801350519595
 51
202.6198649480409
  0
ARC
  5
31C
330
6C
100
AcDbEntity
  8
Visible (ISO)
100
AcDbCircle
 10
5790.622974933186
 20
619.46879110381
 30
0.0
 40
174.4999999999991
100
AcDbArc
 50
330.9008650323475
 51
0.0
  0
LINE
  5
31D
330
6C
100
AcDbEntity
  8
Visible (ISO)
100
AcDbLine
 10
5930.122974933184
 20
571.9687911038102
 30
0.0
 11
5930.122974933184
 21
534.5273913111198
 31
0.0
  0
ARC
  5
31E
330
6C
100
AcDbEntity
  8
Visible (ISO)
100
AcDbCircle
 10
6155.122974933185
 20
534.5273913111197
 30
0.0
 40
5.000000000000002
100
AcDbArc
 50
180.0
 51
278.7806624284055
  0
ARC
  5
31F
330
6C
100
AcDbEntity
  8
Visible (ISO)
100
AcDbCircle
 10
6105.122974933184
 20
534.5273913111197
 30
0.0
 40
5.000000000000006
100
AcDbArc
 50
261.2193375715945
 51
0.0
  0
ARC
  5
320
330
6C
100
AcDbEntity
  8
Visible (ISO)
100
AcDbCircle
 10
6154.359713451909
 20
539.4687911038101
 30
0.0
 40
10.00000000000001
100
AcDbArc
 50
278.7806624284014
 51
330.9008650323457
  0
ARC
  5
321
330
6C
100
AcDbEntity
  8
Visible (ISO)
100
AcDbCircle
 10
6160.122974933184
 20
571.9687911038102
 30
0.0
 40
9.999999999999918
100
AcDbArc
 50
157.3801350519596
 51
180.0
  0
ARC
  5
322
330
6C
100
AcDbEntity
  8
Visible (ISO)
100
AcDbCircle
 10
6100.122974933184
 20
571.96879110381
 30
0.0
 40
10.00000000000024
100
AcDbArc
 50
0.0
 51
22.61986494804136
  0
ARC
  5
323
330
6C
100
AcDbEntity
  8
Visible (ISO)
100
AcDbCircle
 10
6105.886236414461
 20
539.4687911038101
 30
0.0
 40
9.999999999999964
100
AcDbArc
 50
209.0991349676538
 51
261.2193375715984
  0
LINE
  5
324
330
6C
100
AcDbEntity
  8
Visible (ISO)
100
AcDbLine
 10
6110.122974933185
 20
571.9687911038102
 30
0.0
 11
6110.122974933185
 21
534.5273913111197
 31
0.0
  0
ARC
  5
325
330
6C
100
AcDbEntity
  8
Visible (ISO)
100
AcDbCircle
 10
6249.622974933185
 20
619.46879110381
 30
0.0
 40
174.4999999999992
100
AcDbArc
 50
180.0
 51
209.0991349676526
  0
ARC
  5
326
330
6C
100
AcDbEntity
  8
Visible (ISO)
100
AcDbCircle
 10
6130.122974933184
 20
584.4687911038102
 30
0.0
 40
22.5
100
AcDbArc
 50
337.3801350519597
 51
202.6198649480409
  0
ARC
  5
327
330
6C
100
AcDbEntity
  8
Visible (ISO)
100
AcDbCircle
 10
6010.622974933186
 20
619.46879110381
 30
0.0
 40
174.4999999999992
100
AcDbArc
 50
330.9008650323475
 51
0.0
  0
LINE
  5
328
330
6C
100
AcDbEntity
  8
Visible (ISO)
100
AcDbLine
 10
6150.122974933186
 20
571.9687911038102
 30
0.0
 11
6150.122974933184
 21
534.5273913111197
 31
0.0
  0
ARC
  5
329
330
6C
100
AcDbEntity
  8
Visible (ISO)
100
AcDbCircle
 10
6375.122974933184
 20
534.5273913111197
 30
0.0
 40
5.000000000000002
100
AcDbArc
 50
180.0
 51
278.7806624284055
  0
ARC
  5
32A
330
6C
100
AcDbEntity
  8
Visible (ISO)
100
AcDbCircle
 10
6325.122974933184
 20
534.5273913111197
 30
0.0
 40
5.000000000000006
100
AcDbArc
 50
261.2193375715945
 51
0.0
  0
ARC
  5
32B
330
6C
100
AcDbEntity
  8
Visible (ISO)
100
AcDbCircle
 10
6374.359713451908
 20
539.4687911038101
 30
0.0
 40
10.00000000000001
100
AcDbArc
 50
278.7806624284014
 51
330.9008650323457
  0
ARC
  5
32C
330
6C
100
AcDbEntity
  8
Visible (ISO)
100
AcDbCircle
 10
6380.122974933184
 20
571.9687911038102
 30
0.0
 40
9.999999999999918
100
AcDbArc
 50
157.3801350519596
 51
180.0
  0
ARC
  5
32D
330
6C
100
AcDbEntity
  8
Visible (ISO)
100
AcDbCircle
 10
6320.122974933184
 20
571.96879110381
 30
0.0
 40
10.00000000000024
100
AcDbArc
 50
0.0
 51
22.61986494804136
  0
ARC
  5
32E
330
6C
100
AcDbEntity
  8
Visible (ISO)
100
AcDbCircle
 10
6325.886236414461
 20
539.4687911038101
 30
0.0
 40
9.999999999999964
100
AcDbArc
 50
209.0991349676538
 51
261.2193375715984
  0
LINE
  5
32F
330
6C
100
AcDbEntity
  8
Visible (ISO)
100
AcDbLine
 10
6330.122974933185
 20
571.9687911038102
 30
0.0
 11
6330.122974933185
 21
534.5273913111197
 31
0.0
  0
ARC
  5
330
330
6C
100
AcDbEntity
  8
Visible (ISO)
100
AcDbCircle
 10
6469.622974933184
 20
619.46879110381
 30
0.0
 40
174.4999999999992
100
AcDbArc
 50
180.0
 51
209.0991349676526
  0
ARC
  5
331
330
6C
100
AcDbEntity
  8
Visible (ISO)
100
AcDbCircle
 10
6350.122974933184
 20
584.4687911038102
 30
0.0
 40
22.5
100
AcDbArc
 50
337.3801350519597
 51
202.6198649480409
  0
ARC
  5
332
330
6C
100
AcDbEntity
  8
Visible (ISO)
100
AcDbCircle
 10
6230.622974933186
 20
619.46879110381
 30
0.0
 40
174.4999999999992
100
AcDbArc
 50
330.9008650323475
 51
0.0
  0
LINE
  5
333
330
6C
100
AcDbEntity
  8
Visible (ISO)
100
AcDbLine
 10
6370.122974933185
 20
571.9687911038102
 30
0.0
 11
6370.122974933185
 21
534.5273913111197
 31
0.0
  0
ARC
  5
334
330
6C
100
AcDbEntity
  8
Visible (ISO)
100
AcDbCircle
 10
6595.122974933184
 20
534.5273913111197
 30
0.0
 40
5.000000000000002
100
AcDbArc
 50
180.0
 51
278.7806624284055
  0
ARC
  5
335
330
6C
100
AcDbEntity
  8
Visible (ISO)
100
AcDbCircle
 10
6545.122974933184
 20
534.5273913111197
 30
0.0
 40
5.000000000000006
100
AcDbArc
 50
261.2193375715945
 51
0.0
  0
ARC
  5
336
330
6C
100
AcDbEntity
  8
Visible (ISO)
100
AcDbCircle
 10
6594.359713451908
 20
539.4687911038101
 30
0.0
 40
10.00000000000001
100
AcDbArc
 50
278.7806624284054
 51
330.9008650323457
  0
ARC
  5
337
330
6C
100
AcDbEntity
  8
Visible (ISO)
100
AcDbCircle
 10
6600.122974933184
 20
571.9687911038102
 30
0.0
 40
9.999999999999918
100
AcDbArc
 50
157.380135051958
 51
180.0
  0
ARC
  5
338
330
6C
100
AcDbEntity
  8
Visible (ISO)
100
AcDbCircle
 10
6540.122974933185
 20
571.96879110381
 30
0.0
 40
10.00000000000024
100
AcDbArc
 50
0.0
 51
22.61986494803885
  0
ARC
  5
339
330
6C
100
AcDbEntity
  8
Visible (ISO)
100
AcDbCircle
 10
6545.88623641446
 20
539.4687911038101
 30
0.0
 40
9.999999999999964
100
AcDbArc
 50
209.0991349676507
 51
261.2193375715943
  0
LINE
  5
33A
330
6C
100
AcDbEntity
  8
Visible (ISO)
100
AcDbLine
 10
6550.122974933184
 20
571.9687911038102
 30
0.0
 11
6550.122974933184
 21
534.5273913111197
 31
0.0
  0
ARC
  5
33B
330
6C
100
AcDbEntity
  8
Visible (ISO)
100
AcDbCircle
 10
6689.622974933183
 20
619.46879110381
 30
0.0
 40
174.4999999999992
100
AcDbArc
 50
180.0
 51
209.0991349676526
  0
ARC
  5
33C
330
6C
100
AcDbEntity
  8
Visible (ISO)
100
AcDbCircle
 10
6570.122974933184
 20
584.4687911038102
 30
0.0
 40
22.5
100
AcDbArc
 50
337.3801350519598
 51
202.6198649480398
  0
ARC
  5
33D
330
6C
100
AcDbEntity
  8
Visible (ISO)
100
AcDbCircle
 10
6450.622974933185
 20
619.46879110381
 30
0.0
 40
174.4999999999992
100
AcDbArc
 50
330.9008650323475
 51
0.0
  0
LINE
  5
33E
330
6C
100
AcDbEntity
  8
Visible (ISO)
100
AcDbLine
 10
6590.122974933184
 20
571.9687911038102
 30
0.0
 11
6590.122974933184
 21
534.5273913111197
 31
0.0
  0
ARC
  5
33F
330
6C
100
AcDbEntity
  8
Visible (ISO)
100
AcDbCircle
 10
6815.122974933185
 20
534.5273913111197
 30
0.0
 40
5.000000000000002
100
AcDbArc
 50
180.0
 51
278.7806624284055
  0
ARC
  5
340
330
6C
100
AcDbEntity
  8
Visible (ISO)
100
AcDbCircle
 10
6765.122974933184
 20
534.5273913111197
 30
0.0
 40
5.000000000000006
100
AcDbArc
 50
261.2193375715945
 51
0.0
  0
ARC
  5
341
330
6C
100
AcDbEntity
  8
Visible (ISO)
100
AcDbCircle
 10
6814.359713451908
 20
539.4687911038101
 30
0.0
 40
10.00000000000001
100
AcDbArc
 50
278.7806624284054
 51
330.9008650323457
  0
ARC
  5
342
330
6C
100
AcDbEntity
  8
Visible (ISO)
100
AcDbCircle
 10
6820.122974933184
 20
571.9687911038102
 30
0.0
 40
9.999999999999918
100
AcDbArc
 50
157.380135051958
 51
180.0
  0
ARC
  5
343
330
6C
100
AcDbEntity
  8
Visible (ISO)
100
AcDbCircle
 10
6760.122974933185
 20
571.96879110381
 30
0.0
 40
10.00000000000024
100
AcDbArc
 50
0.0
 51
22.61986494803885
  0
ARC
  5
344
330
6C
100
AcDbEntity
  8
Visible (ISO)
100
AcDbCircle
 10
6765.886236414461
 20
539.4687911038101
 30
0.0
 40
9.999999999999964
100
AcDbArc
 50
209.0991349676507
 51
261.2193375715943
  0
LINE
  5
345
330
6C
100
AcDbEntity
  8
Visible (ISO)
100
AcDbLine
 10
6770.122974933184
 20
571.9687911038102
 30
0.0
 11
6770.122974933184
 21
534.5273913111197
 31
0.0
  0
ARC
  5
346
330
6C
100
AcDbEntity
  8
Visible (ISO)
100
AcDbCircle
 10
6909.622974933184
 20
619.46879110381
 30
0.0
 40
174.4999999999992
100
AcDbArc
 50
180.0
 51
209.0991349676526
  0
ARC
  5
347
330
6C
100
AcDbEntity
  8
Visible (ISO)
100
AcDbCircle
 10
6790.122974933185
 20
584.4687911038102
 30
0.0
 40
22.5
100
AcDbArc
 50
337.3801350519598
 51
202.6198649480398
  0
ARC
  5
348
330
6C
100
AcDbEntity
  8
Visible (ISO)
100
AcDbCircle
 10
6670.622974933185
 20
619.46879110381
 30
0.0
 40
174.4999999999992
100
AcDbArc
 50
330.9008650323475
 51
0.0
  0
LINE
  5
349
330
6C
100
AcDbEntity
  8
Visible (ISO)
100
AcDbLine
 10
6810.122974933185
 20
571.9687911038102
 30
0.0
 11
6810.122974933185
 21
534.5273913111197
 31
0.0
  0
ARC
  5
34A
330
6C
100
AcDbEntity
  8
Visible (ISO)
100
AcDbCircle
 10
7035.122974933185
 20
534.5273913111197
 30
0.0
 40
5.000000000000002
100
AcDbArc
 50
180.0
 51
278.7806624284055
  0
ARC
  5
34B
330
6C
100
AcDbEntity
  8
Visible (ISO)
100
AcDbCircle
 10
6985.122974933185
 20
534.5273913111197
 30
0.0
 40
5.000000000000006
100
AcDbArc
 50
261.2193375715945
 51
0.0
  0
ARC
  5
34C
330
6C
100
AcDbEntity
  8
Visible (ISO)
100
AcDbCircle
 10
7034.359713451909
 20
539.4687911038101
 30
0.0
 40
10.00000000000001
100
AcDbArc
 50
278.7806624284054
 51
330.9008650323457
  0
ARC
  5
34D
330
6C
100
AcDbEntity
  8
Visible (ISO)
100
AcDbCircle
 10
7040.122974933185
 20
571.96879110381
 30
0.0
 40
9.999999999999918
100
AcDbArc
 50
157.380135051958
 51
180.0
  0
ARC
  5
34E
330
6C
100
AcDbEntity
  8
Visible (ISO)
100
AcDbCircle
 10
6980.122974933185
 20
571.9687911038099
 30
0.0
 40
10.00000000000024
100
AcDbArc
 50
0.0
 51
22.61986494803885
  0
ARC
  5
34F
330
6C
100
AcDbEntity
  8
Visible (ISO)
100
AcDbCircle
 10
6985.886236414462
 20
539.4687911038101
 30
0.0
 40
9.999999999999964
100
AcDbArc
 50
209.0991349676507
 51
261.2193375715943
  0
LINE
  5
350
330
6C
100
AcDbEntity
  8
Visible (ISO)
100
AcDbLine
 10
6990.122974933185
 20
571.96879110381
 30
0.0
 11
6990.122974933185
 21
534.5273913111197
 31
0.0
  0
ARC
  5
351
330
6C
100
AcDbEntity
  8
Visible (ISO)
100
AcDbCircle
 10
7129.622974933184
 20
619.4687911038098
 30
0.0
 40
174.4999999999992
100
AcDbArc
 50
180.0
 51
209.0991349676526
  0
ARC
  5
352
330
6C
100
AcDbEntity
  8
Visible (ISO)
100
AcDbCircle
 10
7010.122974933185
 20
584.46879110381
 30
0.0
 40
22.5
100
AcDbArc
 50
337.3801350519598
 51
202.6198649480398
  0
ARC
  5
353
330
6C
100
AcDbEntity
  8
Visible (ISO)
100
AcDbCircle
 10
6890.622974933186
 20
619.4687911038098
 30
0.0
 40
174.4999999999992
100
AcDbArc
 50
330.9008650323475
 51
0.0
  0
LINE
  5
354
330
6C
100
AcDbEntity
  8
Visible (ISO)
100
AcDbLine
 10
7030.122974933185
 20
571.96879110381
 30
0.0
 11
7030.122974933185
 21
534.5273913111197
 31
0.0
  0
ARC
  5
355
330
6C
100
AcDbEntity
  8
Visible (ISO)
100
AcDbCircle
 10
7255.122974933184
 20
534.5273913111197
 30
0.0
 40
5.000000000000002
100
AcDbArc
 50
180.0
 51
278.7806624284055
  0
ARC
  5
356
330
6C
100
AcDbEntity
  8
Visible (ISO)
100
AcDbCircle
 10
7205.122974933184
 20
534.5273913111197
 30
0.0
 40
5.000000000000006
100
AcDbArc
 50
261.2193375715945
 51
0.0
  0
ARC
  5
357
330
6C
100
AcDbEntity
  8
Visible (ISO)
100
AcDbCircle
 10
7254.359713451908
 20
539.4687911038101
 30
0.0
 40
10.00000000000001
100
AcDbArc
 50
278.7806624284054
 51
330.9008650323457
  0
ARC
  5
358
330
6C
100
AcDbEntity
  8
Visible (ISO)
100
AcDbCircle
 10
7260.122974933183
 20
571.96879110381
 30
0.0
 40
9.999999999999918
100
AcDbArc
 50
157.380135051958
 51
180.0
  0
ARC
  5
359
330
6C
100
AcDbEntity
  8
Visible (ISO)
100
AcDbCircle
 10
7200.122974933184
 20
571.9687911038099
 30
0.0
 40
10.00000000000024
100
AcDbArc
 50
0.0
 51
22.61986494803885
  0
ARC
  5
35A
330
6C
100
AcDbEntity
  8
Visible (ISO)
100
AcDbCircle
 10
7205.88623641446
 20
539.4687911038101
 30
0.0
 40
9.999999999999964
100
AcDbArc
 50
209.0991349676507
 51
261.2193375715943
  0
LINE
  5
35B
330
6C
100
AcDbEntity
  8
Visible (ISO)
100
AcDbLine
 10
7210.122974933184
 20
571.96879110381
 30
0.0
 11
7210.122974933184
 21
534.5273913111197
 31
0.0
  0
ARC
  5
35C
330
6C
100
AcDbEntity
  8
Visible (ISO)
100
AcDbCircle
 10
7349.622974933183
 20
619.4687911038098
 30
0.0
 40
174.4999999999992
100
AcDbArc
 50
180.0
 51
209.0991349676526
  0
ARC
  5
35D
330
6C
100
AcDbEntity
  8
Visible (ISO)
100
AcDbCircle
 10
7230.122974933184
 20
584.46879110381
 30
0.0
 40
22.5
100
AcDbArc
 50
337.3801350519598
 51
202.6198649480398
  0
ARC
  5
35E
330
6C
100
AcDbEntity
  8
Visible (ISO)
100
AcDbCircle
 10
7110.622974933185
 20
619.4687911038098
 30
0.0
 40
174.4999999999992
100
AcDbArc
 50
330.9008650323475
 51
0.0
  0
LINE
  5
35F
330
6C
100
AcDbEntity
  8
Visible (ISO)
100
AcDbLine
 10
7250.122974933184
 20
571.96879110381
 30
0.0
 11
7250.122974933184
 21
534.5273913111197
 31
0.0
  0
ARC
  5
360
330
6C
100
AcDbEntity
  8
Visible (ISO)
100
AcDbCircle
 10
7475.122974933184
 20
534.5273913111197
 30
0.0
 40
5.000000000000002
100
AcDbArc
 50
180.0
 51
278.7806624284055
  0
ARC
  5
361
330
6C
100
AcDbEntity
  8
Visible (ISO)
100
AcDbCircle
 10
7425.122974933184
 20
534.5273913111197
 30
0.0
 40
5.000000000000006
100
AcDbArc
 50
261.2193375715945
 51
0.0
  0
ARC
  5
362
330
6C
100
AcDbEntity
  8
Visible (ISO)
100
AcDbCircle
 10
7474.359713451907
 20
539.4687911038101
 30
0.0
 40
10.00000000000001
100
AcDbArc
 50
278.7806624284054
 51
330.9008650323457
  0
ARC
  5
363
330
6C
100
AcDbEntity
  8
Visible (ISO)
100
AcDbCircle
 10
7480.122974933184
 20
571.96879110381
 30
0.0
 40
9.999999999999918
100
AcDbArc
 50
157.380135051958
 51
180.0
  0
ARC
  5
364
330
6C
100
AcDbEntity
  8
Visible (ISO)
100
AcDbCircle
 10
7420.122974933184
 20
571.9687911038099
 30
0.0
 40
10.00000000000024
100
AcDbArc
 50
0.0
 51
22.61986494803885
  0
ARC
  5
365
330
6C
100
AcDbEntity
  8
Visible (ISO)
100
AcDbCircle
 10
7425.88623641446
 20
539.4687911038101
 30
0.0
 40
9.999999999999964
100
AcDbArc
 50
209.0991349676507
 51
261.2193375715943
  0
LINE
  5
366
330
6C
100
AcDbEntity
  8
Visible (ISO)
100
AcDbLine
 10
7430.122974933183
 20
571.96879110381
 30
0.0
 11
7430.122974933183
 21
534.5273913111197
 31
0.0
  0
ARC
  5
367
330
6C
100
AcDbEntity
  8
Visible (ISO)
100
AcDbCircle
 10
7569.622974933183
 20
619.4687911038098
 30
0.0
 40
174.4999999999992
100
AcDbArc
 50
180.0
 51
209.0991349676526
  0
ARC
  5
368
330
6C
100
AcDbEntity
  8
Visible (ISO)
100
AcDbCircle
 10
7450.122974933184
 20
584.46879110381
 30
0.0
 40
22.5
100
AcDbArc
 50
337.3801350519598
 51
202.6198649480398
  0
ARC
  5
369
330
6C
100
AcDbEntity
  8
Visible (ISO)
100
AcDbCircle
 10
7330.622974933184
 20
619.4687911038098
 30
0.0
 40
174.4999999999992
100
AcDbArc
 50
330.9008650323475
 51
0.0
  0
LINE
  5
36A
330
6C
100
AcDbEntity
  8
Visible (ISO)
100
AcDbLine
 10
7470.122974933184
 20
571.96879110381
 30
0.0
 11
7470.122974933184
 21
534.5273913111197
 31
0.0
  0
ARC
  5
36B
330
6C
100
AcDbEntity
  8
Visible (ISO)
100
AcDbCircle
 10
7695.122974933184
 20
534.5273913111197
 30
0.0
 40
5.000000000000002
100
AcDbArc
 50
180.0
 51
278.7806624284055
  0
ARC
  5
36C
330
6C
100
AcDbEntity
  8
Visible (ISO)
100
AcDbCircle
 10
7645.122974933184
 20
534.5273913111197
 30
0.0
 40
5.000000000000006
100
AcDbArc
 50
261.2193375715945
 51
0.0
  0
ARC
  5
36D
330
6C
100
AcDbEntity
  8
Visible (ISO)
100
AcDbCircle
 10
7694.359713451908
 20
539.4687911038101
 30
0.0
 40
10.00000000000001
100
AcDbArc
 50
278.7806624284054
 51
330.9008650323457
  0
ARC
  5
36E
330
6C
100
AcDbEntity
  8
Visible (ISO)
100
AcDbCircle
 10
7700.122974933184
 20
571.96879110381
 30
0.0
 40
9.999999999999918
100
AcDbArc
 50
157.380135051958
 51
180.0
  0
ARC
  5
36F
330
6C
100
AcDbEntity
  8
Visible (ISO)
100
AcDbCircle
 10
7640.122974933184
 20
571.9687911038099
 30
0.0
 40
10.00000000000024
100
AcDbArc
 50
0.0
 51
22.61986494803885
  0
ARC
  5
370
330
6C
100
AcDbEntity
  8
Visible (ISO)
100
AcDbCircle
 10
7645.886236414461
 20
539.4687911038101
 30
0.0
 40
9.999999999999964
100
AcDbArc
 50
209.0991349676507
 51
261.2193375715943
  0
LINE
  5
371
330
6C
100
AcDbEntity
  8
Visible (ISO)
100
AcDbLine
 10
7650.122974933184
 20
571.96879110381
 30
0.0
 11
7650.122974933184
 21
534.5273913111197
 31
0.0
  0
ARC
  5
372
330
6C
100
AcDbEntity
  8
Visible (ISO)
100
AcDbCircle
 10
7789.622974933184
 20
619.4687911038098
 30
0.0
 40
174.4999999999992
100
AcDbArc
 50
180.0
 51
209.0991349676526
  0
ARC
  5
373
330
6C
100
AcDbEntity
  8
Visible (ISO)
100
AcDbCircle
 10
7670.122974933184
 20
584.46879110381
 30
0.0
 40
22.5
100
AcDbArc
 50
337.3801350519598
 51
202.6198649480398
  0
ARC
  5
374
330
6C
100
AcDbEntity
  8
Visible (ISO)
100
AcDbCircle
 10
7550.622974933185
 20
619.4687911038098
 30
0.0
 40
174.4999999999992
100
AcDbArc
 50
330.9008650323475
 51
0.0
  0
LINE
  5
375
330
6C
100
AcDbEntity
  8
Visible (ISO)
100
AcDbLine
 10
7690.122974933185
 20
571.96879110381
 30
0.0
 11
7690.122974933185
 21
534.5273913111197
 31
0.0
  0
CIRCLE
  5
376
330
6C
100
AcDbEntity
  8
Visible (ISO)
100
AcDbCircle
 10
7630.122974933185
 20
639.4687911038221
 30
0.0
 40
5.5
  0
CIRCLE
  5
377
330
6C
100
AcDbEntity
  8
Visible (ISO)
100
AcDbCircle
 10
7710.122974933184
 20
639.4687911038221
 30
0.0
 40
5.5
  0
CIRCLE
  5
378
330
6C
100
AcDbEntity
  8
Visible (ISO)
100
AcDbCircle
 10
7410.122974933185
 20
639.4687911038221
 30
0.0
 40
5.5
  0
CIRCLE
  5
379
330
6C
100
AcDbEntity
  8
Visible (ISO)
100
AcDbCircle
 10
7490.122974933185
 20
639.4687911038221
 30
0.0
 40
5.5
  0
CIRCLE
  5
37A
330
6C
100
AcDbEntity
  8
Visible (ISO)
100
AcDbCircle
 10
7190.122974933185
 20
639.4687911038221
 30
0.0
 40
5.5
  0
CIRCLE
  5
37B
330
6C
100
AcDbEntity
  8
Visible (ISO)
100
AcDbCircle
 10
7270.122974933184
 20
639.4687911038221
 30
0.0
 40
5.5
  0
CIRCLE
  5
37C
330
6C
100
AcDbEntity
  8
Visible (ISO)
100
AcDbCircle
 10
6970.122974933184
 20
639.4687911038221
 30
0.0
 40
5.5
  0
CIRCLE
  5
37D
330
6C
100
AcDbEntity
  8
Visible (ISO)
100
AcDbCircle
 10
7050.122974933184
 20
639.4687911038221
 30
0.0
 40
5.5
  0
CIRCLE
  5
37E
330
6C
100
AcDbEntity
  8
Visible (ISO)
100
AcDbCircle
 10
6530.122974933185
 20
639.4687911038221
 30
0.0
 40
5.5
  0
CIRCLE
  5
37F
330
6C
100
AcDbEntity
  8
Visible (ISO)
100
AcDbCircle
 10
6610.122974933185
 20
639.4687911038221
 30
0.0
 40
5.5
  0
CIRCLE
  5
380
330
6C
100
AcDbEntity
  8
Visible (ISO)
100
AcDbCircle
 10
6310.122974933185
 20
639.4687911038221
 30
0.0
 40
5.5
  0
CIRCLE
  5
381
330
6C
100
AcDbEntity
  8
Visible (ISO)
100
AcDbCircle
 10
6390.122974933185
 20
639.4687911038221
 30
0.0
 40
5.5
  0
CIRCLE
  5
382
330
6C
100
AcDbEntity
  8
Visible (ISO)
100
AcDbCircle
 10
6090.122974933185
 20
639.4687911038221
 30
0.0
 40
5.5
  0
CIRCLE
  5
383
330
6C
100
AcDbEntity
  8
Visible (ISO)
100
AcDbCircle
 10
6170.122974933184
 20
639.4687911038221
 30
0.0
 40
5.5
  0
CIRCLE
  5
384
330
6C
100
AcDbEntity
  8
Visible (ISO)
100
AcDbCircle
 10
5870.122974933185
 20
639.4687911038221
 30
0.0
 40
5.5
  0
CIRCLE
  5
385
330
6C
100
AcDbEntity
  8
Visible (ISO)
100
AcDbCircle
 10
5950.122974933186
 20
639.4687911038221
 30
0.0
 40
5.5
  0
CIRCLE
  5
386
330
6C
100
AcDbEntity
  8
Visible (ISO)
100
AcDbCircle
 10
6750.122974933184
 20
639.4687911038221
 30
0.0
 40
5.5
  0
CIRCLE
  5
387
330
6C
100
AcDbEntity
  8
Visible (ISO)
100
AcDbCircle
 10
6830.122974933185
 20
639.4687911038221
 30
0.0
 40
5.5
  0
LINE
  5
388
330
6C
100
AcDbEntity
  8
Visible (ISO)
100
AcDbLine
 10
5790.122974933185
 20
619.4687911038221
 30
0.0
 11
5790.122974933185
 21
659.4687911038221
 31
0.0
  0
LINE
  5
389
330
6C
100
AcDbEntity
  8
Visible (ISO)
100
AcDbLine
 10
5790.122974933185
 20
619.4687911038221
 30
0.0
 11
7790.122974933185
 21
619.4687911038221
 31
0.0
  0
LINE
  5
38A
330
6C
100
AcDbEntity
  8
Visible (ISO)
100
AcDbLine
 10
7790.122974933185
 20
659.4687911038221
 30
0.0
 11
5790.122974933185
 21
659.4687911038221
 31
0.0
  0
LINE
  5
38B
330
6C
100
AcDbEntity
  8
Visible (ISO)
100
AcDbLine
 10
7790.122974933185
 20
659.4687911038221
 30
0.0
 11
7790.122974933185
 21
619.4687911038221
 31
0.0
  0
DIMENSION
  5
38C
330
6C
100
AcDbEntity
  8
Dimension (ISO)
100
AcDbDimension
  2
*D7
 10
7790.122974833399
 20
1809.18992414668
 30
0.0
 11
6790.1229749334
 21
1809.18992414668
 31
0.0
 70
   160
  1
<>
 71
     2
 42
1999.9999998
  3
Default (ISO)
100
AcDbAlignedDimension
 13
5790.122975033399
 23
1524.830633864396
 33
0.0
 14
7790.122974833399
 24
1524.830633864396
 34
0.0
 50
180.0
100
AcDbRotatedDimension
1001
ACAD
1000
DSTYLE
1002
{
1070
   172
1070
     0
1070
   289
1070
     1
1070
    74
1070
     0
1070
   271
1070
     2
1070
   272
1070
     2
1070
    48
1040
0.0
1070
    47
1040
0.0
1002
}
  0
DIMENSION
  5
46F
330
6C
100
AcDbEntity
  8
Dimension (ISO)
100
AcDbDimension
  2
*D8
 10
5494.428821273013
 20
1016.830633864396
 30
0.0
 11
5494.428821273013
 21
1270.830633814401
 31
0.0
 70
   160
  1
<>
 71
     2
 42
507.9999999000104
  3
Default (ISO)
100
AcDbAlignedDimension
 13
5790.1229749334
 23
1524.830633764406
 33
0.0
 14
5765.1229749334
 24
1016.830633864396
 34
0.0
 50
90.0
100
AcDbRotatedDimension
1001
ACAD
1000
DSTYLE
1002
{
1070
   172
1070
     0
1070
   289
1070
     1
1070
    74
1070
     0
1070
   271
1070
     2
1070
   272
1070
     2
1070
    48
1040
0.0
1070
    47
1040
0.0
1002
}
  0
DIMENSION
  5
557
330
6C
100
AcDbEntity
  8
Dimension (ISO)
100
AcDbDimension
  2
*D9
 10
7790.122974833185
 20
817.2415798866115
 30
0.0
 11
6790.122974933185
 21
817.2415798866115
 31
0.0
 70
   160
  1
<>
 71
     2
 42
1999.9999998
  3
Default (ISO)
100
AcDbAlignedDimension
 13
5790.122975033185
 23
655.4687912038221
 33
0.0
 14
7790.122974833185
 24
655.4687912038221
 34
0.0
 50
180.0
100
AcDbRotatedDimension
1001
ACAD
1000
DSTYLE
1002
{
1070
   172
1070
     0
1070
   289
1070
     1
1070
    74
1070
     0
1070
   271
1070
     2
1070
   272
1070
     2
1070
    48
1040
0.0
1070
    47
1040
0.0
1002
}
  0
DIMENSION
  5
639
330
6C
100
AcDbEntity
  8
Dimension (ISO)
100
AcDbDimension
  2
*D10
 10
7967.672854244141
 20
529.5859915184291
 30
0.0
 11
7967.672854244141
 21
846.2836732128305
 31
0.0
 70
   160
  1
<>
 71
     2
 42
129.8827996853916
  3
Default (ISO)
100
AcDbAlignedDimension
 13
7786.122974833185
 23
659.4687912038209
 33
0.0
 14
7695.886236414461
 24
529.5859915184292
 34
0.0
 50
90.0
100
AcDbRotatedDimension
1001
ACAD
1000
DSTYLE
1002
{
1070
   172
1070
     1
1070
   289
1070
     1
1070
    74
1070
     0
1070
   271
1070
     0
1070
   272
1070
     2
1070
    48
1040
0.0
1070
    47
1040
0.0
1002
}
  0
DIMENSION
  5
74B
330
6C
100
AcDbEntity
  8
Dimension (ISO)
100
AcDbDimension
  2
*D11
 10
5675.475815229356
 20
1254.830633864395
 30
0.0
 11
5675.475815229356
 21
1135.830633864395
 31
0.0
 70
   160
  1
<>
 71
     2
 42
237.9999999999999
  3
Default (ISO)
100
AcDbAlignedDimension
 13
5765.1229749334
 23
1016.830633864396
 33
0.0
 14
5830.122974933399
 24
1254.830633864395
 34
0.0
 50
90.0
100
AcDbRotatedDimension
1001
ACAD
1000
DSTYLE
1002
{
1070
   172
1070
     0
1070
   289
1070
     1
1070
    74
1070
     0
1070
   271
1070
     2
1070
   272
1070
     2
1070
    48
1040
0.0
1070
    47
1040
0.0
1002
}
  0
INSERT
  5
83E
330
6C
100
AcDbEntity
  8
0
100
AcDbBlockReference
 66
     1
  2
Tabelki rysunkowe Rzut
 10
2404.463674056329
 20
-214.8261084920891
 30
0.0
 41
20.0
 42
20.0
 43
20.0
  0
ATTRIB
  5
840
102
{ACAD_XDICTIONARY
360
84E
102
}
330
83E
100
AcDbEntity
  8
Title (ISO)
100
AcDbText
 10
5977.313633319625
 20
147.9852253127715
 30
0.0
 40
50.0
  1
460
  7
Note Text (ISO)
100
AcDbAttribute
  2
Numer_katalogowy_001
 70
     0
  0
ATTRIB
  5
841
102
{ACAD_XDICTIONARY
360
851
102
}
330
83E
100
AcDbEntity
  8
Title (ISO)
100
AcDbText
 10
6212.679650795979
 20
7.918066145762104
 30
0.0
 40
50.0
  1
2023-04-21
  7
Note Text (ISO)
100
AcDbAttribute
  2
DATA_UTWORZENIA_001
 70
     0
  0
ATTRIB
  5
842
102
{ACAD_XDICTIONARY
360
854
102
}
330
83E
100
AcDbEntity
  8
Title (ISO)
100
AcDbText
 10
5974.828744140279
 20
75.50033613342489
 30
0.0
 40
50.0
  1
Stojak na hulajnogi
  7
Note Text (ISO)
100
AcDbAttribute
  2
Nazwa_001
 70
     0
  0
SEQEND
  5
83F
330
83E
100
AcDbEntity
  8
0
  0
ENDSEC
  0
SECTION
  2
OBJECTS
  0
DICTIONARY
  5
C
330
0
100
AcDbDictionary
281
     1
  3
ACAD_COLOR
350
63
  3
ACAD_GROUP
350
D
  3
ACAD_LAYOUT
350
62
  3
ACAD_MATERIAL
350
10
  3
ACAD_MLEADERSTYLE
350
66
  3
ACAD_MLINESTYLE
350
5F
  3
ACAD_PLOTSETTINGS
350
61
  3
ACAD_PLOTSTYLENAME
350
E
  3
ACAD_SCALELIST
350
42
  3
ACAD_TABLESTYLE
350
64
  3
ACAD_VISUALSTYLE
350
29
  3
ACDB_RECOMPOSE_DATA
350
8C8
  3
AcDbVariableDictionary
350
89A
  3
DWGPROPS
350
8C9
  0
DICTIONARY
  5
859
330
8
100
AcDbDictionary
280
     1
281
     1
  0
DICTIONARY
  5
845
330
83A
100
AcDbDictionary
280
     1
281
     1
  3
ACAD_MLATT
360
8BD
  3
ACAD_XREC_ROUNDTRIP
360
8BC
  0
DICTIONARY
  5
848
330
83C
100
AcDbDictionary
280
     1
281
     1
  3
ACAD_MLATT
360
8BF
  3
ACAD_XREC_ROUNDTRIP
360
8BE
  0
DICTIONARY
  5
84B
330
83D
100
AcDbDictionary
280
     1
281
     1
  3
ACAD_MLATT
360
8C1
  3
ACAD_XREC_ROUNDTRIP
360
8C0
  0
DICTIONARY
  5
84E
330
840
100
AcDbDictionary
280
     1
281
     1
  3
ACAD_MLATT
360
8C3
  3
ACAD_XREC_ROUNDTRIP
360
8C2
  0
DICTIONARY
  5
851
330
841
100
AcDbDictionary
280
     1
281
     1
  3
ACAD_MLATT
360
8C5
  3
ACAD_XREC_ROUNDTRIP
360
8C4
  0
DICTIONARY
  5
854
330
842
100
AcDbDictionary
280
     1
281
     1
  3
ACAD_MLATT
360
8C7
  3
ACAD_XREC_ROUNDTRIP
360
8C6
  0
DICTIONARY
  5
63
102
{ACAD_REACTORS
330
C
102
}
330
C
100
AcDbDictionary
281
     1
  0
DICTIONARY
  5
D
102
{ACAD_REACTORS
330
C
102
}
330
C
100
AcDbDictionary
281
     1
  0
DICTIONARY
  5
62
102
{ACAD_REACTORS
330
C
102
}
330
C
100
AcDbDictionary
281
     1
  3
Layout1
350
6B
  3
Layout2
350
73
  3
Model
350
6F
  0
DICTIONARY
  5
10
102
{ACAD_REACTORS
330
C
102
}
330
C
100
AcDbDictionary
281
     1
  3
ByBlock
350
19
  3
ByLayer
350
11
  3
Global
350
21
  0
DICTIONARY
  5
66
102
{ACAD_REACTORS
330
C
102
}
330
C
100
AcDbDictionary
281
     1
  3
Standard
350
67
  0
DICTIONARY
  5
5F
102
{ACAD_REACTORS
330
C
102
}
330
C
100
AcDbDictionary
281
     1
  3
Standard
350
60
  0
DICTIONARY
  5
61
102
{ACAD_REACTORS
330
C
102
}
330
C
100
AcDbDictionary
281
     1
  0
ACDBDICTIONARYWDFLT
  5
E
102
{ACAD_REACTORS
330
C
102
}
330
C
100
AcDbDictionary
281
     1
  3
Normal
350
F
100
AcDbDictionaryWithDefault
340
F
  0
DICTIONARY
  5
42
102
{ACAD_REACTORS
330
C
102
}
330
C
100
AcDbDictionary
281
     1
  3
A0
350
43
  3
A1
350
44
  3
A2
350
45
  3
A3
350
46
  3
A4
350
47
  3
A5
350
48
  3
A6
350
49
  3
A7
350
4A
  3
A8
350
4B
  3
A9
350
4C
  3
B0
350
4D
  3
B1
350
4E
  3
B2
350
4F
  3
B3
350
50
  3
B4
350
51
  3
B5
350
52
  3
B6
350
53
  0
DICTIONARY
  5
64
102
{ACAD_REACTORS
330
C
102
}
330
C
100
AcDbDictionary
281
     1
  3
Standard
350
65
  0
DICTIONARY
  5
29
102
{ACAD_REACTORS
330
C
102
}
330
C
100
AcDbDictionary
281
     1
  3
2dWireframe
350
2F
  3
Basic
350
2E
  3
Brighten
350
35
  3
ColorChange
350
39
  3
Conceptual
350
32
  3
Dim
350
34
  3
EdgeColorOff
350
41
  3
Facepattern
350
38
  3
Flat
350
2A
  3
FlatWithEdges
350
2B
  3
Gouraud
350
2C
  3
GouraudWithEdges
350
2D
  3
Hidden
350
31
  3
JitterOff
350
3F
  3
Linepattern
350
37
  3
OverhangOff
350
40
  3
Realistic
350
33
  3
Shaded
350
3E
  3
Shaded with edges
350
3D
  3
Shades of Gray
350
3A
  3
Sketchy
350
3B
  3
Thicken
350
36
  3
Wireframe
350
30
  3
X-Ray
350
3C
  0
XRECORD
  5
8C8
102
{ACAD_REACTORS
330
C
102
}
330
C
100
AcDbXrecord
280
     1
 90
        1
330
65
330
83A
330
83C
330
83D
330
840
330
841
330
842
  0
DICTIONARY
  5
89A
102
{ACAD_REACTORS
330
C
102
}
330
C
100
AcDbDictionary
281
     1
  3
CANNOSCALE
350
89E
  3
CMLEADERSTYLE
350
89C
  3
CTABLESTYLE
350
89B
  3
DIMASSOC
350
8A5
  3
HIDETEXT
350
8A4
  3
INDEXCTL
350
8A3
  3
LAYEREVAL
350
8A0
  3
LAYERNOTIFY
350
8A1
  3
LIGHTINGUNITS
350
89F
  3
MSLTSCALE
350
89D
  3
SORTENTS
350
8A2
  3
XCLIPFRAME
350
8BA
  0
XRECORD
  5
8C9
102
{ACAD_REACTORS
330
C
102
}
330
C
100
AcDbXrecord
280
     1
  1
DWGPROPS COOKIE
  2

  3

  4
Maruszak Marcin
  6

  7

  8
GRAFIK
  9
v1
300
Menadżer=
301
Firma=Muller Jelcz-Laskowice Sp.z o.o.
302
Kategoria=
303
Numer części=Stojak na hulajnogi
304
Opis=
305
Projekt=460 Stojak na hulajnogi
306
Projektant=Maruszak Marcin
307
Inżynier=Maruszak Marcin
308
Zatwierdził=Ośkiewicz Ryszard
309
Centrum kosztów=
 40
0.0070353935185185
 41
2460056.429819283
 42
2460056.456927083
  1
www.muller.com.pl
 90
       19
300
Dostawca=
300
Stan użytkownika=
300
Stan projektu=PracaWToku
300
Sprawdził=
300
Zatwierdził konstrukcję=
300
Zatwierdził do produkcji=
300
Kolor=szary
300
Stanowisko=Ploter
300
mat.=
  0
XRECORD
  5
8BD
102
{ACAD_REACTORS
330
845
102
}
330
845
100
AcDbXrecord
280
     1
 70
     4
 70
     0
 70
     0
 40
1.0
  2
Numer_katalogowy
  1
Embedded Object
 10
178.7096571303911
 20
20.69093606566278
 30
0.0
 40
2.5
 41
39.63119806127143
 46
0.0
 71
     1
 72
     5
  1
460
  7
Note Text (ISO)
 73
     1
 44
1.0
  0
XRECORD
  5
8BC
102
{ACAD_REACTORS
330
845
102
}
330
845
100
AcDbXrecord
280
     1
102
ACAD_MATT_HEIGHT
140
2.5
  0
XRECORD
  5
8BF
102
{ACAD_REACTORS
330
848
102
}
330
848
100
AcDbXrecord
280
     1
 70
     4
 70
     0
 70
     0
 40
1.0
  2
DATA_UTWORZENIA
  1
Embedded Object
 10
190.5938075676742
 20
13.68925708649296
 30
0.0
 40
2.5
 41
40.52963831958745
 46
0.0
 71
     1
 72
     5
  1
2023-04-21
  7
Note Text (ISO)
 73
     1
 44
1.0
  0
XRECORD
  5
8BE
102
{ACAD_REACTORS
330
848
102
}
330
848
100
AcDbXrecord
280
     1
102
ACAD_MATT_HEIGHT
140
2.5
  0
XRECORD
  5
8C1
102
{ACAD_REACTORS
330
84B
102
}
330
84B
100
AcDbXrecord
280
     1
 70
     4
 70
     0
 70
     0
 40
1.0
  2
Nazwa
  1
Embedded Object
 10
178.6475349011082
 20
17.1288138363798
 30
0.0
 40
2.5
 41
185.1629687744657
 46
0.0
 71
     1
 72
     5
  1
Stojak na hulajnogi
  7
Note Text (ISO)
 73
     1
 44
1.0
  0
XRECORD
  5
8C0
102
{ACAD_REACTORS
330
84B
102
}
330
84B
100
AcDbXrecord
280
     1
102
ACAD_MATT_HEIGHT
140
2.5
  0
XRECORD
  5
8C3
102
{ACAD_REACTORS
330
84E
102
}
330
84E
100
AcDbXrecord
280
     1
 70
     2
 70
     0
 70
     0
 40
1.0
  2
Numer_katalogowy
  1
Embedded Object
 10
5978.656816664152
 20
198.9926128211664
 30
0.0
 40
50.0
 41
792.6239612254285
 46
0.0
 71
     1
 72
     5
  1
460
  7
Note Text (ISO)
 73
     1
 44
1.0
  0
XRECORD
  5
8C2
102
{ACAD_REACTORS
330
84E
102
}
330
84E
100
AcDbXrecord
280
     1
102
ACAD_MATT_HEIGHT
140
50.0
  0
XRECORD
  5
8C5
102
{ACAD_REACTORS
330
851
102
}
330
851
100
AcDbXrecord
280
     1
 70
     2
 70
     0
 70
     0
 40
1.0
  2
DATA_UTWORZENIA
  1
Embedded Object
 10
6216.339825409814
 20
58.95903323777016
 30
0.0
 40
50.0
 41
810.5927663917491
 46
0.0
 71
     1
 72
     5
  1
2023-04-21
  7
Note Text (ISO)
 73
     1
 44
1.0
  0
XRECORD
  5
8C4
102
{ACAD_REACTORS
330
851
102
}
330
851
100
AcDbXrecord
280
     1
102
ACAD_MATT_HEIGHT
140
50.0
  0
XRECORD
  5
8C7
102
{ACAD_REACTORS
330
854
102
}
330
854
100
AcDbXrecord
280
     1
 70
     2
 70
     0
 70
     0
 40
1.0
  2
Nazwa
  1
Embedded Object
 10
5977.414372078492
 20
127.7501682355068
 30
0.0
 40
50.0
 41
3703.259375489315
 46
0.0
 71
     1
 72
     5
  1
Stojak na hulajnogi
  7
Note Text (ISO)
 73
     1
 44
1.0
  0
XRECORD
  5
8C6
102
{ACAD_REACTORS
330
854
102
}
330
854
100
AcDbXrecord
280
     1
102
ACAD_MATT_HEIGHT
140
50.0
  0
LAYOUT
  5
6B
102
{ACAD_XDICTIONARY
360
8FE
102
}
102
{ACAD_REACTORS
330
62
102
}
330
62
100
AcDbPlotSettings
  1

  2

  4

  6

 40
0.0
 41
0.0
 42
0.0
 43
0.0
 44
0.0
 45
0.0
 46
0.0
 47
0.0
 48
0.0
 49
0.0
140
0.0
141
0.0
142
1.0
143
1.0
 70
   688
 72
     0
 73
     0
 74
     5
  7

 75
    16
147
1.0
148
0.0
149
0.0
100
AcDbLayout
  1
Layout1
 70
     1
 71
     1
 10
0.0
 20
0.0
 11
5940.0
 21
4200.0
 12
0.0
 22
0.0
 32
0.0
 14
0.0
 24
0.0
 34
0.0
 15
5940.0
 25
4200.0
 35
0.0
146
0.0
 13
0.0
 23
0.0
 33
0.0
 16
1.0
 26
0.0
 36
0.0
 17
0.0
 27
1.0
 37
0.0
 76
     0
330
68
  0
LAYOUT
  5
73
102
{ACAD_XDICTIONARY
360
902
102
}
102
{ACAD_REACTORS
330
62
102
}
330
62
100
AcDbPlotSettings
  1

  2

  4

  6

 40
0.0
 41
0.0
 42
0.0
 43
0.0
 44
0.0
 45
0.0
 46
0.0
 47
0.0
 48
0.0
 49
0.0
140
0.0
141
0.0
142
1.0
143
1.0
 70
   688
 72
     0
 73
     0
 74
     5
  7

 75
    16
147
1.0
148
0.0
149
0.0
100
AcDbLayout
  1
Layout2
 70
     1
 71
     2
 10
0.0
 20
0.0
 11
12.0
 21
9.0
 12
0.0
 22
0.0
 32
0.0
 14
0.0
 24
0.0
 34
0.0
 15
0.0
 25
0.0
 35
0.0
146
0.0
 13
0.0
 23
0.0
 33
0.0
 16
1.0
 26
0.0
 36
0.0
 17
0.0
 27
1.0
 37
0.0
 76
     0
330
70
  0
LAYOUT
  5
6F
102
{ACAD_XDICTIONARY
360
900
102
}
102
{ACAD_REACTORS
330
62
102
}
330
62
100
AcDbPlotSettings
  1

  2

  4

  6

 40
0.0
 41
0.0
 42
0.0
 43
0.0
 44
0.0
 45
0.0
 46
0.0
 47
0.0
 48
0.0
 49
0.0
140
0.0
141
0.0
142
1.0
143
1.0
 70
  1712
 72
     0
 73
     0
 74
     0
  7

 75
     0
147
1.0
148
0.0
149
0.0
100
AcDbLayout
  1
Model
 70
     1
 71
     0
 10
0.0
 20
0.0
 11
12.0
 21
9.0
 12
0.0
 22
0.0
 32
0.0
 14
0.0
 24
0.0
 34
0.0
 15
0.0
 25
0.0
 35
0.0
146
0.0
 13
0.0
 23
0.0
 33
0.0
 16
1.0
 26
0.0
 36
0.0
 17
0.0
 27
1.0
 37
0.0
 76
     0
330
6C
331
57
  0
MATERIAL
  5
19
102
{ACAD_XDICTIONARY
360
1A
102
}
102
{ACAD_REACTORS
330
10
102
}
330
10
100
AcDbMaterial
  1
ByBlock
 72
     0
 43
0.0208333333333333
 43
0.0
 43
0.0
 43
0.0
 43
0.0
 43
0.0208333333333333
 43
0.0
 43
0.0
 43
0.0
 43
0.0
 43
1.0
 43
0.0
 43
0.0
 43
0.0
 43
0.0
 43
1.0
 77
     0
 47
0.0208333333333333
 47
0.0
 47
0.0
 47
0.0
 47
0.0
 47
0.0208333333333333
 47
0.0
 47
0.0
 47
0.0
 47
0.0
 47
1.0
 47
0.0
 47
0.0
 47
0.0
 47
0.0
 47
1.0
171
     0
 49
0.0208333333333333
 49
0.0
 49
0.0
 49
0.0
 49
0.0
 49
0.0208333333333333
 49
0.0
 49
0.0
 49
0.0
 49
0.0
 49
1.0
 49
0.0
 49
0.0
 49
0.0
 49
0.0
 49
1.0
175
     0
142
0.0208333333333333
142
0.0
142
0.0
142
0.0
142
0.0
142
0.0208333333333333
142
0.0
142
0.0
142
0.0
142
0.0
142
1.0
142
0.0
142
0.0
142
0.0
142
0.0
142
1.0
179
     0
144
0.0208333333333333
144
0.0
144
0.0
144
0.0
144
0.0
144
0.0208333333333333
144
0.0
144
0.0
144
0.0
144
0.0
144
1.0
144
0.0
144
0.0
144
0.0
144
0.0
144
1.0
147
0.0208333333333333
147
0.0
147
0.0
147
0.0
147
0.0
147
0.0208333333333333
147
0.0
147
0.0
147
0.0
147
0.0
147
1.0
147
0.0
147
0.0
147
0.0
147
0.0
147
1.0
  0
MATERIAL
  5
11
102
{ACAD_XDICTIONARY
360
12
102
}
102
{ACAD_REACTORS
330
10
102
}
330
10
100
AcDbMaterial
  1
ByLayer
 72
     0
 43
0.0208333333333333
 43
0.0
 43
0.0
 43
0.0
 43
0.0
 43
0.0208333333333333
 43
0.0
 43
0.0
 43
0.0
 43
0.0
 43
1.0
 43
0.0
 43
0.0
 43
0.0
 43
0.0
 43
1.0
 77
     0
 47
0.0208333333333333
 47
0.0
 47
0.0
 47
0.0
 47
0.0
 47
0.0208333333333333
 47
0.0
 47
0.0
 47
0.0
 47
0.0
 47
1.0
 47
0.0
 47
0.0
 47
0.0
 47
0.0
 47
1.0
171
     0
 49
0.0208333333333333
 49
0.0
 49
0.0
 49
0.0
 49
0.0
 49
0.0208333333333333
 49
0.0
 49
0.0
 49
0.0
 49
0.0
 49
1.0
 49
0.0
 49
0.0
 49
0.0
 49
0.0
 49
1.0
175
     0
142
0.0208333333333333
142
0.0
142
0.0
142
0.0
142
0.0
142
0.0208333333333333
142
0.0
142
0.0
142
0.0
142
0.0
142
1.0
142
0.0
142
0.0
142
0.0
142
0.0
142
1.0
179
     0
144
0.0208333333333333
144
0.0
144
0.0
144
0.0
144
0.0
144
0.0208333333333333
144
0.0
144
0.0
144
0.0
144
0.0
144
1.0
144
0.0
144
0.0
144
0.0
144
0.0
144
1.0
147
0.0208333333333333
147
0.0
147
0.0
147
0.0
147
0.0
147
0.0208333333333333
147
0.0
147
0.0
147
0.0
147
0.0
147
1.0
147
0.0
147
0.0
147
0.0
147
0.0
147
1.0
  0
MATERIAL
  5
21
102
{ACAD_XDICTIONARY
360
22
102
}
102
{ACAD_REACTORS
330
10
102
}
330
10
100
AcDbMaterial
  1
Global
 72
     0
 43
0.0208333333333333
 43
0.0
 43
0.0
 43
0.0
 43
0.0
 43
0.0208333333333333
 43
0.0
 43
0.0
 43
0.0
 43
0.0
 43
1.0
 43
0.0
 43
0.0
 43
0.0
 43
0.0
 43
1.0
 77
     0
 47
0.0208333333333333
 47
0.0
 47
0.0
 47
0.0
 47
0.0
 47
0.0208333333333333
 47
0.0
 47
0.0
 47
0.0
 47
0.0
 47
1.0
 47
0.0
 47
0.0
 47
0.0
 47
0.0
 47
1.0
171
     0
 49
0.0208333333333333
 49
0.0
 49
0.0
 49
0.0
 49
0.0
 49
0.0208333333333333
 49
0.0
 49
0.0
 49
0.0
 49
0.0
 49
1.0
 49
0.0
 49
0.0
 49
0.0
 49
0.0
 49
1.0
175
     0
142
0.0208333333333333
142
0.0
142
0.0
142
0.0
142
0.0
142
0.0208333333333333
142
0.0
142
0.0
142
0.0
142
0.0
142
1.0
142
0.0
142
0.0
142
0.0
142
0.0
142
1.0
179
     0
144
0.0208333333333333
144
0.0
144
0.0
144
0.0
144
0.0
144
0.0208333333333333
144
0.0
144
0.0
144
0.0
144
0.0
144
1.0
144
0.0
144
0.0
144
0.0
144
0.0
144
1.0
147
0.0208333333333333
147
0.0
147
0.0
147
0.0
147
0.0
147
0.0208333333333333
147
0.0
147
0.0
147
0.0
147
0.0
147
1.0
147
0.0
147
0.0
147
0.0
147
0.0
147
1.0
  0
MLEADERSTYLE
  5
67
102
{ACAD_REACTORS
330
66
102
}
330
66
100
AcDbMLeaderStyle
170
     2
171
     1
172
     0
 90
        2
 40
0.0
 41
0.0
173
     1
 91
-1056964608
340
5B
 92
       -2
290
     1
 42
0.09
291
     1
 43
0.36
  3
Standard
 44
0.18
300

342
55
174
     1
178
     6
175
     1
176
     0
 93
-1056964608
 45
0.18
292
     0
297
     0
 46
0.18
 94
-1056964608
 47
1.0
 49
1.0
140
1.0
293
     1
141
0.0
294
     1
177
     0
142
1.0
295
     0
296
     0
143
0.125
1001
ACAD_MLEADERVER
1070
     2
  0
MLINESTYLE
  5
60
102
{ACAD_REACTORS
330
5F
102
}
330
5F
100
AcDbMlineStyle
  2
STANDARD
 70
     0
  3

 62
   256
 51
90.0
 52
90.0
 71
     2
 49
0.5
 62
   256
  6
BYLAYER
 49
-0.5
 62
   256
  6
BYLAYER
  0
ACDBPLACEHOLDER
  5
F
102
{ACAD_REACTORS
330
E
102
}
330
E
  0
SCALE
  5
43
102
{ACAD_REACTORS
330
42
102
}
330
42
100
AcDbScale
 70
     0
300
1:1
140
1.0
141
1.0
290
     1
  0
SCALE
  5
44
102
{ACAD_REACTORS
330
42
102
}
330
42
100
AcDbScale
 70
     0
300
1/128" = 1'-0"
140
0.0078125
141
12.0
290
     0
  0
SCALE
  5
45
102
{ACAD_REACTORS
330
42
102
}
330
42
100
AcDbScale
 70
     0
300
1/64" = 1'-0"
140
0.015625
141
12.0
290
     0
  0
SCALE
  5
46
102
{ACAD_REACTORS
330
42
102
}
330
42
100
AcDbScale
 70
     0
300
1/32" = 1'-0"
140
0.03125
141
12.0
290
     0
  0
SCALE
  5
47
102
{ACAD_REACTORS
330
42
102
}
330
42
100
AcDbScale
 70
     0
300
1/16" = 1'-0"
140
0.0625
141
12.0
290
     0
  0
SCALE
  5
48
102
{ACAD_REACTORS
330
42
102
}
330
42
100
AcDbScale
 70
     0
300
3/32" = 1'-0"
140
0.09375
141
12.0
290
     0
  0
SCALE
  5
49
102
{ACAD_REACTORS
330
42
102
}
330
42
100
AcDbScale
 70
     0
300
1/8" = 1'-0"
140
0.125
141
12.0
290
     0
  0
SCALE
  5
4A
102
{ACAD_REACTORS
330
42
102
}
330
42
100
AcDbScale
 70
     0
300
3/16" = 1'-0"
140
0.1875
141
12.0
290
     0
  0
SCALE
  5
4B
102
{ACAD_REACTORS
330
42
102
}
330
42
100
AcDbScale
 70
     0
300
1/4" = 1'-0"
140
0.25
141
12.0
290
     0
  0
SCALE
  5
4C
102
{ACAD_REACTORS
330
42
102
}
330
42
100
AcDbScale
 70
     0
300
3/8" = 1'-0"
140
0.375
141
12.0
290
     0
  0
SCALE
  5
4D
102
{ACAD_REACTORS
330
42
102
}
330
42
100
AcDbScale
 70
     0
300
1/2" = 1'-0"
140
0.5
141
12.0
290
     0
  0
SCALE
  5
4E
102
{ACAD_REACTORS
330
42
102
}
330
42
100
AcDbScale
 70
     0
300
3/4" = 1'-0"
140
0.75
141
12.0
290
     0
  0
SCALE
  5
4F
102
{ACAD_REACTORS
330
42
102
}
330
42
100
AcDbScale
 70
     0
300
1" = 1'-0"
140
1.0
141
12.0
290
     0
  0
SCALE
  5
50
102
{ACAD_REACTORS
330
42
102
}
330
42
100
AcDbScale
 70
     0
300
1-1/2" = 1'-0"
140
1.5
141
12.0
290
     0
  0
SCALE
  5
51
102
{ACAD_REACTORS
330
42
102
}
330
42
100
AcDbScale
 70
     0
300
3" = 1'-0"
140
3.0
141
12.0
290
     0
  0
SCALE
  5
52
102
{ACAD_REACTORS
330
42
102
}
330
42
100
AcDbScale
 70
     0
300
6" = 1'-0"
140
6.0
141
12.0
290
     0
  0
SCALE
  5
53
102
{ACAD_REACTORS
330
42
102
}
330
42
100
AcDbScale
 70
     0
300
1'-0" = 1'-0"
140
12.0
141
12.0
290
     0
  0
TABLESTYLE
  5
65
102
{ACAD_XDICTIONARY
360
843
102
}
102
{ACAD_REACTORS
330
64
102
}
330
64
100
AcDbTableStyle
  3
Standard
 70
     0
 71
     0
 40
0.06
 41
0.06
280
     0
281
     0
  7
Standard
140
0.18
170
     2
 62
     0
 63
     7
283
     0
274
    -2
284
     1
 64
     0
275
    -2
285
     1
 65
     0
276
    -2
286
     1
 66
     0
277
    -2
287
     1
 67
     0
278
    -2
288
     1
 68
     0
279
    -2
289
     1
 69
     0
  7
Standard
140
0.25
170
     5
 62
     0
 63
     7
283
     0
274
    -2
284
     1
 64
     0
275
    -2
285
     1
 65
     0
276
    -2
286
     1
 66
     0
277
    -2
287
     1
 67
     0
278
    -2
288
     1
 68
     0
279
    -2
289
     1
 69
     0
  7
Standard
140
0.18
170
     5
 62
     0
 63
     7
283
     0
274
    -2
284
     1
 64
     0
275
    -2
285
     1
 65
     0
276
    -2
286
     1
 66
     0
277
    -2
287
     1
 67
     0
278
    -2
288
     1
 68
     0
279
    -2
289
     1
 69
     0
  0
VISUALSTYLE
  5
2F
102
{ACAD_XDICTIONARY
360
8D7
102
}
102
{ACAD_REACTORS
330
29
102
}
330
29
100
AcDbVisualStyle
  2
2dWireframe
 70
     4
 71
     0
 72
     2
 73
     0
 90
        0
 40
-0.6
 41
-30.0
 62
     5
 63
     7
 74
     1
 91
        4
 64
     7
 65
   257
 75
     1
175
     1
 42
1.0
 92
        0
 66
   257
 43
1.0
 76
     1
 77
     6
 78
     2
 67
     7
 79
     5
170
     0
171
     0
290
     0
174
     0
 93
        1
 44
0.0
173
     0
291
     0
 45
0.0
1001
ACAD
1000
AcDbSavedByObjectVersion
1070
     0
  0
VISUALSTYLE
  5
2E
102
{ACAD_XDICTIONARY
360
8D5
102
}
102
{ACAD_REACTORS
330
29
102
}
330
29
100
AcDbVisualStyle
  2
Basic
 70
     7
 71
     1
 72
     0
 73
     1
 90
        0
 40
-0.6
 41
-30.0
 62
     5
 63
     7
 74
     0
 91
        4
 64
     7
 65
   257
 75
     1
175
     1
 42
1.0
 92
        8
 66
     7
 43
1.0
 76
     1
 77
     6
 78
     2
 67
     7
 79
     5
170
     0
171
     0
290
     0
174
     0
 93
        1
 44
0.0
173
     0
291
     1
 45
0.0
1001
ACAD
1000
AcDbSavedByObjectVersion
1070
     0
  0
VISUALSTYLE
  5
35
102
{ACAD_XDICTIONARY
360
8E3
102
}
102
{ACAD_REACTORS
330
29
102
}
330
29
100
AcDbVisualStyle
  2
Brighten
 70
    12
 71
     2
 72
     2
 73
     0
 90
        0
 40
-0.6
 41
-30.0
 62
     5
 63
     7
 74
     1
 91
        4
 64
     7
 65
   257
 75
     1
175
     1
 42
1.0
 92
        8
 66
     7
 43
1.0
 76
     1
 77
     6
 78
     2
 67
     7
 79
     5
170
     0
171
     0
290
     0
174
     0
 93
        1
 44
50.0
173
     0
291
     1
 45
0.0
1001
ACAD
1000
AcDbSavedByObjectVersion
1070
     0
  0
VISUALSTYLE
  5
39
102
{ACAD_XDICTIONARY
360
8EB
102
}
102
{ACAD_REACTORS
330
29
102
}
330
29
100
AcDbVisualStyle
  2
ColorChange
 70
    16
 71
     2
 72
     2
 73
     3
 90
        0
 40
-0.6
 41
-30.0
 62
     5
 63
     8
 74
     1
 91
        4
 64
     7
 65
   257
 75
     1
175
     1
 42
1.0
 92
        8
 66
     8
 43
1.0
 76
     1
 77
     6
 78
     2
 67
     7
 79
     5
170
     0
171
     0
290
     0
174
     0
 93
        1
 44
0.0
173
     0
291
     1
 45
0.0
1001
ACAD
1000
AcDbSavedByObjectVersion
1070
     0
  0
VISUALSTYLE
  5
32
102
{ACAD_XDICTIONARY
360
8DD
102
}
102
{ACAD_REACTORS
330
29
102
}
330
29
100
AcDbVisualStyle
  2
Conceptual
 70
     9
 71
     3
 72
     2
 73
     0
 90
        0
 40
-0.6
 41
-30.0
 62
     5
 63
     7
 74
     2
 91
        2
 64
     7
 65
   257
 75
     1
175
     1
 42
179.0
 92
        8
 66
     7
 43
1.0
 76
     1
 77
     6
 78
     2
 67
     7
 79
     3
170
     0
171
     0
290
     0
174
     0
 93
        1
 44
0.0
173
     0
291
     0
 45
0.0
1001
ACAD
1000
AcDbSavedByObjectVersion
1070
     0
  0
VISUALSTYLE
  5
34
102
{ACAD_XDICTIONARY
360
8E1
102
}
102
{ACAD_REACTORS
330
29
102
}
330
29
100
AcDbVisualStyle
  2
Dim
 70
    11
 71
     2
 72
     2
 73
     0
 90
        0
 40
-0.6
 41
-30.0
 62
     5
 63
     7
 74
     1
 91
        4
 64
     7
 65
   257
 75
     1
175
     1
 42
1.0
 92
        8
 66
     7
 43
1.0
 76
     1
 77
     6
 78
     2
 67
     7
 79
     5
170
     0
171
     0
290
     0
174
     0
 93
        1
 44
-50.0
173
     0
291
     1
 45
0.0
1001
ACAD
1000
AcDbSavedByObjectVersion
1070
     0
  0
VISUALSTYLE
  5
41
102
{ACAD_XDICTIONARY
360
8FB
102
}
102
{ACAD_REACTORS
330
29
102
}
330
29
100
AcDbVisualStyle
  2
EdgeColorOff
 70
    22
 71
     2
 72
     2
 73
     0
 90
        0
 40
-0.6
 41
-30.0
 62
     5
 63
     7
 74
     1
 91
        4
 64
     7
 65
   257
 75
     1
175
     1
 42
1.0
 92
        8
 66
     7
 43
1.0
 76
     1
 77
     6
 78
     2
 67
     7
 79
     5
170
     0
171
     0
290
     0
174
     0
 93
        1
 44
0.0
173
     0
291
     1
 45
0.0
1001
ACAD
1000
AcDbSavedByObjectVersion
1070
     0
  0
VISUALSTYLE
  5
38
102
{ACAD_XDICTIONARY
360
8E9
102
}
102
{ACAD_REACTORS
330
29
102
}
330
29
100
AcDbVisualStyle
  2
Facepattern
 70
    15
 71
     2
 72
     2
 73
     0
 90
        0
 40
-0.6
 41
-30.0
 62
     5
 63
     7
 74
     1
 91
        4
 64
     7
 65
   257
 75
     1
175
     1
 42
1.0
 92
        8
 66
     7
 43
1.0
 76
     1
 77
     6
 78
     2
 67
     7
 79
     5
170
     0
171
     0
290
     0
174
     0
 93
        1
 44
0.0
173
     0
291
     1
 45
0.0
1001
ACAD
1000
AcDbSavedByObjectVersion
1070
     0
  0
VISUALSTYLE
  5
2A
102
{ACAD_XDICTIONARY
360
8CD
102
}
102
{ACAD_REACTORS
330
29
102
}
330
29
100
AcDbVisualStyle
  2
Flat
 70
     0
 71
     2
 72
     1
 73
     1
 90
        2
 40
-0.6
 41
30.0
 62
     5
 63
     7
 74
     0
 91
        0
 64
     7
 65
   257
 75
     1
175
     1
 42
1.0
 92
        8
 66
     7
 43
1.0
 76
     1
 77
     6
 78
     2
 67
     7
 79
     5
170
     0
171
     0
290
     0
174
     0
 93
       13
 44
0.0
173
     0
291
     1
 45
0.0
1001
ACAD
1000
AcDbSavedByObjectVersion
1070
     0
  0
VISUALSTYLE
  5
2B
102
{ACAD_XDICTIONARY
360
8CF
102
}
102
{ACAD_REACTORS
330
29
102
}
330
29
100
AcDbVisualStyle
  2
FlatWithEdges
 70
     1
 71
     2
 72
     1
 73
     1
 90
        2
 40
-0.6
 41
30.0
 62
     5
 63
     7
 74
     1
 91
        0
 64
     7
 65
   257
 75
     1
175
     1
 42
1.0
 92
        0
 66
   257
 43
1.0
 76
     1
 77
     6
 78
     2
 67
     7
 79
     5
170
     0
171
     0
290
     0
174
     0
 93
       13
 44
0.0
173
     0
291
     1
 45
0.0
1001
ACAD
1000
AcDbSavedByObjectVersion
1070
     0
  0
VISUALSTYLE
  5
2C
102
{ACAD_XDICTIONARY
360
8D1
102
}
102
{ACAD_REACTORS
330
29
102
}
330
29
100
AcDbVisualStyle
  2
Gouraud
 70
     2
 71
     2
 72
     2
 73
     1
 90
        2
 40
-0.6
 41
30.0
 62
     5
 63
     7
 74
     0
 91
        0
 64
     7
 65
   257
 75
     1
175
     1
 42
1.0
 92
        0
 66
     7
 43
1.0
 76
     1
 77
     6
 78
     2
 67
     7
 79
     5
170
     0
171
     0
290
     0
174
     0
 93
       13
 44
0.0
173
     0
291
     1
 45
0.0
1001
ACAD
1000
AcDbSavedByObjectVersion
1070
     0
  0
VISUALSTYLE
  5
2D
102
{ACAD_XDICTIONARY
360
8D3
102
}
102
{ACAD_REACTORS
330
29
102
}
330
29
100
AcDbVisualStyle
  2
GouraudWithEdges
 70
     3
 71
     2
 72
     2
 73
     1
 90
        2
 40
-0.6
 41
30.0
 62
     5
 63
     7
 74
     1
 91
        0
 64
     7
 65
   257
 75
     1
175
     1
 42
1.0
 92
        0
 66
   257
 43
1.0
 76
     1
 77
     6
 78
     2
 67
     7
 79
     5
170
     0
171
     0
290
     0
174
     0
 93
       13
 44
0.0
173
     0
291
     1
 45
0.0
1001
ACAD
1000
AcDbSavedByObjectVersion
1070
     0
  0
VISUALSTYLE
  5
31
102
{ACAD_XDICTIONARY
360
8DB
102
}
102
{ACAD_REACTORS
330
29
102
}
330
29
100
AcDbVisualStyle
  2
Hidden
 70
     6
 71
     1
 72
     2
 73
     2
 90
        0
 40
-0.6
 41
-30.0
 62
     5
 63
     7
 74
     2
 91
        2
 64
     7
 65
   257
 75
     2
175
     1
 42
40.0
 92
        0
 66
   257
 43
1.0
 76
     1
 77
     6
 78
     2
 67
     7
 79
     3
170
     0
171
     0
290
     0
174
     0
 93
        1
 44
0.0
173
     0
291
     0
 45
0.0
1001
ACAD
1000
AcDbSavedByObjectVersion
1070
     0
  0
VISUALSTYLE
  5
3F
102
{ACAD_XDICTIONARY
360
8F7
102
}
102
{ACAD_REACTORS
330
29
102
}
330
29
100
AcDbVisualStyle
  2
JitterOff
 70
    20
 71
     2
 72
     2
 73
     0
 90
        0
 40
-0.6
 41
-30.0
 62
     5
 63
     7
 74
     1
 91
        4
 64
     7
 65
   257
 75
     1
175
     1
 42
1.0
 92
       10
 66
     7
 43
1.0
 76
     1
 77
     6
 78
     2
 67
     7
 79
     5
170
     0
171
     0
290
     0
174
     0
 93
        1
 44
0.0
173
     0
291
     1
 45
0.0
1001
ACAD
1000
AcDbSavedByObjectVersion
1070
     0
  0
VISUALSTYLE
  5
37
102
{ACAD_XDICTIONARY
360
8E7
102
}
102
{ACAD_REACTORS
330
29
102
}
330
29
100
AcDbVisualStyle
  2
Linepattern
 70
    14
 71
     2
 72
     2
 73
     0
 90
        0
 40
-0.6
 41
-30.0
 62
     5
 63
     7
 74
     1
 91
        4
 64
     7
 65
   257
 75
     7
175
     7
 42
1.0
 92
        8
 66
     7
 43
1.0
 76
     1
 77
     6
 78
     2
 67
     7
 79
     5
170
     0
171
     0
290
     0
174
     0
 93
        1
 44
0.0
173
     0
291
     1
 45
0.0
1001
ACAD
1000
AcDbSavedByObjectVersion
1070
     0
  0
VISUALSTYLE
  5
40
102
{ACAD_XDICTIONARY
360
8F9
102
}
102
{ACAD_REACTORS
330
29
102
}
330
29
100
AcDbVisualStyle
  2
OverhangOff
 70
    21
 71
     2
 72
     2
 73
     0
 90
        0
 40
-0.6
 41
-30.0
 62
     5
 63
     7
 74
     1
 91
        4
 64
     7
 65
   257
 75
     1
175
     1
 42
1.0
 92
        9
 66
     7
 43
1.0
 76
     1
 77
     6
 78
     2
 67
     7
 79
     5
170
     0
171
     0
290
     0
174
     0
 93
        1
 44
0.0
173
     0
291
     1
 45
0.0
1001
ACAD
1000
AcDbSavedByObjectVersion
1070
     0
  0
VISUALSTYLE
  5
33
102
{ACAD_XDICTIONARY
360
8DF
102
}
102
{ACAD_REACTORS
330
29
102
}
330
29
100
AcDbVisualStyle
  2
Realistic
 70
     8
 71
     2
 72
     2
 73
     0
 90
        2
 40
-0.6
 41
30.0
 62
     5
 63
     7
 74
     0
 91
        0
 64
     7
 65
   257
 75
     1
175
     1
 42
1.0
 92
        8
 66
   257
 43
1.0
 76
     1
 77
     6
 78
     2
 67
     7
 79
     3
170
     0
171
     0
290
     0
174
     0
 93
       13
 44
0.0
173
     0
291
     0
 45
0.0
1001
ACAD
1000
AcDbSavedByObjectVersion
1070
     0
  0
VISUALSTYLE
  5
3E
102
{ACAD_XDICTIONARY
360
8F5
102
}
102
{ACAD_REACTORS
330
29
102
}
330
29
100
AcDbVisualStyle
  2
Shaded
 70
    27
 71
     2
 72
     2
 73
     1
 90
        2
 40
-0.6
 41
30.0
 62
     5
 63
     7
 74
     0
 91
        4
 64
     7
 65
   257
 75
     1
175
     1
 42
1.0
 92
        8
 66
   257
 43
1.0
 76
     1
 77
     6
 78
     2
 67
     8
 79
     3
170
     0
171
     0
290
     0
174
     0
 93
        5
 44
0.0
173
     0
291
     0
 45
0.0
1001
ACAD
1000
AcDbSavedByObjectVersion
1070
     0
  0
VISUALSTYLE
  5
3D
102
{ACAD_XDICTIONARY
360
8F3
102
}
102
{ACAD_REACTORS
330
29
102
}
330
29
100
AcDbVisualStyle
  2
Shaded with edges
 70
    26
 71
     2
 72
     2
 73
     1
 90
        2
 40
-0.6
 41
30.0
 62
     5
 63
     7
 74
     1
 91
       10
 64
     7
 65
   257
 75
     2
175
     1
 42
1.0
 92
        8
 66
   257
 43
1.0
 76
     1
 77
     6
 78
     2
 67
     7
 79
     3
170
     0
171
     0
290
     0
174
     0
 93
        5
 44
0.0
173
     0
291
     0
 45
0.0
1001
ACAD
1000
AcDbSavedByObjectVersion
1070
     0
  0
VISUALSTYLE
  5
3A
102
{ACAD_XDICTIONARY
360
8ED
102
}
102
{ACAD_REACTORS
330
29
102
}
330
29
100
AcDbVisualStyle
  2
Shades of Gray
 70
    23
 71
     2
 72
     2
 73
     3
 90
        0
 40
-0.6
 41
-30.0
 62
     5
 63
     7
 74
     2
 91
        2
 64
     7
 65
     7
 75
     1
175
     1
 42
40.0
 92
        8
 66
     7
 43
1.0
 76
     1
 77
     6
 78
     2
 67
     7
 79
     3
170
     0
171
     0
290
     0
174
     0
 93
        1
 44
0.0
173
     0
291
     0
 45
0.0
1001
ACAD
1000
AcDbSavedByObjectVersion
1070
     0
  0
VISUALSTYLE
  5
3B
102
{ACAD_XDICTIONARY
360
8EF
102
}
102
{ACAD_REACTORS
330
29
102
}
330
29
100
AcDbVisualStyle
  2
Sketchy
 70
    24
 71
     1
 72
     2
 73
     2
 90
        0
 40
-0.6
 41
-30.0
 62
     5
 63
     7
 74
     2
 91
        2
 64
     7
 65
     7
 75
     1
175
     1
 42
40.0
 92
       11
 66
     7
 43
1.0
 76
     1
 77
     6
 78
     2
 67
     7
 79
     6
170
     0
171
     0
290
     0
174
     0
 93
        1
 44
0.0
173
     0
291
     0
 45
0.0
1001
ACAD
1000
AcDbSavedByObjectVersion
1070
     0
  0
VISUALSTYLE
  5
36
102
{ACAD_XDICTIONARY
360
8E5
102
}
102
{ACAD_REACTORS
330
29
102
}
330
29
100
AcDbVisualStyle
  2
Thicken
 70
    13
 71
     2
 72
     2
 73
     0
 90
        0
 40
-0.6
 41
-30.0
 62
     5
 63
     7
 74
     1
 91
        4
 64
     7
 65
   257
 75
     1
175
     1
 42
1.0
 92
       12
 66
     7
 43
1.0
 76
     1
 77
     6
 78
     2
 67
     7
 79
     5
170
     0
171
     0
290
     0
174
     0
 93
        1
 44
0.0
173
     0
291
     1
 45
0.0
1001
ACAD
1000
AcDbSavedByObjectVersion
1070
     0
  0
VISUALSTYLE
  5
30
102
{ACAD_XDICTIONARY
360
8D9
102
}
102
{ACAD_REACTORS
330
29
102
}
330
29
100
AcDbVisualStyle
  2
Wireframe
 70
     5
 71
     0
 72
     2
 73
     0
 90
        0
 40
-0.6
 41
-30.0
 62
     5
 63
     7
 74
     1
 91
        4
 64
     7
 65
   257
 75
     1
175
     1
 42
1.0
 92
        0
 66
   257
 43
1.0
 76
     1
 77
     6
 78
     2
 67
     7
 79
     3
170
     0
171
     0
290
     0
174
     0
 93
        1
 44
0.0
173
     0
291
     0
 45
0.0
1001
ACAD
1000
AcDbSavedByObjectVersion
1070
     0
  0
VISUALSTYLE
  5
3C
102
{ACAD_XDICTIONARY
360
8F1
102
}
102
{ACAD_REACTORS
330
29
102
}
330
29
100
AcDbVisualStyle
  2
X-Ray
 70
    25
 71
     2
 72
     2
 73
     1
 90
        1
 40
0.5
 41
-30.0
 62
     5
 63
     7
 74
     1
 91
        0
 64
     7
 65
   257
 75
     1
175
     1
 42
1.0
 92
        8
 66
     7
 43
1.0
 76
     1
 77
     6
 78
     2
 67
     7
 79
     3
170
     0
171
     0
290
     0
174
     0
 93
       13
 44
0.0
173
     0
291
     0
 45
0.0
1001
ACAD
1000
AcDbSavedByObjectVersion
1070
     0
  0
DICTIONARYVAR
  5
89E
102
{ACAD_REACTORS
330
89A
102
}
330
89A
100
DictionaryVariables
280
     0
  1
1:1
  0
DICTIONARYVAR
  5
89C
102
{ACAD_REACTORS
330
89A
102
}
330
89A
100
DictionaryVariables
280
     0
  1
STANDARD
  0
DICTIONARYVAR
  5
89B
102
{ACAD_REACTORS
330
89A
102
}
330
89A
100
DictionaryVariables
280
     0
  1
STANDARD
  0
DICTIONARYVAR
  5
8A5
102
{ACAD_REACTORS
330
89A
102
}
330
89A
100
DictionaryVariables
280
     0
  1
1
  0
DICTIONARYVAR
  5
8A4
102
{ACAD_REACTORS
330
89A
102
}
330
89A
100
DictionaryVariables
280
     0
  1
1
  0
DICTIONARYVAR
  5
8A3
102
{ACAD_REACTORS
330
89A
102
}
330
89A
100
DictionaryVariables
280
     0
  1
0
  0
DICTIONARYVAR
  5
8A0
102
{ACAD_REACTORS
330
89A
102
}
330
89A
100
DictionaryVariables
280
     0
  1
0
  0
DICTIONARYVAR
  5
8A1
102
{ACAD_REACTORS
330
89A
102
}
330
89A
100
DictionaryVariables
280
     0
  1
0
  0
DICTIONARYVAR
  5
89F
102
{ACAD_REACTORS
330
89A
102
}
330
89A
100
DictionaryVariables
280
     0
  1
2
  0
DICTIONARYVAR
  5
89D
102
{ACAD_REACTORS
330
89A
102
}
330
89A
100
DictionaryVariables
280
     0
  1
1
  0
DICTIONARYVAR
  5
8A2
102
{ACAD_REACTORS
330
89A
102
}
330
89A
100
DictionaryVariables
280
     0
  1
127
  0
DICTIONARYVAR
  5
8BA
102
{ACAD_REACTORS
330
89A
102
}
330
89A
100
DictionaryVariables
280
     0
  1
2
  0
DICTIONARY
  5
8FE
330
6B
100
AcDbDictionary
280
     1
281
     1
  3
ACAD_XREC_ROUNDTRIP
360
8FF
  0
DICTIONARY
  5
902
330
73
100
AcDbDictionary
280
     1
281
     1
  3
ACAD_XREC_ROUNDTRIP
360
903
  0
DICTIONARY
  5
900
330
6F
100
AcDbDictionary
280
     1
281
     1
  3
ACAD_XREC_ROUNDTRIP
360
901
  0
DICTIONARY
  5
1A
330
19
100
AcDbDictionary
280
     1
281
     1
  3
ACAD_XREC_ROUNDTRIP
360
8CB
  3
BUMPTILE
360
1C
  3
DIFFUSETILE
360
1B
  3
OPACITYTILE
360
1F
  3
REFLECTIONTILE
360
1E
  3
REFRACTIONTILE
360
20
  3
SPECULARTILE
360
1D
  0
DICTIONARY
  5
12
330
11
100
AcDbDictionary
280
     1
281
     1
  3
ACAD_XREC_ROUNDTRIP
360
8CA
  3
BUMPTILE
360
14
  3
DIFFUSETILE
360
13
  3
OPACITYTILE
360
17
  3
REFLECTIONTILE
360
16
  3
REFRACTIONTILE
360
18
  3
SPECULARTILE
360
15
  0
DICTIONARY
  5
22
330
21
100
AcDbDictionary
280
     1
281
     1
  3
ACAD_XREC_ROUNDTRIP
360
8CC
  3
BUMPTILE
360
24
  3
DIFFUSETILE
360
23
  3
OPACITYTILE
360
27
  3
REFLECTIONTILE
360
26
  3
REFRACTIONTILE
360
28
  3
SPECULARTILE
360
25
  0
DICTIONARY
  5
843
330
65
100
AcDbDictionary
280
     1
281
     1
  3
ACAD_ROUNDTRIP_2008_TABLESTYLE_CELLSTYLEMAP
360
8BB
  3
ACAD_XREC_ROUNDTRIP
360
8FD
  0
DICTIONARY
  5
8D7
330
2F
100
AcDbDictionary
280
     1
281
     1
  3
ACAD_XREC_ROUNDTRIP
360
8D8
  0
DICTIONARY
  5
8D5
330
2E
100
AcDbDictionary
280
     1
281
     1
  3
ACAD_XREC_ROUNDTRIP
360
8D6
  0
DICTIONARY
  5
8E3
330
35
100
AcDbDictionary
280
     1
281
     1
  3
ACAD_XREC_ROUNDTRIP
360
8E4
  0
DICTIONARY
  5
8EB
330
39
100
AcDbDictionary
280
     1
281
     1
  3
ACAD_XREC_ROUNDTRIP
360
8EC
  0
DICTIONARY
  5
8DD
330
32
100
AcDbDictionary
280
     1
281
     1
  3
ACAD_XREC_ROUNDTRIP
360
8DE
  0
DICTIONARY
  5
8E1
330
34
100
AcDbDictionary
280
     1
281
     1
  3
ACAD_XREC_ROUNDTRIP
360
8E2
  0
DICTIONARY
  5
8FB
330
41
100
AcDbDictionary
280
     1
281
     1
  3
ACAD_XREC_ROUNDTRIP
360
8FC
  0
DICTIONARY
  5
8E9
330
38
100
AcDbDictionary
280
     1
281
     1
  3
ACAD_XREC_ROUNDTRIP
360
8EA
  0
DICTIONARY
  5
8CD
330
2A
100
AcDbDictionary
280
     1
281
     1
  3
ACAD_XREC_ROUNDTRIP
360
8CE
  0
DICTIONARY
  5
8CF
330
2B
100
AcDbDictionary
280
     1
281
     1
  3
ACAD_XREC_ROUNDTRIP
360
8D0
  0
DICTIONARY
  5
8D1
330
2C
100
AcDbDictionary
280
     1
281
     1
  3
ACAD_XREC_ROUNDTRIP
360
8D2
  0
DICTIONARY
  5
8D3
330
2D
100
AcDbDictionary
280
     1
281
     1
  3
ACAD_XREC_ROUNDTRIP
360
8D4
  0
DICTIONARY
  5
8DB
330
31
100
AcDbDictionary
280
     1
281
     1
  3
ACAD_XREC_ROUNDTRIP
360
8DC
  0
DICTIONARY
  5
8F7
330
3F
100
AcDbDictionary
280
     1
281
     1
  3
ACAD_XREC_ROUNDTRIP
360
8F8
  0
DICTIONARY
  5
8E7
330
37
100
AcDbDictionary
280
     1
281
     1
  3
ACAD_XREC_ROUNDTRIP
360
8E8
  0
DICTIONARY
  5
8F9
330
40
100
AcDbDictionary
280
     1
281
     1
  3
ACAD_XREC_ROUNDTRIP
360
8FA
  0
DICTIONARY
  5
8DF
330
33
100
AcDbDictionary
280
     1
281
     1
  3
ACAD_XREC_ROUNDTRIP
360
8E0
  0
DICTIONARY
  5
8F5
330
3E
100
AcDbDictionary
280
     1
281
     1
  3
ACAD_XREC_ROUNDTRIP
360
8F6
  0
DICTIONARY
  5
8F3
330
3D
100
AcDbDictionary
280
     1
281
     1
  3
ACAD_XREC_ROUNDTRIP
360
8F4
  0
DICTIONARY
  5
8ED
330
3A
100
AcDbDictionary
280
     1
281
     1
  3
ACAD_XREC_ROUNDTRIP
360
8EE
  0
DICTIONARY
  5
8EF
330
3B
100
AcDbDictionary
280
     1
281
     1
  3
ACAD_XREC_ROUNDTRIP
360
8F0
  0
DICTIONARY
  5
8E5
330
36
100
AcDbDictionary
280
     1
281
     1
  3
ACAD_XREC_ROUNDTRIP
360
8E6
  0
DICTIONARY
  5
8D9
330
30
100
AcDbDictionary
280
     1
281
     1
  3
ACAD_XREC_ROUNDTRIP
360
8DA
  0
DICTIONARY
  5
8F1
330
3C
100
AcDbDictionary
280
     1
281
     1
  3
ACAD_XREC_ROUNDTRIP
360
8F2
  0
XRECORD
  5
8FF
102
{ACAD_REACTORS
330
8FE
102
}
330
8FE
100
AcDbXrecord
280
     1
102
SHADEPLOT
 70
     0
102
SHADEPLOTRESLEVEL
 70
     2
102
SHADEPLOTCUSTOMDPI
 70
   300
  0
XRECORD
  5
903
102
{ACAD_REACTORS
330
902
102
}
330
902
100
AcDbXrecord
280
     1
102
SHADEPLOT
 70
     0
102
SHADEPLOTRESLEVEL
 70
     2
102
SHADEPLOTCUSTOMDPI
 70
   300
  0
XRECORD
  5
901
102
{ACAD_REACTORS
330
900
102
}
330
900
100
AcDbXrecord
280
     1
102
SHADEPLOT
 70
     0
102
SHADEPLOTRESLEVEL
 70
     2
102
SHADEPLOTCUSTOMDPI
 70
   300
  0
XRECORD
  5
8CB
102
{ACAD_REACTORS
330
1A
102
}
330
1A
100
AcDbXrecord
280
     1
102
MATERIAL
148
0.0
149
0.0
149
0.0
 93
        0
 94
      127
282
     0
 72
     0
 77
     0
171
     0
175
     0
179
     0
273
     0
  0
XRECORD
  5
1C
102
{ACAD_REACTORS
330
1A
102
}
330
1A
100
AcDbXrecord
280
     1
270
     1
271
     1
  0
XRECORD
  5
1B
102
{ACAD_REACTORS
330
1A
102
}
330
1A
100
AcDbXrecord
280
     1
270
     1
271
     1
  0
XRECORD
  5
1F
102
{ACAD_REACTORS
330
1A
102
}
330
1A
100
AcDbXrecord
280
     1
270
     1
271
     1
  0
XRECORD
  5
1E
102
{ACAD_REACTORS
330
1A
102
}
330
1A
100
AcDbXrecord
280
     1
270
     1
271
     1
  0
XRECORD
  5
20
102
{ACAD_REACTORS
330
1A
102
}
330
1A
100
AcDbXrecord
280
     1
270
     1
271
     1
  0
XRECORD
  5
1D
102
{ACAD_REACTORS
330
1A
102
}
330
1A
100
AcDbXrecord
280
     1
270
     1
271
     1
  0
XRECORD
  5
8CA
102
{ACAD_REACTORS
330
12
102
}
330
12
100
AcDbXrecord
280
     1
102
MATERIAL
148
0.0
149
0.0
149
0.0
 93
        0
 94
      127
282
     0
 72
     0
 77
     0
171
     0
175
     0
179
     0
273
     0
  0
XRECORD
  5
14
102
{ACAD_REACTORS
330
12
102
}
330
12
100
AcDbXrecord
280
     1
270
     1
271
     1
  0
XRECORD
  5
13
102
{ACAD_REACTORS
330
12
102
}
330
12
100
AcDbXrecord
280
     1
270
     1
271
     1
  0
XRECORD
  5
17
102
{ACAD_REACTORS
330
12
102
}
330
12
100
AcDbXrecord
280
     1
270
     1
271
     1
  0
XRECORD
  5
16
102
{ACAD_REACTORS
330
12
102
}
330
12
100
AcDbXrecord
280
     1
270
     1
271
     1
  0
XRECORD
  5
18
102
{ACAD_REACTORS
330
12
102
}
330
12
100
AcDbXrecord
280
     1
270
     1
271
     1
  0
XRECORD
  5
15
102
{ACAD_REACTORS
330
12
102
}
330
12
100
AcDbXrecord
280
     1
270
     1
271
     1
  0
XRECORD
  5
8CC
102
{ACAD_REACTORS
330
22
102
}
330
22
100
AcDbXrecord
280
     1
102
MATERIAL
148
0.0
149
0.0
149
0.0
 93
        0
 94
      127
282
     0
 72
     0
 77
     0
171
     0
175
     0
179
     0
273
     0
  0
XRECORD
  5
24
102
{ACAD_REACTORS
330
22
102
}
330
22
100
AcDbXrecord
280
     1
270
     1
271
     1
  0
XRECORD
  5
23
102
{ACAD_REACTORS
330
22
102
}
330
22
100
AcDbXrecord
280
     1
270
     1
271
     1
  0
XRECORD
  5
27
102
{ACAD_REACTORS
330
22
102
}
330
22
100
AcDbXrecord
280
     1
270
     1
271
     1
  0
XRECORD
  5
26
102
{ACAD_REACTORS
330
22
102
}
330
22
100
AcDbXrecord
280
     1
270
     1
271
     1
  0
XRECORD
  5
28
102
{ACAD_REACTORS
330
22
102
}
330
22
100
AcDbXrecord
280
     1
270
     1
271
     1
  0
XRECORD
  5
25
102
{ACAD_REACTORS
330
22
102
}
330
22
100
AcDbXrecord
280
     1
270
     1
271
     1
  0
CELLSTYLEMAP
  5
8BB
102
{ACAD_REACTORS
330
843
102
}
330
843
100
AcDbCellStyleMap
 90
        3
300
CELLSTYLE
  1
TABLEFORMAT_BEGIN
 90
        5
170
     1
 91
        0
 92
    32768
 62
   257
 93
        1
300
CONTENTFORMAT
  1
CONTENTFORMAT_BEGIN
 90
        0
 91
        0
 92
      512
 93
        0
300

 40
0.0
140
1.0
 94
        5
 62
     0
340
55
144
0.25
309
CONTENTFORMAT_END
171
     0
 94
        0
309
TABLEFORMAT_END
  1
CELLSTYLE_BEGIN
 90
        1
 91
        1
300
_TITLE
309
CELLSTYLE_END
300
CELLSTYLE
  1
TABLEFORMAT_BEGIN
 90
        5
170
     1
 91
        0
 92
        0
 62
   257
 93
        1
300
CONTENTFORMAT
  1
CONTENTFORMAT_BEGIN
 90
        0
 91
        0
 92
      512
 93
        0
300

 40
0.0
140
1.0
 94
        5
 62
     0
340
55
144
0.18
309
CONTENTFORMAT_END
171
     0
 94
        0
309
TABLEFORMAT_END
  1
CELLSTYLE_BEGIN
 90
        2
 91
        1
300
_HEADER
309
CELLSTYLE_END
300
CELLSTYLE
  1
TABLEFORMAT_BEGIN
 90
        5
170
     1
 91
        0
 92
        0
 62
   257
 93
        1
300
CONTENTFORMAT
  1
CONTENTFORMAT_BEGIN
 90
        0
 91
        0
 92
      512
 93
        0
300

 40
0.0
140
1.0
 94
        2
 62
     0
340
55
144
0.18
309
CONTENTFORMAT_END
171
     0
 94
        0
309
TABLEFORMAT_END
  1
CELLSTYLE_BEGIN
 90
        3
 91
        2
300
_DATA
309
CELLSTYLE_END
  0
XRECORD
  5
8FD
102
{ACAD_REACTORS
330
843
102
}
330
843
100
AcDbXrecord
280
     1
102
ACAD_ROUNDTRIP_PRE2007_TABLESTYLE
 90
      512
 91
        0
  1

 92
      512
 93
        0
  2

 94
      512
 95
        0
  3

  0
XRECORD
  5
8D8
102
{ACAD_REACTORS
330
8D7
102
}
330
8D7
100
AcDbXrecord
280
     1
102
RTVSPropertyOp0
 70
     1
102
RTVSPropertyOp1
 70
     1
102
RTVSPropertyOp2
 70
     1
102
RTVSPropertyOp3
 70
     1
102
RTVSPropertyOp4
 70
     1
102
RTVSPropertyOp5
 70
     1
102
RTVSPropertyOp6
 70
     1
102
RTVSPropertyOp7
 70
     1
102
RTVSPropertyOp8
 70
     1
102
RTVSPropertyOp9
 70
     1
102
RTVSPropertyOp10
 70
     1
102
RTVSPropertyOp11
 70
     1
102
RTVSPropertyOp12
 70
     1
102
RTVSPropertyOp13
 70
     1
102
RTVSPropertyOp14
 70
     1
102
RTVSPropertyOp15
 70
     1
102
RTVSPropertyOp16
 70
     1
102
RTVSPropertyOp17
 70
     1
102
RTVSPropertyOp18
 70
     1
102
RTVSPropertyOp19
 70
     1
102
RTVSPropertyOp20
 70
     1
102
RTVSPropertyOp21
 70
     1
102
RTVSPropertyOp22
 70
     1
102
RTVSPropertyOp23
 70
     1
102
RTVSPropertyOp24
 70
     1
102
RTVSPropertyOp25
 70
     1
102
RTVSPropertyOp26
 70
     1
102
RTVSPropertyOp27
 70
     1
102
RTVSPropertyOp28
 70
     1
102
RTVSPropertyOp29
 70
     1
102
RTVSPropertyOp30
 70
     1
102
RTVSPropertyOp31
 70
     1
102
RTVSPropertyOp32
 70
     1
  0
XRECORD
  5
8D6
102
{ACAD_REACTORS
330
8D5
102
}
330
8D5
100
AcDbXrecord
280
     1
102
RTVSPropertyOp0
 70
     1
102
RTVSPropertyOp1
 70
     1
102
RTVSPropertyOp2
 70
     1
102
RTVSPropertyOp3
 70
     1
102
RTVSPropertyOp4
 70
     1
102
RTVSPropertyOp5
 70
     1
102
RTVSPropertyOp6
 70
     1
102
RTVSPropertyOp7
 70
     1
102
RTVSPropertyOp8
 70
     1
102
RTVSPropertyOp9
 70
     1
102
RTVSPropertyOp10
 70
     1
102
RTVSPropertyOp11
 70
     1
102
RTVSPropertyOp12
 70
     1
102
RTVSPropertyOp13
 70
     1
102
RTVSPropertyOp14
 70
     1
102
RTVSPropertyOp15
 70
     1
102
RTVSPropertyOp16
 70
     1
102
RTVSPropertyOp17
 70
     1
102
RTVSPropertyOp18
 70
     1
102
RTVSPropertyOp19
 70
     1
102
RTVSPropertyOp20
 70
     1
102
RTVSPropertyOp21
 70
     1
102
RTVSPropertyOp22
 70
     1
102
RTVSPropertyOp23
 70
     1
102
RTVSPropertyOp24
 70
     1
102
RTVSPropertyOp25
 70
     1
102
RTVSPropertyOp26
 70
     1
102
RTVSPropertyOp27
 70
     1
102
RTVSPropertyOp28
 70
     1
102
RTVSPropertyOp29
 70
     1
102
RTVSPropertyOp30
 70
     1
102
RTVSPropertyOp31
 70
     1
102
RTVSPropertyOp32
 70
     1
  0
XRECORD
  5
8E4
102
{ACAD_REACTORS
330
8E3
102
}
330
8E3
100
AcDbXrecord
280
     1
102
RTVSPropertyOp0
 70
     1
102
RTVSPropertyOp1
 70
     1
102
RTVSPropertyOp2
 70
     1
102
RTVSPropertyOp3
 70
     1
102
RTVSPropertyOp4
 70
     1
102
RTVSPropertyOp5
 70
     1
102
RTVSPropertyOp6
 70
     1
102
RTVSPropertyOp7
 70
     1
102
RTVSPropertyOp8
 70
     1
102
RTVSPropertyOp9
 70
     1
102
RTVSPropertyOp10
 70
     1
102
RTVSPropertyOp11
 70
     1
102
RTVSPropertyOp12
 70
     1
102
RTVSPropertyOp13
 70
     1
102
RTVSPropertyOp14
 70
     1
102
RTVSPropertyOp15
 70
     1
102
RTVSPropertyOp16
 70
     1
102
RTVSPropertyOp17
 70
     1
102
RTVSPropertyOp18
 70
     1
102
RTVSPropertyOp19
 70
     1
102
RTVSPropertyOp20
 70
     1
102
RTVSPropertyOp21
 70
     1
102
RTVSPropertyOp22
 70
     1
102
RTVSPropertyOp23
 70
     1
102
RTVSPropertyOp24
 70
     1
102
RTVSPropertyOp25
 70
     1
102
RTVSPropertyOp26
 70
     1
102
RTVSPropertyOp27
 70
     1
102
RTVSPropertyOp28
 70
     1
102
RTVSPropertyOp29
 70
     1
102
RTVSPropertyOp30
 70
     1
102
RTVSPropertyOp31
 70
     1
102
RTVSPropertyOp32
 70
     1
  0
XRECORD
  5
8EC
102
{ACAD_REACTORS
330
8EB
102
}
330
8EB
100
AcDbXrecord
280
     1
102
RTVSPropertyOp0
 70
     1
102
RTVSPropertyOp1
 70
     1
102
RTVSPropertyOp2
 70
     1
102
RTVSPropertyOp3
 70
     1
102
RTVSPropertyOp4
 70
     1
102
RTVSPropertyOp5
 70
     1
102
RTVSPropertyOp6
 70
     1
102
RTVSPropertyOp7
 70
     1
102
RTVSPropertyOp8
 70
     1
102
RTVSPropertyOp9
 70
     1
102
RTVSPropertyOp10
 70
     1
102
RTVSPropertyOp11
 70
     1
102
RTVSPropertyOp12
 70
     1
102
RTVSPropertyOp13
 70
     1
102
RTVSPropertyOp14
 70
     1
102
RTVSPropertyOp15
 70
     1
102
RTVSPropertyOp16
 70
     1
102
RTVSPropertyOp17
 70
     1
102
RTVSPropertyOp18
 70
     1
102
RTVSPropertyOp19
 70
     1
102
RTVSPropertyOp20
 70
     1
102
RTVSPropertyOp21
 70
     1
102
RTVSPropertyOp22
 70
     1
102
RTVSPropertyOp23
 70
     1
102
RTVSPropertyOp24
 70
     1
102
RTVSPropertyOp25
 70
     1
102
RTVSPropertyOp26
 70
     1
102
RTVSPropertyOp27
 70
     1
102
RTVSPropertyOp28
 70
     1
102
RTVSPropertyOp29
 70
     1
102
RTVSPropertyOp30
 70
     1
102
RTVSPropertyOp31
 70
     1
102
RTVSPropertyOp32
 70
     1
  0
XRECORD
  5
8DE
102
{ACAD_REACTORS
330
8DD
102
}
330
8DD
100
AcDbXrecord
280
     1
102
RTVSPropertyOp0
 70
     1
102
RTVSPropertyOp1
 70
     1
102
RTVSPropertyOp2
 70
     1
102
RTVSPropertyOp3
 70
     1
102
RTVSPropertyOp4
 70
     1
102
RTVSPropertyOp5
 70
     1
102
RTVSPropertyOp6
 70
     1
102
RTVSPropertyOp7
 70
     1
102
RTVSPropertyOp8
 70
     1
102
RTVSPropertyOp9
 70
     1
102
RTVSPropertyOp10
 70
     1
102
RTVSPropertyOp11
 70
     1
102
RTVSPropertyOp12
 70
     1
102
RTVSPropertyOp13
 70
     1
102
RTVSPropertyOp14
 70
     1
102
RTVSPropertyOp15
 70
     1
102
RTVSPropertyOp16
 70
     1
102
RTVSPropertyOp17
 70
     1
102
RTVSPropertyOp18
 70
     1
102
RTVSPropertyOp19
 70
     1
102
RTVSPropertyOp20
 70
     1
102
RTVSPropertyOp21
 70
     1
102
RTVSPropertyOp22
 70
     1
102
RTVSPropertyOp23
 70
     1
102
RTVSPropertyOp24
 70
     1
102
RTVSPropertyOp25
 70
     1
102
RTVSPropertyOp26
 70
     1
102
RTVSPropertyOp27
 70
     1
102
RTVSPropertyOp28
 70
     1
102
RTVSPropertyOp29
 70
     1
102
RTVSPropertyOp30
 70
     1
102
RTVSPropertyOp31
 70
     1
102
RTVSPropertyOp32
 70
     1
  0
XRECORD
  5
8E2
102
{ACAD_REACTORS
330
8E1
102
}
330
8E1
100
AcDbXrecord
280
     1
102
RTVSPropertyOp0
 70
     1
102
RTVSPropertyOp1
 70
     1
102
RTVSPropertyOp2
 70
     1
102
RTVSPropertyOp3
 70
     1
102
RTVSPropertyOp4
 70
     1
102
RTVSPropertyOp5
 70
     1
102
RTVSPropertyOp6
 70
     1
102
RTVSPropertyOp7
 70
     1
102
RTVSPropertyOp8
 70
     1
102
RTVSPropertyOp9
 70
     1
102
RTVSPropertyOp10
 70
     1
102
RTVSPropertyOp11
 70
     1
102
RTVSPropertyOp12
 70
     1
102
RTVSPropertyOp13
 70
     1
102
RTVSPropertyOp14
 70
     1
102
RTVSPropertyOp15
 70
     1
102
RTVSPropertyOp16
 70
     1
102
RTVSPropertyOp17
 70
     1
102
RTVSPropertyOp18
 70
     1
102
RTVSPropertyOp19
 70
     1
102
RTVSPropertyOp20
 70
     1
102
RTVSPropertyOp21
 70
     1
102
RTVSPropertyOp22
 70
     1
102
RTVSPropertyOp23
 70
     1
102
RTVSPropertyOp24
 70
     1
102
RTVSPropertyOp25
 70
     1
102
RTVSPropertyOp26
 70
     1
102
RTVSPropertyOp27
 70
     1
102
RTVSPropertyOp28
 70
     1
102
RTVSPropertyOp29
 70
     1
102
RTVSPropertyOp30
 70
     1
102
RTVSPropertyOp31
 70
     1
102
RTVSPropertyOp32
 70
     1
  0
XRECORD
  5
8FC
102
{ACAD_REACTORS
330
8FB
102
}
330
8FB
100
AcDbXrecord
280
     1
102
RTVSPropertyOp0
 70
     0
102
RTVSPropertyOp1
 70
     0
102
RTVSPropertyOp2
 70
     0
102
RTVSPropertyOp3
 70
     0
102
RTVSPropertyOp4
 70
     0
102
RTVSPropertyOp5
 70
     0
102
RTVSPropertyOp6
 70
     0
102
RTVSPropertyOp7
 70
     0
102
RTVSPropertyOp8
 70
     0
102
RTVSPropertyOp9
 70
     0
102
RTVSPropertyOp10
 70
     0
102
RTVSPropertyOp11
 70
     0
102
RTVSPropertyOp12
 70
     0
102
RTVSPropertyOp13
 70
     0
102
RTVSPropertyOp14
 70
     2
102
RTVSPropertyOp15
 70
     0
102
RTVSPropertyOp16
 70
     0
102
RTVSPropertyOp17
 70
     0
102
RTVSPropertyOp18
 70
     0
102
RTVSPropertyOp19
 70
     0
102
RTVSPropertyOp20
 70
     0
102
RTVSPropertyOp21
 70
     0
102
RTVSPropertyOp22
 70
     0
102
RTVSPropertyOp23
 70
     0
102
RTVSPropertyOp24
 70
     0
102
RTVSPropertyOp25
 70
     0
102
RTVSPropertyOp26
 70
     0
102
RTVSPropertyOp27
 70
     0
102
RTVSPropertyOp28
 70
     0
102
RTVSPropertyOp29
 70
     0
102
RTVSPropertyOp30
 70
     0
102
RTVSPropertyOp31
 70
     0
102
RTVSPropertyOp32
 70
     0
  0
XRECORD
  5
8EA
102
{ACAD_REACTORS
330
8E9
102
}
330
8E9
100
AcDbXrecord
280
     1
102
RTVSPropertyOp0
 70
     1
102
RTVSPropertyOp1
 70
     1
102
RTVSPropertyOp2
 70
     1
102
RTVSPropertyOp3
 70
     1
102
RTVSPropertyOp4
 70
     1
102
RTVSPropertyOp5
 70
     1
102
RTVSPropertyOp6
 70
     1
102
RTVSPropertyOp7
 70
     1
102
RTVSPropertyOp8
 70
     1
102
RTVSPropertyOp9
 70
     1
102
RTVSPropertyOp10
 70
     1
102
RTVSPropertyOp11
 70
     1
102
RTVSPropertyOp12
 70
     1
102
RTVSPropertyOp13
 70
     1
102
RTVSPropertyOp14
 70
     1
102
RTVSPropertyOp15
 70
     1
102
RTVSPropertyOp16
 70
     1
102
RTVSPropertyOp17
 70
     1
102
RTVSPropertyOp18
 70
     1
102
RTVSPropertyOp19
 70
     1
102
RTVSPropertyOp20
 70
     1
102
RTVSPropertyOp21
 70
     1
102
RTVSPropertyOp22
 70
     1
102
RTVSPropertyOp23
 70
     1
102
RTVSPropertyOp24
 70
     1
102
RTVSPropertyOp25
 70
     1
102
RTVSPropertyOp26
 70
     1
102
RTVSPropertyOp27
 70
     1
102
RTVSPropertyOp28
 70
     1
102
RTVSPropertyOp29
 70
     1
102
RTVSPropertyOp30
 70
     1
102
RTVSPropertyOp31
 70
     1
102
RTVSPropertyOp32
 70
     1
  0
XRECORD
  5
8CE
102
{ACAD_REACTORS
330
8CD
102
}
330
8CD
100
AcDbXrecord
280
     1
102
RTVSPropertyOp0
 70
     1
102
RTVSPropertyOp1
 70
     1
102
RTVSPropertyOp2
 70
     1
102
RTVSPropertyOp3
 70
     1
102
RTVSPropertyOp4
 70
     1
102
RTVSPropertyOp5
 70
     1
102
RTVSPropertyOp6
 70
     1
102
RTVSPropertyOp7
 70
     1
102
RTVSPropertyOp8
 70
     1
102
RTVSPropertyOp9
 70
     1
102
RTVSPropertyOp10
 70
     1
102
RTVSPropertyOp11
 70
     1
102
RTVSPropertyOp12
 70
     1
102
RTVSPropertyOp13
 70
     1
102
RTVSPropertyOp14
 70
     1
102
RTVSPropertyOp15
 70
     1
102
RTVSPropertyOp16
 70
     1
102
RTVSPropertyOp17
 70
     1
102
RTVSPropertyOp18
 70
     1
102
RTVSPropertyOp19
 70
     1
102
RTVSPropertyOp20
 70
     1
102
RTVSPropertyOp21
 70
     1
102
RTVSPropertyOp22
 70
     1
102
RTVSPropertyOp23
 70
     1
102
RTVSPropertyOp24
 70
     1
102
RTVSPropertyOp25
 70
     1
102
RTVSPropertyOp26
 70
     1
102
RTVSPropertyOp27
 70
     1
102
RTVSPropertyOp28
 70
     1
102
RTVSPropertyOp29
 70
     1
102
RTVSPropertyOp30
 70
     1
102
RTVSPropertyOp31
 70
     1
102
RTVSPropertyOp32
 70
     1
  0
XRECORD
  5
8D0
102
{ACAD_REACTORS
330
8CF
102
}
330
8CF
100
AcDbXrecord
280
     1
102
RTVSPropertyOp0
 70
     1
102
RTVSPropertyOp1
 70
     1
102
RTVSPropertyOp2
 70
     1
102
RTVSPropertyOp3
 70
     1
102
RTVSPropertyOp4
 70
     1
102
RTVSPropertyOp5
 70
     1
102
RTVSPropertyOp6
 70
     1
102
RTVSPropertyOp7
 70
     1
102
RTVSPropertyOp8
 70
     1
102
RTVSPropertyOp9
 70
     1
102
RTVSPropertyOp10
 70
     1
102
RTVSPropertyOp11
 70
     1
102
RTVSPropertyOp12
 70
     1
102
RTVSPropertyOp13
 70
     1
102
RTVSPropertyOp14
 70
     1
102
RTVSPropertyOp15
 70
     1
102
RTVSPropertyOp16
 70
     1
102
RTVSPropertyOp17
 70
     1
102
RTVSPropertyOp18
 70
     1
102
RTVSPropertyOp19
 70
     1
102
RTVSPropertyOp20
 70
     1
102
RTVSPropertyOp21
 70
     1
102
RTVSPropertyOp22
 70
     1
102
RTVSPropertyOp23
 70
     1
102
RTVSPropertyOp24
 70
     1
102
RTVSPropertyOp25
 70
     1
102
RTVSPropertyOp26
 70
     1
102
RTVSPropertyOp27
 70
     1
102
RTVSPropertyOp28
 70
     1
102
RTVSPropertyOp29
 70
     1
102
RTVSPropertyOp30
 70
     1
102
RTVSPropertyOp31
 70
     1
102
RTVSPropertyOp32
 70
     1
  0
XRECORD
  5
8D2
102
{ACAD_REACTORS
330
8D1
102
}
330
8D1
100
AcDbXrecord
280
     1
102
RTVSPropertyOp0
 70
     1
102
RTVSPropertyOp1
 70
     1
102
RTVSPropertyOp2
 70
     1
102
RTVSPropertyOp3
 70
     1
102
RTVSPropertyOp4
 70
     1
102
RTVSPropertyOp5
 70
     1
102
RTVSPropertyOp6
 70
     1
102
RTVSPropertyOp7
 70
     1
102
RTVSPropertyOp8
 70
     1
102
RTVSPropertyOp9
 70
     1
102
RTVSPropertyOp10
 70
     1
102
RTVSPropertyOp11
 70
     1
102
RTVSPropertyOp12
 70
     1
102
RTVSPropertyOp13
 70
     1
102
RTVSPropertyOp14
 70
     1
102
RTVSPropertyOp15
 70
     1
102
RTVSPropertyOp16
 70
     1
102
RTVSPropertyOp17
 70
     1
102
RTVSPropertyOp18
 70
     1
102
RTVSPropertyOp19
 70
     1
102
RTVSPropertyOp20
 70
     1
102
RTVSPropertyOp21
 70
     1
102
RTVSPropertyOp22
 70
     1
102
RTVSPropertyOp23
 70
     1
102
RTVSPropertyOp24
 70
     1
102
RTVSPropertyOp25
 70
     1
102
RTVSPropertyOp26
 70
     1
102
RTVSPropertyOp27
 70
     1
102
RTVSPropertyOp28
 70
     1
102
RTVSPropertyOp29
 70
     1
102
RTVSPropertyOp30
 70
     1
102
RTVSPropertyOp31
 70
     1
102
RTVSPropertyOp32
 70
     1
  0
XRECORD
  5
8D4
102
{ACAD_REACTORS
330
8D3
102
}
330
8D3
100
AcDbXrecord
280
     1
102
RTVSPropertyOp0
 70
     1
102
RTVSPropertyOp1
 70
     1
102
RTVSPropertyOp2
 70
     1
102
RTVSPropertyOp3
 70
     1
102
RTVSPropertyOp4
 70
     1
102
RTVSPropertyOp5
 70
     1
102
RTVSPropertyOp6
 70
     1
102
RTVSPropertyOp7
 70
     1
102
RTVSPropertyOp8
 70
     1
102
RTVSPropertyOp9
 70
     1
102
RTVSPropertyOp10
 70
     1
102
RTVSPropertyOp11
 70
     1
102
RTVSPropertyOp12
 70
     1
102
RTVSPropertyOp13
 70
     1
102
RTVSPropertyOp14
 70
     1
102
RTVSPropertyOp15
 70
     1
102
RTVSPropertyOp16
 70
     1
102
RTVSPropertyOp17
 70
     1
102
RTVSPropertyOp18
 70
     1
102
RTVSPropertyOp19
 70
     1
102
RTVSPropertyOp20
 70
     1
102
RTVSPropertyOp21
 70
     1
102
RTVSPropertyOp22
 70
     1
102
RTVSPropertyOp23
 70
     1
102
RTVSPropertyOp24
 70
     1
102
RTVSPropertyOp25
 70
     1
102
RTVSPropertyOp26
 70
     1
102
RTVSPropertyOp27
 70
     1
102
RTVSPropertyOp28
 70
     1
102
RTVSPropertyOp29
 70
     1
102
RTVSPropertyOp30
 70
     1
102
RTVSPropertyOp31
 70
     1
102
RTVSPropertyOp32
 70
     1
  0
XRECORD
  5
8DC
102
{ACAD_REACTORS
330
8DB
102
}
330
8DB
100
AcDbXrecord
280
     1
102
RTVSPropertyOp0
 70
     1
102
RTVSPropertyOp1
 70
     1
102
RTVSPropertyOp2
 70
     1
102
RTVSPropertyOp3
 70
     1
102
RTVSPropertyOp4
 70
     1
102
RTVSPropertyOp5
 70
     1
102
RTVSPropertyOp6
 70
     1
102
RTVSPropertyOp7
 70
     1
102
RTVSPropertyOp8
 70
     1
102
RTVSPropertyOp9
 70
     1
102
RTVSPropertyOp10
 70
     1
102
RTVSPropertyOp11
 70
     1
102
RTVSPropertyOp12
 70
     1
102
RTVSPropertyOp13
 70
     1
102
RTVSPropertyOp14
 70
     1
102
RTVSPropertyOp15
 70
     1
102
RTVSPropertyOp16
 70
     1
102
RTVSPropertyOp17
 70
     1
102
RTVSPropertyOp18
 70
     1
102
RTVSPropertyOp19
 70
     1
102
RTVSPropertyOp20
 70
     1
102
RTVSPropertyOp21
 70
     1
102
RTVSPropertyOp22
 70
     1
102
RTVSPropertyOp23
 70
     1
102
RTVSPropertyOp24
 70
     1
102
RTVSPropertyOp25
 70
     1
102
RTVSPropertyOp26
 70
     1
102
RTVSPropertyOp27
 70
     1
102
RTVSPropertyOp28
 70
     1
102
RTVSPropertyOp29
 70
     1
102
RTVSPropertyOp30
 70
     1
102
RTVSPropertyOp31
 70
     1
102
RTVSPropertyOp32
 70
     1
  0
XRECORD
  5
8F8
102
{ACAD_REACTORS
330
8F7
102
}
330
8F7
100
AcDbXrecord
280
     1
102
RTVSPropertyOp0
 70
     0
102
RTVSPropertyOp1
 70
     0
102
RTVSPropertyOp2
 70
     0
102
RTVSPropertyOp3
 70
     0
102
RTVSPropertyOp4
 70
     0
102
RTVSPropertyOp5
 70
     0
102
RTVSPropertyOp6
 70
     0
102
RTVSPropertyOp7
 70
     0
102
RTVSPropertyOp8
 70
     0
102
RTVSPropertyOp9
 70
     0
102
RTVSPropertyOp10
 70
     0
102
RTVSPropertyOp11
 70
     0
102
RTVSPropertyOp12
 70
     0
102
RTVSPropertyOp13
 70
     0
102
RTVSPropertyOp14
 70
     2
102
RTVSPropertyOp15
 70
     0
102
RTVSPropertyOp16
 70
     0
102
RTVSPropertyOp17
 70
     0
102
RTVSPropertyOp18
 70
     0
102
RTVSPropertyOp19
 70
     0
102
RTVSPropertyOp20
 70
     0
102
RTVSPropertyOp21
 70
     0
102
RTVSPropertyOp22
 70
     0
102
RTVSPropertyOp23
 70
     0
102
RTVSPropertyOp24
 70
     0
102
RTVSPropertyOp25
 70
     0
102
RTVSPropertyOp26
 70
     0
102
RTVSPropertyOp27
 70
     0
102
RTVSPropertyOp28
 70
     0
102
RTVSPropertyOp29
 70
     0
102
RTVSPropertyOp30
 70
     0
102
RTVSPropertyOp31
 70
     0
102
RTVSPropertyOp32
 70
     0
  0
XRECORD
  5
8E8
102
{ACAD_REACTORS
330
8E7
102
}
330
8E7
100
AcDbXrecord
280
     1
102
RTVSPropertyOp0
 70
     1
102
RTVSPropertyOp1
 70
     1
102
RTVSPropertyOp2
 70
     1
102
RTVSPropertyOp3
 70
     1
102
RTVSPropertyOp4
 70
     1
102
RTVSPropertyOp5
 70
     1
102
RTVSPropertyOp6
 70
     1
102
RTVSPropertyOp7
 70
     1
102
RTVSPropertyOp8
 70
     1
102
RTVSPropertyOp9
 70
     1
102
RTVSPropertyOp10
 70
     1
102
RTVSPropertyOp11
 70
     1
102
RTVSPropertyOp12
 70
     1
102
RTVSPropertyOp13
 70
     1
102
RTVSPropertyOp14
 70
     1
102
RTVSPropertyOp15
 70
     1
102
RTVSPropertyOp16
 70
     1
102
RTVSPropertyOp17
 70
     1
102
RTVSPropertyOp18
 70
     1
102
RTVSPropertyOp19
 70
     1
102
RTVSPropertyOp20
 70
     1
102
RTVSPropertyOp21
 70
     1
102
RTVSPropertyOp22
 70
     1
102
RTVSPropertyOp23
 70
     1
102
RTVSPropertyOp24
 70
     1
102
RTVSPropertyOp25
 70
     1
102
RTVSPropertyOp26
 70
     1
102
RTVSPropertyOp27
 70
     1
102
RTVSPropertyOp28
 70
     1
102
RTVSPropertyOp29
 70
     1
102
RTVSPropertyOp30
 70
     1
102
RTVSPropertyOp31
 70
     1
102
RTVSPropertyOp32
 70
     1
  0
XRECORD
  5
8FA
102
{ACAD_REACTORS
330
8F9
102
}
330
8F9
100
AcDbXrecord
280
     1
102
RTVSPropertyOp0
 70
     0
102
RTVSPropertyOp1
 70
     0
102
RTVSPropertyOp2
 70
     0
102
RTVSPropertyOp3
 70
     0
102
RTVSPropertyOp4
 70
     0
102
RTVSPropertyOp5
 70
     0
102
RTVSPropertyOp6
 70
     0
102
RTVSPropertyOp7
 70
     0
102
RTVSPropertyOp8
 70
     0
102
RTVSPropertyOp9
 70
     0
102
RTVSPropertyOp10
 70
     0
102
RTVSPropertyOp11
 70
     0
102
RTVSPropertyOp12
 70
     0
102
RTVSPropertyOp13
 70
     0
102
RTVSPropertyOp14
 70
     2
102
RTVSPropertyOp15
 70
     0
102
RTVSPropertyOp16
 70
     0
102
RTVSPropertyOp17
 70
     0
102
RTVSPropertyOp18
 70
     0
102
RTVSPropertyOp19
 70
     0
102
RTVSPropertyOp20
 70
     0
102
RTVSPropertyOp21
 70
     0
102
RTVSPropertyOp22
 70
     0
102
RTVSPropertyOp23
 70
     0
102
RTVSPropertyOp24
 70
     0
102
RTVSPropertyOp25
 70
     0
102
RTVSPropertyOp26
 70
     0
102
RTVSPropertyOp27
 70
     0
102
RTVSPropertyOp28
 70
     0
102
RTVSPropertyOp29
 70
     0
102
RTVSPropertyOp30
 70
     0
102
RTVSPropertyOp31
 70
     0
102
RTVSPropertyOp32
 70
     0
  0
XRECORD
  5
8E0
102
{ACAD_REACTORS
330
8DF
102
}
330
8DF
100
AcDbXrecord
280
     1
102
RTVSPropertyOp0
 70
     1
102
RTVSPropertyOp1
 70
     1
102
RTVSPropertyOp2
 70
     1
102
RTVSPropertyOp3
 70
     1
102
RTVSPropertyOp4
 70
     1
102
RTVSPropertyOp5
 70
     1
102
RTVSPropertyOp6
 70
     1
102
RTVSPropertyOp7
 70
     1
102
RTVSPropertyOp8
 70
     1
102
RTVSPropertyOp9
 70
     1
102
RTVSPropertyOp10
 70
     1
102
RTVSPropertyOp11
 70
     1
102
RTVSPropertyOp12
 70
     1
102
RTVSPropertyOp13
 70
     1
102
RTVSPropertyOp14
 70
     1
102
RTVSPropertyOp15
 70
     1
102
RTVSPropertyOp16
 70
     1
102
RTVSPropertyOp17
 70
     1
102
RTVSPropertyOp18
 70
     1
102
RTVSPropertyOp19
 70
     1
102
RTVSPropertyOp20
 70
     1
102
RTVSPropertyOp21
 70
     1
102
RTVSPropertyOp22
 70
     1
102
RTVSPropertyOp23
 70
     1
102
RTVSPropertyOp24
 70
     1
102
RTVSPropertyOp25
 70
     1
102
RTVSPropertyOp26
 70
     1
102
RTVSPropertyOp27
 70
     1
102
RTVSPropertyOp28
 70
     1
102
RTVSPropertyOp29
 70
     1
102
RTVSPropertyOp30
 70
     1
102
RTVSPropertyOp31
 70
     1
102
RTVSPropertyOp32
 70
     1
  0
XRECORD
  5
8F6
102
{ACAD_REACTORS
330
8F5
102
}
330
8F5
100
AcDbXrecord
280
     1
102
RTVSPropertyOp0
 70
     1
102
RTVSPropertyOp1
 70
     1
102
RTVSPropertyOp2
 70
     1
102
RTVSPropertyOp3
 70
     1
102
RTVSPropertyOp4
 70
     1
102
RTVSPropertyOp5
 70
     1
102
RTVSPropertyOp6
 70
     1
102
RTVSPropertyOp7
 70
     1
102
RTVSPropertyOp8
 70
     1
102
RTVSPropertyOp9
 70
     1
102
RTVSPropertyOp10
 70
     1
102
RTVSPropertyOp11
 70
     1
102
RTVSPropertyOp12
 70
     1
102
RTVSPropertyOp13
 70
     1
102
RTVSPropertyOp14
 70
     1
102
RTVSPropertyOp15
 70
     1
102
RTVSPropertyOp16
 70
     1
102
RTVSPropertyOp17
 70
     1
102
RTVSPropertyOp18
 70
     1
102
RTVSPropertyOp19
 70
     1
102
RTVSPropertyOp20
 70
     1
102
RTVSPropertyOp21
 70
     1
102
RTVSPropertyOp22
 70
     1
102
RTVSPropertyOp23
 70
     1
102
RTVSPropertyOp24
 70
     1
102
RTVSPropertyOp25
 70
     1
102
RTVSPropertyOp26
 70
     1
102
RTVSPropertyOp27
 70
     1
102
RTVSPropertyOp28
 70
     1
102
RTVSPropertyOp29
 70
     1
102
RTVSPropertyOp30
 70
     1
102
RTVSPropertyOp31
 70
     1
102
RTVSPropertyOp32
 70
     1
  0
XRECORD
  5
8F4
102
{ACAD_REACTORS
330
8F3
102
}
330
8F3
100
AcDbXrecord
280
     1
102
RTVSPropertyOp0
 70
     1
102
RTVSPropertyOp1
 70
     1
102
RTVSPropertyOp2
 70
     1
102
RTVSPropertyOp3
 70
     1
102
RTVSPropertyOp4
 70
     1
102
RTVSPropertyOp5
 70
     1
102
RTVSPropertyOp6
 70
     1
102
RTVSPropertyOp7
 70
     1
102
RTVSPropertyOp8
 70
     1
102
RTVSPropertyOp9
 70
     1
102
RTVSPropertyOp10
 70
     1
102
RTVSPropertyOp11
 70
     1
102
RTVSPropertyOp12
 70
     1
102
RTVSPropertyOp13
 70
     1
102
RTVSPropertyOp14
 70
     1
102
RTVSPropertyOp15
 70
     1
102
RTVSPropertyOp16
 70
     1
102
RTVSPropertyOp17
 70
     1
102
RTVSPropertyOp18
 70
     1
102
RTVSPropertyOp19
 70
     1
102
RTVSPropertyOp20
 70
     1
102
RTVSPropertyOp21
 70
     1
102
RTVSPropertyOp22
 70
     1
102
RTVSPropertyOp23
 70
     1
102
RTVSPropertyOp24
 70
     1
102
RTVSPropertyOp25
 70
     1
102
RTVSPropertyOp26
 70
     1
102
RTVSPropertyOp27
 70
     1
102
RTVSPropertyOp28
 70
     1
102
RTVSPropertyOp29
 70
     1
102
RTVSPropertyOp30
 70
     1
102
RTVSPropertyOp31
 70
     1
102
RTVSPropertyOp32
 70
     1
  0
XRECORD
  5
8EE
102
{ACAD_REACTORS
330
8ED
102
}
330
8ED
100
AcDbXrecord
280
     1
102
RTVSPropertyOp0
 70
     1
102
RTVSPropertyOp1
 70
     1
102
RTVSPropertyOp2
 70
     1
102
RTVSPropertyOp3
 70
     1
102
RTVSPropertyOp4
 70
     1
102
RTVSPropertyOp5
 70
     1
102
RTVSPropertyOp6
 70
     1
102
RTVSPropertyOp7
 70
     1
102
RTVSPropertyOp8
 70
     1
102
RTVSPropertyOp9
 70
     1
102
RTVSPropertyOp10
 70
     1
102
RTVSPropertyOp11
 70
     1
102
RTVSPropertyOp12
 70
     1
102
RTVSPropertyOp13
 70
     1
102
RTVSPropertyOp14
 70
     1
102
RTVSPropertyOp15
 70
     1
102
RTVSPropertyOp16
 70
     1
102
RTVSPropertyOp17
 70
     1
102
RTVSPropertyOp18
 70
     1
102
RTVSPropertyOp19
 70
     1
102
RTVSPropertyOp20
 70
     1
102
RTVSPropertyOp21
 70
     1
102
RTVSPropertyOp22
 70
     1
102
RTVSPropertyOp23
 70
     1
102
RTVSPropertyOp24
 70
     1
102
RTVSPropertyOp25
 70
     1
102
RTVSPropertyOp26
 70
     1
102
RTVSPropertyOp27
 70
     1
102
RTVSPropertyOp28
 70
     1
102
RTVSPropertyOp29
 70
     1
102
RTVSPropertyOp30
 70
     1
102
RTVSPropertyOp31
 70
     1
102
RTVSPropertyOp32
 70
     1
  0
XRECORD
  5
8F0
102
{ACAD_REACTORS
330
8EF
102
}
330
8EF
100
AcDbXrecord
280
     1
102
RTVSPropertyOp0
 70
     1
102
RTVSPropertyOp1
 70
     1
102
RTVSPropertyOp2
 70
     1
102
RTVSPropertyOp3
 70
     1
102
RTVSPropertyOp4
 70
     1
102
RTVSPropertyOp5
 70
     1
102
RTVSPropertyOp6
 70
     1
102
RTVSPropertyOp7
 70
     1
102
RTVSPropertyOp8
 70
     1
102
RTVSPropertyOp9
 70
     1
102
RTVSPropertyOp10
 70
     1
102
RTVSPropertyOp11
 70
     1
102
RTVSPropertyOp12
 70
     1
102
RTVSPropertyOp13
 70
     1
102
RTVSPropertyOp14
 70
     1
102
RTVSPropertyOp15
 70
     1
102
RTVSPropertyOp16
 70
     1
102
RTVSPropertyOp17
 70
     1
102
RTVSPropertyOp18
 70
     1
102
RTVSPropertyOp19
 70
     1
102
RTVSPropertyOp20
 70
     1
102
RTVSPropertyOp21
 70
     1
102
RTVSPropertyOp22
 70
     1
102
RTVSPropertyOp23
 70
     1
102
RTVSPropertyOp24
 70
     1
102
RTVSPropertyOp25
 70
     1
102
RTVSPropertyOp26
 70
     1
102
RTVSPropertyOp27
 70
     1
102
RTVSPropertyOp28
 70
     1
102
RTVSPropertyOp29
 70
     1
102
RTVSPropertyOp30
 70
     1
102
RTVSPropertyOp31
 70
     1
102
RTVSPropertyOp32
 70
     1
  0
XRECORD
  5
8E6
102
{ACAD_REACTORS
330
8E5
102
}
330
8E5
100
AcDbXrecord
280
     1
102
RTVSPropertyOp0
 70
     1
102
RTVSPropertyOp1
 70
     1
102
RTVSPropertyOp2
 70
     1
102
RTVSPropertyOp3
 70
     1
102
RTVSPropertyOp4
 70
     1
102
RTVSPropertyOp5
 70
     1
102
RTVSPropertyOp6
 70
     1
102
RTVSPropertyOp7
 70
     1
102
RTVSPropertyOp8
 70
     1
102
RTVSPropertyOp9
 70
     1
102
RTVSPropertyOp10
 70
     1
102
RTVSPropertyOp11
 70
     1
102
RTVSPropertyOp12
 70
     1
102
RTVSPropertyOp13
 70
     1
102
RTVSPropertyOp14
 70
     1
102
RTVSPropertyOp15
 70
     1
102
RTVSPropertyOp16
 70
     1
102
RTVSPropertyOp17
 70
     1
102
RTVSPropertyOp18
 70
     1
102
RTVSPropertyOp19
 70
     1
102
RTVSPropertyOp20
 70
     1
102
RTVSPropertyOp21
 70
     1
102
RTVSPropertyOp22
 70
     1
102
RTVSPropertyOp23
 70
     1
102
RTVSPropertyOp24
 70
     1
102
RTVSPropertyOp25
 70
     1
102
RTVSPropertyOp26
 70
     1
102
RTVSPropertyOp27
 70
     1
102
RTVSPropertyOp28
 70
     1
102
RTVSPropertyOp29
 70
     1
102
RTVSPropertyOp30
 70
     1
102
RTVSPropertyOp31
 70
     1
102
RTVSPropertyOp32
 70
     1
  0
XRECORD
  5
8DA
102
{ACAD_REACTORS
330
8D9
102
}
330
8D9
100
AcDbXrecord
280
     1
102
RTVSPropertyOp0
 70
     1
102
RTVSPropertyOp1
 70
     1
102
RTVSPropertyOp2
 70
     1
102
RTVSPropertyOp3
 70
     1
102
RTVSPropertyOp4
 70
     1
102
RTVSPropertyOp5
 70
     1
102
RTVSPropertyOp6
 70
     1
102
RTVSPropertyOp7
 70
     1
102
RTVSPropertyOp8
 70
     1
102
RTVSPropertyOp9
 70
     1
102
RTVSPropertyOp10
 70
     1
102
RTVSPropertyOp11
 70
     1
102
RTVSPropertyOp12
 70
     1
102
RTVSPropertyOp13
 70
     1
102
RTVSPropertyOp14
 70
     1
102
RTVSPropertyOp15
 70
     1
102
RTVSPropertyOp16
 70
     1
102
RTVSPropertyOp17
 70
     1
102
RTVSPropertyOp18
 70
     1
102
RTVSPropertyOp19
 70
     1
102
RTVSPropertyOp20
 70
     1
102
RTVSPropertyOp21
 70
     1
102
RTVSPropertyOp22
 70
     1
102
RTVSPropertyOp23
 70
     1
102
RTVSPropertyOp24
 70
     1
102
RTVSPropertyOp25
 70
     1
102
RTVSPropertyOp26
 70
     1
102
RTVSPropertyOp27
 70
     1
102
RTVSPropertyOp28
 70
     1
102
RTVSPropertyOp29
 70
     1
102
RTVSPropertyOp30
 70
     1
102
RTVSPropertyOp31
 70
     1
102
RTVSPropertyOp32
 70
     1
  0
XRECORD
  5
8F2
102
{ACAD_REACTORS
330
8F1
102
}
330
8F1
100
AcDbXrecord
280
     1
102
RTVSPropertyOp0
 70
     1
102
RTVSPropertyOp1
 70
     1
102
RTVSPropertyOp2
 70
     1
102
RTVSPropertyOp3
 70
     1
102
RTVSPropertyOp4
 70
     1
102
RTVSPropertyOp5
 70
     1
102
RTVSPropertyOp6
 70
     1
102
RTVSPropertyOp7
 70
     1
102
RTVSPropertyOp8
 70
     1
102
RTVSPropertyOp9
 70
     1
102
RTVSPropertyOp10
 70
     1
102
RTVSPropertyOp11
 70
     1
102
RTVSPropertyOp12
 70
     1
102
RTVSPropertyOp13
 70
     1
102
RTVSPropertyOp14
 70
     1
102
RTVSPropertyOp15
 70
     1
102
RTVSPropertyOp16
 70
     1
102
RTVSPropertyOp17
 70
     1
102
RTVSPropertyOp18
 70
     1
102
RTVSPropertyOp19
 70
     1
102
RTVSPropertyOp20
 70
     1
102
RTVSPropertyOp21
 70
     1
102
RTVSPropertyOp22
 70
     1
102
RTVSPropertyOp23
 70
     1
102
RTVSPropertyOp24
 70
     1
102
RTVSPropertyOp25
 70
     1
102
RTVSPropertyOp26
 70
     1
102
RTVSPropertyOp27
 70
     1
102
RTVSPropertyOp28
 70
     1
102
RTVSPropertyOp29
 70
     1
102
RTVSPropertyOp30
 70
     1
102
RTVSPropertyOp31
 70
     1
102
RTVSPropertyOp32
 70
     1
  0
ENDSEC
  0
EOF
