  0
SECTION
  2
HEADER
  9
$ACADVER
  1
AC1015
  9
$ACADMAINTVER
 70
    20
  9
$DWGCODEPAGE
  3
ANSI_1250
  9
$INSBASE
 10
0.0
 20
0.0
 30
0.0
  9
$EXTMIN
 10
5740.0
 20
-6.286097722605928
 30
0.0
  9
$EXTMAX
 10
7243.904961153311
 20
3390.165782367115
 30
0.0
  9
$LIMMIN
 10
0.0
 20
0.0
  9
$LIMMAX
 10
5940.0
 20
4200.0
  9
$ORTHOMODE
 70
     1
  9
$REGENMODE
 70
     1
  9
$FILLMODE
 70
     1
  9
$QTEXTMODE
 70
     0
  9
$MIRRTEXT
 70
     0
  9
$LTSCALE
 40
20.0
  9
$ATTMODE
 70
     1
  9
$TEXTSIZE
 40
0.2
  9
$TRACEWID
 40
0.05
  9
$TEXTSTYLE
  7
Standard
  9
$CLAYER
  8
0
  9
$CELTYPE
  6
ByLayer
  9
$CECOLOR
 62
   256
  9
$CELTSCALE
 40
1.0
  9
$DISPSILH
 70
     0
  9
$DIMSCALE
 40
1.0
  9
$DIMASZ
 40
1.799999999999999
  9
$DIMEXO
 40
0.0625
  9
$DIMDLI
 40
0.38
  9
$DIMRND
 40
0.0
  9
$DIMDLE
 40
0.0
  9
$DIMEXE
 40
0.18
  9
$DIMTP
 40
0.0
  9
$DIMTM
 40
0.0
  9
$DIMTXT
 40
0.25
  9
$DIMCEN
 40
0.09
  9
$DIMTSZ
 40
0.0
  9
$DIMTOL
 70
     0
  9
$DIMLIM
 70
     0
  9
$DIMTIH
 70
     1
  9
$DIMTOH
 70
     1
  9
$DIMSE1
 70
     0
  9
$DIMSE2
 70
     0
  9
$DIMTAD
 70
     0
  9
$DIMZIN
 70
     0
  9
$DIMBLK
  1

  9
$DIMASO
 70
     1
  9
$DIMSHO
 70
     1
  9
$DIMPOST
  1

  9
$DIMAPOST
  1

  9
$DIMALT
 70
     0
  9
$DIMALTD
 70
     2
  9
$DIMALTF
 40
25.4
  9
$DIMLFAC
 40
1.0
  9
$DIMTOFL
 70
     0
  9
$DIMTVP
 40
0.0
  9
$DIMTIX
 70
     0
  9
$DIMSOXD
 70
     0
  9
$DIMSAH
 70
     0
  9
$DIMBLK1
  1

  9
$DIMBLK2
  1

  9
$DIMSTYLE
  2
Standard
  9
$DIMCLRD
 70
     0
  9
$DIMCLRE
 70
     0
  9
$DIMCLRT
 70
     0
  9
$DIMTFAC
 40
1.0
  9
$DIMGAP
 40
0.09
  9
$DIMJUST
 70
     0
  9
$DIMSD1
 70
     0
  9
$DIMSD2
 70
     0
  9
$DIMTOLJ
 70
     1
  9
$DIMTZIN
 70
     0
  9
$DIMALTZ
 70
     0
  9
$DIMALTTZ
 70
     0
  9
$DIMUPT
 70
     0
  9
$DIMDEC
 70
     4
  9
$DIMTDEC
 70
     4
  9
$DIMALTU
 70
     2
  9
$DIMALTTD
 70
     2
  9
$DIMTXSTY
  7
Standard
  9
$DIMAUNIT
 70
     0
  9
$DIMADEC
 70
     0
  9
$DIMALTRND
 40
0.0
  9
$DIMAZIN
 70
     0
  9
$DIMDSEP
 70
    46
  9
$DIMATFIT
 70
     3
  9
$DIMFRAC
 70
     0
  9
$DIMLDRBLK
  1

  9
$DIMLUNIT
 70
     2
  9
$DIMLWD
 70
    -2
  9
$DIMLWE
 70
    -2
  9
$DIMTMOVE
 70
     0
  9
$LUNITS
 70
     2
  9
$LUPREC
 70
     4
  9
$SKETCHINC
 40
0.1
  9
$FILLETRAD
 40
0.0
  9
$AUNITS
 70
     0
  9
$AUPREC
 70
     0
  9
$MENU
  1
.
  9
$ELEVATION
 40
0.0
  9
$PELEVATION
 40
0.0
  9
$THICKNESS
 40
0.0
  9
$LIMCHECK
 70
     0
  9
$CHAMFERA
 40
0.0
  9
$CHAMFERB
 40
0.0
  9
$CHAMFERC
 40
0.0
  9
$CHAMFERD
 40
0.0
  9
$SKPOLY
 70
     0
  9
$TDCREATE
 40
2457829.611134028
  9
$TDUCREATE
 40
2457829.569467361
  9
$TDUPDATE
 40
2459922.369204260
  9
$TDUUPDATE
 40
2459922.327537593
  9
$TDINDWG
 40
0.0159400810
  9
$TDUSRTIMER
 40
0.0159400810
  9
$USRTIMER
 70
     1
  9
$ANGBASE
 50
0.0
  9
$ANGDIR
 70
     0
  9
$PDMODE
 70
     0
  9
$PDSIZE
 40
0.0
  9
$PLINEWID
 40
0.0
  9
$SPLFRAME
 70
     0
  9
$SPLINETYPE
 70
     6
  9
$SPLINESEGS
 70
     8
  9
$HANDSEED
  5
12B3
  9
$SURFTAB1
 70
     6
  9
$SURFTAB2
 70
     6
  9
$SURFTYPE
 70
     6
  9
$SURFU
 70
     6
  9
$SURFV
 70
     6
  9
$UCSBASE
  2

  9
$UCSNAME
  2

  9
$UCSORG
 10
0.0
 20
0.0
 30
0.0
  9
$UCSXDIR
 10
1.0
 20
0.0
 30
0.0
  9
$UCSYDIR
 10
0.0
 20
1.0
 30
0.0
  9
$UCSORTHOREF
  2

  9
$UCSORTHOVIEW
 70
     0
  9
$UCSORGTOP
 10
0.0
 20
0.0
 30
0.0
  9
$UCSORGBOTTOM
 10
0.0
 20
0.0
 30
0.0
  9
$UCSORGLEFT
 10
0.0
 20
0.0
 30
0.0
  9
$UCSORGRIGHT
 10
0.0
 20
0.0
 30
0.0
  9
$UCSORGFRONT
 10
0.0
 20
0.0
 30
0.0
  9
$UCSORGBACK
 10
0.0
 20
0.0
 30
0.0
  9
$PUCSBASE
  2

  9
$PUCSNAME
  2

  9
$PUCSORG
 10
0.0
 20
0.0
 30
0.0
  9
$PUCSXDIR
 10
1.0
 20
0.0
 30
0.0
  9
$PUCSYDIR
 10
0.0
 20
1.0
 30
0.0
  9
$PUCSORTHOREF
  2

  9
$PUCSORTHOVIEW
 70
     0
  9
$PUCSORGTOP
 10
0.0
 20
0.0
 30
0.0
  9
$PUCSORGBOTTOM
 10
0.0
 20
0.0
 30
0.0
  9
$PUCSORGLEFT
 10
0.0
 20
0.0
 30
0.0
  9
$PUCSORGRIGHT
 10
0.0
 20
0.0
 30
0.0
  9
$PUCSORGFRONT
 10
0.0
 20
0.0
 30
0.0
  9
$PUCSORGBACK
 10
0.0
 20
0.0
 30
0.0
  9
$USERI1
 70
     0
  9
$USERI2
 70
     0
  9
$USERI3
 70
     0
  9
$USERI4
 70
     0
  9
$USERI5
 70
     0
  9
$USERR1
 40
0.0
  9
$USERR2
 40
0.0
  9
$USERR3
 40
0.0
  9
$USERR4
 40
0.0
  9
$USERR5
 40
0.0
  9
$WORLDVIEW
 70
     1
  9
$SHADEDGE
 70
     3
  9
$SHADEDIF
 70
    70
  9
$TILEMODE
 70
     1
  9
$MAXACTVP
 70
    64
  9
$PINSBASE
 10
0.0
 20
0.0
 30
0.0
  9
$PLIMCHECK
 70
     0
  9
$PEXTMIN
 10
0.0
 20
0.0
 30
0.0
  9
$PEXTMAX
 10
5940.0
 20
4200.0
 30
0.0
  9
$PLIMMIN
 10
0.0
 20
0.0
  9
$PLIMMAX
 10
5940.0
 20
4200.0
  9
$UNITMODE
 70
     0
  9
$VISRETAIN
 70
     1
  9
$PLINEGEN
 70
     0
  9
$PSLTSCALE
 70
     1
  9
$TREEDEPTH
 70
  3020
  9
$CMLSTYLE
  2
Standard
  9
$CMLJUST
 70
     0
  9
$CMLSCALE
 40
1.0
  9
$PROXYGRAPHICS
 70
     1
  9
$MEASUREMENT
 70
     1
  9
$CELWEIGHT
370
    -1
  9
$ENDCAPS
280
     0
  9
$JOINSTYLE
280
     0
  9
$LWDISPLAY
290
     0
  9
$INSUNITS
 70
     4
  9
$HYPERLINKBASE
  1

  9
$STYLESHEET
  1

  9
$XEDIT
290
     1
  9
$CEPSNTYPE
380
     0
  9
$PSTYLEMODE
290
     1
  9
$FINGERPRINTGUID
  2
{AF171ECF-F3F0-44F4-A9BA-B287F18B54A6}
  9
$VERSIONGUID
  2
{2DD5F3F1-1DDF-4745-AF09-21B692A3270C}
  9
$EXTNAMES
290
     1
  9
$PSVPSCALE
 40
0.0
  9
$OLESTARTUP
290
     0
  0
ENDSEC
  0
SECTION
  2
CLASSES
  0
CLASS
  1
ACDBDICTIONARYWDFLT
  2
AcDbDictionaryWithDefault
  3
ObjectDBX Classes
 90
        0
280
     0
281
     0
  0
CLASS
  1
MATERIAL
  2
AcDbMaterial
  3
ObjectDBX Classes
 90
     1153
280
     0
281
     0
  0
CLASS
  1
VISUALSTYLE
  2
AcDbVisualStyle
  3
ObjectDBX Classes
 90
     4095
280
     0
281
     0
  0
CLASS
  1
SCALE
  2
AcDbScale
  3
ObjectDBX Classes
 90
     1153
280
     0
281
     0
  0
CLASS
  1
TABLESTYLE
  2
AcDbTableStyle
  3
ObjectDBX Classes
 90
     4095
280
     0
281
     0
  0
CLASS
  1
MLEADERSTYLE
  2
AcDbMLeaderStyle
  3
ACDB_MLEADERSTYLE_CLASS
 90
     4095
280
     0
281
     0
  0
CLASS
  1
CELLSTYLEMAP
  2
AcDbCellStyleMap
  3
ObjectDBX Classes
 90
     1152
280
     0
281
     0
  0
CLASS
  1
DICTIONARYVAR
  2
AcDbDictionaryVar
  3
ObjectDBX Classes
 90
        0
280
     0
281
     0
  0
CLASS
  1
ACDBPLACEHOLDER
  2
AcDbPlaceHolder
  3
ObjectDBX Classes
 90
        0
280
     0
281
     0
  0
CLASS
  1
LAYOUT
  2
AcDbLayout
  3
ObjectDBX Classes
 90
        0
280
     0
281
     0
  0
CLASS
  1
EXACXREFPANELOBJECT
  2
ExAcXREFPanelObject
  3
EXAC_ESW
 90
    33793
280
     0
281
     0
  0
CLASS
  1
NPOCOLLECTION
  2
AcDbImpNonPersistentObjectsCollection
  3
ObjectDBX Classes
 90
    33921
280
     0
281
     0
  0
CLASS
  1
ACME_DOCUMENT
  2
AcMeDbDoc
  3
AcMeServices
 90
     1024
280
     0
281
     0
  0
CLASS
  1
AMGSETTINGSOBJ
  2
AmgSettingsObj
  3
"AcadM|Product Description: AutoCAD Mechanical|Company: Autodesk, Inc."
 90
     1024
280
     0
281
     0
  0
CLASS
  1
ACMESCOPE
  2
AcMeScope
  3
AcMeServices
 90
     1024
280
     0
281
     0
  0
CLASS
  1
ACMECOMMANDHISTORY
  2
AcMeCommandHistory
  3
AcMeServices
 90
     1024
280
     0
281
     0
  0
CLASS
  1
ACIMSYSVARMAN
  2
AcImSysVarManager
  3
AcMeServices
 90
     1024
280
     0
281
     0
  0
CLASS
  1
ACIMINTSYSVAR
  2
AcImIntSysVar
  3
AcMeServices
 90
     1024
280
     0
281
     0
  0
CLASS
  1
ACMESTATEMGR
  2
AcMeStateMgr
  3
AcMeServices
 90
     1024
280
     0
281
     0
  0
CLASS
  1
ACDBENTITYCACHE
  2
AcMeEntityCache
  3
AcMeServices
 90
     1024
280
     0
281
     0
  0
CLASS
  1
ACGREFMASTER
  2
AcGrefMaster
  3
AcAttribServices
 90
     1024
280
     0
281
     0
  0
CLASS
  1
AM_DRAWING_MGR
  2
AcDmDwgMgr
  3
AcMechDwgViewMgmt
 90
     1024
280
     0
281
     0
  0
CLASS
  1
AM_DWG_DOCUMENT
  2
AcDmDwgDocument
  3
AcMechDwgViewMgmt
 90
     1024
280
     0
281
     0
  0
CLASS
  1
AM_DWG_SHEET
  2
AcDmSheet
  3
AcMechDwgViewMgmt
 90
     1024
280
     0
281
     0
  0
CLASS
  1
AM_VIEWDIMPARMAP
  2
AcDmViewDimParMap
  3
AcMechDwgViewMgmt
 90
     1024
280
     0
281
     0
  0
CLASS
  1
AMDTINTERNALREACTOR
  2
AmdtInternalReactor
  3
AcMeServices
 90
     1024
280
     0
281
     0
  0
CLASS
  1
ACIMREALSYSVAR
  2
AcImRealSysVar
  3
AcMeServices
 90
     1024
280
     0
281
     0
  0
CLASS
  1
AM_DWGMGR_NAME
  2
AcDmDwgMgrName
  3
AcMechDwgViewMgmt
 90
     1024
280
     0
281
     0
  0
CLASS
  1
ACME_DATABASE
  2
AcMeDbDatabase
  3
AcMeServices
 90
     1024
280
     0
281
     0
  0
CLASS
  1
ACRFINSADJUSTERMGR
  2
AcRfInsAdjusterMgr
  3
AcMeServices
 90
     1024
280
     0
281
     0
  0
CLASS
  1
ACGREFACADMASTER
  2
AcGrefacadMaster
  3
AcGrefServices
 90
     1024
280
     0
281
     0
  0
CLASS
  1
AMDTMENUSTATEMGR
  2
AmdtMenuStateMgr
  3
McadcomServices
 90
     1024
280
     0
281
     0
  0
CLASS
  1
AMDTMCOMMENUSTATE
  2
AmdtMcomMenuState
  3
McadcomServices
 90
     1024
280
     0
281
     0
  0
CLASS
  1
AMIMASTER
  2
AmiMaster
  3
AmiServices
 90
     1024
280
     0
281
     0
  0
CLASS
  1
MAPIAMMOUDLE
  2
MApiAmModule
  3
MApiAmServices
 90
     1024
280
     0
281
     0
  0
CLASS
  1
ACIMSTRSYSVAR
  2
AcImStrSysVar
  3
AcMeServices
 90
     1024
280
     0
281
     0
  0
CLASS
  1
AMDTDMMENUSTATE
  2
AmdtDmMenuState
  3
AcMechDwgViewMgmt
 90
     1024
280
     0
281
     0
  0
CLASS
  1
AMDTAMMENUSTATE
  2
AmdtAmMenuState
  3
DesignerAssemblies
 90
     1024
280
     0
281
     0
  0
CLASS
  1
ACAMPROJECT
  2
AcAmProject
  3
DesignerAssemblies
 90
     1024
280
     0
281
     0
  0
CLASS
  1
ACAMGRCOMPDEF
  2
AcAmGrCompDef
  3
DesignerAssemblies
 90
     1024
280
     0
281
     0
  0
CLASS
  1
ACAMCOMPDEF
  2
AcAmCompDef
  3
DesignerAssemblies
 90
     1024
280
     0
281
     0
  0
CLASS
  1
ACAMCOMPDEFMGR
  2
AcAmCompDefMgr
  3
DesignerAssemblies
 90
     1024
280
     0
281
     0
  0
CLASS
  1
AMCONTEXTMGR
  2
AcAmContextMgr
  3
DesignerAssemblies
 90
     1024
280
     0
281
     0
  0
CLASS
  1
ACAMCONTEXTMODELER
  2
AcAmContextModeler
  3
DesignerAssemblies
 90
     1024
280
     0
281
     0
  0
CLASS
  1
ACMDATADICTIONARY
  2
AcmDataDictionary
  3
"AcmSymBB|Product Description: AutoCAD Mechanical|Company: Autodesk, Inc."
 90
     1024
280
     0
281
     0
  0
CLASS
  1
ACAMGRCOMPDEFSET
  2
AcAmGrCompDefSet
  3
DesignerAssemblies
 90
     1024
280
     0
281
     0
  0
CLASS
  1
AMDTBROWSERDBTAB
  2
AmdtBrowserDbTab
  3
McadcomServices
 90
     1024
280
     0
281
     0
  0
CLASS
  1
CBROWSERAPPOBJECT
  2
CBrowserAppObject
  3
McadcomServices
 90
     1024
280
     0
281
     0
  0
CLASS
  1
DM_PLACEHOLDER
  2
AcDmSelsetPlaceholder
  3
AcMechDwgViewMgmt
 90
     1024
280
     0
281
     0
  0
CLASS
  1
ACMSTANDARDISO
  2
AcmStandardISO
  3
"Amdt_StdImp|Product Description: AutoCAD Mechanical|Company: Autodesk, Inc."
 90
     1024
280
     0
281
     0
  0
CLASS
  1
AMDTEDGESTANDARDISO13715
  2
AmdtEdgeStdISO13715
  3
"Amdt_StdImp|Product Description: AutoCAD Mechanical|Company: Autodesk, Inc."
 90
     1024
280
     0
281
     0
  0
CLASS
  1
ACMSURFSTANDARDISO2002
  2
AcmSurfTextStdISO2002
  3
"Amdt_StdImp|Product Description: AutoCAD Mechanical|Company: Autodesk, Inc."
 90
     1024
280
     0
281
     0
  0
CLASS
  1
ACMFCFSTANDARDISO
  2
AcmFCFStdISO
  3
"Amdt_StdImp|Product Description: AutoCAD Mechanical|Company: Autodesk, Inc."
 90
     1024
280
     0
281
     0
  0
CLASS
  1
ACMWELDSTANDARDISO
  2
AcmWeldingStdISO
  3
"Amdt_StdImp|Product Description: AutoCAD Mechanical|Company: Autodesk, Inc."
 90
     1024
280
     0
281
     0
  0
CLASS
  1
ACMIDSTANDARDISO
  2
AcmIdStdISO
  3
"Amdt_StdImp|Product Description: AutoCAD Mechanical|Company: Autodesk, Inc."
 90
     1024
280
     0
281
     0
  0
CLASS
  1
ACMDATUMSTANDARDISO
  2
AcmDatumStdISO
  3
"Amdt_StdImp|Product Description: AutoCAD Mechanical|Company: Autodesk, Inc."
 90
     1024
280
     0
281
     0
  0
CLASS
  1
ACMBOMSTANDARDISO
  2
AcmBOMStdISO
  3
"Amdt_StdImp|Product Description: AutoCAD Mechanical|Company: Autodesk, Inc."
 90
     1024
280
     0
281
     0
  0
CLASS
  1
ACMDETAILSTANDARDISO
  2
AmdtDetailSymStdISO
  3
"Amdt_StdImp|Product Description: AutoCAD Mechanical|Company: Autodesk, Inc."
 90
     1024
280
     0
281
     0
  0
CLASS
  1
ACMSECTIONSTANDARDISO2001
  2
AmdtSectionSymStdISO2001
  3
"Amdt_StdImp|Product Description: AutoCAD Mechanical|Company: Autodesk, Inc."
 90
     1024
280
     0
281
     0
  0
CLASS
  1
ACMCENTERLINESTANDARDISO
  2
AmdtCenterLineStdISO
  3
"Amdt_StdImp|Product Description: AutoCAD Mechanical|Company: Autodesk, Inc."
 90
     1024
280
     0
281
     0
  0
CLASS
  1
ACMTHREADLINESTANDARDISO
  2
AmdtThreadLineStdISO
  3
"Amdt_StdImp|Product Description: AutoCAD Mechanical|Company: Autodesk, Inc."
 90
     1024
280
     0
281
     0
  0
CLASS
  1
ACMNOTESTANDARDISO
  2
AmdtNoteStdISO
  3
"Amdt_StdImp|Product Description: AutoCAD Mechanical|Company: Autodesk, Inc."
 90
     1024
280
     0
281
     0
  0
CLASS
  1
ACMTAPERSTANDARDISO
  2
AcmTaperStdISO
  3
"Amdt_StdImp|Product Description: AutoCAD Mechanical|Company: Autodesk, Inc."
 90
     1024
280
     0
281
     0
  0
CLASS
  1
ACMANOOTATIONVIEWSTANDARDISO
  2
AmdtAnViewStdISO
  3
"Amdt_StdImp|Product Description: AutoCAD Mechanical|Company: Autodesk, Inc."
 90
     1024
280
     0
281
     0
  0
CLASS
  1
ACAMGLAYSTD
  2
AcAmgLayStd
  3
"AmgLay|Product Description: AutoCAD Mechanical|Company: Autodesk, Inc."
 90
     1024
280
     0
281
     0
  0
CLASS
  1
ACAMGDIMSTD
  2
AcAmgDimStd
  3
"AmgDim|Product Description: AutoCAD Mechanical|Company: Autodesk, Inc."
 90
     1024
280
     0
281
     0
  0
CLASS
  1
AMGOBJPROPCFG
  2
AmgObjPropCfg
  3
"AmgLay|Product Description: AutoCAD Mechanical|Company: Autodesk, Inc."
 90
     1025
280
     0
281
     0
  0
CLASS
  1
ACAMGHOLECHARTSTDISO
  2
AcAmgHoleChartStdISO
  3
AmgDim|Product Description: AutoCAD Mechanical|Company: Autodesk, Inc.
 90
     1024
280
     0
281
     0
  0
CLASS
  1
ACAMGTITLESTD
  2
AcAmgTitleStd
  3
"AmgTitle|Product Description: AutoCAD Mechanical|Company: Autodesk, Inc."
 90
     4095
280
     0
281
     0
  0
CLASS
  1
AMDTNOTETEMPLATEDB
  2
AmdtNoteTemplateDB
  3
AcmSymBB|Product Description: AutoCAD Mechanical|Company: Autodesk, Inc.
 90
     1024
280
     0
281
     0
  0
CLASS
  1
ACAMGFILTERDAT
  2
AcAmgFilterDat
  3
"AcadM|Product Description: AutoCAD Mechanical|Company: Autodesk, Inc."
 90
     1024
280
     0
281
     0
  0
ENDSEC
  0
SECTION
  2
TABLES
  0
TABLE
  2
VPORT
  5
8
102
{ACAD_XDICTIONARY
360
8AC
102
}
330
0
100
AcDbSymbolTable
 70
     1
  0
VPORT
  5
57
330
8
100
AcDbSymbolTableRecord
100
AcDbViewportTableRecord
  2
*Active
 70
     0
 10
0.0
 20
0.0
 11
1.0
 21
1.0
 12
6637.735431933491
 22
1560.990321283538
 13
0.0
 23
0.0
 14
1.0
 24
1.0
 15
0.0
 25
0.0
 16
0.0
 26
0.0
 36
1.0
 17
0.0
 27
0.0
 37
0.0
 40
4779.320721536332
 41
2.235571260306242
 42
50.0
 43
0.0
 44
0.0
 50
0.0
 51
0.0
 71
     0
 72
   100
 73
     1
 74
     1
 75
     0
 76
     0
 77
     0
 78
     0
281
     0
 65
     1
110
0.0
120
0.0
130
0.0
111
1.0
121
0.0
131
0.0
112
0.0
122
1.0
132
0.0
 79
     0
146
0.0
  0
ENDTAB
  0
TABLE
  2
LTYPE
  5
5
330
0
100
AcDbSymbolTable
 70
    15
  0
LTYPE
  5
5B
330
5
100
AcDbSymbolTableRecord
100
AcDbLinetypeTableRecord
  2
ByBlock
 70
     0
  3

 72
    65
 73
     0
 40
0.0
  0
LTYPE
  5
5C
330
5
100
AcDbSymbolTableRecord
100
AcDbLinetypeTableRecord
  2
ByLayer
 70
     0
  3

 72
    65
 73
     0
 40
0.0
  0
LTYPE
  5
5D
330
5
100
AcDbSymbolTableRecord
100
AcDbLinetypeTableRecord
  2
Continuous
 70
     0
  3
Solid line
 72
    65
 73
     0
 40
0.0
  0
LTYPE
  5
11FB
330
5
100
AcDbSymbolTableRecord
100
AcDbLinetypeTableRecord
  2
HIDDEN
 70
     0
  3
Ukryta __ __ __ __ __ __ __ __ __ __ __ __ __ __
 72
    65
 73
     2
 40
9.525
 49
6.349999999999999
 74
     0
 49
-3.174999999999999
 74
     0
  0
LTYPE
  5
11FC
330
5
100
AcDbSymbolTableRecord
100
AcDbLinetypeTableRecord
  2
PHANTOM2
 70
     0
  3
Linia pozorna (.5x) ___ _ _ ___ _ _ ___ _ _ ___ _ _
 72
    65
 73
     6
 40
31.75
 49
15.875
 74
     0
 49
-3.174999999999999
 74
     0
 49
3.174999999999999
 74
     0
 49
-3.174999999999999
 74
     0
 49
3.174999999999999
 74
     0
 49
-3.174999999999999
 74
     0
  0
LTYPE
  5
11FD
330
5
100
AcDbSymbolTableRecord
100
AcDbLinetypeTableRecord
  2
CENTER
 70
     0
  3
Centrum ____ _ ____ _ ____ _ ____ _ ____ _ ____
 72
    65
 73
     4
 40
50.8
 49
31.75
 74
     0
 49
-6.349999999999999
 74
     0
 49
6.349999999999999
 74
     0
 49
-6.349999999999999
 74
     0
  0
LTYPE
  5
123B
330
5
100
AcDbSymbolTableRecord
100
AcDbLinetypeTableRecord
  2
AM_ISO02W050
 70
     0
  3
__ __ __ __ __ __ __ __ __ __ __ __ __ __ __
 72
    65
 73
     2
 40
7.5
 49
6.0
 74
     0
 49
-1.5
 74
     0
  0
LTYPE
  5
123C
330
5
100
AcDbSymbolTableRecord
100
AcDbLinetypeTableRecord
  2
AM_ISO08W050
 70
     0
  3
____ . ____ . ____ . ____ . ____ . ____ . ____
 72
    65
 73
     4
 40
18.0
 49
12.0
 74
     0
 49
-1.5
 74
     0
 49
3.0
 74
     0
 49
-1.5
 74
     0
  0
LTYPE
  5
123D
330
5
100
AcDbSymbolTableRecord
100
AcDbLinetypeTableRecord
  2
AM_ISO09W050
 70
     0
  3
_____ . . _____ . . _____ . . ____ .. ____
 72
    65
 73
     6
 40
22.5
 49
12.0
 74
     0
 49
-1.5
 74
     0
 49
3.0
 74
     0
 49
-1.5
 74
     0
 49
3.0
 74
     0
 49
-1.5
 74
     0
  0
LTYPE
  5
123E
330
5
100
AcDbSymbolTableRecord
100
AcDbLinetypeTableRecord
  2
Amconstr
 70
     0
  3
_______________________
 72
    65
 73
     2
 40
9999.0
 49
9999.0
 74
     0
 49
0.0
 74
     0
  0
LTYPE
  5
123F
330
5
100
AcDbSymbolTableRecord
100
AcDbLinetypeTableRecord
  2
AM_ISO08W050x2
 70
     0
  3
__ . __ . __ . __ . __ . __
 72
    65
 73
     4
 40
9.0
 49
6.0
 74
     0
 49
-0.75
 74
     0
 49
1.5
 74
     0
 49
-0.75
 74
     0
  0
LTYPE
  5
1240
330
5
100
AcDbSymbolTableRecord
100
AcDbLinetypeTableRecord
  2
AM_ISO02W050x2
 70
     0
  3
 _ _ _ _ _ _ _ _ _ _ _ _
 72
    65
 73
     2
 40
3.75
 49
3.0
 74
     0
 49
-0.75
 74
     0
  0
LTYPE
  5
1243
330
5
100
AcDbSymbolTableRecord
100
AcDbLinetypeTableRecord
  2
Amzigzag
 70
     0
  3
/\/-/\/-/\/-/\/-/\/-/\/
 72
    65
 73
     2
 40
11.0001
 49
0.0001
 74
     4
 75
   136
340
1242
 46
0.04
 50
0.0
 44
0.0
 45
0.0
 49
-11.0
 74
     0
  0
LTYPE
  5
1252
330
5
100
AcDbSymbolTableRecord
100
AcDbLinetypeTableRecord
  2
ACISOWELD
 70
     0
  3
_ _ _ _ _
 72
    65
 73
     2
 40
2.0
 49
2.0
 74
     0
 49
-1.0
 74
     0
  0
LTYPE
  5
1253
330
5
100
AcDbSymbolTableRecord
100
AcDbLinetypeTableRecord
  2
ACISOTGB
 70
     0
  3
__ . . __ . .
 72
    65
 73
     6
 40
9.0
 49
4.0
 74
     0
 49
-1.0
 74
     0
 49
1.0
 74
     0
 49
-1.0
 74
     0
 49
1.0
 74
     0
 49
-1.0
 74
     0
  0
LTYPE
  5
1254
330
5
100
AcDbSymbolTableRecord
100
AcDbLinetypeTableRecord
  2
ACISOTGL
 70
     0
  3
_ _ _ _ _
 72
    65
 73
     2
 40
3.0
 49
2.0
 74
     0
 49
-1.0
 74
     0
  0
ENDTAB
  0
TABLE
  2
LAYER
  5
2
330
0
100
AcDbSymbolTable
 70
     6
  0
LAYER
  5
54
330
2
100
AcDbSymbolTableRecord
100
AcDbLayerTableRecord
  2
0
 70
     0
 62
     7
  6
Continuous
370
    -3
390
F
  0
LAYER
  5
BA
330
2
100
AcDbSymbolTableRecord
100
AcDbLayerTableRecord
  2
Dimension (ISO)
 70
     0
 62
   161
  6
Continuous
370
    18
390
F
  0
LAYER
  5
C5
330
2
100
AcDbSymbolTableRecord
100
AcDbLayerTableRecord
  2
Title (ISO)
 70
     0
 62
     7
  6
Continuous
370
    30
390
F
  0
LAYER
  5
C8
330
2
100
AcDbSymbolTableRecord
100
AcDbLayerTableRecord
  2
Visible (ISO)
 70
     0
 62
     7
  6
Continuous
370
    30
390
F
  0
LAYER
  5
C9
330
2
100
AcDbSymbolTableRecord
100
AcDbLayerTableRecord
  2
Visible Narrow (ISO)
 70
     0
 62
     7
  6
Continuous
370
    15
390
F
  0
LAYER
  5
271
330
2
100
AcDbSymbolTableRecord
100
AcDbLayerTableRecord
  2
Defpoints
 70
     0
 62
     7
  6
Continuous
290
     0
370
    -3
390
F
  0
ENDTAB
  0
TABLE
  2
STYLE
  5
3
330
0
100
AcDbSymbolTable
 70
     6
  0
STYLE
  5
55
330
3
100
AcDbSymbolTableRecord
100
AcDbTextStyleTableRecord
  2
Standard
 70
     0
 40
0.0
 41
1.0
 50
0.0
 71
     0
 42
0.2
  3
tahoma.ttf
  4

1001
ACAD
1000
Tahoma
1071
      256
  0
STYLE
  5
CD
330
3
100
AcDbSymbolTableRecord
100
AcDbTextStyleTableRecord
  2
Label Text (ISO)
 70
     0
 40
0.0
 41
1.0
 50
0.0
 71
     0
 42
0.2
  3
tahoma.ttf
  4

1001
ACAD
1000
Tahoma
1071
      256
  0
STYLE
  5
CE
330
3
100
AcDbSymbolTableRecord
100
AcDbTextStyleTableRecord
  2
Note Text (ISO)
 70
     0
 40
0.0
 41
1.0
 50
0.0
 71
     0
 42
0.2
  3
tahoma.ttf
  4

1001
ACAD
1000
Tahoma
1071
      256
  0
STYLE
  5
1242
330
3
100
AcDbSymbolTableRecord
100
AcDbTextStyleTableRecord
  2

 70
     1
 40
0.0
 41
1.0
 50
0.0
 71
     0
 42
0.2
  3
genltshp.shx
  4

  0
STYLE
  5
1251
330
3
100
AcDbSymbolTableRecord
100
AcDbTextStyleTableRecord
  2
ACISOGDT
 70
     0
 40
0.0
 41
1.0
 50
0.0
 71
     0
 42
0.2
  3
amgdt.shx
  4

  0
ENDTAB
  0
TABLE
  2
VIEW
  5
6
330
0
100
AcDbSymbolTable
 70
     0
  0
ENDTAB
  0
TABLE
  2
UCS
  5
7
330
0
100
AcDbSymbolTable
 70
     0
  0
ENDTAB
  0
TABLE
  2
APPID
  5
9
330
0
100
AcDbSymbolTable
 70
    18
  0
APPID
  5
56
330
9
100
AcDbSymbolTableRecord
100
AcDbRegAppTableRecord
  2
ACAD
 70
     0
  0
APPID
  5
5E
330
9
100
AcDbSymbolTableRecord
100
AcDbRegAppTableRecord
  2
AcadAnnotative
 70
     0
  0
APPID
  5
111
330
9
100
AcDbSymbolTableRecord
100
AcDbRegAppTableRecord
  2
AcadAnnoPO
 70
     0
  0
APPID
  5
8E2
330
9
100
AcDbSymbolTableRecord
100
AcDbRegAppTableRecord
  2
ACAD_MLEADERVER
 70
     0
  0
APPID
  5
C3F
330
9
100
AcDbSymbolTableRecord
100
AcDbRegAppTableRecord
  2
ACAD_EXEMPT_FROM_CAD_STANDARDS
 70
     0
  0
APPID
  5
11D0
330
9
100
AcDbSymbolTableRecord
100
AcDbRegAppTableRecord
  2
MCAD_NO_VIS
 70
     0
  0
APPID
  5
11D1
330
9
100
AcDbSymbolTableRecord
100
AcDbRegAppTableRecord
  2
ACAD_TEMP_GRAPHIC
 70
     0
  0
APPID
  5
11FF
330
9
100
AcDbSymbolTableRecord
100
AcDbRegAppTableRecord
  2
AD_DRAW
 70
     0
  0
APPID
  5
1202
330
9
100
AcDbSymbolTableRecord
100
AcDbRegAppTableRecord
  2
ACATTRIBSERVICES
 70
     0
  0
APPID
  5
121B
330
9
100
AcDbSymbolTableRecord
100
AcDbRegAppTableRecord
  2
DESIGNERASSEMBLIES
 70
     0
  0
APPID
  5
1220
330
9
100
AcDbSymbolTableRecord
100
AcDbRegAppTableRecord
  2
ACADM_DIM_EDIT
 70
     0
  0
APPID
  5
1221
330
9
100
AcDbSymbolTableRecord
100
AcDbRegAppTableRecord
  2
AMDT_DM_ADJ
 70
     0
  0
APPID
  5
1238
330
9
100
AcDbSymbolTableRecord
100
AcDbRegAppTableRecord
  2
ACAD_DSTYLE_DIMJAG
 70
     0
  0
APPID
  5
1239
330
9
100
AcDbSymbolTableRecord
100
AcDbRegAppTableRecord
  2
ACAD_DSTYLE_DIMBREAK
 70
     0
  0
APPID
  5
12AF
330
9
100
AcDbSymbolTableRecord
100
AcDbRegAppTableRecord
  2
ACAD_DSTYLE_DIMARC_LENGTH_SYMBOL
 70
     0
  0
APPID
  5
12B0
330
9
100
AcDbSymbolTableRecord
100
AcDbRegAppTableRecord
  2
ACAD_DSTYLE_DIM_LINETYPE
 70
     0
  0
APPID
  5
12B1
330
9
100
AcDbSymbolTableRecord
100
AcDbRegAppTableRecord
  2
ACAD_DSTYLE_DIM_EXT1_LINETYPE
 70
     0
  0
APPID
  5
12B2
330
9
100
AcDbSymbolTableRecord
100
AcDbRegAppTableRecord
  2
ACAD_DSTYLE_DIM_EXT2_LINETYPE
 70
     0
  0
ENDTAB
  0
TABLE
  2
DIMSTYLE
  5
A
330
0
100
AcDbSymbolTable
 70
     9
100
AcDbDimStyleTable
 71
     2
340
58
340
D4
  0
DIMSTYLE
105
58
330
A
100
AcDbSymbolTableRecord
100
AcDbDimStyleTableRecord
  2
Standard
 70
     0
340
55
  0
DIMSTYLE
105
D4
102
{ACAD_REACTORS
330
6CA
330
7AC
330
1057
330
1058
330
1059
330
105A
102
}
330
A
100
AcDbSymbolTableRecord
100
AcDbDimStyleTableRecord
  2
Default (ISO)
 70
     0
 40
20.0
 41
2.5
 42
0.5
 43
5.999999999999999
 44
1.0
 45
0.00000001
 46
10.0
 73
     0
 77
     1
 78
     8
 79
     2
140
3.5
143
0.03937
146
0.7142857313156128
147
0.762
171
     3
172
     1
176
   256
177
   256
178
   256
271
     2
272
     2
274
     3
278
    44
340
CD
371
    -1
372
    -1
  0
DIMSTYLE
105
1237
102
{ACAD_REACTORS
330
1226
102
}
330
A
100
AcDbSymbolTableRecord
100
AcDbDimStyleTableRecord
  2
AM_ISO
 70
     0
  4
"
 41
3.5
 42
1.0
 43
10.0
 44
1.0
 47
0.1
 48
0.1
 73
     0
 74
     0
 77
     1
 78
     8
 79
     2
140
3.5
141
0.0
143
0.0393701
146
0.71
147
1.5
172
     1
176
   256
177
   256
178
     2
271
     2
272
     3
274
     4
283
     0
284
     8
340
55
371
    -1
372
    -1
1001
ACAD_DSTYLE_DIMJAG
1070
   388
1040
1.5
1001
ACAD_DSTYLE_DIMBREAK
1070
   391
1040
3.75
1001
ACAD_DSTYLE_DIMARC_LENGTH_SYMBOL
1070
   379
1070
     1
1001
ACAD_DSTYLE_DIM_LINETYPE
1070
   380
1005
5B
1001
ACAD_DSTYLE_DIM_EXT1_LINETYPE
1070
   381
1005
5B
1001
ACAD_DSTYLE_DIM_EXT2_LINETYPE
1070
   382
1005
5B
  0
DIMSTYLE
105
1244
330
A
100
AcDbSymbolTableRecord
100
AcDbDimStyleTableRecord
  2
AM_ISO$3
 70
     0
  4
"
 41
3.5
 42
1.0
 43
10.0
 44
1.0
 47
0.1
 48
0.1
 73
     0
 77
     1
 78
     8
 79
     2
140
3.5
141
0.0
143
0.0393701
146
0.71
147
1.5
176
   256
177
   256
178
     2
271
     2
272
     3
274
     4
283
     0
284
     8
288
     1
289
     0
340
55
371
    -1
372
    -1
1001
ACAD_DSTYLE_DIMBREAK
1070
   391
1040
3.75
1001
ACAD_DSTYLE_DIMJAG
1070
   388
1040
1.5
1001
ACAD_DSTYLE_DIMARC_LENGTH_SYMBOL
1070
   379
1070
     1
1001
ACAD_DSTYLE_DIM_LINETYPE
1070
   380
1005
5B
1001
ACAD_DSTYLE_DIM_EXT1_LINETYPE
1070
   381
1005
5B
1001
ACAD_DSTYLE_DIM_EXT2_LINETYPE
1070
   382
1005
5B
  0
DIMSTYLE
105
1245
330
A
100
AcDbSymbolTableRecord
100
AcDbDimStyleTableRecord
  2
AM_ISO$4
 70
     0
  4
"
 41
3.5
 42
1.0
 43
10.0
 44
1.0
 47
0.1
 48
0.1
 73
     0
 77
     1
 78
     8
 79
     2
140
3.5
141
0.0
143
0.0393701
146
0.71
147
1.5
176
   256
177
   256
178
     2
271
     2
272
     3
274
     4
283
     0
284
     8
288
     1
289
     0
340
55
371
    -1
372
    -1
1001
ACAD_DSTYLE_DIMBREAK
1070
   391
1040
3.75
1001
ACAD_DSTYLE_DIMJAG
1070
   388
1040
1.5
1001
ACAD_DSTYLE_DIMARC_LENGTH_SYMBOL
1070
   379
1070
     1
1001
ACAD_DSTYLE_DIM_LINETYPE
1070
   380
1005
5B
1001
ACAD_DSTYLE_DIM_EXT1_LINETYPE
1070
   381
1005
5B
1001
ACAD_DSTYLE_DIM_EXT2_LINETYPE
1070
   382
1005
5B
  0
DIMSTYLE
105
1246
330
A
100
AcDbSymbolTableRecord
100
AcDbDimStyleTableRecord
  2
AM_ISO$6
 70
     0
  4
"
 41
3.5
 42
1.0
 43
10.0
 44
1.0
 47
0.1
 48
0.1
 73
     0
 74
     0
 78
     8
 79
     2
140
3.5
141
0.0
143
0.0393701
146
0.71
147
1.5
172
     1
176
   256
177
   256
178
     2
271
     2
272
     3
274
     4
283
     0
284
     8
340
55
371
    -1
372
    -1
1001
ACAD_DSTYLE_DIMBREAK
1070
   391
1040
3.75
1001
ACAD_DSTYLE_DIMJAG
1070
   388
1040
1.5
1001
ACAD_DSTYLE_DIMARC_LENGTH_SYMBOL
1070
   379
1070
     1
1001
ACAD_DSTYLE_DIM_LINETYPE
1070
   380
1005
5B
1001
ACAD_DSTYLE_DIM_EXT1_LINETYPE
1070
   381
1005
5B
1001
ACAD_DSTYLE_DIM_EXT2_LINETYPE
1070
   382
1005
5B
  0
DIMSTYLE
105
1247
330
A
100
AcDbSymbolTableRecord
100
AcDbDimStyleTableRecord
  2
AM_ISO$7
 70
     0
  4
"
 41
3.5
 42
1.0
 43
10.0
 44
1.0
 47
0.1
 48
0.1
 73
     0
 74
     0
 77
     1
 78
     8
 79
     2
140
3.5
141
0.0
143
0.0393701
146
0.71
147
1.5
172
     1
176
   256
177
   256
178
     2
271
     2
272
     3
274
     4
283
     0
284
     8
340
55
371
    -1
372
    -1
1001
ACAD_DSTYLE_DIMBREAK
1070
   391
1040
3.75
1001
ACAD_DSTYLE_DIMJAG
1070
   388
1040
1.5
1001
ACAD_DSTYLE_DIMARC_LENGTH_SYMBOL
1070
   379
1070
     1
1001
ACAD_DSTYLE_DIM_LINETYPE
1070
   380
1005
5B
1001
ACAD_DSTYLE_DIM_EXT1_LINETYPE
1070
   381
1005
5B
1001
ACAD_DSTYLE_DIM_EXT2_LINETYPE
1070
   382
1005
5B
  0
DIMSTYLE
105
1248
330
A
100
AcDbSymbolTableRecord
100
AcDbDimStyleTableRecord
  2
AM_ISO$SF
 70
     0
  4
"
 41
3.5
 42
1.0
 43
10.0
 44
1.0
 47
0.1
 48
0.1
 73
     0
 74
     0
 75
     1
 76
     1
 77
     1
 78
     8
 79
     2
140
3.5
141
0.0
143
0.0393701
146
0.71
147
1.5
172
     1
176
   256
177
   256
178
     2
271
     2
272
     3
274
     4
283
     0
284
     8
340
55
371
    -1
372
    -1
1001
ACAD_DSTYLE_DIMBREAK
1070
   391
1040
3.75
1001
ACAD_DSTYLE_DIMJAG
1070
   388
1040
1.5
1001
ACAD_DSTYLE_DIMARC_LENGTH_SYMBOL
1070
   379
1070
     1
1001
ACAD_DSTYLE_DIM_LINETYPE
1070
   380
1005
5B
1001
ACAD_DSTYLE_DIM_EXT1_LINETYPE
1070
   381
1005
5B
1001
ACAD_DSTYLE_DIM_EXT2_LINETYPE
1070
   382
1005
5B
  0
DIMSTYLE
105
124D
330
A
100
AcDbSymbolTableRecord
100
AcDbDimStyleTableRecord
  2
AM_ISO$SH
 70
     0
  4
"
 41
3.5
 42
1.0
 43
10.0
 44
1.0
 47
0.1
 48
0.1
 73
     0
 74
     0
 75
     1
 76
     1
 77
     1
 78
     8
 79
     2
140
3.5
141
0.0
143
0.0393701
144
2.0
146
0.71
147
1.5
172
     1
173
     1
176
   256
177
   256
178
     2
271
     2
272
     3
274
     4
283
     0
284
     8
340
55
343
1249
371
    -1
372
    -1
1001
ACAD_DSTYLE_DIMBREAK
1070
   391
1040
3.75
1001
ACAD_DSTYLE_DIMJAG
1070
   388
1040
1.5
1001
ACAD_DSTYLE_DIMARC_LENGTH_SYMBOL
1070
   379
1070
     1
1001
ACAD_DSTYLE_DIM_LINETYPE
1070
   380
1005
5B
1001
ACAD_DSTYLE_DIM_EXT1_LINETYPE
1070
   381
1005
5B
1001
ACAD_DSTYLE_DIM_EXT2_LINETYPE
1070
   382
1005
5B
  0
ENDTAB
  0
TABLE
  2
BLOCK_RECORD
  5
1
330
0
100
AcDbSymbolTable
 70
    11
  0
BLOCK_RECORD
  5
6C
330
1
100
AcDbSymbolTableRecord
100
AcDbBlockTableRecord
  2
*Model_Space
340
6F
  0
BLOCK_RECORD
  5
68
330
1
100
AcDbSymbolTableRecord
100
AcDbBlockTableRecord
  2
*Paper_Space
340
6B
  0
BLOCK_RECORD
  5
70
330
1
100
AcDbSymbolTableRecord
100
AcDbBlockTableRecord
  2
*Paper_Space0
340
73
  0
BLOCK_RECORD
  5
109
330
1
100
AcDbSymbolTableRecord
100
AcDbBlockTableRecord
  2
Tabelki rysunkowe Rzut
340
0
102
{BLKREFS
331
114
102
}
  0
BLOCK_RECORD
  5
6CB
330
1
100
AcDbSymbolTableRecord
100
AcDbBlockTableRecord
  2
*D2
340
0
  0
BLOCK_RECORD
  5
7AD
330
1
100
AcDbSymbolTableRecord
100
AcDbBlockTableRecord
  2
*D3
340
0
  0
BLOCK_RECORD
  5
C68
330
1
100
AcDbSymbolTableRecord
100
AcDbBlockTableRecord
  2
5065_Kalejdoskop
340
0
310
2800000020000000200000000100080000000000000400000000000000000000000000000000000000000000000080000080000000808000800000008000800080800000C0C0C000C0DCC000F0CAA6000020400000206000002080000020A0000020C0000020E00000400000004020000040400000406000004080000040A0
310
000040C0000040E00000600000006020000060400000606000006080000060A0000060C0000060E00000800000008020000080400000806000008080000080A0000080C0000080E00000A0000000A0200000A0400000A0600000A0800000A0A00000A0C00000A0E00000C0000000C0200000C0400000C0600000C0800000C0
310
A00000C0C00000C0E00000E0000000E0200000E0400000E0600000E0800000E0A00000E0C00000E0E00040000000400020004000400040006000400080004000A0004000C0004000E00040200000402020004020400040206000402080004020A0004020C0004020E000404000004040200040404000404060004040800040
310
40A0004040C0004040E00040600000406020004060400040606000406080004060A0004060C0004060E00040800000408020004080400040806000408080004080A0004080C0004080E00040A0000040A0200040A0400040A0600040A0800040A0A00040A0C00040A0E00040C0000040C0200040C0400040C0600040C08000
310
40C0A00040C0C00040C0E00040E0000040E0200040E0400040E0600040E0800040E0A00040E0C00040E0E00080000000800020008000400080006000800080008000A0008000C0008000E00080200000802020008020400080206000802080008020A0008020C0008020E00080400000804020008040400080406000804080
310
008040A0008040C0008040E00080600000806020008060400080606000806080008060A0008060C0008060E00080800000808020008080400080806000808080008080A0008080C0008080E00080A0000080A0200080A0400080A0600080A0800080A0A00080A0C00080A0E00080C0000080C0200080C0400080C0600080C0
310
800080C0A00080C0C00080C0E00080E0000080E0200080E0400080E0600080E0800080E0A00080E0C00080E0E000C0000000C0002000C0004000C0006000C0008000C000A000C000C000C000E000C0200000C0202000C0204000C0206000C0208000C020A000C020C000C020E000C0400000C0402000C0404000C0406000C0
310
408000C040A000C040C000C040E000C0600000C0602000C0604000C0606000C0608000C060A000C060C000C060E000C0800000C0802000C0804000C0806000C0808000C080A000C080C000C080E000C0A00000C0A02000C0A04000C0A06000C0A08000C0A0A000C0A0C000C0A0E000C0C00000C0C02000C0C04000C0C06000
310
C0C08000C0C0A000F0FBFF00A4A0A000808080000000FF0000FF000000FFFF00FF000000FF00FF00FFFF0000FFFFFF0049494949494949494949494949494949494949494949494949494949494949494949494949494949494949494949494949494949494949494949494949494949494949494949494949494949494949
310
49494949494949494949494949494949494949494949494949494949494949494949494949494949494949494949494949494949494949494949494949494949494949494949494949494949494949494949494949494949494949494949494949494949494949494949494949494949494949494949494949494949494949
310
49494949494949494949494949494949494949494949494949494949494949494949494949494949494949494949494949494949494949494949494949494949494949494949494949494949494949494949494949494949494949494949494949494949494949494949494949494949494949494949494949494949494949
310
49494949494949494949494949FFFF494949494949494949494949494949494949FFFFFF494949494949494949FFFF4949494949FFFFFFFF494949494949494949FFFFFF494949494949494949FFFF4949494949FFFFFFFFFFFFFFFFFFFFFFFFFFFFFFFFFFFFFFFFFFFFFFFFFFFFFF4949494949FFFFFFFF49494949494949
310
4949FFFFFF494949494949494949FFFFFFFFFF4949FFFFFFFF494949494949494949FFFFFF494949494949494949FFFFFFFFFF4949FFFFFFFF494949494949494949FFFFFF494949494949494949FFFFFFFFFF4949FFFFFFFF494949494949494949FFFFFF494949494949494949FFFFFFFFFF4949FFFFFFFFFFFFFFFFFFFF
310
FFFFFFFFFFFFFFFFFFFFFFFFFFFFFFFFFF4949494949FFFFFFFF494949494949494949FFFFFF494949494949494949FFFF494949494949494949494949494949494949FFFFFF494949494949494949FFFF494949494949494949494949494949494949494949494949494949494949FFFF4949494949494949494949494949
310
49494949494949494949494949494949494949494949494949494949494949494949494949494949494949494949494949494949494949494949494949494949494949494949494949494949494949494949494949494949494949494949494949494949494949494949494949494949494949494949494949494949494949
310
49494949494949494949494949494949494949494949494949494949494949494949494949494949494949494949494949494949494949494949494949494949494949494949494949494949494949494949494949494949494949494949494949494949494949494949494949494949494949494949494949494949494949
310
4949494949494949494949494949494949494949494949494949494949494949494949494949494949494949494949494949494949494949
102
{BLKREFS
331
D18
102
}
1001
ACAD
1000
DesignCenter Data
1002
{
1070
     1
1070
     4
1002
}
  0
BLOCK_RECORD
  5
105B
330
1
100
AcDbSymbolTableRecord
100
AcDbBlockTableRecord
  2
*D5
340
0
  0
BLOCK_RECORD
  5
1066
330
1
100
AcDbSymbolTableRecord
100
AcDbBlockTableRecord
  2
*D6
340
0
  0
BLOCK_RECORD
  5
1071
330
1
100
AcDbSymbolTableRecord
100
AcDbBlockTableRecord
  2
*D7
340
0
  0
BLOCK_RECORD
  5
107C
330
1
100
AcDbSymbolTableRecord
100
AcDbBlockTableRecord
  2
*D8
340
0
  0
BLOCK_RECORD
  5
1249
330
1
100
AcDbSymbolTableRecord
100
AcDbBlockTableRecord
  2
GENAXEH
340
0
  0
ENDTAB
  0
ENDSEC
  0
SECTION
  2
BLOCKS
  0
BLOCK
  5
6D
330
6C
100
AcDbEntity
  8
0
100
AcDbBlockBegin
  2
*Model_Space
 70
     0
 10
0.0
 20
0.0
 30
0.0
  3
*Model_Space
  1

  0
ENDBLK
  5
6E
330
6C
100
AcDbEntity
  8
0
100
AcDbBlockEnd
  0
BLOCK
  5
69
330
68
100
AcDbEntity
 67
     1
  8
0
100
AcDbBlockBegin
  2
*Paper_Space
 70
     0
 10
0.0
 20
0.0
 30
0.0
  3
*Paper_Space
  1

  0
ENDBLK
  5
6A
330
68
100
AcDbEntity
 67
     1
  8
0
100
AcDbBlockEnd
  0
BLOCK
  5
71
330
70
100
AcDbEntity
 67
     1
  8
0
100
AcDbBlockBegin
  2
*Paper_Space0
 70
     0
 10
0.0
 20
0.0
 30
0.0
  3
*Paper_Space0
  1

  0
ENDBLK
  5
72
330
70
100
AcDbEntity
 67
     1
  8
0
100
AcDbBlockEnd
  0
BLOCK
  5
10A
330
109
100
AcDbEntity
  8
0
100
AcDbBlockBegin
  2
Tabelki rysunkowe Rzut
 70
     2
 10
0.0
 20
0.0
 30
0.0
  3
Tabelki rysunkowe Rzut
  1

  0
TEXT
  5
10C
330
109
100
AcDbEntity
  8
Title (ISO)
100
AcDbText
 10
166.7768162971836
 20
11.24130542460445
 30
0.0
 40
2.5
  1
Obowiązuje od:
  7
Note Text (ISO)
 11
166.7768162971836
 21
13.74130542460445
 31
0.0
100
AcDbText
 73
     3
  0
TEXT
  5
10E
330
109
100
AcDbEntity
  8
Title (ISO)
100
AcDbText
 10
166.7768162971836
 20
18.24130542460445
 30
0.0
 40
2.5
  1
Nr kat.:
  7
Note Text (ISO)
 11
166.7768162971836
 21
20.74130542460446
 31
0.0
100
AcDbText
 73
     3
  0
TEXT
  5
10F
330
109
100
AcDbEntity
  8
Title (ISO)
100
AcDbText
 10
166.7768162971836
 20
14.74130542460445
 30
0.0
 40
2.5
  1
Nazwa:
  7
Note Text (ISO)
 11
166.7768162971836
 21
17.24130542460445
 31
0.0
100
AcDbText
 73
     3
  0
ATTDEF
  5
110
102
{ACAD_XDICTIONARY
360
898
102
}
330
109
100
AcDbEntity
  8
Title (ISO)
100
AcDbText
 10
178.3604294617255
 20
18.14056669024303
 30
0.0
 40
2.5
  1
5065
  7
Note Text (ISO)
100
AcDbAttributeDefinition
  3
Numer katalogowy
  2
Numer_katalogowy_001
 70
     0
  0
ATTDEF
  5
112
102
{ACAD_XDICTIONARY
360
89B
102
}
330
109
100
AcDbEntity
  8
Title (ISO)
100
AcDbText
 10
190.4107988369825
 20
11.13720873189256
 30
0.0
 40
2.5
  1
2017-03-16
  7
Note Text (ISO)
100
AcDbAttributeDefinition
  3
DATA UTWORZENIA
  2
DATA_UTWORZENIA_001
 70
     0
  0
ATTDEF
  5
113
102
{ACAD_XDICTIONARY
360
89E
102
}
330
109
100
AcDbEntity
  8
Title (ISO)
100
AcDbText
 10
178.2697645862628
 20
14.5163222312757
 30
0.0
 40
2.5
  1
Kalejdoskop
  7
Note Text (ISO)
100
AcDbAttributeDefinition
  3
Nazwa
  2
Nazwa_001
 70
     0
  0
ENDBLK
  5
10B
330
109
100
AcDbEntity
  8
0
100
AcDbBlockEnd
  0
BLOCK
  5
6CC
330
6CB
100
AcDbEntity
  8
0
100
AcDbBlockBegin
  2
*D2
 70
     1
 10
0.0
 20
0.0
 30
0.0
  3
*D2
  1

  0
LINE
  5
7A3
330
6CB
100
AcDbEntity
  8
Dimension (ISO)
100
AcDbLine
 10
6814.904961153311
 20
1076.120008773685
 30
0.0
 11
6814.904961153311
 21
803.9657018738861
 31
0.0
  0
LINE
  5
7A4
330
6CB
100
AcDbEntity
  8
Dimension (ISO)
100
AcDbLine
 10
6190.904961153312
 20
1028.620008773699
 30
0.0
 11
6190.904961153312
 21
803.9657018738861
 31
0.0
  0
LINE
  5
7A5
330
6CB
100
AcDbEntity
  8
Dimension (ISO)
100
AcDbLine
 10
6764.904961153312
 20
823.965701873886
 30
0.0
 11
6240.904961153312
 21
823.965701873886
 31
0.0
  0
SOLID
  5
7A6
330
6CB
100
AcDbEntity
  8
Dimension (ISO)
100
AcDbTrace
 10
6764.904961153312
 20
832.2990352072194
 30
0.0
 11
6764.904961153312
 21
815.6323685405526
 31
0.0
 12
6814.904961153311
 22
823.965701873886
 32
0.0
 13
6814.904961153311
 23
823.965701873886
 33
0.0
  0
SOLID
  5
7A7
330
6CB
100
AcDbEntity
  8
Dimension (ISO)
100
AcDbTrace
 10
6240.904961153312
 20
832.2990352072194
 30
0.0
 11
6240.904961153312
 21
815.6323685405526
 31
0.0
 12
6190.904961153312
 22
823.965701873886
 32
0.0
 13
6190.904961153312
 23
823.965701873886
 33
0.0
  0
MTEXT
  5
7A8
330
6CB
100
AcDbEntity
  8
Dimension (ISO)
100
AcDbMText
 10
6502.904961153311
 20
912.1204092604029
 30
0.0
 40
70.0
 41
0.0
 71
     2
 72
     1
  1
\A1;624
  7
Label Text (ISO)
 73
     1
 44
1.0
1001
ACAD
1000
MTEXTBEGIN
1070
    73
1070
     1
1070
    44
1040
1.0
1070
    74
1070
     0
1000
MTEXTEND
  0
POINT
  5
7A9
330
6CB
100
AcDbEntity
  8
Defpoints
 62
     0
100
AcDbPoint
 10
6814.904961153311
 20
1086.120008773685
 30
0.0
  0
POINT
  5
7AA
330
6CB
100
AcDbEntity
  8
Defpoints
 62
     0
100
AcDbPoint
 10
6190.904961153312
 20
1038.620008773699
 30
0.0
  0
POINT
  5
7AB
330
6CB
100
AcDbEntity
  8
Defpoints
 62
     0
100
AcDbPoint
 10
6190.904961153312
 20
823.965701873886
 30
0.0
  0
ENDBLK
  5
6CD
330
6CB
100
AcDbEntity
  8
0
100
AcDbBlockEnd
  0
BLOCK
  5
7AE
330
7AD
100
AcDbEntity
  8
0
100
AcDbBlockBegin
  2
*D3
 70
     1
 10
0.0
 20
0.0
 30
0.0
  3
*D3
  1

  0
LINE
  5
88D
330
7AD
100
AcDbEntity
  8
Dimension (ISO)
100
AcDbLine
 10
6762.904961153314
 20
1231.41661894319
 30
0.0
 11
7071.681523210248
 21
1231.41661894319
 31
0.0
  0
LINE
  5
88E
330
7AD
100
AcDbEntity
  8
Dimension (ISO)
100
AcDbLine
 10
6762.904961153307
 20
990.8233986042068
 30
0.0
 11
7071.681523210248
 21
990.8233986042068
 31
0.0
  0
LINE
  5
88F
330
7AD
100
AcDbEntity
  8
Dimension (ISO)
100
AcDbLine
 10
7051.681523210247
 20
1181.41661894319
 30
0.0
 11
7051.681523210247
 21
1040.823398604207
 31
0.0
  0
SOLID
  5
890
330
7AD
100
AcDbEntity
  8
Dimension (ISO)
100
AcDbTrace
 10
7043.348189876915
 20
1181.41661894319
 30
0.0
 11
7060.01485654358
 21
1181.41661894319
 31
0.0
 12
7051.681523210247
 22
1231.41661894319
 32
0.0
 13
7051.681523210247
 23
1231.41661894319
 33
0.0
  0
SOLID
  5
891
330
7AD
100
AcDbEntity
  8
Dimension (ISO)
100
AcDbTrace
 10
7043.348189876915
 20
1040.823398604207
 30
0.0
 11
7060.01485654358
 21
1040.823398604207
 31
0.0
 12
7051.681523210247
 22
990.8233986042068
 32
0.0
 13
7051.681523210247
 23
990.8233986042068
 33
0.0
  0
MTEXT
  5
892
330
7AD
100
AcDbEntity
  8
Dimension (ISO)
100
AcDbMText
 10
6964.984169743125
 20
1111.120008773699
 30
0.0
 40
70.0
 41
0.0
 71
     2
 72
     1
  1
\A1;241
  7
Label Text (ISO)
 11
0.0000000000000001
 21
1.0
 31
0.0
 73
     1
 44
1.0
1001
ACAD
1000
MTEXTBEGIN
1070
    73
1070
     1
1070
    44
1040
1.0
1070
    74
1070
     0
1000
MTEXTEND
  0
POINT
  5
893
330
7AD
100
AcDbEntity
  8
Defpoints
 62
     0
100
AcDbPoint
 10
6752.904961153314
 20
1231.41661894319
 30
0.0
  0
POINT
  5
894
330
7AD
100
AcDbEntity
  8
Defpoints
 62
     0
100
AcDbPoint
 10
6752.904961153308
 20
990.8233986042068
 30
0.0
  0
POINT
  5
895
330
7AD
100
AcDbEntity
  8
Defpoints
 62
     0
100
AcDbPoint
 10
7051.681523210247
 20
990.8233986042068
 30
0.0
  0
ENDBLK
  5
7AF
330
7AD
100
AcDbEntity
  8
0
100
AcDbBlockEnd
  0
BLOCK
  5
C69
330
C68
100
AcDbEntity
  8
0
100
AcDbBlockBegin
  2
5065_Kalejdoskop
 70
     0
 10
0.0
 20
0.0
 30
0.0
  3
5065_Kalejdoskop
  1

  0
LINE
  5
C6B
330
C68
100
AcDbEntity
  8
Visible (ISO)
100
AcDbLine
 10
6474.904961153311
 20
1111.120008773716
 30
0.0
 11
6479.904961153311
 21
1111.120008773718
 31
0.0
  0
ARC
  5
C6C
330
C68
100
AcDbEntity
  8
Visible (ISO)
100
AcDbCircle
 10
6479.904961153312
 20
1026.120008773691
 30
0.0
 40
5.000000000000008
100
AcDbArc
 50
180.0
 51
270.0
  0
LINE
  5
C6D
330
C68
100
AcDbEntity
  8
Visible (ISO)
100
AcDbLine
 10
6474.904961153311
 20
1053.649171062991
 30
0.0
 11
6474.904961153311
 21
1111.120008773716
 31
0.0
  0
LINE
  5
C6E
330
C68
100
AcDbEntity
  8
Visible (ISO)
100
AcDbLine
 10
6474.904961153312
 20
1026.120008773691
 30
0.0
 11
6474.904961153311
 21
1048.490806107008
 31
0.0
  0
LINE
  5
C6F
330
C68
100
AcDbEntity
  8
Visible Narrow (ISO)
100
AcDbLine
 10
6479.904961153309
 20
1104.058690158212
 30
0.0
 11
6479.904961153312
 21
1021.397448737712
 31
0.0
  0
LINE
  5
C70
330
C68
100
AcDbEntity
  8
Visible (ISO)
100
AcDbLine
 10
6493.904961153309
 20
1111.120008773718
 30
0.0
 11
6493.904961153312
 21
1021.120008773691
 31
0.0
  0
LINE
  5
C71
330
C68
100
AcDbEntity
  8
Visible (ISO)
100
AcDbLine
 10
6479.904961153311
 20
1111.120008773718
 30
0.0
 11
6493.904961153311
 21
1111.120008773718
 31
0.0
  0
LINE
  5
C72
330
C68
100
AcDbEntity
  8
Visible (ISO)
100
AcDbLine
 10
6479.904961153312
 20
1021.120008773691
 30
0.0
 11
6493.904961153312
 21
1021.120008773691
 31
0.0
  0
LINE
  5
C73
330
C68
100
AcDbEntity
  8
Visible (ISO)
100
AcDbLine
 10
6479.904961153309
 20
1111.120008773717
 30
0.0
 11
6474.90496115331
 21
1111.120008773716
 31
0.0
  0
ARC
  5
C74
330
C68
100
AcDbEntity
  8
Visible (ISO)
100
AcDbCircle
 10
6479.904961153311
 20
1196.120008773698
 30
0.0
 40
5.00000000000043
100
AcDbArc
 50
90.0
 51
180.0
  0
LINE
  5
C75
330
C68
100
AcDbEntity
  8
Visible Narrow (ISO)
100
AcDbLine
 10
6479.904961153311
 20
1200.842568809682
 30
0.0
 11
6479.904961153308
 21
1118.181327389224
 31
0.0
  0
LINE
  5
C76
330
C68
100
AcDbEntity
  8
Visible (ISO)
100
AcDbLine
 10
6474.90496115331
 20
1173.749211440412
 30
0.0
 11
6474.904961153311
 21
1196.120008773698
 31
0.0
  0
LINE
  5
C77
330
C68
100
AcDbEntity
  8
Visible (ISO)
100
AcDbLine
 10
6474.904961153308
 20
1111.120008773716
 30
0.0
 11
6474.90496115331
 21
1168.590846484432
 31
0.0
  0
LINE
  5
C78
330
C68
100
AcDbEntity
  8
Visible (ISO)
100
AcDbLine
 10
6479.904961153308
 20
1111.120008773717
 30
0.0
 11
6493.904961153309
 21
1111.120008773717
 31
0.0
  0
LINE
  5
C79
330
C68
100
AcDbEntity
  8
Visible (ISO)
100
AcDbLine
 10
6493.904961153311
 20
1201.120008773699
 30
0.0
 11
6493.904961153308
 21
1111.120008773717
 31
0.0
  0
LINE
  5
C7A
330
C68
100
AcDbEntity
  8
Visible (ISO)
100
AcDbLine
 10
6479.904961153311
 20
1201.120008773699
 30
0.0
 11
6493.904961153311
 21
1201.120008773699
 31
0.0
  0
ARC
  5
C7B
330
C68
100
AcDbEntity
  8
Visible (ISO)
100
AcDbCircle
 10
6507.904961153312
 20
1196.120008773684
 30
0.0
 40
5.000000000000006
100
AcDbArc
 50
0.0
 51
90.0
  0
ARC
  5
C7C
330
C68
100
AcDbEntity
  8
Visible (ISO)
100
AcDbCircle
 10
6507.904961153312
 20
1026.120008773697
 30
0.0
 40
5.00000000000001
100
AcDbArc
 50
270.0
 51
0.0
  0
LINE
  5
C7D
330
C68
100
AcDbEntity
  8
Visible Narrow (ISO)
100
AcDbLine
 10
6507.904961153312
 20
1022.228058120139
 30
0.0
 11
6507.904961153312
 21
1200.011959427251
 31
0.0
  0
LINE
  5
C7E
330
C68
100
AcDbEntity
  8
Visible (ISO)
100
AcDbLine
 10
6512.90496115331
 20
1046.715806107013
 30
0.0
 11
6512.904961153312
 21
1026.120008773697
 31
0.0
  0
LINE
  5
C7F
330
C68
100
AcDbEntity
  8
Visible (ISO)
100
AcDbLine
 10
6512.90496115331
 20
1166.891632423647
 30
0.0
 11
6512.90496115331
 21
1055.348385123773
 31
0.0
  0
LINE
  5
C80
330
C68
100
AcDbEntity
  8
Visible (ISO)
100
AcDbLine
 10
6512.904961153312
 20
1196.120008773684
 30
0.0
 11
6512.90496115331
 21
1175.524211440401
 31
0.0
  0
LINE
  5
C81
330
C68
100
AcDbEntity
  8
Visible (ISO)
100
AcDbLine
 10
6507.904961153312
 20
1201.120008773684
 30
0.0
 11
6493.904961153312
 21
1201.120008773684
 31
0.0
  0
LINE
  5
C82
330
C68
100
AcDbEntity
  8
Visible (ISO)
100
AcDbLine
 10
6493.904961153312
 20
1021.120008773698
 30
0.0
 11
6493.904961153312
 21
1201.120008773684
 31
0.0
  0
LINE
  5
C83
330
C68
100
AcDbEntity
  8
Visible (ISO)
100
AcDbLine
 10
6493.904961153312
 20
1021.120008773698
 30
0.0
 11
6507.904961153312
 21
1021.120008773698
 31
0.0
  0
ARC
  5
C84
330
C68
100
AcDbEntity
  8
Visible Narrow (ISO)
100
AcDbCircle
 10
6493.904961153315
 20
1111.120008773647
 30
0.0
 40
69.99999999999999
100
AcDbArc
 50
55.70495394400092
 51
73.27461485914108
  0
ARC
  5
C85
330
C68
100
AcDbEntity
  8
Visible Narrow (ISO)
100
AcDbCircle
 10
6493.904961153315
 20
1111.120008773647
 30
0.0
 40
69.99999999999971
100
AcDbArc
 50
286.7253851408578
 51
304.2950460559989
  0
ARC
  5
C86
330
C68
100
AcDbEntity
  8
Visible Narrow (ISO)
100
AcDbCircle
 10
6493.904961153315
 20
1111.120008773647
 30
0.0
 40
70.00000000000023
100
AcDbArc
 50
235.7049539439983
 51
253.2746148591423
  0
ARC
  5
C87
330
C68
100
AcDbEntity
  8
Visible Narrow (ISO)
100
AcDbCircle
 10
6493.904961153315
 20
1111.120008773647
 30
0.0
 40
70.00000000000007
100
AcDbArc
 50
106.7253851408565
 51
124.2950460559963
  0
ARC
  5
C88
330
C68
100
AcDbEntity
  8
Visible (ISO)
100
AcDbCircle
 10
6493.904961153315
 20
1111.120008773646
 30
0.0
 40
74.99999999999987
100
AcDbArc
 50
104.6748497428628
 51
130.3591678764077
  0
ARC
  5
C89
330
C68
100
AcDbEntity
  8
Visible (ISO)
100
AcDbCircle
 10
6493.904961153315
 20
1111.120008773646
 30
0.0
 40
74.99999999999997
100
AcDbArc
 50
229.6408321235877
 51
255.3251502571371
  0
ARC
  5
C8A
330
C68
100
AcDbEntity
  8
Visible (ISO)
100
AcDbCircle
 10
6493.904961153315
 20
1111.120008773646
 30
0.0
 40
75.00000000000003
100
AcDbArc
 50
284.6748497428639
 51
310.3591678764095
  0
ARC
  5
C8B
330
C68
100
AcDbEntity
  8
Visible (ISO)
100
AcDbCircle
 10
6493.904961153315
 20
1111.120008773645
 30
0.0
 40
75.0000000000003
100
AcDbArc
 50
49.6408321235906
 51
75.32515025713715
  0
LINE
  5
C8C
330
C68
100
AcDbEntity
  8
Visible (ISO)
100
AcDbLine
 10
6242.904961153312
 20
1168.270008773697
 30
0.0
 11
6463.935705205646
 21
1168.270008773693
 31
0.0
  0
LINE
  5
C8D
330
C68
100
AcDbEntity
  8
Visible (ISO)
100
AcDbLine
 10
6516.194225150622
 20
1168.270008773691
 30
0.0
 11
6735.904961153313
 21
1168.270008773687
 31
0.0
  0
LINE
  5
C8E
330
C68
100
AcDbEntity
  8
Visible (ISO)
100
AcDbLine
 10
6242.90496115331
 20
1053.970008773697
 30
0.0
 11
6463.935705205646
 21
1053.970008773692
 31
0.0
  0
LINE
  5
C8F
330
C68
100
AcDbEntity
  8
Visible (ISO)
100
AcDbLine
 10
6516.194225150622
 20
1053.970008773691
 30
0.0
 11
6735.904961153309
 21
1053.970008773686
 31
0.0
  0
LINE
  5
C90
330
C68
100
AcDbEntity
  8
Visible (ISO)
100
AcDbLine
 10
6735.904961153313
 20
1184.620008773686
 30
0.0
 11
6735.904961153309
 21
1037.620008773686
 31
0.0
  0
LINE
  5
C91
330
C68
100
AcDbEntity
  8
Visible (ISO)
100
AcDbLine
 10
6735.904961153313
 20
1184.620008773686
 30
0.0
 11
6738.904961153313
 21
1184.620008773686
 31
0.0
  0
LINE
  5
C92
330
C68
100
AcDbEntity
  8
Visible (ISO)
100
AcDbLine
 10
6735.904961153309
 20
1037.620008773686
 30
0.0
 11
6738.904961153309
 21
1037.620008773686
 31
0.0
  0
LINE
  5
C93
330
C68
100
AcDbEntity
  8
Visible (ISO)
100
AcDbLine
 10
6242.90496115331
 20
1037.620008773697
 30
0.0
 11
6242.904961153313
 21
1184.620008773697
 31
0.0
  0
LINE
  5
C94
330
C68
100
AcDbEntity
  8
Visible (ISO)
100
AcDbLine
 10
6242.90496115331
 20
1037.620008773697
 30
0.0
 11
6239.90496115331
 21
1037.620008773697
 31
0.0
  0
LINE
  5
C95
330
C68
100
AcDbEntity
  8
Visible (ISO)
100
AcDbLine
 10
6242.904961153313
 20
1184.620008773697
 30
0.0
 11
6239.904961153314
 21
1184.620008773698
 31
0.0
  0
LINE
  5
C96
330
C68
100
AcDbEntity
  8
Visible (ISO)
100
AcDbLine
 10
6757.904961153314
 20
1226.416618943189
 30
0.0
 11
6757.904961153314
 21
1226.11009171636
 31
0.0
  0
LINE
  5
C97
330
C68
100
AcDbEntity
  8
Visible (ISO)
100
AcDbLine
 10
6757.904961153314
 20
1226.11009171636
 30
0.0
 11
6757.904961153307
 21
996.1299258310379
 31
0.0
  0
LINE
  5
C98
330
C68
100
AcDbEntity
  8
Visible (ISO)
100
AcDbLine
 10
6757.904961153309
 20
996.1299258310379
 30
0.0
 11
6757.904961153309
 21
995.8233986042074
 31
0.0
  0
LINE
  5
C99
330
C68
100
AcDbEntity
  8
Visible (ISO)
100
AcDbLine
 10
6738.904961153308
 20
995.8233986042078
 30
0.0
 11
6738.904961153308
 21
996.1299258310384
 31
0.0
  0
LINE
  5
C9A
330
C68
100
AcDbEntity
  8
Visible (ISO)
100
AcDbLine
 10
6738.904961153308
 20
996.1299258310384
 30
0.0
 11
6738.904961153314
 21
1226.11009171636
 31
0.0
  0
LINE
  5
C9B
330
C68
100
AcDbEntity
  8
Visible (ISO)
100
AcDbLine
 10
6738.904961153314
 20
1226.11009171636
 30
0.0
 11
6738.904961153314
 21
1226.416618943189
 31
0.0
  0
ELLIPSE
  5
C9C
330
C68
100
AcDbEntity
  8
Visible Narrow (ISO)
100
AcDbEllipse
 10
6743.904961153309
 20
996.1299258310383
 30
0.0
 11
-4.999999999999968
 21
0.0000000000001091
 31
0.0
210
0.0
220
0.0
230
1.0
 40
0.9386945546338615
 41
0.0785398163397577
 42
1.492256510455222
  0
LINE
  5
C9D
330
C68
100
AcDbEntity
  8
Visible Narrow (ISO)
100
AcDbLine
 10
6743.904961153309
 20
991.3772385393759
 30
0.0
 11
6743.904961153309
 21
990.8249471213645
 31
0.0
  0
ELLIPSE
  5
C9E
330
C68
100
AcDbEntity
  8
Visible Narrow (ISO)
100
AcDbEllipse
 10
6743.904961153313
 20
1226.11009171636
 30
0.0
 11
-4.999999999999987
 21
0.0000000000001062
 31
0.0
210
0.0
220
0.0
230
1.0
 40
0.9386945546340706
 41
4.790928796724402
 42
6.204645490839815
  0
LINE
  5
C9F
330
C68
100
AcDbEntity
  8
Visible Narrow (ISO)
100
AcDbLine
 10
6743.904961153313
 20
1224.571534234884
 30
0.0
 11
6743.904961153308
 21
997.6684833125242
 31
0.0
  0
LINE
  5
CA0
330
C68
100
AcDbEntity
  8
Visible Narrow (ISO)
100
AcDbLine
 10
6743.904961153313
 20
1231.415070426032
 30
0.0
 11
6743.904961153313
 21
1230.862779008023
 31
0.0
  0
ELLIPSE
  5
CA1
330
C68
100
AcDbEntity
  8
Visible Narrow (ISO)
100
AcDbEllipse
 10
6752.904961153314
 20
1226.11009171636
 30
0.0
 11
4.999999999999968
 21
-0.0000000000001091
 31
0.0
210
0.0
220
0.0
230
1.0
 40
0.9386945546340704
 41
0.0785398163397595
 42
1.492256510455223
  0
LINE
  5
CA2
330
C68
100
AcDbEntity
  8
Visible Narrow (ISO)
100
AcDbLine
 10
6752.904961153314
 20
1230.862779008023
 30
0.0
 11
6752.904961153314
 21
1231.415070426032
 31
0.0
  0
ELLIPSE
  5
CA3
330
C68
100
AcDbEntity
  8
Visible Narrow (ISO)
100
AcDbEllipse
 10
6752.904961153308
 20
996.1299258310381
 30
0.0
 11
4.999999999999971
 21
-0.0000000000001219
 31
0.0
210
0.0
220
0.0
230
1.0
 40
0.9386945546338608
 41
4.790928796724406
 42
6.204645490839858
  0
LINE
  5
CA4
330
C68
100
AcDbEntity
  8
Visible Narrow (ISO)
100
AcDbLine
 10
6752.904961153308
 20
997.6684833125238
 30
0.0
 11
6752.904961153314
 21
1224.571534234883
 31
0.0
  0
LINE
  5
CA5
330
C68
100
AcDbEntity
  8
Visible Narrow (ISO)
100
AcDbLine
 10
6752.904961153308
 20
990.8249471213641
 30
0.0
 11
6752.904961153308
 21
991.3772385393755
 31
0.0
  0
ARC
  5
CA6
330
C68
100
AcDbEntity
  8
Visible (ISO)
100
AcDbCircle
 10
6743.904961153309
 20
995.8233986042076
 30
0.0
 40
4.999999999999996
100
AcDbArc
 50
180.0
 51
270.0
  0
ARC
  5
CA7
330
C68
100
AcDbEntity
  8
Visible (ISO)
100
AcDbCircle
 10
6743.904961153313
 20
1226.416618943189
 30
0.0
 40
4.999999999999996
100
AcDbArc
 50
90.0
 51
180.0
  0
ARC
  5
CA8
330
C68
100
AcDbEntity
  8
Visible (ISO)
100
AcDbCircle
 10
6752.904961153314
 20
1226.416618943189
 30
0.0
 40
4.999999999999996
100
AcDbArc
 50
0.0
 51
90.0
  0
ARC
  5
CA9
330
C68
100
AcDbEntity
  8
Visible (ISO)
100
AcDbCircle
 10
6752.904961153308
 20
995.8233986042074
 30
0.0
 40
4.999999999999996
100
AcDbArc
 50
270.0
 51
0.0
  0
LINE
  5
CAA
330
C68
100
AcDbEntity
  8
Visible Narrow (ISO)
100
AcDbLine
 10
6752.454961153309
 20
991.4364530578687
 30
0.0
 11
6744.354961153309
 21
991.4364530578691
 31
0.0
  0
LINE
  5
CAB
330
C68
100
AcDbEntity
  8
Visible Narrow (ISO)
100
AcDbLine
 10
6744.354961153314
 20
1230.80356448953
 30
0.0
 11
6752.454961153315
 21
1230.80356448953
 31
0.0
  0
LINE
  5
CAC
330
C68
100
AcDbEntity
  8
Visible (ISO)
100
AcDbLine
 10
6743.904961153308
 20
990.8233986042077
 30
0.0
 11
6752.904961153308
 21
990.8233986042075
 31
0.0
  0
LINE
  5
CAD
330
C68
100
AcDbEntity
  8
Visible (ISO)
100
AcDbLine
 10
6752.904961153314
 20
1231.416618943189
 30
0.0
 11
6743.904961153313
 21
1231.416618943189
 31
0.0
  0
LINE
  5
CAE
330
C68
100
AcDbEntity
  8
Visible (ISO)
100
AcDbLine
 10
6239.904961153313
 20
1186.620008773697
 30
0.0
 11
6239.90496115331
 21
1035.620008773697
 31
0.0
  0
LINE
  5
CAF
330
C68
100
AcDbEntity
  8
Visible Narrow (ISO)
100
AcDbLine
 10
6237.904961153311
 20
1034.574162377578
 30
0.0
 11
6237.904961153314
 21
1187.665855169824
 31
0.0
  0
ARC
  5
CB0
330
C68
100
AcDbEntity
  8
Visible (ISO)
100
AcDbCircle
 10
6237.904961153314
 20
1186.620008773697
 30
0.0
 40
2.0
100
AcDbArc
 50
0.0
 51
90.0
  0
ARC
  5
CB1
330
C68
100
AcDbEntity
  8
Visible (ISO)
100
AcDbCircle
 10
6237.904961153311
 20
1035.620008773697
 30
0.0
 40
2.0
100
AcDbArc
 50
270.0
 51
0.0
  0
LINE
  5
CB2
330
C68
100
AcDbEntity
  8
Visible (ISO)
100
AcDbLine
 10
6224.90496115331
 20
1033.620008773698
 30
0.0
 11
6224.904961153313
 21
1188.620008773698
 31
0.0
  0
LINE
  5
CB3
330
C68
100
AcDbEntity
  8
Visible (ISO)
100
AcDbLine
 10
6224.904961153313
 20
1188.620008773698
 30
0.0
 11
6237.904961153314
 21
1188.620008773698
 31
0.0
  0
LINE
  5
CB4
330
C68
100
AcDbEntity
  8
Visible (ISO)
100
AcDbLine
 10
6224.90496115331
 20
1033.620008773698
 30
0.0
 11
6237.904961153311
 21
1033.620008773698
 31
0.0
  0
LINE
  5
CB5
330
C68
100
AcDbEntity
  8
Visible (ISO)
100
AcDbLine
 10
6205.904961153311
 20
1033.620008773698
 30
0.0
 11
6205.904961153314
 21
1188.620008773698
 31
0.0
  0
LINE
  5
CB6
330
C68
100
AcDbEntity
  8
Visible (ISO)
100
AcDbLine
 10
6224.904961153313
 20
1188.620008773698
 30
0.0
 11
6224.90496115331
 21
1033.620008773698
 31
0.0
  0
LINE
  5
CB7
330
C68
100
AcDbEntity
  8
Visible (ISO)
100
AcDbLine
 10
6205.904961153314
 20
1188.620008773698
 30
0.0
 11
6224.904961153313
 21
1188.620008773698
 31
0.0
  0
LINE
  5
CB8
330
C68
100
AcDbEntity
  8
Visible (ISO)
100
AcDbLine
 10
6205.904961153311
 20
1033.620008773699
 30
0.0
 11
6224.90496115331
 21
1033.620008773698
 31
0.0
  0
LINE
  5
CB9
330
C68
100
AcDbEntity
  8
Visible (ISO)
100
AcDbLine
 10
6190.90496115331
 20
1038.620008773699
 30
0.0
 11
6190.904961153313
 21
1183.620008773699
 31
0.0
  0
LINE
  5
CBA
330
C68
100
AcDbEntity
  8
Visible Narrow (ISO)
100
AcDbLine
 10
6195.904961153313
 20
1187.665855169825
 30
0.0
 11
6195.90496115331
 21
1034.574162377579
 31
0.0
  0
ARC
  5
CBB
330
C68
100
AcDbEntity
  8
Visible (ISO)
100
AcDbCircle
 10
6195.90496115331
 20
1038.620008773698
 30
0.0
 40
5.0
100
AcDbArc
 50
180.0
 51
270.0
  0
ARC
  5
CBC
330
C68
100
AcDbEntity
  8
Visible (ISO)
100
AcDbCircle
 10
6195.904961153313
 20
1183.620008773699
 30
0.0
 40
5.0
100
AcDbArc
 50
90.0
 51
180.0
  0
LINE
  5
CBD
330
C68
100
AcDbEntity
  8
Visible (ISO)
100
AcDbLine
 10
6205.904961153314
 20
1188.620008773698
 30
0.0
 11
6205.904961153311
 21
1033.620008773698
 31
0.0
  0
LINE
  5
CBE
330
C68
100
AcDbEntity
  8
Visible (ISO)
100
AcDbLine
 10
6195.904961153313
 20
1188.620008773699
 30
0.0
 11
6205.904961153314
 21
1188.620008773698
 31
0.0
  0
LINE
  5
CBF
330
C68
100
AcDbEntity
  8
Visible (ISO)
100
AcDbLine
 10
6195.90496115331
 20
1033.620008773699
 30
0.0
 11
6205.904961153311
 21
1033.620008773698
 31
0.0
  0
LINE
  5
CC0
330
C68
100
AcDbEntity
  8
Visible (ISO)
100
AcDbLine
 10
6776.904961153312
 20
1141.120008773685
 30
0.0
 11
6776.904961153312
 21
1081.120008773686
 31
0.0
  0
LINE
  5
CC1
330
C68
100
AcDbEntity
  8
Visible (ISO)
100
AcDbLine
 10
6757.904961153312
 20
1141.120008773686
 30
0.0
 11
6776.904961153313
 21
1141.120008773685
 31
0.0
  0
LINE
  5
CC2
330
C68
100
AcDbEntity
  8
Visible (ISO)
100
AcDbLine
 10
6757.904961153311
 20
1081.120008773686
 30
0.0
 11
6776.904961153312
 21
1081.120008773686
 31
0.0
  0
LINE
  5
CC3
330
C68
100
AcDbEntity
  8
Visible (ISO)
100
AcDbLine
 10
6776.904961153312
 20
1081.120008773685
 30
0.0
 11
6776.904961153312
 21
1141.120008773685
 31
0.0
  0
LINE
  5
CC4
330
C68
100
AcDbEntity
  8
Visible (ISO)
100
AcDbLine
 10
6795.904961153311
 20
1141.120008773685
 30
0.0
 11
6795.904961153311
 21
1081.120008773685
 31
0.0
  0
LINE
  5
CC5
330
C68
100
AcDbEntity
  8
Visible (ISO)
100
AcDbLine
 10
6776.904961153312
 20
1141.120008773685
 30
0.0
 11
6795.904961153313
 21
1141.120008773685
 31
0.0
  0
LINE
  5
CC6
330
C68
100
AcDbEntity
  8
Visible (ISO)
100
AcDbLine
 10
6776.90496115331
 20
1081.120008773686
 30
0.0
 11
6795.904961153311
 21
1081.120008773685
 31
0.0
  0
LINE
  5
CC7
330
C68
100
AcDbEntity
  8
Visible (ISO)
100
AcDbLine
 10
6814.904961153311
 20
1136.120008773684
 30
0.0
 11
6814.904961153311
 21
1086.120008773685
 31
0.0
  0
LINE
  5
CC8
330
C68
100
AcDbEntity
  8
Visible Narrow (ISO)
100
AcDbLine
 10
6809.904961153312
 20
1081.489358555832
 30
0.0
 11
6809.904961153312
 21
1140.75065899154
 31
0.0
  0
ARC
  5
CC9
330
C68
100
AcDbEntity
  8
Visible (ISO)
100
AcDbCircle
 10
6809.904961153312
 20
1136.120008773684
 30
0.0
 40
5.0
100
AcDbArc
 50
0.0
 51
90.0
  0
ARC
  5
CCA
330
C68
100
AcDbEntity
  8
Visible (ISO)
100
AcDbCircle
 10
6809.904961153311
 20
1086.120008773685
 30
0.0
 40
5.0
100
AcDbArc
 50
270.0
 51
0.0
  0
LINE
  5
CCB
330
C68
100
AcDbEntity
  8
Visible (ISO)
100
AcDbLine
 10
6795.904961153311
 20
1081.120008773685
 30
0.0
 11
6795.904961153311
 21
1141.120008773685
 31
0.0
  0
LINE
  5
CCC
330
C68
100
AcDbEntity
  8
Visible (ISO)
100
AcDbLine
 10
6795.904961153311
 20
1141.120008773685
 30
0.0
 11
6809.904961153312
 21
1141.120008773685
 31
0.0
  0
LINE
  5
CCD
330
C68
100
AcDbEntity
  8
Visible (ISO)
100
AcDbLine
 10
6795.90496115331
 20
1081.120008773685
 30
0.0
 11
6809.904961153311
 21
1081.120008773685
 31
0.0
  0
LINE
  5
CCE
330
C68
100
AcDbEntity
  8
Visible (ISO)
100
AcDbLine
 10
6512.90496115331
 20
1051.049409900955
 30
0.0
 11
6512.904841269886
 21
1051.049409900955
 31
0.0
  0
LINE
  5
CCF
330
C68
100
AcDbEntity
  8
Visible (ISO)
100
AcDbLine
 10
6513.786831413101
 20
1060.265806107008
 30
0.0
 11
6513.786831413101
 21
1046.715806107009
 31
0.0
  0
LINE
  5
CD0
330
C68
100
AcDbEntity
  8
Visible (ISO)
100
AcDbLine
 10
6512.90496115331
 20
1055.348385123769
 30
0.0
 11
6512.90496115331
 21
1046.715806107009
 31
0.0
  0
ARC
  5
CD1
330
C68
100
AcDbEntity
  8
Visible (ISO)
100
AcDbCircle
 10
6505.50496115331
 20
1053.490806107008
 30
0.0
 40
10.70000000000002
100
AcDbArc
 50
320.7150510726013
 51
39.2849489273987
  0
LINE
  5
CD2
330
C68
100
AcDbEntity
  8
Visible (ISO)
100
AcDbLine
 10
6513.786831413101
 20
1046.715806107009
 30
0.0
 11
6512.90496115331
 21
1046.715806107009
 31
0.0
  0
LINE
  5
CD3
330
C68
100
AcDbEntity
  8
Visible (ISO)
100
AcDbLine
 10
6513.786831413101
 20
1060.265806107008
 30
0.0
 11
6512.90496115331
 21
1060.265806107008
 31
0.0
  0
LINE
  5
CD4
330
C68
100
AcDbEntity
  8
Visible (ISO)
100
AcDbLine
 10
6512.90496115331
 20
1171.249211440408
 30
0.0
 11
6512.904834885869
 21
1171.249211440408
 31
0.0
  0
LINE
  5
CD5
330
C68
100
AcDbEntity
  8
Visible (ISO)
100
AcDbLine
 10
6513.786831413101
 20
1175.524211440407
 30
0.0
 11
6513.786831413101
 21
1161.974211440407
 31
0.0
  0
LINE
  5
CD6
330
C68
100
AcDbEntity
  8
Visible (ISO)
100
AcDbLine
 10
6512.90496115331
 20
1175.524211440407
 30
0.0
 11
6512.90496115331
 21
1166.891632423651
 31
0.0
  0
ARC
  5
CD7
330
C68
100
AcDbEntity
  8
Visible (ISO)
100
AcDbCircle
 10
6505.50496115331
 20
1168.749211440407
 30
0.0
 40
10.7
100
AcDbArc
 50
320.7150510726013
 51
39.2849489273987
  0
LINE
  5
CD8
330
C68
100
AcDbEntity
  8
Visible (ISO)
100
AcDbLine
 10
6513.786831413101
 20
1161.974211440407
 30
0.0
 11
6512.90496115331
 21
1161.974211440407
 31
0.0
  0
LINE
  5
CD9
330
C68
100
AcDbEntity
  8
Visible (ISO)
100
AcDbLine
 10
6513.786831413101
 20
1175.524211440407
 30
0.0
 11
6512.90496115331
 21
1175.524211440407
 31
0.0
  0
LINE
  5
CDA
330
C68
100
AcDbEntity
  8
Visible (ISO)
100
AcDbLine
 10
6473.904961153309
 20
1163.749211440407
 30
0.0
 11
6473.904961153309
 21
1173.749211440407
 31
0.0
  0
LINE
  5
CDB
330
C68
100
AcDbEntity
  8
Visible (ISO)
100
AcDbLine
 10
6474.90496115331
 20
1168.590846484428
 30
0.0
 11
6474.90496115331
 21
1173.749211440407
 31
0.0
  0
LINE
  5
CDC
330
C68
100
AcDbEntity
  8
Visible (ISO)
100
AcDbLine
 10
6474.90496115331
 20
1163.749211440407
 30
0.0
 11
6473.904961153309
 21
1163.749211440407
 31
0.0
  0
LINE
  5
CDD
330
C68
100
AcDbEntity
  8
Visible (ISO)
100
AcDbLine
 10
6474.90496115331
 20
1173.749211440407
 30
0.0
 11
6473.904961153309
 21
1173.749211440407
 31
0.0
  0
LINE
  5
CDE
330
C68
100
AcDbEntity
  8
Visible (ISO)
100
AcDbLine
 10
6473.904961153309
 20
1048.490806107008
 30
0.0
 11
6473.904961153309
 21
1058.490806107009
 31
0.0
  0
LINE
  5
CDF
330
C68
100
AcDbEntity
  8
Visible (ISO)
100
AcDbLine
 10
6474.90496115331
 20
1048.490806107008
 30
0.0
 11
6474.90496115331
 21
1053.649171062991
 31
0.0
  0
LINE
  5
CE0
330
C68
100
AcDbEntity
  8
Visible (ISO)
100
AcDbLine
 10
6474.90496115331
 20
1048.490806107008
 30
0.0
 11
6473.904961153309
 21
1048.490806107008
 31
0.0
  0
LINE
  5
CE1
330
C68
100
AcDbEntity
  8
Visible (ISO)
100
AcDbLine
 10
6474.90496115331
 20
1058.490806107009
 30
0.0
 11
6473.904961153309
 21
1058.490806107009
 31
0.0
  0
SPLINE
  5
CE2
330
C68
100
AcDbEntity
  8
Visible (ISO)
100
AcDbSpline
210
0.0
220
0.0
230
1.0
 70
    12
 71
     2
 72
     6
 73
     3
 74
     0
 42
0.0000000001
 43
0.0000000001
 40
0.0
 40
0.0
 40
0.0
 40
0.2342838875100969
 40
0.2342838875100969
 40
0.2342838875100969
 10
6470.262226743219
 20
1173.362091778419
 30
0.0
 41
1.0
 10
6469.90496115331
 20
1172.689826600751
 30
0.0
 41
1.037954849302053
 10
6469.90496115331
 20
1172.107627878811
 30
0.0
 41
1.0
  0
SPLINE
  5
CE3
330
C68
100
AcDbEntity
  8
Visible (ISO)
100
AcDbSpline
210
0.0
220
0.0
230
1.0
 70
    12
 71
     2
 72
     6
 73
     3
 74
     0
 42
0.0000000001
 43
0.0000000001
 40
0.4441910686337359
 40
0.4441910686337359
 40
0.4441910686337359
 40
0.4685677750201953
 40
0.4685677750201953
 40
0.4685677750201953
 10
6470.189733951791
 20
1173.24245239599
 30
0.0
 41
1.007076438659353
 10
6470.223794958378
 20
1173.301447789953
 30
0.0
 41
1.003949115866273
 10
6470.262226743219
 20
1173.362091778419
 30
0.0
 41
1.0
  0
LINE
  5
CE4
330
C68
100
AcDbEntity
  8
Visible (ISO)
100
AcDbLine
 10
6469.90496115331
 20
1172.749211440407
 30
0.0
 11
6469.90496115331
 21
1172.107627878811
 31
0.0
  0
SPLINE
  5
CE5
330
C68
100
AcDbEntity
  8
Visible (ISO)
100
AcDbSpline
210
0.0
220
0.0
230
1.0
 70
    12
 71
     2
 72
     6
 73
     3
 74
     0
 42
0.0000000001
 43
0.0000000001
 40
0.0
 40
0.0
 40
0.0
 40
0.2342838875100969
 40
0.2342838875100969
 40
0.2342838875100969
 10
6470.262226743219
 20
1170.853163979203
 30
0.0
 41
1.0
 10
6469.90496115331
 20
1169.617146417851
 30
0.0
 41
1.037954849302043
 10
6469.90496115331
 20
1168.546723810197
 30
0.0
 41
1.0
  0
SPLINE
  5
CE6
330
C68
100
AcDbEntity
  8
Visible (ISO)
100
AcDbSpline
210
0.0
220
0.0
230
1.0
 70
    12
 71
     2
 72
     6
 73
     3
 74
     0
 42
0.0000000001
 43
0.0000000001
 40
0.2342838875100969
 40
0.2342838875100969
 40
0.2342838875100969
 40
0.4685677750201939
 40
0.4685677750201939
 40
0.4685677750201939
 10
6469.90496115331
 20
1172.107627878811
 30
0.0
 41
1.0
 10
6469.90496115331
 20
1171.525429156871
 30
0.0
 41
1.037954849302055
 10
6470.262226743219
 20
1170.853163979203
 30
0.0
 41
1.0
  0
LINE
  5
CE7
330
C68
100
AcDbEntity
  8
Visible (ISO)
100
AcDbLine
 10
6469.90496115331
 20
1172.107627878811
 30
0.0
 11
6469.90496115331
 21
1168.546723810197
 31
0.0
  0
SPLINE
  5
CE8
330
C68
100
AcDbEntity
  8
Visible (ISO)
100
AcDbSpline
210
0.0
220
0.0
230
1.0
 70
    12
 71
     2
 72
     6
 73
     3
 74
     0
 42
0.0000000001
 43
0.0000000001
 40
0.2342838875100972
 40
0.2342838875100972
 40
0.2342838875100972
 40
0.4685677750201945
 40
0.4685677750201945
 40
0.4685677750201945
 10
6469.90496115331
 20
1165.188307371793
 30
0.0
 41
1.0
 10
6469.90496115331
 20
1164.700083486079
 30
0.0
 41
1.037954849302047
 10
6470.262226743219
 20
1164.136331102395
 30
0.0
 41
1.0
  0
LINE
  5
CE9
330
C68
100
AcDbEntity
  8
Visible (ISO)
100
AcDbLine
 10
6469.90496115331
 20
1165.188307371793
 30
0.0
 11
6469.90496115331
 21
1164.749211440407
 31
0.0
  0
SPLINE
  5
CEA
330
C68
100
AcDbEntity
  8
Visible (ISO)
100
AcDbSpline
210
0.0
220
0.0
230
1.0
 70
    12
 71
     2
 72
     6
 73
     3
 74
     0
 42
0.0000000001
 43
0.0000000001
 40
0.2342838875100969
 40
0.2342838875100969
 40
0.2342838875100969
 40
0.468567775020194
 40
0.468567775020194
 40
0.468567775020194
 10
6469.90496115331
 20
1168.546723810197
 30
0.0
 41
1.0
 10
6469.90496115331
 20
1167.476301202543
 30
0.0
 41
1.037954849302045
 10
6470.262226743219
 20
1166.240283641191
 30
0.0
 41
1.0
  0
LINE
  5
CEB
330
C68
100
AcDbEntity
  8
Visible (ISO)
100
AcDbLine
 10
6469.90496115331
 20
1168.546723810197
 30
0.0
 11
6469.90496115331
 21
1165.188307371793
 31
0.0
  0
SPLINE
  5
CEC
330
C68
100
AcDbEntity
  8
Visible (ISO)
100
AcDbSpline
210
0.0
220
0.0
230
1.0
 70
    12
 71
     2
 72
     6
 73
     3
 74
     0
 42
0.0000000001
 43
0.0000000001
 40
0.0
 40
0.0
 40
0.0
 40
0.2342838875100972
 40
0.2342838875100972
 40
0.2342838875100972
 10
6470.262226743219
 20
1166.240283641191
 30
0.0
 41
1.0
 10
6469.90496115331
 20
1165.676531257507
 30
0.0
 41
1.037954849302026
 10
6469.90496115331
 20
1165.188307371793
 30
0.0
 41
1.0
  0
SPLINE
  5
CED
330
C68
100
AcDbEntity
  8
Visible (ISO)
100
AcDbSpline
210
0.0
220
0.0
230
1.0
 70
    12
 71
     2
 72
     6
 73
     3
 74
     0
 42
0.0000000001
 43
0.0000000001
 40
0.0
 40
0.0
 40
0.0
 40
0.4673744552311669
 40
0.4673744552311669
 40
0.4673744552311669
 10
6473.230152915347
 20
1170.853163979203
 30
0.0
 41
1.0
 10
6473.896819582015
 20
1172.107627878811
 30
0.0
 41
1.154700538379252
 10
6473.230152915347
 20
1173.362091778419
 30
0.0
 41
1.0
  0
SPLINE
  5
CEE
330
C68
100
AcDbEntity
  8
Visible (ISO)
100
AcDbSpline
210
0.0
220
0.0
230
1.0
 70
    12
 71
     2
 72
     6
 73
     3
 74
     0
 42
0.0000000001
 43
0.0000000001
 40
0.0
 40
0.0
 40
0.0
 40
0.4673744552311664
 40
0.4673744552311664
 40
0.4673744552311664
 10
6473.230152915347
 20
1166.240283641191
 30
0.0
 41
1.0
 10
6473.896819582015
 20
1168.546723810197
 30
0.0
 41
1.154700538379251
 10
6473.230152915347
 20
1170.853163979203
 30
0.0
 41
1.0
  0
SPLINE
  5
CEF
330
C68
100
AcDbEntity
  8
Visible (ISO)
100
AcDbSpline
210
0.0
220
0.0
230
1.0
 70
    12
 71
     2
 72
     6
 73
     3
 74
     0
 42
0.0000000001
 43
0.0000000001
 40
0.0
 40
0.0
 40
0.0
 40
0.4673744552311667
 40
0.4673744552311667
 40
0.4673744552311667
 10
6473.230152915347
 20
1164.136331102395
 30
0.0
 41
1.0
 10
6473.896819582015
 20
1165.188307371793
 30
0.0
 41
1.154700538379253
 10
6473.230152915347
 20
1166.240283641191
 30
0.0
 41
1.0
  0
SPLINE
  5
CF0
330
C68
100
AcDbEntity
  8
Visible (ISO)
100
AcDbSpline
210
0.0
220
0.0
230
1.0
 70
    12
 71
     2
 72
     6
 73
     3
 74
     0
 42
0.0000000001
 43
0.0000000001
 40
0.0
 40
0.0
 40
0.0
 40
0.023514981100566
 40
0.023514981100566
 40
0.023514981100566
 10
6473.230152915347
 20
1173.362091778419
 30
0.0
 41
1.0
 10
6473.268584700189
 20
1173.301447789953
 30
0.0
 41
1.007783438302027
 10
6473.302645706775
 20
1173.24245239599
 30
0.0
 41
1.014783661336206
  0
LINE
  5
CF1
330
C68
100
AcDbEntity
  8
Visible (ISO)
100
AcDbLine
 10
6469.90496115331
 20
1172.749211440407
 30
0.0
 11
6470.189733951791
 21
1173.24245239599
 31
0.0
  0
LINE
  5
CF2
330
C68
100
AcDbEntity
  8
Visible (ISO)
100
AcDbLine
 10
6469.90496115331
 20
1164.749211440407
 30
0.0
 11
6470.189733951791
 21
1164.255970484824
 31
0.0
  0
LINE
  5
CF3
330
C68
100
AcDbEntity
  8
Visible (ISO)
100
AcDbLine
 10
6473.90496115331
 20
1165.299211440407
 30
0.0
 11
6473.302645706775
 21
1164.255970484824
 31
0.0
  0
LINE
  5
CF4
330
C68
100
AcDbEntity
  8
Visible (ISO)
100
AcDbLine
 10
6473.90496115331
 20
1172.199211440407
 30
0.0
 11
6473.302645706775
 21
1173.24245239599
 31
0.0
  0
LINE
  5
CF5
330
C68
100
AcDbEntity
  8
Visible (ISO)
100
AcDbLine
 10
6473.230152915347
 20
1164.136331102395
 30
0.0
 11
6470.262226743219
 21
1164.136331102395
 31
0.0
  0
LINE
  5
CF6
330
C68
100
AcDbEntity
  8
Visible (ISO)
100
AcDbLine
 10
6473.230152915347
 20
1166.240283641191
 30
0.0
 11
6470.262226743219
 21
1166.240283641191
 31
0.0
  0
LINE
  5
CF7
330
C68
100
AcDbEntity
  8
Visible (ISO)
100
AcDbLine
 10
6473.230152915347
 20
1170.853163979203
 30
0.0
 11
6470.262226743219
 21
1170.853163979203
 31
0.0
  0
LINE
  5
CF8
330
C68
100
AcDbEntity
  8
Visible (ISO)
100
AcDbLine
 10
6473.230152915347
 20
1173.362091778419
 30
0.0
 11
6470.262226743219
 21
1173.362091778419
 31
0.0
  0
LINE
  5
CF9
330
C68
100
AcDbEntity
  8
Visible Narrow (ISO)
100
AcDbLine
 10
6467.654961153311
 20
1172.453042717639
 30
0.0
 11
6467.654961153311
 21
1165.045380163175
 31
0.0
  0
LINE
  5
CFA
330
C68
100
AcDbEntity
  8
Visible (ISO)
100
AcDbLine
 10
6469.90496115331
 20
1164.999211440407
 30
0.0
 11
6467.654961153311
 21
1164.999211440407
 31
0.0
  0
LINE
  5
CFB
330
C68
100
AcDbEntity
  8
Visible (ISO)
100
AcDbLine
 10
6469.90496115331
 20
1172.499211440407
 30
0.0
 11
6467.654961153311
 21
1172.499211440407
 31
0.0
  0
ARC
  5
CFC
330
C68
100
AcDbEntity
  8
Visible (ISO)
100
AcDbCircle
 10
6467.654961153311
 20
1168.749211440407
 30
0.0
 40
3.750000000000006
100
AcDbArc
 50
90.0
 51
270.0
  0
SPLINE
  5
CFD
330
C68
100
AcDbEntity
  8
Visible (ISO)
100
AcDbSpline
210
0.0
220
0.0
230
1.0
 70
    12
 71
     2
 72
     6
 73
     3
 74
     0
 42
0.0000000001
 43
0.0000000001
 40
0.0
 40
0.0
 40
0.0
 40
0.2342838875100969
 40
0.2342838875100969
 40
0.2342838875100969
 10
6470.262226743219
 20
1058.10368644502
 30
0.0
 41
1.0
 10
6469.90496115331
 20
1057.431421267352
 30
0.0
 41
1.037954849302053
 10
6469.90496115331
 20
1056.849222545412
 30
0.0
 41
1.0
  0
SPLINE
  5
CFE
330
C68
100
AcDbEntity
  8
Visible (ISO)
100
AcDbSpline
210
0.0
220
0.0
230
1.0
 70
    12
 71
     2
 72
     6
 73
     3
 74
     0
 42
0.0000000001
 43
0.0000000001
 40
0.4441910686337359
 40
0.4441910686337359
 40
0.4441910686337359
 40
0.4685677750201953
 40
0.4685677750201953
 40
0.4685677750201953
 10
6470.189733951791
 20
1057.984047062592
 30
0.0
 41
1.007076438659353
 10
6470.223794958378
 20
1058.043042456555
 30
0.0
 41
1.003949115866273
 10
6470.262226743219
 20
1058.10368644502
 30
0.0
 41
1.0
  0
LINE
  5
CFF
330
C68
100
AcDbEntity
  8
Visible (ISO)
100
AcDbLine
 10
6469.90496115331
 20
1057.490806107008
 30
0.0
 11
6469.90496115331
 21
1056.849222545412
 31
0.0
  0
SPLINE
  5
D00
330
C68
100
AcDbEntity
  8
Visible (ISO)
100
AcDbSpline
210
0.0
220
0.0
230
1.0
 70
    12
 71
     2
 72
     6
 73
     3
 74
     0
 42
0.0000000001
 43
0.0000000001
 40
0.0
 40
0.0
 40
0.0
 40
0.2342838875100969
 40
0.2342838875100969
 40
0.2342838875100969
 10
6470.262226743219
 20
1055.594758645804
 30
0.0
 41
1.0
 10
6469.90496115331
 20
1054.358741084453
 30
0.0
 41
1.037954849302043
 10
6469.90496115331
 20
1053.288318476799
 30
0.0
 41
1.0
  0
SPLINE
  5
D01
330
C68
100
AcDbEntity
  8
Visible (ISO)
100
AcDbSpline
210
0.0
220
0.0
230
1.0
 70
    12
 71
     2
 72
     6
 73
     3
 74
     0
 42
0.0000000001
 43
0.0000000001
 40
0.2342838875100969
 40
0.2342838875100969
 40
0.2342838875100969
 40
0.4685677750201939
 40
0.4685677750201939
 40
0.4685677750201939
 10
6469.90496115331
 20
1056.849222545412
 30
0.0
 41
1.0
 10
6469.90496115331
 20
1056.267023823473
 30
0.0
 41
1.037954849302055
 10
6470.262226743219
 20
1055.594758645804
 30
0.0
 41
1.0
  0
LINE
  5
D02
330
C68
100
AcDbEntity
  8
Visible (ISO)
100
AcDbLine
 10
6469.90496115331
 20
1056.849222545412
 30
0.0
 11
6469.90496115331
 21
1053.288318476799
 31
0.0
  0
SPLINE
  5
D03
330
C68
100
AcDbEntity
  8
Visible (ISO)
100
AcDbSpline
210
0.0
220
0.0
230
1.0
 70
    12
 71
     2
 72
     6
 73
     3
 74
     0
 42
0.0000000001
 43
0.0000000001
 40
0.2342838875100972
 40
0.2342838875100972
 40
0.2342838875100972
 40
0.4685677750201945
 40
0.4685677750201945
 40
0.4685677750201945
 10
6469.90496115331
 20
1049.929902038395
 30
0.0
 41
1.0
 10
6469.90496115331
 20
1049.44167815268
 30
0.0
 41
1.037954849302047
 10
6470.262226743219
 20
1048.877925768997
 30
0.0
 41
1.0
  0
LINE
  5
D04
330
C68
100
AcDbEntity
  8
Visible (ISO)
100
AcDbLine
 10
6469.90496115331
 20
1049.929902038395
 30
0.0
 11
6469.90496115331
 21
1049.490806107009
 31
0.0
  0
SPLINE
  5
D05
330
C68
100
AcDbEntity
  8
Visible (ISO)
100
AcDbSpline
210
0.0
220
0.0
230
1.0
 70
    12
 71
     2
 72
     6
 73
     3
 74
     0
 42
0.0000000001
 43
0.0000000001
 40
0.2342838875100969
 40
0.2342838875100969
 40
0.2342838875100969
 40
0.468567775020194
 40
0.468567775020194
 40
0.468567775020194
 10
6469.90496115331
 20
1053.288318476799
 30
0.0
 41
1.0
 10
6469.90496115331
 20
1052.217895869145
 30
0.0
 41
1.037954849302045
 10
6470.262226743219
 20
1050.981878307793
 30
0.0
 41
1.0
  0
LINE
  5
D06
330
C68
100
AcDbEntity
  8
Visible (ISO)
100
AcDbLine
 10
6469.90496115331
 20
1053.288318476799
 30
0.0
 11
6469.90496115331
 21
1049.929902038395
 31
0.0
  0
SPLINE
  5
D07
330
C68
100
AcDbEntity
  8
Visible (ISO)
100
AcDbSpline
210
0.0
220
0.0
230
1.0
 70
    12
 71
     2
 72
     6
 73
     3
 74
     0
 42
0.0000000001
 43
0.0000000001
 40
0.0
 40
0.0
 40
0.0
 40
0.2342838875100972
 40
0.2342838875100972
 40
0.2342838875100972
 10
6470.262226743219
 20
1050.981878307793
 30
0.0
 41
1.0
 10
6469.90496115331
 20
1050.418125924109
 30
0.0
 41
1.037954849302026
 10
6469.90496115331
 20
1049.929902038395
 30
0.0
 41
1.0
  0
SPLINE
  5
D08
330
C68
100
AcDbEntity
  8
Visible (ISO)
100
AcDbSpline
210
0.0
220
0.0
230
1.0
 70
    12
 71
     2
 72
     6
 73
     3
 74
     0
 42
0.0000000001
 43
0.0000000001
 40
0.0
 40
0.0
 40
0.0
 40
0.4673744552311669
 40
0.4673744552311669
 40
0.4673744552311669
 10
6473.230152915347
 20
1055.594758645804
 30
0.0
 41
1.0
 10
6473.896819582015
 20
1056.849222545412
 30
0.0
 41
1.154700538379252
 10
6473.230152915347
 20
1058.10368644502
 30
0.0
 41
1.0
  0
SPLINE
  5
D09
330
C68
100
AcDbEntity
  8
Visible (ISO)
100
AcDbSpline
210
0.0
220
0.0
230
1.0
 70
    12
 71
     2
 72
     6
 73
     3
 74
     0
 42
0.0000000001
 43
0.0000000001
 40
0.0
 40
0.0
 40
0.0
 40
0.4673744552311664
 40
0.4673744552311664
 40
0.4673744552311664
 10
6473.230152915347
 20
1050.981878307793
 30
0.0
 41
1.0
 10
6473.896819582015
 20
1053.288318476799
 30
0.0
 41
1.154700538379251
 10
6473.230152915347
 20
1055.594758645804
 30
0.0
 41
1.0
  0
SPLINE
  5
D0A
330
C68
100
AcDbEntity
  8
Visible (ISO)
100
AcDbSpline
210
0.0
220
0.0
230
1.0
 70
    12
 71
     2
 72
     6
 73
     3
 74
     0
 42
0.0000000001
 43
0.0000000001
 40
0.0
 40
0.0
 40
0.0
 40
0.4673744552311667
 40
0.4673744552311667
 40
0.4673744552311667
 10
6473.230152915347
 20
1048.877925768997
 30
0.0
 41
1.0
 10
6473.896819582015
 20
1049.929902038395
 30
0.0
 41
1.154700538379253
 10
6473.230152915347
 20
1050.981878307793
 30
0.0
 41
1.0
  0
SPLINE
  5
D0B
330
C68
100
AcDbEntity
  8
Visible (ISO)
100
AcDbSpline
210
0.0
220
0.0
230
1.0
 70
    12
 71
     2
 72
     6
 73
     3
 74
     0
 42
0.0000000001
 43
0.0000000001
 40
0.0
 40
0.0
 40
0.0
 40
0.023514981100566
 40
0.023514981100566
 40
0.023514981100566
 10
6473.230152915347
 20
1058.10368644502
 30
0.0
 41
1.0
 10
6473.268584700189
 20
1058.043042456555
 30
0.0
 41
1.007783438302027
 10
6473.302645706775
 20
1057.984047062591
 30
0.0
 41
1.014783661336206
  0
LINE
  5
D0C
330
C68
100
AcDbEntity
  8
Visible (ISO)
100
AcDbLine
 10
6469.90496115331
 20
1057.490806107008
 30
0.0
 11
6470.189733951791
 21
1057.984047062592
 31
0.0
  0
LINE
  5
D0D
330
C68
100
AcDbEntity
  8
Visible (ISO)
100
AcDbLine
 10
6469.90496115331
 20
1049.490806107009
 30
0.0
 11
6470.189733951791
 21
1048.997565151426
 31
0.0
  0
LINE
  5
D0E
330
C68
100
AcDbEntity
  8
Visible (ISO)
100
AcDbLine
 10
6473.90496115331
 20
1050.040806107009
 30
0.0
 11
6473.302645706775
 21
1048.997565151426
 31
0.0
  0
LINE
  5
D0F
330
C68
100
AcDbEntity
  8
Visible (ISO)
100
AcDbLine
 10
6473.90496115331
 20
1056.940806107008
 30
0.0
 11
6473.302645706775
 21
1057.984047062591
 31
0.0
  0
LINE
  5
D10
330
C68
100
AcDbEntity
  8
Visible (ISO)
100
AcDbLine
 10
6473.230152915347
 20
1048.877925768997
 30
0.0
 11
6470.262226743219
 21
1048.877925768997
 31
0.0
  0
LINE
  5
D11
330
C68
100
AcDbEntity
  8
Visible (ISO)
100
AcDbLine
 10
6473.230152915347
 20
1050.981878307793
 30
0.0
 11
6470.262226743219
 21
1050.981878307793
 31
0.0
  0
LINE
  5
D12
330
C68
100
AcDbEntity
  8
Visible (ISO)
100
AcDbLine
 10
6473.230152915347
 20
1055.594758645804
 30
0.0
 11
6470.262226743219
 21
1055.594758645804
 31
0.0
  0
LINE
  5
D13
330
C68
100
AcDbEntity
  8
Visible (ISO)
100
AcDbLine
 10
6473.230152915347
 20
1058.10368644502
 30
0.0
 11
6470.262226743219
 21
1058.10368644502
 31
0.0
  0
LINE
  5
D14
330
C68
100
AcDbEntity
  8
Visible Narrow (ISO)
100
AcDbLine
 10
6467.654961153311
 20
1057.19463738424
 30
0.0
 11
6467.654961153311
 21
1049.786974829777
 31
0.0
  0
LINE
  5
D15
330
C68
100
AcDbEntity
  8
Visible (ISO)
100
AcDbLine
 10
6469.90496115331
 20
1049.740806107009
 30
0.0
 11
6467.654961153311
 21
1049.740806107009
 31
0.0
  0
LINE
  5
D16
330
C68
100
AcDbEntity
  8
Visible (ISO)
100
AcDbLine
 10
6469.90496115331
 20
1057.240806107008
 30
0.0
 11
6467.654961153311
 21
1057.240806107008
 31
0.0
  0
ARC
  5
D17
330
C68
100
AcDbEntity
  8
Visible (ISO)
100
AcDbCircle
 10
6467.654961153311
 20
1053.490806107008
 30
0.0
 40
3.750000000000005
100
AcDbArc
 50
90.0
 51
270.0
  0
ENDBLK
  5
C6A
330
C68
100
AcDbEntity
  8
0
100
AcDbBlockEnd
  0
BLOCK
  5
105C
330
105B
100
AcDbEntity
  8
0
100
AcDbBlockBegin
  2
*D5
 70
     1
 10
0.0
 20
0.0
 30
0.0
  3
*D5
  1

  0
LINE
  5
10F7
330
105B
100
AcDbEntity
  8
Dimension (ISO)
100
AcDbLine
 10
6338.084420900473
 20
3390.067656498338
 30
0.0
 11
5888.001007933994
 21
3390.067656498338
 31
0.0
  0
LINE
  5
10F8
330
105B
100
AcDbEntity
  8
Dimension (ISO)
100
AcDbLine
 10
5908.001007933993
 20
1885.83919465154
 30
0.0
 11
5908.001007933995
 21
3340.067656498339
 31
0.0
  0
SOLID
  5
10F9
330
105B
100
AcDbEntity
  8
Dimension (ISO)
100
AcDbTrace
 10
5899.66767460066
 20
1885.83919465154
 30
0.0
 11
5916.334341267327
 21
1885.83919465154
 31
0.0
 12
5908.001007933993
 22
1835.83919465154
 32
0.0
 13
5908.001007933993
 23
1835.83919465154
 33
0.0
  0
SOLID
  5
10FA
330
105B
100
AcDbEntity
  8
Dimension (ISO)
100
AcDbTrace
 10
5899.667674600661
 20
3340.067656498339
 30
0.0
 11
5916.334341267328
 21
3340.067656498339
 31
0.0
 12
5908.001007933995
 22
3390.067656498338
 32
0.0
 13
5908.001007933995
 23
3390.067656498338
 33
0.0
  0
MTEXT
  5
10FB
330
105B
100
AcDbEntity
  8
Dimension (ISO)
100
AcDbMText
 10
5821.06859691989
 20
2437.953425574939
 30
0.0
 40
70.0
 41
0.0
 71
     2
 72
     1
  1
\A1;1554
  7
Label Text (ISO)
 11
0.0000000000000001
 21
1.0
 31
0.0
 73
     1
 44
1.0
1001
ACAD
1000
MTEXTBEGIN
1070
    73
1070
     1
1070
    44
1040
1.0
1070
    74
1070
     0
1000
MTEXTEND
  0
POINT
  5
10FC
330
105B
100
AcDbEntity
  8
Defpoints
 62
     0
100
AcDbPoint
 10
6466.101008582954
 20
1835.83919465154
 30
0.0
  0
POINT
  5
10FD
330
105B
100
AcDbEntity
  8
Defpoints
 62
     0
100
AcDbPoint
 10
6348.084420900473
 20
3390.067656498338
 30
0.0
  0
POINT
  5
10FE
330
105B
100
AcDbEntity
  8
Defpoints
 62
     0
100
AcDbPoint
 10
5908.001007933995
 20
3390.067656498338
 30
0.0
  0
ENDBLK
  5
105D
330
105B
100
AcDbEntity
  8
0
100
AcDbBlockEnd
  0
BLOCK
  5
1067
330
1066
100
AcDbEntity
  8
0
100
AcDbBlockBegin
  2
*D6
 70
     1
 10
0.0
 20
0.0
 30
0.0
  3
*D6
  1

  0
LINE
  5
10FF
330
1066
100
AcDbEntity
  8
Dimension (ISO)
100
AcDbLine
 10
6567.041447407982
 20
3159.759077202136
 30
0.0
 11
7123.076596488697
 21
3159.759077202136
 31
0.0
  0
LINE
  5
1100
330
1066
100
AcDbEntity
  8
Dimension (ISO)
100
AcDbLine
 10
7103.076596488697
 20
3109.759077202136
 30
0.0
 11
7103.076596488697
 21
1885.83919465154
 31
0.0
  0
SOLID
  5
1101
330
1066
100
AcDbEntity
  8
Dimension (ISO)
100
AcDbTrace
 10
7094.743263155364
 20
3109.759077202136
 30
0.0
 11
7111.40992982203
 21
3109.759077202136
 31
0.0
 12
7103.076596488697
 22
3159.759077202136
 32
0.0
 13
7103.076596488697
 23
3159.759077202136
 33
0.0
  0
SOLID
  5
1102
330
1066
100
AcDbEntity
  8
Dimension (ISO)
100
AcDbTrace
 10
7094.743263155362
 20
1885.83919465154
 30
0.0
 11
7111.40992982203
 21
1885.83919465154
 31
0.0
 12
7103.076596488697
 22
1835.83919465154
 32
0.0
 13
7103.076596488697
 23
1835.83919465154
 33
0.0
  0
MTEXT
  5
1103
330
1066
100
AcDbEntity
  8
Dimension (ISO)
100
AcDbMText
 10
7014.921888631073
 20
2497.799135926838
 30
0.0
 40
70.0
 41
0.0
 71
     2
 72
     1
  1
\A1;1324
  7
Label Text (ISO)
 11
0.0000000000000001
 21
1.0
 31
0.0
 73
     1
 44
1.0
1001
ACAD
1000
MTEXTBEGIN
1070
    73
1070
     1
1070
    44
1040
1.0
1070
    74
1070
     0
1000
MTEXTEND
  0
POINT
  5
1104
330
1066
100
AcDbEntity
  8
Defpoints
 62
     0
100
AcDbPoint
 10
6557.041447407982
 20
3159.759077202136
 30
0.0
  0
POINT
  5
1105
330
1066
100
AcDbEntity
  8
Defpoints
 62
     0
100
AcDbPoint
 10
7032.174874200197
 20
1835.83919465154
 30
0.0
  0
POINT
  5
1106
330
1066
100
AcDbEntity
  8
Defpoints
 62
     0
100
AcDbPoint
 10
7103.076596488697
 20
1835.83919465154
 30
0.0
  0
ENDBLK
  5
1068
330
1066
100
AcDbEntity
  8
0
100
AcDbBlockEnd
  0
BLOCK
  5
1072
330
1071
100
AcDbEntity
  8
0
100
AcDbBlockBegin
  2
*D7
 70
     1
 10
0.0
 20
0.0
 30
0.0
  3
*D7
  1

  0
LINE
  5
1107
330
1071
100
AcDbEntity
  8
Dimension (ISO)
100
AcDbLine
 10
6233.90496115331
 20
1485.83919465154
 30
0.0
 11
5888.001007933993
 21
1485.83919465154
 31
0.0
  0
LINE
  5
1108
330
1071
100
AcDbEntity
  8
Dimension (ISO)
100
AcDbLine
 10
5908.001007933993
 20
1785.83919465154
 30
0.0
 11
5908.001007933993
 21
1535.83919465154
 31
0.0
  0
SOLID
  5
1109
330
1071
100
AcDbEntity
  8
Dimension (ISO)
100
AcDbTrace
 10
5899.66767460066
 20
1785.83919465154
 30
0.0
 11
5916.334341267327
 21
1785.83919465154
 31
0.0
 12
5908.001007933993
 22
1835.83919465154
 32
0.0
 13
5908.001007933993
 23
1835.83919465154
 33
0.0
  0
SOLID
  5
110A
330
1071
100
AcDbEntity
  8
Dimension (ISO)
100
AcDbTrace
 10
5899.66767460066
 20
1535.83919465154
 30
0.0
 11
5916.334341267327
 21
1535.83919465154
 31
0.0
 12
5908.001007933993
 22
1485.83919465154
 32
0.0
 13
5908.001007933993
 23
1485.83919465154
 33
0.0
  0
MTEXT
  5
110B
330
1071
100
AcDbEntity
  8
Dimension (ISO)
100
AcDbMText
 10
5819.846300076371
 20
1660.83919465154
 30
0.0
 40
70.0
 41
0.0
 71
     2
 72
     1
  1
\A1;350
  7
Label Text (ISO)
 11
0.0000000000000001
 21
1.0
 31
0.0
 73
     1
 44
1.0
1001
ACAD
1000
MTEXTBEGIN
1070
    73
1070
     1
1070
    44
1040
1.0
1070
    74
1070
     0
1000
MTEXTEND
  0
POINT
  5
110C
330
1071
100
AcDbEntity
  8
Defpoints
 62
     0
100
AcDbPoint
 10
6493.904961153311
 20
1835.83919465154
 30
0.0
  0
POINT
  5
110D
330
1071
100
AcDbEntity
  8
Defpoints
 62
     0
100
AcDbPoint
 10
6243.90496115331
 20
1485.83919465154
 30
0.0
  0
POINT
  5
110E
330
1071
100
AcDbEntity
  8
Defpoints
 62
     0
100
AcDbPoint
 10
5908.001007933993
 20
1485.83919465154
 30
0.0
  0
ENDBLK
  5
1073
330
1071
100
AcDbEntity
  8
0
100
AcDbBlockEnd
  0
BLOCK
  5
107D
330
107C
100
AcDbEntity
  8
0
100
AcDbBlockBegin
  2
*D8
 70
     1
 10
0.0
 20
0.0
 30
0.0
  3
*D8
  1

  0
LINE
  5
110F
330
107C
100
AcDbEntity
  8
Dimension (ISO)
100
AcDbLine
 10
6563.904961153309
 20
1635.83919465154
 30
0.0
 11
6872.182691657922
 21
1635.83919465154
 31
0.0
  0
LINE
  5
1110
330
107C
100
AcDbEntity
  8
Dimension (ISO)
100
AcDbLine
 10
6852.182691657922
 20
1685.83919465154
 30
0.0
 11
6852.182691657922
 21
1785.83919465154
 31
0.0
  0
LINE
  5
1111
330
107C
100
AcDbEntity
  8
Dimension (ISO)
100
AcDbLine
 10
6852.182691657922
 20
1835.83919465154
 30
0.0
 11
6852.182691657922
 21
2064.969295390293
 31
0.0
  0
SOLID
  5
1112
330
107C
100
AcDbEntity
  8
Dimension (ISO)
100
AcDbTrace
 10
6843.849358324589
 20
1685.83919465154
 30
0.0
 11
6860.516024991254
 21
1685.83919465154
 31
0.0
 12
6852.182691657922
 22
1635.83919465154
 32
0.0
 13
6852.182691657922
 23
1635.83919465154
 33
0.0
  0
SOLID
  5
1113
330
107C
100
AcDbEntity
  8
Dimension (ISO)
100
AcDbTrace
 10
6843.849358324589
 20
1785.83919465154
 30
0.0
 11
6860.516024991254
 21
1785.83919465154
 31
0.0
 12
6852.182691657922
 22
1835.83919465154
 32
0.0
 13
6852.182691657922
 23
1835.83919465154
 33
0.0
  0
MTEXT
  5
1114
330
107C
100
AcDbEntity
  8
Dimension (ISO)
100
AcDbMText
 10
6764.0279838003
 20
1975.404245020918
 30
0.0
 40
70.0
 41
0.0
 71
     2
 72
     1
  1
\A1;200
  7
Label Text (ISO)
 11
0.0000000000000001
 21
1.0
 31
0.0
 73
     1
 44
1.0
1001
ACAD
1000
MTEXTBEGIN
1070
    73
1070
     1
1070
    44
1040
1.0
1070
    74
1070
     0
1000
MTEXTEND
  0
POINT
  5
1115
330
107C
100
AcDbEntity
  8
Defpoints
 62
     0
100
AcDbPoint
 10
6553.90496115331
 20
1635.83919465154
 30
0.0
  0
POINT
  5
1116
330
107C
100
AcDbEntity
  8
Defpoints
 62
     0
100
AcDbPoint
 10
6928.116885629929
 20
1835.83919465154
 30
0.0
  0
POINT
  5
1117
330
107C
100
AcDbEntity
  8
Defpoints
 62
     0
100
AcDbPoint
 10
6852.182691657922
 20
1835.83919465154
 30
0.0
  0
ENDBLK
  5
107E
330
107C
100
AcDbEntity
  8
0
100
AcDbBlockEnd
  0
BLOCK
  5
124B
330
1249
100
AcDbEntity
  8
0
100
AcDbBlockBegin
  2
GENAXEH
 70
     0
 10
0.0
 20
0.0
 30
0.0
  3
GENAXEH
  1

  0
LINE
  5
124A
330
1249
100
AcDbEntity
  8
0
100
AcDbLine
 10
-1.0
 20
0.0
 30
0.0
 11
1.0
 21
0.0
 31
0.0
  0
ENDBLK
  5
124C
330
1249
100
AcDbEntity
  8
0
100
AcDbBlockEnd
  0
ENDSEC
  0
SECTION
  2
ENTITIES
  0
INSERT
  5
114
330
6C
100
AcDbEntity
  8
0
100
AcDbBlockReference
 66
     1
  2
Tabelki rysunkowe Rzut
 10
2404.463674056329
 20
-214.8261084920891
 30
0.0
 41
20.0
 42
20.0
 43
20.0
  0
ATTRIB
  5
117
102
{ACAD_XDICTIONARY
360
8A1
102
}
330
114
100
AcDbEntity
  8
Title (ISO)
100
AcDbText
 10
5971.672263290838
 20
147.9852253127715
 30
0.0
 40
50.0
  1
5065
  7
Note Text (ISO)
100
AcDbAttribute
  2
Numer_katalogowy_001
 70
     0
  0
ATTRIB
  5
118
102
{ACAD_XDICTIONARY
360
8A4
102
}
330
114
100
AcDbEntity
  8
Title (ISO)
100
AcDbText
 10
6212.679650795979
 20
7.918066145762104
 30
0.0
 40
50.0
  1
2017-03-16
  7
Note Text (ISO)
100
AcDbAttribute
  2
DATA_UTWORZENIA_001
 70
     0
  0
ATTRIB
  5
119
102
{ACAD_XDICTIONARY
360
8A7
102
}
330
114
100
AcDbEntity
  8
Title (ISO)
100
AcDbText
 10
5969.858965781586
 20
75.50033613342489
 30
0.0
 40
50.0
  1
Kalejdoskop
  7
Note Text (ISO)
100
AcDbAttribute
  2
Nazwa_001
 70
     0
  0
SEQEND
  5
116
330
114
100
AcDbEntity
  8
0
  0
DIMENSION
  5
6CA
330
6C
100
AcDbEntity
  8
Dimension (ISO)
100
AcDbDimension
  2
*D2
 10
6190.904961153312
 20
823.965701873886
 30
0.0
 11
6502.904961153311
 21
823.965701873886
 31
0.0
 70
   160
  1
<>
 71
     2
 42
624.0
  3
Default (ISO)
100
AcDbAlignedDimension
 13
6814.904961153311
 23
1086.120008773685
 33
0.0
 14
6190.904961153312
 24
1038.620008773699
 34
0.0
100
AcDbRotatedDimension
1001
ACAD
1000
DSTYLE
1002
{
1070
   172
1070
     0
1070
   289
1070
     1
1070
    74
1070
     0
1070
   271
1070
     2
1070
   272
1070
     2
1070
    48
1040
0.0
1070
    47
1040
0.0
1002
}
  0
DIMENSION
  5
7AC
330
6C
100
AcDbEntity
  8
Dimension (ISO)
100
AcDbDimension
  2
*D3
 10
7051.681523210247
 20
990.8233986042068
 30
0.0
 11
7051.681523210247
 21
1111.120008773699
 31
0.0
 70
   160
  1
<>
 71
     2
 42
240.5932203389831
  3
Default (ISO)
100
AcDbAlignedDimension
 13
6752.904961153314
 23
1231.41661894319
 33
0.0
 14
6752.904961153308
 24
990.8233986042068
 34
0.0
 50
90.0
100
AcDbRotatedDimension
1001
ACAD
1000
DSTYLE
1002
{
1070
   172
1070
     0
1070
   289
1070
     1
1070
    74
1070
     0
1070
   271
1070
     0
1070
   272
1070
     2
1070
    48
1040
0.0
1070
    47
1040
0.0
1002
}
  0
LINE
  5
BC6
330
6C
100
AcDbEntity
  8
Visible (ISO)
100
AcDbLine
 10
6743.904961153311
 20
1485.83919465154
 30
0.0
 11
6243.90496115331
 21
1485.83919465154
 31
0.0
  0
INSERT
  5
D18
330
6C
100
AcDbEntity
  8
0
100
AcDbBlockReference
  2
5065_Kalejdoskop
 10
0.0
 20
0.0
 30
0.0
  0
LINE
  5
EFC
330
6C
100
AcDbEntity
  8
Visible (ISO)
100
AcDbLine
 10
6418.904961153311
 20
1643.839194651541
 30
0.0
 11
6433.904961153311
 21
1643.839194651541
 31
0.0
  0
LINE
  5
EFD
330
6C
100
AcDbEntity
  8
Visible (ISO)
100
AcDbLine
 10
6418.904961153311
 20
1643.83919465154
 30
0.0
 11
6418.904961153311
 21
1635.83919465154
 31
0.0
  0
LINE
  5
EFE
330
6C
100
AcDbEntity
  8
Visible (ISO)
100
AcDbLine
 10
6433.904961153311
 20
1635.83919465154
 30
0.0
 11
6418.904961153311
 21
1635.83919465154
 31
0.0
  0
LINE
  5
EFF
330
6C
100
AcDbEntity
  8
Visible Narrow (ISO)
100
AcDbLine
 10
6433.904961153311
 20
1636.23919465154
 30
0.0
 11
6433.904961153311
 21
1643.439194651541
 31
0.0
  0
LINE
  5
F00
330
6C
100
AcDbEntity
  8
Visible (ISO)
100
AcDbLine
 10
6553.90496115331
 20
1643.839194651541
 30
0.0
 11
6568.904961153311
 21
1643.839194651541
 31
0.0
  0
LINE
  5
F01
330
6C
100
AcDbEntity
  8
Visible (ISO)
100
AcDbLine
 10
6568.904961153311
 20
1635.83919465154
 30
0.0
 11
6568.904961153311
 21
1643.83919465154
 31
0.0
  0
LINE
  5
F02
330
6C
100
AcDbEntity
  8
Visible Narrow (ISO)
100
AcDbLine
 10
6553.90496115331
 20
1643.439194651541
 30
0.0
 11
6553.90496115331
 21
1636.23919465154
 31
0.0
  0
LINE
  5
F03
330
6C
100
AcDbEntity
  8
Visible (ISO)
100
AcDbLine
 10
6568.904961153311
 20
1635.83919465154
 30
0.0
 11
6553.90496115331
 21
1635.83919465154
 31
0.0
  0
LINE
  5
F04
330
6C
100
AcDbEntity
  8
Visible (ISO)
100
AcDbLine
 10
6553.90496115331
 20
1643.83919465154
 30
0.0
 11
6433.904961153311
 21
1643.83919465154
 31
0.0
  0
LINE
  5
F05
330
6C
100
AcDbEntity
  8
Visible (ISO)
100
AcDbLine
 10
6553.90496115331
 20
1635.83919465154
 30
0.0
 11
6433.904961153311
 21
1635.83919465154
 31
0.0
  0
LINE
  5
F06
330
6C
100
AcDbEntity
  8
Visible (ISO)
100
AcDbLine
 10
6551.054961153312
 20
2990.83919465154
 30
0.0
 11
6551.054961153312
 21
1835.83919465154
 31
0.0
  0
LINE
  5
F07
330
6C
100
AcDbEntity
  8
Visible (ISO)
100
AcDbLine
 10
6551.054961153312
 20
1825.83919465154
 30
0.0
 11
6551.054961153312
 21
1665.71598187488
 31
0.0
  0
LINE
  5
F08
330
6C
100
AcDbEntity
  8
Visible (ISO)
100
AcDbLine
 10
6436.754961153312
 20
2990.83919465154
 30
0.0
 11
6436.754961153312
 21
1835.83919465154
 31
0.0
  0
LINE
  5
F09
330
6C
100
AcDbEntity
  8
Visible (ISO)
100
AcDbLine
 10
6436.754961153312
 20
1825.83919465154
 30
0.0
 11
6436.754961153312
 21
1665.71598187488
 31
0.0
  0
LINE
  5
F0A
330
6C
100
AcDbEntity
  8
Visible (ISO)
100
AcDbLine
 10
6567.404961153311
 20
2990.83919465154
 30
0.0
 11
6420.404961153311
 21
2990.83919465154
 31
0.0
  0
LINE
  5
F0B
330
6C
100
AcDbEntity
  8
Visible (ISO)
100
AcDbLine
 10
6567.404961153311
 20
2993.839194651541
 30
0.0
 11
6567.404961153311
 21
2990.83919465154
 31
0.0
  0
LINE
  5
F0C
330
6C
100
AcDbEntity
  8
Visible (ISO)
100
AcDbLine
 10
6420.404961153311
 20
2993.839194651541
 30
0.0
 11
6420.404961153311
 21
2990.83919465154
 31
0.0
  0
LINE
  5
F0D
330
6C
100
AcDbEntity
  8
Visible (ISO)
100
AcDbLine
 10
6799.244458960228
 20
3086.930846446318
 30
0.0
 11
6717.831621421315
 21
2964.534155789004
 31
0.0
  0
LINE
  5
F0E
330
6C
100
AcDbEntity
  8
Visible (ISO)
100
AcDbLine
 10
6799.244458960228
 20
3086.930846446318
 30
0.0
 11
6801.742350606298
 21
3085.269359965931
 31
0.0
  0
LINE
  5
F0F
330
6C
100
AcDbEntity
  8
Visible (ISO)
100
AcDbLine
 10
6717.831621421315
 20
2964.534155789004
 30
0.0
 11
6720.329513067381
 21
2962.872669308618
 31
0.0
  0
LINE
  5
F10
330
6C
100
AcDbEntity
  8
Visible (ISO)
100
AcDbLine
 10
6307.344760917534
 20
3237.571767399109
 30
0.0
 11
6388.75759845645
 21
3359.968458056423
 31
0.0
  0
LINE
  5
F11
330
6C
100
AcDbEntity
  8
Visible (ISO)
100
AcDbLine
 10
6307.344760917534
 20
3237.571767399109
 30
0.0
 11
6304.846869271467
 21
3239.233253879495
 31
0.0
  0
LINE
  5
F12
330
6C
100
AcDbEntity
  8
Visible (ISO)
100
AcDbLine
 10
6388.75759845645
 20
3359.968458056423
 30
0.0
 11
6386.259706810382
 21
3361.629944536808
 31
0.0
  0
ARC
  5
F13
330
6C
100
AcDbEntity
  8
Visible (ISO)
100
AcDbCircle
 10
6592.460070003939
 20
3238.286277415852
 30
0.0
 40
5.000000000000026
100
AcDbArc
 50
56.36991488618228
 51
146.3699148861389
  0
ELLIPSE
  5
F14
330
6C
100
AcDbEntity
  8
Visible Narrow (ISO)
100
AcDbEllipse
 10
6501.620501881437
 20
3101.717366970753
 30
0.0
 11
-4.16315274344604
 21
2.769144133976729
 31
0.0
210
0.0
220
0.0
230
0.9999999999999998
 40
0.9296590385608261
 41
0.0785398163396502
 42
1.492256510455206
  0
LINE
  5
F15
330
6C
100
AcDbEntity
  8
Visible Narrow (ISO)
100
AcDbLine
 10
6496.145144935353
 20
3094.194006361738
 30
0.0
 11
6492.321463002061
 21
3096.737349603812
 31
0.0
  0
LINE
  5
F16
330
6C
100
AcDbEntity
  8
Visible Narrow (ISO)
100
AcDbLine
 10
6468.690319320898
 20
3056.389583348012
 30
0.0
 11
6466.461417391359
 21
3057.872149826773
 31
0.0
  0
ARC
  5
F17
330
6C
100
AcDbEntity
  8
Visible (ISO)
100
AcDbCircle
 10
6470.617728108964
 20
3055.107556704227
 30
0.0
 40
5.000000000000025
100
AcDbArc
 50
146.3699148861389
 51
236.3699148861822
  0
LINE
  5
F18
330
6C
100
AcDbEntity
  8
Visible (ISO)
100
AcDbLine
 10
6575.907324818918
 20
3222.428812291595
 30
0.0
 11
6588.296917260493
 21
3241.055421549829
 31
0.0
  0
LINE
  5
F19
330
6C
100
AcDbEntity
  8
Visible (ISO)
100
AcDbLine
 10
6509.392460358611
 20
3122.429849774535
 30
0.0
 11
6573.050473607165
 21
3218.133800047957
 31
0.0
  0
LINE
  5
F1A
330
6C
100
AcDbEntity
  8
Visible (ISO)
100
AcDbLine
 10
6497.457349137994
 20
3104.48651110473
 30
0.0
 11
6506.535609146858
 21
3118.134837530897
 31
0.0
  0
LINE
  5
F1B
330
6C
100
AcDbEntity
  8
Visible Narrow (ISO)
100
AcDbLine
 10
6594.753877280883
 20
3241.73480504602
 30
0.0
 11
6502.018106239344
 21
3102.315128442648
 31
0.0
  0
LINE
  5
F1C
330
6C
100
AcDbEntity
  8
Visible (ISO)
100
AcDbLine
 10
6497.457349137994
 20
3104.48651110473
 30
0.0
 11
6492.308629391534
 21
3096.745885951022
 31
0.0
  0
LINE
  5
F1D
330
6C
100
AcDbEntity
  8
Visible Narrow (ISO)
100
AcDbLine
 10
6493.856839258906
 20
3090.045416439319
 30
0.0
 11
6496.334153562557
 21
3093.769829955059
 31
0.0
  0
LINE
  5
F1E
330
6C
100
AcDbEntity
  8
Visible (ISO)
100
AcDbLine
 10
6492.308629391534
 20
3096.745885951022
 30
0.0
 11
6487.083634045188
 21
3088.890587469541
 31
0.0
  0
LINE
  5
F1F
330
6C
100
AcDbEntity
  8
Visible (ISO)
100
AcDbLine
 10
6468.904961153313
 20
3061.560629814593
 30
0.0
 11
6466.454575365516
 21
3057.876700838203
 31
0.0
  0
LINE
  5
F20
330
6C
100
AcDbEntity
  8
Visible (ISO)
100
AcDbLine
 10
6606.886041819565
 20
3234.695826584163
 30
0.0
 11
6510.702969689859
 21
3090.093450818764
 31
0.0
  0
LINE
  5
F21
330
6C
100
AcDbEntity
  8
Visible (ISO)
100
AcDbLine
 10
6595.229214137916
 20
3242.449430159298
 30
0.0
 11
6606.886041819564
 21
3234.695826584164
 31
0.0
  0
LINE
  5
F22
330
6C
100
AcDbEntity
  8
Visible (ISO)
100
AcDbLine
 10
6507.750681823201
 20
3085.654958368802
 30
0.0
 11
6508.128609816629
 21
3086.22313824191
 31
0.0
  0
LINE
  5
F23
330
6C
100
AcDbEntity
  8
Visible Narrow (ISO)
100
AcDbLine
 10
6496.636930856382
 20
3094.2250276842
 30
0.0
 11
6498.980715424046
 21
3097.748691560412
 31
0.0
  0
LINE
  5
F24
330
6C
100
AcDbEntity
  8
Visible Narrow (ISO)
100
AcDbLine
 10
6468.808399037621
 20
3052.387397361586
 30
0.0
 11
6467.851411856684
 21
3050.948655420031
 31
0.0
  0
LINE
  5
F25
330
6C
100
AcDbEntity
  8
Visible Narrow (ISO)
100
AcDbLine
 10
6510.120128305776
 20
3090.481130997521
 30
0.0
 11
6499.628983392293
 21
3097.459374215143
 31
0.0
  0
LINE
  5
F26
330
6C
100
AcDbEntity
  8
Visible Narrow (ISO)
100
AcDbLine
 10
6497.054623519066
 20
3093.589061638288
 30
0.0
 11
6507.545768432547
 21
3086.610818420667
 31
0.0
  0
LINE
  5
F27
330
6C
100
AcDbEntity
  8
Visible (ISO)
100
AcDbLine
 10
6508.128609816629
 20
3086.22313824191
 30
0.0
 11
6510.702969689859
 21
3090.093450818764
 31
0.0
  0
LINE
  5
F28
330
6C
100
AcDbEntity
  8
Visible (ISO)
100
AcDbLine
 10
6467.848583974987
 20
3050.944403960781
 30
0.0
 11
6468.904961153313
 21
3050.241748822501
 31
0.0
  0
ARC
  5
F29
330
6C
100
AcDbEntity
  8
Visible (ISO)
100
AcDbCircle
 10
6592.460070003939
 20
3238.286277415852
 30
0.0
 40
5.000000000000133
100
AcDbArc
 50
56.36991488618228
 51
146.3699148861389
  0
LINE
  5
F2A
330
6C
100
AcDbEntity
  8
Visible (ISO)
100
AcDbLine
 10
6595.229214137916
 20
3242.449430159298
 30
0.0
 11
6606.886041819565
 21
3234.695826584163
 31
0.0
  0
LINE
  5
F2B
330
6C
100
AcDbEntity
  8
Visible (ISO)
100
AcDbLine
 10
6518.723594895366
 20
3067.845092051296
 30
0.0
 11
6523.254027156227
 21
3074.656179009314
 31
0.0
  0
LINE
  5
F2C
330
6C
100
AcDbEntity
  8
Visible Narrow (ISO)
100
AcDbLine
 10
6520.112074697902
 20
3078.252270122079
 30
0.0
 11
6523.935756631193
 21
3075.708926880004
 31
0.0
  0
LINE
  5
F2D
330
6C
100
AcDbEntity
  8
Visible Narrow (ISO)
100
AcDbLine
 10
6519.647808925849
 20
3078.262622804784
 30
0.0
 11
6517.170494622195
 21
3074.538209289036
 31
0.0
  0
ELLIPSE
  5
F2E
330
6C
100
AcDbEntity
  8
Visible Narrow (ISO)
100
AcDbEllipse
 10
6524.934157244732
 20
3086.210159820479
 30
0.0
 11
4.163152743445968
 21
-2.769144133976798
 31
0.0
210
0.0
220
0.0
230
1.0
 40
0.9296590385608872
 41
4.790928796724474
 42
6.204645490839848
  0
LINE
  5
F2F
330
6C
100
AcDbEntity
  8
Visible (ISO)
100
AcDbLine
 10
6526.858972126783
 20
3080.075881205386
 30
0.0
 11
6529.09730998818
 21
3083.441015686503
 31
0.0
  0
LINE
  5
F30
330
6C
100
AcDbEntity
  8
Visible (ISO)
100
AcDbLine
 10
6568.698275089629
 20
3152.005473627001
 30
0.0
 11
6572.861427833077
 21
3149.236329493023
 31
0.0
  0
LINE
  5
F31
330
6C
100
AcDbEntity
  8
Visible Narrow (ISO)
100
AcDbLine
 10
6523.537475886437
 20
3084.110378246394
 30
0.0
 11
6565.725598104394
 21
3147.53632801821
 31
0.0
  0
LINE
  5
F32
330
6C
100
AcDbEntity
  8
Visible (ISO)
100
AcDbLine
 10
6537.192523829482
 20
3095.611422888748
 30
0.0
 11
6529.09730998818
 21
3083.441015686503
 31
0.0
  0
LINE
  5
F33
330
6C
100
AcDbEntity
  8
Visible (ISO)
100
AcDbLine
 10
6572.861427833077
 20
3149.236329493025
 30
0.0
 11
6541.973494938551
 21
3102.799171892075
 31
0.0
  0
LINE
  5
F34
330
6C
100
AcDbEntity
  8
Visible Narrow (ISO)
100
AcDbLine
 10
6522.294370787342
 20
3082.241484410138
 30
0.0
 11
6519.950586219677
 21
3078.717820533926
 31
0.0
  0
LINE
  5
F35
330
6C
100
AcDbEntity
  8
Visible Narrow (ISO)
100
AcDbLine
 10
6508.711451200709
 20
3085.835458063149
 30
0.0
 11
6519.202596114194
 21
3078.857214845527
 31
0.0
  0
LINE
  5
F36
330
6C
100
AcDbEntity
  8
Visible Narrow (ISO)
100
AcDbLine
 10
6521.776955987421
 20
3082.727527422381
 30
0.0
 11
6511.285811073938
 21
3089.705770640004
 31
0.0
  0
LINE
  5
F37
330
6C
100
AcDbEntity
  8
Visible (ISO)
100
AcDbLine
 10
6510.702969689855
 20
3090.09345081876
 30
0.0
 11
6508.128609816626
 21
3086.223138241906
 31
0.0
  0
LINE
  5
F38
330
6C
100
AcDbEntity
  8
Visible (ISO)
100
AcDbLine
 10
6508.128609816626
 20
3086.223138241906
 30
0.0
 11
6507.750681823198
 21
3085.654958368797
 31
0.0
  0
LINE
  5
F39
330
6C
100
AcDbEntity
  8
Visible (ISO)
100
AcDbLine
 10
6557.041447407982
 20
3159.759077202136
 30
0.0
 11
6568.698275089629
 21
3152.005473627001
 31
0.0
  0
LINE
  5
F3A
330
6C
100
AcDbEntity
  8
Visible (ISO)
100
AcDbLine
 10
6510.702969689855
 20
3090.09345081876
 30
0.0
 11
6557.041447407982
 21
3159.759077202136
 31
0.0
  0
LINE
  5
F3B
330
6C
100
AcDbEntity
  8
Visible Narrow (ISO)
100
AcDbLine
 10
6572.609036894087
 20
3157.884943220298
 30
0.0
 11
6618.38921525144
 21
3226.711218019565
 31
0.0
  0
LINE
  5
F3C
330
6C
100
AcDbEntity
  8
Visible (ISO)
100
AcDbLine
 10
6603.749360727604
 20
3195.673487093972
 30
0.0
 11
6572.861427833081
 21
3149.236329493023
 31
0.0
  0
LINE
  5
F3D
330
6C
100
AcDbEntity
  8
Visible (ISO)
100
AcDbLine
 10
6619.936878110689
 20
3220.00992613161
 30
0.0
 11
6608.530331836672
 21
3202.861236097298
 31
0.0
  0
LINE
  5
F3E
330
6C
100
AcDbEntity
  8
Visible (ISO)
100
AcDbLine
 10
6557.041447407984
 20
3159.759077202135
 30
0.0
 11
6606.88604181957
 21
3234.695826584168
 31
0.0
  0
LINE
  5
F3F
330
6C
100
AcDbEntity
  8
Visible (ISO)
100
AcDbLine
 10
6557.041447407984
 20
3159.759077202135
 30
0.0
 11
6568.698275089634
 21
3152.005473627
 31
0.0
  0
LINE
  5
F40
330
6C
100
AcDbEntity
  8
Visible (ISO)
100
AcDbLine
 10
6618.542869501218
 20
3226.942223009034
 30
0.0
 11
6606.88604181957
 21
3234.695826584168
 31
0.0
  0
LINE
  5
F41
330
6C
100
AcDbEntity
  8
Visible (ISO)
100
AcDbLine
 10
6572.861427833081
 20
3149.236329493023
 30
0.0
 11
6568.698275089634
 21
3152.005473627
 31
0.0
  0
ARC
  5
F42
330
6C
100
AcDbEntity
  8
Visible (ISO)
100
AcDbCircle
 10
6615.77372536724
 20
3222.779070265588
 30
0.0
 40
5.000000000000334
100
AcDbArc
 50
326.3699148861389
 51
56.36991488618228
  0
LINE
  5
F43
330
6C
100
AcDbEntity
  8
Visible (ISO)
100
AcDbLine
 10
6423.90496115331
 20
3031.839194651541
 30
0.0
 11
6563.904961153309
 21
3031.839194651541
 31
0.0
  0
LINE
  5
F44
330
6C
100
AcDbEntity
  8
Visible Narrow (ISO)
100
AcDbLine
 10
6567.981586697946
 20
3026.83919465154
 30
0.0
 11
6419.828335608674
 21
3026.83919465154
 31
0.0
  0
ARC
  5
F45
330
6C
100
AcDbEntity
  8
Visible (ISO)
100
AcDbCircle
 10
6423.90496115331
 20
3026.83919465154
 30
0.0
 40
5.0
100
AcDbArc
 50
90.0
 51
180.0
  0
ARC
  5
F46
330
6C
100
AcDbEntity
  8
Visible (ISO)
100
AcDbCircle
 10
6563.904961153309
 20
3026.83919465154
 30
0.0
 40
5.0
100
AcDbArc
 50
0.0
 51
90.0
  0
LINE
  5
F47
330
6C
100
AcDbEntity
  8
Visible (ISO)
100
AcDbLine
 10
6418.904961153311
 20
3012.839194651541
 30
0.0
 11
6568.904961153311
 21
3012.839194651541
 31
0.0
  0
LINE
  5
F48
330
6C
100
AcDbEntity
  8
Visible (ISO)
100
AcDbLine
 10
6568.904961153311
 20
3026.83919465154
 30
0.0
 11
6568.904961153311
 21
3012.839194651541
 31
0.0
  0
LINE
  5
F49
330
6C
100
AcDbEntity
  8
Visible (ISO)
100
AcDbLine
 10
6418.904961153311
 20
3026.83919465154
 30
0.0
 11
6418.904961153311
 21
3012.839194651541
 31
0.0
  0
LINE
  5
F4A
330
6C
100
AcDbEntity
  8
Visible (ISO)
100
AcDbLine
 10
6568.904961153311
 20
3012.839194651541
 30
0.0
 11
6418.904961153311
 21
3012.839194651541
 31
0.0
  0
LINE
  5
F4B
330
6C
100
AcDbEntity
  8
Visible (ISO)
100
AcDbLine
 10
6568.904961153311
 20
2993.839194651541
 30
0.0
 11
6418.904961153311
 21
2993.839194651541
 31
0.0
  0
LINE
  5
F4C
330
6C
100
AcDbEntity
  8
Visible (ISO)
100
AcDbLine
 10
6418.904961153311
 20
2993.839194651541
 30
0.0
 11
6418.904961153311
 21
3012.839194651541
 31
0.0
  0
LINE
  5
F4D
330
6C
100
AcDbEntity
  8
Visible (ISO)
100
AcDbLine
 10
6568.904961153311
 20
2993.839194651541
 30
0.0
 11
6568.904961153311
 21
3012.839194651541
 31
0.0
  0
LINE
  5
F4E
330
6C
100
AcDbEntity
  8
Visible (ISO)
100
AcDbLine
 10
6442.824372060387
 20
3041.839194651541
 30
0.0
 11
6468.904961153313
 21
3041.839194651541
 31
0.0
  0
LINE
  5
F4F
330
6C
100
AcDbEntity
  8
Visible (ISO)
100
AcDbLine
 10
6442.824372060387
 20
3041.839194651541
 30
0.0
 11
6442.824372060387
 21
3031.839194651541
 31
0.0
  0
LINE
  5
F50
330
6C
100
AcDbEntity
  8
Visible (ISO)
100
AcDbLine
 10
6518.904961153308
 20
3041.839194651541
 30
0.0
 11
6544.985550246233
 21
3041.839194651541
 31
0.0
  0
LINE
  5
F51
330
6C
100
AcDbEntity
  8
Visible (ISO)
100
AcDbLine
 10
6544.985550246233
 20
3041.839194651541
 30
0.0
 11
6544.985550246233
 21
3031.839194651541
 31
0.0
  0
LINE
  5
F52
330
6C
100
AcDbEntity
  8
Visible Narrow (ISO)
100
AcDbLine
 10
6473.904961153313
 20
3033.489194651535
 30
0.0
 11
6473.904961153313
 21
3063.189194651579
 31
0.0
  0
LINE
  5
F53
330
6C
100
AcDbEntity
  8
Visible Narrow (ISO)
100
AcDbLine
 10
6468.920374484651
 20
3064.839194651581
 30
0.0
 11
6473.512665674675
 21
3064.839194651581
 31
0.0
  0
LINE
  5
F54
330
6C
100
AcDbEntity
  8
Visible (ISO)
100
AcDbLine
 10
6468.904961153315
 20
3064.839194651581
 30
0.0
 11
6468.904961153315
 21
3031.839194651532
 31
0.0
  0
LINE
  5
F55
330
6C
100
AcDbEntity
  8
Visible Narrow (ISO)
100
AcDbLine
 10
6518.889547821975
 20
3064.83919465158
 30
0.0
 11
6514.29725663195
 21
3064.83919465158
 31
0.0
  0
ARC
  5
F56
330
6C
100
AcDbEntity
  8
Visible (ISO)
100
AcDbCircle
 10
6493.904961153313
 20
3064.839194651581
 30
0.0
 40
25.00000000000929
100
AcDbArc
 50
0.0
 51
180.0
  0
ARC
  5
F57
330
6C
100
AcDbEntity
  8
Visible Narrow (ISO)
100
AcDbCircle
 10
6493.904961153313
 20
3064.839194651581
 30
0.0
 40
20.00000000000744
100
AcDbArc
 50
8.999999999986853
 51
171.0000000000131
  0
LINE
  5
F58
330
6C
100
AcDbEntity
  8
Visible (ISO)
100
AcDbLine
 10
6518.90496115331
 20
3031.839194651532
 30
0.0
 11
6518.90496115331
 21
3064.83919465158
 31
0.0
  0
LINE
  5
F59
330
6C
100
AcDbEntity
  8
Visible Narrow (ISO)
100
AcDbLine
 10
6513.904961153309
 20
3063.189194651578
 30
0.0
 11
6513.904961153309
 21
3033.489194651535
 31
0.0
  0
LINE
  5
F5A
330
6C
100
AcDbEntity
  8
Visible (ISO)
100
AcDbLine
 10
6379.702497138347
 20
3346.354948585354
 30
0.0
 11
6563.739446835826
 21
3223.941750921146
 31
0.0
  0
LINE
  5
F5B
330
6C
100
AcDbEntity
  8
Visible (ISO)
100
AcDbLine
 10
6607.251486971297
 20
3194.99947612996
 30
0.0
 11
6790.189357642126
 21
3073.31733697525
 31
0.0
  0
LINE
  5
F5C
330
6C
100
AcDbEntity
  8
Visible (ISO)
100
AcDbLine
 10
6316.399862235639
 20
3251.185276870177
 30
0.0
 11
6500.436811933122
 21
3128.772079205969
 31
0.0
  0
LINE
  5
F5D
330
6C
100
AcDbEntity
  8
Visible (ISO)
100
AcDbLine
 10
6543.94885206859
 20
3099.829804414784
 30
0.0
 11
6726.886722739418
 21
2978.147665260073
 31
0.0
  0
LINE
  5
F5E
330
6C
100
AcDbEntity
  8
Visible (ISO)
100
AcDbLine
 10
6844.699943544366
 20
3115.545509142592
 30
0.0
 11
6800.245139153763
 21
3048.711811832545
 31
0.0
  0
LINE
  5
F5F
330
6C
100
AcDbEntity
  8
Visible (ISO)
100
AcDbLine
 10
6800.245139153763
 20
3048.711811832545
 30
0.0
 11
6797.250970961676
 21
3044.210356176882
 31
0.0
  0
LINE
  5
F60
330
6C
100
AcDbEntity
  8
Visible (ISO)
100
AcDbLine
 10
6793.985549167397
 20
3039.301095754301
 30
0.0
 11
6797.250970961676
 21
3044.210356176882
 31
0.0
  0
LINE
  5
F61
330
6C
100
AcDbEntity
  8
Visible (ISO)
100
AcDbLine
 10
6788.846658095756
 20
3031.57524710646
 30
0.0
 11
6793.985549167395
 21
3039.301095754301
 31
0.0
  0
LINE
  5
F62
330
6C
100
AcDbEntity
  8
Visible (ISO)
100
AcDbLine
 10
6764.865166428112
 20
2995.521286749868
 30
0.0
 11
6788.846658095756
 21
3031.57524710646
 31
0.0
  0
LINE
  5
F63
330
6C
100
AcDbEntity
  8
Visible (ISO)
100
AcDbLine
 10
6759.726275356474
 20
2987.795438102026
 30
0.0
 11
6764.865166428112
 21
2995.521286749868
 31
0.0
  0
LINE
  5
F64
330
6C
100
AcDbEntity
  8
Visible (ISO)
100
AcDbLine
 10
6756.460853562197
 20
2982.886177679445
 30
0.0
 11
6759.726275356476
 21
2987.795438102028
 31
0.0
  0
LINE
  5
F65
330
6C
100
AcDbEntity
  8
Visible (ISO)
100
AcDbLine
 10
6756.460853562195
 20
2982.886177679445
 30
0.0
 11
6753.466685370106
 21
2978.384722023782
 31
0.0
  0
LINE
  5
F66
330
6C
100
AcDbEntity
  8
Visible (ISO)
100
AcDbLine
 10
6753.466685370106
 20
2978.384722023782
 30
0.0
 11
6709.011880979506
 21
2911.551024713735
 31
0.0
  0
LINE
  5
F67
330
6C
100
AcDbEntity
  8
Visible (ISO)
100
AcDbLine
 10
6693.19190055441
 20
2922.073772422847
 30
0.0
 11
6737.646704945011
 21
2988.907469732895
 31
0.0
  0
LINE
  5
F68
330
6C
100
AcDbEntity
  8
Visible (ISO)
100
AcDbLine
 10
6737.646704945011
 20
2988.907469732895
 30
0.0
 11
6740.640873137099
 21
2993.408925388557
 31
0.0
  0
LINE
  5
F69
330
6C
100
AcDbEntity
  8
Visible (ISO)
100
AcDbLine
 10
6743.906294931379
 20
2998.318185811138
 30
0.0
 11
6740.640873137103
 21
2993.408925388557
 31
0.0
  0
LINE
  5
F6A
330
6C
100
AcDbEntity
  8
Visible (ISO)
100
AcDbLine
 10
6749.045186003018
 20
3006.04403445898
 30
0.0
 11
6743.906294931379
 21
2998.318185811138
 31
0.0
  0
LINE
  5
F6B
330
6C
100
AcDbEntity
  8
Visible (ISO)
100
AcDbLine
 10
6773.026677670663
 20
3042.097994815571
 30
0.0
 11
6749.045186003018
 21
3006.04403445898
 31
0.0
  0
LINE
  5
F6C
330
6C
100
AcDbEntity
  8
Visible (ISO)
100
AcDbLine
 10
6778.165568742302
 20
3049.823843463412
 30
0.0
 11
6773.026677670663
 21
3042.097994815571
 31
0.0
  0
LINE
  5
F6D
330
6C
100
AcDbEntity
  8
Visible (ISO)
100
AcDbLine
 10
6781.430990536579
 20
3054.733103885994
 30
0.0
 11
6778.165568742302
 21
3049.823843463412
 31
0.0
  0
LINE
  5
F6E
330
6C
100
AcDbEntity
  8
Visible (ISO)
100
AcDbLine
 10
6781.430990536579
 20
3054.733103885994
 30
0.0
 11
6784.425158728669
 21
3059.234559541657
 31
0.0
  0
LINE
  5
F6F
330
6C
100
AcDbEntity
  8
Visible (ISO)
100
AcDbLine
 10
6784.425158728669
 20
3059.234559541657
 30
0.0
 11
6828.879963119269
 21
3126.068256851703
 31
0.0
  0
ELLIPSE
  5
F70
330
6C
100
AcDbEntity
  8
Visible Narrow (ISO)
100
AcDbEllipse
 10
6741.809857688457
 20
2986.138325598917
 30
0.0
 11
-4.163152743446032
 21
2.769144133976714
 31
0.0
210
0.0
220
0.0
230
1.0
 40
0.3447499573611731
 41
0.0785398163398465
 42
1.492256510455164
  0
LINE
  5
F71
330
6C
100
AcDbEntity
  8
Visible Narrow (ISO)
100
AcDbLine
 10
6736.863447090631
 20
2978.701853586539
 30
0.0
 11
6694.716991232299
 21
2915.338545342571
 31
0.0
  0
ELLIPSE
  5
F72
330
6C
100
AcDbEntity
  8
Visible Narrow (ISO)
100
AcDbEllipse
 10
6744.804025880546
 20
2990.63978125458
 30
0.0
 11
-4.163152743446055
 21
2.769144133976718
 31
0.0
210
0.0
220
0.0
230
1.0
 40
0.7365112725443278
 41
4.790928796724397
 42
6.204645490839968
  0
LINE
  5
F73
330
6C
100
AcDbEntity
  8
Visible Narrow (ISO)
100
AcDbLine
 10
6746.615560207494
 20
2993.36325599558
 30
0.0
 11
6741.165032249327
 21
2985.168890038302
 31
0.0
  0
ELLIPSE
  5
F74
330
6C
100
AcDbEntity
  8
Visible Narrow (ISO)
100
AcDbEllipse
 10
6748.069447674827
 20
2995.549041677162
 30
0.0
 11
-4.163152743446056
 21
2.76914413397673
 31
0.0
210
0.0
220
0.0
230
1.0
 40
0.6185895741317441
 41
4.79092879672437
 42
6.204645490839708
  0
LINE
  5
F75
330
6C
100
AcDbEntity
  8
Visible Narrow (ISO)
100
AcDbLine
 10
6746.979791545545
 20
2993.910844210885
 30
0.0
 11
6749.625325915158
 21
2997.88816107699
 31
0.0
  0
LINE
  5
F76
330
6C
100
AcDbEntity
  8
Visible Narrow (ISO)
100
AcDbLine
 10
6749.058019613544
 20
3006.035498111769
 30
0.0
 11
6752.881701546836
 21
3003.492154869695
 31
0.0
  0
LINE
  5
F77
330
6C
100
AcDbEntity
  8
Visible Narrow (ISO)
100
AcDbLine
 10
6749.929400443685
 20
2998.34530907883
 30
0.0
 11
6753.023685918813
 21
3002.997281833417
 31
0.0
  0
LINE
  5
F78
330
6C
100
AcDbEntity
  8
Visible Narrow (ISO)
100
AcDbLine
 10
6773.039511281189
 20
3042.089458468361
 30
0.0
 11
6776.863193214481
 21
3039.546115226286
 31
0.0
  0
LINE
  5
F79
330
6C
100
AcDbEntity
  8
Visible Narrow (ISO)
100
AcDbLine
 10
6754.407413329845
 20
3005.077588342833
 30
0.0
 11
6775.990755830726
 21
3037.526152663765
 31
0.0
  0
ELLIPSE
  5
F7A
330
6C
100
AcDbEntity
  8
Visible Narrow (ISO)
100
AcDbEllipse
 10
6782.328721485746
 20
3047.054699329435
 30
0.0
 11
-4.163152743446062
 21
2.769144133976721
 31
0.0
210
0.0
220
0.0
230
1.0
 40
0.6185895741317419
 41
0.0785398163394575
 42
1.492256510455058
  0
LINE
  5
F7B
330
6C
100
AcDbEntity
  8
Visible Narrow (ISO)
100
AcDbLine
 10
6777.374483241759
 20
3039.606459173181
 30
0.0
 11
6780.468768716888
 21
3044.258431927767
 31
0.0
  0
ELLIPSE
  5
F7C
330
6C
100
AcDbEntity
  8
Visible Narrow (ISO)
100
AcDbEllipse
 10
6785.594143280026
 20
3051.963959752017
 30
0.0
 11
-4.163152743446047
 21
2.769144133976728
 31
0.0
210
0.0
220
0.0
230
1.0
 40
0.7365112725443256
 41
0.078539816339795
 42
1.492256510455169
  0
LINE
  5
F7D
330
6C
100
AcDbEntity
  8
Visible Narrow (ISO)
100
AcDbLine
 10
6780.772843245415
 20
3044.715579929607
 30
0.0
 11
6783.41837761503
 21
3048.692896795712
 31
0.0
  0
ELLIPSE
  5
F7E
330
6C
100
AcDbEntity
  8
Visible Narrow (ISO)
100
AcDbEllipse
 10
6788.588311472115
 20
3056.46541540768
 30
0.0
 11
-4.163152743446023
 21
2.769144133976695
 31
0.0
210
0.0
220
0.0
230
0.9999999999999998
 40
0.3447499573611756
 41
4.790928796724448
 42
6.204645490839811
  0
LINE
  5
F7F
330
6C
100
AcDbEntity
  8
Visible Narrow (ISO)
100
AcDbLine
 10
6789.233136911241
 20
3057.434850968296
 30
0.0
 11
6783.782608953078
 21
3049.240485011017
 31
0.0
  0
LINE
  5
F80
330
6C
100
AcDbEntity
  8
Visible Narrow (ISO)
100
AcDbLine
 10
6835.681177928275
 20
3127.265195664026
 30
0.0
 11
6793.534722069942
 21
3063.901887420058
 31
0.0
  0
LINE
  5
F81
330
6C
100
AcDbEntity
  8
Visible Narrow (ISO)
100
AcDbLine
 10
6760.517360857017
 20
2998.012822392258
 30
0.0
 11
6757.423075381886
 21
2993.360849637671
 31
0.0
  0
LINE
  5
F82
330
6C
100
AcDbEntity
  8
Visible Narrow (ISO)
100
AcDbLine
 10
6757.119000853362
 20
2992.903701635833
 30
0.0
 11
6754.473466483748
 21
2988.926384769728
 31
0.0
  0
LINE
  5
F83
330
6C
100
AcDbEntity
  8
Visible Narrow (ISO)
100
AcDbLine
 10
6748.658707187535
 20
2980.184430597143
 30
0.0
 11
6754.109235145697
 21
2988.378796554422
 31
0.0
  0
LINE
  5
F84
330
6C
100
AcDbEntity
  8
Visible Narrow (ISO)
100
AcDbLine
 10
6702.210666170502
 20
2910.354085901412
 30
0.0
 11
6744.357122028834
 21
2973.717394145382
 31
0.0
  0
ELLIPSE
  5
F85
330
6C
100
AcDbEntity
  8
Visible Narrow (ISO)
100
AcDbEllipse
 10
6796.081986410317
 20
3051.480955966523
 30
0.0
 11
4.16315274344602
 21
-2.769144133976705
 31
0.0
210
0.0
220
0.0
230
1.0
 40
0.3447499573611772
 41
0.0785398163398181
 42
1.492256510455163
  0
LINE
  5
F86
330
6C
100
AcDbEntity
  8
Visible Narrow (ISO)
100
AcDbLine
 10
6801.028397008145
 20
3058.917427978899
 30
0.0
 11
6843.174852866479
 21
3122.280736222868
 31
0.0
  0
ELLIPSE
  5
F87
330
6C
100
AcDbEntity
  8
Visible Narrow (ISO)
100
AcDbEllipse
 10
6793.087818218225
 20
3046.97950031086
 30
0.0
 11
4.163152743446038
 21
-2.769144133976717
 31
0.0
210
0.0
220
0.0
230
1.0
 40
0.7365112725443268
 41
4.790928796724397
 42
6.204645490839971
  0
LINE
  5
F88
330
6C
100
AcDbEntity
  8
Visible Narrow (ISO)
100
AcDbLine
 10
6791.276283891281
 20
3044.256025569859
 30
0.0
 11
6796.726811849447
 21
3052.450391527137
 31
0.0
  0
ELLIPSE
  5
F89
330
6C
100
AcDbEntity
  8
Visible Narrow (ISO)
100
AcDbEllipse
 10
6789.822396423949
 20
3042.070239888277
 30
0.0
 11
4.163152743446034
 21
-2.769144133976714
 31
0.0
210
0.0
220
0.0
230
1.0
 40
0.618589574131741
 41
4.790928796724305
 42
6.204645490839714
  0
LINE
  5
F8A
330
6C
100
AcDbEntity
  8
Visible Narrow (ISO)
100
AcDbLine
 10
6790.912052553233
 20
3043.708437354554
 30
0.0
 11
6788.266518183618
 21
3039.731120488449
 31
0.0
  0
LINE
  5
F8B
330
6C
100
AcDbEntity
  8
Visible Narrow (ISO)
100
AcDbLine
 10
6788.83382448523
 20
3031.58378345367
 30
0.0
 11
6785.010142551938
 21
3034.127126695745
 31
0.0
  0
LINE
  5
F8C
330
6C
100
AcDbEntity
  8
Visible Narrow (ISO)
100
AcDbLine
 10
6787.962443655089
 20
3039.27397248661
 30
0.0
 11
6784.868158179961
 21
3034.621999732022
 31
0.0
  0
LINE
  5
F8D
330
6C
100
AcDbEntity
  8
Visible Narrow (ISO)
100
AcDbLine
 10
6764.852332817586
 20
2995.529823097078
 30
0.0
 11
6761.028650884293
 21
2998.073166339153
 31
0.0
  0
LINE
  5
F8E
330
6C
100
AcDbEntity
  8
Visible Narrow (ISO)
100
AcDbLine
 10
6783.484430768929
 20
3032.541693222607
 30
0.0
 11
6761.901088268048
 21
3000.093128901675
 31
0.0
  0
ELLIPSE
  5
F8F
330
6C
100
AcDbEntity
  8
Visible Narrow (ISO)
100
AcDbEllipse
 10
6755.56312261303
 20
2990.564582236004
 30
0.0
 11
4.163152743446072
 21
-2.769144133976733
 31
0.0
210
0.0
220
0.0
230
1.0
 40
0.6185895741317424
 41
0.078539816339454
 42
1.492256510455058
  0
ELLIPSE
  5
F90
330
6C
100
AcDbEntity
  8
Visible Narrow (ISO)
100
AcDbEllipse
 10
6752.29770081875
 20
2985.655321813423
 30
0.0
 11
4.163152743446043
 21
-2.769144133976718
 31
0.0
210
0.0
220
0.0
230
1.0
 40
0.7365112725443264
 41
0.0785398163397932
 42
1.492256510455169
  0
ELLIPSE
  5
F91
330
6C
100
AcDbEntity
  8
Visible Narrow (ISO)
100
AcDbEllipse
 10
6749.303532626661
 20
2981.153866157759
 30
0.0
 11
4.163152743446024
 21
-2.769144133976694
 31
0.0
210
0.0
220
0.0
230
0.9999999999999998
 40
0.3447499573611727
 41
4.790928796724447
 42
6.204645490839813
  0
ARC
  5
F92
330
6C
100
AcDbEntity
  8
Visible (ISO)
100
AcDbCircle
 10
6697.355053297858
 20
2919.304628288871
 30
0.0
 40
5.000000000000001
100
AcDbArc
 50
146.3699148861389
 51
236.3699148861822
  0
ARC
  5
F93
330
6C
100
AcDbEntity
  8
Visible (ISO)
100
AcDbCircle
 10
6833.043115862716
 20
3123.299112717726
 30
0.0
 40
5.000000000000002
100
AcDbArc
 50
56.36991488618228
 51
146.3699148861389
  0
ARC
  5
F94
330
6C
100
AcDbEntity
  8
Visible (ISO)
100
AcDbCircle
 10
6840.53679080092
 20
3118.314653276569
 30
0.0
 40
5.000000000000002
100
AcDbArc
 50
326.3699148861389
 51
56.36991488618228
  0
ARC
  5
F95
330
6C
100
AcDbEntity
  8
Visible (ISO)
100
AcDbCircle
 10
6704.84872823606
 20
2914.320168847712
 30
0.0
 40
5.000000000000001
100
AcDbArc
 50
236.3699148861822
 51
326.3699148861389
  0
LINE
  5
F96
330
6C
100
AcDbEntity
  8
Visible Narrow (ISO)
100
AcDbLine
 10
6750.157095112283
 20
2997.875101587718
 30
0.0
 11
6756.901402556664
 21
2993.389088090675
 31
0.0
  0
LINE
  5
F97
330
6C
100
AcDbEntity
  8
Visible Narrow (ISO)
100
AcDbLine
 10
6760.327329937756
 20
2998.539653855903
 30
0.0
 11
6753.583022493373
 21
3003.025667352945
 31
0.0
  0
LINE
  5
F98
330
6C
100
AcDbEntity
  8
Visible Narrow (ISO)
100
AcDbLine
 10
6753.962522941815
 20
2988.970753710352
 30
0.0
 11
6747.218215497432
 21
2993.456767207394
 31
0.0
  0
LINE
  5
F99
330
6C
100
AcDbEntity
  8
Visible Narrow (ISO)
100
AcDbLine
 10
6741.229879113254
 20
2984.453855896069
 30
0.0
 11
6747.974186557636
 21
2979.967842399025
 31
0.0
  0
LINE
  5
F9A
330
6C
100
AcDbEntity
  8
Visible Narrow (ISO)
100
AcDbLine
 10
6777.564514161018
 20
3039.079627709537
 30
0.0
 11
6784.308821605403
 21
3034.593614212494
 31
0.0
  0
LINE
  5
F9B
330
6C
100
AcDbEntity
  8
Visible Narrow (ISO)
100
AcDbLine
 10
6787.734748986493
 20
3039.744179977722
 30
0.0
 11
6780.99044154211
 21
3044.230193474764
 31
0.0
  0
LINE
  5
F9C
330
6C
100
AcDbEntity
  8
Visible Narrow (ISO)
100
AcDbLine
 10
6783.929321156962
 20
3048.648527855088
 30
0.0
 11
6790.673628601346
 21
3044.162514358045
 31
0.0
  0
LINE
  5
F9D
330
6C
100
AcDbEntity
  8
Visible Narrow (ISO)
100
AcDbLine
 10
6796.661964985521
 20
3053.165425669371
 30
0.0
 11
6789.917657541138
 21
3057.651439166413
 31
0.0
  0
LINE
  5
F9E
330
6C
100
AcDbEntity
  8
Visible (ISO)
100
AcDbLine
 10
6694.58590916388
 20
2915.141475545424
 30
0.0
 11
6702.079584102083
 21
2910.157016104266
 31
0.0
  0
LINE
  5
F9F
330
6C
100
AcDbEntity
  8
Visible (ISO)
100
AcDbLine
 10
6835.812259996692
 20
3127.462265461173
 30
0.0
 11
6843.305934934895
 21
3122.477806020015
 31
0.0
  0
LINE
  5
FA0
330
6C
100
AcDbEntity
  8
Visible (ISO)
100
AcDbLine
 10
6387.367364463973
 20
3363.295205634187
 30
0.0
 11
6303.739211617877
 21
3237.567992782117
 31
0.0
  0
LINE
  5
FA1
330
6C
100
AcDbEntity
  8
Visible Narrow (ISO)
100
AcDbLine
 10
6301.494730637926
 20
3237.804846777059
 30
0.0
 11
6386.281323249168
 21
3365.273666946427
 31
0.0
  0
ARC
  5
FA2
330
6C
100
AcDbEntity
  8
Visible (ISO)
100
AcDbCircle
 10
6385.702103366595
 20
3364.402863287778
 30
0.0
 40
2.0
100
AcDbArc
 50
326.3699148861389
 51
56.36991488618228
  0
ARC
  5
FA3
330
6C
100
AcDbEntity
  8
Visible (ISO)
100
AcDbCircle
 10
6302.073950520498
 20
3238.675650435708
 30
0.0
 40
2.0
100
AcDbArc
 50
236.3699148861822
 51
326.3699148861389
  0
LINE
  5
FA4
330
6C
100
AcDbEntity
  8
Visible (ISO)
100
AcDbLine
 10
6290.142095733949
 20
3244.210164086669
 30
0.0
 11
6375.985563887226
 21
3373.267899133496
 31
0.0
  0
LINE
  5
FA5
330
6C
100
AcDbEntity
  8
Visible (ISO)
100
AcDbLine
 10
6375.985563887226
 20
3373.267899133496
 30
0.0
 11
6386.809761020185
 21
3366.068124385156
 31
0.0
  0
LINE
  5
FA6
330
6C
100
AcDbEntity
  8
Visible (ISO)
100
AcDbLine
 10
6290.142095733949
 20
3244.210164086669
 30
0.0
 11
6300.966292866908
 21
3237.01038933833
 31
0.0
  0
LINE
  5
FA7
330
6C
100
AcDbEntity
  8
Visible (ISO)
100
AcDbLine
 10
6274.322115308852
 20
3254.73291179578
 30
0.0
 11
6360.16558346213
 21
3383.790646842607
 31
0.0
  0
LINE
  5
FA8
330
6C
100
AcDbEntity
  8
Visible (ISO)
100
AcDbLine
 10
6375.985563887226
 20
3373.267899133495
 30
0.0
 11
6290.142095733949
 21
3244.210164086668
 31
0.0
  0
LINE
  5
FA9
330
6C
100
AcDbEntity
  8
Visible (ISO)
100
AcDbLine
 10
6360.16558346213
 20
3383.790646842607
 30
0.0
 11
6375.985563887226
 21
3373.267899133496
 31
0.0
  0
LINE
  5
FAA
330
6C
100
AcDbEntity
  8
Visible (ISO)
100
AcDbLine
 10
6274.322115308852
 20
3254.732911795779
 30
0.0
 11
6290.142095733949
 21
3244.210164086668
 31
0.0
  0
LINE
  5
FAB
330
6C
100
AcDbEntity
  8
Visible (ISO)
100
AcDbLine
 10
6264.601801212491
 20
3267.203496941157
 30
0.0
 11
6344.906981097817
 21
3387.934926501092
 31
0.0
  0
LINE
  5
FAC
330
6C
100
AcDbEntity
  8
Visible Narrow (ISO)
100
AcDbLine
 10
6351.310840204222
 20
3388.534477671831
 30
0.0
 11
6266.524247592979
 21
3261.065657502463
 31
0.0
  0
ARC
  5
FAD
330
6C
100
AcDbEntity
  8
Visible (ISO)
100
AcDbCircle
 10
6268.764953955937
 20
3264.434352807179
 30
0.0
 40
4.999999999999996
100
AcDbArc
 50
146.3699148861389
 51
236.3699148861822
  0
ARC
  5
FAE
330
6C
100
AcDbEntity
  8
Visible (ISO)
100
AcDbCircle
 10
6349.070133841262
 20
3385.165782367115
 30
0.0
 40
4.999999999999998
100
AcDbArc
 50
56.36991488618228
 51
146.3699148861389
  0
LINE
  5
FAF
330
6C
100
AcDbEntity
  8
Visible (ISO)
100
AcDbLine
 10
6360.165583462133
 20
3383.790646842607
 30
0.0
 11
6274.322115308852
 21
3254.73291179578
 31
0.0
  0
LINE
  5
FB0
330
6C
100
AcDbEntity
  8
Visible (ISO)
100
AcDbLine
 10
6351.83927797524
 20
3389.328935110561
 30
0.0
 11
6360.165583462133
 21
3383.790646842607
 31
0.0
  0
LINE
  5
FB1
330
6C
100
AcDbEntity
  8
Visible (ISO)
100
AcDbLine
 10
6265.995809821959
 20
3260.271200063733
 30
0.0
 11
6274.322115308852
 21
3254.73291179578
 31
0.0
  0
LINE
  5
FB2
330
6C
100
AcDbEntity
  8
Visible (ISO)
100
AcDbLine
 10
6809.290757490892
 20
3028.004435679728
 30
0.0
 11
6776.061027883172
 21
2978.046602758377
 31
0.0
  0
LINE
  5
FB3
330
6C
100
AcDbEntity
  8
Visible (ISO)
100
AcDbLine
 10
6793.470777065795
 20
3038.52718338884
 30
0.0
 11
6809.290757490892
 21
3028.004435679729
 31
0.0
  0
LINE
  5
FB4
330
6C
100
AcDbEntity
  8
Visible (ISO)
100
AcDbLine
 10
6760.241047458075
 20
2988.569350467487
 30
0.0
 11
6776.061027883172
 21
2978.046602758377
 31
0.0
  0
LINE
  5
FB5
330
6C
100
AcDbEntity
  8
Visible (ISO)
100
AcDbLine
 10
6776.061027883168
 20
2978.046602758377
 30
0.0
 11
6809.290757490889
 21
3028.004435679728
 31
0.0
  0
LINE
  5
FB6
330
6C
100
AcDbEntity
  8
Visible (ISO)
100
AcDbLine
 10
6825.110737915986
 20
3017.481687970616
 30
0.0
 11
6791.881008308266
 21
2967.523855049264
 31
0.0
  0
LINE
  5
FB7
330
6C
100
AcDbEntity
  8
Visible (ISO)
100
AcDbLine
 10
6809.290757490889
 20
3028.004435679728
 30
0.0
 11
6825.110737915986
 21
3017.481687970617
 31
0.0
  0
LINE
  5
FB8
330
6C
100
AcDbEntity
  8
Visible (ISO)
100
AcDbLine
 10
6776.061027883168
 20
2978.046602758375
 30
0.0
 11
6791.881008308266
 21
2967.523855049264
 31
0.0
  0
LINE
  5
FB9
330
6C
100
AcDbEntity
  8
Visible (ISO)
100
AcDbLine
 10
6838.161574207103
 20
3002.795787518059
 30
0.0
 11
6810.470132867338
 21
2961.164260083599
 31
0.0
  0
LINE
  5
FBA
330
6C
100
AcDbEntity
  8
Visible Narrow (ISO)
100
AcDbLine
 10
6803.742392546436
 20
2960.077783385896
 30
0.0
 11
6836.563009041113
 21
3009.420552483716
 31
0.0
  0
ARC
  5
FBB
330
6C
100
AcDbEntity
  8
Visible (ISO)
100
AcDbCircle
 10
6833.998421463658
 20
3005.564931652036
 30
0.0
 40
4.999999999999998
100
AcDbArc
 50
326.3699148861389
 51
56.36991488618228
  0
ARC
  5
FBC
330
6C
100
AcDbEntity
  8
Visible (ISO)
100
AcDbCircle
 10
6806.306980123891
 20
2963.933404217576
 30
0.0
 40
4.999999999999997
100
AcDbArc
 50
236.3699148861822
 51
326.3699148861389
  0
LINE
  5
FBD
330
6C
100
AcDbEntity
  8
Visible (ISO)
100
AcDbLine
 10
6791.881008308266
 20
2967.523855049265
 30
0.0
 11
6825.110737915986
 21
3017.481687970617
 31
0.0
  0
LINE
  5
FBE
330
6C
100
AcDbEntity
  8
Visible (ISO)
100
AcDbLine
 10
6825.110737915986
 20
3017.481687970617
 30
0.0
 11
6836.767565597634
 21
3009.728084395482
 31
0.0
  0
LINE
  5
FBF
330
6C
100
AcDbEntity
  8
Visible (ISO)
100
AcDbLine
 10
6791.881008308266
 20
2967.523855049265
 30
0.0
 11
6803.537835989913
 21
2959.77025147413
 31
0.0
  0
LINE
  5
FC0
330
6C
100
AcDbEntity
  8
Visible (ISO)
100
AcDbLine
 10
6530.272439975293
 20
3083.615399650439
 30
0.0
 11
6522.768059372214
 21
3072.333255715701
 31
0.0
  0
LINE
  5
FC1
330
6C
100
AcDbEntity
  8
Visible (ISO)
100
AcDbLine
 10
6526.858972126788
 20
3080.07588120539
 30
0.0
 11
6523.25402715623
 21
3074.656179009319
 31
0.0
  0
ARC
  5
FC2
330
6C
100
AcDbEntity
  8
Visible (ISO)
100
AcDbCircle
 10
6519.62451149517
 20
3082.561066172721
 30
0.0
 40
10.70000000000001
100
AcDbArc
 50
287.0849659586611
 51
5.654863813512736
  0
LINE
  5
FC3
330
6C
100
AcDbEntity
  8
Visible (ISO)
100
AcDbLine
 10
6522.768059372214
 20
3072.333255715701
 30
0.0
 11
6522.033787253933
 21
3072.821660887066
 31
0.0
  0
LINE
  5
FC4
330
6C
100
AcDbEntity
  8
Visible (ISO)
100
AcDbLine
 10
6530.27243997529
 20
3083.615399650439
 30
0.0
 11
6529.538167857011
 21
3084.103804821805
 31
0.0
  0
LINE
  5
FC5
330
6C
100
AcDbEntity
  8
Visible (ISO)
100
AcDbLine
 10
6539.560142064036
 20
3099.170918484398
 30
0.0
 11
6539.560036929906
 21
3099.170988414947
 31
0.0
  0
LINE
  5
FC6
330
6C
100
AcDbEntity
  8
Visible (ISO)
100
AcDbLine
 10
6545.431176550845
 20
3106.405161652125
 30
0.0
 11
6537.926795947767
 21
3095.123017717387
 31
0.0
  0
LINE
  5
FC7
330
6C
100
AcDbEntity
  8
Visible (ISO)
100
AcDbLine
 10
6541.973494938554
 20
3102.799171892078
 30
0.0
 11
6537.192523829485
 21
3095.611422888752
 31
0.0
  0
ARC
  5
FC8
330
6C
100
AcDbEntity
  8
Visible (ISO)
100
AcDbCircle
 10
6534.783248070723
 20
3105.350828174407
 30
0.0
 40
10.70000000000001
100
AcDbArc
 50
287.0849659586611
 51
5.654863813512736
  0
LINE
  5
FC9
330
6C
100
AcDbEntity
  8
Visible (ISO)
100
AcDbLine
 10
6537.926795947767
 20
3095.123017717387
 30
0.0
 11
6537.192523829485
 21
3095.611422888752
 31
0.0
  0
LINE
  5
FCA
330
6C
100
AcDbEntity
  8
Visible (ISO)
100
AcDbLine
 10
6545.431176550845
 20
3106.405161652125
 30
0.0
 11
6544.696904432564
 21
3106.893566823491
 31
0.0
  0
LINE
  5
FCB
330
6C
100
AcDbEntity
  8
Visible (ISO)
100
AcDbLine
 10
6606.194426475022
 20
3199.349417880445
 30
0.0
 11
6606.194326656421
 21
3199.349484275341
 31
0.0
  0
LINE
  5
FCC
330
6C
100
AcDbEntity
  8
Visible (ISO)
100
AcDbLine
 10
6609.264603954952
 20
3202.372830925928
 30
0.0
 11
6601.760223351876
 21
3191.09068699119
 31
0.0
  0
LINE
  5
FCD
330
6C
100
AcDbEntity
  8
Visible (ISO)
100
AcDbLine
 10
6608.530331836671
 20
3202.861236097294
 30
0.0
 11
6603.749360727603
 21
3195.673487093969
 31
0.0
  0
ARC
  5
FCE
330
6C
100
AcDbEntity
  8
Visible (ISO)
100
AcDbCircle
 10
6598.616675474833
 20
3201.318497448211
 30
0.0
 40
10.70000000000003
100
AcDbArc
 50
287.0849659586611
 51
5.654863813512736
  0
LINE
  5
FCF
330
6C
100
AcDbEntity
  8
Visible (ISO)
100
AcDbLine
 10
6601.760223351876
 20
3191.09068699119
 30
0.0
 11
6601.025951233594
 21
3191.579092162556
 31
0.0
  0
LINE
  5
FD0
330
6C
100
AcDbEntity
  8
Visible (ISO)
100
AcDbLine
 10
6609.264603954952
 20
3202.372830925928
 30
0.0
 11
6608.530331836671
 21
3202.861236097294
 31
0.0
  0
LINE
  5
FD1
330
6C
100
AcDbEntity
  8
Visible (ISO)
100
AcDbLine
 10
6569.536406002278
 20
3214.656335631497
 30
0.0
 11
6575.074694270231
 21
3222.98264111839
 31
0.0
  0
LINE
  5
FD2
330
6C
100
AcDbEntity
  8
Visible (ISO)
100
AcDbLine
 10
6573.050473607167
 20
3218.133800047957
 30
0.0
 11
6575.90732481892
 21
3222.428812291595
 31
0.0
  0
LINE
  5
FD3
330
6C
100
AcDbEntity
  8
Visible (ISO)
100
AcDbLine
 10
6570.369036550967
 20
3214.102506804702
 30
0.0
 11
6569.536406002278
 21
3214.656335631497
 31
0.0
  0
LINE
  5
FD4
330
6C
100
AcDbEntity
  8
Visible (ISO)
100
AcDbLine
 10
6575.90732481892
 20
3222.428812291595
 30
0.0
 11
6575.074694270231
 21
3222.982641118389
 31
0.0
  0
LINE
  5
FD5
330
6C
100
AcDbEntity
  8
Visible (ISO)
100
AcDbLine
 10
6505.702978598169
 20
3118.688666357694
 30
0.0
 11
6511.241266866122
 21
3127.014971844586
 31
0.0
  0
LINE
  5
FD6
330
6C
100
AcDbEntity
  8
Visible (ISO)
100
AcDbLine
 10
6506.535609146858
 20
3118.134837530897
 30
0.0
 11
6509.392460358611
 21
3122.429849774535
 31
0.0
  0
LINE
  5
FD7
330
6C
100
AcDbEntity
  8
Visible (ISO)
100
AcDbLine
 10
6506.535609146858
 20
3118.134837530897
 30
0.0
 11
6505.702978598169
 21
3118.688666357694
 31
0.0
  0
LINE
  5
FD8
330
6C
100
AcDbEntity
  8
Visible (ISO)
100
AcDbLine
 10
6512.073897414811
 20
3126.46114301779
 30
0.0
 11
6511.241266866122
 21
3127.014971844585
 31
0.0
  0
LINE
  5
FD9
330
6C
100
AcDbEntity
  8
Visible (ISO)
100
AcDbLine
 10
6490.544242022615
 20
3095.898904356008
 30
0.0
 11
6496.08253029057
 21
3104.2252098429
 31
0.0
  0
LINE
  5
FDA
330
6C
100
AcDbEntity
  8
Visible (ISO)
100
AcDbLine
 10
6491.376872571304
 20
3095.345075529212
 30
0.0
 11
6490.544242022615
 21
3095.898904356008
 31
0.0
  0
LINE
  5
FDB
330
6C
100
AcDbEntity
  8
Visible (ISO)
100
AcDbLine
 10
6496.915160839259
 20
3103.671381016105
 30
0.0
 11
6496.08253029057
 21
3104.2252098429
 31
0.0
  0
SPLINE
  5
FDC
330
6C
100
AcDbEntity
  8
Visible (ISO)
100
AcDbSpline
210
0.0
220
0.0
230
1.0
 70
    12
 71
     2
 72
     6
 73
     3
 74
     0
 42
0.0000000001
 43
0.0000000001
 40
0.234283887510098
 40
0.234283887510098
 40
0.234283887510098
 40
0.468567775020196
 40
0.468567775020196
 40
0.468567775020196
 10
6488.779507339604
 20
3100.468236738425
 30
0.0
 41
1.0
 10
6488.281125101022
 20
3099.71896502
 30
0.0
 41
1.037954849302039
 10
6488.003113105968
 20
3098.65591658083
 30
0.0
 41
1.0
  0
LINE
  5
FDD
330
6C
100
AcDbEntity
  8
Visible (ISO)
100
AcDbLine
 10
6488.779507339604
 20
3100.468236738424
 30
0.0
 11
6487.767548654653
 21
3098.946850211877
 31
0.0
  0
SPLINE
  5
FDE
330
6C
100
AcDbEntity
  8
Visible (ISO)
100
AcDbSpline
210
0.0
220
0.0
230
1.0
 70
    12
 71
     2
 72
     6
 73
     3
 74
     0
 42
0.0000000001
 43
0.0000000001
 40
0.0
 40
0.0
 40
0.0
 40
0.2128746003557233
 40
0.2128746003557233
 40
0.2128746003557233
 10
6488.003113105968
 20
3098.65591658083
 30
0.0
 41
1.0
 10
6487.763552339377
 20
3098.883858425876
 30
0.0
 41
1.034486466238053
 10
6487.76717323619
 20
3098.940932690865
 30
0.0
 41
1.006302871840457
  0
SPLINE
  5
FDF
330
6C
100
AcDbEntity
  8
Visible (ISO)
100
AcDbSpline
210
0.0
220
0.0
230
1.0
 70
    12
 71
     2
 72
     6
 73
     3
 74
     0
 42
0.0000000001
 43
0.0000000001
 40
0.0
 40
0.0
 40
0.0
 40
0.2342838875100969
 40
0.2342838875100969
 40
0.2342838875100969
 10
6492.55755530601
 20
3105.503100267413
 30
0.0
 41
1.0
 10
6492.225387746325
 20
3105.64880003696
 30
0.0
 41
1.037954849302043
 10
6492.195338989633
 20
3105.603624503362
 30
0.0
 41
1.0
  0
LINE
  5
FE0
330
6C
100
AcDbEntity
  8
Visible (ISO)
100
AcDbLine
 10
6492.198179269016
 20
3105.607894601391
 30
0.0
 11
6492.195338989631
 21
3105.603624503362
 31
0.0
  0
SPLINE
  5
FE1
330
6C
100
AcDbEntity
  8
Visible (ISO)
100
AcDbSpline
210
0.0
220
0.0
230
1.0
 70
    12
 71
     2
 72
     6
 73
     3
 74
     0
 42
0.0000000001
 43
0.0000000001
 40
0.2342838875100972
 40
0.2342838875100972
 40
0.2342838875100972
 40
0.4685677750201945
 40
0.4685677750201945
 40
0.4685677750201945
 10
6490.991982367401
 20
3103.794488835152
 30
0.0
 41
1.0
 10
6490.463551372127
 20
3103.00004158313
 30
0.0
 41
1.037954849302047
 10
6490.150842061543
 20
3101.884828930993
 30
0.0
 41
1.0
  0
LINE
  5
FE2
330
6C
100
AcDbEntity
  8
Visible (ISO)
100
AcDbLine
 10
6490.991982367399
 20
3103.794488835152
 30
0.0
 11
6488.779507339604
 21
3100.468236738424
 31
0.0
  0
SPLINE
  5
FE3
330
6C
100
AcDbEntity
  8
Visible (ISO)
100
AcDbSpline
210
0.0
220
0.0
230
1.0
 70
    12
 71
     2
 72
     6
 73
     3
 74
     0
 42
0.0000000001
 43
0.0000000001
 40
0.0
 40
0.0
 40
0.0
 40
0.234283887510098
 40
0.234283887510098
 40
0.234283887510098
 10
6490.150842061543
 20
3101.884828930993
 30
0.0
 41
1.0
 10
6489.277889578183
 20
3101.217508456849
 30
0.0
 41
1.03795484930204
 10
6488.779507339604
 20
3100.468236738425
 30
0.0
 41
1.0
  0
SPLINE
  5
FE4
330
6C
100
AcDbEntity
  8
Visible (ISO)
100
AcDbSpline
210
0.0
220
0.0
230
1.0
 70
    12
 71
     2
 72
     6
 73
     3
 74
     0
 42
0.0000000001
 43
0.0000000001
 40
0.2342838875100969
 40
0.2342838875100969
 40
0.2342838875100969
 40
0.468567775020194
 40
0.468567775020194
 40
0.468567775020194
 10
6492.195338989633
 20
3105.603624503362
 30
0.0
 41
1.0
 10
6492.165290232941
 20
3105.558448969764
 30
0.0
 41
1.037954849302045
 10
6492.428063161565
 20
3105.308420774285
 30
0.0
 41
1.0
  0
LINE
  5
FE5
330
6C
100
AcDbEntity
  8
Visible (ISO)
100
AcDbLine
 10
6492.195338989633
 20
3105.603624503362
 30
0.0
 11
6490.991982367399
 21
3103.794488835152
 31
0.0
  0
SPLINE
  5
FE6
330
6C
100
AcDbEntity
  8
Visible (ISO)
100
AcDbSpline
210
0.0
220
0.0
230
1.0
 70
    12
 71
     2
 72
     6
 73
     3
 74
     0
 42
0.0000000001
 43
0.0000000001
 40
0.0
 40
0.0
 40
0.0
 40
0.2342838875100972
 40
0.2342838875100972
 40
0.2342838875100972
 10
6492.428063161565
 20
3105.308420774285
 30
0.0
 41
1.0
 10
6491.520413362675
 20
3104.588936087174
 30
0.0
 41
1.037954849302026
 10
6490.991982367401
 20
3103.794488835152
 30
0.0
 41
1.0
  0
SPLINE
  5
FE7
330
6C
100
AcDbEntity
  8
Visible (ISO)
100
AcDbSpline
210
0.0
220
0.0
230
1.0
 70
    12
 71
     2
 72
     6
 73
     3
 74
     0
 42
0.0000000001
 43
0.0000000001
 40
0.0
 40
0.0
 40
0.0
 40
0.4673744552311664
 40
0.4673744552311664
 40
0.4673744552311664
 10
6494.899249158732
 20
3103.664697704358
 30
0.0
 41
1.0
 10
6495.519082263413
 20
3103.39281823306
 30
0.0
 41
1.154700538379251
 10
6495.028741303179
 20
3103.859377197488
 30
0.0
 41
1.0
  0
SPLINE
  5
FE8
330
6C
100
AcDbEntity
  8
Visible (ISO)
100
AcDbSpline
210
0.0
220
0.0
230
1.0
 70
    12
 71
     2
 72
     6
 73
     3
 74
     0
 42
0.0000000001
 43
0.0000000001
 40
0.0
 40
0.0
 40
0.0
 40
0.4673744552311667
 40
0.4673744552311667
 40
0.4673744552311667
 10
6492.622028058713
 20
3100.241105861068
 30
0.0
 41
1.0
 10
6494.315725641181
 20
3101.58368256485
 30
0.0
 41
1.154700538379253
 10
6494.899249158732
 20
3103.664697704358
 30
0.0
 41
1.0
  0
SPLINE
  5
FE9
330
6C
100
AcDbEntity
  8
Visible (ISO)
100
AcDbSpline
210
0.0
220
0.0
230
1.0
 70
    12
 71
     2
 72
     6
 73
     3
 74
     0
 42
0.0000000001
 43
0.0000000001
 40
0.0
 40
0.0
 40
0.0
 40
0.4673744552311679
 40
0.4673744552311679
 40
0.4673744552311679
 10
6490.474299103137
 20
3097.012193510904
 30
0.0
 41
1.0
 10
6492.103250613384
 20
3098.257430468122
 30
0.0
 41
1.154700538379251
 10
6492.622028058713
 20
3100.241105861068
 30
0.0
 41
1.0
  0
SPLINE
  5
FEA
330
6C
100
AcDbEntity
  8
Visible (ISO)
100
AcDbSpline
210
0.0
220
0.0
230
1.0
 70
    12
 71
     2
 72
     6
 73
     3
 74
     0
 42
0.0000000001
 43
0.0000000001
 40
0.2557758957651456
 40
0.2557758957651456
 40
0.2557758957651456
 40
0.4673744552311688
 40
0.4673744552311688
 40
0.4673744552311688
 10
6490.82836270737
 20
3096.904765538348
 30
0.0
 41
1.076659185030857
 10
6490.777124495584
 20
3096.879364194477
 30
0.0
 41
1.070038939234446
 10
6490.474299103137
 20
3097.012193510904
 30
0.0
 41
1.0
  0
LINE
  5
FEB
330
6C
100
AcDbEntity
  8
Visible (ISO)
100
AcDbLine
 10
6487.767548654653
 20
3098.946850211878
 30
0.0
 11
6487.76717323619
 21
3098.940932690865
 31
0.0
  0
LINE
  5
FEC
330
6C
100
AcDbEntity
  8
Visible (ISO)
100
AcDbLine
 10
6492.198179269016
 20
3105.607894601392
 30
0.0
 11
6492.203491701776
 21
3105.610528239969
 31
0.0
  0
LINE
  5
FED
330
6C
100
AcDbEntity
  8
Visible (ISO)
100
AcDbLine
 10
6491.402676704149
 20
3097.189481706476
 30
0.0
 11
6490.82836270737
 21
3096.904765538348
 31
0.0
  0
LINE
  5
FEE
330
6C
100
AcDbEntity
  8
Visible (ISO)
100
AcDbLine
 10
6495.224095609038
 20
3102.934632492431
 30
0.0
 11
6495.264681172955
 21
3103.574361087453
 31
0.0
  0
LINE
  5
FEF
330
6C
100
AcDbEntity
  8
Visible (ISO)
100
AcDbLine
 10
6490.474299103137
 20
3097.012193510904
 30
0.0
 11
6488.003113105968
 21
3098.65591658083
 31
0.0
  0
LINE
  5
FF0
330
6C
100
AcDbEntity
  8
Visible (ISO)
100
AcDbLine
 10
6492.622028058713
 20
3100.241105861068
 30
0.0
 11
6490.150842061543
 21
3101.884828930993
 31
0.0
  0
LINE
  5
FF1
330
6C
100
AcDbEntity
  8
Visible (ISO)
100
AcDbLine
 10
6494.899249158732
 20
3103.664697704358
 30
0.0
 11
6492.428063161565
 21
3105.308420774285
 31
0.0
  0
LINE
  5
FF2
330
6C
100
AcDbEntity
  8
Visible (ISO)
100
AcDbLine
 10
6495.028741303179
 20
3103.859377197488
 30
0.0
 11
6492.55755530601
 21
3105.503100267413
 31
0.0
  0
LINE
  5
FF3
330
6C
100
AcDbEntity
  8
Visible Narrow (ISO)
100
AcDbLine
 10
6490.160733762801
 20
3106.607410342452
 30
0.0
 11
6486.058156696609
 21
3100.439564198675
 31
0.0
  0
LINE
  5
FF4
330
6C
100
AcDbEntity
  8
Visible (ISO)
100
AcDbLine
 10
6487.906005861352
 20
3099.15500784905
 30
0.0
 11
6486.032587126802
 21
3100.40112270934
 31
0.0
  0
LINE
  5
FF5
330
6C
100
AcDbEntity
  8
Visible (ISO)
100
AcDbLine
 10
6492.059722062319
 20
3105.39973696422
 30
0.0
 11
6490.186303327767
 21
3106.645851824509
 31
0.0
  0
ARC
  5
FF6
330
6C
100
AcDbEntity
  8
Visible (ISO)
100
AcDbCircle
 10
6488.109445227284
 20
3103.523487266924
 30
0.0
 40
3.750000000000003
100
AcDbArc
 50
56.36991488605852
 51
236.3699148860585
  0
SPLINE
  5
FF7
330
6C
100
AcDbEntity
  8
Visible (ISO)
100
AcDbSpline
210
0.0
220
0.0
230
1.0
 70
    12
 71
     2
 72
     6
 73
     3
 74
     0
 42
0.0000000001
 43
0.0000000001
 40
0.234283887510098
 40
0.234283887510098
 40
0.234283887510098
 40
0.468567775020196
 40
0.468567775020196
 40
0.468567775020196
 10
6567.771671319262
 20
3219.225668013915
 30
0.0
 41
1.0
 10
6567.273289080683
 20
3218.47639629549
 30
0.0
 41
1.037954849302039
 10
6566.995277085628
 20
3217.413347856319
 30
0.0
 41
1.0
  0
LINE
  5
FF8
330
6C
100
AcDbEntity
  8
Visible (ISO)
100
AcDbLine
 10
6567.771671319262
 20
3219.225668013915
 30
0.0
 11
6566.759712634315
 21
3217.704281487367
 31
0.0
  0
SPLINE
  5
FF9
330
6C
100
AcDbEntity
  8
Visible (ISO)
100
AcDbSpline
210
0.0
220
0.0
230
1.0
 70
    12
 71
     2
 72
     6
 73
     3
 74
     0
 42
0.0000000001
 43
0.0000000001
 40
0.0
 40
0.0
 40
0.0
 40
0.2128746003557233
 40
0.2128746003557233
 40
0.2128746003557233
 10
6566.995277085628
 20
3217.413347856319
 30
0.0
 41
1.0
 10
6566.755716319038
 20
3217.641289701366
 30
0.0
 41
1.034486466238053
 10
6566.759337215851
 20
3217.698363966355
 30
0.0
 41
1.006302871840457
  0
SPLINE
  5
FFA
330
6C
100
AcDbEntity
  8
Visible (ISO)
100
AcDbSpline
210
0.0
220
0.0
230
1.0
 70
    12
 71
     2
 72
     6
 73
     3
 74
     0
 42
0.0000000001
 43
0.0000000001
 40
0.0
 40
0.0
 40
0.0
 40
0.2342838875100969
 40
0.2342838875100969
 40
0.2342838875100969
 10
6571.549719285669
 20
3224.260531542904
 30
0.0
 41
1.0
 10
6571.217551725985
 20
3224.40623131245
 30
0.0
 41
1.037954849302043
 10
6571.187502969294
 20
3224.361055778853
 30
0.0
 41
1.0
  0
LINE
  5
FFB
330
6C
100
AcDbEntity
  8
Visible (ISO)
100
AcDbLine
 10
6571.190343248678
 20
3224.365325876882
 30
0.0
 11
6571.187502969291
 21
3224.361055778852
 31
0.0
  0
SPLINE
  5
FFC
330
6C
100
AcDbEntity
  8
Visible (ISO)
100
AcDbSpline
210
0.0
220
0.0
230
1.0
 70
    12
 71
     2
 72
     6
 73
     3
 74
     0
 42
0.0000000001
 43
0.0000000001
 40
0.2342838875100972
 40
0.2342838875100972
 40
0.2342838875100972
 40
0.4685677750201945
 40
0.4685677750201945
 40
0.4685677750201945
 10
6569.98414634706
 20
3222.551920110642
 30
0.0
 41
1.0
 10
6569.455715351788
 20
3221.75747285862
 30
0.0
 41
1.037954849302047
 10
6569.143006041205
 20
3220.642260206484
 30
0.0
 41
1.0
  0
LINE
  5
FFD
330
6C
100
AcDbEntity
  8
Visible (ISO)
100
AcDbLine
 10
6569.98414634706
 20
3222.551920110642
 30
0.0
 11
6567.771671319262
 21
3219.225668013915
 31
0.0
  0
SPLINE
  5
FFE
330
6C
100
AcDbEntity
  8
Visible (ISO)
100
AcDbSpline
210
0.0
220
0.0
230
1.0
 70
    12
 71
     2
 72
     6
 73
     3
 74
     0
 42
0.0000000001
 43
0.0000000001
 40
0.0
 40
0.0
 40
0.0
 40
0.234283887510098
 40
0.234283887510098
 40
0.234283887510098
 10
6569.143006041205
 20
3220.642260206484
 30
0.0
 41
1.0
 10
6568.270053557842
 20
3219.974939732339
 30
0.0
 41
1.03795484930204
 10
6567.771671319262
 20
3219.225668013915
 30
0.0
 41
1.0
  0
SPLINE
  5
FFF
330
6C
100
AcDbEntity
  8
Visible (ISO)
100
AcDbSpline
210
0.0
220
0.0
230
1.0
 70
    12
 71
     2
 72
     6
 73
     3
 74
     0
 42
0.0000000001
 43
0.0000000001
 40
0.2342838875100969
 40
0.2342838875100969
 40
0.2342838875100969
 40
0.468567775020194
 40
0.468567775020194
 40
0.468567775020194
 10
6571.187502969294
 20
3224.361055778853
 30
0.0
 41
1.0
 10
6571.1574542126
 20
3224.315880245255
 30
0.0
 41
1.037954849302045
 10
6571.420227141223
 20
3224.065852049776
 30
0.0
 41
1.0
  0
LINE
  5
1000
330
6C
100
AcDbEntity
  8
Visible (ISO)
100
AcDbLine
 10
6571.187502969294
 20
3224.361055778853
 30
0.0
 11
6569.98414634706
 21
3222.551920110642
 31
0.0
  0
SPLINE
  5
1001
330
6C
100
AcDbEntity
  8
Visible (ISO)
100
AcDbSpline
210
0.0
220
0.0
230
1.0
 70
    12
 71
     2
 72
     6
 73
     3
 74
     0
 42
0.0000000001
 43
0.0000000001
 40
0.0
 40
0.0
 40
0.0
 40
0.2342838875100972
 40
0.2342838875100972
 40
0.2342838875100972
 10
6571.420227141223
 20
3224.065852049776
 30
0.0
 41
1.0
 10
6570.512577342333
 20
3223.346367362664
 30
0.0
 41
1.037954849302026
 10
6569.98414634706
 20
3222.551920110642
 30
0.0
 41
1.0
  0
SPLINE
  5
1002
330
6C
100
AcDbEntity
  8
Visible (ISO)
100
AcDbSpline
210
0.0
220
0.0
230
1.0
 70
    12
 71
     2
 72
     6
 73
     3
 74
     0
 42
0.0000000001
 43
0.0000000001
 40
0.0
 40
0.0
 40
0.0
 40
0.4673744552311664
 40
0.4673744552311664
 40
0.4673744552311664
 10
6573.891413138392
 20
3222.422128979849
 30
0.0
 41
1.0
 10
6574.511246243075
 20
3222.15024950855
 30
0.0
 41
1.154700538379251
 10
6574.020905282838
 20
3222.616808472979
 30
0.0
 41
1.0
  0
SPLINE
  5
1003
330
6C
100
AcDbEntity
  8
Visible (ISO)
100
AcDbSpline
210
0.0
220
0.0
230
1.0
 70
    12
 71
     2
 72
     6
 73
     3
 74
     0
 42
0.0000000001
 43
0.0000000001
 40
0.0
 40
0.0
 40
0.0
 40
0.4673744552311667
 40
0.4673744552311667
 40
0.4673744552311667
 10
6571.614192038372
 20
3218.998537136558
 30
0.0
 41
1.0
 10
6573.307889620841
 20
3220.34111384034
 30
0.0
 41
1.154700538379253
 10
6573.891413138392
 20
3222.422128979849
 30
0.0
 41
1.0
  0
SPLINE
  5
1004
330
6C
100
AcDbEntity
  8
Visible (ISO)
100
AcDbSpline
210
0.0
220
0.0
230
1.0
 70
    12
 71
     2
 72
     6
 73
     3
 74
     0
 42
0.0000000001
 43
0.0000000001
 40
0.0
 40
0.0
 40
0.0
 40
0.4673744552311679
 40
0.4673744552311679
 40
0.4673744552311679
 10
6569.466463082797
 20
3215.769624786394
 30
0.0
 41
1.0
 10
6571.095414593044
 20
3217.014861743613
 30
0.0
 41
1.154700538379251
 10
6571.614192038372
 20
3218.998537136558
 30
0.0
 41
1.0
  0
SPLINE
  5
1005
330
6C
100
AcDbEntity
  8
Visible (ISO)
100
AcDbSpline
210
0.0
220
0.0
230
1.0
 70
    12
 71
     2
 72
     6
 73
     3
 74
     0
 42
0.0000000001
 43
0.0000000001
 40
0.2557758957651456
 40
0.2557758957651456
 40
0.2557758957651456
 40
0.4673744552311688
 40
0.4673744552311688
 40
0.4673744552311688
 10
6569.820526687031
 20
3215.662196813838
 30
0.0
 41
1.076659185030857
 10
6569.769288475246
 20
3215.636795469966
 30
0.0
 41
1.070038939234446
 10
6569.466463082797
 20
3215.769624786394
 30
0.0
 41
1.0
  0
LINE
  5
1006
330
6C
100
AcDbEntity
  8
Visible (ISO)
100
AcDbLine
 10
6566.759712634315
 20
3217.704281487369
 30
0.0
 11
6566.759337215851
 21
3217.698363966355
 31
0.0
  0
LINE
  5
1007
330
6C
100
AcDbEntity
  8
Visible (ISO)
100
AcDbLine
 10
6571.190343248678
 20
3224.365325876882
 30
0.0
 11
6571.195655681434
 21
3224.367959515461
 31
0.0
  0
LINE
  5
1008
330
6C
100
AcDbEntity
  8
Visible (ISO)
100
AcDbLine
 10
6570.394840683808
 20
3215.946912981966
 30
0.0
 11
6569.820526687031
 21
3215.662196813838
 31
0.0
  0
LINE
  5
1009
330
6C
100
AcDbEntity
  8
Visible (ISO)
100
AcDbLine
 10
6574.216259588697
 20
3221.692063767922
 30
0.0
 11
6574.256845152617
 21
3222.331792362943
 31
0.0
  0
LINE
  5
100A
330
6C
100
AcDbEntity
  8
Visible (ISO)
100
AcDbLine
 10
6569.466463082797
 20
3215.769624786394
 30
0.0
 11
6566.995277085628
 21
3217.413347856319
 31
0.0
  0
LINE
  5
100B
330
6C
100
AcDbEntity
  8
Visible (ISO)
100
AcDbLine
 10
6571.614192038372
 20
3218.998537136557
 30
0.0
 11
6569.143006041205
 21
3220.642260206484
 31
0.0
  0
LINE
  5
100C
330
6C
100
AcDbEntity
  8
Visible (ISO)
100
AcDbLine
 10
6573.891413138392
 20
3222.422128979849
 30
0.0
 11
6571.420227141223
 21
3224.065852049776
 31
0.0
  0
LINE
  5
100D
330
6C
100
AcDbEntity
  8
Visible (ISO)
100
AcDbLine
 10
6574.020905282838
 20
3222.616808472979
 30
0.0
 11
6571.549719285669
 21
3224.260531542904
 31
0.0
  0
LINE
  5
100E
330
6C
100
AcDbEntity
  8
Visible Narrow (ISO)
100
AcDbLine
 10
6569.152897737864
 20
3225.364841611029
 30
0.0
 11
6565.050320676028
 21
3219.1969954738
 31
0.0
  0
LINE
  5
100F
330
6C
100
AcDbEntity
  8
Visible (ISO)
100
AcDbLine
 10
6566.898169841014
 20
3217.91243912454
 30
0.0
 11
6565.024751106463
 21
3219.158553984831
 31
0.0
  0
LINE
  5
1010
330
6C
100
AcDbEntity
  8
Visible (ISO)
100
AcDbLine
 10
6571.051886041978
 20
3224.15716823971
 30
0.0
 11
6569.178467307427
 21
3225.4032831
 31
0.0
  0
ARC
  5
1011
330
6C
100
AcDbEntity
  8
Visible (ISO)
100
AcDbCircle
 10
6567.101609206947
 20
3222.280918542415
 30
0.0
 40
3.750000000000004
100
AcDbArc
 50
56.36991488605852
 51
236.3699148860585
  0
SPLINE
  5
1012
330
6C
100
AcDbEntity
  8
Visible (ISO)
100
AcDbSpline
210
0.0
220
0.0
230
1.0
 70
    12
 71
     2
 72
     6
 73
     3
 74
     0
 42
0.0000000001
 43
0.0000000001
 40
0.234283887510098
 40
0.234283887510098
 40
0.234283887510098
 40
0.468567775020196
 40
0.468567775020196
 40
0.468567775020196
 10
6503.938243915157
 20
3123.25799874011
 30
0.0
 41
1.0
 10
6503.439861676575
 20
3122.508727021685
 30
0.0
 41
1.037954849302039
 10
6503.161849681522
 20
3121.445678582515
 30
0.0
 41
1.0
  0
LINE
  5
1013
330
6C
100
AcDbEntity
  8
Visible (ISO)
100
AcDbLine
 10
6503.938243915157
 20
3123.257998740109
 30
0.0
 11
6502.926285230206
 21
3121.736612213563
 31
0.0
  0
SPLINE
  5
1014
330
6C
100
AcDbEntity
  8
Visible (ISO)
100
AcDbSpline
210
0.0
220
0.0
230
1.0
 70
    12
 71
     2
 72
     6
 73
     3
 74
     0
 42
0.0000000001
 43
0.0000000001
 40
0.0
 40
0.0
 40
0.0
 40
0.2128746003557233
 40
0.2128746003557233
 40
0.2128746003557233
 10
6503.161849681522
 20
3121.445678582515
 30
0.0
 41
1.0
 10
6502.92228891493
 20
3121.673620427562
 30
0.0
 41
1.034486466238053
 10
6502.925909811742
 20
3121.73069469255
 30
0.0
 41
1.006302871840457
  0
SPLINE
  5
1015
330
6C
100
AcDbEntity
  8
Visible (ISO)
100
AcDbSpline
210
0.0
220
0.0
230
1.0
 70
    12
 71
     2
 72
     6
 73
     3
 74
     0
 42
0.0000000001
 43
0.0000000001
 40
0.0
 40
0.0
 40
0.0
 40
0.2342838875100969
 40
0.2342838875100969
 40
0.2342838875100969
 10
6507.716291881561
 20
3128.292862269099
 30
0.0
 41
1.0
 10
6507.384124321879
 20
3128.438562038645
 30
0.0
 41
1.037954849302043
 10
6507.354075565186
 20
3128.393386505047
 30
0.0
 41
1.0
  0
LINE
  5
1016
330
6C
100
AcDbEntity
  8
Visible (ISO)
100
AcDbLine
 10
6507.356915844569
 20
3128.397656603077
 30
0.0
 11
6507.354075565185
 21
3128.393386505047
 31
0.0
  0
SPLINE
  5
1017
330
6C
100
AcDbEntity
  8
Visible (ISO)
100
AcDbSpline
210
0.0
220
0.0
230
1.0
 70
    12
 71
     2
 72
     6
 73
     3
 74
     0
 42
0.0000000001
 43
0.0000000001
 40
0.2342838875100972
 40
0.2342838875100972
 40
0.2342838875100972
 40
0.4685677750201945
 40
0.4685677750201945
 40
0.4685677750201945
 10
6506.150718942953
 20
3126.584250836837
 30
0.0
 41
1.0
 10
6505.62228794768
 20
3125.789803584815
 30
0.0
 41
1.037954849302047
 10
6505.309578637096
 20
3124.674590932678
 30
0.0
 41
1.0
  0
LINE
  5
1018
330
6C
100
AcDbEntity
  8
Visible (ISO)
100
AcDbLine
 10
6506.150718942952
 20
3126.584250836837
 30
0.0
 11
6503.938243915157
 21
3123.257998740109
 31
0.0
  0
SPLINE
  5
1019
330
6C
100
AcDbEntity
  8
Visible (ISO)
100
AcDbSpline
210
0.0
220
0.0
230
1.0
 70
    12
 71
     2
 72
     6
 73
     3
 74
     0
 42
0.0000000001
 43
0.0000000001
 40
0.0
 40
0.0
 40
0.0
 40
0.234283887510098
 40
0.234283887510098
 40
0.234283887510098
 10
6505.309578637096
 20
3124.674590932678
 30
0.0
 41
1.0
 10
6504.436626153736
 20
3124.007270458534
 30
0.0
 41
1.03795484930204
 10
6503.938243915157
 20
3123.25799874011
 30
0.0
 41
1.0
  0
SPLINE
  5
101A
330
6C
100
AcDbEntity
  8
Visible (ISO)
100
AcDbSpline
210
0.0
220
0.0
230
1.0
 70
    12
 71
     2
 72
     6
 73
     3
 74
     0
 42
0.0000000001
 43
0.0000000001
 40
0.2342838875100969
 40
0.2342838875100969
 40
0.2342838875100969
 40
0.468567775020194
 40
0.468567775020194
 40
0.468567775020194
 10
6507.354075565186
 20
3128.393386505047
 30
0.0
 41
1.0
 10
6507.324026808494
 20
3128.34821097145
 30
0.0
 41
1.037954849302045
 10
6507.586799737118
 20
3128.09818277597
 30
0.0
 41
1.0
  0
LINE
  5
101B
330
6C
100
AcDbEntity
  8
Visible (ISO)
100
AcDbLine
 10
6507.354075565186
 20
3128.393386505047
 30
0.0
 11
6506.150718942952
 21
3126.584250836837
 31
0.0
  0
SPLINE
  5
101C
330
6C
100
AcDbEntity
  8
Visible (ISO)
100
AcDbSpline
210
0.0
220
0.0
230
1.0
 70
    12
 71
     2
 72
     6
 73
     3
 74
     0
 42
0.0000000001
 43
0.0000000001
 40
0.0
 40
0.0
 40
0.0
 40
0.2342838875100972
 40
0.2342838875100972
 40
0.2342838875100972
 10
6507.586799737118
 20
3128.09818277597
 30
0.0
 41
1.0
 10
6506.679149938225
 20
3127.378698088859
 30
0.0
 41
1.037954849302026
 10
6506.150718942953
 20
3126.584250836837
 30
0.0
 41
1.0
  0
SPLINE
  5
101D
330
6C
100
AcDbEntity
  8
Visible (ISO)
100
AcDbSpline
210
0.0
220
0.0
230
1.0
 70
    12
 71
     2
 72
     6
 73
     3
 74
     0
 42
0.0000000001
 43
0.0000000001
 40
0.0
 40
0.0
 40
0.0
 40
0.4673744552311664
 40
0.4673744552311664
 40
0.4673744552311664
 10
6510.057985734285
 20
3126.454459706044
 30
0.0
 41
1.0
 10
6510.677818838967
 20
3126.182580234745
 30
0.0
 41
1.154700538379251
 10
6510.187477878729
 20
3126.649139199173
 30
0.0
 41
1.0
  0
SPLINE
  5
101E
330
6C
100
AcDbEntity
  8
Visible (ISO)
100
AcDbSpline
210
0.0
220
0.0
230
1.0
 70
    12
 71
     2
 72
     6
 73
     3
 74
     0
 42
0.0000000001
 43
0.0000000001
 40
0.0
 40
0.0
 40
0.0
 40
0.4673744552311667
 40
0.4673744552311667
 40
0.4673744552311667
 10
6507.780764634265
 20
3123.030867862753
 30
0.0
 41
1.0
 10
6509.474462216734
 20
3124.373444566535
 30
0.0
 41
1.154700538379253
 10
6510.057985734285
 20
3126.454459706044
 30
0.0
 41
1.0
  0
SPLINE
  5
101F
330
6C
100
AcDbEntity
  8
Visible (ISO)
100
AcDbSpline
210
0.0
220
0.0
230
1.0
 70
    12
 71
     2
 72
     6
 73
     3
 74
     0
 42
0.0000000001
 43
0.0000000001
 40
0.0
 40
0.0
 40
0.0
 40
0.4673744552311679
 40
0.4673744552311679
 40
0.4673744552311679
 10
6505.633035678691
 20
3119.801955512589
 30
0.0
 41
1.0
 10
6507.261987188939
 20
3121.047192469807
 30
0.0
 41
1.154700538379251
 10
6507.780764634265
 20
3123.030867862753
 30
0.0
 41
1.0
  0
SPLINE
  5
1020
330
6C
100
AcDbEntity
  8
Visible (ISO)
100
AcDbSpline
210
0.0
220
0.0
230
1.0
 70
    12
 71
     2
 72
     6
 73
     3
 74
     0
 42
0.0000000001
 43
0.0000000001
 40
0.2557758957651456
 40
0.2557758957651456
 40
0.2557758957651456
 40
0.4673744552311688
 40
0.4673744552311688
 40
0.4673744552311688
 10
6505.987099282926
 20
3119.694527540033
 30
0.0
 41
1.076659185030857
 10
6505.935861071137
 20
3119.669126196161
 30
0.0
 41
1.070038939234446
 10
6505.633035678691
 20
3119.801955512589
 30
0.0
 41
1.0
  0
LINE
  5
1021
330
6C
100
AcDbEntity
  8
Visible (ISO)
100
AcDbLine
 10
6502.926285230206
 20
3121.736612213564
 30
0.0
 11
6502.925909811742
 21
3121.73069469255
 31
0.0
  0
LINE
  5
1022
330
6C
100
AcDbEntity
  8
Visible (ISO)
100
AcDbLine
 10
6507.356915844569
 20
3128.397656603077
 30
0.0
 11
6507.362228277327
 21
3128.400290241655
 31
0.0
  0
LINE
  5
1023
330
6C
100
AcDbEntity
  8
Visible (ISO)
100
AcDbLine
 10
6506.561413279699
 20
3119.979243708161
 30
0.0
 11
6505.987099282926
 21
3119.694527540033
 31
0.0
  0
LINE
  5
1024
330
6C
100
AcDbEntity
  8
Visible (ISO)
100
AcDbLine
 10
6510.382832184588
 20
3125.724394494117
 30
0.0
 11
6510.423417748511
 21
3126.364123089138
 31
0.0
  0
LINE
  5
1025
330
6C
100
AcDbEntity
  8
Visible (ISO)
100
AcDbLine
 10
6505.633035678691
 20
3119.801955512589
 30
0.0
 11
6503.161849681522
 21
3121.445678582515
 31
0.0
  0
LINE
  5
1026
330
6C
100
AcDbEntity
  8
Visible (ISO)
100
AcDbLine
 10
6507.780764634265
 20
3123.030867862753
 30
0.0
 11
6505.309578637096
 21
3124.674590932678
 31
0.0
  0
LINE
  5
1027
330
6C
100
AcDbEntity
  8
Visible (ISO)
100
AcDbLine
 10
6510.057985734285
 20
3126.454459706045
 30
0.0
 11
6507.586799737118
 21
3128.09818277597
 31
0.0
  0
LINE
  5
1028
330
6C
100
AcDbEntity
  8
Visible (ISO)
100
AcDbLine
 10
6510.187477878729
 20
3126.649139199173
 30
0.0
 11
6507.716291881561
 21
3128.292862269099
 31
0.0
  0
LINE
  5
1029
330
6C
100
AcDbEntity
  8
Visible Narrow (ISO)
100
AcDbLine
 10
6505.319470333756
 20
3129.397172337224
 30
0.0
 11
6501.216893271919
 21
3123.229326199995
 31
0.0
  0
LINE
  5
102A
330
6C
100
AcDbEntity
  8
Visible (ISO)
100
AcDbLine
 10
6503.064742436908
 20
3121.944769850736
 30
0.0
 11
6501.191323702356
 21
3123.190884711025
 31
0.0
  0
LINE
  5
102B
330
6C
100
AcDbEntity
  8
Visible (ISO)
100
AcDbLine
 10
6507.218458637871
 20
3128.189498965905
 30
0.0
 11
6505.345039903319
 21
3129.435613826194
 31
0.0
  0
ARC
  5
102C
330
6C
100
AcDbEntity
  8
Visible (ISO)
100
AcDbCircle
 10
6503.268181802837
 20
3126.31324926861
 30
0.0
 40
3.75
100
AcDbArc
 50
56.36991488605852
 51
236.3699148860585
  0
SPLINE
  5
102D
330
6C
100
AcDbEntity
  8
Visible (ISO)
100
AcDbSpline
210
0.0
220
0.0
230
1.0
 70
    12
 71
     3
 72
    20
 73
    16
 74
     0
 42
0.0000000001
 43
0.0000000001
 40
-2.324193392929582
 40
-2.324193392929582
 40
-2.324193392929582
 40
-2.324193392929582
 40
-2.078685157093558
 40
-2.078685157093558
 40
-1.716674626548987
 40
-1.716674626548987
 40
-1.369693895492525
 40
-1.369693895492525
 40
-1.029645560627019
 40
-1.029645560627019
 40
-0.7215545337430558
 40
-0.7215545337430558
 40
-0.4440747845489095
 40
-0.4440747845489095
 40
-0.4097123437336099
 40
-0.4097123437336099
 40
-0.4097123437336099
 40
-0.4097123437336099
 10
6548.907428270844
 20
1635.713470013881
 30
0.0
 41
1.0
 10
6548.695992819915
 20
1635.702953682154
 30
0.0
 41
1.0
 10
6548.670785155109
 20
1635.687577708921
 30
0.0
 41
1.0
 10
6549.100167059761
 20
1635.637627033297
 30
0.0
 41
1.0
 10
6549.786003982951
 20
1635.597026245286
 30
0.0
 41
1.0
 10
6551.664361699668
 20
1635.511790551653
 30
0.0
 41
1.0
 10
6552.827886282523
 20
1635.467938960518
 30
0.0
 41
1.0
 10
6555.130380631806
 20
1635.40082846873
 30
0.0
 41
1.0
 10
6556.262696391306
 20
1635.377791071946
 30
0.0
 41
1.0
 10
6557.967471708713
 20
1635.366588678612
 30
0.0
 41
1.0
 10
6558.579924812459
 20
1635.37532261118
 30
0.0
 41
1.0
 10
6559.17121386642
 20
1635.414369657616
 30
0.0
 41
1.0
 10
6559.207450917094
 20
1635.442187074857
 30
0.0
 41
1.0
 10
6558.968687815111
 20
1635.477679374888
 30
0.0
 41
1.0
 10
6558.938575762666
 20
1635.481644375546
 30
0.0
 41
1.0
 10
6558.904781152048
 20
1635.485652048849
 30
0.0
 41
1.0
  0
SPLINE
  5
102E
330
6C
100
AcDbEntity
  8
Visible (ISO)
100
AcDbSpline
210
0.0
220
0.0
230
1.0
 70
    12
 71
     3
 72
    20
 73
    16
 74
     0
 42
0.0000000001
 43
0.0000000001
 40
-2.196045838569148
 40
-2.196045838569148
 40
-2.196045838569148
 40
-2.196045838569148
 40
-2.08145838564839
 40
-2.08145838564839
 40
-1.720207435400531
 40
-1.720207435400531
 40
-1.371840256718823
 40
-1.371840256718823
 40
-1.030725615519345
 40
-1.030725615519345
 40
-0.7218612799002004
 40
-0.7218612799002004
 40
-0.4444969964659508
 40
-0.4444969964659508
 40
-0.2654838159256903
 40
-0.2654838159256903
 40
-0.2654838159256903
 40
-0.2654838159256903
 10
6428.907150356905
 20
1635.487047727466
 30
0.0
 41
1.0
 10
6428.790461709495
 20
1635.473643705937
 30
0.0
 41
1.0
 10
6428.713711120839
 20
1635.460701917168
 30
0.0
 41
1.0
 10
6428.577060688894
 20
1635.410639325815
 30
0.0
 41
1.0
 10
6428.909906789114
 20
1635.382294406723
 30
0.0
 41
1.0
 10
6430.274322264662
 20
1635.364158801989
 30
0.0
 41
1.0
 10
6431.275235915461
 20
1635.373182031101
 30
0.0
 41
1.0
 10
6433.491225919837
 20
1635.420790414245
 30
0.0
 41
1.0
 10
6434.694666026071
 20
1635.458248875703
 30
0.0
 41
1.0
 10
6436.726131914049
 20
1635.535653309142
 30
0.0
 41
1.0
 10
6437.575344679915
 20
1635.574600049283
 30
0.0
 41
1.0
 10
6438.695770152806
 20
1635.638592896032
 30
0.0
 41
1.0
 10
6439.016537362468
 20
1635.664638162537
 30
0.0
 41
1.0
 10
6439.127321377867
 20
1635.696948278857
 30
0.0
 41
1.0
 10
6439.065162109992
 20
1635.707011601246
 30
0.0
 41
1.0
 10
6438.904109833797
 20
1635.714495194171
 30
0.0
 41
1.0
  0
LINE
  5
102F
330
6C
100
AcDbEntity
  8
Visible Narrow (ISO)
100
AcDbLine
 10
6740.827046302094
 20
1560.83919465154
 30
0.0
 11
6246.982876004526
 21
1560.83919465154
 31
0.0
  0
LINE
  5
1030
330
6C
100
AcDbEntity
  8
Visible (ISO)
100
AcDbLine
 10
6743.904961153311
 20
1485.83919465154
 30
0.0
 11
6243.90496115331
 21
1485.83919465154
 31
0.0
  0
SPLINE
  5
1031
330
6C
100
AcDbEntity
  8
Visible (ISO)
100
AcDbSpline
210
0.0
220
0.0
230
1.0
 70
     8
 71
     3
 72
    18
 73
    14
 74
     0
 42
0.0000000001
 43
0.0000000001
 40
1.570796326794896
 40
1.570796326794896
 40
1.570796326794896
 40
1.570796326794896
 40
1.884955592153876
 40
1.884955592153876
 40
2.199114857512855
 40
2.199114857512855
 40
2.513274122871834
 40
2.513274122871834
 40
2.827433388230813
 40
2.827433388230813
 40
3.021371995349163
 40
3.021371995349163
 40
3.141592653589793
 40
3.141592653589793
 40
3.141592653589793
 40
3.141592653589793
 10
6423.90496115331
 20
1635.83919465154
 30
0.0
 10
6405.055405231774
 20
1635.83919465154
 30
0.0
 10
6386.20889515427
 20
1634.595447172084
 30
0.0
 10
6350.354909177371
 20
1629.74141957527
 30
0.0
 10
6333.353226817611
 20
1626.131923805887
 30
0.0
 10
6302.854004663719
 20
1616.899014653435
 30
0.0
 10
6289.361393148763
 20
1611.27709318887
 30
0.0
 10
6267.202411182878
 20
1598.569083958082
 30
0.0
 10
6258.53962133636
 20
1591.485049641515
 30
0.0
 10
6249.118968692284
 20
1579.404304828134
 30
0.0
 10
6246.599724111953
 20
1574.64751024258
 30
0.0
 10
6244.339072822404
 20
1566.850217107095
 30
0.0
 10
6243.90496115331
 20
1563.844711107556
 30
0.0
 10
6243.90496115331
 20
1560.83919465154
 30
0.0
  0
SPLINE
  5
1032
330
6C
100
AcDbEntity
  8
Visible (ISO)
100
AcDbSpline
210
0.0
220
0.0
230
1.0
 70
     8
 71
     3
 72
    18
 73
    14
 74
     0
 42
0.0000000001
 43
0.0000000001
 40
1.570796326794896
 40
1.570796326794896
 40
1.570796326794896
 40
1.570796326794896
 40
1.884955592153876
 40
1.884955592153876
 40
2.199114857512855
 40
2.199114857512855
 40
2.513274122871834
 40
2.513274122871834
 40
2.827433388230813
 40
2.827433388230813
 40
3.021371995349163
 40
3.021371995349163
 40
3.141592653589793
 40
3.141592653589793
 40
3.141592653589793
 40
3.141592653589793
 10
6563.904961153309
 20
1635.83919465154
 30
0.0
 10
6582.75451707485
 20
1635.83919465154
 30
0.0
 10
6601.601027152354
 20
1634.595447172084
 30
0.0
 10
6637.455013129251
 20
1629.74141957527
 30
0.0
 10
6654.45669548901
 20
1626.131923805887
 30
0.0
 10
6684.955917642902
 20
1616.899014653435
 30
0.0
 10
6698.448529157857
 20
1611.27709318887
 30
0.0
 10
6720.607511123744
 20
1598.569083958082
 30
0.0
 10
6729.270300970262
 20
1591.485049641515
 30
0.0
 10
6738.690953614337
 20
1579.404304828134
 30
0.0
 10
6741.210198194669
 20
1574.64751024258
 30
0.0
 10
6743.470849484218
 20
1566.850217107095
 30
0.0
 10
6743.904961153311
 20
1563.844711107556
 30
0.0
 10
6743.904961153311
 20
1560.83919465154
 30
0.0
  0
LINE
  5
1033
330
6C
100
AcDbEntity
  8
Visible (ISO)
100
AcDbLine
 10
6243.90496115331
 20
1485.83919465154
 30
0.0
 11
6243.90496115331
 21
1560.83919465154
 31
0.0
  0
LINE
  5
1034
330
6C
100
AcDbEntity
  8
Visible (ISO)
100
AcDbLine
 10
6743.904961153311
 20
1485.83919465154
 30
0.0
 11
6743.904961153311
 21
1560.83919465154
 31
0.0
  0
LINE
  5
1035
330
6C
100
AcDbEntity
  8
Visible Narrow (ISO)
100
AcDbLine
 10
6444.571995231737
 20
1655.439221143676
 30
0.0
 11
6423.237927074882
 21
1655.439221143676
 31
0.0
  0
LINE
  5
1036
330
6C
100
AcDbEntity
  8
Visible Narrow (ISO)
100
AcDbLine
 10
6423.728176562659
 20
1655.939207897608
 30
0.0
 11
6444.081745743961
 21
1655.939207897608
 31
0.0
  0
LINE
  5
1037
330
6C
100
AcDbEntity
  8
Visible Narrow (ISO)
100
AcDbLine
 10
6424.21839902198
 20
1656.433963531129
 30
0.0
 11
6443.59152328464
 21
1656.433963531129
 31
0.0
  0
ARC
  5
1038
330
6C
100
AcDbEntity
  8
Visible (ISO)
100
AcDbCircle
 10
6444.204961153309
 20
1655.439221143676
 30
0.0
 40
0.5000000000000002
100
AcDbArc
 50
0.0
 51
89.58294140482392
  0
ARC
  5
1039
330
6C
100
AcDbEntity
  8
Visible (ISO)
100
AcDbCircle
 10
6423.60496115331
 20
1655.439221143676
 30
0.0
 40
0.5000000000000001
100
AcDbArc
 50
90.41705859517605
 51
180.0
  0
ARC
  5
103A
330
6C
100
AcDbEntity
  8
Visible (ISO)
100
AcDbCircle
 10
6444.212240134689
 20
1656.43919465154
 30
0.0
 40
0.5000000000000002
100
AcDbArc
 50
180.5994531795679
 51
269.5829414048239
  0
ARC
  5
103B
330
6C
100
AcDbEntity
  8
Visible (ISO)
100
AcDbCircle
 10
6423.59768217193
 20
1656.43919465154
 30
0.0
 40
0.5000000000000002
100
AcDbArc
 50
270.4170585951761
 51
359.4005468204581
  0
LINE
  5
103C
330
6C
100
AcDbEntity
  8
Visible (ISO)
100
AcDbLine
 10
6444.704961153309
 20
1645.839194651541
 30
0.0
 11
6423.104961153311
 21
1645.839194651541
 31
0.0
  0
LINE
  5
103D
330
6C
100
AcDbEntity
  8
Visible (ISO)
100
AcDbLine
 10
6444.704961153309
 20
1655.439221143676
 30
0.0
 11
6444.704961153309
 21
1645.839194651541
 31
0.0
  0
LINE
  5
103E
330
6C
100
AcDbEntity
  8
Visible (ISO)
100
AcDbLine
 10
6423.104961153311
 20
1655.439221143676
 30
0.0
 11
6423.104961153311
 21
1645.839194651541
 31
0.0
  0
ARC
  5
103F
330
6C
100
AcDbEntity
  8
Visible (ISO)
100
AcDbCircle
 10
6433.904961153309
 20
1656.331351514285
 30
0.0
 40
9.807843137254902
100
AcDbArc
 50
0.5994531795418766
 51
179.4005468204581
  0
LINE
  5
1040
330
6C
100
AcDbEntity
  8
Visible Narrow (ISO)
100
AcDbLine
 10
6564.571995231737
 20
1655.439221143676
 30
0.0
 11
6543.237927074883
 21
1655.439221143676
 31
0.0
  0
LINE
  5
1041
330
6C
100
AcDbEntity
  8
Visible Narrow (ISO)
100
AcDbLine
 10
6543.728176562659
 20
1655.939207897608
 30
0.0
 11
6564.081745743961
 21
1655.939207897608
 31
0.0
  0
LINE
  5
1042
330
6C
100
AcDbEntity
  8
Visible Narrow (ISO)
100
AcDbLine
 10
6544.21839902198
 20
1656.433963531129
 30
0.0
 11
6563.59152328464
 21
1656.433963531129
 31
0.0
  0
ARC
  5
1043
330
6C
100
AcDbEntity
  8
Visible (ISO)
100
AcDbCircle
 10
6564.204961153309
 20
1655.439221143676
 30
0.0
 40
0.5000000000000002
100
AcDbArc
 50
0.0
 51
89.58294140482392
  0
ARC
  5
1044
330
6C
100
AcDbEntity
  8
Visible (ISO)
100
AcDbCircle
 10
6543.60496115331
 20
1655.439221143676
 30
0.0
 40
0.5000000000000001
100
AcDbArc
 50
90.41705859517605
 51
180.0
  0
ARC
  5
1045
330
6C
100
AcDbEntity
  8
Visible (ISO)
100
AcDbCircle
 10
6564.21224013469
 20
1656.43919465154
 30
0.0
 40
0.5000000000000002
100
AcDbArc
 50
180.5994531795679
 51
269.5829414048239
  0
ARC
  5
1046
330
6C
100
AcDbEntity
  8
Visible (ISO)
100
AcDbCircle
 10
6543.597682171932
 20
1656.43919465154
 30
0.0
 40
0.5000000000000002
100
AcDbArc
 50
270.4170585951761
 51
359.4005468204581
  0
LINE
  5
1047
330
6C
100
AcDbEntity
  8
Visible (ISO)
100
AcDbLine
 10
6564.70496115331
 20
1645.839194651541
 30
0.0
 11
6543.104961153311
 21
1645.839194651541
 31
0.0
  0
LINE
  5
1048
330
6C
100
AcDbEntity
  8
Visible (ISO)
100
AcDbLine
 10
6564.70496115331
 20
1655.439221143676
 30
0.0
 11
6564.70496115331
 21
1645.839194651541
 31
0.0
  0
LINE
  5
1049
330
6C
100
AcDbEntity
  8
Visible (ISO)
100
AcDbLine
 10
6543.104961153311
 20
1655.439221143676
 30
0.0
 11
6543.104961153311
 21
1645.839194651541
 31
0.0
  0
ARC
  5
104A
330
6C
100
AcDbEntity
  8
Visible (ISO)
100
AcDbCircle
 10
6553.90496115331
 20
1656.331351514285
 30
0.0
 40
9.807843137254902
100
AcDbArc
 50
0.5994531795418766
 51
179.4005468204581
  0
LINE
  5
104B
330
6C
100
AcDbEntity
  8
Visible (ISO)
100
AcDbLine
 10
6438.904961153309
 20
1635.83919465154
 30
0.0
 11
6438.904961153309
 21
1635.659688708502
 31
0.0
  0
LINE
  5
104C
330
6C
100
AcDbEntity
  8
Visible (ISO)
100
AcDbLine
 10
6428.90496115331
 20
1635.83919465154
 30
0.0
 11
6428.90496115331
 21
1635.395134922517
 31
0.0
  0
LINE
  5
104D
330
6C
100
AcDbEntity
  8
Visible (ISO)
100
AcDbLine
 10
6558.904961153309
 20
1635.83919465154
 30
0.0
 11
6558.904961153309
 21
1635.396808148911
 31
0.0
  0
LINE
  5
104E
330
6C
100
AcDbEntity
  8
Visible (ISO)
100
AcDbLine
 10
6548.90496115331
 20
1635.83919465154
 30
0.0
 11
6548.90496115331
 21
1635.660910506257
 31
0.0
  0
LINE
  5
104F
330
6C
100
AcDbEntity
  8
Visible (ISO)
100
AcDbLine
 10
6423.90496115331
 20
1643.83919465154
 30
0.0
 11
6423.90496115331
 21
1645.83919465154
 31
0.0
  0
LINE
  5
1050
330
6C
100
AcDbEntity
  8
Visible (ISO)
100
AcDbLine
 10
6443.904961153311
 20
1643.83919465154
 30
0.0
 11
6443.904961153311
 21
1645.83919465154
 31
0.0
  0
LINE
  5
1051
330
6C
100
AcDbEntity
  8
Visible (ISO)
100
AcDbLine
 10
6543.904961153311
 20
1643.83919465154
 30
0.0
 11
6543.904961153311
 21
1645.83919465154
 31
0.0
  0
LINE
  5
1052
330
6C
100
AcDbEntity
  8
Visible (ISO)
100
AcDbLine
 10
6563.904961153309
 20
1643.83919465154
 30
0.0
 11
6563.904961153309
 21
1645.83919465154
 31
0.0
  0
LINE
  5
1053
330
6C
100
AcDbEntity
  8
Visible (ISO)
100
AcDbLine
 10
5743.90496115331
 20
1835.83919465154
 30
0.0
 11
7243.904961153311
 21
1835.83919465154
 31
0.0
  0
LINE
  5
1054
330
6C
100
AcDbEntity
  8
Visible (ISO)
100
AcDbLine
 10
5743.90496115331
 20
1825.83919465154
 30
0.0
 11
7243.904961153311
 21
1825.83919465154
 31
0.0
  0
LINE
  5
1055
330
6C
100
AcDbEntity
  8
Visible (ISO)
100
AcDbLine
 10
5743.90496115331
 20
1825.83919465154
 30
0.0
 11
5743.90496115331
 21
1835.83919465154
 31
0.0
  0
LINE
  5
1056
330
6C
100
AcDbEntity
  8
Visible (ISO)
100
AcDbLine
 10
7243.904961153311
 20
1825.83919465154
 30
0.0
 11
7243.904961153311
 21
1835.83919465154
 31
0.0
  0
DIMENSION
  5
1057
330
6C
100
AcDbEntity
  8
Dimension (ISO)
100
AcDbDimension
  2
*D5
 10
5908.001007933995
 20
3390.067656498338
 30
0.0
 11
5908.001007933993
 21
2437.953425574939
 31
0.0
 70
   160
  1
<>
 71
     2
 42
1554.228461846798
  3
Default (ISO)
100
AcDbAlignedDimension
 13
6466.101008582954
 23
1835.83919465154
 33
0.0
 14
6348.084420900473
 24
3390.067656498338
 34
0.0
 50
90.0
100
AcDbRotatedDimension
1001
ACAD
1000
DSTYLE
1002
{
1070
   172
1070
     0
1070
   289
1070
     1
1070
    74
1070
     0
1070
   271
1070
     0
1070
    75
1070
     1
1070
   272
1070
     2
1070
    48
1040
0.0
1070
    47
1040
0.0
1002
}
  0
DIMENSION
  5
1058
330
6C
100
AcDbEntity
  8
Dimension (ISO)
100
AcDbDimension
  2
*D6
 10
7103.076596488697
 20
1835.83919465154
 30
0.0
 11
7103.076596488697
 21
2497.799135926838
 31
0.0
 70
   160
  1
<>
 71
     2
 42
1323.919882550595
  3
Default (ISO)
100
AcDbAlignedDimension
 13
6557.041447407982
 23
3159.759077202136
 33
0.0
 14
7032.174874200197
 24
1835.83919465154
 34
0.0
 50
90.0
100
AcDbRotatedDimension
1001
ACAD
1000
DSTYLE
1002
{
1070
   172
1070
     0
1070
   289
1070
     1
1070
    74
1070
     0
1070
   271
1070
     0
1070
    76
1070
     1
1070
   272
1070
     2
1070
    48
1040
0.0
1070
    47
1040
0.0
1002
}
  0
DIMENSION
  5
1059
330
6C
100
AcDbEntity
  8
Dimension (ISO)
100
AcDbDimension
  2
*D7
 10
5908.001007933993
 20
1485.83919465154
 30
0.0
 11
5908.001007933993
 21
1660.83919465154
 31
0.0
 70
   160
  1
<>
 71
     2
 42
350.0
  3
Default (ISO)
100
AcDbAlignedDimension
 13
6493.904961153311
 23
1835.83919465154
 33
0.0
 14
6243.90496115331
 24
1485.83919465154
 34
0.0
 50
90.0
100
AcDbRotatedDimension
1001
ACAD
1000
DSTYLE
1002
{
1070
   172
1070
     0
1070
   289
1070
     1
1070
    74
1070
     0
1070
   271
1070
     2
1070
    75
1070
     1
1070
   272
1070
     2
1070
    48
1040
0.0
1070
    47
1040
0.0
1002
}
  0
DIMENSION
  5
105A
330
6C
100
AcDbEntity
  8
Dimension (ISO)
100
AcDbDimension
  2
*D8
 10
6852.182691657922
 20
1835.83919465154
 30
0.0
 11
6852.182691657922
 21
1975.404245020918
 31
0.0
 70
   160
  1
<>
 71
     2
 42
200.0000000000002
  3
Default (ISO)
100
AcDbAlignedDimension
 13
6553.90496115331
 23
1635.83919465154
 33
0.0
 14
6928.116885629929
 24
1835.83919465154
 34
0.0
 50
90.0
100
AcDbRotatedDimension
1001
ACAD
1000
DSTYLE
1002
{
1070
   172
1070
     0
1070
   289
1070
     2
1070
    74
1070
     0
1070
   271
1070
     2
1070
    76
1070
     1
1070
   272
1070
     2
1070
    48
1040
0.0
1070
    47
1040
0.0
1002
}
  0
ENDSEC
  0
SECTION
  2
OBJECTS
  0
DICTIONARY
  5
C
330
0
100
AcDbDictionary
281
     1
  3
ACAD_COLOR
350
63
  3
ACAD_GROUP
350
D
  3
ACAD_LAYOUT
350
62
  3
ACAD_MATERIAL
350
10
  3
ACAD_MLEADERSTYLE
350
66
  3
ACAD_MLINESTYLE
350
5F
  3
ACAD_PLOTSETTINGS
350
61
  3
ACAD_PLOTSTYLENAME
350
E
  3
ACAD_SCALELIST
350
42
  3
ACAD_TABLESTYLE
350
64
  3
ACAD_VISUALSTYLE
350
29
  3
ACDB_RECOMPOSE_DATA
350
1273
  3
AcDbVariableDictionary
350
8ED
  3
AcmDictionary
350
121C
  3
AMG
350
11CB
  3
AMGSNAPSETTINGS
350
125B
  3
DWGPROPS
350
1274
  0
DICTIONARY
  5
8AC
330
8
100
AcDbDictionary
280
     1
281
     1
  0
DICTIONARY
  5
898
330
110
100
AcDbDictionary
280
     1
281
     1
  3
ACAD_MLATT
360
1268
  3
ACAD_XREC_ROUNDTRIP
360
1267
  0
DICTIONARY
  5
89B
330
112
100
AcDbDictionary
280
     1
281
     1
  3
ACAD_MLATT
360
126A
  3
ACAD_XREC_ROUNDTRIP
360
1269
  0
DICTIONARY
  5
89E
330
113
100
AcDbDictionary
280
     1
281
     1
  3
ACAD_MLATT
360
126C
  3
ACAD_XREC_ROUNDTRIP
360
126B
  0
DICTIONARY
  5
8A1
330
117
100
AcDbDictionary
280
     1
281
     1
  3
ACAD_MLATT
360
126E
  3
ACAD_XREC_ROUNDTRIP
360
126D
  0
DICTIONARY
  5
8A4
330
118
100
AcDbDictionary
280
     1
281
     1
  3
ACAD_MLATT
360
1270
  3
ACAD_XREC_ROUNDTRIP
360
126F
  0
DICTIONARY
  5
8A7
330
119
100
AcDbDictionary
280
     1
281
     1
  3
ACAD_MLATT
360
1272
  3
ACAD_XREC_ROUNDTRIP
360
1271
  0
DICTIONARY
  5
63
102
{ACAD_REACTORS
330
C
102
}
330
C
100
AcDbDictionary
281
     1
  0
DICTIONARY
  5
D
102
{ACAD_REACTORS
330
C
102
}
330
C
100
AcDbDictionary
281
     1
  0
DICTIONARY
  5
62
102
{ACAD_REACTORS
330
C
102
}
330
C
100
AcDbDictionary
281
     1
  3
Layout1
350
6B
  3
Layout2
350
73
  3
Model
350
6F
  0
DICTIONARY
  5
10
102
{ACAD_REACTORS
330
C
102
}
330
C
100
AcDbDictionary
281
     1
  3
ByBlock
350
19
  3
ByLayer
350
11
  3
Global
350
21
  0
DICTIONARY
  5
66
102
{ACAD_REACTORS
330
C
102
}
330
C
100
AcDbDictionary
281
     1
  3
Standard
350
67
  0
DICTIONARY
  5
5F
102
{ACAD_REACTORS
330
C
102
}
330
C
100
AcDbDictionary
281
     1
  3
Standard
350
60
  0
DICTIONARY
  5
61
102
{ACAD_REACTORS
330
C
102
}
330
C
100
AcDbDictionary
281
     1
  0
ACDBDICTIONARYWDFLT
  5
E
102
{ACAD_REACTORS
330
C
102
}
330
C
100
AcDbDictionary
281
     1
  3
Normal
350
F
100
AcDbDictionaryWithDefault
340
F
  0
DICTIONARY
  5
42
102
{ACAD_REACTORS
330
C
102
}
330
C
100
AcDbDictionary
281
     1
  3
A0
350
43
  3
A1
350
44
  3
A2
350
45
  3
A3
350
46
  3
A4
350
47
  3
A5
350
48
  3
A6
350
49
  3
A7
350
4A
  3
A8
350
4B
  3
A9
350
4C
  3
B0
350
4D
  3
B1
350
4E
  3
B2
350
4F
  3
B3
350
50
  3
B4
350
51
  3
B5
350
52
  3
B6
350
53
  0
DICTIONARY
  5
64
102
{ACAD_REACTORS
330
C
102
}
330
C
100
AcDbDictionary
281
     1
  3
Standard
350
65
  0
DICTIONARY
  5
29
102
{ACAD_REACTORS
330
C
102
}
330
C
100
AcDbDictionary
281
     1
  3
2dWireframe
350
2F
  3
Basic
350
2E
  3
Brighten
350
35
  3
ColorChange
350
39
  3
Conceptual
350
32
  3
Dim
350
34
  3
EdgeColorOff
350
41
  3
Facepattern
350
38
  3
Flat
350
2A
  3
FlatWithEdges
350
2B
  3
Gouraud
350
2C
  3
GouraudWithEdges
350
2D
  3
Hidden
350
31
  3
JitterOff
350
3F
  3
Linepattern
350
37
  3
OverhangOff
350
40
  3
Realistic
350
33
  3
Shaded
350
3E
  3
Shaded with edges
350
3D
  3
Shades of Gray
350
3A
  3
Sketchy
350
3B
  3
Thicken
350
36
  3
Wireframe
350
30
  3
X-Ray
350
3C
  0
XRECORD
  5
1273
102
{ACAD_REACTORS
330
C
102
}
330
C
100
AcDbXrecord
280
     1
 90
        1
330
65
330
110
330
112
330
113
330
117
330
118
330
119
330
105A
  0
DICTIONARY
  5
8ED
102
{ACAD_REACTORS
330
C
102
}
330
C
100
AcDbDictionary
281
     1
  3
CANNOSCALE
350
8F1
  3
CMLEADERSTYLE
350
8EF
  3
CTABLESTYLE
350
8EE
  3
DIMASSOC
350
8F8
  3
HIDETEXT
350
8F7
  3
INDEXCTL
350
8F6
  3
LAYEREVAL
350
8F3
  3
LAYERNOTIFY
350
8F4
  3
LIGHTINGUNITS
350
8F2
  3
MSLTSCALE
350
8F0
  3
SORTENTS
350
8F5
  3
XCLIPFRAME
350
1265
  0
DICTIONARY
  5
121C
102
{ACAD_REACTORS
330
C
102
}
330
C
100
AcDbDictionary
281
     1
  3
AcmStdDictionary
350
1225
  0
DICTIONARY
  5
11CB
102
{ACAD_REACTORS
330
C
102
}
330
C
100
AcDbDictionary
281
     1
  0
DICTIONARY
  5
125B
102
{ACAD_REACTORS
330
C
102
}
330
C
100
AcDbDictionary
281
     1
  0
XRECORD
  5
1274
102
{ACAD_REACTORS
330
C
102
}
330
C
100
AcDbXrecord
280
     1
  1
DWGPROPS COOKIE
  2

  3

  4
Maruszak Marcin
  6

  7

  8
GRAFIK
  9
v1
300
Menadżer=
301
Firma=Muller
302
Kategoria=
303
Numer części=
304
Opis=
305
Projekt=
306
Projektant=Maruszak Marcin
307
Inżynier=
308
Zatwierdził=
309
Centrum kosztów=
 40
0.0159399305555556
 41
2457829.611134028
 42
2459922.36920426
  1

 90
       18
300
Dostawca=
300
Stan użytkownika=
300
Stan projektu=PracaWToku
300
Sprawdził=
300
Zatwierdził konstrukcję=Muller
300
Zatwierdził do produkcji=
300
Kolor=Biały
300
Stanowisko=Giętarka
  0
XRECORD
  5
1268
102
{ACAD_REACTORS
330
898
102
}
330
898
100
AcDbXrecord
280
     1
 70
     4
 70
     0
 70
     0
 40
1.0
  2
Numer_katalogowy
  1
Embedded Object
 10
178.5686228801271
 20
20.69093606566278
 30
0.0
 40
2.5
 41
39.63119806127143
 46
0.0
 71
     1
 72
     5
  1
5065
  7
Note Text (ISO)
 73
     1
 44
1.0
  0
XRECORD
  5
1267
102
{ACAD_REACTORS
330
898
102
}
330
898
100
AcDbXrecord
280
     1
102
ACAD_MATT_HEIGHT
140
2.5
  0
XRECORD
  5
126A
102
{ACAD_REACTORS
330
89B
102
}
330
89B
100
AcDbXrecord
280
     1
 70
     4
 70
     0
 70
     0
 40
1.0
  2
DATA_UTWORZENIA
  1
Embedded Object
 10
190.5938075676742
 20
13.68925708649296
 30
0.0
 40
2.5
 41
40.52963831958745
 46
0.0
 71
     1
 72
     5
  1
2017-03-16
  7
Note Text (ISO)
 73
     1
 44
1.0
  0
XRECORD
  5
1269
102
{ACAD_REACTORS
330
89B
102
}
330
89B
100
AcDbXrecord
280
     1
102
ACAD_MATT_HEIGHT
140
2.5
  0
XRECORD
  5
126C
102
{ACAD_REACTORS
330
89E
102
}
330
89E
100
AcDbXrecord
280
     1
 70
     4
 70
     0
 70
     0
 40
1.0
  2
Nazwa
  1
Embedded Object
 10
178.5232904425422
 20
17.1288138363798
 30
0.0
 40
2.5
 41
38.632931107587
 46
0.0
 71
     1
 72
     5
  1
Kalejdoskop
  7
Note Text (ISO)
 73
     1
 44
1.0
  0
XRECORD
  5
126B
102
{ACAD_REACTORS
330
89E
102
}
330
89E
100
AcDbXrecord
280
     1
102
ACAD_MATT_HEIGHT
140
2.5
  0
XRECORD
  5
126E
102
{ACAD_REACTORS
330
8A1
102
}
330
8A1
100
AcDbXrecord
280
     1
 70
     2
 70
     0
 70
     0
 40
1.0
  2
Numer_katalogowy
  1
Embedded Object
 10
5975.836131658871
 20
198.9926128211664
 30
0.0
 40
50.0
 41
792.6239612254285
 46
0.0
 71
     1
 72
     5
  1
5065
  7
Note Text (ISO)
 73
     1
 44
1.0
  0
XRECORD
  5
126D
102
{ACAD_REACTORS
330
8A1
102
}
330
8A1
100
AcDbXrecord
280
     1
102
ACAD_MATT_HEIGHT
140
50.0
  0
XRECORD
  5
1270
102
{ACAD_REACTORS
330
8A4
102
}
330
8A4
100
AcDbXrecord
280
     1
 70
     2
 70
     0
 70
     0
 40
1.0
  2
DATA_UTWORZENIA
  1
Embedded Object
 10
6216.339825409814
 20
58.95903323777016
 30
0.0
 40
50.0
 41
810.5927663917491
 46
0.0
 71
     1
 72
     5
  1
2017-03-16
  7
Note Text (ISO)
 73
     1
 44
1.0
  0
XRECORD
  5
126F
102
{ACAD_REACTORS
330
8A4
102
}
330
8A4
100
AcDbXrecord
280
     1
102
ACAD_MATT_HEIGHT
140
50.0
  0
XRECORD
  5
1272
102
{ACAD_REACTORS
330
8A7
102
}
330
8A7
100
AcDbXrecord
280
     1
 70
     2
 70
     0
 70
     0
 40
1.0
  2
Nazwa
  1
Embedded Object
 10
5974.929482907174
 20
127.7501682355068
 30
0.0
 40
50.0
 41
772.6586221517401
 46
0.0
 71
     1
 72
     5
  1
Kalejdoskop
  7
Note Text (ISO)
 73
     1
 44
1.0
  0
XRECORD
  5
1271
102
{ACAD_REACTORS
330
8A7
102
}
330
8A7
100
AcDbXrecord
280
     1
102
ACAD_MATT_HEIGHT
140
50.0
  0
LAYOUT
  5
6B
102
{ACAD_XDICTIONARY
360
12A9
102
}
102
{ACAD_REACTORS
330
62
102
}
330
62
100
AcDbPlotSettings
  1

  2

  4

  6

 40
0.0
 41
0.0
 42
0.0
 43
0.0
 44
0.0
 45
0.0
 46
0.0
 47
0.0
 48
0.0
 49
0.0
140
0.0
141
0.0
142
1.0
143
1.0
 70
   688
 72
     0
 73
     0
 74
     5
  7

 75
    16
147
1.0
148
0.0
149
0.0
100
AcDbLayout
  1
Layout1
 70
     1
 71
     1
 10
0.0
 20
0.0
 11
5940.0
 21
4200.0
 12
0.0
 22
0.0
 32
0.0
 14
0.0
 24
0.0
 34
0.0
 15
5940.0
 25
4200.0
 35
0.0
146
0.0
 13
0.0
 23
0.0
 33
0.0
 16
1.0
 26
0.0
 36
0.0
 17
0.0
 27
1.0
 37
0.0
 76
     0
330
68
  0
LAYOUT
  5
73
102
{ACAD_XDICTIONARY
360
12AD
102
}
102
{ACAD_REACTORS
330
62
102
}
330
62
100
AcDbPlotSettings
  1

  2

  4

  6

 40
0.0
 41
0.0
 42
0.0
 43
0.0
 44
0.0
 45
0.0
 46
0.0
 47
0.0
 48
0.0
 49
0.0
140
0.0
141
0.0
142
1.0
143
1.0
 70
   688
 72
     0
 73
     0
 74
     5
  7

 75
    16
147
1.0
148
0.0
149
0.0
100
AcDbLayout
  1
Layout2
 70
     1
 71
     2
 10
0.0
 20
0.0
 11
12.0
 21
9.0
 12
0.0
 22
0.0
 32
0.0
 14
0.0
 24
0.0
 34
0.0
 15
0.0
 25
0.0
 35
0.0
146
0.0
 13
0.0
 23
0.0
 33
0.0
 16
1.0
 26
0.0
 36
0.0
 17
0.0
 27
1.0
 37
0.0
 76
     0
330
70
  0
LAYOUT
  5
6F
102
{ACAD_XDICTIONARY
360
12AB
102
}
102
{ACAD_REACTORS
330
62
102
}
330
62
100
AcDbPlotSettings
  1

  2

  4

  6

 40
0.0
 41
0.0
 42
0.0
 43
0.0
 44
0.0
 45
0.0
 46
0.0
 47
0.0
 48
0.0
 49
0.0
140
0.0
141
0.0
142
1.0
143
1.0
 70
  1712
 72
     0
 73
     0
 74
     0
  7

 75
     0
147
1.0
148
0.0
149
0.0
100
AcDbLayout
  1
Model
 70
     1
 71
     0
 10
0.0
 20
0.0
 11
12.0
 21
9.0
 12
0.0
 22
0.0
 32
0.0
 14
0.0
 24
0.0
 34
0.0
 15
0.0
 25
0.0
 35
0.0
146
0.0
 13
0.0
 23
0.0
 33
0.0
 16
1.0
 26
0.0
 36
0.0
 17
0.0
 27
1.0
 37
0.0
 76
     0
330
6C
331
57
  0
MATERIAL
  5
19
102
{ACAD_XDICTIONARY
360
1A
102
}
102
{ACAD_REACTORS
330
10
102
}
330
10
100
AcDbMaterial
  1
ByBlock
 72
     0
 43
0.0208333333333333
 43
0.0
 43
0.0
 43
0.0
 43
0.0
 43
0.0208333333333333
 43
0.0
 43
0.0
 43
0.0
 43
0.0
 43
1.0
 43
0.0
 43
0.0
 43
0.0
 43
0.0
 43
1.0
 77
     0
 47
0.0208333333333333
 47
0.0
 47
0.0
 47
0.0
 47
0.0
 47
0.0208333333333333
 47
0.0
 47
0.0
 47
0.0
 47
0.0
 47
1.0
 47
0.0
 47
0.0
 47
0.0
 47
0.0
 47
1.0
171
     0
 49
0.0208333333333333
 49
0.0
 49
0.0
 49
0.0
 49
0.0
 49
0.0208333333333333
 49
0.0
 49
0.0
 49
0.0
 49
0.0
 49
1.0
 49
0.0
 49
0.0
 49
0.0
 49
0.0
 49
1.0
175
     0
142
0.0208333333333333
142
0.0
142
0.0
142
0.0
142
0.0
142
0.0208333333333333
142
0.0
142
0.0
142
0.0
142
0.0
142
1.0
142
0.0
142
0.0
142
0.0
142
0.0
142
1.0
179
     0
144
0.0208333333333333
144
0.0
144
0.0
144
0.0
144
0.0
144
0.0208333333333333
144
0.0
144
0.0
144
0.0
144
0.0
144
1.0
144
0.0
144
0.0
144
0.0
144
0.0
144
1.0
147
0.0208333333333333
147
0.0
147
0.0
147
0.0
147
0.0
147
0.0208333333333333
147
0.0
147
0.0
147
0.0
147
0.0
147
1.0
147
0.0
147
0.0
147
0.0
147
0.0
147
1.0
  0
MATERIAL
  5
11
102
{ACAD_XDICTIONARY
360
12
102
}
102
{ACAD_REACTORS
330
10
102
}
330
10
100
AcDbMaterial
  1
ByLayer
 72
     0
 43
0.0208333333333333
 43
0.0
 43
0.0
 43
0.0
 43
0.0
 43
0.0208333333333333
 43
0.0
 43
0.0
 43
0.0
 43
0.0
 43
1.0
 43
0.0
 43
0.0
 43
0.0
 43
0.0
 43
1.0
 77
     0
 47
0.0208333333333333
 47
0.0
 47
0.0
 47
0.0
 47
0.0
 47
0.0208333333333333
 47
0.0
 47
0.0
 47
0.0
 47
0.0
 47
1.0
 47
0.0
 47
0.0
 47
0.0
 47
0.0
 47
1.0
171
     0
 49
0.0208333333333333
 49
0.0
 49
0.0
 49
0.0
 49
0.0
 49
0.0208333333333333
 49
0.0
 49
0.0
 49
0.0
 49
0.0
 49
1.0
 49
0.0
 49
0.0
 49
0.0
 49
0.0
 49
1.0
175
     0
142
0.0208333333333333
142
0.0
142
0.0
142
0.0
142
0.0
142
0.0208333333333333
142
0.0
142
0.0
142
0.0
142
0.0
142
1.0
142
0.0
142
0.0
142
0.0
142
0.0
142
1.0
179
     0
144
0.0208333333333333
144
0.0
144
0.0
144
0.0
144
0.0
144
0.0208333333333333
144
0.0
144
0.0
144
0.0
144
0.0
144
1.0
144
0.0
144
0.0
144
0.0
144
0.0
144
1.0
147
0.0208333333333333
147
0.0
147
0.0
147
0.0
147
0.0
147
0.0208333333333333
147
0.0
147
0.0
147
0.0
147
0.0
147
1.0
147
0.0
147
0.0
147
0.0
147
0.0
147
1.0
  0
MATERIAL
  5
21
102
{ACAD_XDICTIONARY
360
22
102
}
102
{ACAD_REACTORS
330
10
102
}
330
10
100
AcDbMaterial
  1
Global
 72
     0
 43
0.0208333333333333
 43
0.0
 43
0.0
 43
0.0
 43
0.0
 43
0.0208333333333333
 43
0.0
 43
0.0
 43
0.0
 43
0.0
 43
1.0
 43
0.0
 43
0.0
 43
0.0
 43
0.0
 43
1.0
 77
     0
 47
0.0208333333333333
 47
0.0
 47
0.0
 47
0.0
 47
0.0
 47
0.0208333333333333
 47
0.0
 47
0.0
 47
0.0
 47
0.0
 47
1.0
 47
0.0
 47
0.0
 47
0.0
 47
0.0
 47
1.0
171
     0
 49
0.0208333333333333
 49
0.0
 49
0.0
 49
0.0
 49
0.0
 49
0.0208333333333333
 49
0.0
 49
0.0
 49
0.0
 49
0.0
 49
1.0
 49
0.0
 49
0.0
 49
0.0
 49
0.0
 49
1.0
175
     0
142
0.0208333333333333
142
0.0
142
0.0
142
0.0
142
0.0
142
0.0208333333333333
142
0.0
142
0.0
142
0.0
142
0.0
142
1.0
142
0.0
142
0.0
142
0.0
142
0.0
142
1.0
179
     0
144
0.0208333333333333
144
0.0
144
0.0
144
0.0
144
0.0
144
0.0208333333333333
144
0.0
144
0.0
144
0.0
144
0.0
144
1.0
144
0.0
144
0.0
144
0.0
144
0.0
144
1.0
147
0.0208333333333333
147
0.0
147
0.0
147
0.0
147
0.0
147
0.0208333333333333
147
0.0
147
0.0
147
0.0
147
0.0
147
1.0
147
0.0
147
0.0
147
0.0
147
0.0
147
1.0
  0
MLEADERSTYLE
  5
67
102
{ACAD_REACTORS
330
66
102
}
330
66
100
AcDbMLeaderStyle
170
     2
171
     1
172
     0
 90
        2
 40
0.0
 41
0.0
173
     1
 91
-1056964608
340
5B
 92
       -2
290
     1
 42
0.09
291
     1
 43
0.36
  3
Standard
 44
0.18
300

342
55
174
     1
178
     6
175
     1
176
     0
 93
-1056964608
 45
0.18
292
     0
297
     0
 46
0.18
 94
-1056964608
 47
1.0
 49
1.0
140
1.0
293
     1
141
0.0
294
     1
177
     0
142
1.0
295
     0
296
     0
143
0.125
1001
ACAD_MLEADERVER
1070
     2
  0
MLINESTYLE
  5
60
102
{ACAD_REACTORS
330
5F
102
}
330
5F
100
AcDbMlineStyle
  2
STANDARD
 70
     0
  3

 62
   256
 51
90.0
 52
90.0
 71
     2
 49
0.5
 62
   256
  6
BYLAYER
 49
-0.5
 62
   256
  6
BYLAYER
  0
ACDBPLACEHOLDER
  5
F
102
{ACAD_REACTORS
330
E
102
}
330
E
  0
SCALE
  5
43
102
{ACAD_REACTORS
330
42
102
}
330
42
100
AcDbScale
 70
     0
300
1:1
140
1.0
141
1.0
290
     1
  0
SCALE
  5
44
102
{ACAD_REACTORS
330
42
102
}
330
42
100
AcDbScale
 70
     0
300
1/128" = 1'-0"
140
0.0078125
141
12.0
290
     0
  0
SCALE
  5
45
102
{ACAD_REACTORS
330
42
102
}
330
42
100
AcDbScale
 70
     0
300
1/64" = 1'-0"
140
0.015625
141
12.0
290
     0
  0
SCALE
  5
46
102
{ACAD_REACTORS
330
42
102
}
330
42
100
AcDbScale
 70
     0
300
1/32" = 1'-0"
140
0.03125
141
12.0
290
     0
  0
SCALE
  5
47
102
{ACAD_REACTORS
330
42
102
}
330
42
100
AcDbScale
 70
     0
300
1/16" = 1'-0"
140
0.0625
141
12.0
290
     0
  0
SCALE
  5
48
102
{ACAD_REACTORS
330
42
102
}
330
42
100
AcDbScale
 70
     0
300
3/32" = 1'-0"
140
0.09375
141
12.0
290
     0
  0
SCALE
  5
49
102
{ACAD_REACTORS
330
42
102
}
330
42
100
AcDbScale
 70
     0
300
1/8" = 1'-0"
140
0.125
141
12.0
290
     0
  0
SCALE
  5
4A
102
{ACAD_REACTORS
330
42
102
}
330
42
100
AcDbScale
 70
     0
300
3/16" = 1'-0"
140
0.1875
141
12.0
290
     0
  0
SCALE
  5
4B
102
{ACAD_REACTORS
330
42
102
}
330
42
100
AcDbScale
 70
     0
300
1/4" = 1'-0"
140
0.25
141
12.0
290
     0
  0
SCALE
  5
4C
102
{ACAD_REACTORS
330
42
102
}
330
42
100
AcDbScale
 70
     0
300
3/8" = 1'-0"
140
0.375
141
12.0
290
     0
  0
SCALE
  5
4D
102
{ACAD_REACTORS
330
42
102
}
330
42
100
AcDbScale
 70
     0
300
1/2" = 1'-0"
140
0.5
141
12.0
290
     0
  0
SCALE
  5
4E
102
{ACAD_REACTORS
330
42
102
}
330
42
100
AcDbScale
 70
     0
300
3/4" = 1'-0"
140
0.75
141
12.0
290
     0
  0
SCALE
  5
4F
102
{ACAD_REACTORS
330
42
102
}
330
42
100
AcDbScale
 70
     0
300
1" = 1'-0"
140
1.0
141
12.0
290
     0
  0
SCALE
  5
50
102
{ACAD_REACTORS
330
42
102
}
330
42
100
AcDbScale
 70
     0
300
1-1/2" = 1'-0"
140
1.5
141
12.0
290
     0
  0
SCALE
  5
51
102
{ACAD_REACTORS
330
42
102
}
330
42
100
AcDbScale
 70
     0
300
3" = 1'-0"
140
3.0
141
12.0
290
     0
  0
SCALE
  5
52
102
{ACAD_REACTORS
330
42
102
}
330
42
100
AcDbScale
 70
     0
300
6" = 1'-0"
140
6.0
141
12.0
290
     0
  0
SCALE
  5
53
102
{ACAD_REACTORS
330
42
102
}
330
42
100
AcDbScale
 70
     0
300
1'-0" = 1'-0"
140
12.0
141
12.0
290
     0
  0
TABLESTYLE
  5
65
102
{ACAD_XDICTIONARY
360
896
102
}
102
{ACAD_REACTORS
330
64
102
}
330
64
100
AcDbTableStyle
  3
Standard
 70
     0
 71
     0
 40
0.06
 41
0.06
280
     0
281
     0
  7
Standard
140
0.18
170
     2
 62
     0
 63
     7
283
     0
274
    -2
284
     1
 64
     0
275
    -2
285
     1
 65
     0
276
    -2
286
     1
 66
     0
277
    -2
287
     1
 67
     0
278
    -2
288
     1
 68
     0
279
    -2
289
     1
 69
     0
  7
Standard
140
0.25
170
     5
 62
     0
 63
     7
283
     0
274
    -2
284
     1
 64
     0
275
    -2
285
     1
 65
     0
276
    -2
286
     1
 66
     0
277
    -2
287
     1
 67
     0
278
    -2
288
     1
 68
     0
279
    -2
289
     1
 69
     0
  7
Standard
140
0.18
170
     5
 62
     0
 63
     7
283
     0
274
    -2
284
     1
 64
     0
275
    -2
285
     1
 65
     0
276
    -2
286
     1
 66
     0
277
    -2
287
     1
 67
     0
278
    -2
288
     1
 68
     0
279
    -2
289
     1
 69
     0
  0
VISUALSTYLE
  5
2F
102
{ACAD_XDICTIONARY
360
1282
102
}
102
{ACAD_REACTORS
330
29
102
}
330
29
100
AcDbVisualStyle
  2
2dWireframe
 70
     4
 71
     0
 72
     2
 73
     0
 90
        0
 40
-0.6
 41
-30.0
 62
     5
 63
     7
 74
     1
 91
        4
 64
     7
 65
   257
 75
     1
175
     1
 42
1.0
 92
        0
 66
   257
 43
1.0
 76
     1
 77
     6
 78
     2
 67
     7
 79
     5
170
     0
171
     0
290
     0
174
     0
 93
        1
 44
0.0
173
     0
291
     0
 45
0.0
1001
ACAD
1000
AcDbSavedByObjectVersion
1070
     0
  0
VISUALSTYLE
  5
2E
102
{ACAD_XDICTIONARY
360
1280
102
}
102
{ACAD_REACTORS
330
29
102
}
330
29
100
AcDbVisualStyle
  2
Basic
 70
     7
 71
     1
 72
     0
 73
     1
 90
        0
 40
-0.6
 41
-30.0
 62
     5
 63
     7
 74
     0
 91
        4
 64
     7
 65
   257
 75
     1
175
     1
 42
1.0
 92
        8
 66
     7
 43
1.0
 76
     1
 77
     6
 78
     2
 67
     7
 79
     5
170
     0
171
     0
290
     0
174
     0
 93
        1
 44
0.0
173
     0
291
     1
 45
0.0
1001
ACAD
1000
AcDbSavedByObjectVersion
1070
     0
  0
VISUALSTYLE
  5
35
102
{ACAD_XDICTIONARY
360
128E
102
}
102
{ACAD_REACTORS
330
29
102
}
330
29
100
AcDbVisualStyle
  2
Brighten
 70
    12
 71
     2
 72
     2
 73
     0
 90
        0
 40
-0.6
 41
-30.0
 62
     5
 63
     7
 74
     1
 91
        4
 64
     7
 65
   257
 75
     1
175
     1
 42
1.0
 92
        8
 66
     7
 43
1.0
 76
     1
 77
     6
 78
     2
 67
     7
 79
     5
170
     0
171
     0
290
     0
174
     0
 93
        1
 44
50.0
173
     0
291
     1
 45
0.0
1001
ACAD
1000
AcDbSavedByObjectVersion
1070
     0
  0
VISUALSTYLE
  5
39
102
{ACAD_XDICTIONARY
360
1296
102
}
102
{ACAD_REACTORS
330
29
102
}
330
29
100
AcDbVisualStyle
  2
ColorChange
 70
    16
 71
     2
 72
     2
 73
     3
 90
        0
 40
-0.6
 41
-30.0
 62
     5
 63
     8
 74
     1
 91
        4
 64
     7
 65
   257
 75
     1
175
     1
 42
1.0
 92
        8
 66
     8
 43
1.0
 76
     1
 77
     6
 78
     2
 67
     7
 79
     5
170
     0
171
     0
290
     0
174
     0
 93
        1
 44
0.0
173
     0
291
     1
 45
0.0
1001
ACAD
1000
AcDbSavedByObjectVersion
1070
     0
  0
VISUALSTYLE
  5
32
102
{ACAD_XDICTIONARY
360
1288
102
}
102
{ACAD_REACTORS
330
29
102
}
330
29
100
AcDbVisualStyle
  2
Conceptual
 70
     9
 71
     3
 72
     2
 73
     0
 90
        0
 40
-0.6
 41
-30.0
 62
     5
 63
     7
 74
     2
 91
        2
 64
     7
 65
   257
 75
     1
175
     1
 42
179.0
 92
        8
 66
     7
 43
1.0
 76
     1
 77
     6
 78
     2
 67
     7
 79
     3
170
     0
171
     0
290
     0
174
     0
 93
        1
 44
0.0
173
     0
291
     0
 45
0.0
1001
ACAD
1000
AcDbSavedByObjectVersion
1070
     0
  0
VISUALSTYLE
  5
34
102
{ACAD_XDICTIONARY
360
128C
102
}
102
{ACAD_REACTORS
330
29
102
}
330
29
100
AcDbVisualStyle
  2
Dim
 70
    11
 71
     2
 72
     2
 73
     0
 90
        0
 40
-0.6
 41
-30.0
 62
     5
 63
     7
 74
     1
 91
        4
 64
     7
 65
   257
 75
     1
175
     1
 42
1.0
 92
        8
 66
     7
 43
1.0
 76
     1
 77
     6
 78
     2
 67
     7
 79
     5
170
     0
171
     0
290
     0
174
     0
 93
        1
 44
-50.0
173
     0
291
     1
 45
0.0
1001
ACAD
1000
AcDbSavedByObjectVersion
1070
     0
  0
VISUALSTYLE
  5
41
102
{ACAD_XDICTIONARY
360
12A6
102
}
102
{ACAD_REACTORS
330
29
102
}
330
29
100
AcDbVisualStyle
  2
EdgeColorOff
 70
    22
 71
     2
 72
     2
 73
     0
 90
        0
 40
-0.6
 41
-30.0
 62
     5
 63
     7
 74
     1
 91
        4
 64
     7
 65
   257
 75
     1
175
     1
 42
1.0
 92
        8
 66
     7
 43
1.0
 76
     1
 77
     6
 78
     2
 67
     7
 79
     5
170
     0
171
     0
290
     0
174
     0
 93
        1
 44
0.0
173
     0
291
     1
 45
0.0
1001
ACAD
1000
AcDbSavedByObjectVersion
1070
     0
  0
VISUALSTYLE
  5
38
102
{ACAD_XDICTIONARY
360
1294
102
}
102
{ACAD_REACTORS
330
29
102
}
330
29
100
AcDbVisualStyle
  2
Facepattern
 70
    15
 71
     2
 72
     2
 73
     0
 90
        0
 40
-0.6
 41
-30.0
 62
     5
 63
     7
 74
     1
 91
        4
 64
     7
 65
   257
 75
     1
175
     1
 42
1.0
 92
        8
 66
     7
 43
1.0
 76
     1
 77
     6
 78
     2
 67
     7
 79
     5
170
     0
171
     0
290
     0
174
     0
 93
        1
 44
0.0
173
     0
291
     1
 45
0.0
1001
ACAD
1000
AcDbSavedByObjectVersion
1070
     0
  0
VISUALSTYLE
  5
2A
102
{ACAD_XDICTIONARY
360
1278
102
}
102
{ACAD_REACTORS
330
29
102
}
330
29
100
AcDbVisualStyle
  2
Flat
 70
     0
 71
     2
 72
     1
 73
     1
 90
        2
 40
-0.6
 41
30.0
 62
     5
 63
     7
 74
     0
 91
        0
 64
     7
 65
   257
 75
     1
175
     1
 42
1.0
 92
        8
 66
     7
 43
1.0
 76
     1
 77
     6
 78
     2
 67
     7
 79
     5
170
     0
171
     0
290
     0
174
     0
 93
       13
 44
0.0
173
     0
291
     1
 45
0.0
1001
ACAD
1000
AcDbSavedByObjectVersion
1070
     0
  0
VISUALSTYLE
  5
2B
102
{ACAD_XDICTIONARY
360
127A
102
}
102
{ACAD_REACTORS
330
29
102
}
330
29
100
AcDbVisualStyle
  2
FlatWithEdges
 70
     1
 71
     2
 72
     1
 73
     1
 90
        2
 40
-0.6
 41
30.0
 62
     5
 63
     7
 74
     1
 91
        0
 64
     7
 65
   257
 75
     1
175
     1
 42
1.0
 92
        0
 66
   257
 43
1.0
 76
     1
 77
     6
 78
     2
 67
     7
 79
     5
170
     0
171
     0
290
     0
174
     0
 93
       13
 44
0.0
173
     0
291
     1
 45
0.0
1001
ACAD
1000
AcDbSavedByObjectVersion
1070
     0
  0
VISUALSTYLE
  5
2C
102
{ACAD_XDICTIONARY
360
127C
102
}
102
{ACAD_REACTORS
330
29
102
}
330
29
100
AcDbVisualStyle
  2
Gouraud
 70
     2
 71
     2
 72
     2
 73
     1
 90
        2
 40
-0.6
 41
30.0
 62
     5
 63
     7
 74
     0
 91
        0
 64
     7
 65
   257
 75
     1
175
     1
 42
1.0
 92
        0
 66
     7
 43
1.0
 76
     1
 77
     6
 78
     2
 67
     7
 79
     5
170
     0
171
     0
290
     0
174
     0
 93
       13
 44
0.0
173
     0
291
     1
 45
0.0
1001
ACAD
1000
AcDbSavedByObjectVersion
1070
     0
  0
VISUALSTYLE
  5
2D
102
{ACAD_XDICTIONARY
360
127E
102
}
102
{ACAD_REACTORS
330
29
102
}
330
29
100
AcDbVisualStyle
  2
GouraudWithEdges
 70
     3
 71
     2
 72
     2
 73
     1
 90
        2
 40
-0.6
 41
30.0
 62
     5
 63
     7
 74
     1
 91
        0
 64
     7
 65
   257
 75
     1
175
     1
 42
1.0
 92
        0
 66
   257
 43
1.0
 76
     1
 77
     6
 78
     2
 67
     7
 79
     5
170
     0
171
     0
290
     0
174
     0
 93
       13
 44
0.0
173
     0
291
     1
 45
0.0
1001
ACAD
1000
AcDbSavedByObjectVersion
1070
     0
  0
VISUALSTYLE
  5
31
102
{ACAD_XDICTIONARY
360
1286
102
}
102
{ACAD_REACTORS
330
29
102
}
330
29
100
AcDbVisualStyle
  2
Hidden
 70
     6
 71
     1
 72
     2
 73
     2
 90
        0
 40
-0.6
 41
-30.0
 62
     5
 63
     7
 74
     2
 91
        2
 64
     7
 65
   257
 75
     2
175
     1
 42
40.0
 92
        0
 66
   257
 43
1.0
 76
     1
 77
     6
 78
     2
 67
     7
 79
     3
170
     0
171
     0
290
     0
174
     0
 93
        1
 44
0.0
173
     0
291
     0
 45
0.0
1001
ACAD
1000
AcDbSavedByObjectVersion
1070
     0
  0
VISUALSTYLE
  5
3F
102
{ACAD_XDICTIONARY
360
12A2
102
}
102
{ACAD_REACTORS
330
29
102
}
330
29
100
AcDbVisualStyle
  2
JitterOff
 70
    20
 71
     2
 72
     2
 73
     0
 90
        0
 40
-0.6
 41
-30.0
 62
     5
 63
     7
 74
     1
 91
        4
 64
     7
 65
   257
 75
     1
175
     1
 42
1.0
 92
       10
 66
     7
 43
1.0
 76
     1
 77
     6
 78
     2
 67
     7
 79
     5
170
     0
171
     0
290
     0
174
     0
 93
        1
 44
0.0
173
     0
291
     1
 45
0.0
1001
ACAD
1000
AcDbSavedByObjectVersion
1070
     0
  0
VISUALSTYLE
  5
37
102
{ACAD_XDICTIONARY
360
1292
102
}
102
{ACAD_REACTORS
330
29
102
}
330
29
100
AcDbVisualStyle
  2
Linepattern
 70
    14
 71
     2
 72
     2
 73
     0
 90
        0
 40
-0.6
 41
-30.0
 62
     5
 63
     7
 74
     1
 91
        4
 64
     7
 65
   257
 75
     7
175
     7
 42
1.0
 92
        8
 66
     7
 43
1.0
 76
     1
 77
     6
 78
     2
 67
     7
 79
     5
170
     0
171
     0
290
     0
174
     0
 93
        1
 44
0.0
173
     0
291
     1
 45
0.0
1001
ACAD
1000
AcDbSavedByObjectVersion
1070
     0
  0
VISUALSTYLE
  5
40
102
{ACAD_XDICTIONARY
360
12A4
102
}
102
{ACAD_REACTORS
330
29
102
}
330
29
100
AcDbVisualStyle
  2
OverhangOff
 70
    21
 71
     2
 72
     2
 73
     0
 90
        0
 40
-0.6
 41
-30.0
 62
     5
 63
     7
 74
     1
 91
        4
 64
     7
 65
   257
 75
     1
175
     1
 42
1.0
 92
        9
 66
     7
 43
1.0
 76
     1
 77
     6
 78
     2
 67
     7
 79
     5
170
     0
171
     0
290
     0
174
     0
 93
        1
 44
0.0
173
     0
291
     1
 45
0.0
1001
ACAD
1000
AcDbSavedByObjectVersion
1070
     0
  0
VISUALSTYLE
  5
33
102
{ACAD_XDICTIONARY
360
128A
102
}
102
{ACAD_REACTORS
330
29
102
}
330
29
100
AcDbVisualStyle
  2
Realistic
 70
     8
 71
     2
 72
     2
 73
     0
 90
        2
 40
-0.6
 41
30.0
 62
     5
 63
     7
 74
     0
 91
        0
 64
     7
 65
   257
 75
     1
175
     1
 42
1.0
 92
        8
 66
   257
 43
1.0
 76
     1
 77
     6
 78
     2
 67
     7
 79
     3
170
     0
171
     0
290
     0
174
     0
 93
       13
 44
0.0
173
     0
291
     0
 45
0.0
1001
ACAD
1000
AcDbSavedByObjectVersion
1070
     0
  0
VISUALSTYLE
  5
3E
102
{ACAD_XDICTIONARY
360
12A0
102
}
102
{ACAD_REACTORS
330
29
102
}
330
29
100
AcDbVisualStyle
  2
Shaded
 70
    27
 71
     2
 72
     2
 73
     1
 90
        2
 40
-0.6
 41
30.0
 62
     5
 63
     7
 74
     0
 91
        4
 64
     7
 65
   257
 75
     1
175
     1
 42
1.0
 92
        8
 66
   257
 43
1.0
 76
     1
 77
     6
 78
     2
 67
     8
 79
     3
170
     0
171
     0
290
     0
174
     0
 93
        5
 44
0.0
173
     0
291
     0
 45
0.0
1001
ACAD
1000
AcDbSavedByObjectVersion
1070
     0
  0
VISUALSTYLE
  5
3D
102
{ACAD_XDICTIONARY
360
129E
102
}
102
{ACAD_REACTORS
330
29
102
}
330
29
100
AcDbVisualStyle
  2
Shaded with edges
 70
    26
 71
     2
 72
     2
 73
     1
 90
        2
 40
-0.6
 41
30.0
 62
     5
 63
     7
 74
     1
 91
       10
 64
     7
 65
   257
 75
     2
175
     1
 42
1.0
 92
        8
 66
   257
 43
1.0
 76
     1
 77
     6
 78
     2
 67
     7
 79
     3
170
     0
171
     0
290
     0
174
     0
 93
        5
 44
0.0
173
     0
291
     0
 45
0.0
1001
ACAD
1000
AcDbSavedByObjectVersion
1070
     0
  0
VISUALSTYLE
  5
3A
102
{ACAD_XDICTIONARY
360
1298
102
}
102
{ACAD_REACTORS
330
29
102
}
330
29
100
AcDbVisualStyle
  2
Shades of Gray
 70
    23
 71
     2
 72
     2
 73
     3
 90
        0
 40
-0.6
 41
-30.0
 62
     5
 63
     7
 74
     2
 91
        2
 64
     7
 65
     7
 75
     1
175
     1
 42
40.0
 92
        8
 66
     7
 43
1.0
 76
     1
 77
     6
 78
     2
 67
     7
 79
     3
170
     0
171
     0
290
     0
174
     0
 93
        1
 44
0.0
173
     0
291
     0
 45
0.0
1001
ACAD
1000
AcDbSavedByObjectVersion
1070
     0
  0
VISUALSTYLE
  5
3B
102
{ACAD_XDICTIONARY
360
129A
102
}
102
{ACAD_REACTORS
330
29
102
}
330
29
100
AcDbVisualStyle
  2
Sketchy
 70
    24
 71
     1
 72
     2
 73
     2
 90
        0
 40
-0.6
 41
-30.0
 62
     5
 63
     7
 74
     2
 91
        2
 64
     7
 65
     7
 75
     1
175
     1
 42
40.0
 92
       11
 66
     7
 43
1.0
 76
     1
 77
     6
 78
     2
 67
     7
 79
     6
170
     0
171
     0
290
     0
174
     0
 93
        1
 44
0.0
173
     0
291
     0
 45
0.0
1001
ACAD
1000
AcDbSavedByObjectVersion
1070
     0
  0
VISUALSTYLE
  5
36
102
{ACAD_XDICTIONARY
360
1290
102
}
102
{ACAD_REACTORS
330
29
102
}
330
29
100
AcDbVisualStyle
  2
Thicken
 70
    13
 71
     2
 72
     2
 73
     0
 90
        0
 40
-0.6
 41
-30.0
 62
     5
 63
     7
 74
     1
 91
        4
 64
     7
 65
   257
 75
     1
175
     1
 42
1.0
 92
       12
 66
     7
 43
1.0
 76
     1
 77
     6
 78
     2
 67
     7
 79
     5
170
     0
171
     0
290
     0
174
     0
 93
        1
 44
0.0
173
     0
291
     1
 45
0.0
1001
ACAD
1000
AcDbSavedByObjectVersion
1070
     0
  0
VISUALSTYLE
  5
30
102
{ACAD_XDICTIONARY
360
1284
102
}
102
{ACAD_REACTORS
330
29
102
}
330
29
100
AcDbVisualStyle
  2
Wireframe
 70
     5
 71
     0
 72
     2
 73
     0
 90
        0
 40
-0.6
 41
-30.0
 62
     5
 63
     7
 74
     1
 91
        4
 64
     7
 65
   257
 75
     1
175
     1
 42
1.0
 92
        0
 66
   257
 43
1.0
 76
     1
 77
     6
 78
     2
 67
     7
 79
     3
170
     0
171
     0
290
     0
174
     0
 93
        1
 44
0.0
173
     0
291
     0
 45
0.0
1001
ACAD
1000
AcDbSavedByObjectVersion
1070
     0
  0
VISUALSTYLE
  5
3C
102
{ACAD_XDICTIONARY
360
129C
102
}
102
{ACAD_REACTORS
330
29
102
}
330
29
100
AcDbVisualStyle
  2
X-Ray
 70
    25
 71
     2
 72
     2
 73
     1
 90
        1
 40
0.5
 41
-30.0
 62
     5
 63
     7
 74
     1
 91
        0
 64
     7
 65
   257
 75
     1
175
     1
 42
1.0
 92
        8
 66
     7
 43
1.0
 76
     1
 77
     6
 78
     2
 67
     7
 79
     3
170
     0
171
     0
290
     0
174
     0
 93
       13
 44
0.0
173
     0
291
     0
 45
0.0
1001
ACAD
1000
AcDbSavedByObjectVersion
1070
     0
  0
DICTIONARYVAR
  5
8F1
102
{ACAD_REACTORS
330
8ED
102
}
330
8ED
100
DictionaryVariables
280
     0
  1
1:1
  0
DICTIONARYVAR
  5
8EF
102
{ACAD_REACTORS
330
8ED
102
}
330
8ED
100
DictionaryVariables
280
     0
  1
STANDARD
  0
DICTIONARYVAR
  5
8EE
102
{ACAD_REACTORS
330
8ED
102
}
330
8ED
100
DictionaryVariables
280
     0
  1
STANDARD
  0
DICTIONARYVAR
  5
8F8
102
{ACAD_REACTORS
330
8ED
102
}
330
8ED
100
DictionaryVariables
280
     0
  1
1
  0
DICTIONARYVAR
  5
8F7
102
{ACAD_REACTORS
330
8ED
102
}
330
8ED
100
DictionaryVariables
280
     0
  1
1
  0
DICTIONARYVAR
  5
8F6
102
{ACAD_REACTORS
330
8ED
102
}
330
8ED
100
DictionaryVariables
280
     0
  1
0
  0
DICTIONARYVAR
  5
8F3
102
{ACAD_REACTORS
330
8ED
102
}
330
8ED
100
DictionaryVariables
280
     0
  1
0
  0
DICTIONARYVAR
  5
8F4
102
{ACAD_REACTORS
330
8ED
102
}
330
8ED
100
DictionaryVariables
280
     0
  1
0
  0
DICTIONARYVAR
  5
8F2
102
{ACAD_REACTORS
330
8ED
102
}
330
8ED
100
DictionaryVariables
280
     0
  1
2
  0
DICTIONARYVAR
  5
8F0
102
{ACAD_REACTORS
330
8ED
102
}
330
8ED
100
DictionaryVariables
280
     0
  1
1
  0
DICTIONARYVAR
  5
8F5
102
{ACAD_REACTORS
330
8ED
102
}
330
8ED
100
DictionaryVariables
280
     0
  1
127
  0
DICTIONARYVAR
  5
1265
102
{ACAD_REACTORS
330
8ED
102
}
330
8ED
100
DictionaryVariables
280
     0
  1
2
  0
DICTIONARY
  5
1225
102
{ACAD_REACTORS
330
121C
102
}
330
121C
100
AcDbDictionary
281
     1
  0
DICTIONARY
  5
12A9
330
6B
100
AcDbDictionary
280
     1
281
     1
  3
ACAD_XREC_ROUNDTRIP
360
12AA
  0
DICTIONARY
  5
12AD
330
73
100
AcDbDictionary
280
     1
281
     1
  3
ACAD_XREC_ROUNDTRIP
360
12AE
  0
DICTIONARY
  5
12AB
330
6F
100
AcDbDictionary
280
     1
281
     1
  3
ACAD_XREC_ROUNDTRIP
360
12AC
  0
DICTIONARY
  5
1A
330
19
100
AcDbDictionary
280
     1
281
     1
  3
ACAD_XREC_ROUNDTRIP
360
1276
  3
BUMPTILE
360
1C
  3
DIFFUSETILE
360
1B
  3
OPACITYTILE
360
1F
  3
REFLECTIONTILE
360
1E
  3
REFRACTIONTILE
360
20
  3
SPECULARTILE
360
1D
  0
DICTIONARY
  5
12
330
11
100
AcDbDictionary
280
     1
281
     1
  3
ACAD_XREC_ROUNDTRIP
360
1275
  3
BUMPTILE
360
14
  3
DIFFUSETILE
360
13
  3
OPACITYTILE
360
17
  3
REFLECTIONTILE
360
16
  3
REFRACTIONTILE
360
18
  3
SPECULARTILE
360
15
  0
DICTIONARY
  5
22
330
21
100
AcDbDictionary
280
     1
281
     1
  3
ACAD_XREC_ROUNDTRIP
360
1277
  3
BUMPTILE
360
24
  3
DIFFUSETILE
360
23
  3
OPACITYTILE
360
27
  3
REFLECTIONTILE
360
26
  3
REFRACTIONTILE
360
28
  3
SPECULARTILE
360
25
  0
DICTIONARY
  5
896
330
65
100
AcDbDictionary
280
     1
281
     1
  3
ACAD_ROUNDTRIP_2008_TABLESTYLE_CELLSTYLEMAP
360
1266
  3
ACAD_XREC_ROUNDTRIP
360
12A8
  0
DICTIONARY
  5
1282
330
2F
100
AcDbDictionary
280
     1
281
     1
  3
ACAD_XREC_ROUNDTRIP
360
1283
  0
DICTIONARY
  5
1280
330
2E
100
AcDbDictionary
280
     1
281
     1
  3
ACAD_XREC_ROUNDTRIP
360
1281
  0
DICTIONARY
  5
128E
330
35
100
AcDbDictionary
280
     1
281
     1
  3
ACAD_XREC_ROUNDTRIP
360
128F
  0
DICTIONARY
  5
1296
330
39
100
AcDbDictionary
280
     1
281
     1
  3
ACAD_XREC_ROUNDTRIP
360
1297
  0
DICTIONARY
  5
1288
330
32
100
AcDbDictionary
280
     1
281
     1
  3
ACAD_XREC_ROUNDTRIP
360
1289
  0
DICTIONARY
  5
128C
330
34
100
AcDbDictionary
280
     1
281
     1
  3
ACAD_XREC_ROUNDTRIP
360
128D
  0
DICTIONARY
  5
12A6
330
41
100
AcDbDictionary
280
     1
281
     1
  3
ACAD_XREC_ROUNDTRIP
360
12A7
  0
DICTIONARY
  5
1294
330
38
100
AcDbDictionary
280
     1
281
     1
  3
ACAD_XREC_ROUNDTRIP
360
1295
  0
DICTIONARY
  5
1278
330
2A
100
AcDbDictionary
280
     1
281
     1
  3
ACAD_XREC_ROUNDTRIP
360
1279
  0
DICTIONARY
  5
127A
330
2B
100
AcDbDictionary
280
     1
281
     1
  3
ACAD_XREC_ROUNDTRIP
360
127B
  0
DICTIONARY
  5
127C
330
2C
100
AcDbDictionary
280
     1
281
     1
  3
ACAD_XREC_ROUNDTRIP
360
127D
  0
DICTIONARY
  5
127E
330
2D
100
AcDbDictionary
280
     1
281
     1
  3
ACAD_XREC_ROUNDTRIP
360
127F
  0
DICTIONARY
  5
1286
330
31
100
AcDbDictionary
280
     1
281
     1
  3
ACAD_XREC_ROUNDTRIP
360
1287
  0
DICTIONARY
  5
12A2
330
3F
100
AcDbDictionary
280
     1
281
     1
  3
ACAD_XREC_ROUNDTRIP
360
12A3
  0
DICTIONARY
  5
1292
330
37
100
AcDbDictionary
280
     1
281
     1
  3
ACAD_XREC_ROUNDTRIP
360
1293
  0
DICTIONARY
  5
12A4
330
40
100
AcDbDictionary
280
     1
281
     1
  3
ACAD_XREC_ROUNDTRIP
360
12A5
  0
DICTIONARY
  5
128A
330
33
100
AcDbDictionary
280
     1
281
     1
  3
ACAD_XREC_ROUNDTRIP
360
128B
  0
DICTIONARY
  5
12A0
330
3E
100
AcDbDictionary
280
     1
281
     1
  3
ACAD_XREC_ROUNDTRIP
360
12A1
  0
DICTIONARY
  5
129E
330
3D
100
AcDbDictionary
280
     1
281
     1
  3
ACAD_XREC_ROUNDTRIP
360
129F
  0
DICTIONARY
  5
1298
330
3A
100
AcDbDictionary
280
     1
281
     1
  3
ACAD_XREC_ROUNDTRIP
360
1299
  0
DICTIONARY
  5
129A
330
3B
100
AcDbDictionary
280
     1
281
     1
  3
ACAD_XREC_ROUNDTRIP
360
129B
  0
DICTIONARY
  5
1290
330
36
100
AcDbDictionary
280
     1
281
     1
  3
ACAD_XREC_ROUNDTRIP
360
1291
  0
DICTIONARY
  5
1284
330
30
100
AcDbDictionary
280
     1
281
     1
  3
ACAD_XREC_ROUNDTRIP
360
1285
  0
DICTIONARY
  5
129C
330
3C
100
AcDbDictionary
280
     1
281
     1
  3
ACAD_XREC_ROUNDTRIP
360
129D
  0
XRECORD
  5
12AA
102
{ACAD_REACTORS
330
12A9
102
}
330
12A9
100
AcDbXrecord
280
     1
102
SHADEPLOT
 70
     0
102
SHADEPLOTRESLEVEL
 70
     2
102
SHADEPLOTCUSTOMDPI
 70
   300
  0
XRECORD
  5
12AE
102
{ACAD_REACTORS
330
12AD
102
}
330
12AD
100
AcDbXrecord
280
     1
102
SHADEPLOT
 70
     0
102
SHADEPLOTRESLEVEL
 70
     2
102
SHADEPLOTCUSTOMDPI
 70
   300
  0
XRECORD
  5
12AC
102
{ACAD_REACTORS
330
12AB
102
}
330
12AB
100
AcDbXrecord
280
     1
102
SHADEPLOT
 70
     0
102
SHADEPLOTRESLEVEL
 70
     2
102
SHADEPLOTCUSTOMDPI
 70
   300
  0
XRECORD
  5
1276
102
{ACAD_REACTORS
330
1A
102
}
330
1A
100
AcDbXrecord
280
     1
102
MATERIAL
148
0.0
149
0.0
149
0.0
 93
        0
 94
      127
282
     0
 72
     0
 77
     0
171
     0
175
     0
179
     0
273
     0
  0
XRECORD
  5
1C
102
{ACAD_REACTORS
330
1A
102
}
330
1A
100
AcDbXrecord
280
     1
270
     1
271
     1
  0
XRECORD
  5
1B
102
{ACAD_REACTORS
330
1A
102
}
330
1A
100
AcDbXrecord
280
     1
270
     1
271
     1
  0
XRECORD
  5
1F
102
{ACAD_REACTORS
330
1A
102
}
330
1A
100
AcDbXrecord
280
     1
270
     1
271
     1
  0
XRECORD
  5
1E
102
{ACAD_REACTORS
330
1A
102
}
330
1A
100
AcDbXrecord
280
     1
270
     1
271
     1
  0
XRECORD
  5
20
102
{ACAD_REACTORS
330
1A
102
}
330
1A
100
AcDbXrecord
280
     1
270
     1
271
     1
  0
XRECORD
  5
1D
102
{ACAD_REACTORS
330
1A
102
}
330
1A
100
AcDbXrecord
280
     1
270
     1
271
     1
  0
XRECORD
  5
1275
102
{ACAD_REACTORS
330
12
102
}
330
12
100
AcDbXrecord
280
     1
102
MATERIAL
148
0.0
149
0.0
149
0.0
 93
        0
 94
      127
282
     0
 72
     0
 77
     0
171
     0
175
     0
179
     0
273
     0
  0
XRECORD
  5
14
102
{ACAD_REACTORS
330
12
102
}
330
12
100
AcDbXrecord
280
     1
270
     1
271
     1
  0
XRECORD
  5
13
102
{ACAD_REACTORS
330
12
102
}
330
12
100
AcDbXrecord
280
     1
270
     1
271
     1
  0
XRECORD
  5
17
102
{ACAD_REACTORS
330
12
102
}
330
12
100
AcDbXrecord
280
     1
270
     1
271
     1
  0
XRECORD
  5
16
102
{ACAD_REACTORS
330
12
102
}
330
12
100
AcDbXrecord
280
     1
270
     1
271
     1
  0
XRECORD
  5
18
102
{ACAD_REACTORS
330
12
102
}
330
12
100
AcDbXrecord
280
     1
270
     1
271
     1
  0
XRECORD
  5
15
102
{ACAD_REACTORS
330
12
102
}
330
12
100
AcDbXrecord
280
     1
270
     1
271
     1
  0
XRECORD
  5
1277
102
{ACAD_REACTORS
330
22
102
}
330
22
100
AcDbXrecord
280
     1
102
MATERIAL
148
0.0
149
0.0
149
0.0
 93
        0
 94
      127
282
     0
 72
     0
 77
     0
171
     0
175
     0
179
     0
273
     0
  0
XRECORD
  5
24
102
{ACAD_REACTORS
330
22
102
}
330
22
100
AcDbXrecord
280
     1
270
     1
271
     1
  0
XRECORD
  5
23
102
{ACAD_REACTORS
330
22
102
}
330
22
100
AcDbXrecord
280
     1
270
     1
271
     1
  0
XRECORD
  5
27
102
{ACAD_REACTORS
330
22
102
}
330
22
100
AcDbXrecord
280
     1
270
     1
271
     1
  0
XRECORD
  5
26
102
{ACAD_REACTORS
330
22
102
}
330
22
100
AcDbXrecord
280
     1
270
     1
271
     1
  0
XRECORD
  5
28
102
{ACAD_REACTORS
330
22
102
}
330
22
100
AcDbXrecord
280
     1
270
     1
271
     1
  0
XRECORD
  5
25
102
{ACAD_REACTORS
330
22
102
}
330
22
100
AcDbXrecord
280
     1
270
     1
271
     1
  0
CELLSTYLEMAP
  5
1266
102
{ACAD_REACTORS
330
896
102
}
330
896
100
AcDbCellStyleMap
 90
        3
300
CELLSTYLE
  1
TABLEFORMAT_BEGIN
 90
        5
170
     1
 91
        0
 92
    32768
 62
   257
 93
        1
300
CONTENTFORMAT
  1
CONTENTFORMAT_BEGIN
 90
        0
 91
        0
 92
      512
 93
        0
300

 40
0.0
140
1.0
 94
        5
 62
     0
340
55
144
0.25
309
CONTENTFORMAT_END
171
     0
 94
        0
309
TABLEFORMAT_END
  1
CELLSTYLE_BEGIN
 90
        1
 91
        1
300
_TITLE
309
CELLSTYLE_END
300
CELLSTYLE
  1
TABLEFORMAT_BEGIN
 90
        5
170
     1
 91
        0
 92
        0
 62
   257
 93
        1
300
CONTENTFORMAT
  1
CONTENTFORMAT_BEGIN
 90
        0
 91
        0
 92
      512
 93
        0
300

 40
0.0
140
1.0
 94
        5
 62
     0
340
55
144
0.18
309
CONTENTFORMAT_END
171
     0
 94
        0
309
TABLEFORMAT_END
  1
CELLSTYLE_BEGIN
 90
        2
 91
        1
300
_HEADER
309
CELLSTYLE_END
300
CELLSTYLE
  1
TABLEFORMAT_BEGIN
 90
        5
170
     1
 91
        0
 92
        0
 62
   257
 93
        1
300
CONTENTFORMAT
  1
CONTENTFORMAT_BEGIN
 90
        0
 91
        0
 92
      512
 93
        0
300

 40
0.0
140
1.0
 94
        2
 62
     0
340
55
144
0.18
309
CONTENTFORMAT_END
171
     0
 94
        0
309
TABLEFORMAT_END
  1
CELLSTYLE_BEGIN
 90
        3
 91
        2
300
_DATA
309
CELLSTYLE_END
  0
XRECORD
  5
12A8
102
{ACAD_REACTORS
330
896
102
}
330
896
100
AcDbXrecord
280
     1
102
ACAD_ROUNDTRIP_PRE2007_TABLESTYLE
 90
      512
 91
        0
  1

 92
      512
 93
        0
  2

 94
      512
 95
        0
  3

  0
XRECORD
  5
1283
102
{ACAD_REACTORS
330
1282
102
}
330
1282
100
AcDbXrecord
280
     1
102
RTVSPropertyOp0
 70
     1
102
RTVSPropertyOp1
 70
     1
102
RTVSPropertyOp2
 70
     1
102
RTVSPropertyOp3
 70
     1
102
RTVSPropertyOp4
 70
     1
102
RTVSPropertyOp5
 70
     1
102
RTVSPropertyOp6
 70
     1
102
RTVSPropertyOp7
 70
     1
102
RTVSPropertyOp8
 70
     1
102
RTVSPropertyOp9
 70
     1
102
RTVSPropertyOp10
 70
     1
102
RTVSPropertyOp11
 70
     1
102
RTVSPropertyOp12
 70
     1
102
RTVSPropertyOp13
 70
     1
102
RTVSPropertyOp14
 70
     1
102
RTVSPropertyOp15
 70
     1
102
RTVSPropertyOp16
 70
     1
102
RTVSPropertyOp17
 70
     1
102
RTVSPropertyOp18
 70
     1
102
RTVSPropertyOp19
 70
     1
102
RTVSPropertyOp20
 70
     1
102
RTVSPropertyOp21
 70
     1
102
RTVSPropertyOp22
 70
     1
102
RTVSPropertyOp23
 70
     1
102
RTVSPropertyOp24
 70
     1
102
RTVSPropertyOp25
 70
     1
102
RTVSPropertyOp26
 70
     1
102
RTVSPropertyOp27
 70
     1
102
RTVSPropertyOp28
 70
     1
102
RTVSPropertyOp29
 70
     1
102
RTVSPropertyOp30
 70
     1
102
RTVSPropertyOp31
 70
     1
102
RTVSPropertyOp32
 70
     1
  0
XRECORD
  5
1281
102
{ACAD_REACTORS
330
1280
102
}
330
1280
100
AcDbXrecord
280
     1
102
RTVSPropertyOp0
 70
     1
102
RTVSPropertyOp1
 70
     1
102
RTVSPropertyOp2
 70
     1
102
RTVSPropertyOp3
 70
     1
102
RTVSPropertyOp4
 70
     1
102
RTVSPropertyOp5
 70
     1
102
RTVSPropertyOp6
 70
     1
102
RTVSPropertyOp7
 70
     1
102
RTVSPropertyOp8
 70
     1
102
RTVSPropertyOp9
 70
     1
102
RTVSPropertyOp10
 70
     1
102
RTVSPropertyOp11
 70
     1
102
RTVSPropertyOp12
 70
     1
102
RTVSPropertyOp13
 70
     1
102
RTVSPropertyOp14
 70
     1
102
RTVSPropertyOp15
 70
     1
102
RTVSPropertyOp16
 70
     1
102
RTVSPropertyOp17
 70
     1
102
RTVSPropertyOp18
 70
     1
102
RTVSPropertyOp19
 70
     1
102
RTVSPropertyOp20
 70
     1
102
RTVSPropertyOp21
 70
     1
102
RTVSPropertyOp22
 70
     1
102
RTVSPropertyOp23
 70
     1
102
RTVSPropertyOp24
 70
     1
102
RTVSPropertyOp25
 70
     1
102
RTVSPropertyOp26
 70
     1
102
RTVSPropertyOp27
 70
     1
102
RTVSPropertyOp28
 70
     1
102
RTVSPropertyOp29
 70
     1
102
RTVSPropertyOp30
 70
     1
102
RTVSPropertyOp31
 70
     1
102
RTVSPropertyOp32
 70
     1
  0
XRECORD
  5
128F
102
{ACAD_REACTORS
330
128E
102
}
330
128E
100
AcDbXrecord
280
     1
102
RTVSPropertyOp0
 70
     1
102
RTVSPropertyOp1
 70
     1
102
RTVSPropertyOp2
 70
     1
102
RTVSPropertyOp3
 70
     1
102
RTVSPropertyOp4
 70
     1
102
RTVSPropertyOp5
 70
     1
102
RTVSPropertyOp6
 70
     1
102
RTVSPropertyOp7
 70
     1
102
RTVSPropertyOp8
 70
     1
102
RTVSPropertyOp9
 70
     1
102
RTVSPropertyOp10
 70
     1
102
RTVSPropertyOp11
 70
     1
102
RTVSPropertyOp12
 70
     1
102
RTVSPropertyOp13
 70
     1
102
RTVSPropertyOp14
 70
     1
102
RTVSPropertyOp15
 70
     1
102
RTVSPropertyOp16
 70
     1
102
RTVSPropertyOp17
 70
     1
102
RTVSPropertyOp18
 70
     1
102
RTVSPropertyOp19
 70
     1
102
RTVSPropertyOp20
 70
     1
102
RTVSPropertyOp21
 70
     1
102
RTVSPropertyOp22
 70
     1
102
RTVSPropertyOp23
 70
     1
102
RTVSPropertyOp24
 70
     1
102
RTVSPropertyOp25
 70
     1
102
RTVSPropertyOp26
 70
     1
102
RTVSPropertyOp27
 70
     1
102
RTVSPropertyOp28
 70
     1
102
RTVSPropertyOp29
 70
     1
102
RTVSPropertyOp30
 70
     1
102
RTVSPropertyOp31
 70
     1
102
RTVSPropertyOp32
 70
     1
  0
XRECORD
  5
1297
102
{ACAD_REACTORS
330
1296
102
}
330
1296
100
AcDbXrecord
280
     1
102
RTVSPropertyOp0
 70
     1
102
RTVSPropertyOp1
 70
     1
102
RTVSPropertyOp2
 70
     1
102
RTVSPropertyOp3
 70
     1
102
RTVSPropertyOp4
 70
     1
102
RTVSPropertyOp5
 70
     1
102
RTVSPropertyOp6
 70
     1
102
RTVSPropertyOp7
 70
     1
102
RTVSPropertyOp8
 70
     1
102
RTVSPropertyOp9
 70
     1
102
RTVSPropertyOp10
 70
     1
102
RTVSPropertyOp11
 70
     1
102
RTVSPropertyOp12
 70
     1
102
RTVSPropertyOp13
 70
     1
102
RTVSPropertyOp14
 70
     1
102
RTVSPropertyOp15
 70
     1
102
RTVSPropertyOp16
 70
     1
102
RTVSPropertyOp17
 70
     1
102
RTVSPropertyOp18
 70
     1
102
RTVSPropertyOp19
 70
     1
102
RTVSPropertyOp20
 70
     1
102
RTVSPropertyOp21
 70
     1
102
RTVSPropertyOp22
 70
     1
102
RTVSPropertyOp23
 70
     1
102
RTVSPropertyOp24
 70
     1
102
RTVSPropertyOp25
 70
     1
102
RTVSPropertyOp26
 70
     1
102
RTVSPropertyOp27
 70
     1
102
RTVSPropertyOp28
 70
     1
102
RTVSPropertyOp29
 70
     1
102
RTVSPropertyOp30
 70
     1
102
RTVSPropertyOp31
 70
     1
102
RTVSPropertyOp32
 70
     1
  0
XRECORD
  5
1289
102
{ACAD_REACTORS
330
1288
102
}
330
1288
100
AcDbXrecord
280
     1
102
RTVSPropertyOp0
 70
     1
102
RTVSPropertyOp1
 70
     1
102
RTVSPropertyOp2
 70
     1
102
RTVSPropertyOp3
 70
     1
102
RTVSPropertyOp4
 70
     1
102
RTVSPropertyOp5
 70
     1
102
RTVSPropertyOp6
 70
     1
102
RTVSPropertyOp7
 70
     1
102
RTVSPropertyOp8
 70
     1
102
RTVSPropertyOp9
 70
     1
102
RTVSPropertyOp10
 70
     1
102
RTVSPropertyOp11
 70
     1
102
RTVSPropertyOp12
 70
     1
102
RTVSPropertyOp13
 70
     1
102
RTVSPropertyOp14
 70
     1
102
RTVSPropertyOp15
 70
     1
102
RTVSPropertyOp16
 70
     1
102
RTVSPropertyOp17
 70
     1
102
RTVSPropertyOp18
 70
     1
102
RTVSPropertyOp19
 70
     1
102
RTVSPropertyOp20
 70
     1
102
RTVSPropertyOp21
 70
     1
102
RTVSPropertyOp22
 70
     1
102
RTVSPropertyOp23
 70
     1
102
RTVSPropertyOp24
 70
     1
102
RTVSPropertyOp25
 70
     1
102
RTVSPropertyOp26
 70
     1
102
RTVSPropertyOp27
 70
     1
102
RTVSPropertyOp28
 70
     1
102
RTVSPropertyOp29
 70
     1
102
RTVSPropertyOp30
 70
     1
102
RTVSPropertyOp31
 70
     1
102
RTVSPropertyOp32
 70
     1
  0
XRECORD
  5
128D
102
{ACAD_REACTORS
330
128C
102
}
330
128C
100
AcDbXrecord
280
     1
102
RTVSPropertyOp0
 70
     1
102
RTVSPropertyOp1
 70
     1
102
RTVSPropertyOp2
 70
     1
102
RTVSPropertyOp3
 70
     1
102
RTVSPropertyOp4
 70
     1
102
RTVSPropertyOp5
 70
     1
102
RTVSPropertyOp6
 70
     1
102
RTVSPropertyOp7
 70
     1
102
RTVSPropertyOp8
 70
     1
102
RTVSPropertyOp9
 70
     1
102
RTVSPropertyOp10
 70
     1
102
RTVSPropertyOp11
 70
     1
102
RTVSPropertyOp12
 70
     1
102
RTVSPropertyOp13
 70
     1
102
RTVSPropertyOp14
 70
     1
102
RTVSPropertyOp15
 70
     1
102
RTVSPropertyOp16
 70
     1
102
RTVSPropertyOp17
 70
     1
102
RTVSPropertyOp18
 70
     1
102
RTVSPropertyOp19
 70
     1
102
RTVSPropertyOp20
 70
     1
102
RTVSPropertyOp21
 70
     1
102
RTVSPropertyOp22
 70
     1
102
RTVSPropertyOp23
 70
     1
102
RTVSPropertyOp24
 70
     1
102
RTVSPropertyOp25
 70
     1
102
RTVSPropertyOp26
 70
     1
102
RTVSPropertyOp27
 70
     1
102
RTVSPropertyOp28
 70
     1
102
RTVSPropertyOp29
 70
     1
102
RTVSPropertyOp30
 70
     1
102
RTVSPropertyOp31
 70
     1
102
RTVSPropertyOp32
 70
     1
  0
XRECORD
  5
12A7
102
{ACAD_REACTORS
330
12A6
102
}
330
12A6
100
AcDbXrecord
280
     1
102
RTVSPropertyOp0
 70
     0
102
RTVSPropertyOp1
 70
     0
102
RTVSPropertyOp2
 70
     0
102
RTVSPropertyOp3
 70
     0
102
RTVSPropertyOp4
 70
     0
102
RTVSPropertyOp5
 70
     0
102
RTVSPropertyOp6
 70
     0
102
RTVSPropertyOp7
 70
     0
102
RTVSPropertyOp8
 70
     0
102
RTVSPropertyOp9
 70
     0
102
RTVSPropertyOp10
 70
     0
102
RTVSPropertyOp11
 70
     0
102
RTVSPropertyOp12
 70
     0
102
RTVSPropertyOp13
 70
     0
102
RTVSPropertyOp14
 70
     2
102
RTVSPropertyOp15
 70
     0
102
RTVSPropertyOp16
 70
     0
102
RTVSPropertyOp17
 70
     0
102
RTVSPropertyOp18
 70
     0
102
RTVSPropertyOp19
 70
     0
102
RTVSPropertyOp20
 70
     0
102
RTVSPropertyOp21
 70
     0
102
RTVSPropertyOp22
 70
     0
102
RTVSPropertyOp23
 70
     0
102
RTVSPropertyOp24
 70
     0
102
RTVSPropertyOp25
 70
     0
102
RTVSPropertyOp26
 70
     0
102
RTVSPropertyOp27
 70
     0
102
RTVSPropertyOp28
 70
     0
102
RTVSPropertyOp29
 70
     0
102
RTVSPropertyOp30
 70
     0
102
RTVSPropertyOp31
 70
     0
102
RTVSPropertyOp32
 70
     0
  0
XRECORD
  5
1295
102
{ACAD_REACTORS
330
1294
102
}
330
1294
100
AcDbXrecord
280
     1
102
RTVSPropertyOp0
 70
     1
102
RTVSPropertyOp1
 70
     1
102
RTVSPropertyOp2
 70
     1
102
RTVSPropertyOp3
 70
     1
102
RTVSPropertyOp4
 70
     1
102
RTVSPropertyOp5
 70
     1
102
RTVSPropertyOp6
 70
     1
102
RTVSPropertyOp7
 70
     1
102
RTVSPropertyOp8
 70
     1
102
RTVSPropertyOp9
 70
     1
102
RTVSPropertyOp10
 70
     1
102
RTVSPropertyOp11
 70
     1
102
RTVSPropertyOp12
 70
     1
102
RTVSPropertyOp13
 70
     1
102
RTVSPropertyOp14
 70
     1
102
RTVSPropertyOp15
 70
     1
102
RTVSPropertyOp16
 70
     1
102
RTVSPropertyOp17
 70
     1
102
RTVSPropertyOp18
 70
     1
102
RTVSPropertyOp19
 70
     1
102
RTVSPropertyOp20
 70
     1
102
RTVSPropertyOp21
 70
     1
102
RTVSPropertyOp22
 70
     1
102
RTVSPropertyOp23
 70
     1
102
RTVSPropertyOp24
 70
     1
102
RTVSPropertyOp25
 70
     1
102
RTVSPropertyOp26
 70
     1
102
RTVSPropertyOp27
 70
     1
102
RTVSPropertyOp28
 70
     1
102
RTVSPropertyOp29
 70
     1
102
RTVSPropertyOp30
 70
     1
102
RTVSPropertyOp31
 70
     1
102
RTVSPropertyOp32
 70
     1
  0
XRECORD
  5
1279
102
{ACAD_REACTORS
330
1278
102
}
330
1278
100
AcDbXrecord
280
     1
102
RTVSPropertyOp0
 70
     1
102
RTVSPropertyOp1
 70
     1
102
RTVSPropertyOp2
 70
     1
102
RTVSPropertyOp3
 70
     1
102
RTVSPropertyOp4
 70
     1
102
RTVSPropertyOp5
 70
     1
102
RTVSPropertyOp6
 70
     1
102
RTVSPropertyOp7
 70
     1
102
RTVSPropertyOp8
 70
     1
102
RTVSPropertyOp9
 70
     1
102
RTVSPropertyOp10
 70
     1
102
RTVSPropertyOp11
 70
     1
102
RTVSPropertyOp12
 70
     1
102
RTVSPropertyOp13
 70
     1
102
RTVSPropertyOp14
 70
     1
102
RTVSPropertyOp15
 70
     1
102
RTVSPropertyOp16
 70
     1
102
RTVSPropertyOp17
 70
     1
102
RTVSPropertyOp18
 70
     1
102
RTVSPropertyOp19
 70
     1
102
RTVSPropertyOp20
 70
     1
102
RTVSPropertyOp21
 70
     1
102
RTVSPropertyOp22
 70
     1
102
RTVSPropertyOp23
 70
     1
102
RTVSPropertyOp24
 70
     1
102
RTVSPropertyOp25
 70
     1
102
RTVSPropertyOp26
 70
     1
102
RTVSPropertyOp27
 70
     1
102
RTVSPropertyOp28
 70
     1
102
RTVSPropertyOp29
 70
     1
102
RTVSPropertyOp30
 70
     1
102
RTVSPropertyOp31
 70
     1
102
RTVSPropertyOp32
 70
     1
  0
XRECORD
  5
127B
102
{ACAD_REACTORS
330
127A
102
}
330
127A
100
AcDbXrecord
280
     1
102
RTVSPropertyOp0
 70
     1
102
RTVSPropertyOp1
 70
     1
102
RTVSPropertyOp2
 70
     1
102
RTVSPropertyOp3
 70
     1
102
RTVSPropertyOp4
 70
     1
102
RTVSPropertyOp5
 70
     1
102
RTVSPropertyOp6
 70
     1
102
RTVSPropertyOp7
 70
     1
102
RTVSPropertyOp8
 70
     1
102
RTVSPropertyOp9
 70
     1
102
RTVSPropertyOp10
 70
     1
102
RTVSPropertyOp11
 70
     1
102
RTVSPropertyOp12
 70
     1
102
RTVSPropertyOp13
 70
     1
102
RTVSPropertyOp14
 70
     1
102
RTVSPropertyOp15
 70
     1
102
RTVSPropertyOp16
 70
     1
102
RTVSPropertyOp17
 70
     1
102
RTVSPropertyOp18
 70
     1
102
RTVSPropertyOp19
 70
     1
102
RTVSPropertyOp20
 70
     1
102
RTVSPropertyOp21
 70
     1
102
RTVSPropertyOp22
 70
     1
102
RTVSPropertyOp23
 70
     1
102
RTVSPropertyOp24
 70
     1
102
RTVSPropertyOp25
 70
     1
102
RTVSPropertyOp26
 70
     1
102
RTVSPropertyOp27
 70
     1
102
RTVSPropertyOp28
 70
     1
102
RTVSPropertyOp29
 70
     1
102
RTVSPropertyOp30
 70
     1
102
RTVSPropertyOp31
 70
     1
102
RTVSPropertyOp32
 70
     1
  0
XRECORD
  5
127D
102
{ACAD_REACTORS
330
127C
102
}
330
127C
100
AcDbXrecord
280
     1
102
RTVSPropertyOp0
 70
     1
102
RTVSPropertyOp1
 70
     1
102
RTVSPropertyOp2
 70
     1
102
RTVSPropertyOp3
 70
     1
102
RTVSPropertyOp4
 70
     1
102
RTVSPropertyOp5
 70
     1
102
RTVSPropertyOp6
 70
     1
102
RTVSPropertyOp7
 70
     1
102
RTVSPropertyOp8
 70
     1
102
RTVSPropertyOp9
 70
     1
102
RTVSPropertyOp10
 70
     1
102
RTVSPropertyOp11
 70
     1
102
RTVSPropertyOp12
 70
     1
102
RTVSPropertyOp13
 70
     1
102
RTVSPropertyOp14
 70
     1
102
RTVSPropertyOp15
 70
     1
102
RTVSPropertyOp16
 70
     1
102
RTVSPropertyOp17
 70
     1
102
RTVSPropertyOp18
 70
     1
102
RTVSPropertyOp19
 70
     1
102
RTVSPropertyOp20
 70
     1
102
RTVSPropertyOp21
 70
     1
102
RTVSPropertyOp22
 70
     1
102
RTVSPropertyOp23
 70
     1
102
RTVSPropertyOp24
 70
     1
102
RTVSPropertyOp25
 70
     1
102
RTVSPropertyOp26
 70
     1
102
RTVSPropertyOp27
 70
     1
102
RTVSPropertyOp28
 70
     1
102
RTVSPropertyOp29
 70
     1
102
RTVSPropertyOp30
 70
     1
102
RTVSPropertyOp31
 70
     1
102
RTVSPropertyOp32
 70
     1
  0
XRECORD
  5
127F
102
{ACAD_REACTORS
330
127E
102
}
330
127E
100
AcDbXrecord
280
     1
102
RTVSPropertyOp0
 70
     1
102
RTVSPropertyOp1
 70
     1
102
RTVSPropertyOp2
 70
     1
102
RTVSPropertyOp3
 70
     1
102
RTVSPropertyOp4
 70
     1
102
RTVSPropertyOp5
 70
     1
102
RTVSPropertyOp6
 70
     1
102
RTVSPropertyOp7
 70
     1
102
RTVSPropertyOp8
 70
     1
102
RTVSPropertyOp9
 70
     1
102
RTVSPropertyOp10
 70
     1
102
RTVSPropertyOp11
 70
     1
102
RTVSPropertyOp12
 70
     1
102
RTVSPropertyOp13
 70
     1
102
RTVSPropertyOp14
 70
     1
102
RTVSPropertyOp15
 70
     1
102
RTVSPropertyOp16
 70
     1
102
RTVSPropertyOp17
 70
     1
102
RTVSPropertyOp18
 70
     1
102
RTVSPropertyOp19
 70
     1
102
RTVSPropertyOp20
 70
     1
102
RTVSPropertyOp21
 70
     1
102
RTVSPropertyOp22
 70
     1
102
RTVSPropertyOp23
 70
     1
102
RTVSPropertyOp24
 70
     1
102
RTVSPropertyOp25
 70
     1
102
RTVSPropertyOp26
 70
     1
102
RTVSPropertyOp27
 70
     1
102
RTVSPropertyOp28
 70
     1
102
RTVSPropertyOp29
 70
     1
102
RTVSPropertyOp30
 70
     1
102
RTVSPropertyOp31
 70
     1
102
RTVSPropertyOp32
 70
     1
  0
XRECORD
  5
1287
102
{ACAD_REACTORS
330
1286
102
}
330
1286
100
AcDbXrecord
280
     1
102
RTVSPropertyOp0
 70
     1
102
RTVSPropertyOp1
 70
     1
102
RTVSPropertyOp2
 70
     1
102
RTVSPropertyOp3
 70
     1
102
RTVSPropertyOp4
 70
     1
102
RTVSPropertyOp5
 70
     1
102
RTVSPropertyOp6
 70
     1
102
RTVSPropertyOp7
 70
     1
102
RTVSPropertyOp8
 70
     1
102
RTVSPropertyOp9
 70
     1
102
RTVSPropertyOp10
 70
     1
102
RTVSPropertyOp11
 70
     1
102
RTVSPropertyOp12
 70
     1
102
RTVSPropertyOp13
 70
     1
102
RTVSPropertyOp14
 70
     1
102
RTVSPropertyOp15
 70
     1
102
RTVSPropertyOp16
 70
     1
102
RTVSPropertyOp17
 70
     1
102
RTVSPropertyOp18
 70
     1
102
RTVSPropertyOp19
 70
     1
102
RTVSPropertyOp20
 70
     1
102
RTVSPropertyOp21
 70
     1
102
RTVSPropertyOp22
 70
     1
102
RTVSPropertyOp23
 70
     1
102
RTVSPropertyOp24
 70
     1
102
RTVSPropertyOp25
 70
     1
102
RTVSPropertyOp26
 70
     1
102
RTVSPropertyOp27
 70
     1
102
RTVSPropertyOp28
 70
     1
102
RTVSPropertyOp29
 70
     1
102
RTVSPropertyOp30
 70
     1
102
RTVSPropertyOp31
 70
     1
102
RTVSPropertyOp32
 70
     1
  0
XRECORD
  5
12A3
102
{ACAD_REACTORS
330
12A2
102
}
330
12A2
100
AcDbXrecord
280
     1
102
RTVSPropertyOp0
 70
     0
102
RTVSPropertyOp1
 70
     0
102
RTVSPropertyOp2
 70
     0
102
RTVSPropertyOp3
 70
     0
102
RTVSPropertyOp4
 70
     0
102
RTVSPropertyOp5
 70
     0
102
RTVSPropertyOp6
 70
     0
102
RTVSPropertyOp7
 70
     0
102
RTVSPropertyOp8
 70
     0
102
RTVSPropertyOp9
 70
     0
102
RTVSPropertyOp10
 70
     0
102
RTVSPropertyOp11
 70
     0
102
RTVSPropertyOp12
 70
     0
102
RTVSPropertyOp13
 70
     0
102
RTVSPropertyOp14
 70
     2
102
RTVSPropertyOp15
 70
     0
102
RTVSPropertyOp16
 70
     0
102
RTVSPropertyOp17
 70
     0
102
RTVSPropertyOp18
 70
     0
102
RTVSPropertyOp19
 70
     0
102
RTVSPropertyOp20
 70
     0
102
RTVSPropertyOp21
 70
     0
102
RTVSPropertyOp22
 70
     0
102
RTVSPropertyOp23
 70
     0
102
RTVSPropertyOp24
 70
     0
102
RTVSPropertyOp25
 70
     0
102
RTVSPropertyOp26
 70
     0
102
RTVSPropertyOp27
 70
     0
102
RTVSPropertyOp28
 70
     0
102
RTVSPropertyOp29
 70
     0
102
RTVSPropertyOp30
 70
     0
102
RTVSPropertyOp31
 70
     0
102
RTVSPropertyOp32
 70
     0
  0
XRECORD
  5
1293
102
{ACAD_REACTORS
330
1292
102
}
330
1292
100
AcDbXrecord
280
     1
102
RTVSPropertyOp0
 70
     1
102
RTVSPropertyOp1
 70
     1
102
RTVSPropertyOp2
 70
     1
102
RTVSPropertyOp3
 70
     1
102
RTVSPropertyOp4
 70
     1
102
RTVSPropertyOp5
 70
     1
102
RTVSPropertyOp6
 70
     1
102
RTVSPropertyOp7
 70
     1
102
RTVSPropertyOp8
 70
     1
102
RTVSPropertyOp9
 70
     1
102
RTVSPropertyOp10
 70
     1
102
RTVSPropertyOp11
 70
     1
102
RTVSPropertyOp12
 70
     1
102
RTVSPropertyOp13
 70
     1
102
RTVSPropertyOp14
 70
     1
102
RTVSPropertyOp15
 70
     1
102
RTVSPropertyOp16
 70
     1
102
RTVSPropertyOp17
 70
     1
102
RTVSPropertyOp18
 70
     1
102
RTVSPropertyOp19
 70
     1
102
RTVSPropertyOp20
 70
     1
102
RTVSPropertyOp21
 70
     1
102
RTVSPropertyOp22
 70
     1
102
RTVSPropertyOp23
 70
     1
102
RTVSPropertyOp24
 70
     1
102
RTVSPropertyOp25
 70
     1
102
RTVSPropertyOp26
 70
     1
102
RTVSPropertyOp27
 70
     1
102
RTVSPropertyOp28
 70
     1
102
RTVSPropertyOp29
 70
     1
102
RTVSPropertyOp30
 70
     1
102
RTVSPropertyOp31
 70
     1
102
RTVSPropertyOp32
 70
     1
  0
XRECORD
  5
12A5
102
{ACAD_REACTORS
330
12A4
102
}
330
12A4
100
AcDbXrecord
280
     1
102
RTVSPropertyOp0
 70
     0
102
RTVSPropertyOp1
 70
     0
102
RTVSPropertyOp2
 70
     0
102
RTVSPropertyOp3
 70
     0
102
RTVSPropertyOp4
 70
     0
102
RTVSPropertyOp5
 70
     0
102
RTVSPropertyOp6
 70
     0
102
RTVSPropertyOp7
 70
     0
102
RTVSPropertyOp8
 70
     0
102
RTVSPropertyOp9
 70
     0
102
RTVSPropertyOp10
 70
     0
102
RTVSPropertyOp11
 70
     0
102
RTVSPropertyOp12
 70
     0
102
RTVSPropertyOp13
 70
     0
102
RTVSPropertyOp14
 70
     2
102
RTVSPropertyOp15
 70
     0
102
RTVSPropertyOp16
 70
     0
102
RTVSPropertyOp17
 70
     0
102
RTVSPropertyOp18
 70
     0
102
RTVSPropertyOp19
 70
     0
102
RTVSPropertyOp20
 70
     0
102
RTVSPropertyOp21
 70
     0
102
RTVSPropertyOp22
 70
     0
102
RTVSPropertyOp23
 70
     0
102
RTVSPropertyOp24
 70
     0
102
RTVSPropertyOp25
 70
     0
102
RTVSPropertyOp26
 70
     0
102
RTVSPropertyOp27
 70
     0
102
RTVSPropertyOp28
 70
     0
102
RTVSPropertyOp29
 70
     0
102
RTVSPropertyOp30
 70
     0
102
RTVSPropertyOp31
 70
     0
102
RTVSPropertyOp32
 70
     0
  0
XRECORD
  5
128B
102
{ACAD_REACTORS
330
128A
102
}
330
128A
100
AcDbXrecord
280
     1
102
RTVSPropertyOp0
 70
     1
102
RTVSPropertyOp1
 70
     1
102
RTVSPropertyOp2
 70
     1
102
RTVSPropertyOp3
 70
     1
102
RTVSPropertyOp4
 70
     1
102
RTVSPropertyOp5
 70
     1
102
RTVSPropertyOp6
 70
     1
102
RTVSPropertyOp7
 70
     1
102
RTVSPropertyOp8
 70
     1
102
RTVSPropertyOp9
 70
     1
102
RTVSPropertyOp10
 70
     1
102
RTVSPropertyOp11
 70
     1
102
RTVSPropertyOp12
 70
     1
102
RTVSPropertyOp13
 70
     1
102
RTVSPropertyOp14
 70
     1
102
RTVSPropertyOp15
 70
     1
102
RTVSPropertyOp16
 70
     1
102
RTVSPropertyOp17
 70
     1
102
RTVSPropertyOp18
 70
     1
102
RTVSPropertyOp19
 70
     1
102
RTVSPropertyOp20
 70
     1
102
RTVSPropertyOp21
 70
     1
102
RTVSPropertyOp22
 70
     1
102
RTVSPropertyOp23
 70
     1
102
RTVSPropertyOp24
 70
     1
102
RTVSPropertyOp25
 70
     1
102
RTVSPropertyOp26
 70
     1
102
RTVSPropertyOp27
 70
     1
102
RTVSPropertyOp28
 70
     1
102
RTVSPropertyOp29
 70
     1
102
RTVSPropertyOp30
 70
     1
102
RTVSPropertyOp31
 70
     1
102
RTVSPropertyOp32
 70
     1
  0
XRECORD
  5
12A1
102
{ACAD_REACTORS
330
12A0
102
}
330
12A0
100
AcDbXrecord
280
     1
102
RTVSPropertyOp0
 70
     1
102
RTVSPropertyOp1
 70
     1
102
RTVSPropertyOp2
 70
     1
102
RTVSPropertyOp3
 70
     1
102
RTVSPropertyOp4
 70
     1
102
RTVSPropertyOp5
 70
     1
102
RTVSPropertyOp6
 70
     1
102
RTVSPropertyOp7
 70
     1
102
RTVSPropertyOp8
 70
     1
102
RTVSPropertyOp9
 70
     1
102
RTVSPropertyOp10
 70
     1
102
RTVSPropertyOp11
 70
     1
102
RTVSPropertyOp12
 70
     1
102
RTVSPropertyOp13
 70
     1
102
RTVSPropertyOp14
 70
     1
102
RTVSPropertyOp15
 70
     1
102
RTVSPropertyOp16
 70
     1
102
RTVSPropertyOp17
 70
     1
102
RTVSPropertyOp18
 70
     1
102
RTVSPropertyOp19
 70
     1
102
RTVSPropertyOp20
 70
     1
102
RTVSPropertyOp21
 70
     1
102
RTVSPropertyOp22
 70
     1
102
RTVSPropertyOp23
 70
     1
102
RTVSPropertyOp24
 70
     1
102
RTVSPropertyOp25
 70
     1
102
RTVSPropertyOp26
 70
     1
102
RTVSPropertyOp27
 70
     1
102
RTVSPropertyOp28
 70
     1
102
RTVSPropertyOp29
 70
     1
102
RTVSPropertyOp30
 70
     1
102
RTVSPropertyOp31
 70
     1
102
RTVSPropertyOp32
 70
     1
  0
XRECORD
  5
129F
102
{ACAD_REACTORS
330
129E
102
}
330
129E
100
AcDbXrecord
280
     1
102
RTVSPropertyOp0
 70
     1
102
RTVSPropertyOp1
 70
     1
102
RTVSPropertyOp2
 70
     1
102
RTVSPropertyOp3
 70
     1
102
RTVSPropertyOp4
 70
     1
102
RTVSPropertyOp5
 70
     1
102
RTVSPropertyOp6
 70
     1
102
RTVSPropertyOp7
 70
     1
102
RTVSPropertyOp8
 70
     1
102
RTVSPropertyOp9
 70
     1
102
RTVSPropertyOp10
 70
     1
102
RTVSPropertyOp11
 70
     1
102
RTVSPropertyOp12
 70
     1
102
RTVSPropertyOp13
 70
     1
102
RTVSPropertyOp14
 70
     1
102
RTVSPropertyOp15
 70
     1
102
RTVSPropertyOp16
 70
     1
102
RTVSPropertyOp17
 70
     1
102
RTVSPropertyOp18
 70
     1
102
RTVSPropertyOp19
 70
     1
102
RTVSPropertyOp20
 70
     1
102
RTVSPropertyOp21
 70
     1
102
RTVSPropertyOp22
 70
     1
102
RTVSPropertyOp23
 70
     1
102
RTVSPropertyOp24
 70
     1
102
RTVSPropertyOp25
 70
     1
102
RTVSPropertyOp26
 70
     1
102
RTVSPropertyOp27
 70
     1
102
RTVSPropertyOp28
 70
     1
102
RTVSPropertyOp29
 70
     1
102
RTVSPropertyOp30
 70
     1
102
RTVSPropertyOp31
 70
     1
102
RTVSPropertyOp32
 70
     1
  0
XRECORD
  5
1299
102
{ACAD_REACTORS
330
1298
102
}
330
1298
100
AcDbXrecord
280
     1
102
RTVSPropertyOp0
 70
     1
102
RTVSPropertyOp1
 70
     1
102
RTVSPropertyOp2
 70
     1
102
RTVSPropertyOp3
 70
     1
102
RTVSPropertyOp4
 70
     1
102
RTVSPropertyOp5
 70
     1
102
RTVSPropertyOp6
 70
     1
102
RTVSPropertyOp7
 70
     1
102
RTVSPropertyOp8
 70
     1
102
RTVSPropertyOp9
 70
     1
102
RTVSPropertyOp10
 70
     1
102
RTVSPropertyOp11
 70
     1
102
RTVSPropertyOp12
 70
     1
102
RTVSPropertyOp13
 70
     1
102
RTVSPropertyOp14
 70
     1
102
RTVSPropertyOp15
 70
     1
102
RTVSPropertyOp16
 70
     1
102
RTVSPropertyOp17
 70
     1
102
RTVSPropertyOp18
 70
     1
102
RTVSPropertyOp19
 70
     1
102
RTVSPropertyOp20
 70
     1
102
RTVSPropertyOp21
 70
     1
102
RTVSPropertyOp22
 70
     1
102
RTVSPropertyOp23
 70
     1
102
RTVSPropertyOp24
 70
     1
102
RTVSPropertyOp25
 70
     1
102
RTVSPropertyOp26
 70
     1
102
RTVSPropertyOp27
 70
     1
102
RTVSPropertyOp28
 70
     1
102
RTVSPropertyOp29
 70
     1
102
RTVSPropertyOp30
 70
     1
102
RTVSPropertyOp31
 70
     1
102
RTVSPropertyOp32
 70
     1
  0
XRECORD
  5
129B
102
{ACAD_REACTORS
330
129A
102
}
330
129A
100
AcDbXrecord
280
     1
102
RTVSPropertyOp0
 70
     1
102
RTVSPropertyOp1
 70
     1
102
RTVSPropertyOp2
 70
     1
102
RTVSPropertyOp3
 70
     1
102
RTVSPropertyOp4
 70
     1
102
RTVSPropertyOp5
 70
     1
102
RTVSPropertyOp6
 70
     1
102
RTVSPropertyOp7
 70
     1
102
RTVSPropertyOp8
 70
     1
102
RTVSPropertyOp9
 70
     1
102
RTVSPropertyOp10
 70
     1
102
RTVSPropertyOp11
 70
     1
102
RTVSPropertyOp12
 70
     1
102
RTVSPropertyOp13
 70
     1
102
RTVSPropertyOp14
 70
     1
102
RTVSPropertyOp15
 70
     1
102
RTVSPropertyOp16
 70
     1
102
RTVSPropertyOp17
 70
     1
102
RTVSPropertyOp18
 70
     1
102
RTVSPropertyOp19
 70
     1
102
RTVSPropertyOp20
 70
     1
102
RTVSPropertyOp21
 70
     1
102
RTVSPropertyOp22
 70
     1
102
RTVSPropertyOp23
 70
     1
102
RTVSPropertyOp24
 70
     1
102
RTVSPropertyOp25
 70
     1
102
RTVSPropertyOp26
 70
     1
102
RTVSPropertyOp27
 70
     1
102
RTVSPropertyOp28
 70
     1
102
RTVSPropertyOp29
 70
     1
102
RTVSPropertyOp30
 70
     1
102
RTVSPropertyOp31
 70
     1
102
RTVSPropertyOp32
 70
     1
  0
XRECORD
  5
1291
102
{ACAD_REACTORS
330
1290
102
}
330
1290
100
AcDbXrecord
280
     1
102
RTVSPropertyOp0
 70
     1
102
RTVSPropertyOp1
 70
     1
102
RTVSPropertyOp2
 70
     1
102
RTVSPropertyOp3
 70
     1
102
RTVSPropertyOp4
 70
     1
102
RTVSPropertyOp5
 70
     1
102
RTVSPropertyOp6
 70
     1
102
RTVSPropertyOp7
 70
     1
102
RTVSPropertyOp8
 70
     1
102
RTVSPropertyOp9
 70
     1
102
RTVSPropertyOp10
 70
     1
102
RTVSPropertyOp11
 70
     1
102
RTVSPropertyOp12
 70
     1
102
RTVSPropertyOp13
 70
     1
102
RTVSPropertyOp14
 70
     1
102
RTVSPropertyOp15
 70
     1
102
RTVSPropertyOp16
 70
     1
102
RTVSPropertyOp17
 70
     1
102
RTVSPropertyOp18
 70
     1
102
RTVSPropertyOp19
 70
     1
102
RTVSPropertyOp20
 70
     1
102
RTVSPropertyOp21
 70
     1
102
RTVSPropertyOp22
 70
     1
102
RTVSPropertyOp23
 70
     1
102
RTVSPropertyOp24
 70
     1
102
RTVSPropertyOp25
 70
     1
102
RTVSPropertyOp26
 70
     1
102
RTVSPropertyOp27
 70
     1
102
RTVSPropertyOp28
 70
     1
102
RTVSPropertyOp29
 70
     1
102
RTVSPropertyOp30
 70
     1
102
RTVSPropertyOp31
 70
     1
102
RTVSPropertyOp32
 70
     1
  0
XRECORD
  5
1285
102
{ACAD_REACTORS
330
1284
102
}
330
1284
100
AcDbXrecord
280
     1
102
RTVSPropertyOp0
 70
     1
102
RTVSPropertyOp1
 70
     1
102
RTVSPropertyOp2
 70
     1
102
RTVSPropertyOp3
 70
     1
102
RTVSPropertyOp4
 70
     1
102
RTVSPropertyOp5
 70
     1
102
RTVSPropertyOp6
 70
     1
102
RTVSPropertyOp7
 70
     1
102
RTVSPropertyOp8
 70
     1
102
RTVSPropertyOp9
 70
     1
102
RTVSPropertyOp10
 70
     1
102
RTVSPropertyOp11
 70
     1
102
RTVSPropertyOp12
 70
     1
102
RTVSPropertyOp13
 70
     1
102
RTVSPropertyOp14
 70
     1
102
RTVSPropertyOp15
 70
     1
102
RTVSPropertyOp16
 70
     1
102
RTVSPropertyOp17
 70
     1
102
RTVSPropertyOp18
 70
     1
102
RTVSPropertyOp19
 70
     1
102
RTVSPropertyOp20
 70
     1
102
RTVSPropertyOp21
 70
     1
102
RTVSPropertyOp22
 70
     1
102
RTVSPropertyOp23
 70
     1
102
RTVSPropertyOp24
 70
     1
102
RTVSPropertyOp25
 70
     1
102
RTVSPropertyOp26
 70
     1
102
RTVSPropertyOp27
 70
     1
102
RTVSPropertyOp28
 70
     1
102
RTVSPropertyOp29
 70
     1
102
RTVSPropertyOp30
 70
     1
102
RTVSPropertyOp31
 70
     1
102
RTVSPropertyOp32
 70
     1
  0
XRECORD
  5
129D
102
{ACAD_REACTORS
330
129C
102
}
330
129C
100
AcDbXrecord
280
     1
102
RTVSPropertyOp0
 70
     1
102
RTVSPropertyOp1
 70
     1
102
RTVSPropertyOp2
 70
     1
102
RTVSPropertyOp3
 70
     1
102
RTVSPropertyOp4
 70
     1
102
RTVSPropertyOp5
 70
     1
102
RTVSPropertyOp6
 70
     1
102
RTVSPropertyOp7
 70
     1
102
RTVSPropertyOp8
 70
     1
102
RTVSPropertyOp9
 70
     1
102
RTVSPropertyOp10
 70
     1
102
RTVSPropertyOp11
 70
     1
102
RTVSPropertyOp12
 70
     1
102
RTVSPropertyOp13
 70
     1
102
RTVSPropertyOp14
 70
     1
102
RTVSPropertyOp15
 70
     1
102
RTVSPropertyOp16
 70
     1
102
RTVSPropertyOp17
 70
     1
102
RTVSPropertyOp18
 70
     1
102
RTVSPropertyOp19
 70
     1
102
RTVSPropertyOp20
 70
     1
102
RTVSPropertyOp21
 70
     1
102
RTVSPropertyOp22
 70
     1
102
RTVSPropertyOp23
 70
     1
102
RTVSPropertyOp24
 70
     1
102
RTVSPropertyOp25
 70
     1
102
RTVSPropertyOp26
 70
     1
102
RTVSPropertyOp27
 70
     1
102
RTVSPropertyOp28
 70
     1
102
RTVSPropertyOp29
 70
     1
102
RTVSPropertyOp30
 70
     1
102
RTVSPropertyOp31
 70
     1
102
RTVSPropertyOp32
 70
     1
  0
ENDSEC
  0
EOF
