  0
SECTION
  2
HEADER
  9
$ACADVER
  1
AC1015
  9
$ACADMAINTVER
 70
    20
  9
$DWGCODEPAGE
  3
ANSI_1250
  9
$INSBASE
 10
0.0
 20
0.0
 30
0.0
  9
$EXTMIN
 10
14248.7845750305
 20
-15.71524430651483
 30
0.0
  9
$EXTMAX
 10
18386.53458701289
 20
5076.585442983989
 30
0.0
  9
$LIMMIN
 10
0.0
 20
0.0
  9
$LIMMAX
 10
14850.0
 20
10500.0
  9
$ORTHOMODE
 70
     0
  9
$REGENMODE
 70
     1
  9
$FILLMODE
 70
     1
  9
$QTEXTMODE
 70
     0
  9
$MIRRTEXT
 70
     0
  9
$LTSCALE
 40
50.0
  9
$ATTMODE
 70
     1
  9
$TEXTSIZE
 40
0.2
  9
$TRACEWID
 40
0.05
  9
$TEXTSTYLE
  7
Standard
  9
$CLAYER
  8
0
  9
$CELTYPE
  6
ByLayer
  9
$CECOLOR
 62
   256
  9
$CELTSCALE
 40
1.0
  9
$DISPSILH
 70
     0
  9
$DIMSCALE
 40
1.0
  9
$DIMASZ
 40
1.799999999999999
  9
$DIMEXO
 40
0.0625
  9
$DIMDLI
 40
0.38
  9
$DIMRND
 40
0.0
  9
$DIMDLE
 40
0.0
  9
$DIMEXE
 40
0.18
  9
$DIMTP
 40
0.0
  9
$DIMTM
 40
0.0
  9
$DIMTXT
 40
0.25
  9
$DIMCEN
 40
0.09
  9
$DIMTSZ
 40
0.0
  9
$DIMTOL
 70
     0
  9
$DIMLIM
 70
     0
  9
$DIMTIH
 70
     1
  9
$DIMTOH
 70
     1
  9
$DIMSE1
 70
     0
  9
$DIMSE2
 70
     0
  9
$DIMTAD
 70
     0
  9
$DIMZIN
 70
     0
  9
$DIMBLK
  1

  9
$DIMASO
 70
     1
  9
$DIMSHO
 70
     1
  9
$DIMPOST
  1

  9
$DIMAPOST
  1

  9
$DIMALT
 70
     0
  9
$DIMALTD
 70
     2
  9
$DIMALTF
 40
25.4
  9
$DIMLFAC
 40
1.0
  9
$DIMTOFL
 70
     0
  9
$DIMTVP
 40
0.0
  9
$DIMTIX
 70
     0
  9
$DIMSOXD
 70
     0
  9
$DIMSAH
 70
     0
  9
$DIMBLK1
  1

  9
$DIMBLK2
  1

  9
$DIMSTYLE
  2
Standard
  9
$DIMCLRD
 70
     0
  9
$DIMCLRE
 70
     0
  9
$DIMCLRT
 70
     0
  9
$DIMTFAC
 40
1.0
  9
$DIMGAP
 40
0.09
  9
$DIMJUST
 70
     0
  9
$DIMSD1
 70
     0
  9
$DIMSD2
 70
     0
  9
$DIMTOLJ
 70
     1
  9
$DIMTZIN
 70
     0
  9
$DIMALTZ
 70
     0
  9
$DIMALTTZ
 70
     0
  9
$DIMUPT
 70
     0
  9
$DIMDEC
 70
     4
  9
$DIMTDEC
 70
     4
  9
$DIMALTU
 70
     2
  9
$DIMALTTD
 70
     2
  9
$DIMTXSTY
  7
Standard
  9
$DIMAUNIT
 70
     0
  9
$DIMADEC
 70
     0
  9
$DIMALTRND
 40
0.0
  9
$DIMAZIN
 70
     0
  9
$DIMDSEP
 70
    46
  9
$DIMATFIT
 70
     3
  9
$DIMFRAC
 70
     0
  9
$DIMLDRBLK
  1

  9
$DIMLUNIT
 70
     2
  9
$DIMLWD
 70
    -2
  9
$DIMLWE
 70
    -2
  9
$DIMTMOVE
 70
     0
  9
$LUNITS
 70
     2
  9
$LUPREC
 70
     4
  9
$SKETCHINC
 40
0.1
  9
$FILLETRAD
 40
0.0
  9
$AUNITS
 70
     0
  9
$AUPREC
 70
     0
  9
$MENU
  1
.
  9
$ELEVATION
 40
0.0
  9
$PELEVATION
 40
0.0
  9
$THICKNESS
 40
0.0
  9
$LIMCHECK
 70
     0
  9
$CHAMFERA
 40
0.0
  9
$CHAMFERB
 40
0.0
  9
$CHAMFERC
 40
0.0
  9
$CHAMFERD
 40
0.0
  9
$SKPOLY
 70
     0
  9
$TDCREATE
 40
2459237.330326192
  9
$TDUCREATE
 40
2459237.288659526
  9
$TDUPDATE
 40
2459237.333270602
  9
$TDUUPDATE
 40
2459237.291603936
  9
$TDINDWG
 40
0.0021773032
  9
$TDUSRTIMER
 40
0.0021773032
  9
$USRTIMER
 70
     1
  9
$ANGBASE
 50
0.0
  9
$ANGDIR
 70
     0
  9
$PDMODE
 70
     0
  9
$PDSIZE
 40
0.0
  9
$PLINEWID
 40
0.0
  9
$SPLFRAME
 70
     0
  9
$SPLINETYPE
 70
     6
  9
$SPLINESEGS
 70
     8
  9
$HANDSEED
  5
AAD
  9
$SURFTAB1
 70
     6
  9
$SURFTAB2
 70
     6
  9
$SURFTYPE
 70
     6
  9
$SURFU
 70
     6
  9
$SURFV
 70
     6
  9
$UCSBASE
  2

  9
$UCSNAME
  2

  9
$UCSORG
 10
0.0
 20
0.0
 30
0.0
  9
$UCSXDIR
 10
1.0
 20
0.0
 30
0.0
  9
$UCSYDIR
 10
0.0
 20
1.0
 30
0.0
  9
$UCSORTHOREF
  2

  9
$UCSORTHOVIEW
 70
     0
  9
$UCSORGTOP
 10
0.0
 20
0.0
 30
0.0
  9
$UCSORGBOTTOM
 10
0.0
 20
0.0
 30
0.0
  9
$UCSORGLEFT
 10
0.0
 20
0.0
 30
0.0
  9
$UCSORGRIGHT
 10
0.0
 20
0.0
 30
0.0
  9
$UCSORGFRONT
 10
0.0
 20
0.0
 30
0.0
  9
$UCSORGBACK
 10
0.0
 20
0.0
 30
0.0
  9
$PUCSBASE
  2

  9
$PUCSNAME
  2

  9
$PUCSORG
 10
0.0
 20
0.0
 30
0.0
  9
$PUCSXDIR
 10
1.0
 20
0.0
 30
0.0
  9
$PUCSYDIR
 10
0.0
 20
1.0
 30
0.0
  9
$PUCSORTHOREF
  2

  9
$PUCSORTHOVIEW
 70
     0
  9
$PUCSORGTOP
 10
0.0
 20
0.0
 30
0.0
  9
$PUCSORGBOTTOM
 10
0.0
 20
0.0
 30
0.0
  9
$PUCSORGLEFT
 10
0.0
 20
0.0
 30
0.0
  9
$PUCSORGRIGHT
 10
0.0
 20
0.0
 30
0.0
  9
$PUCSORGFRONT
 10
0.0
 20
0.0
 30
0.0
  9
$PUCSORGBACK
 10
0.0
 20
0.0
 30
0.0
  9
$USERI1
 70
     0
  9
$USERI2
 70
     0
  9
$USERI3
 70
     0
  9
$USERI4
 70
     0
  9
$USERI5
 70
     0
  9
$USERR1
 40
0.0
  9
$USERR2
 40
0.0
  9
$USERR3
 40
0.0
  9
$USERR4
 40
0.0
  9
$USERR5
 40
0.0
  9
$WORLDVIEW
 70
     1
  9
$SHADEDGE
 70
     3
  9
$SHADEDIF
 70
    70
  9
$TILEMODE
 70
     1
  9
$MAXACTVP
 70
    64
  9
$PINSBASE
 10
0.0
 20
0.0
 30
0.0
  9
$PLIMCHECK
 70
     0
  9
$PEXTMIN
 10
0.0
 20
0.0
 30
0.0
  9
$PEXTMAX
 10
14850.0
 20
10500.0
 30
0.0
  9
$PLIMMIN
 10
0.0
 20
0.0
  9
$PLIMMAX
 10
14850.0
 20
10500.0
  9
$UNITMODE
 70
     0
  9
$VISRETAIN
 70
     1
  9
$PLINEGEN
 70
     0
  9
$PSLTSCALE
 70
     1
  9
$TREEDEPTH
 70
  3020
  9
$CMLSTYLE
  2
Standard
  9
$CMLJUST
 70
     0
  9
$CMLSCALE
 40
1.0
  9
$PROXYGRAPHICS
 70
     1
  9
$MEASUREMENT
 70
     1
  9
$CELWEIGHT
370
    -1
  9
$ENDCAPS
280
     0
  9
$JOINSTYLE
280
     0
  9
$LWDISPLAY
290
     0
  9
$INSUNITS
 70
     4
  9
$HYPERLINKBASE
  1
www.muller.com.pl
  9
$STYLESHEET
  1

  9
$XEDIT
290
     1
  9
$CEPSNTYPE
380
     0
  9
$PSTYLEMODE
290
     1
  9
$FINGERPRINTGUID
  2
{DCCFF6E3-69DF-4392-96B2-130600C9E93F}
  9
$VERSIONGUID
  2
{531CADE3-BBB1-40A2-B497-5A4C9D03709D}
  9
$EXTNAMES
290
     1
  9
$PSVPSCALE
 40
0.0
  9
$OLESTARTUP
290
     0
  0
ENDSEC
  0
SECTION
  2
CLASSES
  0
CLASS
  1
ACDBDICTIONARYWDFLT
  2
AcDbDictionaryWithDefault
  3
ObjectDBX Classes
 90
        0
280
     0
281
     0
  0
CLASS
  1
MATERIAL
  2
AcDbMaterial
  3
ObjectDBX Classes
 90
     1153
280
     0
281
     0
  0
CLASS
  1
VISUALSTYLE
  2
AcDbVisualStyle
  3
ObjectDBX Classes
 90
     4095
280
     0
281
     0
  0
CLASS
  1
SCALE
  2
AcDbScale
  3
ObjectDBX Classes
 90
     1153
280
     0
281
     0
  0
CLASS
  1
TABLESTYLE
  2
AcDbTableStyle
  3
ObjectDBX Classes
 90
     4095
280
     0
281
     0
  0
CLASS
  1
MLEADERSTYLE
  2
AcDbMLeaderStyle
  3
ACDB_MLEADERSTYLE_CLASS
 90
     4095
280
     0
281
     0
  0
CLASS
  1
CELLSTYLEMAP
  2
AcDbCellStyleMap
  3
ObjectDBX Classes
 90
     1152
280
     0
281
     0
  0
CLASS
  1
DICTIONARYVAR
  2
AcDbDictionaryVar
  3
ObjectDBX Classes
 90
        0
280
     0
281
     0
  0
CLASS
  1
ACDBPLACEHOLDER
  2
AcDbPlaceHolder
  3
ObjectDBX Classes
 90
        0
280
     0
281
     0
  0
CLASS
  1
LAYOUT
  2
AcDbLayout
  3
ObjectDBX Classes
 90
        0
280
     0
281
     0
  0
CLASS
  1
ACME_DOCUMENT
  2
AcMeDbDoc
  3
AcMeServices
 90
    33792
280
     0
281
     0
  0
CLASS
  1
AMGSETTINGSOBJ
  2
AmgSettingsObj
  3
"AcadM|Product Description: AutoCAD Mechanical|Company: Autodesk, Inc."
 90
    33792
280
     0
281
     0
  0
CLASS
  1
ACMESCOPE
  2
AcMeScope
  3
AcMeServices
 90
    33792
280
     0
281
     0
  0
CLASS
  1
ACMECOMMANDHISTORY
  2
AcMeCommandHistory
  3
AcMeServices
 90
    33792
280
     0
281
     0
  0
CLASS
  1
ACIMSYSVARMAN
  2
AcImSysVarManager
  3
AcMeServices
 90
    33792
280
     0
281
     0
  0
CLASS
  1
ACIMINTSYSVAR
  2
AcImIntSysVar
  3
AcMeServices
 90
    33792
280
     0
281
     0
  0
CLASS
  1
ACMESTATEMGR
  2
AcMeStateMgr
  3
AcMeServices
 90
    33792
280
     0
281
     0
  0
CLASS
  1
ACDBENTITYCACHE
  2
AcMeEntityCache
  3
AcMeServices
 90
    33792
280
     0
281
     0
  0
CLASS
  1
ACGREFMASTER
  2
AcGrefMaster
  3
AcAttribServices
 90
    33792
280
     0
281
     0
  0
CLASS
  1
AM_DRAWING_MGR
  2
AcDmDwgMgr
  3
AcMechDwgViewMgmt
 90
    33792
280
     0
281
     0
  0
CLASS
  1
AM_DWG_DOCUMENT
  2
AcDmDwgDocument
  3
AcMechDwgViewMgmt
 90
    33792
280
     0
281
     0
  0
CLASS
  1
AM_DWG_SHEET
  2
AcDmSheet
  3
AcMechDwgViewMgmt
 90
    33792
280
     0
281
     0
  0
CLASS
  1
AM_VIEWDIMPARMAP
  2
AcDmViewDimParMap
  3
AcMechDwgViewMgmt
 90
    33792
280
     0
281
     0
  0
CLASS
  1
AMDTINTERNALREACTOR
  2
AmdtInternalReactor
  3
AcMeServices
 90
    33792
280
     0
281
     0
  0
CLASS
  1
ACIMREALSYSVAR
  2
AcImRealSysVar
  3
AcMeServices
 90
    33792
280
     0
281
     0
  0
CLASS
  1
AM_DWGMGR_NAME
  2
AcDmDwgMgrName
  3
AcMechDwgViewMgmt
 90
    33792
280
     0
281
     0
  0
CLASS
  1
ACME_DATABASE
  2
AcMeDbDatabase
  3
AcMeServices
 90
    33792
280
     0
281
     0
  0
CLASS
  1
ACRFINSADJUSTERMGR
  2
AcRfInsAdjusterMgr
  3
AcMeServices
 90
    33792
280
     0
281
     0
  0
CLASS
  1
ACGREFACADMASTER
  2
AcGrefacadMaster
  3
AcGrefServices
 90
    33792
280
     0
281
     0
  0
CLASS
  1
AMDTMENUSTATEMGR
  2
AmdtMenuStateMgr
  3
McadcomServices
 90
    33792
280
     0
281
     0
  0
CLASS
  1
AMDTMCOMMENUSTATE
  2
AmdtMcomMenuState
  3
McadcomServices
 90
    33792
280
     0
281
     0
  0
CLASS
  1
AMIMASTER
  2
AmiMaster
  3
AmiServices
 90
    33792
280
     0
281
     0
  0
CLASS
  1
MAPIAMMOUDLE
  2
MApiAmModule
  3
MApiAmServices
 90
    33792
280
     0
281
     0
  0
CLASS
  1
ACIMSTRSYSVAR
  2
AcImStrSysVar
  3
AcMeServices
 90
    33792
280
     0
281
     0
  0
CLASS
  1
AMDTDMMENUSTATE
  2
AmdtDmMenuState
  3
AcMechDwgViewMgmt
 90
    33792
280
     0
281
     0
  0
CLASS
  1
AMDTAMMENUSTATE
  2
AmdtAmMenuState
  3
DesignerAssemblies
 90
    33792
280
     0
281
     0
  0
CLASS
  1
ACAMPROJECT
  2
AcAmProject
  3
DesignerAssemblies
 90
    33792
280
     0
281
     0
  0
CLASS
  1
ACAMGRCOMPDEF
  2
AcAmGrCompDef
  3
DesignerAssemblies
 90
    33792
280
     0
281
     0
  0
CLASS
  1
ACAMCOMPDEF
  2
AcAmCompDef
  3
DesignerAssemblies
 90
    33792
280
     0
281
     0
  0
CLASS
  1
ACAMCOMPDEFMGR
  2
AcAmCompDefMgr
  3
DesignerAssemblies
 90
    33792
280
     0
281
     0
  0
CLASS
  1
AMCONTEXTMGR
  2
AcAmContextMgr
  3
DesignerAssemblies
 90
    33792
280
     0
281
     0
  0
CLASS
  1
ACAMCONTEXTMODELER
  2
AcAmContextModeler
  3
DesignerAssemblies
 90
    33792
280
     0
281
     0
  0
CLASS
  1
ACMDATADICTIONARY
  2
AcmDataDictionary
  3
"AcmSymBB|Product Description: AutoCAD Mechanical|Company: Autodesk, Inc."
 90
    33792
280
     0
281
     0
  0
CLASS
  1
ACAMGRCOMPDEFSET
  2
AcAmGrCompDefSet
  3
DesignerAssemblies
 90
    33792
280
     0
281
     0
  0
CLASS
  1
AMDTBROWSERDBTAB
  2
AmdtBrowserDbTab
  3
McadcomServices
 90
    33792
280
     0
281
     0
  0
CLASS
  1
CBROWSERAPPOBJECT
  2
CBrowserAppObject
  3
McadcomServices
 90
    33792
280
     0
281
     0
  0
CLASS
  1
DM_PLACEHOLDER
  2
AcDmSelsetPlaceholder
  3
AcMechDwgViewMgmt
 90
    33792
280
     0
281
     0
  0
CLASS
  1
EXACXREFPANELOBJECT
  2
ExAcXREFPanelObject
  3
EXAC_ESW
 90
     1025
280
     0
281
     0
  0
CLASS
  1
NPOCOLLECTION
  2
AcDbImpNonPersistentObjectsCollection
  3
ObjectDBX Classes
 90
     1153
280
     0
281
     0
  0
CLASS
  1
ACMSTANDARDISO
  2
AcmStandardISO
  3
"Amdt_StdImp|Product Description: AutoCAD Mechanical|Company: Autodesk, Inc."
 90
    33792
280
     0
281
     0
  0
CLASS
  1
AMDTEDGESTANDARDISO13715
  2
AmdtEdgeStdISO13715
  3
"Amdt_StdImp|Product Description: AutoCAD Mechanical|Company: Autodesk, Inc."
 90
    33792
280
     0
281
     0
  0
CLASS
  1
ACMSURFSTANDARDISO2002
  2
AcmSurfTextStdISO2002
  3
"Amdt_StdImp|Product Description: AutoCAD Mechanical|Company: Autodesk, Inc."
 90
    33792
280
     0
281
     0
  0
CLASS
  1
ACMFCFSTANDARDISO
  2
AcmFCFStdISO
  3
"Amdt_StdImp|Product Description: AutoCAD Mechanical|Company: Autodesk, Inc."
 90
    33792
280
     0
281
     0
  0
CLASS
  1
ACMWELDSTANDARDISO
  2
AcmWeldingStdISO
  3
"Amdt_StdImp|Product Description: AutoCAD Mechanical|Company: Autodesk, Inc."
 90
    33792
280
     0
281
     0
  0
CLASS
  1
ACMIDSTANDARDISO
  2
AcmIdStdISO
  3
"Amdt_StdImp|Product Description: AutoCAD Mechanical|Company: Autodesk, Inc."
 90
    33792
280
     0
281
     0
  0
CLASS
  1
ACMDATUMSTANDARDISO
  2
AcmDatumStdISO
  3
"Amdt_StdImp|Product Description: AutoCAD Mechanical|Company: Autodesk, Inc."
 90
    33792
280
     0
281
     0
  0
CLASS
  1
ACMBOMSTANDARDISO
  2
AcmBOMStdISO
  3
"Amdt_StdImp|Product Description: AutoCAD Mechanical|Company: Autodesk, Inc."
 90
    33792
280
     0
281
     0
  0
CLASS
  1
ACMDETAILSTANDARDISO
  2
AmdtDetailSymStdISO
  3
"Amdt_StdImp|Product Description: AutoCAD Mechanical|Company: Autodesk, Inc."
 90
    33792
280
     0
281
     0
  0
CLASS
  1
ACMSECTIONSTANDARDISO2001
  2
AmdtSectionSymStdISO2001
  3
"Amdt_StdImp|Product Description: AutoCAD Mechanical|Company: Autodesk, Inc."
 90
    33792
280
     0
281
     0
  0
CLASS
  1
ACMCENTERLINESTANDARDISO
  2
AmdtCenterLineStdISO
  3
"Amdt_StdImp|Product Description: AutoCAD Mechanical|Company: Autodesk, Inc."
 90
    33792
280
     0
281
     0
  0
CLASS
  1
ACMTHREADLINESTANDARDISO
  2
AmdtThreadLineStdISO
  3
"Amdt_StdImp|Product Description: AutoCAD Mechanical|Company: Autodesk, Inc."
 90
    33792
280
     0
281
     0
  0
CLASS
  1
ACMNOTESTANDARDISO
  2
AmdtNoteStdISO
  3
"Amdt_StdImp|Product Description: AutoCAD Mechanical|Company: Autodesk, Inc."
 90
    33792
280
     0
281
     0
  0
CLASS
  1
ACMTAPERSTANDARDISO
  2
AcmTaperStdISO
  3
"Amdt_StdImp|Product Description: AutoCAD Mechanical|Company: Autodesk, Inc."
 90
    33792
280
     0
281
     0
  0
CLASS
  1
ACMANOOTATIONVIEWSTANDARDISO
  2
AmdtAnViewStdISO
  3
"Amdt_StdImp|Product Description: AutoCAD Mechanical|Company: Autodesk, Inc."
 90
    33792
280
     0
281
     0
  0
CLASS
  1
ACAMGLAYSTD
  2
AcAmgLayStd
  3
"AmgLay|Product Description: AutoCAD Mechanical|Company: Autodesk, Inc."
 90
    33792
280
     0
281
     0
  0
CLASS
  1
ACAMGDIMSTD
  2
AcAmgDimStd
  3
"AmgDim|Product Description: AutoCAD Mechanical|Company: Autodesk, Inc."
 90
    33792
280
     0
281
     0
  0
CLASS
  1
AMGOBJPROPCFG
  2
AmgObjPropCfg
  3
"AmgLay|Product Description: AutoCAD Mechanical|Company: Autodesk, Inc."
 90
    33793
280
     0
281
     0
  0
CLASS
  1
ACAMGHOLECHARTSTDISO
  2
AcAmgHoleChartStdISO
  3
AmgDim|Product Description: AutoCAD Mechanical|Company: Autodesk, Inc.
 90
    33792
280
     0
281
     0
  0
CLASS
  1
ACAMGTITLESTD
  2
AcAmgTitleStd
  3
"AmgTitle|Product Description: AutoCAD Mechanical|Company: Autodesk, Inc."
 90
    36863
280
     0
281
     0
  0
CLASS
  1
AMDTNOTETEMPLATEDB
  2
AmdtNoteTemplateDB
  3
AcmSymBB|Product Description: AutoCAD Mechanical|Company: Autodesk, Inc.
 90
    33792
280
     0
281
     0
  0
CLASS
  1
ACAMGFILTERDAT
  2
AcAmgFilterDat
  3
"AcadM|Product Description: AutoCAD Mechanical|Company: Autodesk, Inc."
 90
    33792
280
     0
281
     0
  0
ENDSEC
  0
SECTION
  2
TABLES
  0
TABLE
  2
VPORT
  5
8
102
{ACAD_XDICTIONARY
360
817
102
}
330
0
100
AcDbSymbolTable
 70
     1
  0
VPORT
  5
57
330
8
100
AcDbSymbolTableRecord
100
AcDbViewportTableRecord
  2
*Active
 70
     0
 10
0.0
 20
0.0
 11
1.0
 21
1.0
 12
16704.36171743409
 22
2488.759161368013
 13
0.0
 23
0.0
 14
1.0
 24
1.0
 15
0.0
 25
0.0
 16
0.0
 26
0.0
 36
1.0
 17
0.0
 27
0.0
 37
0.0
 40
6047.491080251806
 41
2.430203045685279
 42
50.0
 43
0.0
 44
0.0
 50
0.0
 51
0.0
 71
     0
 72
   100
 73
     1
 74
     1
 75
     0
 76
     0
 77
     0
 78
     0
281
     0
 65
     1
110
0.0
120
0.0
130
0.0
111
1.0
121
0.0
131
0.0
112
0.0
122
1.0
132
0.0
 79
     0
146
0.0
  0
ENDTAB
  0
TABLE
  2
LTYPE
  5
5
330
0
100
AcDbSymbolTable
 70
    69
  0
LTYPE
  5
5B
330
5
100
AcDbSymbolTableRecord
100
AcDbLinetypeTableRecord
  2
ByBlock
 70
     0
  3

 72
    65
 73
     0
 40
0.0
  0
LTYPE
  5
5C
330
5
100
AcDbSymbolTableRecord
100
AcDbLinetypeTableRecord
  2
ByLayer
 70
     0
  3

 72
    65
 73
     0
 40
0.0
  0
LTYPE
  5
5D
330
5
100
AcDbSymbolTableRecord
100
AcDbLinetypeTableRecord
  2
Continuous
 70
     0
  3
Solid line
 72
    65
 73
     0
 40
0.0
  0
ENDTAB
  0
TABLE
  2
LAYER
  5
2
330
0
100
AcDbSymbolTable
 70
     9
  0
LAYER
  5
54
330
2
100
AcDbSymbolTableRecord
100
AcDbLayerTableRecord
  2
0
 70
     0
 62
     7
  6
Continuous
370
    -3
390
F
  0
LAYER
  5
BA
330
2
100
AcDbSymbolTableRecord
100
AcDbLayerTableRecord
  2
Dimension (ISO)
 70
     0
 62
   161
  6
Continuous
370
    18
390
F
  0
LAYER
  5
C5
330
2
100
AcDbSymbolTableRecord
100
AcDbLayerTableRecord
  2
Title (ISO)
 70
     0
 62
     7
  6
Continuous
370
    30
390
F
  0
LAYER
  5
C8
330
2
100
AcDbSymbolTableRecord
100
AcDbLayerTableRecord
  2
Visible (ISO)
 70
     0
 62
     7
  6
Continuous
370
    35
390
F
  0
LAYER
  5
34C
330
2
100
AcDbSymbolTableRecord
100
AcDbLayerTableRecord
  2
Defpoints
 70
     0
 62
     7
  6
Continuous
290
     0
370
    -3
390
F
  0
ENDTAB
  0
TABLE
  2
STYLE
  5
3
330
0
100
AcDbSymbolTable
 70
    10
  0
STYLE
  5
55
330
3
100
AcDbSymbolTableRecord
100
AcDbTextStyleTableRecord
  2
Standard
 70
     0
 40
0.0
 41
1.0
 50
0.0
 71
     0
 42
0.2
  3
tahoma.ttf
  4

1001
ACAD
1000
Tahoma
1071
      256
  0
STYLE
  5
CD
330
3
100
AcDbSymbolTableRecord
100
AcDbTextStyleTableRecord
  2
Label Text (ISO)
 70
     0
 40
0.0
 41
1.0
 50
0.0
 71
     0
 42
0.2
  3
tahoma.ttf
  4

1001
ACAD
1000
Tahoma
1071
      256
  0
STYLE
  5
CE
330
3
100
AcDbSymbolTableRecord
100
AcDbTextStyleTableRecord
  2
Note Text (ISO)
 70
     0
 40
0.0
 41
1.0
 50
0.0
 71
     0
 42
0.2
  3
tahoma.ttf
  4

1001
ACAD
1000
Tahoma
1071
      256
  0
ENDTAB
  0
TABLE
  2
VIEW
  5
6
330
0
100
AcDbSymbolTable
 70
     0
  0
ENDTAB
  0
TABLE
  2
UCS
  5
7
330
0
100
AcDbSymbolTable
 70
     0
  0
ENDTAB
  0
TABLE
  2
APPID
  5
9
330
0
100
AcDbSymbolTable
 70
    18
  0
APPID
  5
56
330
9
100
AcDbSymbolTableRecord
100
AcDbRegAppTableRecord
  2
ACAD
 70
     0
  0
APPID
  5
5E
330
9
100
AcDbSymbolTableRecord
100
AcDbRegAppTableRecord
  2
AcadAnnotative
 70
     0
  0
APPID
  5
7F9
330
9
100
AcDbSymbolTableRecord
100
AcDbRegAppTableRecord
  2
AcadAnnoPO
 70
     0
  0
APPID
  5
84D
330
9
100
AcDbSymbolTableRecord
100
AcDbRegAppTableRecord
  2
ACAD_MLEADERVER
 70
     0
  0
APPID
  5
871
330
9
100
AcDbSymbolTableRecord
100
AcDbRegAppTableRecord
  2
MCAD_NO_VIS
 70
     0
  0
APPID
  5
872
330
9
100
AcDbSymbolTableRecord
100
AcDbRegAppTableRecord
  2
ACAD_TEMP_GRAPHIC
 70
     0
  0
APPID
  5
89D
330
9
100
AcDbSymbolTableRecord
100
AcDbRegAppTableRecord
  2
AD_DRAW
 70
     0
  0
APPID
  5
8A0
330
9
100
AcDbSymbolTableRecord
100
AcDbRegAppTableRecord
  2
ACATTRIBSERVICES
 70
     0
  0
APPID
  5
8B9
330
9
100
AcDbSymbolTableRecord
100
AcDbRegAppTableRecord
  2
DESIGNERASSEMBLIES
 70
     0
  0
APPID
  5
8BE
330
9
100
AcDbSymbolTableRecord
100
AcDbRegAppTableRecord
  2
ACADM_DIM_EDIT
 70
     0
  0
APPID
  5
8BF
330
9
100
AcDbSymbolTableRecord
100
AcDbRegAppTableRecord
  2
AMDT_DM_ADJ
 70
     0
  0
APPID
  5
8D8
330
9
100
AcDbSymbolTableRecord
100
AcDbRegAppTableRecord
  2
ACAD_DSTYLE_DIMJAG
 70
     0
  0
APPID
  5
8D9
330
9
100
AcDbSymbolTableRecord
100
AcDbRegAppTableRecord
  2
ACAD_DSTYLE_DIMBREAK
 70
     0
  0
APPID
  5
903
330
9
100
AcDbSymbolTableRecord
100
AcDbRegAppTableRecord
  2
AcAecLayerStandard
 70
     0
  0
APPID
  5
956
330
9
100
AcDbSymbolTableRecord
100
AcDbRegAppTableRecord
  2
ACAD_DSTYLE_DIMARC_LENGTH_SYMBOL
 70
     0
  0
APPID
  5
957
330
9
100
AcDbSymbolTableRecord
100
AcDbRegAppTableRecord
  2
ACAD_DSTYLE_DIM_LINETYPE
 70
     0
  0
APPID
  5
958
330
9
100
AcDbSymbolTableRecord
100
AcDbRegAppTableRecord
  2
ACAD_DSTYLE_DIM_EXT1_LINETYPE
 70
     0
  0
APPID
  5
959
330
9
100
AcDbSymbolTableRecord
100
AcDbRegAppTableRecord
  2
ACAD_DSTYLE_DIM_EXT2_LINETYPE
 70
     0
  0
ENDTAB
  0
TABLE
  2
DIMSTYLE
  5
A
330
0
100
AcDbSymbolTable
 70
    19
100
AcDbDimStyleTable
 71
     2
340
D5
340
58
  0
DIMSTYLE
105
58
330
A
100
AcDbSymbolTableRecord
100
AcDbDimStyleTableRecord
  2
Standard
 70
     0
340
55
  0
DIMSTYLE
105
D5
102
{ACAD_REACTORS
330
34B
330
42E
330
516
330
5FF
330
6E4
102
}
330
A
100
AcDbSymbolTableRecord
100
AcDbDimStyleTableRecord
  2
Default (ISO)
 70
     0
 40
50.0
 41
2.5
 42
0.5
 43
5.999999999999999
 44
1.0
 45
0.00000001
 46
10.0
 73
     0
 77
     1
 78
     8
 79
     2
140
3.5
143
0.03937
146
0.7142857313156128
147
0.762
171
     3
172
     1
176
   256
177
   256
178
   256
271
     2
272
     2
274
     3
278
    44
340
CD
371
    -1
372
    -1
  0
ENDTAB
  0
TABLE
  2
BLOCK_RECORD
  5
1
330
0
100
AcDbSymbolTable
 70
    15
  0
BLOCK_RECORD
  5
6C
330
1
100
AcDbSymbolTableRecord
100
AcDbBlockTableRecord
  2
*Model_Space
340
6F
  0
BLOCK_RECORD
  5
68
330
1
100
AcDbSymbolTableRecord
100
AcDbBlockTableRecord
  2
*Paper_Space
340
6B
  0
BLOCK_RECORD
  5
70
330
1
100
AcDbSymbolTableRecord
100
AcDbBlockTableRecord
  2
*Paper_Space0
340
73
  0
BLOCK_RECORD
  5
34D
330
1
100
AcDbSymbolTableRecord
100
AcDbBlockTableRecord
  2
*D7
340
0
  0
BLOCK_RECORD
  5
42F
330
1
100
AcDbSymbolTableRecord
100
AcDbBlockTableRecord
  2
*D8
340
0
  0
BLOCK_RECORD
  5
517
330
1
100
AcDbSymbolTableRecord
100
AcDbBlockTableRecord
  2
*D9
340
0
  0
BLOCK_RECORD
  5
600
330
1
100
AcDbSymbolTableRecord
100
AcDbBlockTableRecord
  2
*D10
340
0
  0
BLOCK_RECORD
  5
6E5
330
1
100
AcDbSymbolTableRecord
100
AcDbBlockTableRecord
  2
*D11
340
0
  0
BLOCK_RECORD
  5
7F1
330
1
100
AcDbSymbolTableRecord
100
AcDbBlockTableRecord
  2
Tabelki rysunkowe Rzut
340
0
102
{BLKREFS
331
7FC
102
}
  0
BLOCK_RECORD
  5
966
330
1
100
AcDbSymbolTableRecord
100
AcDbBlockTableRecord
  2
5100-5101-5102-5104_Stolik-betonowy-do-wkopania-lawki-bez-oparc
340
0
310
2800000020000000200000000100080000000000000400000000000000000000000000000000000000000000000080000080000000808000800000008000800080800000C0C0C000C0DCC000F0CAA6000020400000206000002080000020A0000020C0000020E00000400000004020000040400000406000004080000040A0
310
000040C0000040E00000600000006020000060400000606000006080000060A0000060C0000060E00000800000008020000080400000806000008080000080A0000080C0000080E00000A0000000A0200000A0400000A0600000A0800000A0A00000A0C00000A0E00000C0000000C0200000C0400000C0600000C0800000C0
310
A00000C0C00000C0E00000E0000000E0200000E0400000E0600000E0800000E0A00000E0C00000E0E00040000000400020004000400040006000400080004000A0004000C0004000E00040200000402020004020400040206000402080004020A0004020C0004020E000404000004040200040404000404060004040800040
310
40A0004040C0004040E00040600000406020004060400040606000406080004060A0004060C0004060E00040800000408020004080400040806000408080004080A0004080C0004080E00040A0000040A0200040A0400040A0600040A0800040A0A00040A0C00040A0E00040C0000040C0200040C0400040C0600040C08000
310
40C0A00040C0C00040C0E00040E0000040E0200040E0400040E0600040E0800040E0A00040E0C00040E0E00080000000800020008000400080006000800080008000A0008000C0008000E00080200000802020008020400080206000802080008020A0008020C0008020E00080400000804020008040400080406000804080
310
008040A0008040C0008040E00080600000806020008060400080606000806080008060A0008060C0008060E00080800000808020008080400080806000808080008080A0008080C0008080E00080A0000080A0200080A0400080A0600080A0800080A0A00080A0C00080A0E00080C0000080C0200080C0400080C0600080C0
310
800080C0A00080C0C00080C0E00080E0000080E0200080E0400080E0600080E0800080E0A00080E0C00080E0E000C0000000C0002000C0004000C0006000C0008000C000A000C000C000C000E000C0200000C0202000C0204000C0206000C0208000C020A000C020C000C020E000C0400000C0402000C0404000C0406000C0
310
408000C040A000C040C000C040E000C0600000C0602000C0604000C0606000C0608000C060A000C060C000C060E000C0800000C0802000C0804000C0806000C0808000C080A000C080C000C080E000C0A00000C0A02000C0A04000C0A06000C0A08000C0A0A000C0A0C000C0A0E000C0C00000C0C02000C0C04000C0C06000
310
C0C08000C0C0A000F0FBFF00A4A0A000808080000000FF0000FF000000FFFF00FF000000FF00FF00FFFF0000FFFFFF004949494949494949494949494949494949494949494949494949494949494949494949494949494949494949494949494949494949494949494949494949494949FFFFFFFFFFFFFFFFFFFFFFFFFFFF
310
FFFFFFFFFFFFFFFFFFFFFFFFFFFFFFFF4949FFFFFFFFFFFFFFFFFFFFFFFFFFFFFFFFFFFFFFFFFFFFFFFFFFFFFFFFFFFF4949FFFFFFFFFFFFFFFFFFFFFFFFFFFFFFFFFFFFFFFFFFFFFFFFFFFFFFFFFFFF4949FFFFFFFFFFFFFFFFFFFFFFFFFFFFFFFFFFFFFFFFFFFFFFFFFFFFFFFFFFFF4949FFFFFFFFFFFFFFFFFFFFFFFFFF
310
FFFFFFFFFFFFFFFFFFFFFFFFFFFFFFFFFF4949FFFFFFFFFFFFFFFFFFFFFFFFFFFFFFFFFFFFFFFFFFFFFFFFFFFFFFFFFFFF4949FFFFFFFFFFFFFFFFFFFFFFFFFFFFFFFFFFFFFFFFFFFFFFFFFFFFFFFFFFFF49494949FFFFFFFFFFFFFFFFFFFFFFFFFFFFFFFFFFFFFFFFFFFFFFFFFFFF494949494949FF494949494949494949
310
494949494949494949494949494949FF494949494949FF494949494949494949494949494949494949494949494949FF494949494949FF494949494949494949494949494949494949494949494949FF494949494949FF494949494949494949494949494949494949494949494949FF494949494949FF4949494949494949
310
49494949494949494949494949494949FF494949494949FF494949494949494949494949494949494949494949494949FF494949494949FF494949494949494949494949494949494949494949494949FF494949494949FF494949494949494949494949494949494949494949494949FF494949494949FF49494949494949
310
4949494949494949494949494949494949FF494949494949FF494949494949494949494949494949494949494949494949FF494949494949FF494949494949494949494949494949494949494949494949FF494949494949FF494949494949494949494949494949494949494949494949FF494949494949FFFFFFFFFFFFFF
310
FFFFFFFFFFFFFFFFFFFFFFFFFFFFFFFFFFFFFF49494949FFFFFFFFFFFFFFFFFFFFFFFFFFFFFFFFFFFFFFFFFFFFFFFFFFFFFFFFFFFF4949FFFFFFFFFFFFFFFFFFFFFFFFFFFFFFFFFFFFFFFFFFFFFFFFFFFFFFFFFFFF4949FFFFFFFFFFFFFFFFFFFFFFFFFFFFFFFFFFFFFFFFFFFFFFFFFFFFFFFFFFFF4949FFFFFFFFFFFFFFFF
310
FFFFFFFFFFFFFFFFFFFFFFFFFFFFFFFFFFFFFFFFFFFF4949FFFFFFFFFFFFFFFFFFFFFFFFFFFFFFFFFFFFFFFFFFFFFFFFFFFFFFFFFFFF4949FFFFFFFFFFFFFFFFFFFFFFFFFFFFFFFFFFFFFFFFFFFFFFFFFFFFFFFFFFFF4949FFFFFFFFFFFFFFFFFFFFFFFFFFFFFFFFFFFFFFFFFFFFFFFFFFFFFFFFFFFF494949494949494949
310
4949494949494949494949494949494949494949494949494949494949494949494949494949494949494949494949494949494949494949
102
{BLKREFS
331
A5D
102
}
1001
ACAD
1000
DesignCenter Data
1002
{
1070
     1
1070
     4
1002
}
  0
ENDTAB
  0
ENDSEC
  0
SECTION
  2
BLOCKS
  0
BLOCK
  5
6D
330
6C
100
AcDbEntity
  8
0
100
AcDbBlockBegin
  2
*Model_Space
 70
     0
 10
0.0
 20
0.0
 30
0.0
  3
*Model_Space
  1

  0
ENDBLK
  5
6E
330
6C
100
AcDbEntity
  8
0
100
AcDbBlockEnd
  0
BLOCK
  5
69
330
68
100
AcDbEntity
 67
     1
  8
0
100
AcDbBlockBegin
  2
*Paper_Space
 70
     0
 10
0.0
 20
0.0
 30
0.0
  3
*Paper_Space
  1

  0
ENDBLK
  5
6A
330
68
100
AcDbEntity
 67
     1
  8
0
100
AcDbBlockEnd
  0
BLOCK
  5
71
330
70
100
AcDbEntity
 67
     1
  8
0
100
AcDbBlockBegin
  2
*Paper_Space0
 70
     0
 10
0.0
 20
0.0
 30
0.0
  3
*Paper_Space0
  1

  0
ENDBLK
  5
72
330
70
100
AcDbEntity
 67
     1
  8
0
100
AcDbBlockEnd
  0
BLOCK
  5
34E
330
34D
100
AcDbEntity
  8
0
100
AcDbBlockBegin
  2
*D7
 70
     1
 10
0.0
 20
0.0
 30
0.0
  3
*D7
  1

  0
LINE
  5
425
330
34D
100
AcDbEntity
  8
Dimension (ISO)
100
AcDbLine
 10
17018.95176651117
 20
1581.298509141278
 30
0.0
 11
17018.95176651117
 21
988.9150693644953
 31
0.0
  0
LINE
  5
426
330
34D
100
AcDbEntity
  8
Dimension (ISO)
100
AcDbLine
 10
15218.95176651117
 20
1581.298509141276
 30
0.0
 11
15218.95176651117
 21
988.9150693644953
 31
0.0
  0
LINE
  5
427
330
34D
100
AcDbEntity
  8
Dimension (ISO)
100
AcDbLine
 10
16893.95176651117
 20
1038.915069364495
 30
0.0
 11
15343.95176651117
 21
1038.915069364495
 31
0.0
  0
SOLID
  5
428
330
34D
100
AcDbEntity
  8
Dimension (ISO)
100
AcDbTrace
 10
16893.95176651117
 20
1059.748402697828
 30
0.0
 11
16893.95176651117
 21
1018.081736031162
 31
0.0
 12
17018.95176651117
 22
1038.915069364495
 32
0.0
 13
17018.95176651117
 23
1038.915069364495
 33
0.0
  0
SOLID
  5
429
330
34D
100
AcDbEntity
  8
Dimension (ISO)
100
AcDbTrace
 10
15343.95176651117
 20
1059.748402697828
 30
0.0
 11
15343.95176651117
 21
1018.081736031162
 31
0.0
 12
15218.95176651117
 22
1038.915069364495
 32
0.0
 13
15218.95176651117
 23
1038.915069364495
 33
0.0
  0
MTEXT
  5
42A
330
34D
100
AcDbEntity
  8
Dimension (ISO)
100
AcDbMText
 10
16118.95176651117
 20
1260.007009082108
 30
0.0
 40
175.0
 41
0.0
 71
     2
 72
     1
  1
\A1;1800
  7
Label Text (ISO)
 73
     1
 44
1.0
1001
ACAD
1000
MTEXTBEGIN
1070
    73
1070
     1
1070
    44
1040
1.0
1070
    74
1070
     0
1000
MTEXTEND
  0
POINT
  5
42B
330
34D
100
AcDbEntity
  8
Defpoints
 62
     0
100
AcDbPoint
 10
17018.95176651117
 20
1606.298509141278
 30
0.0
  0
POINT
  5
42C
330
34D
100
AcDbEntity
  8
Defpoints
 62
     0
100
AcDbPoint
 10
15218.95176651117
 20
1606.298509141276
 30
0.0
  0
POINT
  5
42D
330
34D
100
AcDbEntity
  8
Defpoints
 62
     0
100
AcDbPoint
 10
15218.95176651117
 20
1038.915069364495
 30
0.0
  0
ENDBLK
  5
34F
330
34D
100
AcDbEntity
  8
0
100
AcDbBlockEnd
  0
BLOCK
  5
430
330
42F
100
AcDbEntity
  8
0
100
AcDbBlockBegin
  2
*D8
 70
     1
 10
0.0
 20
0.0
 30
0.0
  3
*D8
  1

  0
LINE
  5
50D
330
42F
100
AcDbEntity
  8
Dimension (ISO)
100
AcDbLine
 10
17043.95176651117
 20
3284.798509141278
 30
0.0
 11
17722.34119455879
 21
3284.798509141277
 31
0.0
  0
LINE
  5
50E
330
42F
100
AcDbEntity
  8
Dimension (ISO)
100
AcDbLine
 10
17043.95176651117
 20
1596.298509141276
 30
0.0
 11
17722.34119455879
 21
1596.298509141276
 31
0.0
  0
LINE
  5
50F
330
42F
100
AcDbEntity
  8
Dimension (ISO)
100
AcDbLine
 10
17672.34119455878
 20
3159.798509141277
 30
0.0
 11
17672.34119455878
 21
1721.298509141275
 31
0.0
  0
SOLID
  5
510
330
42F
100
AcDbEntity
  8
Dimension (ISO)
100
AcDbTrace
 10
17651.50786122545
 20
3159.798509141277
 30
0.0
 11
17693.17452789212
 21
3159.798509141277
 31
0.0
 12
17672.34119455878
 22
3284.798509141277
 32
0.0
 13
17672.34119455878
 23
3284.798509141277
 33
0.0
  0
SOLID
  5
511
330
42F
100
AcDbEntity
  8
Dimension (ISO)
100
AcDbTrace
 10
17651.50786122545
 20
1721.298509141275
 30
0.0
 11
17693.17452789212
 21
1721.298509141275
 31
0.0
 12
17672.34119455878
 22
1596.298509141276
 32
0.0
 13
17672.34119455878
 23
1596.298509141276
 33
0.0
  0
MTEXT
  5
512
330
42F
100
AcDbEntity
  8
Dimension (ISO)
100
AcDbMText
 10
17451.24925484117
 20
2440.548509141277
 30
0.0
 40
175.0
 41
0.0
 71
     2
 72
     1
  1
\A1;1689
  7
Label Text (ISO)
 11
0.0000000000000001
 21
1.0
 31
0.0
 73
     1
 44
1.0
1001
ACAD
1000
MTEXTBEGIN
1070
    73
1070
     1
1070
    44
1040
1.0
1070
    74
1070
     0
1000
MTEXTEND
  0
POINT
  5
513
330
42F
100
AcDbEntity
  8
Defpoints
 62
     0
100
AcDbPoint
 10
17018.95176651117
 20
3284.798509141278
 30
0.0
  0
POINT
  5
514
330
42F
100
AcDbEntity
  8
Defpoints
 62
     0
100
AcDbPoint
 10
17018.95176651117
 20
1596.298509141276
 30
0.0
  0
POINT
  5
515
330
42F
100
AcDbEntity
  8
Defpoints
 62
     0
100
AcDbPoint
 10
17672.34119455878
 20
1596.298509141276
 30
0.0
  0
ENDBLK
  5
431
330
42F
100
AcDbEntity
  8
0
100
AcDbBlockEnd
  0
BLOCK
  5
518
330
517
100
AcDbEntity
  8
0
100
AcDbBlockBegin
  2
*D9
 70
     1
 10
0.0
 20
0.0
 30
0.0
  3
*D9
  1

  0
LINE
  5
5F7
330
517
100
AcDbEntity
  8
Dimension (ISO)
100
AcDbLine
 10
15193.95176651181
 20
4760.585454520056
 30
0.0
 11
14939.67502342074
 21
4760.585454520056
 31
0.0
  0
LINE
  5
5F8
330
517
100
AcDbEntity
  8
Dimension (ISO)
100
AcDbLine
 10
14989.67502342074
 20
4441.58544298399
 30
0.0
 11
14989.67502342074
 21
4635.585454520056
 31
0.0
  0
SOLID
  5
5F9
330
517
100
AcDbEntity
  8
Dimension (ISO)
100
AcDbTrace
 10
14968.84169008741
 20
4441.58544298399
 30
0.0
 11
15010.50835675408
 21
4441.58544298399
 31
0.0
 12
14989.67502342074
 22
4316.58544298399
 32
0.0
 13
14989.67502342074
 23
4316.58544298399
 33
0.0
  0
SOLID
  5
5FA
330
517
100
AcDbEntity
  8
Dimension (ISO)
100
AcDbTrace
 10
14968.84169008741
 20
4635.585454520056
 30
0.0
 11
15010.50835675408
 21
4635.585454520056
 31
0.0
 12
14989.67502342074
 22
4760.585454520056
 32
0.0
 13
14989.67502342074
 23
4760.585454520056
 33
0.0
  0
MTEXT
  5
5FB
330
517
100
AcDbEntity
  8
Dimension (ISO)
100
AcDbMText
 10
14776.57502342074
 20
4538.585448752026
 30
0.0
 40
175.0
 41
0.0
 71
     2
 72
     1
  1
\A1;444
  7
Label Text (ISO)
 11
0.0000000000000001
 21
1.0
 31
0.0
 73
     1
 44
1.0
1001
ACAD
1000
MTEXTBEGIN
1070
    73
1070
     1
1070
    44
1040
1.0
1070
    74
1070
     0
1000
MTEXTEND
  0
POINT
  5
5FC
330
517
100
AcDbEntity
  8
Defpoints
 62
     0
100
AcDbPoint
 10
14989.67502342074
 20
4316.58544298399
 30
0.0
  0
POINT
  5
5FD
330
517
100
AcDbEntity
  8
Defpoints
 62
     0
100
AcDbPoint
 10
15218.95176651181
 20
4760.585454520056
 30
0.0
  0
POINT
  5
5FE
330
517
100
AcDbEntity
  8
Defpoints
 62
     0
100
AcDbPoint
 10
14989.67502342074
 20
4760.585454520056
 30
0.0
  0
ENDBLK
  5
519
330
517
100
AcDbEntity
  8
0
100
AcDbBlockEnd
  0
BLOCK
  5
601
330
600
100
AcDbEntity
  8
0
100
AcDbBlockBegin
  2
*D10
 70
     1
 10
0.0
 20
0.0
 30
0.0
  3
*D10
  1

  0
LINE
  5
6DC
330
600
100
AcDbEntity
  8
Dimension (ISO)
100
AcDbLine
 10
15308.95176651181
 20
5076.585442983989
 30
0.0
 11
14483.10687069701
 21
5076.585442983989
 31
0.0
  0
LINE
  5
6DD
330
600
100
AcDbEntity
  8
Dimension (ISO)
100
AcDbLine
 10
14533.10687069701
 20
4441.58544298399
 30
0.0
 11
14533.10687069701
 21
4951.585442983989
 31
0.0
  0
SOLID
  5
6DE
330
600
100
AcDbEntity
  8
Dimension (ISO)
100
AcDbTrace
 10
14512.27353736368
 20
4441.58544298399
 30
0.0
 11
14553.94020403035
 21
4441.58544298399
 31
0.0
 12
14533.10687069701
 22
4316.58544298399
 32
0.0
 13
14533.10687069701
 23
4316.58544298399
 33
0.0
  0
SOLID
  5
6DF
330
600
100
AcDbEntity
  8
Dimension (ISO)
100
AcDbTrace
 10
14512.27353736368
 20
4951.585442983989
 30
0.0
 11
14553.94020403035
 21
4951.585442983989
 31
0.0
 12
14533.10687069701
 22
5076.585442983989
 32
0.0
 13
14533.10687069701
 23
5076.585442983989
 33
0.0
  0
MTEXT
  5
6E0
330
600
100
AcDbEntity
  8
Dimension (ISO)
100
AcDbMText
 10
14312.83763077261
 20
4696.58544298399
 30
0.0
 40
175.0
 41
0.0
 71
     2
 72
     1
  1
\A1;760
  7
Label Text (ISO)
 11
0.0000000000000001
 21
1.0
 31
0.0
 73
     1
 44
1.0
1001
ACAD
1000
MTEXTBEGIN
1070
    73
1070
     1
1070
    44
1040
1.0
1070
    74
1070
     0
1000
MTEXTEND
  0
POINT
  5
6E1
330
600
100
AcDbEntity
  8
Defpoints
 62
     0
100
AcDbPoint
 10
14533.10687069701
 20
4316.58544298399
 30
0.0
  0
POINT
  5
6E2
330
600
100
AcDbEntity
  8
Defpoints
 62
     0
100
AcDbPoint
 10
15333.95176651181
 20
5076.585442983989
 30
0.0
  0
POINT
  5
6E3
330
600
100
AcDbEntity
  8
Defpoints
 62
     0
100
AcDbPoint
 10
14533.10687069701
 20
5076.585442983989
 30
0.0
  0
ENDBLK
  5
602
330
600
100
AcDbEntity
  8
0
100
AcDbBlockEnd
  0
BLOCK
  5
6E6
330
6E5
100
AcDbEntity
  8
0
100
AcDbBlockBegin
  2
*D11
 70
     1
 10
0.0
 20
0.0
 30
0.0
  3
*D11
  1

  0
LINE
  5
7E7
330
6E5
100
AcDbEntity
  8
Dimension (ISO)
100
AcDbLine
 10
16793.95176651181
 20
4096.58544298399
 30
0.0
 11
17506.84729524298
 21
4096.58544298399
 31
0.0
  0
LINE
  5
7E8
330
6E5
100
AcDbEntity
  8
Dimension (ISO)
100
AcDbLine
 10
17456.84729524298
 20
3971.58544298399
 30
0.0
 11
17456.84729524298
 21
3846.58544298399
 31
0.0
  0
LINE
  5
7E9
330
6E5
100
AcDbEntity
  8
Dimension (ISO)
100
AcDbLine
 10
17456.84729524298
 20
4441.58544298399
 30
0.0
 11
17456.84729524298
 21
5014.410692429777
 31
0.0
  0
LINE
  5
7EA
330
6E5
100
AcDbEntity
  8
Dimension (ISO)
100
AcDbLine
 10
17456.84729524298
 20
4096.58544298399
 30
0.0
 11
17456.84729524298
 21
4316.58544298399
 31
0.0
  0
SOLID
  5
7EB
330
6E5
100
AcDbEntity
  8
Dimension (ISO)
100
AcDbTrace
 10
17436.01396190965
 20
3971.58544298399
 30
0.0
 11
17477.68062857631
 21
3971.58544298399
 31
0.0
 12
17456.84729524298
 22
4096.58544298399
 32
0.0
 13
17456.84729524298
 23
4096.58544298399
 33
0.0
  0
SOLID
  5
7EC
330
6E5
100
AcDbEntity
  8
Dimension (ISO)
100
AcDbTrace
 10
17436.01396190965
 20
4441.58544298399
 30
0.0
 11
17477.68062857631
 21
4441.58544298399
 31
0.0
 12
17456.84729524298
 22
4316.58544298399
 32
0.0
 13
17456.84729524298
 23
4316.58544298399
 33
0.0
  0
MTEXT
  5
7ED
330
6E5
100
AcDbEntity
  8
Dimension (ISO)
100
AcDbMText
 10
17236.46052677669
 20
4790.498067706887
 30
0.0
 40
175.0
 41
0.0
 71
     2
 72
     1
  1
\A1;220
  7
Label Text (ISO)
 11
0.0000000000000001
 21
1.0
 31
0.0
 73
     1
 44
1.0
1001
ACAD
1000
MTEXTBEGIN
1070
    73
1070
     1
1070
    44
1040
1.0
1070
    74
1070
     0
1000
MTEXTEND
  0
POINT
  5
7EE
330
6E5
100
AcDbEntity
  8
Defpoints
 62
     0
100
AcDbPoint
 10
17415.69739417598
 20
4316.58544298399
 30
0.0
  0
POINT
  5
7EF
330
6E5
100
AcDbEntity
  8
Defpoints
 62
     0
100
AcDbPoint
 10
16768.9517665118
 20
4096.58544298399
 30
0.0
  0
POINT
  5
7F0
330
6E5
100
AcDbEntity
  8
Defpoints
 62
     0
100
AcDbPoint
 10
17456.84729524298
 20
4096.58544298399
 30
0.0
  0
ENDBLK
  5
6E7
330
6E5
100
AcDbEntity
  8
0
100
AcDbBlockEnd
  0
BLOCK
  5
7F2
330
7F1
100
AcDbEntity
  8
0
100
AcDbBlockBegin
  2
Tabelki rysunkowe Rzut
 70
     2
 10
0.0
 20
0.0
 30
0.0
  3
Tabelki rysunkowe Rzut
  1

  0
TEXT
  5
7F4
330
7F1
100
AcDbEntity
  8
Title (ISO)
100
AcDbText
 10
166.7768162971836
 20
11.24130542460445
 30
0.0
 40
2.5
  1
Obowiązuje od:
  7
Note Text (ISO)
 11
166.7768162971836
 21
13.74130542460445
 31
0.0
100
AcDbText
 73
     3
  0
TEXT
  5
7F6
330
7F1
100
AcDbEntity
  8
Title (ISO)
100
AcDbText
 10
166.7768162971836
 20
18.24130542460445
 30
0.0
 40
2.5
  1
Nr kat.:
  7
Note Text (ISO)
 11
166.7768162971836
 21
20.74130542460446
 31
0.0
100
AcDbText
 73
     3
  0
TEXT
  5
7F7
330
7F1
100
AcDbEntity
  8
Title (ISO)
100
AcDbText
 10
166.7768162971836
 20
14.74130542460445
 30
0.0
 40
2.5
  1
Nazwa:
  7
Note Text (ISO)
 11
166.7768162971836
 21
17.24130542460445
 31
0.0
100
AcDbText
 73
     3
  0
ATTDEF
  5
7F8
102
{ACAD_XDICTIONARY
360
803
102
}
330
7F1
100
AcDbEntity
  8
Title (ISO)
100
AcDbText
 10
178.3604294617255
 20
18.13720873189256
 30
0.0
 40
2.5
  1
5100, 5101, 5102, 5104
  7
Note Text (ISO)
100
AcDbAttributeDefinition
  3
Numer katalogowy
  2
Numer_katalogowy_001
 70
     0
  0
ATTDEF
  5
7FA
102
{ACAD_XDICTIONARY
360
806
102
}
330
7F1
100
AcDbEntity
  8
Title (ISO)
100
AcDbText
 10
190.4107988369825
 20
11.13720873189256
 30
0.0
 40
2.5
  1
2021-01-22
  7
Note Text (ISO)
100
AcDbAttributeDefinition
  3
DATA UTWORZENIA
  2
DATA_UTWORZENIA_001
 70
     0
  0
ATTDEF
  5
7FB
102
{ACAD_XDICTIONARY
360
809
102
}
330
7F1
100
AcDbEntity
  8
Title (ISO)
100
AcDbText
 10
178.5182535041975
 20
14.1133672292195
 30
0.0
 40
2.5
  1
Stolik betonowy do wkopania ławki bez oparć
  7
Note Text (ISO)
100
AcDbAttributeDefinition
  3
Nazwa
  2
Nazwa_001
 70
     0
  0
ENDBLK
  5
7F3
330
7F1
100
AcDbEntity
  8
0
100
AcDbBlockEnd
  0
BLOCK
  5
967
330
966
100
AcDbEntity
  8
0
100
AcDbBlockBegin
  2
5100-5101-5102-5104_Stolik-betonowy-do-wkopania-lawki-bez-oparc
 70
     0
 10
0.0
 20
0.0
 30
0.0
  3
5100-5101-5102-5104_Stolik-betonowy-do-wkopania-lawki-bez-oparc
  1

  0
LINE
  5
969
330
966
100
AcDbEntity
  8
Visible (ISO)
100
AcDbLine
 10
650.0
 20
-775.750000000102
 30
0.0
 11
650.0
 21
-754.2500000001025
 31
0.0
  0
LINE
  5
96A
330
966
100
AcDbEntity
  8
Visible (ISO)
100
AcDbLine
 10
650.0
 20
-685.7500000001023
 30
0.0
 11
650.0
 21
-664.2500000001021
 31
0.0
  0
LINE
  5
96B
330
966
100
AcDbEntity
  8
Visible (ISO)
100
AcDbLine
 10
650.0
 20
-595.7500000001023
 30
0.0
 11
650.0
 21
-574.2500000001022
 31
0.0
  0
LINE
  5
96C
330
966
100
AcDbEntity
  8
Visible (ISO)
100
AcDbLine
 10
650.0
 20
574.2499999999008
 30
0.0
 11
650.0
 21
595.7499999999003
 31
0.0
  0
LINE
  5
96D
330
966
100
AcDbEntity
  8
Visible (ISO)
100
AcDbLine
 10
650.0
 20
664.2499999999004
 30
0.0
 11
650.0
 21
685.7499999998999
 31
0.0
  0
LINE
  5
96E
330
966
100
AcDbEntity
  8
Visible (ISO)
100
AcDbLine
 10
650.0
 20
754.2499999999003
 30
0.0
 11
650.0
 21
775.7499999998999
 31
0.0
  0
LINE
  5
96F
330
966
100
AcDbEntity
  8
Visible (ISO)
100
AcDbLine
 10
-650.0000000000018
 20
-574.2500000001034
 30
0.0
 11
-650.0000000000018
 21
-595.7500000001032
 31
0.0
  0
LINE
  5
970
330
966
100
AcDbEntity
  8
Visible (ISO)
100
AcDbLine
 10
-650.0000000000018
 20
-664.2500000001032
 30
0.0
 11
-650.0000000000018
 21
-685.7500000001031
 31
0.0
  0
LINE
  5
971
330
966
100
AcDbEntity
  8
Visible (ISO)
100
AcDbLine
 10
-650.0000000000018
 20
-754.2500000001034
 30
0.0
 11
-650.0000000000018
 21
-775.7500000001032
 31
0.0
  0
LINE
  5
972
330
966
100
AcDbEntity
  8
Visible (ISO)
100
AcDbLine
 10
-650.0000000000018
 20
775.749999999899
 30
0.0
 11
-650.0000000000018
 21
754.2499999998995
 31
0.0
  0
LINE
  5
973
330
966
100
AcDbEntity
  8
Visible (ISO)
100
AcDbLine
 10
-650.0000000000018
 20
685.749999999899
 30
0.0
 11
-650.0000000000018
 21
664.2499999998995
 31
0.0
  0
LINE
  5
974
330
966
100
AcDbEntity
  8
Visible (ISO)
100
AcDbLine
 10
-650.0000000000018
 20
595.7499999998995
 30
0.0
 11
-650.0000000000018
 21
574.2499999998995
 31
0.0
  0
ARC
  5
975
330
966
100
AcDbEntity
  8
Visible (ISO)
100
AcDbCircle
 10
-785.0
 20
-384.9999999999996
 30
0.0
 40
15.00000000000013
100
AcDbArc
 50
180.0
 51
270.0
  0
ARC
  5
976
330
966
100
AcDbEntity
  8
Visible (ISO)
100
AcDbCircle
 10
-784.9999999999981
 20
385.0
 30
0.0
 40
15.00000000000006
100
AcDbArc
 50
90.0
 51
180.0
  0
LINE
  5
977
330
966
100
AcDbEntity
  8
Visible (ISO)
100
AcDbLine
 10
-800.0
 20
385.0
 30
0.0
 11
-800.0
 21
-384.9999999999996
 31
0.0
  0
ARC
  5
978
330
966
100
AcDbEntity
  8
Visible (ISO)
100
AcDbCircle
 10
785.0
 20
-384.9999999999996
 30
0.0
 40
15.00000000000006
100
AcDbArc
 50
270.0
 51
0.0
  0
ARC
  5
979
330
966
100
AcDbEntity
  8
Visible (ISO)
100
AcDbCircle
 10
785.0
 20
385.0
 30
0.0
 40
15.00000000000013
100
AcDbArc
 50
0.0
 51
90.0
  0
LINE
  5
97A
330
966
100
AcDbEntity
  8
Visible (ISO)
100
AcDbLine
 10
785.0
 20
400.0
 30
0.0
 11
-785.0
 21
400.0
 31
0.0
  0
LINE
  5
97B
330
966
100
AcDbEntity
  8
Visible (ISO)
100
AcDbLine
 10
800.0
 20
-384.9999999999996
 30
0.0
 11
800.0
 21
385.0
 31
0.0
  0
LINE
  5
97C
330
966
100
AcDbEntity
  8
Visible (ISO)
100
AcDbLine
 10
-785.0
 20
-399.9999999999991
 30
0.0
 11
785.0
 21
-399.9999999999996
 31
0.0
  0
LINE
  5
97D
330
966
100
AcDbEntity
  8
Visible (ISO)
100
AcDbLine
 10
550.0
 20
-574.2500000001012
 30
0.0
 11
550.0
 21
-595.7500000001009
 31
0.0
  0
LINE
  5
97E
330
966
100
AcDbEntity
  8
Visible (ISO)
100
AcDbLine
 10
550.0
 20
-664.2500000001009
 30
0.0
 11
550.0
 21
-685.7500000001009
 31
0.0
  0
LINE
  5
97F
330
966
100
AcDbEntity
  8
Visible (ISO)
100
AcDbLine
 10
550.0
 20
-754.2500000001009
 30
0.0
 11
550.0
 21
-775.7500000001007
 31
0.0
  0
LINE
  5
980
330
966
100
AcDbEntity
  8
Visible (ISO)
100
AcDbLine
 10
500.0
 20
-574.2500000001012
 30
0.0
 11
500.0
 21
-595.7500000001009
 31
0.0
  0
LINE
  5
981
330
966
100
AcDbEntity
  8
Visible (ISO)
100
AcDbLine
 10
500.0
 20
-664.2500000001011
 30
0.0
 11
500.0
 21
-685.7500000001011
 31
0.0
  0
LINE
  5
982
330
966
100
AcDbEntity
  8
Visible (ISO)
100
AcDbLine
 10
500.0
 20
-754.2500000001009
 30
0.0
 11
500.0
 21
-775.7500000001007
 31
0.0
  0
LINE
  5
983
330
966
100
AcDbEntity
  8
Visible (ISO)
100
AcDbLine
 10
-550.0000000000018
 20
-775.7500000001011
 30
0.0
 11
-550.0000000000018
 21
-754.2500000001013
 31
0.0
  0
LINE
  5
984
330
966
100
AcDbEntity
  8
Visible (ISO)
100
AcDbLine
 10
-550.0000000000018
 20
-685.7500000001018
 30
0.0
 11
-550.0000000000018
 21
-664.2500000001018
 31
0.0
  0
LINE
  5
985
330
966
100
AcDbEntity
  8
Visible (ISO)
100
AcDbLine
 10
-550.0000000000018
 20
-595.7500000001023
 30
0.0
 11
-550.0000000000018
 21
-574.2500000001028
 31
0.0
  0
LINE
  5
986
330
966
100
AcDbEntity
  8
Visible (ISO)
100
AcDbLine
 10
-500.0000000000018
 20
-775.7500000001011
 30
0.0
 11
-500.0000000000018
 21
-754.2500000001013
 31
0.0
  0
LINE
  5
987
330
966
100
AcDbEntity
  8
Visible (ISO)
100
AcDbLine
 10
-500.0
 20
-685.7500000001018
 30
0.0
 11
-500.0
 21
-664.2500000001018
 31
0.0
  0
LINE
  5
988
330
966
100
AcDbEntity
  8
Visible (ISO)
100
AcDbLine
 10
-500.0
 20
-595.7500000001023
 30
0.0
 11
-500.0
 21
-574.2500000001028
 31
0.0
  0
LINE
  5
989
330
966
100
AcDbEntity
  8
Visible (ISO)
100
AcDbLine
 10
-550.0000000000018
 20
574.2499999999012
 30
0.0
 11
-550.0000000000018
 21
595.7499999999013
 31
0.0
  0
LINE
  5
98A
330
966
100
AcDbEntity
  8
Visible (ISO)
100
AcDbLine
 10
-550.0000000000018
 20
664.2499999999013
 30
0.0
 11
-550.0000000000018
 21
685.7499999999008
 31
0.0
  0
LINE
  5
98B
330
966
100
AcDbEntity
  8
Visible (ISO)
100
AcDbLine
 10
-550.0000000000018
 20
754.2499999999009
 30
0.0
 11
-550.0000000000018
 21
775.7499999999004
 31
0.0
  0
LINE
  5
98C
330
966
100
AcDbEntity
  8
Visible (ISO)
100
AcDbLine
 10
-500.0
 20
574.2499999999012
 30
0.0
 11
-500.0
 21
595.7499999999013
 31
0.0
  0
LINE
  5
98D
330
966
100
AcDbEntity
  8
Visible (ISO)
100
AcDbLine
 10
-500.0
 20
664.2499999999013
 30
0.0
 11
-500.0
 21
685.7499999999008
 31
0.0
  0
LINE
  5
98E
330
966
100
AcDbEntity
  8
Visible (ISO)
100
AcDbLine
 10
-500.0
 20
754.2499999999013
 30
0.0
 11
-500.0
 21
775.7499999999004
 31
0.0
  0
LINE
  5
98F
330
966
100
AcDbEntity
  8
Visible (ISO)
100
AcDbLine
 10
550.0
 20
775.7499999999009
 30
0.0
 11
550.0
 21
754.2499999999009
 31
0.0
  0
LINE
  5
990
330
966
100
AcDbEntity
  8
Visible (ISO)
100
AcDbLine
 10
550.0
 20
685.7499999999013
 30
0.0
 11
550.0
 21
664.2499999999017
 31
0.0
  0
LINE
  5
991
330
966
100
AcDbEntity
  8
Visible (ISO)
100
AcDbLine
 10
550.0
 20
595.7499999999022
 30
0.0
 11
550.0
 21
574.2499999999018
 31
0.0
  0
LINE
  5
992
330
966
100
AcDbEntity
  8
Visible (ISO)
100
AcDbLine
 10
500.0
 20
775.7499999999009
 30
0.0
 11
500.0
 21
754.2499999999009
 31
0.0
  0
LINE
  5
993
330
966
100
AcDbEntity
  8
Visible (ISO)
100
AcDbLine
 10
500.0
 20
685.7499999999013
 30
0.0
 11
500.0
 21
664.2499999999017
 31
0.0
  0
LINE
  5
994
330
966
100
AcDbEntity
  8
Visible (ISO)
100
AcDbLine
 10
500.0
 20
595.7499999999022
 30
0.0
 11
500.0
 21
574.2499999999018
 31
0.0
  0
CIRCLE
  5
995
330
966
100
AcDbEntity
  8
Visible (ISO)
100
AcDbCircle
 10
-520.0
 20
-540.00000000009
 30
0.0
 40
12.325
  0
CIRCLE
  5
996
330
966
100
AcDbEntity
  8
Visible (ISO)
100
AcDbCircle
 10
520.0
 20
-540.0000000000895
 30
0.0
 40
12.325
  0
CIRCLE
  5
997
330
966
100
AcDbEntity
  8
Visible (ISO)
100
AcDbCircle
 10
-520.0
 20
-630.0000000000898
 30
0.0
 40
12.325
  0
CIRCLE
  5
998
330
966
100
AcDbEntity
  8
Visible (ISO)
100
AcDbCircle
 10
520.0
 20
-630.0000000000893
 30
0.0
 40
12.325
  0
CIRCLE
  5
999
330
966
100
AcDbEntity
  8
Visible (ISO)
100
AcDbCircle
 10
-520.0
 20
-720.0000000000898
 30
0.0
 40
12.325
  0
CIRCLE
  5
99A
330
966
100
AcDbEntity
  8
Visible (ISO)
100
AcDbCircle
 10
520.0
 20
-720.0000000000893
 30
0.0
 40
12.325
  0
CIRCLE
  5
99B
330
966
100
AcDbEntity
  8
Visible (ISO)
100
AcDbCircle
 10
-520.0
 20
-810.0000000000896
 30
0.0
 40
12.325
  0
CIRCLE
  5
99C
330
966
100
AcDbEntity
  8
Visible (ISO)
100
AcDbCircle
 10
520.0
 20
-810.0000000000891
 30
0.0
 40
12.325
  0
CIRCLE
  5
99D
330
966
100
AcDbEntity
  8
Visible (ISO)
100
AcDbCircle
 10
520.0
 20
539.9999999999136
 30
0.0
 40
12.325
  0
CIRCLE
  5
99E
330
966
100
AcDbEntity
  8
Visible (ISO)
100
AcDbCircle
 10
-520.0
 20
539.9999999999131
 30
0.0
 40
12.325
  0
CIRCLE
  5
99F
330
966
100
AcDbEntity
  8
Visible (ISO)
100
AcDbCircle
 10
520.0
 20
629.9999999999136
 30
0.0
 40
12.325
  0
CIRCLE
  5
9A0
330
966
100
AcDbEntity
  8
Visible (ISO)
100
AcDbCircle
 10
-520.0
 20
629.9999999999126
 30
0.0
 40
12.325
  0
CIRCLE
  5
9A1
330
966
100
AcDbEntity
  8
Visible (ISO)
100
AcDbCircle
 10
520.0
 20
719.9999999999135
 30
0.0
 40
12.325
  0
CIRCLE
  5
9A2
330
966
100
AcDbEntity
  8
Visible (ISO)
100
AcDbCircle
 10
-520.0
 20
719.9999999999127
 30
0.0
 40
12.325
  0
CIRCLE
  5
9A3
330
966
100
AcDbEntity
  8
Visible (ISO)
100
AcDbCircle
 10
520.0
 20
809.9999999999136
 30
0.0
 40
12.325
  0
CIRCLE
  5
9A4
330
966
100
AcDbEntity
  8
Visible (ISO)
100
AcDbCircle
 10
-520.0
 20
809.9999999999127
 30
0.0
 40
12.325
  0
LINE
  5
9A5
330
966
100
AcDbEntity
  8
Visible (ISO)
100
AcDbLine
 10
899.9999999999964
 20
-574.2500000000909
 30
0.0
 11
899.9999999999964
 21
-564.2500000000891
 31
0.0
  0
LINE
  5
9A6
330
966
100
AcDbEntity
  8
Visible (ISO)
100
AcDbLine
 10
899.9999999999964
 20
-564.2500000000891
 30
0.0
 11
-900.0000000000017
 21
-564.2500000000906
 31
0.0
  0
LINE
  5
9A7
330
966
100
AcDbEntity
  8
Visible (ISO)
100
AcDbLine
 10
-900.0000000000017
 20
-564.2500000000906
 30
0.0
 11
-900.0000000000017
 21
-574.2500000000925
 31
0.0
  0
LINE
  5
9A8
330
966
100
AcDbEntity
  8
Visible (ISO)
100
AcDbLine
 10
-900.0000000000017
 20
-574.2500000000925
 30
0.0
 11
899.9999999999964
 21
-574.2500000000909
 31
0.0
  0
LINE
  5
9A9
330
966
100
AcDbEntity
  8
Visible (ISO)
100
AcDbLine
 10
899.9999999999964
 20
-564.2500000000891
 30
0.0
 11
899.9999999999964
 21
-515.7500000000891
 31
0.0
  0
LINE
  5
9AA
330
966
100
AcDbEntity
  8
Visible (ISO)
100
AcDbLine
 10
-900.0000000000017
 20
-515.7500000000907
 30
0.0
 11
-900.0000000000017
 21
-564.2500000000906
 31
0.0
  0
LINE
  5
9AB
330
966
100
AcDbEntity
  8
Visible (ISO)
100
AcDbLine
 10
-900.0000000000017
 20
-515.7500000000907
 30
0.0
 11
899.9999999999964
 21
-515.7500000000891
 31
0.0
  0
LINE
  5
9AC
330
966
100
AcDbEntity
  8
Visible (ISO)
100
AcDbLine
 10
899.9999999999964
 20
-515.7500000000891
 30
0.0
 11
899.9999999999964
 21
-505.7500000000909
 31
0.0
  0
LINE
  5
9AD
330
966
100
AcDbEntity
  8
Visible (ISO)
100
AcDbLine
 10
-900.0000000000017
 20
-505.7500000000925
 30
0.0
 11
-900.0000000000017
 21
-515.7500000000907
 31
0.0
  0
LINE
  5
9AE
330
966
100
AcDbEntity
  8
Visible (ISO)
100
AcDbLine
 10
899.9999999999964
 20
-505.7500000000909
 30
0.0
 11
-900.0000000000017
 21
-505.7500000000925
 31
0.0
  0
LINE
  5
9AF
330
966
100
AcDbEntity
  8
Visible (ISO)
100
AcDbLine
 10
899.9999999999964
 20
-664.2500000000909
 30
0.0
 11
899.9999999999964
 21
-654.2500000000891
 31
0.0
  0
LINE
  5
9B0
330
966
100
AcDbEntity
  8
Visible (ISO)
100
AcDbLine
 10
899.9999999999964
 20
-654.2500000000891
 30
0.0
 11
-900.0000000000017
 21
-654.2500000000907
 31
0.0
  0
LINE
  5
9B1
330
966
100
AcDbEntity
  8
Visible (ISO)
100
AcDbLine
 10
-900.0000000000017
 20
-654.2500000000907
 30
0.0
 11
-900.0000000000017
 21
-664.2500000000922
 31
0.0
  0
LINE
  5
9B2
330
966
100
AcDbEntity
  8
Visible (ISO)
100
AcDbLine
 10
-900.0000000000017
 20
-664.2500000000922
 30
0.0
 11
899.9999999999964
 21
-664.2500000000909
 31
0.0
  0
LINE
  5
9B3
330
966
100
AcDbEntity
  8
Visible (ISO)
100
AcDbLine
 10
899.9999999999964
 20
-654.2500000000891
 30
0.0
 11
899.9999999999964
 21
-605.7500000000893
 31
0.0
  0
LINE
  5
9B4
330
966
100
AcDbEntity
  8
Visible (ISO)
100
AcDbLine
 10
-900.0000000000017
 20
-605.7500000000906
 30
0.0
 11
-900.0000000000017
 21
-654.2500000000907
 31
0.0
  0
LINE
  5
9B5
330
966
100
AcDbEntity
  8
Visible (ISO)
100
AcDbLine
 10
-900.0000000000017
 20
-605.7500000000906
 30
0.0
 11
899.9999999999964
 21
-605.7500000000891
 31
0.0
  0
LINE
  5
9B6
330
966
100
AcDbEntity
  8
Visible (ISO)
100
AcDbLine
 10
899.9999999999964
 20
-605.7500000000891
 30
0.0
 11
899.9999999999964
 21
-595.7500000000909
 31
0.0
  0
LINE
  5
9B7
330
966
100
AcDbEntity
  8
Visible (ISO)
100
AcDbLine
 10
-900.0000000000017
 20
-595.7500000000923
 30
0.0
 11
-900.0000000000017
 21
-605.7500000000906
 31
0.0
  0
LINE
  5
9B8
330
966
100
AcDbEntity
  8
Visible (ISO)
100
AcDbLine
 10
899.9999999999964
 20
-595.7500000000909
 30
0.0
 11
-900.0000000000017
 21
-595.7500000000923
 31
0.0
  0
LINE
  5
9B9
330
966
100
AcDbEntity
  8
Visible (ISO)
100
AcDbLine
 10
899.9999999999964
 20
-754.2500000000909
 30
0.0
 11
899.9999999999964
 21
-744.2500000000891
 31
0.0
  0
LINE
  5
9BA
330
966
100
AcDbEntity
  8
Visible (ISO)
100
AcDbLine
 10
899.9999999999964
 20
-744.2500000000891
 30
0.0
 11
-900.0000000000017
 21
-744.2500000000904
 31
0.0
  0
LINE
  5
9BB
330
966
100
AcDbEntity
  8
Visible (ISO)
100
AcDbLine
 10
-900.0000000000017
 20
-744.2500000000904
 30
0.0
 11
-900.0000000000017
 21
-754.2500000000923
 31
0.0
  0
LINE
  5
9BC
330
966
100
AcDbEntity
  8
Visible (ISO)
100
AcDbLine
 10
-900.0000000000017
 20
-754.2500000000923
 30
0.0
 11
899.9999999999964
 21
-754.2500000000909
 31
0.0
  0
LINE
  5
9BD
330
966
100
AcDbEntity
  8
Visible (ISO)
100
AcDbLine
 10
899.9999999999964
 20
-744.2500000000891
 30
0.0
 11
899.9999999999964
 21
-695.7500000000891
 31
0.0
  0
LINE
  5
9BE
330
966
100
AcDbEntity
  8
Visible (ISO)
100
AcDbLine
 10
-900.0000000000017
 20
-695.7500000000905
 30
0.0
 11
-900.0000000000017
 21
-744.2500000000904
 31
0.0
  0
LINE
  5
9BF
330
966
100
AcDbEntity
  8
Visible (ISO)
100
AcDbLine
 10
-900.0000000000017
 20
-695.7500000000905
 30
0.0
 11
899.9999999999964
 21
-695.7500000000891
 31
0.0
  0
LINE
  5
9C0
330
966
100
AcDbEntity
  8
Visible (ISO)
100
AcDbLine
 10
899.9999999999964
 20
-695.7500000000891
 30
0.0
 11
899.9999999999964
 21
-685.7500000000909
 31
0.0
  0
LINE
  5
9C1
330
966
100
AcDbEntity
  8
Visible (ISO)
100
AcDbLine
 10
-900.0000000000017
 20
-685.7500000000923
 30
0.0
 11
-900.0000000000017
 21
-695.7500000000905
 31
0.0
  0
LINE
  5
9C2
330
966
100
AcDbEntity
  8
Visible (ISO)
100
AcDbLine
 10
899.9999999999964
 20
-685.7500000000909
 30
0.0
 11
-900.0000000000017
 21
-685.7500000000925
 31
0.0
  0
LINE
  5
9C3
330
966
100
AcDbEntity
  8
Visible (ISO)
100
AcDbLine
 10
899.9999999999964
 20
-844.2500000000906
 30
0.0
 11
899.9999999999964
 21
-834.2500000000889
 31
0.0
  0
LINE
  5
9C4
330
966
100
AcDbEntity
  8
Visible (ISO)
100
AcDbLine
 10
899.9999999999964
 20
-834.2500000000889
 30
0.0
 11
-900.0000000000017
 21
-834.2500000000903
 31
0.0
  0
LINE
  5
9C5
330
966
100
AcDbEntity
  8
Visible (ISO)
100
AcDbLine
 10
-900.0000000000017
 20
-834.2500000000903
 30
0.0
 11
-900.0000000000017
 21
-844.250000000092
 31
0.0
  0
LINE
  5
9C6
330
966
100
AcDbEntity
  8
Visible (ISO)
100
AcDbLine
 10
-900.0000000000017
 20
-844.250000000092
 30
0.0
 11
899.9999999999964
 21
-844.2500000000904
 31
0.0
  0
LINE
  5
9C7
330
966
100
AcDbEntity
  8
Visible (ISO)
100
AcDbLine
 10
899.9999999999964
 20
-834.2500000000889
 30
0.0
 11
899.9999999999964
 21
-785.7500000000891
 31
0.0
  0
LINE
  5
9C8
330
966
100
AcDbEntity
  8
Visible (ISO)
100
AcDbLine
 10
-900.0000000000017
 20
-785.7500000000903
 30
0.0
 11
-900.0000000000017
 21
-834.2500000000903
 31
0.0
  0
LINE
  5
9C9
330
966
100
AcDbEntity
  8
Visible (ISO)
100
AcDbLine
 10
-900.0000000000017
 20
-785.7500000000903
 30
0.0
 11
899.9999999999964
 21
-785.7500000000891
 31
0.0
  0
LINE
  5
9CA
330
966
100
AcDbEntity
  8
Visible (ISO)
100
AcDbLine
 10
899.9999999999964
 20
-785.7500000000891
 30
0.0
 11
899.9999999999964
 21
-775.7500000000909
 31
0.0
  0
LINE
  5
9CB
330
966
100
AcDbEntity
  8
Visible (ISO)
100
AcDbLine
 10
-900.0000000000017
 20
-775.7500000000921
 30
0.0
 11
-900.0000000000017
 21
-785.7500000000903
 31
0.0
  0
LINE
  5
9CC
330
966
100
AcDbEntity
  8
Visible (ISO)
100
AcDbLine
 10
899.9999999999964
 20
-775.7500000000909
 30
0.0
 11
-900.0000000000017
 21
-775.7500000000923
 31
0.0
  0
LINE
  5
9CD
330
966
100
AcDbEntity
  8
Visible (ISO)
100
AcDbLine
 10
-900.0000000000017
 20
574.2499999999104
 30
0.0
 11
-900.0000000000017
 21
564.2499999999122
 31
0.0
  0
LINE
  5
9CE
330
966
100
AcDbEntity
  8
Visible (ISO)
100
AcDbLine
 10
-900.0000000000017
 20
564.2499999999122
 30
0.0
 11
899.9999999999964
 21
564.2499999999135
 31
0.0
  0
LINE
  5
9CF
330
966
100
AcDbEntity
  8
Visible (ISO)
100
AcDbLine
 10
899.9999999999964
 20
564.2499999999135
 30
0.0
 11
899.9999999999964
 21
574.2499999999117
 31
0.0
  0
LINE
  5
9D0
330
966
100
AcDbEntity
  8
Visible (ISO)
100
AcDbLine
 10
899.9999999999964
 20
574.2499999999117
 30
0.0
 11
-900.0000000000017
 21
574.2499999999104
 31
0.0
  0
LINE
  5
9D1
330
966
100
AcDbEntity
  8
Visible (ISO)
100
AcDbLine
 10
-900.0000000000017
 20
564.2499999999122
 30
0.0
 11
-900.0000000000017
 21
515.7499999999122
 31
0.0
  0
LINE
  5
9D2
330
966
100
AcDbEntity
  8
Visible (ISO)
100
AcDbLine
 10
899.9999999999964
 20
515.7499999999136
 30
0.0
 11
899.9999999999964
 21
564.2499999999135
 31
0.0
  0
LINE
  5
9D3
330
966
100
AcDbEntity
  8
Visible (ISO)
100
AcDbLine
 10
899.9999999999964
 20
515.7499999999136
 30
0.0
 11
-900.0000000000017
 21
515.7499999999122
 31
0.0
  0
LINE
  5
9D4
330
966
100
AcDbEntity
  8
Visible (ISO)
100
AcDbLine
 10
-900.0000000000017
 20
515.7499999999122
 30
0.0
 11
-900.0000000000017
 21
505.7499999999103
 31
0.0
  0
LINE
  5
9D5
330
966
100
AcDbEntity
  8
Visible (ISO)
100
AcDbLine
 10
899.9999999999964
 20
505.7499999999118
 30
0.0
 11
899.9999999999964
 21
515.7499999999136
 31
0.0
  0
LINE
  5
9D6
330
966
100
AcDbEntity
  8
Visible (ISO)
100
AcDbLine
 10
-900.0000000000017
 20
505.7499999999103
 30
0.0
 11
899.9999999999964
 21
505.7499999999118
 31
0.0
  0
LINE
  5
9D7
330
966
100
AcDbEntity
  8
Visible (ISO)
100
AcDbLine
 10
-900.0000000000017
 20
664.2499999999103
 30
0.0
 11
-900.0000000000017
 21
654.2499999999117
 31
0.0
  0
LINE
  5
9D8
330
966
100
AcDbEntity
  8
Visible (ISO)
100
AcDbLine
 10
-900.0000000000017
 20
654.2499999999122
 30
0.0
 11
899.9999999999964
 21
654.2499999999136
 31
0.0
  0
LINE
  5
9D9
330
966
100
AcDbEntity
  8
Visible (ISO)
100
AcDbLine
 10
899.9999999999964
 20
654.2499999999131
 30
0.0
 11
899.9999999999964
 21
664.2499999999118
 31
0.0
  0
LINE
  5
9DA
330
966
100
AcDbEntity
  8
Visible (ISO)
100
AcDbLine
 10
899.9999999999964
 20
664.2499999999118
 30
0.0
 11
-900.0000000000017
 21
664.2499999999103
 31
0.0
  0
LINE
  5
9DB
330
966
100
AcDbEntity
  8
Visible (ISO)
100
AcDbLine
 10
-900.0000000000017
 20
654.2499999999122
 30
0.0
 11
-900.0000000000017
 21
605.7499999999122
 31
0.0
  0
LINE
  5
9DC
330
966
100
AcDbEntity
  8
Visible (ISO)
100
AcDbLine
 10
899.9999999999964
 20
605.7499999999135
 30
0.0
 11
899.9999999999964
 21
654.2499999999131
 31
0.0
  0
LINE
  5
9DD
330
966
100
AcDbEntity
  8
Visible (ISO)
100
AcDbLine
 10
899.9999999999964
 20
605.7499999999135
 30
0.0
 11
-900.0000000000017
 21
605.7499999999122
 31
0.0
  0
LINE
  5
9DE
330
966
100
AcDbEntity
  8
Visible (ISO)
100
AcDbLine
 10
-900.0000000000017
 20
605.7499999999122
 30
0.0
 11
-900.0000000000017
 21
595.7499999999104
 31
0.0
  0
LINE
  5
9DF
330
966
100
AcDbEntity
  8
Visible (ISO)
100
AcDbLine
 10
899.9999999999964
 20
595.7499999999117
 30
0.0
 11
899.9999999999964
 21
605.7499999999135
 31
0.0
  0
LINE
  5
9E0
330
966
100
AcDbEntity
  8
Visible (ISO)
100
AcDbLine
 10
-900.0000000000017
 20
595.7499999999104
 30
0.0
 11
899.9999999999964
 21
595.7499999999117
 31
0.0
  0
LINE
  5
9E1
330
966
100
AcDbEntity
  8
Visible (ISO)
100
AcDbLine
 10
-900.0000000000017
 20
754.2499999999099
 30
0.0
 11
-900.0000000000017
 21
744.2499999999117
 31
0.0
  0
LINE
  5
9E2
330
966
100
AcDbEntity
  8
Visible (ISO)
100
AcDbLine
 10
-900.0000000000017
 20
744.2499999999122
 30
0.0
 11
899.9999999999964
 21
744.2499999999135
 31
0.0
  0
LINE
  5
9E3
330
966
100
AcDbEntity
  8
Visible (ISO)
100
AcDbLine
 10
899.9999999999964
 20
744.2499999999135
 30
0.0
 11
899.9999999999964
 21
754.2499999999113
 31
0.0
  0
LINE
  5
9E4
330
966
100
AcDbEntity
  8
Visible (ISO)
100
AcDbLine
 10
899.9999999999964
 20
754.2499999999113
 30
0.0
 11
-900.0000000000017
 21
754.2499999999099
 31
0.0
  0
LINE
  5
9E5
330
966
100
AcDbEntity
  8
Visible (ISO)
100
AcDbLine
 10
-900.0000000000017
 20
744.2499999999122
 30
0.0
 11
-900.0000000000017
 21
695.7499999999117
 31
0.0
  0
LINE
  5
9E6
330
966
100
AcDbEntity
  8
Visible (ISO)
100
AcDbLine
 10
899.9999999999964
 20
695.7499999999136
 30
0.0
 11
899.9999999999964
 21
744.2499999999135
 31
0.0
  0
LINE
  5
9E7
330
966
100
AcDbEntity
  8
Visible (ISO)
100
AcDbLine
 10
899.9999999999964
 20
695.7499999999136
 30
0.0
 11
-900.0000000000017
 21
695.7499999999122
 31
0.0
  0
LINE
  5
9E8
330
966
100
AcDbEntity
  8
Visible (ISO)
100
AcDbLine
 10
-900.0000000000017
 20
695.7499999999117
 30
0.0
 11
-900.0000000000017
 21
685.7499999999104
 31
0.0
  0
LINE
  5
9E9
330
966
100
AcDbEntity
  8
Visible (ISO)
100
AcDbLine
 10
899.9999999999964
 20
685.7499999999117
 30
0.0
 11
899.9999999999964
 21
695.7499999999131
 31
0.0
  0
LINE
  5
9EA
330
966
100
AcDbEntity
  8
Visible (ISO)
100
AcDbLine
 10
-900.0000000000017
 20
685.7499999999104
 30
0.0
 11
899.9999999999964
 21
685.7499999999113
 31
0.0
  0
LINE
  5
9EB
330
966
100
AcDbEntity
  8
Visible (ISO)
100
AcDbLine
 10
-900.0000000000017
 20
844.24999999991
 30
0.0
 11
-900.0000000000017
 21
834.2499999999112
 31
0.0
  0
LINE
  5
9EC
330
966
100
AcDbEntity
  8
Visible (ISO)
100
AcDbLine
 10
-900.0000000000017
 20
834.2499999999118
 30
0.0
 11
899.9999999999964
 21
834.249999999913
 31
0.0
  0
LINE
  5
9ED
330
966
100
AcDbEntity
  8
Visible (ISO)
100
AcDbLine
 10
899.9999999999964
 20
834.249999999913
 30
0.0
 11
899.9999999999964
 21
844.2499999999112
 31
0.0
  0
LINE
  5
9EE
330
966
100
AcDbEntity
  8
Visible (ISO)
100
AcDbLine
 10
899.9999999999964
 20
844.2499999999112
 30
0.0
 11
-900.0000000000017
 21
844.24999999991
 31
0.0
  0
LINE
  5
9EF
330
966
100
AcDbEntity
  8
Visible (ISO)
100
AcDbLine
 10
-900.0000000000017
 20
834.2499999999118
 30
0.0
 11
-900.0000000000017
 21
785.7499999999117
 31
0.0
  0
LINE
  5
9F0
330
966
100
AcDbEntity
  8
Visible (ISO)
100
AcDbLine
 10
899.9999999999964
 20
785.7499999999131
 30
0.0
 11
899.9999999999964
 21
834.249999999913
 31
0.0
  0
LINE
  5
9F1
330
966
100
AcDbEntity
  8
Visible (ISO)
100
AcDbLine
 10
899.9999999999964
 20
785.7499999999131
 30
0.0
 11
-900.0000000000017
 21
785.7499999999122
 31
0.0
  0
LINE
  5
9F2
330
966
100
AcDbEntity
  8
Visible (ISO)
100
AcDbLine
 10
-900.0000000000017
 20
785.7499999999117
 30
0.0
 11
-900.0000000000017
 21
775.7499999999104
 31
0.0
  0
LINE
  5
9F3
330
966
100
AcDbEntity
  8
Visible (ISO)
100
AcDbLine
 10
899.9999999999964
 20
775.7499999999112
 30
0.0
 11
899.9999999999964
 21
785.7499999999131
 31
0.0
  0
LINE
  5
9F4
330
966
100
AcDbEntity
  8
Visible (ISO)
100
AcDbLine
 10
-900.0000000000017
 20
775.7499999999104
 30
0.0
 11
899.9999999999964
 21
775.7499999999112
 31
0.0
  0
LINE
  5
9F5
330
966
100
AcDbEntity
  8
Visible (ISO)
100
AcDbLine
 10
651.9999999999964
 20
-754.2500000001102
 30
0.0
 11
651.9999999999964
 21
-760.0000000001127
 31
0.0
  0
LINE
  5
9F6
330
966
100
AcDbEntity
  8
Visible (ISO)
100
AcDbLine
 10
649.9999999999963
 20
-760.0000000001127
 30
0.0
 11
651.9999999999964
 21
-760.0000000001127
 31
0.0
  0
LINE
  5
9F7
330
966
100
AcDbEntity
  8
Visible (ISO)
100
AcDbLine
 10
651.9999999999964
 20
-590.0000000001127
 30
0.0
 11
651.9999999999964
 21
-595.7500000001102
 31
0.0
  0
LINE
  5
9F8
330
966
100
AcDbEntity
  8
Visible (ISO)
100
AcDbLine
 10
649.9999999999963
 20
-590.0000000001127
 30
0.0
 11
651.9999999999964
 21
-590.0000000001127
 31
0.0
  0
LINE
  5
9F9
330
966
100
AcDbEntity
  8
Visible (ISO)
100
AcDbLine
 10
-652.0000000000018
 20
-760.0000000001127
 30
0.0
 11
-652.0000000000018
 21
-754.2500000001112
 31
0.0
  0
LINE
  5
9FA
330
966
100
AcDbEntity
  8
Visible (ISO)
100
AcDbLine
 10
-650.0000000000018
 20
-760.0000000001127
 30
0.0
 11
-652.0000000000018
 21
-760.0000000001127
 31
0.0
  0
LINE
  5
9FB
330
966
100
AcDbEntity
  8
Visible (ISO)
100
AcDbLine
 10
-652.0000000000018
 20
-595.7500000001111
 30
0.0
 11
-652.0000000000018
 21
-590.0000000001127
 31
0.0
  0
LINE
  5
9FC
330
966
100
AcDbEntity
  8
Visible (ISO)
100
AcDbLine
 10
-650.0000000000018
 20
-590.0000000001127
 30
0.0
 11
-652.0000000000018
 21
-590.0000000001127
 31
0.0
  0
LINE
  5
9FD
330
966
100
AcDbEntity
  8
Visible (ISO)
100
AcDbLine
 10
-652.0000000000018
 20
754.2499999998913
 30
0.0
 11
-652.0000000000018
 21
759.9999999998881
 31
0.0
  0
LINE
  5
9FE
330
966
100
AcDbEntity
  8
Visible (ISO)
100
AcDbLine
 10
-650.0000000000018
 20
759.9999999998881
 30
0.0
 11
-652.0000000000018
 21
759.9999999998881
 31
0.0
  0
LINE
  5
9FF
330
966
100
AcDbEntity
  8
Visible (ISO)
100
AcDbLine
 10
-652.0000000000018
 20
589.9999999998885
 30
0.0
 11
-652.0000000000018
 21
595.7499999998917
 31
0.0
  0
LINE
  5
A00
330
966
100
AcDbEntity
  8
Visible (ISO)
100
AcDbLine
 10
-650.0000000000018
 20
589.9999999998885
 30
0.0
 11
-652.0000000000018
 21
589.9999999998885
 31
0.0
  0
LINE
  5
A01
330
966
100
AcDbEntity
  8
Visible (ISO)
100
AcDbLine
 10
651.9999999999964
 20
759.9999999998881
 30
0.0
 11
651.9999999999964
 21
754.2499999998922
 31
0.0
  0
LINE
  5
A02
330
966
100
AcDbEntity
  8
Visible (ISO)
100
AcDbLine
 10
649.9999999999963
 20
759.9999999998881
 30
0.0
 11
651.9999999999964
 21
759.9999999998881
 31
0.0
  0
LINE
  5
A03
330
966
100
AcDbEntity
  8
Visible (ISO)
100
AcDbLine
 10
651.9999999999964
 20
595.7499999998926
 30
0.0
 11
651.9999999999964
 21
589.9999999998885
 31
0.0
  0
LINE
  5
A04
330
966
100
AcDbEntity
  8
Visible (ISO)
100
AcDbLine
 10
649.9999999999963
 20
589.9999999998885
 30
0.0
 11
651.9999999999964
 21
589.9999999998885
 31
0.0
  0
SPLINE
  5
A05
330
966
100
AcDbEntity
  8
Visible (ISO)
100
AcDbSpline
210
0.0
220
0.0
230
1.0
 70
    12
 71
     2
 72
     6
 73
     3
 74
     0
 42
0.0000000001
 43
0.0000000001
 40
0.0
 40
0.0
 40
0.0
 40
0.4978532609589533
 40
0.4978532609589533
 40
0.4978532609589533
 10
-657.640910621445
 20
-754.907477288222
 30
0.0
 41
1.0
 10
-658.4001000000007
 20
-756.2224318644464
 30
0.0
 41
1.037954849302054
 10
-658.4001000000007
 20
-757.3612159322792
 30
0.0
 41
1.0
  0
SPLINE
  5
A06
330
966
100
AcDbEntity
  8
Visible (ISO)
100
AcDbSpline
210
0.0
220
0.0
230
1.0
 70
    12
 71
     2
 72
     6
 73
     3
 74
     0
 42
0.0000000001
 43
0.0000000001
 40
0.9344989164529136
 40
0.9344989164529136
 40
0.9344989164529136
 40
0.9957065219179071
 40
0.9957065219179071
 40
0.9957065219179071
 10
-657.8208508809857
 20
-754.2500000001114
 30
0.0
 41
1.008185196084251
 10
-657.7373403159035
 20
-754.5734350279003
 30
0.0
 41
1.004666285477549
 10
-657.640910621445
 20
-754.907477288222
 30
0.0
 41
1.0
  0
LINE
  5
A07
330
966
100
AcDbEntity
  8
Visible (ISO)
100
AcDbLine
 10
-658.4001000000007
 20
-754.2500000001118
 30
0.0
 11
-658.4001000000007
 21
-757.3612159322792
 31
0.0
  0
SPLINE
  5
A08
330
966
100
AcDbEntity
  8
Visible (ISO)
100
AcDbSpline
210
0.0
220
0.0
230
1.0
 70
    12
 71
     2
 72
     6
 73
     3
 74
     0
 42
0.0000000001
 43
0.0000000001
 40
0.4978532609589533
 40
0.4978532609589533
 40
0.4978532609589533
 40
0.9957065219179067
 40
0.9957065219179067
 40
0.9957065219179067
 10
-658.4001000000007
 20
-757.3612159322792
 30
0.0
 41
1.0
 10
-658.4001000000007
 20
-758.500000000112
 30
0.0
 41
1.037954849302048
 10
-657.640910621445
 20
-759.8149545763365
 30
0.0
 41
1.0
  0
LINE
  5
A09
330
966
100
AcDbEntity
  8
Visible (ISO)
100
AcDbLine
 10
-658.4001000000007
 20
-757.3612159322792
 30
0.0
 11
-658.4001000000007
 21
-758.5000000001127
 31
0.0
  0
LINE
  5
A0A
330
966
100
AcDbEntity
  8
Visible (ISO)
100
AcDbLine
 10
-658.4001000000007
 20
-758.500000000113
 30
0.0
 11
-657.640910621445
 21
-759.8149545763365
 31
0.0
  0
LINE
  5
A0B
330
966
100
AcDbEntity
  8
Visible (ISO)
100
AcDbLine
 10
-652.6000999999996
 20
-754.2500000001114
 30
0.0
 11
-652.6000999999996
 21
-754.907477288222
 31
0.0
  0
LINE
  5
A0C
330
966
100
AcDbEntity
  8
Visible (ISO)
100
AcDbLine
 10
-652.6000999999996
 20
-754.907477288222
 30
0.0
 11
-652.6000999999996
 21
-759.8149545763365
 31
0.0
  0
LINE
  5
A0D
330
966
100
AcDbEntity
  8
Visible (ISO)
100
AcDbLine
 10
-652.6000999999996
 20
-754.907477288222
 30
0.0
 11
-657.640910621445
 21
-754.907477288222
 31
0.0
  0
LINE
  5
A0E
330
966
100
AcDbEntity
  8
Visible (ISO)
100
AcDbLine
 10
-652.6000999999996
 20
-759.8149545763365
 30
0.0
 11
-657.640910621445
 21
-759.8149545763365
 31
0.0
  0
LINE
  5
A0F
330
966
100
AcDbEntity
  8
Visible (ISO)
100
AcDbLine
 10
-652.6000999999996
 20
-757.800000000113
 30
0.0
 11
-652.0
 21
-757.800000000113
 31
0.0
  0
SPLINE
  5
A10
330
966
100
AcDbEntity
  8
Visible (ISO)
100
AcDbSpline
210
0.0
220
0.0
230
1.0
 70
    12
 71
     2
 72
     6
 73
     3
 74
     0
 42
0.0000000001
 43
0.0000000001
 40
0.4978532609589537
 40
0.4978532609589537
 40
0.4978532609589537
 40
0.9957065219179071
 40
0.9957065219179071
 40
0.9957065219179071
 10
-658.4001000000007
 20
-592.6387840679438
 30
0.0
 41
1.0
 10
-658.4001000000007
 20
-593.7775681357752
 30
0.0
 41
1.037954849302035
 10
-657.640910621445
 20
-595.0925227119983
 30
0.0
 41
1.0
  0
LINE
  5
A11
330
966
100
AcDbEntity
  8
Visible (ISO)
100
AcDbLine
 10
-658.4001000000007
 20
-592.6387840679438
 30
0.0
 11
-658.4001000000007
 21
-595.7500000001116
 31
0.0
  0
SPLINE
  5
A12
330
966
100
AcDbEntity
  8
Visible (ISO)
100
AcDbSpline
210
0.0
220
0.0
230
1.0
 70
    12
 71
     2
 72
     6
 73
     3
 74
     0
 42
0.0000000001
 43
0.0000000001
 40
0.0
 40
0.0
 40
0.0
 40
0.0612076054652046
 40
0.0612076054652046
 40
0.0612076054652046
 10
-657.640910621445
 20
-595.0925227119983
 30
0.0
 41
1.0
 10
-657.7373403159054
 20
-595.4265649723213
 30
0.0
 41
1.004666285477565
 10
-657.8208508809857
 20
-595.7500000001111
 30
0.0
 41
1.008185196084275
  0
LINE
  5
A13
330
966
100
AcDbEntity
  8
Visible (ISO)
100
AcDbLine
 10
-658.4001000000007
 20
-591.5000000001128
 30
0.0
 11
-658.4001000000007
 21
-592.6387840679438
 31
0.0
  0
SPLINE
  5
A14
330
966
100
AcDbEntity
  8
Visible (ISO)
100
AcDbSpline
210
0.0
220
0.0
230
1.0
 70
    12
 71
     2
 72
     6
 73
     3
 74
     0
 42
0.0000000001
 43
0.0000000001
 40
0.0
 40
0.0
 40
0.0
 40
0.4978532609589537
 40
0.4978532609589537
 40
0.4978532609589537
 10
-657.640910621445
 20
-590.185045423889
 30
0.0
 41
1.0
 10
-658.4001000000007
 20
-591.500000000112
 30
0.0
 41
1.037954849302049
 10
-658.4001000000007
 20
-592.6387840679438
 30
0.0
 41
1.0
  0
LINE
  5
A15
330
966
100
AcDbEntity
  8
Visible (ISO)
100
AcDbLine
 10
-658.4001000000007
 20
-591.5000000001125
 30
0.0
 11
-657.640910621445
 21
-590.185045423889
 31
0.0
  0
LINE
  5
A16
330
966
100
AcDbEntity
  8
Visible (ISO)
100
AcDbLine
 10
-652.6000999999996
 20
-590.185045423889
 30
0.0
 11
-657.640910621445
 21
-590.185045423889
 31
0.0
  0
LINE
  5
A17
330
966
100
AcDbEntity
  8
Visible (ISO)
100
AcDbLine
 10
-652.6000999999996
 20
-595.0925227119983
 30
0.0
 11
-657.640910621445
 21
-595.0925227119983
 31
0.0
  0
LINE
  5
A18
330
966
100
AcDbEntity
  8
Visible (ISO)
100
AcDbLine
 10
-652.6000999999996
 20
-590.185045423889
 30
0.0
 11
-652.6000999999996
 21
-595.0925227119983
 31
0.0
  0
LINE
  5
A19
330
966
100
AcDbEntity
  8
Visible (ISO)
100
AcDbLine
 10
-652.6000999999996
 20
-595.0925227119983
 30
0.0
 11
-652.6000999999996
 21
-595.7500000001111
 31
0.0
  0
LINE
  5
A1A
330
966
100
AcDbEntity
  8
Visible (ISO)
100
AcDbLine
 10
-652.6000999999996
 20
-592.2000000001125
 30
0.0
 11
-652.0
 21
-592.2000000001125
 31
0.0
  0
SPLINE
  5
A1B
330
966
100
AcDbEntity
  8
Visible (ISO)
100
AcDbSpline
210
0.0
220
0.0
230
1.0
 70
    12
 71
     2
 72
     6
 73
     3
 74
     0
 42
0.0000000001
 43
0.0000000001
 40
0.4978532609589537
 40
0.4978532609589537
 40
0.4978532609589537
 40
0.9957065219179071
 40
0.9957065219179071
 40
0.9957065219179071
 10
658.4001000000025
 20
-757.3612159322792
 30
0.0
 41
1.0
 10
658.4001000000025
 20
-756.2224318644464
 30
0.0
 41
1.037954849302035
 10
657.640910621445
 20
-754.907477288222
 30
0.0
 41
1.0
  0
LINE
  5
A1C
330
966
100
AcDbEntity
  8
Visible (ISO)
100
AcDbLine
 10
658.4001000000025
 20
-757.3612159322792
 30
0.0
 11
658.4001000000025
 21
-754.2500000001107
 31
0.0
  0
SPLINE
  5
A1D
330
966
100
AcDbEntity
  8
Visible (ISO)
100
AcDbSpline
210
0.0
220
0.0
230
1.0
 70
    12
 71
     2
 72
     6
 73
     3
 74
     0
 42
0.0000000001
 43
0.0000000001
 40
0.0
 40
0.0
 40
0.0
 40
0.061207605465087
 40
0.061207605465087
 40
0.061207605465087
 10
657.640910621445
 20
-754.907477288222
 30
0.0
 41
1.0
 10
657.7373403159035
 20
-754.5734350278997
 30
0.0
 41
1.004666285477556
 10
657.8208508809839
 20
-754.2500000001102
 30
0.0
 41
1.008185196084262
  0
LINE
  5
A1E
330
966
100
AcDbEntity
  8
Visible (ISO)
100
AcDbLine
 10
658.4001000000025
 20
-758.5000000001127
 30
0.0
 11
658.4001000000025
 21
-757.3612159322792
 31
0.0
  0
SPLINE
  5
A1F
330
966
100
AcDbEntity
  8
Visible (ISO)
100
AcDbSpline
210
0.0
220
0.0
230
1.0
 70
    12
 71
     2
 72
     6
 73
     3
 74
     0
 42
0.0000000001
 43
0.0000000001
 40
0.0
 40
0.0
 40
0.0
 40
0.4978532609589537
 40
0.4978532609589537
 40
0.4978532609589537
 10
657.640910621445
 20
-759.8149545763365
 30
0.0
 41
1.0
 10
658.4001000000025
 20
-758.500000000112
 30
0.0
 41
1.037954849302049
 10
658.4001000000025
 20
-757.3612159322792
 30
0.0
 41
1.0
  0
LINE
  5
A20
330
966
100
AcDbEntity
  8
Visible (ISO)
100
AcDbLine
 10
658.4001000000025
 20
-758.500000000113
 30
0.0
 11
657.640910621445
 21
-759.8149545763365
 31
0.0
  0
LINE
  5
A21
330
966
100
AcDbEntity
  8
Visible (ISO)
100
AcDbLine
 10
652.6000999999996
 20
-759.8149545763365
 30
0.0
 11
657.640910621445
 21
-759.8149545763365
 31
0.0
  0
LINE
  5
A22
330
966
100
AcDbEntity
  8
Visible (ISO)
100
AcDbLine
 10
652.6000999999996
 20
-754.907477288222
 30
0.0
 11
657.640910621445
 21
-754.907477288222
 31
0.0
  0
LINE
  5
A23
330
966
100
AcDbEntity
  8
Visible (ISO)
100
AcDbLine
 10
652.6000999999996
 20
-759.8149545763365
 30
0.0
 11
652.6000999999996
 21
-754.907477288222
 31
0.0
  0
LINE
  5
A24
330
966
100
AcDbEntity
  8
Visible (ISO)
100
AcDbLine
 10
652.6000999999996
 20
-754.907477288222
 30
0.0
 11
652.6000999999996
 21
-754.2500000001105
 31
0.0
  0
LINE
  5
A25
330
966
100
AcDbEntity
  8
Visible (ISO)
100
AcDbLine
 10
652.6000999999996
 20
-757.800000000113
 30
0.0
 11
652.0
 21
-757.800000000113
 31
0.0
  0
SPLINE
  5
A26
330
966
100
AcDbEntity
  8
Visible (ISO)
100
AcDbSpline
210
0.0
220
0.0
230
1.0
 70
    12
 71
     2
 72
     6
 73
     3
 74
     0
 42
0.0000000001
 43
0.0000000001
 40
0.0
 40
0.0
 40
0.0
 40
0.4978532609589533
 40
0.4978532609589533
 40
0.4978532609589533
 10
657.640910621445
 20
-595.0925227119983
 30
0.0
 41
1.0
 10
658.4001000000025
 20
-593.7775681357752
 30
0.0
 41
1.037954849302054
 10
658.4001000000025
 20
-592.6387840679438
 30
0.0
 41
1.0
  0
SPLINE
  5
A27
330
966
100
AcDbEntity
  8
Visible (ISO)
100
AcDbSpline
210
0.0
220
0.0
230
1.0
 70
    12
 71
     2
 72
     6
 73
     3
 74
     0
 42
0.0000000001
 43
0.0000000001
 40
0.9344989164528024
 40
0.9344989164528024
 40
0.9344989164528024
 40
0.9957065219179071
 40
0.9957065219179071
 40
0.9957065219179071
 10
657.8208508809839
 20
-595.7500000001105
 30
0.0
 41
1.008185196084264
 10
657.7373403159035
 20
-595.4265649723206
 30
0.0
 41
1.004666285477558
 10
657.640910621445
 20
-595.0925227119983
 30
0.0
 41
1.0
  0
LINE
  5
A28
330
966
100
AcDbEntity
  8
Visible (ISO)
100
AcDbLine
 10
658.4001000000025
 20
-595.7500000001105
 30
0.0
 11
658.4001000000025
 21
-592.6387840679438
 31
0.0
  0
SPLINE
  5
A29
330
966
100
AcDbEntity
  8
Visible (ISO)
100
AcDbSpline
210
0.0
220
0.0
230
1.0
 70
    12
 71
     2
 72
     6
 73
     3
 74
     0
 42
0.0000000001
 43
0.0000000001
 40
0.4978532609589533
 40
0.4978532609589533
 40
0.4978532609589533
 40
0.9957065219179067
 40
0.9957065219179067
 40
0.9957065219179067
 10
658.4001000000025
 20
-592.6387840679438
 30
0.0
 41
1.0
 10
658.4001000000025
 20
-591.500000000112
 30
0.0
 41
1.037954849302048
 10
657.640910621445
 20
-590.185045423889
 30
0.0
 41
1.0
  0
LINE
  5
A2A
330
966
100
AcDbEntity
  8
Visible (ISO)
100
AcDbLine
 10
658.4001000000025
 20
-592.6387840679438
 30
0.0
 11
658.4001000000025
 21
-591.5000000001128
 31
0.0
  0
LINE
  5
A2B
330
966
100
AcDbEntity
  8
Visible (ISO)
100
AcDbLine
 10
658.4001000000025
 20
-591.5000000001125
 30
0.0
 11
657.640910621445
 21
-590.185045423889
 31
0.0
  0
LINE
  5
A2C
330
966
100
AcDbEntity
  8
Visible (ISO)
100
AcDbLine
 10
652.6000999999996
 20
-595.7500000001102
 30
0.0
 11
652.6000999999996
 21
-595.0925227119983
 31
0.0
  0
LINE
  5
A2D
330
966
100
AcDbEntity
  8
Visible (ISO)
100
AcDbLine
 10
652.6000999999996
 20
-595.0925227119983
 30
0.0
 11
652.6000999999996
 21
-590.185045423889
 31
0.0
  0
LINE
  5
A2E
330
966
100
AcDbEntity
  8
Visible (ISO)
100
AcDbLine
 10
652.6000999999996
 20
-595.0925227119983
 30
0.0
 11
657.640910621445
 21
-595.0925227119983
 31
0.0
  0
LINE
  5
A2F
330
966
100
AcDbEntity
  8
Visible (ISO)
100
AcDbLine
 10
652.6000999999996
 20
-590.185045423889
 30
0.0
 11
657.640910621445
 21
-590.185045423889
 31
0.0
  0
LINE
  5
A30
330
966
100
AcDbEntity
  8
Visible (ISO)
100
AcDbLine
 10
652.6000999999996
 20
-592.2000000001125
 30
0.0
 11
652.0
 21
-592.2000000001125
 31
0.0
  0
SPLINE
  5
A31
330
966
100
AcDbEntity
  8
Visible (ISO)
100
AcDbSpline
210
0.0
220
0.0
230
1.0
 70
    12
 71
     2
 72
     6
 73
     3
 74
     0
 42
0.0000000001
 43
0.0000000001
 40
0.0
 40
0.0
 40
0.0
 40
0.4978532609589533
 40
0.4978532609589533
 40
0.4978532609589533
 10
657.640910621445
 20
754.9074772880025
 30
0.0
 41
1.0
 10
658.4001000000025
 20
756.2224318642257
 30
0.0
 41
1.037954849302054
 10
658.4001000000025
 20
757.3612159320573
 30
0.0
 41
1.0
  0
SPLINE
  5
A32
330
966
100
AcDbEntity
  8
Visible (ISO)
100
AcDbSpline
210
0.0
220
0.0
230
1.0
 70
    12
 71
     2
 72
     6
 73
     3
 74
     0
 42
0.0000000001
 43
0.0000000001
 40
0.9344989164529447
 40
0.9344989164529447
 40
0.9344989164529447
 40
0.9957065219179071
 40
0.9957065219179071
 40
0.9957065219179071
 10
657.8208508809839
 20
754.2499999998922
 30
0.0
 41
1.008185196084248
 10
657.7373403159035
 20
754.5734350276811
 30
0.0
 41
1.004666285477547
 10
657.640910621445
 20
754.9074772880025
 30
0.0
 41
1.0
  0
LINE
  5
A33
330
966
100
AcDbEntity
  8
Visible (ISO)
100
AcDbLine
 10
658.4001000000025
 20
754.2499999998917
 30
0.0
 11
658.4001000000025
 21
757.3612159320573
 31
0.0
  0
SPLINE
  5
A34
330
966
100
AcDbEntity
  8
Visible (ISO)
100
AcDbSpline
210
0.0
220
0.0
230
1.0
 70
    12
 71
     2
 72
     6
 73
     3
 74
     0
 42
0.0000000001
 43
0.0000000001
 40
0.4978532609589533
 40
0.4978532609589533
 40
0.4978532609589533
 40
0.9957065219179067
 40
0.9957065219179067
 40
0.9957065219179067
 10
658.4001000000025
 20
757.3612159320573
 30
0.0
 41
1.0
 10
658.4001000000025
 20
758.499999999889
 30
0.0
 41
1.037954849302048
 10
657.640910621445
 20
759.8149545761125
 30
0.0
 41
1.0
  0
LINE
  5
A35
330
966
100
AcDbEntity
  8
Visible (ISO)
100
AcDbLine
 10
658.4001000000025
 20
757.3612159320573
 30
0.0
 11
658.4001000000025
 21
758.4999999998886
 31
0.0
  0
LINE
  5
A36
330
966
100
AcDbEntity
  8
Visible (ISO)
100
AcDbLine
 10
658.4001000000025
 20
758.4999999998886
 30
0.0
 11
657.640910621445
 21
759.8149545761121
 31
0.0
  0
LINE
  5
A37
330
966
100
AcDbEntity
  8
Visible (ISO)
100
AcDbLine
 10
652.6000999999996
 20
754.2499999998922
 30
0.0
 11
652.6000999999996
 21
754.9074772880031
 31
0.0
  0
LINE
  5
A38
330
966
100
AcDbEntity
  8
Visible (ISO)
100
AcDbLine
 10
652.6000999999996
 20
754.9074772880031
 30
0.0
 11
652.6000999999996
 21
759.8149545761121
 31
0.0
  0
LINE
  5
A39
330
966
100
AcDbEntity
  8
Visible (ISO)
100
AcDbLine
 10
652.6000999999996
 20
754.9074772880031
 30
0.0
 11
657.640910621445
 21
754.9074772880025
 31
0.0
  0
LINE
  5
A3A
330
966
100
AcDbEntity
  8
Visible (ISO)
100
AcDbLine
 10
652.6000999999996
 20
759.8149545761121
 30
0.0
 11
657.640910621445
 21
759.8149545761121
 31
0.0
  0
LINE
  5
A3B
330
966
100
AcDbEntity
  8
Visible (ISO)
100
AcDbLine
 10
652.6000999999996
 20
757.7999999998882
 30
0.0
 11
652.0
 21
757.7999999998882
 31
0.0
  0
SPLINE
  5
A3C
330
966
100
AcDbEntity
  8
Visible (ISO)
100
AcDbSpline
210
0.0
220
0.0
230
1.0
 70
    12
 71
     2
 72
     6
 73
     3
 74
     0
 42
0.0000000001
 43
0.0000000001
 40
0.4978532609589537
 40
0.4978532609589537
 40
0.4978532609589537
 40
0.9957065219179071
 40
0.9957065219179071
 40
0.9957065219179071
 10
658.4001000000025
 20
592.6387840677221
 30
0.0
 41
1.0
 10
658.4001000000025
 20
593.7775681355547
 30
0.0
 41
1.037954849302035
 10
657.640910621445
 20
595.0925227117795
 30
0.0
 41
1.0
  0
LINE
  5
A3D
330
966
100
AcDbEntity
  8
Visible (ISO)
100
AcDbLine
 10
658.4001000000025
 20
592.6387840677221
 30
0.0
 11
658.4001000000025
 21
595.7499999998922
 31
0.0
  0
SPLINE
  5
A3E
330
966
100
AcDbEntity
  8
Visible (ISO)
100
AcDbSpline
210
0.0
220
0.0
230
1.0
 70
    12
 71
     2
 72
     6
 73
     3
 74
     0
 42
0.0000000001
 43
0.0000000001
 40
0.0
 40
0.0
 40
0.0
 40
0.0612076054652288
 40
0.0612076054652288
 40
0.0612076054652288
 10
657.640910621445
 20
595.0925227117795
 30
0.0
 41
1.0
 10
657.7373403159035
 20
595.4265649721024
 30
0.0
 41
1.004666285477567
 10
657.8208508809839
 20
595.7499999998926
 30
0.0
 41
1.008185196084278
  0
LINE
  5
A3F
330
966
100
AcDbEntity
  8
Visible (ISO)
100
AcDbLine
 10
658.4001000000025
 20
591.4999999998886
 30
0.0
 11
658.4001000000025
 21
592.6387840677221
 31
0.0
  0
SPLINE
  5
A40
330
966
100
AcDbEntity
  8
Visible (ISO)
100
AcDbSpline
210
0.0
220
0.0
230
1.0
 70
    12
 71
     2
 72
     6
 73
     3
 74
     0
 42
0.0000000001
 43
0.0000000001
 40
0.0
 40
0.0
 40
0.0
 40
0.4978532609589537
 40
0.4978532609589537
 40
0.4978532609589537
 10
657.640910621445
 20
590.1850454236646
 30
0.0
 41
1.0
 10
658.4001000000025
 20
591.4999999998895
 30
0.0
 41
1.037954849302049
 10
658.4001000000025
 20
592.6387840677221
 30
0.0
 41
1.0
  0
LINE
  5
A41
330
966
100
AcDbEntity
  8
Visible (ISO)
100
AcDbLine
 10
658.4001000000025
 20
591.4999999998886
 30
0.0
 11
657.640910621445
 21
590.185045423665
 31
0.0
  0
LINE
  5
A42
330
966
100
AcDbEntity
  8
Visible (ISO)
100
AcDbLine
 10
652.6000999999996
 20
590.1850454236646
 30
0.0
 11
657.640910621445
 21
590.185045423665
 31
0.0
  0
LINE
  5
A43
330
966
100
AcDbEntity
  8
Visible (ISO)
100
AcDbLine
 10
652.6000999999996
 20
595.0925227117795
 30
0.0
 11
657.640910621445
 21
595.0925227117795
 31
0.0
  0
LINE
  5
A44
330
966
100
AcDbEntity
  8
Visible (ISO)
100
AcDbLine
 10
652.6000999999996
 20
590.1850454236646
 30
0.0
 11
652.6000999999996
 21
595.0925227117795
 31
0.0
  0
LINE
  5
A45
330
966
100
AcDbEntity
  8
Visible (ISO)
100
AcDbLine
 10
652.6000999999996
 20
595.0925227117795
 30
0.0
 11
652.6000999999996
 21
595.7499999998926
 31
0.0
  0
LINE
  5
A46
330
966
100
AcDbEntity
  8
Visible (ISO)
100
AcDbLine
 10
652.6000999999996
 20
592.1999999998884
 30
0.0
 11
652.0
 21
592.1999999998884
 31
0.0
  0
SPLINE
  5
A47
330
966
100
AcDbEntity
  8
Visible (ISO)
100
AcDbSpline
210
0.0
220
0.0
230
1.0
 70
    12
 71
     2
 72
     6
 73
     3
 74
     0
 42
0.0000000001
 43
0.0000000001
 40
0.4978532609589537
 40
0.4978532609589537
 40
0.4978532609589537
 40
0.9957065219179071
 40
0.9957065219179071
 40
0.9957065219179071
 10
-658.4001000000007
 20
757.3612159320573
 30
0.0
 41
1.0
 10
-658.4001000000007
 20
756.2224318642257
 30
0.0
 41
1.037954849302035
 10
-657.640910621445
 20
754.9074772880025
 30
0.0
 41
1.0
  0
LINE
  5
A48
330
966
100
AcDbEntity
  8
Visible (ISO)
100
AcDbLine
 10
-658.4001000000007
 20
757.3612159320573
 30
0.0
 11
-658.4001000000007
 21
754.2499999998908
 31
0.0
  0
SPLINE
  5
A49
330
966
100
AcDbEntity
  8
Visible (ISO)
100
AcDbSpline
210
0.0
220
0.0
230
1.0
 70
    12
 71
     2
 72
     6
 73
     3
 74
     0
 42
0.0000000001
 43
0.0000000001
 40
0.0
 40
0.0
 40
0.0
 40
0.0612076054650506
 40
0.0612076054650506
 40
0.0612076054650506
 10
-657.640910621445
 20
754.9074772880025
 30
0.0
 41
1.0
 10
-657.7373403159035
 20
754.5734350276807
 30
0.0
 41
1.004666285477553
 10
-657.8208508809857
 20
754.2499999998913
 30
0.0
 41
1.008185196084258
  0
LINE
  5
A4A
330
966
100
AcDbEntity
  8
Visible (ISO)
100
AcDbLine
 10
-658.4001000000007
 20
758.4999999998886
 30
0.0
 11
-658.4001000000007
 21
757.3612159320573
 31
0.0
  0
SPLINE
  5
A4B
330
966
100
AcDbEntity
  8
Visible (ISO)
100
AcDbSpline
210
0.0
220
0.0
230
1.0
 70
    12
 71
     2
 72
     6
 73
     3
 74
     0
 42
0.0000000001
 43
0.0000000001
 40
0.0
 40
0.0
 40
0.0
 40
0.4978532609589537
 40
0.4978532609589537
 40
0.4978532609589537
 10
-657.640910621445
 20
759.8149545761125
 30
0.0
 41
1.0
 10
-658.4001000000007
 20
758.499999999889
 30
0.0
 41
1.037954849302049
 10
-658.4001000000007
 20
757.3612159320573
 30
0.0
 41
1.0
  0
LINE
  5
A4C
330
966
100
AcDbEntity
  8
Visible (ISO)
100
AcDbLine
 10
-658.4001000000007
 20
758.4999999998886
 30
0.0
 11
-657.640910621445
 21
759.8149545761121
 31
0.0
  0
LINE
  5
A4D
330
966
100
AcDbEntity
  8
Visible (ISO)
100
AcDbLine
 10
-652.6000999999996
 20
759.8149545761121
 30
0.0
 11
-657.640910621445
 21
759.8149545761121
 31
0.0
  0
LINE
  5
A4E
330
966
100
AcDbEntity
  8
Visible (ISO)
100
AcDbLine
 10
-652.6000999999996
 20
754.9074772880025
 30
0.0
 11
-657.640910621445
 21
754.9074772880025
 31
0.0
  0
LINE
  5
A4F
330
966
100
AcDbEntity
  8
Visible (ISO)
100
AcDbLine
 10
-652.6000999999996
 20
759.8149545761121
 30
0.0
 11
-652.6000999999996
 21
754.9074772880025
 31
0.0
  0
LINE
  5
A50
330
966
100
AcDbEntity
  8
Visible (ISO)
100
AcDbLine
 10
-652.6000999999996
 20
754.9074772880025
 30
0.0
 11
-652.6000999999996
 21
754.2499999998913
 31
0.0
  0
LINE
  5
A51
330
966
100
AcDbEntity
  8
Visible (ISO)
100
AcDbLine
 10
-652.6000999999996
 20
757.7999999998882
 30
0.0
 11
-652.0
 21
757.7999999998882
 31
0.0
  0
SPLINE
  5
A52
330
966
100
AcDbEntity
  8
Visible (ISO)
100
AcDbSpline
210
0.0
220
0.0
230
1.0
 70
    12
 71
     2
 72
     6
 73
     3
 74
     0
 42
0.0000000001
 43
0.0000000001
 40
0.0
 40
0.0
 40
0.0
 40
0.4978532609589533
 40
0.4978532609589533
 40
0.4978532609589533
 10
-657.640910621445
 20
595.0925227117795
 30
0.0
 41
1.0
 10
-658.4001000000007
 20
593.7775681355547
 30
0.0
 41
1.037954849302054
 10
-658.4001000000007
 20
592.6387840677221
 30
0.0
 41
1.0
  0
SPLINE
  5
A53
330
966
100
AcDbEntity
  8
Visible (ISO)
100
AcDbSpline
210
0.0
220
0.0
230
1.0
 70
    12
 71
     2
 72
     6
 73
     3
 74
     0
 42
0.0000000001
 43
0.0000000001
 40
0.934498916452766
 40
0.934498916452766
 40
0.934498916452766
 40
0.9957065219179071
 40
0.9957065219179071
 40
0.9957065219179071
 10
-657.8208508809857
 20
595.7499999998917
 30
0.0
 41
1.008185196084268
 10
-657.7373403159035
 20
595.4265649721019
 30
0.0
 41
1.00466628547756
 10
-657.640910621445
 20
595.0925227117795
 30
0.0
 41
1.0
  0
LINE
  5
A54
330
966
100
AcDbEntity
  8
Visible (ISO)
100
AcDbLine
 10
-658.4001000000007
 20
595.7499999998913
 30
0.0
 11
-658.4001000000007
 21
592.6387840677221
 31
0.0
  0
SPLINE
  5
A55
330
966
100
AcDbEntity
  8
Visible (ISO)
100
AcDbSpline
210
0.0
220
0.0
230
1.0
 70
    12
 71
     2
 72
     6
 73
     3
 74
     0
 42
0.0000000001
 43
0.0000000001
 40
0.4978532609589533
 40
0.4978532609589533
 40
0.4978532609589533
 40
0.9957065219179067
 40
0.9957065219179067
 40
0.9957065219179067
 10
-658.4001000000007
 20
592.6387840677221
 30
0.0
 41
1.0
 10
-658.4001000000007
 20
591.4999999998895
 30
0.0
 41
1.037954849302048
 10
-657.640910621445
 20
590.1850454236646
 30
0.0
 41
1.0
  0
LINE
  5
A56
330
966
100
AcDbEntity
  8
Visible (ISO)
100
AcDbLine
 10
-658.4001000000007
 20
592.6387840677221
 30
0.0
 11
-658.4001000000007
 21
591.4999999998886
 31
0.0
  0
LINE
  5
A57
330
966
100
AcDbEntity
  8
Visible (ISO)
100
AcDbLine
 10
-658.4001000000007
 20
591.4999999998886
 30
0.0
 11
-657.640910621445
 21
590.185045423665
 31
0.0
  0
LINE
  5
A58
330
966
100
AcDbEntity
  8
Visible (ISO)
100
AcDbLine
 10
-652.6000999999996
 20
595.7499999998917
 30
0.0
 11
-652.6000999999996
 21
595.0925227117795
 31
0.0
  0
LINE
  5
A59
330
966
100
AcDbEntity
  8
Visible (ISO)
100
AcDbLine
 10
-652.6000999999996
 20
595.0925227117795
 30
0.0
 11
-652.6000999999996
 21
590.185045423665
 31
0.0
  0
LINE
  5
A5A
330
966
100
AcDbEntity
  8
Visible (ISO)
100
AcDbLine
 10
-652.6000999999996
 20
595.0925227117795
 30
0.0
 11
-657.640910621445
 21
595.0925227117795
 31
0.0
  0
LINE
  5
A5B
330
966
100
AcDbEntity
  8
Visible (ISO)
100
AcDbLine
 10
-652.6000999999996
 20
590.1850454236646
 30
0.0
 11
-657.640910621445
 21
590.185045423665
 31
0.0
  0
LINE
  5
A5C
330
966
100
AcDbEntity
  8
Visible (ISO)
100
AcDbLine
 10
-652.6000999999996
 20
592.1999999998884
 30
0.0
 11
-652.0
 21
592.1999999998884
 31
0.0
  0
ENDBLK
  5
968
330
966
100
AcDbEntity
  8
0
100
AcDbBlockEnd
  0
ENDSEC
  0
SECTION
  2
ENTITIES
  0
SPLINE
  5
172
330
6C
100
AcDbEntity
  8
Visible (ISO)
100
AcDbSpline
210
0.0
220
0.0
230
1.0
 70
    12
 71
     2
 72
     6
 73
     3
 74
     0
 42
0.0000000001
 43
0.0000000001
 40
0.4978532609589537
 40
0.4978532609589537
 40
0.4978532609589537
 40
0.9957065219179071
 40
0.9957065219179071
 40
0.9957065219179071
 10
16723.20176651181
 20
4988.185342983991
 30
0.0
 41
1.0
 10
16725.17419837614
 20
4988.185342983991
 30
0.0
 41
1.037954849302035
 10
16727.45176651181
 20
4988.944532362545
 30
0.0
 41
1.0
  0
LINE
  5
173
330
6C
100
AcDbEntity
  8
Visible (ISO)
100
AcDbLine
 10
16723.20176651181
 20
4988.185342983991
 30
0.0
 11
16727.45176651181
 21
4988.185342983991
 31
0.0
  0
SPLINE
  5
174
330
6C
100
AcDbEntity
  8
Visible (ISO)
100
AcDbSpline
210
0.0
220
0.0
230
1.0
 70
    28
 71
     2
 72
     6
 73
     3
 74
     0
 42
0.0000000001
 43
0.0000000001
 40
0.0
 40
0.0
 40
0.0
 40
0.4978532609589536
 40
0.4978532609589536
 40
0.4978532609589536
 10
16727.45176651181
 20
4988.944532362545
 30
0.0
 41
1.0
 10
16727.45176651181
 20
4988.185342983991
 30
0.0
 41
1.037954849302054
 10
16727.45176651181
 20
4988.185342983991
 30
0.0
 41
1.0
  0
SPLINE
  5
175
330
6C
100
AcDbEntity
  8
Visible (ISO)
100
AcDbSpline
210
0.0
220
0.0
230
1.0
 70
    12
 71
     2
 72
     6
 73
     3
 74
     0
 42
0.0000000001
 43
0.0000000001
 40
0.4978532609589542
 40
0.4978532609589542
 40
0.4978532609589542
 40
0.9957065219179085
 40
0.9957065219179085
 40
0.9957065219179085
 10
16714.70176651181
 20
4988.185342983991
 30
0.0
 41
1.0
 10
16716.67419837614
 20
4988.185342983991
 30
0.0
 41
1.037954849302014
 10
16718.95176651181
 20
4988.944532362545
 30
0.0
 41
1.0
  0
LINE
  5
176
330
6C
100
AcDbEntity
  8
Visible (ISO)
100
AcDbLine
 10
16714.70176651181
 20
4988.185342983991
 30
0.0
 11
16723.20176651181
 21
4988.185342983991
 31
0.0
  0
SPLINE
  5
177
330
6C
100
AcDbEntity
  8
Visible (ISO)
100
AcDbSpline
210
0.0
220
0.0
230
1.0
 70
    12
 71
     2
 72
     6
 73
     3
 74
     0
 42
0.0000000001
 43
0.0000000001
 40
0.0
 40
0.0
 40
0.0
 40
0.4978532609589537
 40
0.4978532609589537
 40
0.4978532609589537
 10
16718.95176651181
 20
4988.944532362545
 30
0.0
 41
1.0
 10
16721.22933464747
 20
4988.185342983991
 30
0.0
 41
1.037954849302049
 10
16723.20176651181
 20
4988.185342983991
 30
0.0
 41
1.0
  0
SPLINE
  5
178
330
6C
100
AcDbEntity
  8
Visible (ISO)
100
AcDbSpline
210
0.0
220
0.0
230
1.0
 70
    28
 71
     2
 72
     6
 73
     3
 74
     0
 42
0.0000000001
 43
0.0000000001
 40
0.4978532609589534
 40
0.4978532609589534
 40
0.4978532609589534
 40
0.9957065219179066
 40
0.9957065219179066
 40
0.9957065219179066
 10
16710.45176651181
 20
4988.185342983991
 30
0.0
 41
1.0
 10
16710.45176651181
 20
4988.185342983991
 30
0.0
 41
1.037954849302054
 10
16710.45176651181
 20
4988.944532362545
 30
0.0
 41
1.0
  0
LINE
  5
179
330
6C
100
AcDbEntity
  8
Visible (ISO)
100
AcDbLine
 10
16710.45176651181
 20
4988.185342983991
 30
0.0
 11
16714.70176651181
 21
4988.185342983991
 31
0.0
  0
SPLINE
  5
17A
330
6C
100
AcDbEntity
  8
Visible (ISO)
100
AcDbSpline
210
0.0
220
0.0
230
1.0
 70
    12
 71
     2
 72
     6
 73
     3
 74
     0
 42
0.0000000001
 43
0.0000000001
 40
0.0
 40
0.0
 40
0.0
 40
0.4978532609589542
 40
0.4978532609589542
 40
0.4978532609589542
 10
16710.45176651181
 20
4988.944532362545
 30
0.0
 41
1.0
 10
16712.72933464747
 20
4988.185342983991
 30
0.0
 41
1.037954849302022
 10
16714.70176651181
 20
4988.185342983991
 30
0.0
 41
1.0
  0
LINE
  5
17B
330
6C
100
AcDbEntity
  8
Visible (ISO)
100
AcDbLine
 10
16710.45176651181
 20
4993.985342983989
 30
0.0
 11
16710.45176651181
 21
4988.944532362545
 31
0.0
  0
LINE
  5
17C
330
6C
100
AcDbEntity
  8
Visible (ISO)
100
AcDbLine
 10
16718.95176651181
 20
4993.985342983989
 30
0.0
 11
16718.95176651181
 21
4988.944532362545
 31
0.0
  0
LINE
  5
17D
330
6C
100
AcDbEntity
  8
Visible (ISO)
100
AcDbLine
 10
16710.45176651181
 20
4993.985342983989
 30
0.0
 11
16718.95176651181
 21
4993.985342983989
 31
0.0
  0
LINE
  5
17E
330
6C
100
AcDbEntity
  8
Visible (ISO)
100
AcDbLine
 10
16727.45176651181
 20
4993.985342983989
 30
0.0
 11
16727.45176651181
 21
4988.944532362545
 31
0.0
  0
LINE
  5
17F
330
6C
100
AcDbEntity
  8
Visible (ISO)
100
AcDbLine
 10
16718.95176651181
 20
4993.985342983989
 30
0.0
 11
16727.45176651181
 21
4993.985342983989
 31
0.0
  0
LINE
  5
180
330
6C
100
AcDbEntity
  8
Visible (ISO)
100
AcDbLine
 10
16711.25176651181
 20
4993.985342983989
 30
0.0
 11
16711.25176651181
 21
4994.58544298399
 31
0.0
  0
LINE
  5
181
330
6C
100
AcDbEntity
  8
Visible (ISO)
100
AcDbLine
 10
16726.65176651181
 20
4993.985342983989
 30
0.0
 11
16726.65176651181
 21
4994.58544298399
 31
0.0
  0
SPLINE
  5
182
330
6C
100
AcDbEntity
  8
Visible (ISO)
100
AcDbSpline
210
0.0
220
0.0
230
1.0
 70
    12
 71
     2
 72
     6
 73
     3
 74
     0
 42
0.0000000001
 43
0.0000000001
 40
0.4978532609589537
 40
0.4978532609589537
 40
0.4978532609589537
 40
0.9957065219179071
 40
0.9957065219179071
 40
0.9957065219179071
 10
15523.20176651181
 20
4988.185342983991
 30
0.0
 41
1.0
 10
15525.17419837614
 20
4988.185342983991
 30
0.0
 41
1.037954849302035
 10
15527.45176651181
 20
4988.944532362545
 30
0.0
 41
1.0
  0
LINE
  5
183
330
6C
100
AcDbEntity
  8
Visible (ISO)
100
AcDbLine
 10
15523.20176651181
 20
4988.185342983991
 30
0.0
 11
15527.45176651181
 21
4988.185342983991
 31
0.0
  0
SPLINE
  5
184
330
6C
100
AcDbEntity
  8
Visible (ISO)
100
AcDbSpline
210
0.0
220
0.0
230
1.0
 70
    28
 71
     2
 72
     6
 73
     3
 74
     0
 42
0.0000000001
 43
0.0000000001
 40
0.0
 40
0.0
 40
0.0
 40
0.4978532609589536
 40
0.4978532609589536
 40
0.4978532609589536
 10
15527.45176651181
 20
4988.944532362545
 30
0.0
 41
1.0
 10
15527.45176651181
 20
4988.185342983991
 30
0.0
 41
1.037954849302054
 10
15527.45176651181
 20
4988.185342983991
 30
0.0
 41
1.0
  0
SPLINE
  5
185
330
6C
100
AcDbEntity
  8
Visible (ISO)
100
AcDbSpline
210
0.0
220
0.0
230
1.0
 70
    12
 71
     2
 72
     6
 73
     3
 74
     0
 42
0.0000000001
 43
0.0000000001
 40
0.4978532609589542
 40
0.4978532609589542
 40
0.4978532609589542
 40
0.9957065219179085
 40
0.9957065219179085
 40
0.9957065219179085
 10
15514.70176651181
 20
4988.185342983991
 30
0.0
 41
1.0
 10
15516.67419837614
 20
4988.185342983991
 30
0.0
 41
1.037954849302014
 10
15518.95176651181
 20
4988.944532362545
 30
0.0
 41
1.0
  0
LINE
  5
186
330
6C
100
AcDbEntity
  8
Visible (ISO)
100
AcDbLine
 10
15514.70176651181
 20
4988.185342983991
 30
0.0
 11
15523.20176651181
 21
4988.185342983991
 31
0.0
  0
SPLINE
  5
187
330
6C
100
AcDbEntity
  8
Visible (ISO)
100
AcDbSpline
210
0.0
220
0.0
230
1.0
 70
    12
 71
     2
 72
     6
 73
     3
 74
     0
 42
0.0000000001
 43
0.0000000001
 40
0.0
 40
0.0
 40
0.0
 40
0.4978532609589537
 40
0.4978532609589537
 40
0.4978532609589537
 10
15518.95176651181
 20
4988.944532362545
 30
0.0
 41
1.0
 10
15521.22933464747
 20
4988.185342983991
 30
0.0
 41
1.037954849302049
 10
15523.20176651181
 20
4988.185342983991
 30
0.0
 41
1.0
  0
SPLINE
  5
188
330
6C
100
AcDbEntity
  8
Visible (ISO)
100
AcDbSpline
210
0.0
220
0.0
230
1.0
 70
    28
 71
     2
 72
     6
 73
     3
 74
     0
 42
0.0000000001
 43
0.0000000001
 40
0.4978532609589534
 40
0.4978532609589534
 40
0.4978532609589534
 40
0.9957065219179066
 40
0.9957065219179066
 40
0.9957065219179066
 10
15510.45176651181
 20
4988.185342983991
 30
0.0
 41
1.0
 10
15510.45176651181
 20
4988.185342983991
 30
0.0
 41
1.037954849302054
 10
15510.45176651181
 20
4988.944532362545
 30
0.0
 41
1.0
  0
LINE
  5
189
330
6C
100
AcDbEntity
  8
Visible (ISO)
100
AcDbLine
 10
15510.45176651181
 20
4988.185342983991
 30
0.0
 11
15514.70176651181
 21
4988.185342983991
 31
0.0
  0
SPLINE
  5
18A
330
6C
100
AcDbEntity
  8
Visible (ISO)
100
AcDbSpline
210
0.0
220
0.0
230
1.0
 70
    12
 71
     2
 72
     6
 73
     3
 74
     0
 42
0.0000000001
 43
0.0000000001
 40
0.0
 40
0.0
 40
0.0
 40
0.4978532609589542
 40
0.4978532609589542
 40
0.4978532609589542
 10
15510.45176651181
 20
4988.944532362545
 30
0.0
 41
1.0
 10
15512.72933464747
 20
4988.185342983991
 30
0.0
 41
1.037954849302022
 10
15514.70176651181
 20
4988.185342983991
 30
0.0
 41
1.0
  0
LINE
  5
18B
330
6C
100
AcDbEntity
  8
Visible (ISO)
100
AcDbLine
 10
15510.45176651181
 20
4993.985342983989
 30
0.0
 11
15510.45176651181
 21
4988.944532362545
 31
0.0
  0
LINE
  5
18C
330
6C
100
AcDbEntity
  8
Visible (ISO)
100
AcDbLine
 10
15518.95176651181
 20
4993.985342983989
 30
0.0
 11
15518.95176651181
 21
4988.944532362545
 31
0.0
  0
LINE
  5
18D
330
6C
100
AcDbEntity
  8
Visible (ISO)
100
AcDbLine
 10
15510.45176651181
 20
4993.985342983989
 30
0.0
 11
15518.95176651181
 21
4993.985342983989
 31
0.0
  0
LINE
  5
18E
330
6C
100
AcDbEntity
  8
Visible (ISO)
100
AcDbLine
 10
15527.45176651181
 20
4993.985342983989
 30
0.0
 11
15527.45176651181
 21
4988.944532362545
 31
0.0
  0
LINE
  5
18F
330
6C
100
AcDbEntity
  8
Visible (ISO)
100
AcDbLine
 10
15518.95176651181
 20
4993.985342983989
 30
0.0
 11
15527.45176651181
 21
4993.985342983989
 31
0.0
  0
LINE
  5
190
330
6C
100
AcDbEntity
  8
Visible (ISO)
100
AcDbLine
 10
15511.25176651181
 20
4993.985342983989
 30
0.0
 11
15511.25176651181
 21
4994.58544298399
 31
0.0
  0
LINE
  5
191
330
6C
100
AcDbEntity
  8
Visible (ISO)
100
AcDbLine
 10
15526.65176651181
 20
4993.985342983989
 30
0.0
 11
15526.65176651181
 21
4994.58544298399
 31
0.0
  0
LINE
  5
192
330
6C
100
AcDbEntity
  8
Visible (ISO)
100
AcDbLine
 10
16728.95176651181
 20
4994.58544298399
 30
0.0
 11
16708.95176651181
 21
4994.58544298399
 31
0.0
  0
LINE
  5
193
330
6C
100
AcDbEntity
  8
Visible (ISO)
100
AcDbLine
 10
16728.95176651181
 20
4996.585442983989
 30
0.0
 11
16728.95176651181
 21
4994.58544298399
 31
0.0
  0
LINE
  5
194
330
6C
100
AcDbEntity
  8
Visible (ISO)
100
AcDbLine
 10
16708.95176651181
 20
4996.585442983989
 30
0.0
 11
16708.95176651181
 21
4994.58544298399
 31
0.0
  0
LINE
  5
195
330
6C
100
AcDbEntity
  8
Visible (ISO)
100
AcDbLine
 10
15528.95176651181
 20
4994.58544298399
 30
0.0
 11
15508.95176651181
 21
4994.58544298399
 31
0.0
  0
LINE
  5
196
330
6C
100
AcDbEntity
  8
Visible (ISO)
100
AcDbLine
 10
15528.95176651181
 20
4996.585442983989
 30
0.0
 11
15528.95176651181
 21
4994.58544298399
 31
0.0
  0
LINE
  5
197
330
6C
100
AcDbEntity
  8
Visible (ISO)
100
AcDbLine
 10
15508.95176651181
 20
4996.585442983989
 30
0.0
 11
15508.95176651181
 21
4994.58544298399
 31
0.0
  0
LINE
  5
198
330
6C
100
AcDbEntity
  8
Visible (ISO)
100
AcDbLine
 10
16648.95176651181
 20
4716.585454520055
 30
0.0
 11
16648.95176651181
 21
4714.585454520055
 31
0.0
  0
LINE
  5
199
330
6C
100
AcDbEntity
  8
Visible (ISO)
100
AcDbLine
 10
16628.95176651181
 20
4716.585454520055
 30
0.0
 11
16628.95176651181
 21
4714.585454520055
 31
0.0
  0
LINE
  5
19A
330
6C
100
AcDbEntity
  8
Visible (ISO)
100
AcDbLine
 10
15608.95176651181
 20
4716.585454520055
 30
0.0
 11
15608.95176651181
 21
4714.585454520055
 31
0.0
  0
LINE
  5
19B
330
6C
100
AcDbEntity
  8
Visible (ISO)
100
AcDbLine
 10
15588.95176651181
 20
4716.585454520055
 30
0.0
 11
15588.95176651181
 21
4714.585454520055
 31
0.0
  0
LINE
  5
19C
330
6C
100
AcDbEntity
  8
Visible (ISO)
100
AcDbLine
 10
16770.95176651181
 20
4691.58544298399
 30
0.0
 11
16770.95176651181
 21
4671.58544298399
 31
0.0
  0
LINE
  5
19D
330
6C
100
AcDbEntity
  8
Visible (ISO)
100
AcDbLine
 10
16768.9517665118
 20
4691.58544298399
 30
0.0
 11
16770.95176651181
 21
4691.58544298399
 31
0.0
  0
LINE
  5
19E
330
6C
100
AcDbEntity
  8
Visible (ISO)
100
AcDbLine
 10
16768.9517665118
 20
4671.58544298399
 30
0.0
 11
16770.95176651181
 21
4671.58544298399
 31
0.0
  0
LINE
  5
19F
330
6C
100
AcDbEntity
  8
Visible (ISO)
100
AcDbLine
 10
15466.95176651181
 20
4671.58544298399
 30
0.0
 11
15466.95176651181
 21
4691.58544298399
 31
0.0
  0
LINE
  5
1A0
330
6C
100
AcDbEntity
  8
Visible (ISO)
100
AcDbLine
 10
15468.95176651181
 20
4671.58544298399
 30
0.0
 11
15466.95176651181
 21
4671.58544298399
 31
0.0
  0
LINE
  5
1A1
330
6C
100
AcDbEntity
  8
Visible (ISO)
100
AcDbLine
 10
15468.95176651181
 20
4691.58544298399
 30
0.0
 11
15466.95176651181
 21
4691.58544298399
 31
0.0
  0
LINE
  5
1A2
330
6C
100
AcDbEntity
  8
Visible (ISO)
100
AcDbLine
 10
16668.95176651181
 20
4664.45953425037
 30
0.0
 11
16668.95176651181
 21
4316.58544298399
 31
0.0
  0
LINE
  5
1A3
330
6C
100
AcDbEntity
  8
Visible (ISO)
100
AcDbLine
 10
16668.95176651181
 20
4306.58544298399
 30
0.0
 11
16668.95176651181
 21
4096.58544298399
 31
0.0
  0
LINE
  5
1A4
330
6C
100
AcDbEntity
  8
Visible (ISO)
100
AcDbLine
 10
16668.95176651181
 20
4996.58544298399
 30
0.0
 11
16668.95176651181
 21
4760.585454520056
 31
0.0
  0
LINE
  5
1A5
330
6C
100
AcDbEntity
  8
Visible (ISO)
100
AcDbLine
 10
16668.95176651181
 20
4096.58544298399
 30
0.0
 11
16768.95176651181
 21
4096.58544298399
 31
0.0
  0
LINE
  5
1A6
330
6C
100
AcDbEntity
  8
Visible (ISO)
100
AcDbLine
 10
16673.95176651181
 20
4716.58544298399
 30
0.0
 11
16673.95176651181
 21
4721.585454520055
 31
0.0
  0
LINE
  5
1A7
330
6C
100
AcDbEntity
  8
Visible (ISO)
100
AcDbLine
 10
16673.95176651181
 20
4760.585454520056
 30
0.0
 11
16673.95176651181
 21
4996.58544298399
 31
0.0
  0
LINE
  5
1A8
330
6C
100
AcDbEntity
  8
Visible (ISO)
100
AcDbLine
 10
16763.95176651181
 20
4996.58544298399
 30
0.0
 11
16763.95176651181
 21
4760.585454520056
 31
0.0
  0
LINE
  5
1A9
330
6C
100
AcDbEntity
  8
Visible (ISO)
100
AcDbLine
 10
16763.95176651181
 20
4721.585454520055
 30
0.0
 11
16763.95176651181
 21
4716.58544298399
 31
0.0
  0
LINE
  5
1AA
330
6C
100
AcDbEntity
  8
Visible (ISO)
100
AcDbLine
 10
16673.95176651181
 20
4716.58544298399
 30
0.0
 11
16668.95176651181
 21
4716.58544298399
 31
0.0
  0
LINE
  5
1AB
330
6C
100
AcDbEntity
  8
Visible (ISO)
100
AcDbLine
 10
16768.95176651181
 20
4716.58544298399
 30
0.0
 11
16763.95176651181
 21
4716.58544298399
 31
0.0
  0
LINE
  5
1AC
330
6C
100
AcDbEntity
  8
Visible (ISO)
100
AcDbLine
 10
16768.95176651181
 20
4716.58544298399
 30
0.0
 11
16768.95176651181
 21
4721.585454520055
 31
0.0
  0
LINE
  5
1AD
330
6C
100
AcDbEntity
  8
Visible (ISO)
100
AcDbLine
 10
16768.95176651181
 20
4760.585454520056
 30
0.0
 11
16768.95176651181
 21
4996.58544298399
 31
0.0
  0
LINE
  5
1AE
330
6C
100
AcDbEntity
  8
Visible (ISO)
100
AcDbLine
 10
16768.95176651181
 20
4096.58544298399
 30
0.0
 11
16768.95176651181
 21
4306.58544298399
 31
0.0
  0
LINE
  5
1AF
330
6C
100
AcDbEntity
  8
Visible (ISO)
100
AcDbLine
 10
16768.95176651181
 20
4316.58544298399
 30
0.0
 11
16768.95176651181
 21
4716.58544298399
 31
0.0
  0
LINE
  5
1B0
330
6C
100
AcDbEntity
  8
Visible (ISO)
100
AcDbLine
 10
16768.95176651181
 20
4096.58544298399
 30
0.0
 11
16763.95176651181
 21
4101.58544298399
 31
0.0
  0
LINE
  5
1B1
330
6C
100
AcDbEntity
  8
Visible (ISO)
100
AcDbLine
 10
16763.95176651181
 20
4101.58544298399
 30
0.0
 11
16673.95176651181
 21
4101.58544298399
 31
0.0
  0
LINE
  5
1B2
330
6C
100
AcDbEntity
  8
Visible (ISO)
100
AcDbLine
 10
16673.95176651181
 20
4101.58544298399
 30
0.0
 11
16668.95176651181
 21
4096.58544298399
 31
0.0
  0
LINE
  5
1B3
330
6C
100
AcDbEntity
  8
Visible (ISO)
100
AcDbLine
 10
16763.95176651181
 20
4716.58544298399
 30
0.0
 11
16763.95176651181
 21
4316.58544298399
 31
0.0
  0
LINE
  5
1B4
330
6C
100
AcDbEntity
  8
Visible (ISO)
100
AcDbLine
 10
16763.95176651181
 20
4306.58544298399
 30
0.0
 11
16763.95176651181
 21
4101.58544298399
 31
0.0
  0
LINE
  5
1B5
330
6C
100
AcDbEntity
  8
Visible (ISO)
100
AcDbLine
 10
16673.95176651181
 20
4101.58544298399
 30
0.0
 11
16673.95176651181
 21
4306.58544298399
 31
0.0
  0
LINE
  5
1B6
330
6C
100
AcDbEntity
  8
Visible (ISO)
100
AcDbLine
 10
16673.95176651181
 20
4316.58544298399
 30
0.0
 11
16673.95176651181
 21
4716.58544298399
 31
0.0
  0
LINE
  5
1B7
330
6C
100
AcDbEntity
  8
Visible (ISO)
100
AcDbLine
 10
16763.95176651181
 20
4716.58544298399
 30
0.0
 11
16673.95176651181
 21
4716.58544298399
 31
0.0
  0
LINE
  5
1B8
330
6C
100
AcDbEntity
  8
Visible (ISO)
100
AcDbLine
 10
15468.95176651181
 20
4716.58544298399
 30
0.0
 11
15468.95176651181
 21
4316.58544298399
 31
0.0
  0
LINE
  5
1B9
330
6C
100
AcDbEntity
  8
Visible (ISO)
100
AcDbLine
 10
15468.95176651181
 20
4306.58544298399
 30
0.0
 11
15468.95176651181
 21
4096.58544298399
 31
0.0
  0
LINE
  5
1BA
330
6C
100
AcDbEntity
  8
Visible (ISO)
100
AcDbLine
 10
15468.95176651181
 20
4996.58544298399
 30
0.0
 11
15468.95176651181
 21
4760.585454520056
 31
0.0
  0
LINE
  5
1BB
330
6C
100
AcDbEntity
  8
Visible (ISO)
100
AcDbLine
 10
15468.95176651181
 20
4721.585454520055
 30
0.0
 11
15468.95176651181
 21
4716.58544298399
 31
0.0
  0
LINE
  5
1BC
330
6C
100
AcDbEntity
  8
Visible (ISO)
100
AcDbLine
 10
15468.95176651181
 20
4096.58544298399
 30
0.0
 11
15568.95176651181
 21
4096.58544298399
 31
0.0
  0
LINE
  5
1BD
330
6C
100
AcDbEntity
  8
Visible (ISO)
100
AcDbLine
 10
15473.95176651181
 20
4716.58544298399
 30
0.0
 11
15473.95176651181
 21
4721.585454520055
 31
0.0
  0
LINE
  5
1BE
330
6C
100
AcDbEntity
  8
Visible (ISO)
100
AcDbLine
 10
15473.95176651181
 20
4760.585454520056
 30
0.0
 11
15473.95176651181
 21
4996.58544298399
 31
0.0
  0
LINE
  5
1BF
330
6C
100
AcDbEntity
  8
Visible (ISO)
100
AcDbLine
 10
15563.95176651181
 20
4996.58544298399
 30
0.0
 11
15563.95176651181
 21
4760.585454520056
 31
0.0
  0
LINE
  5
1C0
330
6C
100
AcDbEntity
  8
Visible (ISO)
100
AcDbLine
 10
15563.95176651181
 20
4721.585454520055
 30
0.0
 11
15563.95176651181
 21
4716.58544298399
 31
0.0
  0
LINE
  5
1C1
330
6C
100
AcDbEntity
  8
Visible (ISO)
100
AcDbLine
 10
15473.95176651181
 20
4716.58544298399
 30
0.0
 11
15468.95176651181
 21
4716.58544298399
 31
0.0
  0
LINE
  5
1C2
330
6C
100
AcDbEntity
  8
Visible (ISO)
100
AcDbLine
 10
15568.95176651181
 20
4716.58544298399
 30
0.0
 11
15563.95176651181
 21
4716.58544298399
 31
0.0
  0
LINE
  5
1C3
330
6C
100
AcDbEntity
  8
Visible (ISO)
100
AcDbLine
 10
15568.95176651181
 20
4760.585454520056
 30
0.0
 11
15568.95176651181
 21
4996.58544298399
 31
0.0
  0
LINE
  5
1C4
330
6C
100
AcDbEntity
  8
Visible (ISO)
100
AcDbLine
 10
15568.95176651181
 20
4096.58544298399
 30
0.0
 11
15568.95176651181
 21
4306.58544298399
 31
0.0
  0
LINE
  5
1C5
330
6C
100
AcDbEntity
  8
Visible (ISO)
100
AcDbLine
 10
15568.95176651181
 20
4316.58544298399
 30
0.0
 11
15568.95176651181
 21
4664.45953425037
 31
0.0
  0
LINE
  5
1C6
330
6C
100
AcDbEntity
  8
Visible (ISO)
100
AcDbLine
 10
15568.95176651181
 20
4096.58544298399
 30
0.0
 11
15563.95176651181
 21
4101.58544298399
 31
0.0
  0
LINE
  5
1C7
330
6C
100
AcDbEntity
  8
Visible (ISO)
100
AcDbLine
 10
15563.95176651181
 20
4101.58544298399
 30
0.0
 11
15473.95176651181
 21
4101.58544298399
 31
0.0
  0
LINE
  5
1C8
330
6C
100
AcDbEntity
  8
Visible (ISO)
100
AcDbLine
 10
15473.95176651181
 20
4101.58544298399
 30
0.0
 11
15468.95176651181
 21
4096.58544298399
 31
0.0
  0
LINE
  5
1C9
330
6C
100
AcDbEntity
  8
Visible (ISO)
100
AcDbLine
 10
15563.95176651181
 20
4716.58544298399
 30
0.0
 11
15563.95176651181
 21
4316.58544298399
 31
0.0
  0
LINE
  5
1CA
330
6C
100
AcDbEntity
  8
Visible (ISO)
100
AcDbLine
 10
15563.95176651181
 20
4306.58544298399
 30
0.0
 11
15563.95176651181
 21
4101.58544298399
 31
0.0
  0
LINE
  5
1CB
330
6C
100
AcDbEntity
  8
Visible (ISO)
100
AcDbLine
 10
15473.95176651181
 20
4101.58544298399
 30
0.0
 11
15473.95176651181
 21
4306.58544298399
 31
0.0
  0
LINE
  5
1CC
330
6C
100
AcDbEntity
  8
Visible (ISO)
100
AcDbLine
 10
15473.95176651181
 20
4316.58544298399
 30
0.0
 11
15473.95176651181
 21
4716.58544298399
 31
0.0
  0
LINE
  5
1CD
330
6C
100
AcDbEntity
  8
Visible (ISO)
100
AcDbLine
 10
15563.95176651181
 20
4716.58544298399
 30
0.0
 11
15473.95176651181
 21
4716.58544298399
 31
0.0
  0
ARC
  5
1CE
330
6C
100
AcDbEntity
  8
Visible (ISO)
100
AcDbCircle
 10
15333.95176651181
 20
5011.585442983989
 30
0.0
 40
15.0
100
AcDbArc
 50
180.0
 51
270.0
  0
ARC
  5
1CF
330
6C
100
AcDbEntity
  8
Visible (ISO)
100
AcDbCircle
 10
16903.95176651181
 20
5011.585442983989
 30
0.0
 40
15.00000000000009
100
AcDbArc
 50
270.0
 51
0.0
  0
ARC
  5
1D0
330
6C
100
AcDbEntity
  8
Visible (ISO)
100
AcDbCircle
 10
15333.95176651181
 20
5061.585442983989
 30
0.0
 40
15.00000000000009
100
AcDbArc
 50
90.0
 51
180.0
  0
LINE
  5
1D1
330
6C
100
AcDbEntity
  8
Visible (ISO)
100
AcDbLine
 10
15318.95176651181
 20
5061.585442983989
 30
0.0
 11
15318.95176651181
 21
5011.585442983989
 31
0.0
  0
ARC
  5
1D2
330
6C
100
AcDbEntity
  8
Visible (ISO)
100
AcDbCircle
 10
16903.95176651181
 20
5061.585442983989
 30
0.0
 40
15.00000000000014
100
AcDbArc
 50
0.0
 51
90.0
  0
LINE
  5
1D3
330
6C
100
AcDbEntity
  8
Visible (ISO)
100
AcDbLine
 10
16918.95176651181
 20
5011.585442983989
 30
0.0
 11
16918.95176651181
 21
5061.585442983989
 31
0.0
  0
LINE
  5
1D4
330
6C
100
AcDbEntity
  8
Visible (ISO)
100
AcDbLine
 10
16903.95176651181
 20
5076.585442983989
 30
0.0
 11
15333.95176651181
 21
5076.585442983988
 31
0.0
  0
LINE
  5
1D5
330
6C
100
AcDbEntity
  8
Visible (ISO)
100
AcDbLine
 10
15333.95176651181
 20
4996.585442983988
 30
0.0
 11
16903.95176651181
 21
4996.585442983989
 31
0.0
  0
LINE
  5
1D6
330
6C
100
AcDbEntity
  8
Visible (ISO)
100
AcDbLine
 10
16668.95176651181
 20
4664.45953425037
 30
0.0
 11
16668.95176651181
 21
4721.585454520055
 31
0.0
  0
LINE
  5
1D7
330
6C
100
AcDbEntity
  8
Visible (ISO)
100
AcDbLine
 10
16618.95176651181
 20
4721.585454520055
 30
0.0
 11
16618.95176651181
 21
4716.585454520055
 31
0.0
  0
LINE
  5
1D8
330
6C
100
AcDbEntity
  8
Visible (ISO)
100
AcDbLine
 10
16618.95176651181
 20
4716.585454520055
 30
0.0
 11
16658.95176651181
 21
4716.585454520055
 31
0.0
  0
ARC
  5
1D9
330
6C
100
AcDbEntity
  8
Visible (ISO)
100
AcDbCircle
 10
16658.95176651181
 20
4711.585454520055
 30
0.0
 40
4.999999999999998
100
AcDbArc
 50
0.0
 51
90.0
  0
LINE
  5
1DA
330
6C
100
AcDbEntity
  8
Visible (ISO)
100
AcDbLine
 10
16663.95176651181
 20
4711.585454520055
 30
0.0
 11
16663.95176651181
 21
4646.585454520056
 31
0.0
  0
LINE
  5
1DB
330
6C
100
AcDbEntity
  8
Visible (ISO)
100
AcDbLine
 10
16663.95176651181
 20
4646.585454520056
 30
0.0
 11
16668.95176651181
 21
4646.585454520056
 31
0.0
  0
LINE
  5
1DC
330
6C
100
AcDbEntity
  8
Visible (ISO)
100
AcDbLine
 10
15568.95176651181
 20
4664.45953425037
 30
0.0
 11
15568.95176651181
 21
4721.585454520055
 31
0.0
  0
LINE
  5
1DD
330
6C
100
AcDbEntity
  8
Visible (ISO)
100
AcDbLine
 10
15573.95176651181
 20
4646.585454520056
 30
0.0
 11
15568.95176651181
 21
4646.585454520056
 31
0.0
  0
LINE
  5
1DE
330
6C
100
AcDbEntity
  8
Visible (ISO)
100
AcDbLine
 10
15573.95176651181
 20
4711.585454520055
 30
0.0
 11
15573.95176651181
 21
4646.585454520056
 31
0.0
  0
ARC
  5
1DF
330
6C
100
AcDbEntity
  8
Visible (ISO)
100
AcDbCircle
 10
15578.95176651181
 20
4711.585454520055
 30
0.0
 40
4.999999999999988
100
AcDbArc
 50
90.0
 51
180.0
  0
LINE
  5
1E0
330
6C
100
AcDbEntity
  8
Visible (ISO)
100
AcDbLine
 10
15618.95176651181
 20
4716.585454520055
 30
0.0
 11
15578.95176651181
 21
4716.585454520055
 31
0.0
  0
LINE
  5
1E1
330
6C
100
AcDbEntity
  8
Visible (ISO)
100
AcDbLine
 10
15618.95176651181
 20
4721.585454520055
 30
0.0
 11
15618.95176651181
 21
4716.585454520055
 31
0.0
  0
LINE
  5
1E2
330
6C
100
AcDbEntity
  8
Visible (ISO)
100
AcDbLine
 10
15586.62676651181
 20
4761.487355722006
 30
0.0
 11
15611.27676651181
 21
4761.487355722006
 31
0.0
  0
ARC
  5
1E3
330
6C
100
AcDbEntity
  8
Visible (ISO)
100
AcDbCircle
 10
15598.95176651181
 20
4746.765454520055
 30
0.0
 40
19.19999999999999
100
AcDbArc
 50
50.06433219878774
 51
129.9356678012105
  0
LINE
  5
1E4
330
6C
100
AcDbEntity
  8
Visible (ISO)
100
AcDbLine
 10
15611.27676651181
 20
4761.487355722006
 30
0.0
 11
15611.27676651181
 21
4760.585454520056
 31
0.0
  0
LINE
  5
1E5
330
6C
100
AcDbEntity
  8
Visible (ISO)
100
AcDbLine
 10
15586.62676651181
 20
4761.487355722006
 30
0.0
 11
15586.62676651181
 21
4760.585454520056
 31
0.0
  0
LINE
  5
1E6
330
6C
100
AcDbEntity
  8
Visible (ISO)
100
AcDbLine
 10
16626.62676651181
 20
4761.487355722006
 30
0.0
 11
16651.27676651181
 21
4761.487355722006
 31
0.0
  0
ARC
  5
1E7
330
6C
100
AcDbEntity
  8
Visible (ISO)
100
AcDbCircle
 10
16638.95176651181
 20
4746.765454520055
 30
0.0
 40
19.19999999999999
100
AcDbArc
 50
50.06433219878774
 51
129.9356678012105
  0
LINE
  5
1E8
330
6C
100
AcDbEntity
  8
Visible (ISO)
100
AcDbLine
 10
16651.27676651181
 20
4761.487355722006
 30
0.0
 11
16651.27676651181
 21
4760.585454520056
 31
0.0
  0
LINE
  5
1E9
330
6C
100
AcDbEntity
  8
Visible (ISO)
100
AcDbLine
 10
16626.62676651181
 20
4761.487355722006
 30
0.0
 11
16626.62676651181
 21
4760.585454520056
 31
0.0
  0
LINE
  5
1EA
330
6C
100
AcDbEntity
  8
Visible (ISO)
100
AcDbLine
 10
15584.45176651181
 20
4673.93544298399
 30
0.0
 11
15584.45176651181
 21
4689.235442983989
 31
0.0
  0
SPLINE
  5
1EB
330
6C
100
AcDbEntity
  8
Visible (ISO)
100
AcDbSpline
210
0.0
220
0.0
230
1.0
 70
    28
 71
     2
 72
     6
 73
     3
 74
     0
 42
0.0000000001
 43
0.0000000001
 40
0.0
 40
0.0
 40
0.0
 40
0.4965853586831158
 40
0.4965853586831158
 40
0.4965853586831158
 10
15583.20182940444
 20
4690.08544298399
 30
0.0
 41
1.0
 10
15583.96101878299
 20
4690.08544298399
 30
0.0
 41
1.077350269189625
 10
15583.96101878299
 20
4690.08544298399
 30
0.0
 41
1.077350269189625
  0
SPLINE
  5
1EC
330
6C
100
AcDbEntity
  8
Visible (ISO)
100
AcDbSpline
210
0.0
220
0.0
230
1.0
 70
    12
 71
     2
 72
     6
 73
     3
 74
     0
 42
0.0000000001
 43
0.0000000001
 40
0.0
 40
0.0
 40
0.0
 40
0.9931707173662312
 40
0.9931707173662312
 40
0.9931707173662312
 10
15583.20182940444
 20
4681.58544298399
 30
0.0
 41
1.0
 10
15584.61849607111
 20
4685.835442983989
 30
0.0
 41
1.154700538379246
 10
15583.20182940444
 20
4690.08544298399
 30
0.0
 41
1.0
  0
SPLINE
  5
1ED
330
6C
100
AcDbEntity
  8
Visible (ISO)
100
AcDbSpline
210
0.0
220
0.0
230
1.0
 70
    12
 71
     2
 72
     6
 73
     3
 74
     0
 42
0.0000000001
 43
0.0000000001
 40
0.0
 40
0.0
 40
0.0
 40
0.9931707173662275
 40
0.9931707173662275
 40
0.9931707173662275
 10
15583.20182940444
 20
4673.08544298399
 30
0.0
 41
1.0
 10
15584.61849607111
 20
4677.335442983991
 30
0.0
 41
1.154700538379248
 10
15583.20182940444
 20
4681.58544298399
 30
0.0
 41
1.0
  0
SPLINE
  5
1EE
330
6C
100
AcDbEntity
  8
Visible (ISO)
100
AcDbSpline
210
0.0
220
0.0
230
1.0
 70
    28
 71
     2
 72
     6
 73
     3
 74
     0
 42
0.0000000001
 43
0.0000000001
 40
0.4965853586831045
 40
0.4965853586831045
 40
0.4965853586831045
 40
0.993170717366226
 40
0.993170717366226
 40
0.993170717366226
 10
15583.96101878299
 20
4673.08544298399
 30
0.0
 41
1.077350269189623
 10
15583.96101878299
 20
4673.08544298399
 30
0.0
 41
1.077350269189624
 10
15583.20182940444
 20
4673.08544298399
 30
0.0
 41
1.0
  0
SPLINE
  5
1EF
330
6C
100
AcDbEntity
  8
Visible (ISO)
100
AcDbSpline
210
0.0
220
0.0
230
1.0
 70
    12
 71
     2
 72
     6
 73
     3
 74
     0
 42
0.0000000001
 43
0.0000000001
 40
0.0
 40
0.0
 40
0.0
 40
0.9931707173662299
 40
0.9931707173662299
 40
0.9931707173662299
 10
15577.70170361917
 20
4690.08544298399
 30
0.0
 41
1.0
 10
15576.28503695251
 20
4685.835442983989
 30
0.0
 41
1.15470053837925
 10
15577.70170361917
 20
4681.58544298399
 30
0.0
 41
1.0
  0
SPLINE
  5
1F0
330
6C
100
AcDbEntity
  8
Visible (ISO)
100
AcDbSpline
210
0.0
220
0.0
230
1.0
 70
    28
 71
     2
 72
     6
 73
     3
 74
     0
 42
0.0000000001
 43
0.0000000001
 40
0.4965853586831161
 40
0.4965853586831161
 40
0.4965853586831161
 40
0.9931707173662321
 40
0.9931707173662321
 40
0.9931707173662321
 10
15576.94251424062
 20
4690.08544298399
 30
0.0
 41
1.077350269189624
 10
15576.94251424062
 20
4690.08544298399
 30
0.0
 41
1.077350269189624
 10
15577.70170361917
 20
4690.08544298399
 30
0.0
 41
1.0
  0
SPLINE
  5
1F1
330
6C
100
AcDbEntity
  8
Visible (ISO)
100
AcDbSpline
210
0.0
220
0.0
230
1.0
 70
    28
 71
     2
 72
     6
 73
     3
 74
     0
 42
0.0000000001
 43
0.0000000001
 40
0.0
 40
0.0
 40
0.0
 40
0.4965853586831131
 40
0.4965853586831131
 40
0.4965853586831131
 10
15577.70170361917
 20
4673.08544298399
 30
0.0
 41
1.0
 10
15576.94251424062
 20
4673.08544298399
 30
0.0
 41
1.077350269189623
 10
15576.94251424062
 20
4673.08544298399
 30
0.0
 41
1.077350269189623
  0
SPLINE
  5
1F2
330
6C
100
AcDbEntity
  8
Visible (ISO)
100
AcDbSpline
210
0.0
220
0.0
230
1.0
 70
    12
 71
     2
 72
     6
 73
     3
 74
     0
 42
0.0000000001
 43
0.0000000001
 40
0.0
 40
0.0
 40
0.0
 40
0.9931707173662276
 40
0.9931707173662276
 40
0.9931707173662276
 10
15577.70170361917
 20
4681.58544298399
 30
0.0
 41
1.0
 10
15576.28503695251
 20
4677.335442983991
 30
0.0
 41
1.154700538379249
 10
15577.70170361917
 20
4673.08544298399
 30
0.0
 41
1.0
  0
LINE
  5
1F3
330
6C
100
AcDbEntity
  8
Visible (ISO)
100
AcDbLine
 10
15584.45176651181
 20
4673.93544298399
 30
0.0
 11
15583.96101878299
 21
4673.08544298399
 31
0.0
  0
LINE
  5
1F4
330
6C
100
AcDbEntity
  8
Visible (ISO)
100
AcDbLine
 10
15584.45176651181
 20
4689.235442983989
 30
0.0
 11
15583.96101878299
 21
4690.08544298399
 31
0.0
  0
LINE
  5
1F5
330
6C
100
AcDbEntity
  8
Visible (ISO)
100
AcDbLine
 10
15576.45176651181
 20
4689.235442983989
 30
0.0
 11
15576.94251424062
 21
4690.08544298399
 31
0.0
  0
LINE
  5
1F6
330
6C
100
AcDbEntity
  8
Visible (ISO)
100
AcDbLine
 10
15576.45176651181
 20
4673.93544298399
 30
0.0
 11
15576.94251424062
 21
4673.08544298399
 31
0.0
  0
LINE
  5
1F7
330
6C
100
AcDbEntity
  8
Visible (ISO)
100
AcDbLine
 10
15583.20182940444
 20
4681.58544298399
 30
0.0
 11
15577.70170361917
 21
4681.58544298399
 31
0.0
  0
LINE
  5
1F8
330
6C
100
AcDbEntity
  8
Visible (ISO)
100
AcDbLine
 10
15583.20182940444
 20
4673.08544298399
 30
0.0
 11
15577.70170361917
 21
4673.08544298399
 31
0.0
  0
LINE
  5
1F9
330
6C
100
AcDbEntity
  8
Visible (ISO)
100
AcDbLine
 10
15583.20182940444
 20
4690.08544298399
 30
0.0
 11
15577.70170361917
 21
4690.08544298399
 31
0.0
  0
LINE
  5
1FA
330
6C
100
AcDbEntity
  8
Visible (ISO)
100
AcDbLine
 10
16653.45176651181
 20
4689.235442983989
 30
0.0
 11
16653.45176651181
 21
4673.93544298399
 31
0.0
  0
SPLINE
  5
1FB
330
6C
100
AcDbEntity
  8
Visible (ISO)
100
AcDbSpline
210
0.0
220
0.0
230
1.0
 70
    28
 71
     2
 72
     6
 73
     3
 74
     0
 42
0.0000000001
 43
0.0000000001
 40
0.4965853586831158
 40
0.4965853586831158
 40
0.4965853586831158
 40
0.9931707173662315
 40
0.9931707173662315
 40
0.9931707173662315
 10
16653.94251424062
 20
4690.08544298399
 30
0.0
 41
1.077350269189625
 10
16653.94251424062
 20
4690.08544298399
 30
0.0
 41
1.077350269189625
 10
16654.70170361918
 20
4690.08544298399
 30
0.0
 41
1.0
  0
SPLINE
  5
1FC
330
6C
100
AcDbEntity
  8
Visible (ISO)
100
AcDbSpline
210
0.0
220
0.0
230
1.0
 70
    28
 71
     2
 72
     6
 73
     3
 74
     0
 42
0.0000000001
 43
0.0000000001
 40
0.0
 40
0.0
 40
0.0
 40
0.4965853586831062
 40
0.4965853586831062
 40
0.4965853586831062
 10
16654.70170361918
 20
4673.08544298399
 30
0.0
 41
1.0
 10
16653.94251424062
 20
4673.08544298399
 30
0.0
 41
1.077350269189622
 10
16653.94251424062
 20
4673.08544298399
 30
0.0
 41
1.077350269189623
  0
SPLINE
  5
1FD
330
6C
100
AcDbEntity
  8
Visible (ISO)
100
AcDbSpline
210
0.0
220
0.0
230
1.0
 70
    12
 71
     2
 72
     6
 73
     3
 74
     0
 42
0.0000000001
 43
0.0000000001
 40
0.0
 40
0.0
 40
0.0
 40
0.9931707173662319
 40
0.9931707173662319
 40
0.9931707173662319
 10
16654.70170361918
 20
4681.58544298399
 30
0.0
 41
1.0
 10
16653.28503695251
 20
4677.335442983991
 30
0.0
 41
1.154700538379253
 10
16654.70170361918
 20
4673.08544298399
 30
0.0
 41
1.0
  0
SPLINE
  5
1FE
330
6C
100
AcDbEntity
  8
Visible (ISO)
100
AcDbSpline
210
0.0
220
0.0
230
1.0
 70
    12
 71
     2
 72
     6
 73
     3
 74
     0
 42
0.0000000001
 43
0.0000000001
 40
0.0
 40
0.0
 40
0.0
 40
0.9931707173662305
 40
0.9931707173662305
 40
0.9931707173662305
 10
16654.70170361918
 20
4690.08544298399
 30
0.0
 41
1.0
 10
16653.28503695251
 20
4685.835442983989
 30
0.0
 41
1.154700538379249
 10
16654.70170361918
 20
4681.58544298399
 30
0.0
 41
1.0
  0
SPLINE
  5
1FF
330
6C
100
AcDbEntity
  8
Visible (ISO)
100
AcDbSpline
210
0.0
220
0.0
230
1.0
 70
    28
 71
     2
 72
     6
 73
     3
 74
     0
 42
0.0000000001
 43
0.0000000001
 40
0.0
 40
0.0
 40
0.0
 40
0.4965853586831161
 40
0.4965853586831161
 40
0.4965853586831161
 10
16660.20182940444
 20
4690.08544298399
 30
0.0
 41
1.0
 10
16660.961018783
 20
4690.08544298399
 30
0.0
 41
1.077350269189624
 10
16660.961018783
 20
4690.08544298399
 30
0.0
 41
1.077350269189624
  0
SPLINE
  5
200
330
6C
100
AcDbEntity
  8
Visible (ISO)
100
AcDbSpline
210
0.0
220
0.0
230
1.0
 70
    12
 71
     2
 72
     6
 73
     3
 74
     0
 42
0.0000000001
 43
0.0000000001
 40
0.0
 40
0.0
 40
0.0
 40
0.9931707173662305
 40
0.9931707173662305
 40
0.9931707173662305
 10
16660.20182940444
 20
4681.58544298399
 30
0.0
 41
1.0
 10
16661.61849607111
 20
4685.835442983989
 30
0.0
 41
1.154700538379248
 10
16660.20182940444
 20
4690.08544298399
 30
0.0
 41
1.0
  0
SPLINE
  5
201
330
6C
100
AcDbEntity
  8
Visible (ISO)
100
AcDbSpline
210
0.0
220
0.0
230
1.0
 70
    12
 71
     2
 72
     6
 73
     3
 74
     0
 42
0.0000000001
 43
0.0000000001
 40
0.0
 40
0.0
 40
0.0
 40
0.9931707173662317
 40
0.9931707173662317
 40
0.9931707173662317
 10
16660.20182940444
 20
4673.08544298399
 30
0.0
 41
1.0
 10
16661.61849607111
 20
4677.335442983991
 30
0.0
 41
1.154700538379253
 10
16660.20182940444
 20
4681.58544298399
 30
0.0
 41
1.0
  0
SPLINE
  5
202
330
6C
100
AcDbEntity
  8
Visible (ISO)
100
AcDbSpline
210
0.0
220
0.0
230
1.0
 70
    28
 71
     2
 72
     6
 73
     3
 74
     0
 42
0.0000000001
 43
0.0000000001
 40
0.4965853586831131
 40
0.4965853586831131
 40
0.4965853586831131
 40
0.9931707173662262
 40
0.9931707173662262
 40
0.9931707173662262
 10
16660.961018783
 20
4673.08544298399
 30
0.0
 41
1.077350269189623
 10
16660.961018783
 20
4673.08544298399
 30
0.0
 41
1.077350269189624
 10
16660.20182940444
 20
4673.08544298399
 30
0.0
 41
1.0
  0
LINE
  5
203
330
6C
100
AcDbEntity
  8
Visible (ISO)
100
AcDbLine
 10
16653.45176651181
 20
4689.235442983989
 30
0.0
 11
16653.94251424062
 21
4690.08544298399
 31
0.0
  0
LINE
  5
204
330
6C
100
AcDbEntity
  8
Visible (ISO)
100
AcDbLine
 10
16653.45176651181
 20
4673.93544298399
 30
0.0
 11
16653.94251424062
 21
4673.08544298399
 31
0.0
  0
LINE
  5
205
330
6C
100
AcDbEntity
  8
Visible (ISO)
100
AcDbLine
 10
16661.45176651181
 20
4673.93544298399
 30
0.0
 11
16660.961018783
 21
4673.08544298399
 31
0.0
  0
LINE
  5
206
330
6C
100
AcDbEntity
  8
Visible (ISO)
100
AcDbLine
 10
16661.45176651181
 20
4689.235442983989
 30
0.0
 11
16660.961018783
 21
4690.08544298399
 31
0.0
  0
LINE
  5
207
330
6C
100
AcDbEntity
  8
Visible (ISO)
100
AcDbLine
 10
16654.70170361918
 20
4673.08544298399
 30
0.0
 11
16660.20182940444
 21
4673.08544298399
 31
0.0
  0
LINE
  5
208
330
6C
100
AcDbEntity
  8
Visible (ISO)
100
AcDbLine
 10
16654.70170361918
 20
4690.08544298399
 30
0.0
 11
16660.20182940444
 21
4690.08544298399
 31
0.0
  0
LINE
  5
209
330
6C
100
AcDbEntity
  8
Visible (ISO)
100
AcDbLine
 10
16654.70170361918
 20
4681.58544298399
 30
0.0
 11
16660.20182940444
 21
4681.58544298399
 31
0.0
  0
LINE
  5
20A
330
6C
100
AcDbEntity
  8
Visible (ISO)
100
AcDbLine
 10
16628.15176651181
 20
4714.585454520054
 30
0.0
 11
16649.75176651181
 21
4714.585454520054
 31
0.0
  0
LINE
  5
20B
330
6C
100
AcDbEntity
  8
Visible (ISO)
100
AcDbLine
 10
16628.15176651181
 20
4704.98542802792
 30
0.0
 11
16628.15176651181
 21
4714.585454520054
 31
0.0
  0
LINE
  5
20C
330
6C
100
AcDbEntity
  8
Visible (ISO)
100
AcDbLine
 10
16649.75176651181
 20
4704.98542802792
 30
0.0
 11
16649.75176651181
 21
4714.585454520054
 31
0.0
  0
ARC
  5
20D
330
6C
100
AcDbEntity
  8
Visible (ISO)
100
AcDbCircle
 10
16628.65176651181
 20
4704.98542802792
 30
0.0
 40
0.5000000000000001
100
AcDbArc
 50
180.0
 51
269.5829414049251
  0
ARC
  5
20E
330
6C
100
AcDbEntity
  8
Visible (ISO)
100
AcDbCircle
 10
16649.25176651181
 20
4704.98542802792
 30
0.0
 40
0.5
100
AcDbArc
 50
270.4170585950749
 51
0.0
  0
ARC
  5
20F
330
6C
100
AcDbEntity
  8
Visible (ISO)
100
AcDbCircle
 10
16628.64448753043
 20
4703.985454520056
 30
0.0
 40
0.5000000000000001
100
AcDbArc
 50
0.599453179724236
 51
89.58294140492515
  0
ARC
  5
210
330
6C
100
AcDbEntity
  8
Visible (ISO)
100
AcDbCircle
 10
16649.25904549319
 20
4703.985454520056
 30
0.0
 40
0.5
100
AcDbArc
 50
90.41705859507484
 51
179.4005468204837
  0
ARC
  5
211
330
6C
100
AcDbEntity
  8
Visible (ISO)
100
AcDbCircle
 10
16638.95176651181
 20
4704.09329765731
 30
0.0
 40
9.807843137254904
100
AcDbArc
 50
180.5994531795448
 51
359.4005468204502
  0
LINE
  5
212
330
6C
100
AcDbEntity
  8
Visible (ISO)
100
AcDbLine
 10
15588.15176651181
 20
4714.585454520054
 30
0.0
 11
15609.75176651181
 21
4714.585454520054
 31
0.0
  0
LINE
  5
213
330
6C
100
AcDbEntity
  8
Visible (ISO)
100
AcDbLine
 10
15588.15176651181
 20
4704.98542802792
 30
0.0
 11
15588.15176651181
 21
4714.585454520054
 31
0.0
  0
LINE
  5
214
330
6C
100
AcDbEntity
  8
Visible (ISO)
100
AcDbLine
 10
15609.75176651181
 20
4704.98542802792
 30
0.0
 11
15609.75176651181
 21
4714.585454520054
 31
0.0
  0
ARC
  5
215
330
6C
100
AcDbEntity
  8
Visible (ISO)
100
AcDbCircle
 10
15588.65176651181
 20
4704.98542802792
 30
0.0
 40
0.5
100
AcDbArc
 50
180.0
 51
269.5829414049251
  0
ARC
  5
216
330
6C
100
AcDbEntity
  8
Visible (ISO)
100
AcDbCircle
 10
15609.25176651181
 20
4704.98542802792
 30
0.0
 40
0.5
100
AcDbArc
 50
270.4170585950749
 51
0.0
  0
ARC
  5
217
330
6C
100
AcDbEntity
  8
Visible (ISO)
100
AcDbCircle
 10
15588.64448753043
 20
4703.985454520056
 30
0.0
 40
0.5
100
AcDbArc
 50
0.5994531796202669
 51
89.58294140492515
  0
ARC
  5
218
330
6C
100
AcDbEntity
  8
Visible (ISO)
100
AcDbCircle
 10
15609.25904549319
 20
4703.985454520056
 30
0.0
 40
0.5
100
AcDbArc
 50
90.41705859507484
 51
179.4005468204819
  0
ARC
  5
219
330
6C
100
AcDbEntity
  8
Visible (ISO)
100
AcDbCircle
 10
15598.95176651181
 20
4704.09329765731
 30
0.0
 40
9.807843137254904
100
AcDbArc
 50
180.5994531795448
 51
359.4005468204502
  0
LINE
  5
21A
330
6C
100
AcDbEntity
  8
Visible (ISO)
100
AcDbLine
 10
17018.9517665118
 20
4754.585454520054
 30
0.0
 11
17018.9517665118
 21
4760.585454520056
 31
0.0
  0
LINE
  5
21B
330
6C
100
AcDbEntity
  8
Visible (ISO)
100
AcDbLine
 10
17018.9517665118
 20
4760.585454520056
 30
0.0
 11
15218.95176651181
 21
4760.585454520056
 31
0.0
  0
LINE
  5
21C
330
6C
100
AcDbEntity
  8
Visible (ISO)
100
AcDbLine
 10
15218.95176651181
 20
4760.585454520056
 30
0.0
 11
15218.95176651181
 21
4754.585454520054
 31
0.0
  0
LINE
  5
21D
330
6C
100
AcDbEntity
  8
Visible (ISO)
100
AcDbLine
 10
15218.95176651181
 20
4754.585454520054
 30
0.0
 11
17018.9517665118
 21
4754.585454520054
 31
0.0
  0
LINE
  5
21E
330
6C
100
AcDbEntity
  8
Visible (ISO)
100
AcDbLine
 10
17018.9517665118
 20
4721.585454520055
 30
0.0
 11
17018.9517665118
 21
4754.585454520054
 31
0.0
  0
LINE
  5
21F
330
6C
100
AcDbEntity
  8
Visible (ISO)
100
AcDbLine
 10
15218.95176651181
 20
4754.585454520054
 30
0.0
 11
15218.95176651181
 21
4721.585454520055
 31
0.0
  0
LINE
  5
220
330
6C
100
AcDbEntity
  8
Visible (ISO)
100
AcDbLine
 10
15218.95176651181
 20
4721.585454520055
 30
0.0
 11
17018.9517665118
 21
4721.585454520055
 31
0.0
  0
LINE
  5
221
330
6C
100
AcDbEntity
  8
Visible (ISO)
100
AcDbLine
 10
15586.03149151181
 20
4676.585442983991
 30
0.0
 11
15586.03149151181
 21
4686.585442983989
 31
0.0
  0
LINE
  5
222
330
6C
100
AcDbEntity
  8
Visible (ISO)
100
AcDbLine
 10
15586.95176651181
 20
4685.665267983989
 30
0.0
 11
15586.95176651181
 21
4677.50561798399
 31
0.0
  0
LINE
  5
223
330
6C
100
AcDbEntity
  8
Visible (ISO)
100
AcDbLine
 10
15586.95176651181
 20
4677.50561798399
 30
0.0
 11
15586.03149151181
 21
4676.585442983991
 31
0.0
  0
LINE
  5
224
330
6C
100
AcDbEntity
  8
Visible (ISO)
100
AcDbLine
 10
15586.95176651181
 20
4685.665267983989
 30
0.0
 11
15586.03149151181
 21
4686.585442983989
 31
0.0
  0
SPLINE
  5
225
330
6C
100
AcDbEntity
  8
Visible (ISO)
100
AcDbSpline
210
0.0
220
0.0
230
1.0
 70
    12
 71
     2
 72
     6
 73
     3
 74
     0
 42
0.0000000001
 43
0.0000000001
 40
0.0
 40
0.0
 40
0.0
 40
0.4978532609589533
 40
0.4978532609589533
 40
0.4978532609589533
 10
15461.31085589036
 20
4690.08544298399
 30
0.0
 41
1.0
 10
15460.55166651181
 20
4687.807874848326
 30
0.0
 41
1.037954849302054
 10
15460.55166651181
 20
4685.835442983989
 30
0.0
 41
1.0
  0
SPLINE
  5
226
330
6C
100
AcDbEntity
  8
Visible (ISO)
100
AcDbSpline
210
0.0
220
0.0
230
1.0
 70
    28
 71
     2
 72
     6
 73
     3
 74
     0
 42
0.0000000001
 43
0.0000000001
 40
0.4978532609589536
 40
0.4978532609589536
 40
0.4978532609589536
 40
0.9957065219179071
 40
0.9957065219179071
 40
0.9957065219179071
 10
15460.55166651181
 20
4690.08544298399
 30
0.0
 41
1.0
 10
15460.55166651181
 20
4690.08544298399
 30
0.0
 41
1.037954849302056
 10
15461.31085589036
 20
4690.08544298399
 30
0.0
 41
1.0
  0
LINE
  5
227
330
6C
100
AcDbEntity
  8
Visible (ISO)
100
AcDbLine
 10
15460.55166651181
 20
4690.08544298399
 30
0.0
 11
15460.55166651181
 21
4685.835442983989
 31
0.0
  0
SPLINE
  5
228
330
6C
100
AcDbEntity
  8
Visible (ISO)
100
AcDbSpline
210
0.0
220
0.0
230
1.0
 70
    12
 71
     2
 72
     6
 73
     3
 74
     0
 42
0.0000000001
 43
0.0000000001
 40
0.0
 40
0.0
 40
0.0
 40
0.4978532609589534
 40
0.4978532609589534
 40
0.4978532609589534
 10
15461.31085589036
 20
4681.58544298399
 30
0.0
 41
1.0
 10
15460.55166651181
 20
4679.307874848325
 30
0.0
 41
1.037954849302042
 10
15460.55166651181
 20
4677.335442983991
 30
0.0
 41
1.0
  0
SPLINE
  5
229
330
6C
100
AcDbEntity
  8
Visible (ISO)
100
AcDbSpline
210
0.0
220
0.0
230
1.0
 70
    12
 71
     2
 72
     6
 73
     3
 74
     0
 42
0.0000000001
 43
0.0000000001
 40
0.4978532609589533
 40
0.4978532609589533
 40
0.4978532609589533
 40
0.9957065219179067
 40
0.9957065219179067
 40
0.9957065219179067
 10
15460.55166651181
 20
4685.835442983989
 30
0.0
 41
1.0
 10
15460.55166651181
 20
4683.863011119654
 30
0.0
 41
1.037954849302048
 10
15461.31085589036
 20
4681.58544298399
 30
0.0
 41
1.0
  0
LINE
  5
22A
330
6C
100
AcDbEntity
  8
Visible (ISO)
100
AcDbLine
 10
15460.55166651181
 20
4685.835442983989
 30
0.0
 11
15460.55166651181
 21
4677.335442983991
 31
0.0
  0
SPLINE
  5
22B
330
6C
100
AcDbEntity
  8
Visible (ISO)
100
AcDbSpline
210
0.0
220
0.0
230
1.0
 70
    28
 71
     2
 72
     6
 73
     3
 74
     0
 42
0.0000000001
 43
0.0000000001
 40
0.0
 40
0.0
 40
0.0
 40
0.4978532609589534
 40
0.4978532609589534
 40
0.4978532609589534
 10
15461.31085589036
 20
4673.08544298399
 30
0.0
 41
1.0
 10
15460.55166651181
 20
4673.08544298399
 30
0.0
 41
1.037954849302043
 10
15460.55166651181
 20
4673.08544298399
 30
0.0
 41
1.0
  0
SPLINE
  5
22C
330
6C
100
AcDbEntity
  8
Visible (ISO)
100
AcDbSpline
210
0.0
220
0.0
230
1.0
 70
    12
 71
     2
 72
     6
 73
     3
 74
     0
 42
0.0000000001
 43
0.0000000001
 40
0.4978532609589534
 40
0.4978532609589534
 40
0.4978532609589534
 40
0.9957065219179067
 40
0.9957065219179067
 40
0.9957065219179067
 10
15460.55166651181
 20
4677.335442983991
 30
0.0
 41
1.0
 10
15460.55166651181
 20
4675.363011119654
 30
0.0
 41
1.037954849302043
 10
15461.31085589036
 20
4673.08544298399
 30
0.0
 41
1.0
  0
LINE
  5
22D
330
6C
100
AcDbEntity
  8
Visible (ISO)
100
AcDbLine
 10
15460.55166651181
 20
4677.335442983991
 30
0.0
 11
15460.55166651181
 21
4673.08544298399
 31
0.0
  0
LINE
  5
22E
330
6C
100
AcDbEntity
  8
Visible (ISO)
100
AcDbLine
 10
15466.35166651181
 20
4673.08544298399
 30
0.0
 11
15461.31085589036
 21
4673.08544298399
 31
0.0
  0
LINE
  5
22F
330
6C
100
AcDbEntity
  8
Visible (ISO)
100
AcDbLine
 10
15466.35166651181
 20
4690.08544298399
 30
0.0
 11
15466.35166651181
 21
4681.58544298399
 31
0.0
  0
LINE
  5
230
330
6C
100
AcDbEntity
  8
Visible (ISO)
100
AcDbLine
 10
15466.35166651181
 20
4681.58544298399
 30
0.0
 11
15466.35166651181
 21
4673.08544298399
 31
0.0
  0
LINE
  5
231
330
6C
100
AcDbEntity
  8
Visible (ISO)
100
AcDbLine
 10
15466.35166651181
 20
4690.08544298399
 30
0.0
 11
15461.31085589036
 21
4690.08544298399
 31
0.0
  0
LINE
  5
232
330
6C
100
AcDbEntity
  8
Visible (ISO)
100
AcDbLine
 10
15466.35166651181
 20
4681.58544298399
 30
0.0
 11
15461.31085589036
 21
4681.58544298399
 31
0.0
  0
LINE
  5
233
330
6C
100
AcDbEntity
  8
Visible (ISO)
100
AcDbLine
 10
15584.45176651181
 20
4686.585442983989
 30
0.0
 11
15586.03149151181
 21
4686.585442983989
 31
0.0
  0
LINE
  5
234
330
6C
100
AcDbEntity
  8
Visible (ISO)
100
AcDbLine
 10
15584.45176651181
 20
4676.585442983991
 30
0.0
 11
15586.03149151181
 21
4676.585442983991
 31
0.0
  0
LINE
  5
235
330
6C
100
AcDbEntity
  8
Visible (ISO)
100
AcDbLine
 10
15466.35166651181
 20
4689.385442983989
 30
0.0
 11
15466.95176651181
 21
4689.385442983989
 31
0.0
  0
LINE
  5
236
330
6C
100
AcDbEntity
  8
Visible (ISO)
100
AcDbLine
 10
15466.35166651181
 20
4673.78544298399
 30
0.0
 11
15466.95176651181
 21
4673.78544298399
 31
0.0
  0
LINE
  5
237
330
6C
100
AcDbEntity
  8
Visible (ISO)
100
AcDbLine
 10
16651.87204151181
 20
4686.585442983989
 30
0.0
 11
16651.87204151181
 21
4676.585442983991
 31
0.0
  0
LINE
  5
238
330
6C
100
AcDbEntity
  8
Visible (ISO)
100
AcDbLine
 10
16650.95176651181
 20
4677.50561798399
 30
0.0
 11
16650.95176651181
 21
4685.665267983989
 31
0.0
  0
LINE
  5
239
330
6C
100
AcDbEntity
  8
Visible (ISO)
100
AcDbLine
 10
16650.95176651181
 20
4685.665267983989
 30
0.0
 11
16651.87204151181
 21
4686.585442983989
 31
0.0
  0
LINE
  5
23A
330
6C
100
AcDbEntity
  8
Visible (ISO)
100
AcDbLine
 10
16650.95176651181
 20
4677.50561798399
 30
0.0
 11
16651.87204151181
 21
4676.585442983991
 31
0.0
  0
SPLINE
  5
23B
330
6C
100
AcDbEntity
  8
Visible (ISO)
100
AcDbSpline
210
0.0
220
0.0
230
1.0
 70
    12
 71
     2
 72
     6
 73
     3
 74
     0
 42
0.0000000001
 43
0.0000000001
 40
0.4978532609589537
 40
0.4978532609589537
 40
0.4978532609589537
 40
0.9957065219179071
 40
0.9957065219179071
 40
0.9957065219179071
 10
16777.35186651181
 20
4685.835442983989
 30
0.0
 41
1.0
 10
16777.35186651181
 20
4687.807874848326
 30
0.0
 41
1.037954849302035
 10
16776.59267713325
 20
4690.08544298399
 30
0.0
 41
1.0
  0
LINE
  5
23C
330
6C
100
AcDbEntity
  8
Visible (ISO)
100
AcDbLine
 10
16777.35186651181
 20
4685.835442983989
 30
0.0
 11
16777.35186651181
 21
4690.08544298399
 31
0.0
  0
SPLINE
  5
23D
330
6C
100
AcDbEntity
  8
Visible (ISO)
100
AcDbSpline
210
0.0
220
0.0
230
1.0
 70
    28
 71
     2
 72
     6
 73
     3
 74
     0
 42
0.0000000001
 43
0.0000000001
 40
0.0
 40
0.0
 40
0.0
 40
0.4978532609589536
 40
0.4978532609589536
 40
0.4978532609589536
 10
16776.59267713325
 20
4690.08544298399
 30
0.0
 41
1.0
 10
16777.35186651181
 20
4690.08544298399
 30
0.0
 41
1.037954849302054
 10
16777.35186651181
 20
4690.08544298399
 30
0.0
 41
1.0
  0
SPLINE
  5
23E
330
6C
100
AcDbEntity
  8
Visible (ISO)
100
AcDbSpline
210
0.0
220
0.0
230
1.0
 70
    12
 71
     2
 72
     6
 73
     3
 74
     0
 42
0.0000000001
 43
0.0000000001
 40
0.4978532609589542
 40
0.4978532609589542
 40
0.4978532609589542
 40
0.9957065219179085
 40
0.9957065219179085
 40
0.9957065219179085
 10
16777.35186651181
 20
4677.335442983991
 30
0.0
 41
1.0
 10
16777.35186651181
 20
4679.307874848325
 30
0.0
 41
1.037954849302014
 10
16776.59267713325
 20
4681.58544298399
 30
0.0
 41
1.0
  0
LINE
  5
23F
330
6C
100
AcDbEntity
  8
Visible (ISO)
100
AcDbLine
 10
16777.35186651181
 20
4677.335442983991
 30
0.0
 11
16777.35186651181
 21
4685.835442983989
 31
0.0
  0
SPLINE
  5
240
330
6C
100
AcDbEntity
  8
Visible (ISO)
100
AcDbSpline
210
0.0
220
0.0
230
1.0
 70
    12
 71
     2
 72
     6
 73
     3
 74
     0
 42
0.0000000001
 43
0.0000000001
 40
0.0
 40
0.0
 40
0.0
 40
0.4978532609589537
 40
0.4978532609589537
 40
0.4978532609589537
 10
16776.59267713325
 20
4681.58544298399
 30
0.0
 41
1.0
 10
16777.35186651181
 20
4683.863011119654
 30
0.0
 41
1.037954849302049
 10
16777.35186651181
 20
4685.835442983989
 30
0.0
 41
1.0
  0
SPLINE
  5
241
330
6C
100
AcDbEntity
  8
Visible (ISO)
100
AcDbSpline
210
0.0
220
0.0
230
1.0
 70
    28
 71
     2
 72
     6
 73
     3
 74
     0
 42
0.0000000001
 43
0.0000000001
 40
0.4978532609589534
 40
0.4978532609589534
 40
0.4978532609589534
 40
0.9957065219179066
 40
0.9957065219179066
 40
0.9957065219179066
 10
16777.35186651181
 20
4673.08544298399
 30
0.0
 41
1.0
 10
16777.35186651181
 20
4673.08544298399
 30
0.0
 41
1.037954849302054
 10
16776.59267713325
 20
4673.08544298399
 30
0.0
 41
1.0
  0
LINE
  5
242
330
6C
100
AcDbEntity
  8
Visible (ISO)
100
AcDbLine
 10
16777.35186651181
 20
4673.08544298399
 30
0.0
 11
16777.35186651181
 21
4677.335442983991
 31
0.0
  0
SPLINE
  5
243
330
6C
100
AcDbEntity
  8
Visible (ISO)
100
AcDbSpline
210
0.0
220
0.0
230
1.0
 70
    12
 71
     2
 72
     6
 73
     3
 74
     0
 42
0.0000000001
 43
0.0000000001
 40
0.0
 40
0.0
 40
0.0
 40
0.4978532609589542
 40
0.4978532609589542
 40
0.4978532609589542
 10
16776.59267713325
 20
4673.08544298399
 30
0.0
 41
1.0
 10
16777.35186651181
 20
4675.363011119654
 30
0.0
 41
1.037954849302022
 10
16777.35186651181
 20
4677.335442983991
 30
0.0
 41
1.0
  0
LINE
  5
244
330
6C
100
AcDbEntity
  8
Visible (ISO)
100
AcDbLine
 10
16771.55186651181
 20
4673.08544298399
 30
0.0
 11
16776.59267713325
 21
4673.08544298399
 31
0.0
  0
LINE
  5
245
330
6C
100
AcDbEntity
  8
Visible (ISO)
100
AcDbLine
 10
16771.55186651181
 20
4681.58544298399
 30
0.0
 11
16776.59267713325
 21
4681.58544298399
 31
0.0
  0
LINE
  5
246
330
6C
100
AcDbEntity
  8
Visible (ISO)
100
AcDbLine
 10
16771.55186651181
 20
4673.08544298399
 30
0.0
 11
16771.55186651181
 21
4681.58544298399
 31
0.0
  0
LINE
  5
247
330
6C
100
AcDbEntity
  8
Visible (ISO)
100
AcDbLine
 10
16771.55186651181
 20
4690.08544298399
 30
0.0
 11
16776.59267713325
 21
4690.08544298399
 31
0.0
  0
LINE
  5
248
330
6C
100
AcDbEntity
  8
Visible (ISO)
100
AcDbLine
 10
16771.55186651181
 20
4681.58544298399
 30
0.0
 11
16771.55186651181
 21
4690.08544298399
 31
0.0
  0
LINE
  5
249
330
6C
100
AcDbEntity
  8
Visible (ISO)
100
AcDbLine
 10
16653.45176651181
 20
4676.585442983991
 30
0.0
 11
16651.87204151181
 21
4676.585442983991
 31
0.0
  0
LINE
  5
24A
330
6C
100
AcDbEntity
  8
Visible (ISO)
100
AcDbLine
 10
16653.45176651181
 20
4686.585442983989
 30
0.0
 11
16651.87204151181
 21
4686.585442983989
 31
0.0
  0
LINE
  5
24B
330
6C
100
AcDbEntity
  8
Visible (ISO)
100
AcDbLine
 10
16771.55186651181
 20
4673.78544298399
 30
0.0
 11
16770.95176651181
 21
4673.78544298399
 31
0.0
  0
LINE
  5
24C
330
6C
100
AcDbEntity
  8
Visible (ISO)
100
AcDbLine
 10
16771.55186651181
 20
4689.385442983989
 30
0.0
 11
16770.95176651181
 21
4689.385442983989
 31
0.0
  0
LINE
  5
24D
330
6C
100
AcDbEntity
  8
Visible (ISO)
100
AcDbLine
 10
15576.4517665118
 20
4696.58544298399
 30
0.0
 11
15576.4517665118
 21
4666.58544298399
 31
0.0
  0
LINE
  5
24E
330
6C
100
AcDbEntity
  8
Visible (ISO)
100
AcDbLine
 10
15573.95176651181
 20
4696.58544298399
 30
0.0
 11
15576.4517665118
 21
4696.58544298399
 31
0.0
  0
LINE
  5
24F
330
6C
100
AcDbEntity
  8
Visible (ISO)
100
AcDbLine
 10
15573.95176651181
 20
4666.58544298399
 30
0.0
 11
15576.4517665118
 21
4666.58544298399
 31
0.0
  0
LINE
  5
250
330
6C
100
AcDbEntity
  8
Visible (ISO)
100
AcDbLine
 10
16661.45176651181
 20
4666.58544298399
 30
0.0
 11
16661.45176651181
 21
4696.58544298399
 31
0.0
  0
LINE
  5
251
330
6C
100
AcDbEntity
  8
Visible (ISO)
100
AcDbLine
 10
16663.95176651181
 20
4666.58544298399
 30
0.0
 11
16661.45176651181
 21
4666.58544298399
 31
0.0
  0
LINE
  5
252
330
6C
100
AcDbEntity
  8
Visible (ISO)
100
AcDbLine
 10
16663.95176651181
 20
4696.58544298399
 30
0.0
 11
16661.45176651181
 21
4696.58544298399
 31
0.0
  0
LINE
  5
253
330
6C
100
AcDbEntity
  8
Visible (ISO)
100
AcDbLine
 10
17868.95176651181
 20
4316.58544298399
 30
0.0
 11
14368.95176651181
 21
4316.58544298399
 31
0.0
  0
LINE
  5
254
330
6C
100
AcDbEntity
  8
Visible (ISO)
100
AcDbLine
 10
14368.95176651181
 20
4306.58544298399
 30
0.0
 11
14368.95176651181
 21
4316.58544298399
 31
0.0
  0
LINE
  5
255
330
6C
100
AcDbEntity
  8
Visible (ISO)
100
AcDbLine
 10
17868.95176651181
 20
4306.58544298399
 30
0.0
 11
14368.95176651181
 21
4306.58544298399
 31
0.0
  0
LINE
  5
256
330
6C
100
AcDbEntity
  8
Visible (ISO)
100
AcDbLine
 10
17868.95176651181
 20
4306.58544298399
 30
0.0
 11
17868.95176651181
 21
4316.58544298399
 31
0.0
  0
DIMENSION
  5
34B
330
6C
100
AcDbEntity
  8
Dimension (ISO)
100
AcDbDimension
  2
*D7
 10
15218.95176651117
 20
1038.915069364495
 30
0.0
 11
16118.95176651117
 21
1038.915069364495
 31
0.0
 70
   160
  1
<>
 71
     2
 42
1799.999999999998
  3
Default (ISO)
100
AcDbAlignedDimension
 13
17018.95176651117
 23
1606.298509141278
 33
0.0
 14
15218.95176651117
 24
1606.298509141276
 34
0.0
 50
180.0
100
AcDbRotatedDimension
1001
ACAD
1000
DSTYLE
1002
{
1070
   172
1070
     0
1070
   289
1070
     1
1070
    74
1070
     0
1070
   271
1070
     2
1070
   272
1070
     2
1070
    48
1040
0.0
1070
    47
1040
0.0
1002
}
  0
DIMENSION
  5
42E
330
6C
100
AcDbEntity
  8
Dimension (ISO)
100
AcDbDimension
  2
*D8
 10
17672.34119455878
 20
1596.298509141276
 30
0.0
 11
17672.34119455878
 21
2440.548509141277
 31
0.0
 70
   160
  1
<>
 71
     2
 42
1688.500000000002
  3
Default (ISO)
100
AcDbAlignedDimension
 13
17018.95176651117
 23
3284.798509141278
 33
0.0
 14
17018.95176651117
 24
1596.298509141276
 34
0.0
 50
90.0
100
AcDbRotatedDimension
1001
ACAD
1000
DSTYLE
1002
{
1070
   172
1070
     0
1070
   289
1070
     1
1070
    74
1070
     0
1070
   271
1070
     0
1070
   272
1070
     2
1070
    48
1040
0.0
1070
    47
1040
0.0
1002
}
  0
DIMENSION
  5
516
330
6C
100
AcDbEntity
  8
Dimension (ISO)
100
AcDbDimension
  2
*D9
 10
14989.67502342074
 20
4760.585454520056
 30
0.0
 11
14989.67502342074
 21
4538.585448752026
 31
0.0
 70
   160
  1
<>
 71
     2
 42
444.0000115360653
  3
Default (ISO)
100
AcDbAlignedDimension
 13
14989.67502342074
 23
4316.58544298399
 33
0.0
 14
15218.95176651181
 24
4760.585454520056
 34
0.0
 50
90.0
100
AcDbRotatedDimension
1001
ACAD
1000
DSTYLE
1002
{
1070
   172
1070
     0
1070
   289
1070
     1
1070
    74
1070
     0
1070
   271
1070
     2
1070
    75
1070
     1
1070
   272
1070
     2
1070
    48
1040
0.0
1070
    47
1040
0.0
1002
}
  0
DIMENSION
  5
5FF
330
6C
100
AcDbEntity
  8
Dimension (ISO)
100
AcDbDimension
  2
*D10
 10
14533.10687069701
 20
5076.585442983989
 30
0.0
 11
14533.10687069701
 21
4696.58544298399
 31
0.0
 70
   160
  1
<>
 71
     2
 42
759.999999999999
  3
Default (ISO)
100
AcDbAlignedDimension
 13
14533.10687069701
 23
4316.58544298399
 33
0.0
 14
15333.95176651181
 24
5076.585442983989
 34
0.0
 50
90.0
100
AcDbRotatedDimension
1001
ACAD
1000
DSTYLE
1002
{
1070
   172
1070
     0
1070
   289
1070
     1
1070
    74
1070
     0
1070
   271
1070
     2
1070
    75
1070
     1
1070
   272
1070
     2
1070
    48
1040
0.0
1070
    47
1040
0.0
1002
}
  0
DIMENSION
  5
6E4
330
6C
100
AcDbEntity
  8
Dimension (ISO)
100
AcDbDimension
  2
*D11
 10
17456.84729524298
 20
4096.58544298399
 30
0.0
 11
17456.84729524298
 21
4790.498067706887
 31
0.0
 70
   160
  1
<>
 71
     2
 42
220.0
  3
Default (ISO)
100
AcDbAlignedDimension
 13
17415.69739417598
 23
4316.58544298399
 33
0.0
 14
16768.9517665118
 24
4096.58544298399
 34
0.0
 50
90.0
100
AcDbRotatedDimension
1001
ACAD
1000
DSTYLE
1002
{
1070
   172
1070
     1
1070
   289
1070
     1
1070
    74
1070
     0
1070
   271
1070
     2
1070
    75
1070
     1
1070
   272
1070
     2
1070
    48
1040
0.0
1070
    47
1040
0.0
1002
}
  0
INSERT
  5
7FC
330
6C
100
AcDbEntity
  8
0
100
AcDbBlockReference
 66
     1
  2
Tabelki rysunkowe Rzut
 10
6011.159185140821
 20
-537.0652712302228
 30
0.0
 41
50.0
 42
50.0
 43
50.0
  0
ATTRIB
  5
7FE
102
{ACAD_XDICTIONARY
360
80C
102
}
330
7FC
100
AcDbEntity
  8
Title (ISO)
100
AcDbText
 10
14929.18065822709
 20
369.7951653644053
 30
0.0
 40
125.0
  1
5100, 5101, 5102, 5104
  7
Note Text (ISO)
100
AcDbAttribute
  2
Numer_katalogowy_001
 70
     0
  0
ATTRIB
  5
7FF
102
{ACAD_XDICTIONARY
360
80F
102
}
330
7FC
100
AcDbEntity
  8
Title (ISO)
100
AcDbText
 10
15531.69912698995
 20
19.79516536440525
 30
0.0
 40
125.0
  1
2021-01-22
  7
Note Text (ISO)
100
AcDbAttribute
  2
DATA_UTWORZENIA_001
 70
     0
  0
ATTRIB
  5
800
102
{ACAD_XDICTIONARY
360
812
102
}
330
7FC
100
AcDbEntity
  8
Title (ISO)
100
AcDbText
 10
14937.0718603507
 20
168.6030902307521
 30
0.0
 40
125.0
  1
Stolik betonowy do wkopania ławki bez oparć
  7
Note Text (ISO)
100
AcDbAttribute
  2
Nazwa_001
 70
     0
  0
SEQEND
  5
7FD
330
7FC
100
AcDbEntity
  8
0
  0
INSERT
  5
A5D
330
6C
100
AcDbEntity
  8
0
100
AcDbBlockReference
  2
5100-5101-5102-5104_Stolik-betonowy-do-wkopania-lawki-bez-oparc
 10
16118.95176651117
 20
2440.548509141367
 30
0.0
  0
ENDSEC
  0
SECTION
  2
OBJECTS
  0
DICTIONARY
  5
C
330
0
100
AcDbDictionary
281
     1
  3
ACAD_2007HEADERVARS_RT
350
A6E
  3
ACAD_COLOR
350
63
  3
ACAD_GROUP
350
D
  3
ACAD_LAYOUT
350
62
  3
ACAD_MATERIAL
350
10
  3
ACAD_MLEADERSTYLE
350
66
  3
ACAD_MLINESTYLE
350
5F
  3
ACAD_PLOTSETTINGS
350
61
  3
ACAD_PLOTSTYLENAME
350
E
  3
ACAD_SCALELIST
350
42
  3
ACAD_TABLESTYLE
350
64
  3
ACAD_VISUALSTYLE
350
29
  3
ACDB_RECOMPOSE_DATA
350
A6C
  3
AcDbVariableDictionary
350
858
  3
AcmDictionary
350
8BA
  3
AMG
350
86C
  3
AMGSNAPSETTINGS
350
8FB
  3
DWGPROPS
350
A6D
  0
DICTIONARY
  5
817
330
8
100
AcDbDictionary
280
     1
281
     1
  0
DICTIONARY
  5
803
330
7F8
100
AcDbDictionary
280
     1
281
     1
  3
ACAD_MLATT
360
A61
  3
ACAD_XREC_ROUNDTRIP
360
A60
  0
DICTIONARY
  5
806
330
7FA
100
AcDbDictionary
280
     1
281
     1
  3
ACAD_MLATT
360
A63
  3
ACAD_XREC_ROUNDTRIP
360
A62
  0
DICTIONARY
  5
809
330
7FB
100
AcDbDictionary
280
     1
281
     1
  3
ACAD_MLATT
360
A65
  3
ACAD_XREC_ROUNDTRIP
360
A64
  0
DICTIONARY
  5
80C
330
7FE
100
AcDbDictionary
280
     1
281
     1
  3
ACAD_MLATT
360
A67
  3
ACAD_XREC_ROUNDTRIP
360
A66
  0
DICTIONARY
  5
80F
330
7FF
100
AcDbDictionary
280
     1
281
     1
  3
ACAD_MLATT
360
A69
  3
ACAD_XREC_ROUNDTRIP
360
A68
  0
DICTIONARY
  5
812
330
800
100
AcDbDictionary
280
     1
281
     1
  3
ACAD_MLATT
360
A6B
  3
ACAD_XREC_ROUNDTRIP
360
A6A
  0
DICTIONARY
  5
A6E
102
{ACAD_REACTORS
330
C
102
}
330
C
100
AcDbDictionary
281
     1
  3
DIMARCSYM
350
A6F
  3
DIMLTEX1
350
A71
  3
DIMLTEX2
350
A72
  3
DIMLTYPE
350
A70
  0
DICTIONARY
  5
63
102
{ACAD_REACTORS
330
C
102
}
330
C
100
AcDbDictionary
281
     1
  0
DICTIONARY
  5
D
102
{ACAD_REACTORS
330
C
102
}
330
C
100
AcDbDictionary
281
     1
  0
DICTIONARY
  5
62
102
{ACAD_REACTORS
330
C
102
}
330
C
100
AcDbDictionary
281
     1
  3
Layout1
350
6B
  3
Layout2
350
73
  3
Model
350
6F
  0
DICTIONARY
  5
10
102
{ACAD_REACTORS
330
C
102
}
330
C
100
AcDbDictionary
281
     1
  3
ByBlock
350
19
  3
ByLayer
350
11
  3
Global
350
21
  0
DICTIONARY
  5
66
102
{ACAD_REACTORS
330
C
102
}
330
C
100
AcDbDictionary
281
     1
  3
Standard
350
67
  0
DICTIONARY
  5
5F
102
{ACAD_REACTORS
330
C
102
}
330
C
100
AcDbDictionary
281
     1
  3
Standard
350
60
  0
DICTIONARY
  5
61
102
{ACAD_REACTORS
330
C
102
}
330
C
100
AcDbDictionary
281
     1
  0
ACDBDICTIONARYWDFLT
  5
E
102
{ACAD_REACTORS
330
C
102
}
330
C
100
AcDbDictionary
281
     1
  3
Normal
350
F
100
AcDbDictionaryWithDefault
340
F
  0
DICTIONARY
  5
42
102
{ACAD_REACTORS
330
C
102
}
330
C
100
AcDbDictionary
281
     1
  3
A0
350
43
  3
A1
350
44
  3
A2
350
45
  3
A3
350
46
  3
A4
350
47
  3
A5
350
48
  3
A6
350
49
  3
A7
350
4A
  3
A8
350
4B
  3
A9
350
4C
  3
B0
350
4D
  3
B1
350
4E
  3
B2
350
4F
  3
B3
350
50
  3
B4
350
51
  3
B5
350
52
  3
B6
350
53
  0
DICTIONARY
  5
64
102
{ACAD_REACTORS
330
C
102
}
330
C
100
AcDbDictionary
281
     1
  3
Standard
350
65
  0
DICTIONARY
  5
29
102
{ACAD_REACTORS
330
C
102
}
330
C
100
AcDbDictionary
281
     1
  3
2dWireframe
350
2F
  3
Basic
350
2E
  3
Brighten
350
35
  3
ColorChange
350
39
  3
Conceptual
350
32
  3
Dim
350
34
  3
EdgeColorOff
350
41
  3
Facepattern
350
38
  3
Flat
350
2A
  3
FlatWithEdges
350
2B
  3
Gouraud
350
2C
  3
GouraudWithEdges
350
2D
  3
Hidden
350
31
  3
JitterOff
350
3F
  3
Linepattern
350
37
  3
OverhangOff
350
40
  3
Realistic
350
33
  3
Shaded
350
3E
  3
Shaded with edges
350
3D
  3
Shades of Gray
350
3A
  3
Sketchy
350
3B
  3
Thicken
350
36
  3
Wireframe
350
30
  3
X-Ray
350
3C
  0
XRECORD
  5
A6C
102
{ACAD_REACTORS
330
C
102
}
330
C
100
AcDbXrecord
280
     1
 90
        1
330
65
330
7F8
330
7FA
330
7FB
330
7FE
330
7FF
330
800
  0
DICTIONARY
  5
858
102
{ACAD_REACTORS
330
C
102
}
330
C
100
AcDbDictionary
281
     1
  3
CANNOSCALE
350
85C
  3
CMLEADERSTYLE
350
85A
  3
CTABLESTYLE
350
859
  3
DIMASSOC
350
863
  3
HIDETEXT
350
862
  3
INDEXCTL
350
861
  3
LAYEREVAL
350
85E
  3
LAYERNOTIFY
350
85F
  3
LIGHTINGUNITS
350
85D
  3
MSLTSCALE
350
85B
  3
SORTENTS
350
860
  3
XCLIPFRAME
350
A5E
  0
DICTIONARY
  5
8BA
102
{ACAD_REACTORS
330
C
102
}
330
C
100
AcDbDictionary
281
     1
  3
AcmStdDictionary
350
8C5
  0
DICTIONARY
  5
86C
102
{ACAD_REACTORS
330
C
102
}
330
C
100
AcDbDictionary
281
     1
  0
DICTIONARY
  5
8FB
102
{ACAD_REACTORS
330
C
102
}
330
C
100
AcDbDictionary
281
     1
  0
XRECORD
  5
A6D
102
{ACAD_REACTORS
330
C
102
}
330
C
100
AcDbXrecord
280
     1
  1
DWGPROPS COOKIE
  2

  3

  4
Maruszak Marcin
  6

  7

  8
Natalia
  9
v1
300
Menadżer=
301
Firma=Muller Jelcz-Laskowice Sp.z o.o.
302
Kategoria=
303
Numer części=
304
Opis=
305
Projekt=
306
Projektant=Maruszak Marcin
307
Inżynier=Maruszak Marcin
308
Zatwierdził=Ośkiewicz Ryszard
309
Centrum kosztów=
 40
0.0021771875
 41
2459237.330326192
 42
2459237.333270602
  1
www.muller.com.pl
 90
       19
300
Dostawca=
300
Stan użytkownika=
300
Stan projektu=PracaWToku
300
Sprawdził=
300
Zatwierdził konstrukcję=
300
Zatwierdził do produkcji=
300
Kolor=szary
300
Stanowisko=Ploter
300
mat.=
  0
XRECORD
  5
A61
102
{ACAD_REACTORS
330
803
102
}
330
803
100
AcDbXrecord
280
     1
 70
     4
 70
     0
 70
     0
 40
1.0
  2
Numer_katalogowy
  1
Embedded Object
 10
178.5686228801271
 20
20.68925708649297
 30
0.0
 40
2.5
 41
39.63119806127143
 46
0.0
 71
     1
 72
     5
  1
5100, 5101, 5102, 5104
  7
Note Text (ISO)
 73
     1
 44
1.0
  0
XRECORD
  5
A60
102
{ACAD_REACTORS
330
803
102
}
330
803
100
AcDbXrecord
280
     1
102
ACAD_MATT_HEIGHT
140
2.5
  0
XRECORD
  5
A63
102
{ACAD_REACTORS
330
806
102
}
330
806
100
AcDbXrecord
280
     1
 70
     4
 70
     0
 70
     0
 40
1.0
  2
DATA_UTWORZENIA
  1
Embedded Object
 10
190.5938075676742
 20
13.68925708649296
 30
0.0
 40
2.5
 41
40.52963831958745
 46
0.0
 71
     1
 72
     5
  1
2021-01-22
  7
Note Text (ISO)
 73
     1
 44
1.0
  0
XRECORD
  5
A62
102
{ACAD_REACTORS
330
806
102
}
330
806
100
AcDbXrecord
280
     1
102
ACAD_MATT_HEIGHT
140
2.5
  0
XRECORD
  5
A65
102
{ACAD_REACTORS
330
809
102
}
330
809
100
AcDbXrecord
280
     1
 70
     4
 70
     0
 70
     0
 40
1.0
  2
Nazwa
  1
Embedded Object
 10
178.6475349011082
 20
16.92733633600257
 30
0.0
 40
2.5
 41
134.2575473550035
 46
0.0
 71
     1
 72
     5
  1
Stolik betonowy do wkopania ławki bez oparć
  7
Note Text (ISO)
 73
     1
 44
1.0
  0
XRECORD
  5
A64
102
{ACAD_REACTORS
330
809
102
}
330
809
100
AcDbXrecord
280
     1
102
ACAD_MATT_HEIGHT
140
2.5
  0
XRECORD
  5
A67
102
{ACAD_REACTORS
330
80C
102
}
330
80C
100
AcDbXrecord
280
     1
 70
     2
 70
     0
 70
     0
 40
1.0
  2
Numer_katalogowy
  1
Embedded Object
 10
14939.59032914717
 20
497.3975830944254
 30
0.0
 40
125.0
 41
1981.559903063571
 46
0.0
 71
     1
 72
     5
  1
5100, 5101, 5102, 5104
  7
Note Text (ISO)
 73
     1
 44
1.0
  0
XRECORD
  5
A66
102
{ACAD_REACTORS
330
80C
102
}
330
80C
100
AcDbXrecord
280
     1
102
ACAD_MATT_HEIGHT
140
125.0
  0
XRECORD
  5
A69
102
{ACAD_REACTORS
330
80F
102
}
330
80F
100
AcDbXrecord
280
     1
 70
     2
 70
     0
 70
     0
 40
1.0
  2
DATA_UTWORZENIA
  1
Embedded Object
 10
15540.84956352453
 20
147.3975830944254
 30
0.0
 40
125.0
 41
2026.481915979373
 46
0.0
 71
     1
 72
     5
  1
2021-01-22
  7
Note Text (ISO)
 73
     1
 44
1.0
  0
XRECORD
  5
A68
102
{ACAD_REACTORS
330
80F
102
}
330
80F
100
AcDbXrecord
280
     1
102
ACAD_MATT_HEIGHT
140
125.0
  0
XRECORD
  5
A6B
102
{ACAD_REACTORS
330
812
102
}
330
812
100
AcDbXrecord
280
     1
 70
     2
 70
     0
 70
     0
 40
1.0
  2
Nazwa
  1
Embedded Object
 10
14943.53593019623
 20
309.301545569906
 30
0.0
 40
125.0
 41
6712.877367750175
 46
0.0
 71
     1
 72
     5
  1
Stolik betonowy do wkopania ławki bez oparć
  7
Note Text (ISO)
 73
     1
 44
1.0
  0
XRECORD
  5
A6A
102
{ACAD_REACTORS
330
812
102
}
330
812
100
AcDbXrecord
280
     1
102
ACAD_MATT_HEIGHT
140
125.0
  0
XRECORD
  5
A6F
102
{ACAD_REACTORS
330
A6E
102
}
330
A6E
100
AcDbXrecord
280
     1
 70
     1
  0
XRECORD
  5
A71
102
{ACAD_REACTORS
330
A6E
102
}
330
A6E
100
AcDbXrecord
280
     1
340
5B
  0
XRECORD
  5
A72
102
{ACAD_REACTORS
330
A6E
102
}
330
A6E
100
AcDbXrecord
280
     1
340
5B
  0
XRECORD
  5
A70
102
{ACAD_REACTORS
330
A6E
102
}
330
A6E
100
AcDbXrecord
280
     1
340
5B
  0
LAYOUT
  5
6B
102
{ACAD_XDICTIONARY
360
AA7
102
}
102
{ACAD_REACTORS
330
62
102
}
330
62
100
AcDbPlotSettings
  1

  2

  4

  6

 40
0.0
 41
0.0
 42
0.0
 43
0.0
 44
0.0
 45
0.0
 46
0.0
 47
0.0
 48
0.0
 49
0.0
140
0.0
141
0.0
142
1.0
143
1.0
 70
   688
 72
     0
 73
     0
 74
     5
  7

 75
    16
147
1.0
148
0.0
149
0.0
100
AcDbLayout
  1
Layout1
 70
     1
 71
     1
 10
0.0
 20
0.0
 11
14850.0
 21
10500.0
 12
0.0
 22
0.0
 32
0.0
 14
0.0
 24
0.0
 34
0.0
 15
14850.0
 25
10500.0
 35
0.0
146
0.0
 13
0.0
 23
0.0
 33
0.0
 16
1.0
 26
0.0
 36
0.0
 17
0.0
 27
1.0
 37
0.0
 76
     0
330
68
  0
LAYOUT
  5
73
102
{ACAD_XDICTIONARY
360
AAB
102
}
102
{ACAD_REACTORS
330
62
102
}
330
62
100
AcDbPlotSettings
  1

  2

  4

  6

 40
0.0
 41
0.0
 42
0.0
 43
0.0
 44
0.0
 45
0.0
 46
0.0
 47
0.0
 48
0.0
 49
0.0
140
0.0
141
0.0
142
1.0
143
1.0
 70
   688
 72
     0
 73
     0
 74
     5
  7

 75
    16
147
1.0
148
0.0
149
0.0
100
AcDbLayout
  1
Layout2
 70
     1
 71
     2
 10
0.0
 20
0.0
 11
12.0
 21
9.0
 12
0.0
 22
0.0
 32
0.0
 14
0.0
 24
0.0
 34
0.0
 15
0.0
 25
0.0
 35
0.0
146
0.0
 13
0.0
 23
0.0
 33
0.0
 16
1.0
 26
0.0
 36
0.0
 17
0.0
 27
1.0
 37
0.0
 76
     0
330
70
  0
LAYOUT
  5
6F
102
{ACAD_XDICTIONARY
360
AA9
102
}
102
{ACAD_REACTORS
330
62
102
}
330
62
100
AcDbPlotSettings
  1

  2

  4

  6

 40
0.0
 41
0.0
 42
0.0
 43
0.0
 44
0.0
 45
0.0
 46
0.0
 47
0.0
 48
0.0
 49
0.0
140
0.0
141
0.0
142
1.0
143
1.0
 70
  1712
 72
     0
 73
     0
 74
     0
  7

 75
     0
147
1.0
148
0.0
149
0.0
100
AcDbLayout
  1
Model
 70
     1
 71
     0
 10
0.0
 20
0.0
 11
12.0
 21
9.0
 12
0.0
 22
0.0
 32
0.0
 14
0.0
 24
0.0
 34
0.0
 15
0.0
 25
0.0
 35
0.0
146
0.0
 13
0.0
 23
0.0
 33
0.0
 16
1.0
 26
0.0
 36
0.0
 17
0.0
 27
1.0
 37
0.0
 76
     0
330
6C
331
57
  0
MATERIAL
  5
19
102
{ACAD_XDICTIONARY
360
1A
102
}
102
{ACAD_REACTORS
330
10
102
}
330
10
100
AcDbMaterial
  1
ByBlock
 72
     0
 43
0.0208333333333333
 43
0.0
 43
0.0
 43
0.0
 43
0.0
 43
0.0208333333333333
 43
0.0
 43
0.0
 43
0.0
 43
0.0
 43
1.0
 43
0.0
 43
0.0
 43
0.0
 43
0.0
 43
1.0
 77
     0
 47
0.0208333333333333
 47
0.0
 47
0.0
 47
0.0
 47
0.0
 47
0.0208333333333333
 47
0.0
 47
0.0
 47
0.0
 47
0.0
 47
1.0
 47
0.0
 47
0.0
 47
0.0
 47
0.0
 47
1.0
171
     0
 49
0.0208333333333333
 49
0.0
 49
0.0
 49
0.0
 49
0.0
 49
0.0208333333333333
 49
0.0
 49
0.0
 49
0.0
 49
0.0
 49
1.0
 49
0.0
 49
0.0
 49
0.0
 49
0.0
 49
1.0
175
     0
142
0.0208333333333333
142
0.0
142
0.0
142
0.0
142
0.0
142
0.0208333333333333
142
0.0
142
0.0
142
0.0
142
0.0
142
1.0
142
0.0
142
0.0
142
0.0
142
0.0
142
1.0
179
     0
144
0.0208333333333333
144
0.0
144
0.0
144
0.0
144
0.0
144
0.0208333333333333
144
0.0
144
0.0
144
0.0
144
0.0
144
1.0
144
0.0
144
0.0
144
0.0
144
0.0
144
1.0
147
0.0208333333333333
147
0.0
147
0.0
147
0.0
147
0.0
147
0.0208333333333333
147
0.0
147
0.0
147
0.0
147
0.0
147
1.0
147
0.0
147
0.0
147
0.0
147
0.0
147
1.0
  0
MATERIAL
  5
11
102
{ACAD_XDICTIONARY
360
12
102
}
102
{ACAD_REACTORS
330
10
102
}
330
10
100
AcDbMaterial
  1
ByLayer
 72
     0
 43
0.0208333333333333
 43
0.0
 43
0.0
 43
0.0
 43
0.0
 43
0.0208333333333333
 43
0.0
 43
0.0
 43
0.0
 43
0.0
 43
1.0
 43
0.0
 43
0.0
 43
0.0
 43
0.0
 43
1.0
 77
     0
 47
0.0208333333333333
 47
0.0
 47
0.0
 47
0.0
 47
0.0
 47
0.0208333333333333
 47
0.0
 47
0.0
 47
0.0
 47
0.0
 47
1.0
 47
0.0
 47
0.0
 47
0.0
 47
0.0
 47
1.0
171
     0
 49
0.0208333333333333
 49
0.0
 49
0.0
 49
0.0
 49
0.0
 49
0.0208333333333333
 49
0.0
 49
0.0
 49
0.0
 49
0.0
 49
1.0
 49
0.0
 49
0.0
 49
0.0
 49
0.0
 49
1.0
175
     0
142
0.0208333333333333
142
0.0
142
0.0
142
0.0
142
0.0
142
0.0208333333333333
142
0.0
142
0.0
142
0.0
142
0.0
142
1.0
142
0.0
142
0.0
142
0.0
142
0.0
142
1.0
179
     0
144
0.0208333333333333
144
0.0
144
0.0
144
0.0
144
0.0
144
0.0208333333333333
144
0.0
144
0.0
144
0.0
144
0.0
144
1.0
144
0.0
144
0.0
144
0.0
144
0.0
144
1.0
147
0.0208333333333333
147
0.0
147
0.0
147
0.0
147
0.0
147
0.0208333333333333
147
0.0
147
0.0
147
0.0
147
0.0
147
1.0
147
0.0
147
0.0
147
0.0
147
0.0
147
1.0
  0
MATERIAL
  5
21
102
{ACAD_XDICTIONARY
360
22
102
}
102
{ACAD_REACTORS
330
10
102
}
330
10
100
AcDbMaterial
  1
Global
 72
     0
 43
0.0208333333333333
 43
0.0
 43
0.0
 43
0.0
 43
0.0
 43
0.0208333333333333
 43
0.0
 43
0.0
 43
0.0
 43
0.0
 43
1.0
 43
0.0
 43
0.0
 43
0.0
 43
0.0
 43
1.0
 77
     0
 47
0.0208333333333333
 47
0.0
 47
0.0
 47
0.0
 47
0.0
 47
0.0208333333333333
 47
0.0
 47
0.0
 47
0.0
 47
0.0
 47
1.0
 47
0.0
 47
0.0
 47
0.0
 47
0.0
 47
1.0
171
     0
 49
0.0208333333333333
 49
0.0
 49
0.0
 49
0.0
 49
0.0
 49
0.0208333333333333
 49
0.0
 49
0.0
 49
0.0
 49
0.0
 49
1.0
 49
0.0
 49
0.0
 49
0.0
 49
0.0
 49
1.0
175
     0
142
0.0208333333333333
142
0.0
142
0.0
142
0.0
142
0.0
142
0.0208333333333333
142
0.0
142
0.0
142
0.0
142
0.0
142
1.0
142
0.0
142
0.0
142
0.0
142
0.0
142
1.0
179
     0
144
0.0208333333333333
144
0.0
144
0.0
144
0.0
144
0.0
144
0.0208333333333333
144
0.0
144
0.0
144
0.0
144
0.0
144
1.0
144
0.0
144
0.0
144
0.0
144
0.0
144
1.0
147
0.0208333333333333
147
0.0
147
0.0
147
0.0
147
0.0
147
0.0208333333333333
147
0.0
147
0.0
147
0.0
147
0.0
147
1.0
147
0.0
147
0.0
147
0.0
147
0.0
147
1.0
  0
MLEADERSTYLE
  5
67
102
{ACAD_REACTORS
330
66
102
}
330
66
100
AcDbMLeaderStyle
170
     2
171
     1
172
     0
 90
        2
 40
0.0
 41
0.0
173
     1
 91
-1056964608
340
5B
 92
       -2
290
     1
 42
0.09
291
     1
 43
0.36
  3
Standard
 44
0.18
300

342
55
174
     1
178
     6
175
     1
176
     0
 93
-1056964608
 45
0.18
292
     0
297
     0
 46
0.18
 94
-1056964608
 47
1.0
 49
1.0
140
1.0
293
     1
141
0.0
294
     1
177
     0
142
1.0
295
     0
296
     0
143
0.125
1001
ACAD_MLEADERVER
1070
     2
  0
MLINESTYLE
  5
60
102
{ACAD_REACTORS
330
5F
102
}
330
5F
100
AcDbMlineStyle
  2
STANDARD
 70
     0
  3

 62
   256
 51
90.0
 52
90.0
 71
     2
 49
0.5
 62
   256
  6
BYLAYER
 49
-0.5
 62
   256
  6
BYLAYER
  0
ACDBPLACEHOLDER
  5
F
102
{ACAD_REACTORS
330
E
102
}
330
E
  0
SCALE
  5
43
102
{ACAD_REACTORS
330
42
102
}
330
42
100
AcDbScale
 70
     0
300
1:1
140
1.0
141
1.0
290
     1
  0
SCALE
  5
44
102
{ACAD_REACTORS
330
42
102
}
330
42
100
AcDbScale
 70
     0
300
1/128" = 1'-0"
140
0.0078125
141
12.0
290
     0
  0
SCALE
  5
45
102
{ACAD_REACTORS
330
42
102
}
330
42
100
AcDbScale
 70
     0
300
1/64" = 1'-0"
140
0.015625
141
12.0
290
     0
  0
SCALE
  5
46
102
{ACAD_REACTORS
330
42
102
}
330
42
100
AcDbScale
 70
     0
300
1/32" = 1'-0"
140
0.03125
141
12.0
290
     0
  0
SCALE
  5
47
102
{ACAD_REACTORS
330
42
102
}
330
42
100
AcDbScale
 70
     0
300
1/16" = 1'-0"
140
0.0625
141
12.0
290
     0
  0
SCALE
  5
48
102
{ACAD_REACTORS
330
42
102
}
330
42
100
AcDbScale
 70
     0
300
3/32" = 1'-0"
140
0.09375
141
12.0
290
     0
  0
SCALE
  5
49
102
{ACAD_REACTORS
330
42
102
}
330
42
100
AcDbScale
 70
     0
300
1/8" = 1'-0"
140
0.125
141
12.0
290
     0
  0
SCALE
  5
4A
102
{ACAD_REACTORS
330
42
102
}
330
42
100
AcDbScale
 70
     0
300
3/16" = 1'-0"
140
0.1875
141
12.0
290
     0
  0
SCALE
  5
4B
102
{ACAD_REACTORS
330
42
102
}
330
42
100
AcDbScale
 70
     0
300
1/4" = 1'-0"
140
0.25
141
12.0
290
     0
  0
SCALE
  5
4C
102
{ACAD_REACTORS
330
42
102
}
330
42
100
AcDbScale
 70
     0
300
3/8" = 1'-0"
140
0.375
141
12.0
290
     0
  0
SCALE
  5
4D
102
{ACAD_REACTORS
330
42
102
}
330
42
100
AcDbScale
 70
     0
300
1/2" = 1'-0"
140
0.5
141
12.0
290
     0
  0
SCALE
  5
4E
102
{ACAD_REACTORS
330
42
102
}
330
42
100
AcDbScale
 70
     0
300
3/4" = 1'-0"
140
0.75
141
12.0
290
     0
  0
SCALE
  5
4F
102
{ACAD_REACTORS
330
42
102
}
330
42
100
AcDbScale
 70
     0
300
1" = 1'-0"
140
1.0
141
12.0
290
     0
  0
SCALE
  5
50
102
{ACAD_REACTORS
330
42
102
}
330
42
100
AcDbScale
 70
     0
300
1-1/2" = 1'-0"
140
1.5
141
12.0
290
     0
  0
SCALE
  5
51
102
{ACAD_REACTORS
330
42
102
}
330
42
100
AcDbScale
 70
     0
300
3" = 1'-0"
140
3.0
141
12.0
290
     0
  0
SCALE
  5
52
102
{ACAD_REACTORS
330
42
102
}
330
42
100
AcDbScale
 70
     0
300
6" = 1'-0"
140
6.0
141
12.0
290
     0
  0
SCALE
  5
53
102
{ACAD_REACTORS
330
42
102
}
330
42
100
AcDbScale
 70
     0
300
1'-0" = 1'-0"
140
12.0
141
12.0
290
     0
  0
TABLESTYLE
  5
65
102
{ACAD_XDICTIONARY
360
801
102
}
102
{ACAD_REACTORS
330
64
102
}
330
64
100
AcDbTableStyle
  3
Standard
 70
     0
 71
     0
 40
0.06
 41
0.06
280
     0
281
     0
  7
Standard
140
0.18
170
     2
 62
     0
 63
     7
283
     0
274
    -2
284
     1
 64
     0
275
    -2
285
     1
 65
     0
276
    -2
286
     1
 66
     0
277
    -2
287
     1
 67
     0
278
    -2
288
     1
 68
     0
279
    -2
289
     1
 69
     0
  7
Standard
140
0.25
170
     5
 62
     0
 63
     7
283
     0
274
    -2
284
     1
 64
     0
275
    -2
285
     1
 65
     0
276
    -2
286
     1
 66
     0
277
    -2
287
     1
 67
     0
278
    -2
288
     1
 68
     0
279
    -2
289
     1
 69
     0
  7
Standard
140
0.18
170
     5
 62
     0
 63
     7
283
     0
274
    -2
284
     1
 64
     0
275
    -2
285
     1
 65
     0
276
    -2
286
     1
 66
     0
277
    -2
287
     1
 67
     0
278
    -2
288
     1
 68
     0
279
    -2
289
     1
 69
     0
  0
VISUALSTYLE
  5
2F
102
{ACAD_XDICTIONARY
360
A80
102
}
102
{ACAD_REACTORS
330
29
102
}
330
29
100
AcDbVisualStyle
  2
2dWireframe
 70
     4
 71
     0
 72
     2
 73
     0
 90
        0
 40
-0.6
 41
-30.0
 62
     5
 63
     7
 74
     1
 91
        4
 64
     7
 65
   257
 75
     1
175
     1
 42
1.0
 92
        0
 66
   257
 43
1.0
 76
     1
 77
     6
 78
     2
 67
     7
 79
     5
170
     0
171
     0
290
     0
174
     0
 93
        1
 44
0.0
173
     0
291
     0
 45
0.0
1001
ACAD
1000
AcDbSavedByObjectVersion
1070
     0
  0
VISUALSTYLE
  5
2E
102
{ACAD_XDICTIONARY
360
A7E
102
}
102
{ACAD_REACTORS
330
29
102
}
330
29
100
AcDbVisualStyle
  2
Basic
 70
     7
 71
     1
 72
     0
 73
     1
 90
        0
 40
-0.6
 41
-30.0
 62
     5
 63
     7
 74
     0
 91
        4
 64
     7
 65
   257
 75
     1
175
     1
 42
1.0
 92
        8
 66
     7
 43
1.0
 76
     1
 77
     6
 78
     2
 67
     7
 79
     5
170
     0
171
     0
290
     0
174
     0
 93
        1
 44
0.0
173
     0
291
     1
 45
0.0
1001
ACAD
1000
AcDbSavedByObjectVersion
1070
     0
  0
VISUALSTYLE
  5
35
102
{ACAD_XDICTIONARY
360
A8C
102
}
102
{ACAD_REACTORS
330
29
102
}
330
29
100
AcDbVisualStyle
  2
Brighten
 70
    12
 71
     2
 72
     2
 73
     0
 90
        0
 40
-0.6
 41
-30.0
 62
     5
 63
     7
 74
     1
 91
        4
 64
     7
 65
   257
 75
     1
175
     1
 42
1.0
 92
        8
 66
     7
 43
1.0
 76
     1
 77
     6
 78
     2
 67
     7
 79
     5
170
     0
171
     0
290
     0
174
     0
 93
        1
 44
50.0
173
     0
291
     1
 45
0.0
1001
ACAD
1000
AcDbSavedByObjectVersion
1070
     0
  0
VISUALSTYLE
  5
39
102
{ACAD_XDICTIONARY
360
A94
102
}
102
{ACAD_REACTORS
330
29
102
}
330
29
100
AcDbVisualStyle
  2
ColorChange
 70
    16
 71
     2
 72
     2
 73
     3
 90
        0
 40
-0.6
 41
-30.0
 62
     5
 63
     8
 74
     1
 91
        4
 64
     7
 65
   257
 75
     1
175
     1
 42
1.0
 92
        8
 66
     8
 43
1.0
 76
     1
 77
     6
 78
     2
 67
     7
 79
     5
170
     0
171
     0
290
     0
174
     0
 93
        1
 44
0.0
173
     0
291
     1
 45
0.0
1001
ACAD
1000
AcDbSavedByObjectVersion
1070
     0
  0
VISUALSTYLE
  5
32
102
{ACAD_XDICTIONARY
360
A86
102
}
102
{ACAD_REACTORS
330
29
102
}
330
29
100
AcDbVisualStyle
  2
Conceptual
 70
     9
 71
     3
 72
     2
 73
     0
 90
        0
 40
-0.6
 41
-30.0
 62
     5
 63
     7
 74
     2
 91
        2
 64
     7
 65
   257
 75
     1
175
     1
 42
179.0
 92
        8
 66
     7
 43
1.0
 76
     1
 77
     6
 78
     2
 67
     7
 79
     3
170
     0
171
     0
290
     0
174
     0
 93
        1
 44
0.0
173
     0
291
     0
 45
0.0
1001
ACAD
1000
AcDbSavedByObjectVersion
1070
     0
  0
VISUALSTYLE
  5
34
102
{ACAD_XDICTIONARY
360
A8A
102
}
102
{ACAD_REACTORS
330
29
102
}
330
29
100
AcDbVisualStyle
  2
Dim
 70
    11
 71
     2
 72
     2
 73
     0
 90
        0
 40
-0.6
 41
-30.0
 62
     5
 63
     7
 74
     1
 91
        4
 64
     7
 65
   257
 75
     1
175
     1
 42
1.0
 92
        8
 66
     7
 43
1.0
 76
     1
 77
     6
 78
     2
 67
     7
 79
     5
170
     0
171
     0
290
     0
174
     0
 93
        1
 44
-50.0
173
     0
291
     1
 45
0.0
1001
ACAD
1000
AcDbSavedByObjectVersion
1070
     0
  0
VISUALSTYLE
  5
41
102
{ACAD_XDICTIONARY
360
AA4
102
}
102
{ACAD_REACTORS
330
29
102
}
330
29
100
AcDbVisualStyle
  2
EdgeColorOff
 70
    22
 71
     2
 72
     2
 73
     0
 90
        0
 40
-0.6
 41
-30.0
 62
     5
 63
     7
 74
     1
 91
        4
 64
     7
 65
   257
 75
     1
175
     1
 42
1.0
 92
        8
 66
     7
 43
1.0
 76
     1
 77
     6
 78
     2
 67
     7
 79
     5
170
     0
171
     0
290
     0
174
     0
 93
        1
 44
0.0
173
     0
291
     1
 45
0.0
1001
ACAD
1000
AcDbSavedByObjectVersion
1070
     0
  0
VISUALSTYLE
  5
38
102
{ACAD_XDICTIONARY
360
A92
102
}
102
{ACAD_REACTORS
330
29
102
}
330
29
100
AcDbVisualStyle
  2
Facepattern
 70
    15
 71
     2
 72
     2
 73
     0
 90
        0
 40
-0.6
 41
-30.0
 62
     5
 63
     7
 74
     1
 91
        4
 64
     7
 65
   257
 75
     1
175
     1
 42
1.0
 92
        8
 66
     7
 43
1.0
 76
     1
 77
     6
 78
     2
 67
     7
 79
     5
170
     0
171
     0
290
     0
174
     0
 93
        1
 44
0.0
173
     0
291
     1
 45
0.0
1001
ACAD
1000
AcDbSavedByObjectVersion
1070
     0
  0
VISUALSTYLE
  5
2A
102
{ACAD_XDICTIONARY
360
A76
102
}
102
{ACAD_REACTORS
330
29
102
}
330
29
100
AcDbVisualStyle
  2
Flat
 70
     0
 71
     2
 72
     1
 73
     1
 90
        2
 40
-0.6
 41
30.0
 62
     5
 63
     7
 74
     0
 91
        0
 64
     7
 65
   257
 75
     1
175
     1
 42
1.0
 92
        8
 66
     7
 43
1.0
 76
     1
 77
     6
 78
     2
 67
     7
 79
     5
170
     0
171
     0
290
     0
174
     0
 93
       13
 44
0.0
173
     0
291
     1
 45
0.0
1001
ACAD
1000
AcDbSavedByObjectVersion
1070
     0
  0
VISUALSTYLE
  5
2B
102
{ACAD_XDICTIONARY
360
A78
102
}
102
{ACAD_REACTORS
330
29
102
}
330
29
100
AcDbVisualStyle
  2
FlatWithEdges
 70
     1
 71
     2
 72
     1
 73
     1
 90
        2
 40
-0.6
 41
30.0
 62
     5
 63
     7
 74
     1
 91
        0
 64
     7
 65
   257
 75
     1
175
     1
 42
1.0
 92
        0
 66
   257
 43
1.0
 76
     1
 77
     6
 78
     2
 67
     7
 79
     5
170
     0
171
     0
290
     0
174
     0
 93
       13
 44
0.0
173
     0
291
     1
 45
0.0
1001
ACAD
1000
AcDbSavedByObjectVersion
1070
     0
  0
VISUALSTYLE
  5
2C
102
{ACAD_XDICTIONARY
360
A7A
102
}
102
{ACAD_REACTORS
330
29
102
}
330
29
100
AcDbVisualStyle
  2
Gouraud
 70
     2
 71
     2
 72
     2
 73
     1
 90
        2
 40
-0.6
 41
30.0
 62
     5
 63
     7
 74
     0
 91
        0
 64
     7
 65
   257
 75
     1
175
     1
 42
1.0
 92
        0
 66
     7
 43
1.0
 76
     1
 77
     6
 78
     2
 67
     7
 79
     5
170
     0
171
     0
290
     0
174
     0
 93
       13
 44
0.0
173
     0
291
     1
 45
0.0
1001
ACAD
1000
AcDbSavedByObjectVersion
1070
     0
  0
VISUALSTYLE
  5
2D
102
{ACAD_XDICTIONARY
360
A7C
102
}
102
{ACAD_REACTORS
330
29
102
}
330
29
100
AcDbVisualStyle
  2
GouraudWithEdges
 70
     3
 71
     2
 72
     2
 73
     1
 90
        2
 40
-0.6
 41
30.0
 62
     5
 63
     7
 74
     1
 91
        0
 64
     7
 65
   257
 75
     1
175
     1
 42
1.0
 92
        0
 66
   257
 43
1.0
 76
     1
 77
     6
 78
     2
 67
     7
 79
     5
170
     0
171
     0
290
     0
174
     0
 93
       13
 44
0.0
173
     0
291
     1
 45
0.0
1001
ACAD
1000
AcDbSavedByObjectVersion
1070
     0
  0
VISUALSTYLE
  5
31
102
{ACAD_XDICTIONARY
360
A84
102
}
102
{ACAD_REACTORS
330
29
102
}
330
29
100
AcDbVisualStyle
  2
Hidden
 70
     6
 71
     1
 72
     2
 73
     2
 90
        0
 40
-0.6
 41
-30.0
 62
     5
 63
     7
 74
     2
 91
        2
 64
     7
 65
   257
 75
     2
175
     1
 42
40.0
 92
        0
 66
   257
 43
1.0
 76
     1
 77
     6
 78
     2
 67
     7
 79
     3
170
     0
171
     0
290
     0
174
     0
 93
        1
 44
0.0
173
     0
291
     0
 45
0.0
1001
ACAD
1000
AcDbSavedByObjectVersion
1070
     0
  0
VISUALSTYLE
  5
3F
102
{ACAD_XDICTIONARY
360
AA0
102
}
102
{ACAD_REACTORS
330
29
102
}
330
29
100
AcDbVisualStyle
  2
JitterOff
 70
    20
 71
     2
 72
     2
 73
     0
 90
        0
 40
-0.6
 41
-30.0
 62
     5
 63
     7
 74
     1
 91
        4
 64
     7
 65
   257
 75
     1
175
     1
 42
1.0
 92
       10
 66
     7
 43
1.0
 76
     1
 77
     6
 78
     2
 67
     7
 79
     5
170
     0
171
     0
290
     0
174
     0
 93
        1
 44
0.0
173
     0
291
     1
 45
0.0
1001
ACAD
1000
AcDbSavedByObjectVersion
1070
     0
  0
VISUALSTYLE
  5
37
102
{ACAD_XDICTIONARY
360
A90
102
}
102
{ACAD_REACTORS
330
29
102
}
330
29
100
AcDbVisualStyle
  2
Linepattern
 70
    14
 71
     2
 72
     2
 73
     0
 90
        0
 40
-0.6
 41
-30.0
 62
     5
 63
     7
 74
     1
 91
        4
 64
     7
 65
   257
 75
     7
175
     7
 42
1.0
 92
        8
 66
     7
 43
1.0
 76
     1
 77
     6
 78
     2
 67
     7
 79
     5
170
     0
171
     0
290
     0
174
     0
 93
        1
 44
0.0
173
     0
291
     1
 45
0.0
1001
ACAD
1000
AcDbSavedByObjectVersion
1070
     0
  0
VISUALSTYLE
  5
40
102
{ACAD_XDICTIONARY
360
AA2
102
}
102
{ACAD_REACTORS
330
29
102
}
330
29
100
AcDbVisualStyle
  2
OverhangOff
 70
    21
 71
     2
 72
     2
 73
     0
 90
        0
 40
-0.6
 41
-30.0
 62
     5
 63
     7
 74
     1
 91
        4
 64
     7
 65
   257
 75
     1
175
     1
 42
1.0
 92
        9
 66
     7
 43
1.0
 76
     1
 77
     6
 78
     2
 67
     7
 79
     5
170
     0
171
     0
290
     0
174
     0
 93
        1
 44
0.0
173
     0
291
     1
 45
0.0
1001
ACAD
1000
AcDbSavedByObjectVersion
1070
     0
  0
VISUALSTYLE
  5
33
102
{ACAD_XDICTIONARY
360
A88
102
}
102
{ACAD_REACTORS
330
29
102
}
330
29
100
AcDbVisualStyle
  2
Realistic
 70
     8
 71
     2
 72
     2
 73
     0
 90
        2
 40
-0.6
 41
30.0
 62
     5
 63
     7
 74
     0
 91
        0
 64
     7
 65
   257
 75
     1
175
     1
 42
1.0
 92
        8
 66
   257
 43
1.0
 76
     1
 77
     6
 78
     2
 67
     7
 79
     3
170
     0
171
     0
290
     0
174
     0
 93
       13
 44
0.0
173
     0
291
     0
 45
0.0
1001
ACAD
1000
AcDbSavedByObjectVersion
1070
     0
  0
VISUALSTYLE
  5
3E
102
{ACAD_XDICTIONARY
360
A9E
102
}
102
{ACAD_REACTORS
330
29
102
}
330
29
100
AcDbVisualStyle
  2
Shaded
 70
    27
 71
     2
 72
     2
 73
     1
 90
        2
 40
-0.6
 41
30.0
 62
     5
 63
     7
 74
     0
 91
        4
 64
     7
 65
   257
 75
     1
175
     1
 42
1.0
 92
        8
 66
   257
 43
1.0
 76
     1
 77
     6
 78
     2
 67
     8
 79
     3
170
     0
171
     0
290
     0
174
     0
 93
        5
 44
0.0
173
     0
291
     0
 45
0.0
1001
ACAD
1000
AcDbSavedByObjectVersion
1070
     0
  0
VISUALSTYLE
  5
3D
102
{ACAD_XDICTIONARY
360
A9C
102
}
102
{ACAD_REACTORS
330
29
102
}
330
29
100
AcDbVisualStyle
  2
Shaded with edges
 70
    26
 71
     2
 72
     2
 73
     1
 90
        2
 40
-0.6
 41
30.0
 62
     5
 63
     7
 74
     1
 91
       10
 64
     7
 65
   257
 75
     2
175
     1
 42
1.0
 92
        8
 66
   257
 43
1.0
 76
     1
 77
     6
 78
     2
 67
     7
 79
     3
170
     0
171
     0
290
     0
174
     0
 93
        5
 44
0.0
173
     0
291
     0
 45
0.0
1001
ACAD
1000
AcDbSavedByObjectVersion
1070
     0
  0
VISUALSTYLE
  5
3A
102
{ACAD_XDICTIONARY
360
A96
102
}
102
{ACAD_REACTORS
330
29
102
}
330
29
100
AcDbVisualStyle
  2
Shades of Gray
 70
    23
 71
     2
 72
     2
 73
     3
 90
        0
 40
-0.6
 41
-30.0
 62
     5
 63
     7
 74
     2
 91
        2
 64
     7
 65
     7
 75
     1
175
     1
 42
40.0
 92
        8
 66
     7
 43
1.0
 76
     1
 77
     6
 78
     2
 67
     7
 79
     3
170
     0
171
     0
290
     0
174
     0
 93
        1
 44
0.0
173
     0
291
     0
 45
0.0
1001
ACAD
1000
AcDbSavedByObjectVersion
1070
     0
  0
VISUALSTYLE
  5
3B
102
{ACAD_XDICTIONARY
360
A98
102
}
102
{ACAD_REACTORS
330
29
102
}
330
29
100
AcDbVisualStyle
  2
Sketchy
 70
    24
 71
     1
 72
     2
 73
     2
 90
        0
 40
-0.6
 41
-30.0
 62
     5
 63
     7
 74
     2
 91
        2
 64
     7
 65
     7
 75
     1
175
     1
 42
40.0
 92
       11
 66
     7
 43
1.0
 76
     1
 77
     6
 78
     2
 67
     7
 79
     6
170
     0
171
     0
290
     0
174
     0
 93
        1
 44
0.0
173
     0
291
     0
 45
0.0
1001
ACAD
1000
AcDbSavedByObjectVersion
1070
     0
  0
VISUALSTYLE
  5
36
102
{ACAD_XDICTIONARY
360
A8E
102
}
102
{ACAD_REACTORS
330
29
102
}
330
29
100
AcDbVisualStyle
  2
Thicken
 70
    13
 71
     2
 72
     2
 73
     0
 90
        0
 40
-0.6
 41
-30.0
 62
     5
 63
     7
 74
     1
 91
        4
 64
     7
 65
   257
 75
     1
175
     1
 42
1.0
 92
       12
 66
     7
 43
1.0
 76
     1
 77
     6
 78
     2
 67
     7
 79
     5
170
     0
171
     0
290
     0
174
     0
 93
        1
 44
0.0
173
     0
291
     1
 45
0.0
1001
ACAD
1000
AcDbSavedByObjectVersion
1070
     0
  0
VISUALSTYLE
  5
30
102
{ACAD_XDICTIONARY
360
A82
102
}
102
{ACAD_REACTORS
330
29
102
}
330
29
100
AcDbVisualStyle
  2
Wireframe
 70
     5
 71
     0
 72
     2
 73
     0
 90
        0
 40
-0.6
 41
-30.0
 62
     5
 63
     7
 74
     1
 91
        4
 64
     7
 65
   257
 75
     1
175
     1
 42
1.0
 92
        0
 66
   257
 43
1.0
 76
     1
 77
     6
 78
     2
 67
     7
 79
     3
170
     0
171
     0
290
     0
174
     0
 93
        1
 44
0.0
173
     0
291
     0
 45
0.0
1001
ACAD
1000
AcDbSavedByObjectVersion
1070
     0
  0
VISUALSTYLE
  5
3C
102
{ACAD_XDICTIONARY
360
A9A
102
}
102
{ACAD_REACTORS
330
29
102
}
330
29
100
AcDbVisualStyle
  2
X-Ray
 70
    25
 71
     2
 72
     2
 73
     1
 90
        1
 40
0.5
 41
-30.0
 62
     5
 63
     7
 74
     1
 91
        0
 64
     7
 65
   257
 75
     1
175
     1
 42
1.0
 92
        8
 66
     7
 43
1.0
 76
     1
 77
     6
 78
     2
 67
     7
 79
     3
170
     0
171
     0
290
     0
174
     0
 93
       13
 44
0.0
173
     0
291
     0
 45
0.0
1001
ACAD
1000
AcDbSavedByObjectVersion
1070
     0
  0
DICTIONARYVAR
  5
85C
102
{ACAD_REACTORS
330
858
102
}
330
858
100
DictionaryVariables
280
     0
  1
1:1
  0
DICTIONARYVAR
  5
85A
102
{ACAD_REACTORS
330
858
102
}
330
858
100
DictionaryVariables
280
     0
  1
STANDARD
  0
DICTIONARYVAR
  5
859
102
{ACAD_REACTORS
330
858
102
}
330
858
100
DictionaryVariables
280
     0
  1
STANDARD
  0
DICTIONARYVAR
  5
863
102
{ACAD_REACTORS
330
858
102
}
330
858
100
DictionaryVariables
280
     0
  1
1
  0
DICTIONARYVAR
  5
862
102
{ACAD_REACTORS
330
858
102
}
330
858
100
DictionaryVariables
280
     0
  1
1
  0
DICTIONARYVAR
  5
861
102
{ACAD_REACTORS
330
858
102
}
330
858
100
DictionaryVariables
280
     0
  1
0
  0
DICTIONARYVAR
  5
85E
102
{ACAD_REACTORS
330
858
102
}
330
858
100
DictionaryVariables
280
     0
  1
0
  0
DICTIONARYVAR
  5
85F
102
{ACAD_REACTORS
330
858
102
}
330
858
100
DictionaryVariables
280
     0
  1
0
  0
DICTIONARYVAR
  5
85D
102
{ACAD_REACTORS
330
858
102
}
330
858
100
DictionaryVariables
280
     0
  1
2
  0
DICTIONARYVAR
  5
85B
102
{ACAD_REACTORS
330
858
102
}
330
858
100
DictionaryVariables
280
     0
  1
1
  0
DICTIONARYVAR
  5
860
102
{ACAD_REACTORS
330
858
102
}
330
858
100
DictionaryVariables
280
     0
  1
127
  0
DICTIONARYVAR
  5
A5E
102
{ACAD_REACTORS
330
858
102
}
330
858
100
DictionaryVariables
280
     0
  1
2
  0
DICTIONARY
  5
8C5
102
{ACAD_REACTORS
330
8BA
102
}
330
8BA
100
AcDbDictionary
281
     1
  0
DICTIONARY
  5
AA7
330
6B
100
AcDbDictionary
280
     1
281
     1
  3
ACAD_XREC_ROUNDTRIP
360
AA8
  0
DICTIONARY
  5
AAB
330
73
100
AcDbDictionary
280
     1
281
     1
  3
ACAD_XREC_ROUNDTRIP
360
AAC
  0
DICTIONARY
  5
AA9
330
6F
100
AcDbDictionary
280
     1
281
     1
  3
ACAD_XREC_ROUNDTRIP
360
AAA
  0
DICTIONARY
  5
1A
330
19
100
AcDbDictionary
280
     1
281
     1
  3
ACAD_XREC_ROUNDTRIP
360
A74
  3
BUMPTILE
360
1C
  3
DIFFUSETILE
360
1B
  3
OPACITYTILE
360
1F
  3
REFLECTIONTILE
360
1E
  3
REFRACTIONTILE
360
20
  3
SPECULARTILE
360
1D
  0
DICTIONARY
  5
12
330
11
100
AcDbDictionary
280
     1
281
     1
  3
ACAD_XREC_ROUNDTRIP
360
A73
  3
BUMPTILE
360
14
  3
DIFFUSETILE
360
13
  3
OPACITYTILE
360
17
  3
REFLECTIONTILE
360
16
  3
REFRACTIONTILE
360
18
  3
SPECULARTILE
360
15
  0
DICTIONARY
  5
22
330
21
100
AcDbDictionary
280
     1
281
     1
  3
ACAD_XREC_ROUNDTRIP
360
A75
  3
BUMPTILE
360
24
  3
DIFFUSETILE
360
23
  3
OPACITYTILE
360
27
  3
REFLECTIONTILE
360
26
  3
REFRACTIONTILE
360
28
  3
SPECULARTILE
360
25
  0
DICTIONARY
  5
801
330
65
100
AcDbDictionary
280
     1
281
     1
  3
ACAD_ROUNDTRIP_2008_TABLESTYLE_CELLSTYLEMAP
360
A5F
  3
ACAD_XREC_ROUNDTRIP
360
AA6
  0
DICTIONARY
  5
A80
330
2F
100
AcDbDictionary
280
     1
281
     1
  3
ACAD_XREC_ROUNDTRIP
360
A81
  0
DICTIONARY
  5
A7E
330
2E
100
AcDbDictionary
280
     1
281
     1
  3
ACAD_XREC_ROUNDTRIP
360
A7F
  0
DICTIONARY
  5
A8C
330
35
100
AcDbDictionary
280
     1
281
     1
  3
ACAD_XREC_ROUNDTRIP
360
A8D
  0
DICTIONARY
  5
A94
330
39
100
AcDbDictionary
280
     1
281
     1
  3
ACAD_XREC_ROUNDTRIP
360
A95
  0
DICTIONARY
  5
A86
330
32
100
AcDbDictionary
280
     1
281
     1
  3
ACAD_XREC_ROUNDTRIP
360
A87
  0
DICTIONARY
  5
A8A
330
34
100
AcDbDictionary
280
     1
281
     1
  3
ACAD_XREC_ROUNDTRIP
360
A8B
  0
DICTIONARY
  5
AA4
330
41
100
AcDbDictionary
280
     1
281
     1
  3
ACAD_XREC_ROUNDTRIP
360
AA5
  0
DICTIONARY
  5
A92
330
38
100
AcDbDictionary
280
     1
281
     1
  3
ACAD_XREC_ROUNDTRIP
360
A93
  0
DICTIONARY
  5
A76
330
2A
100
AcDbDictionary
280
     1
281
     1
  3
ACAD_XREC_ROUNDTRIP
360
A77
  0
DICTIONARY
  5
A78
330
2B
100
AcDbDictionary
280
     1
281
     1
  3
ACAD_XREC_ROUNDTRIP
360
A79
  0
DICTIONARY
  5
A7A
330
2C
100
AcDbDictionary
280
     1
281
     1
  3
ACAD_XREC_ROUNDTRIP
360
A7B
  0
DICTIONARY
  5
A7C
330
2D
100
AcDbDictionary
280
     1
281
     1
  3
ACAD_XREC_ROUNDTRIP
360
A7D
  0
DICTIONARY
  5
A84
330
31
100
AcDbDictionary
280
     1
281
     1
  3
ACAD_XREC_ROUNDTRIP
360
A85
  0
DICTIONARY
  5
AA0
330
3F
100
AcDbDictionary
280
     1
281
     1
  3
ACAD_XREC_ROUNDTRIP
360
AA1
  0
DICTIONARY
  5
A90
330
37
100
AcDbDictionary
280
     1
281
     1
  3
ACAD_XREC_ROUNDTRIP
360
A91
  0
DICTIONARY
  5
AA2
330
40
100
AcDbDictionary
280
     1
281
     1
  3
ACAD_XREC_ROUNDTRIP
360
AA3
  0
DICTIONARY
  5
A88
330
33
100
AcDbDictionary
280
     1
281
     1
  3
ACAD_XREC_ROUNDTRIP
360
A89
  0
DICTIONARY
  5
A9E
330
3E
100
AcDbDictionary
280
     1
281
     1
  3
ACAD_XREC_ROUNDTRIP
360
A9F
  0
DICTIONARY
  5
A9C
330
3D
100
AcDbDictionary
280
     1
281
     1
  3
ACAD_XREC_ROUNDTRIP
360
A9D
  0
DICTIONARY
  5
A96
330
3A
100
AcDbDictionary
280
     1
281
     1
  3
ACAD_XREC_ROUNDTRIP
360
A97
  0
DICTIONARY
  5
A98
330
3B
100
AcDbDictionary
280
     1
281
     1
  3
ACAD_XREC_ROUNDTRIP
360
A99
  0
DICTIONARY
  5
A8E
330
36
100
AcDbDictionary
280
     1
281
     1
  3
ACAD_XREC_ROUNDTRIP
360
A8F
  0
DICTIONARY
  5
A82
330
30
100
AcDbDictionary
280
     1
281
     1
  3
ACAD_XREC_ROUNDTRIP
360
A83
  0
DICTIONARY
  5
A9A
330
3C
100
AcDbDictionary
280
     1
281
     1
  3
ACAD_XREC_ROUNDTRIP
360
A9B
  0
XRECORD
  5
AA8
102
{ACAD_REACTORS
330
AA7
102
}
330
AA7
100
AcDbXrecord
280
     1
102
SHADEPLOT
 70
     0
102
SHADEPLOTRESLEVEL
 70
     2
102
SHADEPLOTCUSTOMDPI
 70
   300
  0
XRECORD
  5
AAC
102
{ACAD_REACTORS
330
AAB
102
}
330
AAB
100
AcDbXrecord
280
     1
102
SHADEPLOT
 70
     0
102
SHADEPLOTRESLEVEL
 70
     2
102
SHADEPLOTCUSTOMDPI
 70
   300
  0
XRECORD
  5
AAA
102
{ACAD_REACTORS
330
AA9
102
}
330
AA9
100
AcDbXrecord
280
     1
102
SHADEPLOT
 70
     0
102
SHADEPLOTRESLEVEL
 70
     2
102
SHADEPLOTCUSTOMDPI
 70
   300
  0
XRECORD
  5
A74
102
{ACAD_REACTORS
330
1A
102
}
330
1A
100
AcDbXrecord
280
     1
102
MATERIAL
148
0.0
149
0.0
149
0.0
 93
        0
 94
      127
282
     0
 72
     0
 77
     0
171
     0
175
     0
179
     0
273
     0
  0
XRECORD
  5
1C
102
{ACAD_REACTORS
330
1A
102
}
330
1A
100
AcDbXrecord
280
     1
270
     1
271
     1
  0
XRECORD
  5
1B
102
{ACAD_REACTORS
330
1A
102
}
330
1A
100
AcDbXrecord
280
     1
270
     1
271
     1
  0
XRECORD
  5
1F
102
{ACAD_REACTORS
330
1A
102
}
330
1A
100
AcDbXrecord
280
     1
270
     1
271
     1
  0
XRECORD
  5
1E
102
{ACAD_REACTORS
330
1A
102
}
330
1A
100
AcDbXrecord
280
     1
270
     1
271
     1
  0
XRECORD
  5
20
102
{ACAD_REACTORS
330
1A
102
}
330
1A
100
AcDbXrecord
280
     1
270
     1
271
     1
  0
XRECORD
  5
1D
102
{ACAD_REACTORS
330
1A
102
}
330
1A
100
AcDbXrecord
280
     1
270
     1
271
     1
  0
XRECORD
  5
A73
102
{ACAD_REACTORS
330
12
102
}
330
12
100
AcDbXrecord
280
     1
102
MATERIAL
148
0.0
149
0.0
149
0.0
 93
        0
 94
      127
282
     0
 72
     0
 77
     0
171
     0
175
     0
179
     0
273
     0
  0
XRECORD
  5
14
102
{ACAD_REACTORS
330
12
102
}
330
12
100
AcDbXrecord
280
     1
270
     1
271
     1
  0
XRECORD
  5
13
102
{ACAD_REACTORS
330
12
102
}
330
12
100
AcDbXrecord
280
     1
270
     1
271
     1
  0
XRECORD
  5
17
102
{ACAD_REACTORS
330
12
102
}
330
12
100
AcDbXrecord
280
     1
270
     1
271
     1
  0
XRECORD
  5
16
102
{ACAD_REACTORS
330
12
102
}
330
12
100
AcDbXrecord
280
     1
270
     1
271
     1
  0
XRECORD
  5
18
102
{ACAD_REACTORS
330
12
102
}
330
12
100
AcDbXrecord
280
     1
270
     1
271
     1
  0
XRECORD
  5
15
102
{ACAD_REACTORS
330
12
102
}
330
12
100
AcDbXrecord
280
     1
270
     1
271
     1
  0
XRECORD
  5
A75
102
{ACAD_REACTORS
330
22
102
}
330
22
100
AcDbXrecord
280
     1
102
MATERIAL
148
0.0
149
0.0
149
0.0
 93
        0
 94
      127
282
     0
 72
     0
 77
     0
171
     0
175
     0
179
     0
273
     0
  0
XRECORD
  5
24
102
{ACAD_REACTORS
330
22
102
}
330
22
100
AcDbXrecord
280
     1
270
     1
271
     1
  0
XRECORD
  5
23
102
{ACAD_REACTORS
330
22
102
}
330
22
100
AcDbXrecord
280
     1
270
     1
271
     1
  0
XRECORD
  5
27
102
{ACAD_REACTORS
330
22
102
}
330
22
100
AcDbXrecord
280
     1
270
     1
271
     1
  0
XRECORD
  5
26
102
{ACAD_REACTORS
330
22
102
}
330
22
100
AcDbXrecord
280
     1
270
     1
271
     1
  0
XRECORD
  5
28
102
{ACAD_REACTORS
330
22
102
}
330
22
100
AcDbXrecord
280
     1
270
     1
271
     1
  0
XRECORD
  5
25
102
{ACAD_REACTORS
330
22
102
}
330
22
100
AcDbXrecord
280
     1
270
     1
271
     1
  0
CELLSTYLEMAP
  5
A5F
102
{ACAD_REACTORS
330
801
102
}
330
801
100
AcDbCellStyleMap
 90
        3
300
CELLSTYLE
  1
TABLEFORMAT_BEGIN
 90
        5
170
     1
 91
        0
 92
    32768
 62
   257
 93
        1
300
CONTENTFORMAT
  1
CONTENTFORMAT_BEGIN
 90
        0
 91
        0
 92
      512
 93
        0
300

 40
0.0
140
1.0
 94
        5
 62
     0
340
55
144
0.25
309
CONTENTFORMAT_END
171
     0
 94
        0
309
TABLEFORMAT_END
  1
CELLSTYLE_BEGIN
 90
        1
 91
        1
300
_TITLE
309
CELLSTYLE_END
300
CELLSTYLE
  1
TABLEFORMAT_BEGIN
 90
        5
170
     1
 91
        0
 92
        0
 62
   257
 93
        1
300
CONTENTFORMAT
  1
CONTENTFORMAT_BEGIN
 90
        0
 91
        0
 92
      512
 93
        0
300

 40
0.0
140
1.0
 94
        5
 62
     0
340
55
144
0.18
309
CONTENTFORMAT_END
171
     0
 94
        0
309
TABLEFORMAT_END
  1
CELLSTYLE_BEGIN
 90
        2
 91
        1
300
_HEADER
309
CELLSTYLE_END
300
CELLSTYLE
  1
TABLEFORMAT_BEGIN
 90
        5
170
     1
 91
        0
 92
        0
 62
   257
 93
        1
300
CONTENTFORMAT
  1
CONTENTFORMAT_BEGIN
 90
        0
 91
        0
 92
      512
 93
        0
300

 40
0.0
140
1.0
 94
        2
 62
     0
340
55
144
0.18
309
CONTENTFORMAT_END
171
     0
 94
        0
309
TABLEFORMAT_END
  1
CELLSTYLE_BEGIN
 90
        3
 91
        2
300
_DATA
309
CELLSTYLE_END
  0
XRECORD
  5
AA6
102
{ACAD_REACTORS
330
801
102
}
330
801
100
AcDbXrecord
280
     1
102
ACAD_ROUNDTRIP_PRE2007_TABLESTYLE
 90
      512
 91
        0
  1

 92
      512
 93
        0
  2

 94
      512
 95
        0
  3

  0
XRECORD
  5
A81
102
{ACAD_REACTORS
330
A80
102
}
330
A80
100
AcDbXrecord
280
     1
102
RTVSPropertyOp0
 70
     1
102
RTVSPropertyOp1
 70
     1
102
RTVSPropertyOp2
 70
     1
102
RTVSPropertyOp3
 70
     1
102
RTVSPropertyOp4
 70
     1
102
RTVSPropertyOp5
 70
     1
102
RTVSPropertyOp6
 70
     1
102
RTVSPropertyOp7
 70
     1
102
RTVSPropertyOp8
 70
     1
102
RTVSPropertyOp9
 70
     1
102
RTVSPropertyOp10
 70
     1
102
RTVSPropertyOp11
 70
     1
102
RTVSPropertyOp12
 70
     1
102
RTVSPropertyOp13
 70
     1
102
RTVSPropertyOp14
 70
     1
102
RTVSPropertyOp15
 70
     1
102
RTVSPropertyOp16
 70
     1
102
RTVSPropertyOp17
 70
     1
102
RTVSPropertyOp18
 70
     1
102
RTVSPropertyOp19
 70
     1
102
RTVSPropertyOp20
 70
     1
102
RTVSPropertyOp21
 70
     1
102
RTVSPropertyOp22
 70
     1
102
RTVSPropertyOp23
 70
     1
102
RTVSPropertyOp24
 70
     1
102
RTVSPropertyOp25
 70
     1
102
RTVSPropertyOp26
 70
     1
102
RTVSPropertyOp27
 70
     1
102
RTVSPropertyOp28
 70
     1
102
RTVSPropertyOp29
 70
     1
102
RTVSPropertyOp30
 70
     1
102
RTVSPropertyOp31
 70
     1
102
RTVSPropertyOp32
 70
     1
  0
XRECORD
  5
A7F
102
{ACAD_REACTORS
330
A7E
102
}
330
A7E
100
AcDbXrecord
280
     1
102
RTVSPropertyOp0
 70
     1
102
RTVSPropertyOp1
 70
     1
102
RTVSPropertyOp2
 70
     1
102
RTVSPropertyOp3
 70
     1
102
RTVSPropertyOp4
 70
     1
102
RTVSPropertyOp5
 70
     1
102
RTVSPropertyOp6
 70
     1
102
RTVSPropertyOp7
 70
     1
102
RTVSPropertyOp8
 70
     1
102
RTVSPropertyOp9
 70
     1
102
RTVSPropertyOp10
 70
     1
102
RTVSPropertyOp11
 70
     1
102
RTVSPropertyOp12
 70
     1
102
RTVSPropertyOp13
 70
     1
102
RTVSPropertyOp14
 70
     1
102
RTVSPropertyOp15
 70
     1
102
RTVSPropertyOp16
 70
     1
102
RTVSPropertyOp17
 70
     1
102
RTVSPropertyOp18
 70
     1
102
RTVSPropertyOp19
 70
     1
102
RTVSPropertyOp20
 70
     1
102
RTVSPropertyOp21
 70
     1
102
RTVSPropertyOp22
 70
     1
102
RTVSPropertyOp23
 70
     1
102
RTVSPropertyOp24
 70
     1
102
RTVSPropertyOp25
 70
     1
102
RTVSPropertyOp26
 70
     1
102
RTVSPropertyOp27
 70
     1
102
RTVSPropertyOp28
 70
     1
102
RTVSPropertyOp29
 70
     1
102
RTVSPropertyOp30
 70
     1
102
RTVSPropertyOp31
 70
     1
102
RTVSPropertyOp32
 70
     1
  0
XRECORD
  5
A8D
102
{ACAD_REACTORS
330
A8C
102
}
330
A8C
100
AcDbXrecord
280
     1
102
RTVSPropertyOp0
 70
     1
102
RTVSPropertyOp1
 70
     1
102
RTVSPropertyOp2
 70
     1
102
RTVSPropertyOp3
 70
     1
102
RTVSPropertyOp4
 70
     1
102
RTVSPropertyOp5
 70
     1
102
RTVSPropertyOp6
 70
     1
102
RTVSPropertyOp7
 70
     1
102
RTVSPropertyOp8
 70
     1
102
RTVSPropertyOp9
 70
     1
102
RTVSPropertyOp10
 70
     1
102
RTVSPropertyOp11
 70
     1
102
RTVSPropertyOp12
 70
     1
102
RTVSPropertyOp13
 70
     1
102
RTVSPropertyOp14
 70
     1
102
RTVSPropertyOp15
 70
     1
102
RTVSPropertyOp16
 70
     1
102
RTVSPropertyOp17
 70
     1
102
RTVSPropertyOp18
 70
     1
102
RTVSPropertyOp19
 70
     1
102
RTVSPropertyOp20
 70
     1
102
RTVSPropertyOp21
 70
     1
102
RTVSPropertyOp22
 70
     1
102
RTVSPropertyOp23
 70
     1
102
RTVSPropertyOp24
 70
     1
102
RTVSPropertyOp25
 70
     1
102
RTVSPropertyOp26
 70
     1
102
RTVSPropertyOp27
 70
     1
102
RTVSPropertyOp28
 70
     1
102
RTVSPropertyOp29
 70
     1
102
RTVSPropertyOp30
 70
     1
102
RTVSPropertyOp31
 70
     1
102
RTVSPropertyOp32
 70
     1
  0
XRECORD
  5
A95
102
{ACAD_REACTORS
330
A94
102
}
330
A94
100
AcDbXrecord
280
     1
102
RTVSPropertyOp0
 70
     1
102
RTVSPropertyOp1
 70
     1
102
RTVSPropertyOp2
 70
     1
102
RTVSPropertyOp3
 70
     1
102
RTVSPropertyOp4
 70
     1
102
RTVSPropertyOp5
 70
     1
102
RTVSPropertyOp6
 70
     1
102
RTVSPropertyOp7
 70
     1
102
RTVSPropertyOp8
 70
     1
102
RTVSPropertyOp9
 70
     1
102
RTVSPropertyOp10
 70
     1
102
RTVSPropertyOp11
 70
     1
102
RTVSPropertyOp12
 70
     1
102
RTVSPropertyOp13
 70
     1
102
RTVSPropertyOp14
 70
     1
102
RTVSPropertyOp15
 70
     1
102
RTVSPropertyOp16
 70
     1
102
RTVSPropertyOp17
 70
     1
102
RTVSPropertyOp18
 70
     1
102
RTVSPropertyOp19
 70
     1
102
RTVSPropertyOp20
 70
     1
102
RTVSPropertyOp21
 70
     1
102
RTVSPropertyOp22
 70
     1
102
RTVSPropertyOp23
 70
     1
102
RTVSPropertyOp24
 70
     1
102
RTVSPropertyOp25
 70
     1
102
RTVSPropertyOp26
 70
     1
102
RTVSPropertyOp27
 70
     1
102
RTVSPropertyOp28
 70
     1
102
RTVSPropertyOp29
 70
     1
102
RTVSPropertyOp30
 70
     1
102
RTVSPropertyOp31
 70
     1
102
RTVSPropertyOp32
 70
     1
  0
XRECORD
  5
A87
102
{ACAD_REACTORS
330
A86
102
}
330
A86
100
AcDbXrecord
280
     1
102
RTVSPropertyOp0
 70
     1
102
RTVSPropertyOp1
 70
     1
102
RTVSPropertyOp2
 70
     1
102
RTVSPropertyOp3
 70
     1
102
RTVSPropertyOp4
 70
     1
102
RTVSPropertyOp5
 70
     1
102
RTVSPropertyOp6
 70
     1
102
RTVSPropertyOp7
 70
     1
102
RTVSPropertyOp8
 70
     1
102
RTVSPropertyOp9
 70
     1
102
RTVSPropertyOp10
 70
     1
102
RTVSPropertyOp11
 70
     1
102
RTVSPropertyOp12
 70
     1
102
RTVSPropertyOp13
 70
     1
102
RTVSPropertyOp14
 70
     1
102
RTVSPropertyOp15
 70
     1
102
RTVSPropertyOp16
 70
     1
102
RTVSPropertyOp17
 70
     1
102
RTVSPropertyOp18
 70
     1
102
RTVSPropertyOp19
 70
     1
102
RTVSPropertyOp20
 70
     1
102
RTVSPropertyOp21
 70
     1
102
RTVSPropertyOp22
 70
     1
102
RTVSPropertyOp23
 70
     1
102
RTVSPropertyOp24
 70
     1
102
RTVSPropertyOp25
 70
     1
102
RTVSPropertyOp26
 70
     1
102
RTVSPropertyOp27
 70
     1
102
RTVSPropertyOp28
 70
     1
102
RTVSPropertyOp29
 70
     1
102
RTVSPropertyOp30
 70
     1
102
RTVSPropertyOp31
 70
     1
102
RTVSPropertyOp32
 70
     1
  0
XRECORD
  5
A8B
102
{ACAD_REACTORS
330
A8A
102
}
330
A8A
100
AcDbXrecord
280
     1
102
RTVSPropertyOp0
 70
     1
102
RTVSPropertyOp1
 70
     1
102
RTVSPropertyOp2
 70
     1
102
RTVSPropertyOp3
 70
     1
102
RTVSPropertyOp4
 70
     1
102
RTVSPropertyOp5
 70
     1
102
RTVSPropertyOp6
 70
     1
102
RTVSPropertyOp7
 70
     1
102
RTVSPropertyOp8
 70
     1
102
RTVSPropertyOp9
 70
     1
102
RTVSPropertyOp10
 70
     1
102
RTVSPropertyOp11
 70
     1
102
RTVSPropertyOp12
 70
     1
102
RTVSPropertyOp13
 70
     1
102
RTVSPropertyOp14
 70
     1
102
RTVSPropertyOp15
 70
     1
102
RTVSPropertyOp16
 70
     1
102
RTVSPropertyOp17
 70
     1
102
RTVSPropertyOp18
 70
     1
102
RTVSPropertyOp19
 70
     1
102
RTVSPropertyOp20
 70
     1
102
RTVSPropertyOp21
 70
     1
102
RTVSPropertyOp22
 70
     1
102
RTVSPropertyOp23
 70
     1
102
RTVSPropertyOp24
 70
     1
102
RTVSPropertyOp25
 70
     1
102
RTVSPropertyOp26
 70
     1
102
RTVSPropertyOp27
 70
     1
102
RTVSPropertyOp28
 70
     1
102
RTVSPropertyOp29
 70
     1
102
RTVSPropertyOp30
 70
     1
102
RTVSPropertyOp31
 70
     1
102
RTVSPropertyOp32
 70
     1
  0
XRECORD
  5
AA5
102
{ACAD_REACTORS
330
AA4
102
}
330
AA4
100
AcDbXrecord
280
     1
102
RTVSPropertyOp0
 70
     0
102
RTVSPropertyOp1
 70
     0
102
RTVSPropertyOp2
 70
     0
102
RTVSPropertyOp3
 70
     0
102
RTVSPropertyOp4
 70
     0
102
RTVSPropertyOp5
 70
     0
102
RTVSPropertyOp6
 70
     0
102
RTVSPropertyOp7
 70
     0
102
RTVSPropertyOp8
 70
     0
102
RTVSPropertyOp9
 70
     0
102
RTVSPropertyOp10
 70
     0
102
RTVSPropertyOp11
 70
     0
102
RTVSPropertyOp12
 70
     0
102
RTVSPropertyOp13
 70
     0
102
RTVSPropertyOp14
 70
     2
102
RTVSPropertyOp15
 70
     0
102
RTVSPropertyOp16
 70
     0
102
RTVSPropertyOp17
 70
     0
102
RTVSPropertyOp18
 70
     0
102
RTVSPropertyOp19
 70
     0
102
RTVSPropertyOp20
 70
     0
102
RTVSPropertyOp21
 70
     0
102
RTVSPropertyOp22
 70
     0
102
RTVSPropertyOp23
 70
     0
102
RTVSPropertyOp24
 70
     0
102
RTVSPropertyOp25
 70
     0
102
RTVSPropertyOp26
 70
     0
102
RTVSPropertyOp27
 70
     0
102
RTVSPropertyOp28
 70
     0
102
RTVSPropertyOp29
 70
     0
102
RTVSPropertyOp30
 70
     0
102
RTVSPropertyOp31
 70
     0
102
RTVSPropertyOp32
 70
     0
  0
XRECORD
  5
A93
102
{ACAD_REACTORS
330
A92
102
}
330
A92
100
AcDbXrecord
280
     1
102
RTVSPropertyOp0
 70
     1
102
RTVSPropertyOp1
 70
     1
102
RTVSPropertyOp2
 70
     1
102
RTVSPropertyOp3
 70
     1
102
RTVSPropertyOp4
 70
     1
102
RTVSPropertyOp5
 70
     1
102
RTVSPropertyOp6
 70
     1
102
RTVSPropertyOp7
 70
     1
102
RTVSPropertyOp8
 70
     1
102
RTVSPropertyOp9
 70
     1
102
RTVSPropertyOp10
 70
     1
102
RTVSPropertyOp11
 70
     1
102
RTVSPropertyOp12
 70
     1
102
RTVSPropertyOp13
 70
     1
102
RTVSPropertyOp14
 70
     1
102
RTVSPropertyOp15
 70
     1
102
RTVSPropertyOp16
 70
     1
102
RTVSPropertyOp17
 70
     1
102
RTVSPropertyOp18
 70
     1
102
RTVSPropertyOp19
 70
     1
102
RTVSPropertyOp20
 70
     1
102
RTVSPropertyOp21
 70
     1
102
RTVSPropertyOp22
 70
     1
102
RTVSPropertyOp23
 70
     1
102
RTVSPropertyOp24
 70
     1
102
RTVSPropertyOp25
 70
     1
102
RTVSPropertyOp26
 70
     1
102
RTVSPropertyOp27
 70
     1
102
RTVSPropertyOp28
 70
     1
102
RTVSPropertyOp29
 70
     1
102
RTVSPropertyOp30
 70
     1
102
RTVSPropertyOp31
 70
     1
102
RTVSPropertyOp32
 70
     1
  0
XRECORD
  5
A77
102
{ACAD_REACTORS
330
A76
102
}
330
A76
100
AcDbXrecord
280
     1
102
RTVSPropertyOp0
 70
     1
102
RTVSPropertyOp1
 70
     1
102
RTVSPropertyOp2
 70
     1
102
RTVSPropertyOp3
 70
     1
102
RTVSPropertyOp4
 70
     1
102
RTVSPropertyOp5
 70
     1
102
RTVSPropertyOp6
 70
     1
102
RTVSPropertyOp7
 70
     1
102
RTVSPropertyOp8
 70
     1
102
RTVSPropertyOp9
 70
     1
102
RTVSPropertyOp10
 70
     1
102
RTVSPropertyOp11
 70
     1
102
RTVSPropertyOp12
 70
     1
102
RTVSPropertyOp13
 70
     1
102
RTVSPropertyOp14
 70
     1
102
RTVSPropertyOp15
 70
     1
102
RTVSPropertyOp16
 70
     1
102
RTVSPropertyOp17
 70
     1
102
RTVSPropertyOp18
 70
     1
102
RTVSPropertyOp19
 70
     1
102
RTVSPropertyOp20
 70
     1
102
RTVSPropertyOp21
 70
     1
102
RTVSPropertyOp22
 70
     1
102
RTVSPropertyOp23
 70
     1
102
RTVSPropertyOp24
 70
     1
102
RTVSPropertyOp25
 70
     1
102
RTVSPropertyOp26
 70
     1
102
RTVSPropertyOp27
 70
     1
102
RTVSPropertyOp28
 70
     1
102
RTVSPropertyOp29
 70
     1
102
RTVSPropertyOp30
 70
     1
102
RTVSPropertyOp31
 70
     1
102
RTVSPropertyOp32
 70
     1
  0
XRECORD
  5
A79
102
{ACAD_REACTORS
330
A78
102
}
330
A78
100
AcDbXrecord
280
     1
102
RTVSPropertyOp0
 70
     1
102
RTVSPropertyOp1
 70
     1
102
RTVSPropertyOp2
 70
     1
102
RTVSPropertyOp3
 70
     1
102
RTVSPropertyOp4
 70
     1
102
RTVSPropertyOp5
 70
     1
102
RTVSPropertyOp6
 70
     1
102
RTVSPropertyOp7
 70
     1
102
RTVSPropertyOp8
 70
     1
102
RTVSPropertyOp9
 70
     1
102
RTVSPropertyOp10
 70
     1
102
RTVSPropertyOp11
 70
     1
102
RTVSPropertyOp12
 70
     1
102
RTVSPropertyOp13
 70
     1
102
RTVSPropertyOp14
 70
     1
102
RTVSPropertyOp15
 70
     1
102
RTVSPropertyOp16
 70
     1
102
RTVSPropertyOp17
 70
     1
102
RTVSPropertyOp18
 70
     1
102
RTVSPropertyOp19
 70
     1
102
RTVSPropertyOp20
 70
     1
102
RTVSPropertyOp21
 70
     1
102
RTVSPropertyOp22
 70
     1
102
RTVSPropertyOp23
 70
     1
102
RTVSPropertyOp24
 70
     1
102
RTVSPropertyOp25
 70
     1
102
RTVSPropertyOp26
 70
     1
102
RTVSPropertyOp27
 70
     1
102
RTVSPropertyOp28
 70
     1
102
RTVSPropertyOp29
 70
     1
102
RTVSPropertyOp30
 70
     1
102
RTVSPropertyOp31
 70
     1
102
RTVSPropertyOp32
 70
     1
  0
XRECORD
  5
A7B
102
{ACAD_REACTORS
330
A7A
102
}
330
A7A
100
AcDbXrecord
280
     1
102
RTVSPropertyOp0
 70
     1
102
RTVSPropertyOp1
 70
     1
102
RTVSPropertyOp2
 70
     1
102
RTVSPropertyOp3
 70
     1
102
RTVSPropertyOp4
 70
     1
102
RTVSPropertyOp5
 70
     1
102
RTVSPropertyOp6
 70
     1
102
RTVSPropertyOp7
 70
     1
102
RTVSPropertyOp8
 70
     1
102
RTVSPropertyOp9
 70
     1
102
RTVSPropertyOp10
 70
     1
102
RTVSPropertyOp11
 70
     1
102
RTVSPropertyOp12
 70
     1
102
RTVSPropertyOp13
 70
     1
102
RTVSPropertyOp14
 70
     1
102
RTVSPropertyOp15
 70
     1
102
RTVSPropertyOp16
 70
     1
102
RTVSPropertyOp17
 70
     1
102
RTVSPropertyOp18
 70
     1
102
RTVSPropertyOp19
 70
     1
102
RTVSPropertyOp20
 70
     1
102
RTVSPropertyOp21
 70
     1
102
RTVSPropertyOp22
 70
     1
102
RTVSPropertyOp23
 70
     1
102
RTVSPropertyOp24
 70
     1
102
RTVSPropertyOp25
 70
     1
102
RTVSPropertyOp26
 70
     1
102
RTVSPropertyOp27
 70
     1
102
RTVSPropertyOp28
 70
     1
102
RTVSPropertyOp29
 70
     1
102
RTVSPropertyOp30
 70
     1
102
RTVSPropertyOp31
 70
     1
102
RTVSPropertyOp32
 70
     1
  0
XRECORD
  5
A7D
102
{ACAD_REACTORS
330
A7C
102
}
330
A7C
100
AcDbXrecord
280
     1
102
RTVSPropertyOp0
 70
     1
102
RTVSPropertyOp1
 70
     1
102
RTVSPropertyOp2
 70
     1
102
RTVSPropertyOp3
 70
     1
102
RTVSPropertyOp4
 70
     1
102
RTVSPropertyOp5
 70
     1
102
RTVSPropertyOp6
 70
     1
102
RTVSPropertyOp7
 70
     1
102
RTVSPropertyOp8
 70
     1
102
RTVSPropertyOp9
 70
     1
102
RTVSPropertyOp10
 70
     1
102
RTVSPropertyOp11
 70
     1
102
RTVSPropertyOp12
 70
     1
102
RTVSPropertyOp13
 70
     1
102
RTVSPropertyOp14
 70
     1
102
RTVSPropertyOp15
 70
     1
102
RTVSPropertyOp16
 70
     1
102
RTVSPropertyOp17
 70
     1
102
RTVSPropertyOp18
 70
     1
102
RTVSPropertyOp19
 70
     1
102
RTVSPropertyOp20
 70
     1
102
RTVSPropertyOp21
 70
     1
102
RTVSPropertyOp22
 70
     1
102
RTVSPropertyOp23
 70
     1
102
RTVSPropertyOp24
 70
     1
102
RTVSPropertyOp25
 70
     1
102
RTVSPropertyOp26
 70
     1
102
RTVSPropertyOp27
 70
     1
102
RTVSPropertyOp28
 70
     1
102
RTVSPropertyOp29
 70
     1
102
RTVSPropertyOp30
 70
     1
102
RTVSPropertyOp31
 70
     1
102
RTVSPropertyOp32
 70
     1
  0
XRECORD
  5
A85
102
{ACAD_REACTORS
330
A84
102
}
330
A84
100
AcDbXrecord
280
     1
102
RTVSPropertyOp0
 70
     1
102
RTVSPropertyOp1
 70
     1
102
RTVSPropertyOp2
 70
     1
102
RTVSPropertyOp3
 70
     1
102
RTVSPropertyOp4
 70
     1
102
RTVSPropertyOp5
 70
     1
102
RTVSPropertyOp6
 70
     1
102
RTVSPropertyOp7
 70
     1
102
RTVSPropertyOp8
 70
     1
102
RTVSPropertyOp9
 70
     1
102
RTVSPropertyOp10
 70
     1
102
RTVSPropertyOp11
 70
     1
102
RTVSPropertyOp12
 70
     1
102
RTVSPropertyOp13
 70
     1
102
RTVSPropertyOp14
 70
     1
102
RTVSPropertyOp15
 70
     1
102
RTVSPropertyOp16
 70
     1
102
RTVSPropertyOp17
 70
     1
102
RTVSPropertyOp18
 70
     1
102
RTVSPropertyOp19
 70
     1
102
RTVSPropertyOp20
 70
     1
102
RTVSPropertyOp21
 70
     1
102
RTVSPropertyOp22
 70
     1
102
RTVSPropertyOp23
 70
     1
102
RTVSPropertyOp24
 70
     1
102
RTVSPropertyOp25
 70
     1
102
RTVSPropertyOp26
 70
     1
102
RTVSPropertyOp27
 70
     1
102
RTVSPropertyOp28
 70
     1
102
RTVSPropertyOp29
 70
     1
102
RTVSPropertyOp30
 70
     1
102
RTVSPropertyOp31
 70
     1
102
RTVSPropertyOp32
 70
     1
  0
XRECORD
  5
AA1
102
{ACAD_REACTORS
330
AA0
102
}
330
AA0
100
AcDbXrecord
280
     1
102
RTVSPropertyOp0
 70
     0
102
RTVSPropertyOp1
 70
     0
102
RTVSPropertyOp2
 70
     0
102
RTVSPropertyOp3
 70
     0
102
RTVSPropertyOp4
 70
     0
102
RTVSPropertyOp5
 70
     0
102
RTVSPropertyOp6
 70
     0
102
RTVSPropertyOp7
 70
     0
102
RTVSPropertyOp8
 70
     0
102
RTVSPropertyOp9
 70
     0
102
RTVSPropertyOp10
 70
     0
102
RTVSPropertyOp11
 70
     0
102
RTVSPropertyOp12
 70
     0
102
RTVSPropertyOp13
 70
     0
102
RTVSPropertyOp14
 70
     2
102
RTVSPropertyOp15
 70
     0
102
RTVSPropertyOp16
 70
     0
102
RTVSPropertyOp17
 70
     0
102
RTVSPropertyOp18
 70
     0
102
RTVSPropertyOp19
 70
     0
102
RTVSPropertyOp20
 70
     0
102
RTVSPropertyOp21
 70
     0
102
RTVSPropertyOp22
 70
     0
102
RTVSPropertyOp23
 70
     0
102
RTVSPropertyOp24
 70
     0
102
RTVSPropertyOp25
 70
     0
102
RTVSPropertyOp26
 70
     0
102
RTVSPropertyOp27
 70
     0
102
RTVSPropertyOp28
 70
     0
102
RTVSPropertyOp29
 70
     0
102
RTVSPropertyOp30
 70
     0
102
RTVSPropertyOp31
 70
     0
102
RTVSPropertyOp32
 70
     0
  0
XRECORD
  5
A91
102
{ACAD_REACTORS
330
A90
102
}
330
A90
100
AcDbXrecord
280
     1
102
RTVSPropertyOp0
 70
     1
102
RTVSPropertyOp1
 70
     1
102
RTVSPropertyOp2
 70
     1
102
RTVSPropertyOp3
 70
     1
102
RTVSPropertyOp4
 70
     1
102
RTVSPropertyOp5
 70
     1
102
RTVSPropertyOp6
 70
     1
102
RTVSPropertyOp7
 70
     1
102
RTVSPropertyOp8
 70
     1
102
RTVSPropertyOp9
 70
     1
102
RTVSPropertyOp10
 70
     1
102
RTVSPropertyOp11
 70
     1
102
RTVSPropertyOp12
 70
     1
102
RTVSPropertyOp13
 70
     1
102
RTVSPropertyOp14
 70
     1
102
RTVSPropertyOp15
 70
     1
102
RTVSPropertyOp16
 70
     1
102
RTVSPropertyOp17
 70
     1
102
RTVSPropertyOp18
 70
     1
102
RTVSPropertyOp19
 70
     1
102
RTVSPropertyOp20
 70
     1
102
RTVSPropertyOp21
 70
     1
102
RTVSPropertyOp22
 70
     1
102
RTVSPropertyOp23
 70
     1
102
RTVSPropertyOp24
 70
     1
102
RTVSPropertyOp25
 70
     1
102
RTVSPropertyOp26
 70
     1
102
RTVSPropertyOp27
 70
     1
102
RTVSPropertyOp28
 70
     1
102
RTVSPropertyOp29
 70
     1
102
RTVSPropertyOp30
 70
     1
102
RTVSPropertyOp31
 70
     1
102
RTVSPropertyOp32
 70
     1
  0
XRECORD
  5
AA3
102
{ACAD_REACTORS
330
AA2
102
}
330
AA2
100
AcDbXrecord
280
     1
102
RTVSPropertyOp0
 70
     0
102
RTVSPropertyOp1
 70
     0
102
RTVSPropertyOp2
 70
     0
102
RTVSPropertyOp3
 70
     0
102
RTVSPropertyOp4
 70
     0
102
RTVSPropertyOp5
 70
     0
102
RTVSPropertyOp6
 70
     0
102
RTVSPropertyOp7
 70
     0
102
RTVSPropertyOp8
 70
     0
102
RTVSPropertyOp9
 70
     0
102
RTVSPropertyOp10
 70
     0
102
RTVSPropertyOp11
 70
     0
102
RTVSPropertyOp12
 70
     0
102
RTVSPropertyOp13
 70
     0
102
RTVSPropertyOp14
 70
     2
102
RTVSPropertyOp15
 70
     0
102
RTVSPropertyOp16
 70
     0
102
RTVSPropertyOp17
 70
     0
102
RTVSPropertyOp18
 70
     0
102
RTVSPropertyOp19
 70
     0
102
RTVSPropertyOp20
 70
     0
102
RTVSPropertyOp21
 70
     0
102
RTVSPropertyOp22
 70
     0
102
RTVSPropertyOp23
 70
     0
102
RTVSPropertyOp24
 70
     0
102
RTVSPropertyOp25
 70
     0
102
RTVSPropertyOp26
 70
     0
102
RTVSPropertyOp27
 70
     0
102
RTVSPropertyOp28
 70
     0
102
RTVSPropertyOp29
 70
     0
102
RTVSPropertyOp30
 70
     0
102
RTVSPropertyOp31
 70
     0
102
RTVSPropertyOp32
 70
     0
  0
XRECORD
  5
A89
102
{ACAD_REACTORS
330
A88
102
}
330
A88
100
AcDbXrecord
280
     1
102
RTVSPropertyOp0
 70
     1
102
RTVSPropertyOp1
 70
     1
102
RTVSPropertyOp2
 70
     1
102
RTVSPropertyOp3
 70
     1
102
RTVSPropertyOp4
 70
     1
102
RTVSPropertyOp5
 70
     1
102
RTVSPropertyOp6
 70
     1
102
RTVSPropertyOp7
 70
     1
102
RTVSPropertyOp8
 70
     1
102
RTVSPropertyOp9
 70
     1
102
RTVSPropertyOp10
 70
     1
102
RTVSPropertyOp11
 70
     1
102
RTVSPropertyOp12
 70
     1
102
RTVSPropertyOp13
 70
     1
102
RTVSPropertyOp14
 70
     1
102
RTVSPropertyOp15
 70
     1
102
RTVSPropertyOp16
 70
     1
102
RTVSPropertyOp17
 70
     1
102
RTVSPropertyOp18
 70
     1
102
RTVSPropertyOp19
 70
     1
102
RTVSPropertyOp20
 70
     1
102
RTVSPropertyOp21
 70
     1
102
RTVSPropertyOp22
 70
     1
102
RTVSPropertyOp23
 70
     1
102
RTVSPropertyOp24
 70
     1
102
RTVSPropertyOp25
 70
     1
102
RTVSPropertyOp26
 70
     1
102
RTVSPropertyOp27
 70
     1
102
RTVSPropertyOp28
 70
     1
102
RTVSPropertyOp29
 70
     1
102
RTVSPropertyOp30
 70
     1
102
RTVSPropertyOp31
 70
     1
102
RTVSPropertyOp32
 70
     1
  0
XRECORD
  5
A9F
102
{ACAD_REACTORS
330
A9E
102
}
330
A9E
100
AcDbXrecord
280
     1
102
RTVSPropertyOp0
 70
     1
102
RTVSPropertyOp1
 70
     1
102
RTVSPropertyOp2
 70
     1
102
RTVSPropertyOp3
 70
     1
102
RTVSPropertyOp4
 70
     1
102
RTVSPropertyOp5
 70
     1
102
RTVSPropertyOp6
 70
     1
102
RTVSPropertyOp7
 70
     1
102
RTVSPropertyOp8
 70
     1
102
RTVSPropertyOp9
 70
     1
102
RTVSPropertyOp10
 70
     1
102
RTVSPropertyOp11
 70
     1
102
RTVSPropertyOp12
 70
     1
102
RTVSPropertyOp13
 70
     1
102
RTVSPropertyOp14
 70
     1
102
RTVSPropertyOp15
 70
     1
102
RTVSPropertyOp16
 70
     1
102
RTVSPropertyOp17
 70
     1
102
RTVSPropertyOp18
 70
     1
102
RTVSPropertyOp19
 70
     1
102
RTVSPropertyOp20
 70
     1
102
RTVSPropertyOp21
 70
     1
102
RTVSPropertyOp22
 70
     1
102
RTVSPropertyOp23
 70
     1
102
RTVSPropertyOp24
 70
     1
102
RTVSPropertyOp25
 70
     1
102
RTVSPropertyOp26
 70
     1
102
RTVSPropertyOp27
 70
     1
102
RTVSPropertyOp28
 70
     1
102
RTVSPropertyOp29
 70
     1
102
RTVSPropertyOp30
 70
     1
102
RTVSPropertyOp31
 70
     1
102
RTVSPropertyOp32
 70
     1
  0
XRECORD
  5
A9D
102
{ACAD_REACTORS
330
A9C
102
}
330
A9C
100
AcDbXrecord
280
     1
102
RTVSPropertyOp0
 70
     1
102
RTVSPropertyOp1
 70
     1
102
RTVSPropertyOp2
 70
     1
102
RTVSPropertyOp3
 70
     1
102
RTVSPropertyOp4
 70
     1
102
RTVSPropertyOp5
 70
     1
102
RTVSPropertyOp6
 70
     1
102
RTVSPropertyOp7
 70
     1
102
RTVSPropertyOp8
 70
     1
102
RTVSPropertyOp9
 70
     1
102
RTVSPropertyOp10
 70
     1
102
RTVSPropertyOp11
 70
     1
102
RTVSPropertyOp12
 70
     1
102
RTVSPropertyOp13
 70
     1
102
RTVSPropertyOp14
 70
     1
102
RTVSPropertyOp15
 70
     1
102
RTVSPropertyOp16
 70
     1
102
RTVSPropertyOp17
 70
     1
102
RTVSPropertyOp18
 70
     1
102
RTVSPropertyOp19
 70
     1
102
RTVSPropertyOp20
 70
     1
102
RTVSPropertyOp21
 70
     1
102
RTVSPropertyOp22
 70
     1
102
RTVSPropertyOp23
 70
     1
102
RTVSPropertyOp24
 70
     1
102
RTVSPropertyOp25
 70
     1
102
RTVSPropertyOp26
 70
     1
102
RTVSPropertyOp27
 70
     1
102
RTVSPropertyOp28
 70
     1
102
RTVSPropertyOp29
 70
     1
102
RTVSPropertyOp30
 70
     1
102
RTVSPropertyOp31
 70
     1
102
RTVSPropertyOp32
 70
     1
  0
XRECORD
  5
A97
102
{ACAD_REACTORS
330
A96
102
}
330
A96
100
AcDbXrecord
280
     1
102
RTVSPropertyOp0
 70
     1
102
RTVSPropertyOp1
 70
     1
102
RTVSPropertyOp2
 70
     1
102
RTVSPropertyOp3
 70
     1
102
RTVSPropertyOp4
 70
     1
102
RTVSPropertyOp5
 70
     1
102
RTVSPropertyOp6
 70
     1
102
RTVSPropertyOp7
 70
     1
102
RTVSPropertyOp8
 70
     1
102
RTVSPropertyOp9
 70
     1
102
RTVSPropertyOp10
 70
     1
102
RTVSPropertyOp11
 70
     1
102
RTVSPropertyOp12
 70
     1
102
RTVSPropertyOp13
 70
     1
102
RTVSPropertyOp14
 70
     1
102
RTVSPropertyOp15
 70
     1
102
RTVSPropertyOp16
 70
     1
102
RTVSPropertyOp17
 70
     1
102
RTVSPropertyOp18
 70
     1
102
RTVSPropertyOp19
 70
     1
102
RTVSPropertyOp20
 70
     1
102
RTVSPropertyOp21
 70
     1
102
RTVSPropertyOp22
 70
     1
102
RTVSPropertyOp23
 70
     1
102
RTVSPropertyOp24
 70
     1
102
RTVSPropertyOp25
 70
     1
102
RTVSPropertyOp26
 70
     1
102
RTVSPropertyOp27
 70
     1
102
RTVSPropertyOp28
 70
     1
102
RTVSPropertyOp29
 70
     1
102
RTVSPropertyOp30
 70
     1
102
RTVSPropertyOp31
 70
     1
102
RTVSPropertyOp32
 70
     1
  0
XRECORD
  5
A99
102
{ACAD_REACTORS
330
A98
102
}
330
A98
100
AcDbXrecord
280
     1
102
RTVSPropertyOp0
 70
     1
102
RTVSPropertyOp1
 70
     1
102
RTVSPropertyOp2
 70
     1
102
RTVSPropertyOp3
 70
     1
102
RTVSPropertyOp4
 70
     1
102
RTVSPropertyOp5
 70
     1
102
RTVSPropertyOp6
 70
     1
102
RTVSPropertyOp7
 70
     1
102
RTVSPropertyOp8
 70
     1
102
RTVSPropertyOp9
 70
     1
102
RTVSPropertyOp10
 70
     1
102
RTVSPropertyOp11
 70
     1
102
RTVSPropertyOp12
 70
     1
102
RTVSPropertyOp13
 70
     1
102
RTVSPropertyOp14
 70
     1
102
RTVSPropertyOp15
 70
     1
102
RTVSPropertyOp16
 70
     1
102
RTVSPropertyOp17
 70
     1
102
RTVSPropertyOp18
 70
     1
102
RTVSPropertyOp19
 70
     1
102
RTVSPropertyOp20
 70
     1
102
RTVSPropertyOp21
 70
     1
102
RTVSPropertyOp22
 70
     1
102
RTVSPropertyOp23
 70
     1
102
RTVSPropertyOp24
 70
     1
102
RTVSPropertyOp25
 70
     1
102
RTVSPropertyOp26
 70
     1
102
RTVSPropertyOp27
 70
     1
102
RTVSPropertyOp28
 70
     1
102
RTVSPropertyOp29
 70
     1
102
RTVSPropertyOp30
 70
     1
102
RTVSPropertyOp31
 70
     1
102
RTVSPropertyOp32
 70
     1
  0
XRECORD
  5
A8F
102
{ACAD_REACTORS
330
A8E
102
}
330
A8E
100
AcDbXrecord
280
     1
102
RTVSPropertyOp0
 70
     1
102
RTVSPropertyOp1
 70
     1
102
RTVSPropertyOp2
 70
     1
102
RTVSPropertyOp3
 70
     1
102
RTVSPropertyOp4
 70
     1
102
RTVSPropertyOp5
 70
     1
102
RTVSPropertyOp6
 70
     1
102
RTVSPropertyOp7
 70
     1
102
RTVSPropertyOp8
 70
     1
102
RTVSPropertyOp9
 70
     1
102
RTVSPropertyOp10
 70
     1
102
RTVSPropertyOp11
 70
     1
102
RTVSPropertyOp12
 70
     1
102
RTVSPropertyOp13
 70
     1
102
RTVSPropertyOp14
 70
     1
102
RTVSPropertyOp15
 70
     1
102
RTVSPropertyOp16
 70
     1
102
RTVSPropertyOp17
 70
     1
102
RTVSPropertyOp18
 70
     1
102
RTVSPropertyOp19
 70
     1
102
RTVSPropertyOp20
 70
     1
102
RTVSPropertyOp21
 70
     1
102
RTVSPropertyOp22
 70
     1
102
RTVSPropertyOp23
 70
     1
102
RTVSPropertyOp24
 70
     1
102
RTVSPropertyOp25
 70
     1
102
RTVSPropertyOp26
 70
     1
102
RTVSPropertyOp27
 70
     1
102
RTVSPropertyOp28
 70
     1
102
RTVSPropertyOp29
 70
     1
102
RTVSPropertyOp30
 70
     1
102
RTVSPropertyOp31
 70
     1
102
RTVSPropertyOp32
 70
     1
  0
XRECORD
  5
A83
102
{ACAD_REACTORS
330
A82
102
}
330
A82
100
AcDbXrecord
280
     1
102
RTVSPropertyOp0
 70
     1
102
RTVSPropertyOp1
 70
     1
102
RTVSPropertyOp2
 70
     1
102
RTVSPropertyOp3
 70
     1
102
RTVSPropertyOp4
 70
     1
102
RTVSPropertyOp5
 70
     1
102
RTVSPropertyOp6
 70
     1
102
RTVSPropertyOp7
 70
     1
102
RTVSPropertyOp8
 70
     1
102
RTVSPropertyOp9
 70
     1
102
RTVSPropertyOp10
 70
     1
102
RTVSPropertyOp11
 70
     1
102
RTVSPropertyOp12
 70
     1
102
RTVSPropertyOp13
 70
     1
102
RTVSPropertyOp14
 70
     1
102
RTVSPropertyOp15
 70
     1
102
RTVSPropertyOp16
 70
     1
102
RTVSPropertyOp17
 70
     1
102
RTVSPropertyOp18
 70
     1
102
RTVSPropertyOp19
 70
     1
102
RTVSPropertyOp20
 70
     1
102
RTVSPropertyOp21
 70
     1
102
RTVSPropertyOp22
 70
     1
102
RTVSPropertyOp23
 70
     1
102
RTVSPropertyOp24
 70
     1
102
RTVSPropertyOp25
 70
     1
102
RTVSPropertyOp26
 70
     1
102
RTVSPropertyOp27
 70
     1
102
RTVSPropertyOp28
 70
     1
102
RTVSPropertyOp29
 70
     1
102
RTVSPropertyOp30
 70
     1
102
RTVSPropertyOp31
 70
     1
102
RTVSPropertyOp32
 70
     1
  0
XRECORD
  5
A9B
102
{ACAD_REACTORS
330
A9A
102
}
330
A9A
100
AcDbXrecord
280
     1
102
RTVSPropertyOp0
 70
     1
102
RTVSPropertyOp1
 70
     1
102
RTVSPropertyOp2
 70
     1
102
RTVSPropertyOp3
 70
     1
102
RTVSPropertyOp4
 70
     1
102
RTVSPropertyOp5
 70
     1
102
RTVSPropertyOp6
 70
     1
102
RTVSPropertyOp7
 70
     1
102
RTVSPropertyOp8
 70
     1
102
RTVSPropertyOp9
 70
     1
102
RTVSPropertyOp10
 70
     1
102
RTVSPropertyOp11
 70
     1
102
RTVSPropertyOp12
 70
     1
102
RTVSPropertyOp13
 70
     1
102
RTVSPropertyOp14
 70
     1
102
RTVSPropertyOp15
 70
     1
102
RTVSPropertyOp16
 70
     1
102
RTVSPropertyOp17
 70
     1
102
RTVSPropertyOp18
 70
     1
102
RTVSPropertyOp19
 70
     1
102
RTVSPropertyOp20
 70
     1
102
RTVSPropertyOp21
 70
     1
102
RTVSPropertyOp22
 70
     1
102
RTVSPropertyOp23
 70
     1
102
RTVSPropertyOp24
 70
     1
102
RTVSPropertyOp25
 70
     1
102
RTVSPropertyOp26
 70
     1
102
RTVSPropertyOp27
 70
     1
102
RTVSPropertyOp28
 70
     1
102
RTVSPropertyOp29
 70
     1
102
RTVSPropertyOp30
 70
     1
102
RTVSPropertyOp31
 70
     1
102
RTVSPropertyOp32
 70
     1
  0
ENDSEC
  0
EOF
