  0
SECTION
  2
HEADER
  9
$ACADVER
  1
AC1015
  9
$ACADMAINTVER
 70
    20
  9
$DWGCODEPAGE
  3
ANSI_1250
  9
$INSBASE
 10
0.0
 20
0.0
 30
0.0
  9
$EXTMIN
 10
3745.454546043647
 20
2720.081363450298
 30
0.0
  9
$EXTMAX
 10
7005.245757671804
 20
4415.030800667746
 30
0.0
  9
$LIMMIN
 10
0.0
 20
0.0
  9
$LIMMAX
 10
5940.0
 20
4200.0
  9
$ORTHOMODE
 70
     0
  9
$REGENMODE
 70
     1
  9
$FILLMODE
 70
     1
  9
$QTEXTMODE
 70
     0
  9
$MIRRTEXT
 70
     0
  9
$LTSCALE
 40
20.0
  9
$ATTMODE
 70
     1
  9
$TEXTSIZE
 40
0.2
  9
$TRACEWID
 40
0.05
  9
$TEXTSTYLE
  7
Standard
  9
$CLAYER
  8
0
  9
$CELTYPE
  6
ByLayer
  9
$CECOLOR
 62
   256
  9
$CELTSCALE
 40
1.0
  9
$DISPSILH
 70
     0
  9
$DIMSCALE
 40
1.0
  9
$DIMASZ
 40
1.799999999999999
  9
$DIMEXO
 40
0.0625
  9
$DIMDLI
 40
0.38
  9
$DIMRND
 40
0.0
  9
$DIMDLE
 40
0.0
  9
$DIMEXE
 40
0.18
  9
$DIMTP
 40
0.0
  9
$DIMTM
 40
0.0
  9
$DIMTXT
 40
0.25
  9
$DIMCEN
 40
0.09
  9
$DIMTSZ
 40
0.0
  9
$DIMTOL
 70
     0
  9
$DIMLIM
 70
     0
  9
$DIMTIH
 70
     1
  9
$DIMTOH
 70
     1
  9
$DIMSE1
 70
     0
  9
$DIMSE2
 70
     0
  9
$DIMTAD
 70
     0
  9
$DIMZIN
 70
     0
  9
$DIMBLK
  1

  9
$DIMASO
 70
     1
  9
$DIMSHO
 70
     1
  9
$DIMPOST
  1

  9
$DIMAPOST
  1

  9
$DIMALT
 70
     0
  9
$DIMALTD
 70
     2
  9
$DIMALTF
 40
25.4
  9
$DIMLFAC
 40
1.0
  9
$DIMTOFL
 70
     0
  9
$DIMTVP
 40
0.0
  9
$DIMTIX
 70
     0
  9
$DIMSOXD
 70
     0
  9
$DIMSAH
 70
     0
  9
$DIMBLK1
  1

  9
$DIMBLK2
  1

  9
$DIMSTYLE
  2
Standard
  9
$DIMCLRD
 70
     0
  9
$DIMCLRE
 70
     0
  9
$DIMCLRT
 70
     0
  9
$DIMTFAC
 40
1.0
  9
$DIMGAP
 40
0.09
  9
$DIMJUST
 70
     0
  9
$DIMSD1
 70
     0
  9
$DIMSD2
 70
     0
  9
$DIMTOLJ
 70
     1
  9
$DIMTZIN
 70
     0
  9
$DIMALTZ
 70
     0
  9
$DIMALTTZ
 70
     0
  9
$DIMUPT
 70
     0
  9
$DIMDEC
 70
     4
  9
$DIMTDEC
 70
     4
  9
$DIMALTU
 70
     2
  9
$DIMALTTD
 70
     2
  9
$DIMTXSTY
  7
Standard
  9
$DIMAUNIT
 70
     0
  9
$DIMADEC
 70
     0
  9
$DIMALTRND
 40
0.0
  9
$DIMAZIN
 70
     0
  9
$DIMDSEP
 70
    46
  9
$DIMATFIT
 70
     3
  9
$DIMFRAC
 70
     0
  9
$DIMLDRBLK
  1

  9
$DIMLUNIT
 70
     2
  9
$DIMLWD
 70
    -2
  9
$DIMLWE
 70
    -2
  9
$DIMTMOVE
 70
     0
  9
$LUNITS
 70
     2
  9
$LUPREC
 70
     4
  9
$SKETCHINC
 40
0.1
  9
$FILLETRAD
 40
0.0
  9
$AUNITS
 70
     0
  9
$AUPREC
 70
     0
  9
$MENU
  1
.
  9
$ELEVATION
 40
0.0
  9
$PELEVATION
 40
0.0
  9
$THICKNESS
 40
0.0
  9
$LIMCHECK
 70
     0
  9
$CHAMFERA
 40
0.0
  9
$CHAMFERB
 40
0.0
  9
$CHAMFERC
 40
0.0
  9
$CHAMFERD
 40
0.0
  9
$SKPOLY
 70
     0
  9
$TDCREATE
 40
2460388.435423762
  9
$TDUCREATE
 40
2460388.393757095
  9
$TDUPDATE
 40
2460388.456854931
  9
$TDUUPDATE
 40
2460388.415188264
  9
$TDINDWG
 40
0.0008232639
  9
$TDUSRTIMER
 40
0.0008232639
  9
$USRTIMER
 70
     1
  9
$ANGBASE
 50
0.0
  9
$ANGDIR
 70
     0
  9
$PDMODE
 70
     0
  9
$PDSIZE
 40
0.0
  9
$PLINEWID
 40
0.0
  9
$SPLFRAME
 70
     0
  9
$SPLINETYPE
 70
     6
  9
$SPLINESEGS
 70
     8
  9
$HANDSEED
  5
14C0
  9
$SURFTAB1
 70
     6
  9
$SURFTAB2
 70
     6
  9
$SURFTYPE
 70
     6
  9
$SURFU
 70
     6
  9
$SURFV
 70
     6
  9
$UCSBASE
  2

  9
$UCSNAME
  2

  9
$UCSORG
 10
0.0
 20
0.0
 30
0.0
  9
$UCSXDIR
 10
1.0
 20
0.0
 30
0.0
  9
$UCSYDIR
 10
0.0
 20
1.0
 30
0.0
  9
$UCSORTHOREF
  2

  9
$UCSORTHOVIEW
 70
     0
  9
$UCSORGTOP
 10
0.0
 20
0.0
 30
0.0
  9
$UCSORGBOTTOM
 10
0.0
 20
0.0
 30
0.0
  9
$UCSORGLEFT
 10
0.0
 20
0.0
 30
0.0
  9
$UCSORGRIGHT
 10
0.0
 20
0.0
 30
0.0
  9
$UCSORGFRONT
 10
0.0
 20
0.0
 30
0.0
  9
$UCSORGBACK
 10
0.0
 20
0.0
 30
0.0
  9
$PUCSBASE
  2

  9
$PUCSNAME
  2

  9
$PUCSORG
 10
0.0
 20
0.0
 30
0.0
  9
$PUCSXDIR
 10
1.0
 20
0.0
 30
0.0
  9
$PUCSYDIR
 10
0.0
 20
1.0
 30
0.0
  9
$PUCSORTHOREF
  2

  9
$PUCSORTHOVIEW
 70
     0
  9
$PUCSORGTOP
 10
0.0
 20
0.0
 30
0.0
  9
$PUCSORGBOTTOM
 10
0.0
 20
0.0
 30
0.0
  9
$PUCSORGLEFT
 10
0.0
 20
0.0
 30
0.0
  9
$PUCSORGRIGHT
 10
0.0
 20
0.0
 30
0.0
  9
$PUCSORGFRONT
 10
0.0
 20
0.0
 30
0.0
  9
$PUCSORGBACK
 10
0.0
 20
0.0
 30
0.0
  9
$USERI1
 70
     0
  9
$USERI2
 70
     0
  9
$USERI3
 70
     0
  9
$USERI4
 70
     0
  9
$USERI5
 70
     0
  9
$USERR1
 40
0.0
  9
$USERR2
 40
0.0
  9
$USERR3
 40
0.0
  9
$USERR4
 40
0.0
  9
$USERR5
 40
0.0
  9
$WORLDVIEW
 70
     1
  9
$SHADEDGE
 70
     3
  9
$SHADEDIF
 70
    70
  9
$TILEMODE
 70
     1
  9
$MAXACTVP
 70
    64
  9
$PINSBASE
 10
0.0
 20
0.0
 30
0.0
  9
$PLIMCHECK
 70
     0
  9
$PEXTMIN
 10
0.0
 20
0.0
 30
0.0
  9
$PEXTMAX
 10
5940.0
 20
4200.0
 30
0.0
  9
$PLIMMIN
 10
0.0
 20
0.0
  9
$PLIMMAX
 10
5940.0
 20
4200.0
  9
$UNITMODE
 70
     0
  9
$VISRETAIN
 70
     1
  9
$PLINEGEN
 70
     0
  9
$PSLTSCALE
 70
     1
  9
$TREEDEPTH
 70
  3020
  9
$CMLSTYLE
  2
Standard
  9
$CMLJUST
 70
     0
  9
$CMLSCALE
 40
1.0
  9
$PROXYGRAPHICS
 70
     1
  9
$MEASUREMENT
 70
     1
  9
$CELWEIGHT
370
    -1
  9
$ENDCAPS
280
     0
  9
$JOINSTYLE
280
     0
  9
$LWDISPLAY
290
     0
  9
$INSUNITS
 70
     4
  9
$HYPERLINKBASE
  1
www.muller.com.pl
  9
$STYLESHEET
  1

  9
$XEDIT
290
     1
  9
$CEPSNTYPE
380
     0
  9
$PSTYLEMODE
290
     1
  9
$FINGERPRINTGUID
  2
{ED0AC1C7-C558-4BF4-8A25-B9368B32CAB9}
  9
$VERSIONGUID
  2
{93D0CE92-E9C4-4D04-8D2E-02AF5075EDE2}
  9
$EXTNAMES
290
     1
  9
$PSVPSCALE
 40
0.0
  9
$OLESTARTUP
290
     0
  0
ENDSEC
  0
SECTION
  2
CLASSES
  0
CLASS
  1
ACDBDICTIONARYWDFLT
  2
AcDbDictionaryWithDefault
  3
ObjectDBX Classes
 90
        0
280
     0
281
     0
  0
CLASS
  1
MATERIAL
  2
AcDbMaterial
  3
ObjectDBX Classes
 90
     1153
280
     0
281
     0
  0
CLASS
  1
VISUALSTYLE
  2
AcDbVisualStyle
  3
ObjectDBX Classes
 90
     4095
280
     0
281
     0
  0
CLASS
  1
SCALE
  2
AcDbScale
  3
ObjectDBX Classes
 90
     1153
280
     0
281
     0
  0
CLASS
  1
TABLESTYLE
  2
AcDbTableStyle
  3
ObjectDBX Classes
 90
     4095
280
     0
281
     0
  0
CLASS
  1
MLEADERSTYLE
  2
AcDbMLeaderStyle
  3
ACDB_MLEADERSTYLE_CLASS
 90
     4095
280
     0
281
     0
  0
CLASS
  1
CELLSTYLEMAP
  2
AcDbCellStyleMap
  3
ObjectDBX Classes
 90
     1152
280
     0
281
     0
  0
CLASS
  1
DICTIONARYVAR
  2
AcDbDictionaryVar
  3
ObjectDBX Classes
 90
        0
280
     0
281
     0
  0
CLASS
  1
ACDBPLACEHOLDER
  2
AcDbPlaceHolder
  3
ObjectDBX Classes
 90
        0
280
     0
281
     0
  0
CLASS
  1
LAYOUT
  2
AcDbLayout
  3
ObjectDBX Classes
 90
        0
280
     0
281
     0
  0
CLASS
  1
ACME_DOCUMENT
  2
AcMeDbDoc
  3
AcMeServices
 90
     1024
280
     0
281
     0
  0
CLASS
  1
AMGSETTINGSOBJ
  2
AmgSettingsObj
  3
"AcadM|Product Description: AutoCAD Mechanical|Company: Autodesk, Inc."
 90
     1024
280
     0
281
     0
  0
CLASS
  1
ACMESCOPE
  2
AcMeScope
  3
AcMeServices
 90
     1024
280
     0
281
     0
  0
CLASS
  1
ACMECOMMANDHISTORY
  2
AcMeCommandHistory
  3
AcMeServices
 90
     1024
280
     0
281
     0
  0
CLASS
  1
ACIMSYSVARMAN
  2
AcImSysVarManager
  3
AcMeServices
 90
     1024
280
     0
281
     0
  0
CLASS
  1
ACIMINTSYSVAR
  2
AcImIntSysVar
  3
AcMeServices
 90
     1024
280
     0
281
     0
  0
CLASS
  1
ACMESTATEMGR
  2
AcMeStateMgr
  3
AcMeServices
 90
     1024
280
     0
281
     0
  0
CLASS
  1
ACDBENTITYCACHE
  2
AcMeEntityCache
  3
AcMeServices
 90
     1024
280
     0
281
     0
  0
CLASS
  1
ACGREFMASTER
  2
AcGrefMaster
  3
AcAttribServices
 90
     1024
280
     0
281
     0
  0
CLASS
  1
AM_DRAWING_MGR
  2
AcDmDwgMgr
  3
AcMechDwgViewMgmt
 90
     1024
280
     0
281
     0
  0
CLASS
  1
AM_DWG_DOCUMENT
  2
AcDmDwgDocument
  3
AcMechDwgViewMgmt
 90
     1024
280
     0
281
     0
  0
CLASS
  1
AM_DWG_SHEET
  2
AcDmSheet
  3
AcMechDwgViewMgmt
 90
     1024
280
     0
281
     0
  0
CLASS
  1
AM_VIEWDIMPARMAP
  2
AcDmViewDimParMap
  3
AcMechDwgViewMgmt
 90
     1024
280
     0
281
     0
  0
CLASS
  1
AMDTINTERNALREACTOR
  2
AmdtInternalReactor
  3
AcMeServices
 90
     1024
280
     0
281
     0
  0
CLASS
  1
ACIMREALSYSVAR
  2
AcImRealSysVar
  3
AcMeServices
 90
     1024
280
     0
281
     0
  0
CLASS
  1
AM_DWGMGR_NAME
  2
AcDmDwgMgrName
  3
AcMechDwgViewMgmt
 90
     1024
280
     0
281
     0
  0
CLASS
  1
ACME_DATABASE
  2
AcMeDbDatabase
  3
AcMeServices
 90
     1024
280
     0
281
     0
  0
CLASS
  1
ACRFINSADJUSTERMGR
  2
AcRfInsAdjusterMgr
  3
AcMeServices
 90
     1024
280
     0
281
     0
  0
CLASS
  1
ACGREFACADMASTER
  2
AcGrefacadMaster
  3
AcGrefServices
 90
     1024
280
     0
281
     0
  0
CLASS
  1
AMDTMENUSTATEMGR
  2
AmdtMenuStateMgr
  3
McadcomServices
 90
     1024
280
     0
281
     0
  0
CLASS
  1
AMDTMCOMMENUSTATE
  2
AmdtMcomMenuState
  3
McadcomServices
 90
     1024
280
     0
281
     0
  0
CLASS
  1
AMIMASTER
  2
AmiMaster
  3
AmiServices
 90
     1024
280
     0
281
     0
  0
CLASS
  1
MAPIAMMOUDLE
  2
MApiAmModule
  3
MApiAmServices
 90
     1024
280
     0
281
     0
  0
CLASS
  1
ACIMSTRSYSVAR
  2
AcImStrSysVar
  3
AcMeServices
 90
     1024
280
     0
281
     0
  0
CLASS
  1
AMDTDMMENUSTATE
  2
AmdtDmMenuState
  3
AcMechDwgViewMgmt
 90
     1024
280
     0
281
     0
  0
CLASS
  1
AMDTAMMENUSTATE
  2
AmdtAmMenuState
  3
DesignerAssemblies
 90
     1024
280
     0
281
     0
  0
CLASS
  1
ACAMPROJECT
  2
AcAmProject
  3
DesignerAssemblies
 90
     1024
280
     0
281
     0
  0
CLASS
  1
ACAMGRCOMPDEF
  2
AcAmGrCompDef
  3
DesignerAssemblies
 90
     1024
280
     0
281
     0
  0
CLASS
  1
ACAMCOMPDEF
  2
AcAmCompDef
  3
DesignerAssemblies
 90
     1024
280
     0
281
     0
  0
CLASS
  1
ACAMCOMPDEFMGR
  2
AcAmCompDefMgr
  3
DesignerAssemblies
 90
     1024
280
     0
281
     0
  0
CLASS
  1
AMCONTEXTMGR
  2
AcAmContextMgr
  3
DesignerAssemblies
 90
     1024
280
     0
281
     0
  0
CLASS
  1
ACAMCONTEXTMODELER
  2
AcAmContextModeler
  3
DesignerAssemblies
 90
     1024
280
     0
281
     0
  0
CLASS
  1
ACMDATADICTIONARY
  2
AcmDataDictionary
  3
"AcmSymBB|Product Description: AutoCAD Mechanical|Company: Autodesk, Inc."
 90
     1024
280
     0
281
     0
  0
CLASS
  1
ACAMGRCOMPDEFSET
  2
AcAmGrCompDefSet
  3
DesignerAssemblies
 90
     1024
280
     0
281
     0
  0
CLASS
  1
AMDTBROWSERDBTAB
  2
AmdtBrowserDbTab
  3
McadcomServices
 90
     1024
280
     0
281
     0
  0
CLASS
  1
CBROWSERAPPOBJECT
  2
CBrowserAppObject
  3
McadcomServices
 90
     1024
280
     0
281
     0
  0
CLASS
  1
DM_PLACEHOLDER
  2
AcDmSelsetPlaceholder
  3
AcMechDwgViewMgmt
 90
     1024
280
     0
281
     0
  0
CLASS
  1
ACMSTANDARDISO
  2
AcmStandardISO
  3
"Amdt_StdImp|Product Description: AutoCAD Mechanical|Company: Autodesk, Inc."
 90
     1024
280
     0
281
     0
  0
CLASS
  1
AMDTEDGESTANDARDISO13715
  2
AmdtEdgeStdISO13715
  3
"Amdt_StdImp|Product Description: AutoCAD Mechanical|Company: Autodesk, Inc."
 90
     1024
280
     0
281
     0
  0
CLASS
  1
ACMSURFSTANDARDISO2002
  2
AcmSurfTextStdISO2002
  3
"Amdt_StdImp|Product Description: AutoCAD Mechanical|Company: Autodesk, Inc."
 90
     1024
280
     0
281
     0
  0
CLASS
  1
ACMFCFSTANDARDISO
  2
AcmFCFStdISO
  3
"Amdt_StdImp|Product Description: AutoCAD Mechanical|Company: Autodesk, Inc."
 90
     1024
280
     0
281
     0
  0
CLASS
  1
ACMWELDSTANDARDISO
  2
AcmWeldingStdISO
  3
"Amdt_StdImp|Product Description: AutoCAD Mechanical|Company: Autodesk, Inc."
 90
     1024
280
     0
281
     0
  0
CLASS
  1
ACMIDSTANDARDISO
  2
AcmIdStdISO
  3
"Amdt_StdImp|Product Description: AutoCAD Mechanical|Company: Autodesk, Inc."
 90
     1024
280
     0
281
     0
  0
CLASS
  1
ACMDATUMSTANDARDISO
  2
AcmDatumStdISO
  3
"Amdt_StdImp|Product Description: AutoCAD Mechanical|Company: Autodesk, Inc."
 90
     1024
280
     0
281
     0
  0
CLASS
  1
ACMBOMSTANDARDISO
  2
AcmBOMStdISO
  3
"Amdt_StdImp|Product Description: AutoCAD Mechanical|Company: Autodesk, Inc."
 90
     1024
280
     0
281
     0
  0
CLASS
  1
ACMDETAILSTANDARDISO
  2
AmdtDetailSymStdISO
  3
"Amdt_StdImp|Product Description: AutoCAD Mechanical|Company: Autodesk, Inc."
 90
     1024
280
     0
281
     0
  0
CLASS
  1
ACMSECTIONSTANDARDISO2001
  2
AmdtSectionSymStdISO2001
  3
"Amdt_StdImp|Product Description: AutoCAD Mechanical|Company: Autodesk, Inc."
 90
     1024
280
     0
281
     0
  0
CLASS
  1
ACMCENTERLINESTANDARDISO
  2
AmdtCenterLineStdISO
  3
"Amdt_StdImp|Product Description: AutoCAD Mechanical|Company: Autodesk, Inc."
 90
     1024
280
     0
281
     0
  0
CLASS
  1
ACMTHREADLINESTANDARDISO
  2
AmdtThreadLineStdISO
  3
"Amdt_StdImp|Product Description: AutoCAD Mechanical|Company: Autodesk, Inc."
 90
     1024
280
     0
281
     0
  0
CLASS
  1
ACMNOTESTANDARDISO
  2
AmdtNoteStdISO
  3
"Amdt_StdImp|Product Description: AutoCAD Mechanical|Company: Autodesk, Inc."
 90
     1024
280
     0
281
     0
  0
CLASS
  1
ACMTAPERSTANDARDISO
  2
AcmTaperStdISO
  3
"Amdt_StdImp|Product Description: AutoCAD Mechanical|Company: Autodesk, Inc."
 90
     1024
280
     0
281
     0
  0
CLASS
  1
ACMANOOTATIONVIEWSTANDARDISO
  2
AmdtAnViewStdISO
  3
"Amdt_StdImp|Product Description: AutoCAD Mechanical|Company: Autodesk, Inc."
 90
     1024
280
     0
281
     0
  0
CLASS
  1
ACAMGLAYSTD
  2
AcAmgLayStd
  3
"AmgLay|Product Description: AutoCAD Mechanical|Company: Autodesk, Inc."
 90
     1024
280
     0
281
     0
  0
CLASS
  1
ACAMGDIMSTD
  2
AcAmgDimStd
  3
"AmgDim|Product Description: AutoCAD Mechanical|Company: Autodesk, Inc."
 90
     1024
280
     0
281
     0
  0
CLASS
  1
AMGOBJPROPCFG
  2
AmgObjPropCfg
  3
"AmgLay|Product Description: AutoCAD Mechanical|Company: Autodesk, Inc."
 90
     1025
280
     0
281
     0
  0
CLASS
  1
ACAMGHOLECHARTSTDISO
  2
AcAmgHoleChartStdISO
  3
AmgDim|Product Description: AutoCAD Mechanical|Company: Autodesk, Inc.
 90
     1024
280
     0
281
     0
  0
CLASS
  1
ACAMGTITLESTD
  2
AcAmgTitleStd
  3
"AmgTitle|Product Description: AutoCAD Mechanical|Company: Autodesk, Inc."
 90
     4095
280
     0
281
     0
  0
CLASS
  1
AMDTNOTETEMPLATEDB
  2
AmdtNoteTemplateDB
  3
AcmSymBB|Product Description: AutoCAD Mechanical|Company: Autodesk, Inc.
 90
     1024
280
     0
281
     0
  0
CLASS
  1
ACAMGFILTERDAT
  2
AcAmgFilterDat
  3
"AcadM|Product Description: AutoCAD Mechanical|Company: Autodesk, Inc."
 90
    33792
280
     0
281
     0
  0
ENDSEC
  0
SECTION
  2
TABLES
  0
TABLE
  2
VPORT
  5
8
102
{ACAD_XDICTIONARY
360
1205
102
}
330
0
100
AcDbSymbolTable
 70
     1
  0
VPORT
  5
57
330
8
100
AcDbSymbolTableRecord
100
AcDbViewportTableRecord
  2
*Active
 70
     0
 10
0.0
 20
0.0
 11
1.0
 21
1.0
 12
5532.942772268705
 22
3376.731133541686
 13
0.0
 23
0.0
 14
1.0
 24
1.0
 15
0.0
 25
0.0
 16
0.0
 26
0.0
 36
1.0
 17
0.0
 27
0.0
 37
0.0
 40
3095.463095433337
 41
2.263593380614657
 42
50.0
 43
0.0
 44
0.0
 50
0.0
 51
0.0
 71
     0
 72
   100
 73
     1
 74
     1
 75
     0
 76
     0
 77
     0
 78
     0
281
     0
 65
     1
110
0.0
120
0.0
130
0.0
111
1.0
121
0.0
131
0.0
112
0.0
122
1.0
132
0.0
 79
     0
146
0.0
  0
ENDTAB
  0
TABLE
  2
LTYPE
  5
5
330
0
100
AcDbSymbolTable
 70
    14
  0
LTYPE
  5
5B
330
5
100
AcDbSymbolTableRecord
100
AcDbLinetypeTableRecord
  2
ByBlock
 70
     0
  3

 72
    65
 73
     0
 40
0.0
  0
LTYPE
  5
5C
330
5
100
AcDbSymbolTableRecord
100
AcDbLinetypeTableRecord
  2
ByLayer
 70
     0
  3

 72
    65
 73
     0
 40
0.0
  0
LTYPE
  5
5D
330
5
100
AcDbSymbolTableRecord
100
AcDbLinetypeTableRecord
  2
Continuous
 70
     0
  3
Solid line
 72
    65
 73
     0
 40
0.0
  0
LTYPE
  5
86
330
5
100
AcDbSymbolTableRecord
100
AcDbLinetypeTableRecord
  2
CENTER
 70
     0
  3
Center ____ _ ____ _ ____ _ ____ _ ____ _ ____
 72
    65
 73
     4
 40
50.8
 49
31.75
 74
     0
 49
-6.349999999999999
 74
     0
 49
6.349999999999999
 74
     0
 49
-6.349999999999999
 74
     0
  0
LTYPE
  5
93
330
5
100
AcDbSymbolTableRecord
100
AcDbLinetypeTableRecord
  2
HIDDEN
 70
     0
  3
Hidden __ __ __ __ __ __ __ __ __ __ __ __ __ _
 72
    65
 73
     2
 40
9.524999999999998
 49
6.349999999999999
 74
     0
 49
-3.174999999999999
 74
     0
  0
LTYPE
  5
97
330
5
100
AcDbSymbolTableRecord
100
AcDbLinetypeTableRecord
  2
PHANTOM2
 70
     0
  3
Phantom (.5x) ___ _ _ ___ _ _ ___ _ _ ___ _ _
 72
    65
 73
     6
 40
31.75
 49
15.875
 74
     0
 49
-3.174999999999999
 74
     0
 49
3.174999999999999
 74
     0
 49
-3.174999999999999
 74
     0
 49
3.174999999999999
 74
     0
 49
-3.174999999999999
 74
     0
  0
LTYPE
  5
12DB
330
5
100
AcDbSymbolTableRecord
100
AcDbLinetypeTableRecord
  2
AM_ISO02W050
 70
     0
  3
__ __ __ __ __ __ __ __ __ __ __ __ __ __ __
 72
    65
 73
     2
 40
7.5
 49
6.0
 74
     0
 49
-1.5
 74
     0
  0
LTYPE
  5
12DC
330
5
100
AcDbSymbolTableRecord
100
AcDbLinetypeTableRecord
  2
AM_ISO08W050
 70
     0
  3
____ . ____ . ____ . ____ . ____ . ____ . ____
 72
    65
 73
     4
 40
18.0
 49
12.0
 74
     0
 49
-1.5
 74
     0
 49
3.0
 74
     0
 49
-1.5
 74
     0
  0
LTYPE
  5
12DD
330
5
100
AcDbSymbolTableRecord
100
AcDbLinetypeTableRecord
  2
AM_ISO09W050
 70
     0
  3
_____ . . _____ . . _____ . . ____ .. ____
 72
    65
 73
     6
 40
22.5
 49
12.0
 74
     0
 49
-1.5
 74
     0
 49
3.0
 74
     0
 49
-1.5
 74
     0
 49
3.0
 74
     0
 49
-1.5
 74
     0
  0
LTYPE
  5
12DE
330
5
100
AcDbSymbolTableRecord
100
AcDbLinetypeTableRecord
  2
Amconstr
 70
     0
  3
_______________________
 72
    65
 73
     2
 40
9999.0
 49
9999.0
 74
     0
 49
0.0
 74
     0
  0
LTYPE
  5
12DF
330
5
100
AcDbSymbolTableRecord
100
AcDbLinetypeTableRecord
  2
AM_ISO08W050x2
 70
     0
  3
__ . __ . __ . __ . __ . __
 72
    65
 73
     4
 40
9.0
 49
6.0
 74
     0
 49
-0.75
 74
     0
 49
1.5
 74
     0
 49
-0.75
 74
     0
  0
LTYPE
  5
12E0
330
5
100
AcDbSymbolTableRecord
100
AcDbLinetypeTableRecord
  2
AM_ISO02W050x2
 70
     0
  3
 _ _ _ _ _ _ _ _ _ _ _ _
 72
    65
 73
     2
 40
3.75
 49
3.0
 74
     0
 49
-0.75
 74
     0
  0
LTYPE
  5
12E3
330
5
100
AcDbSymbolTableRecord
100
AcDbLinetypeTableRecord
  2
Amzigzag
 70
     0
  3
/\/-/\/-/\/-/\/-/\/-/\/
 72
    65
 73
     2
 40
11.0001
 49
0.0001
 74
     4
 75
   136
340
12E2
 46
0.04
 50
0.0
 44
0.0
 45
0.0
 49
-11.0
 74
     0
  0
LTYPE
  5
12F2
330
5
100
AcDbSymbolTableRecord
100
AcDbLinetypeTableRecord
  2
ACISOWELD
 70
     0
  3
_ _ _ _ _
 72
    65
 73
     2
 40
2.0
 49
2.0
 74
     0
 49
-1.0
 74
     0
  0
LTYPE
  5
12F3
330
5
100
AcDbSymbolTableRecord
100
AcDbLinetypeTableRecord
  2
ACISOTGB
 70
     0
  3
__ . . __ . .
 72
    65
 73
     6
 40
9.0
 49
4.0
 74
     0
 49
-1.0
 74
     0
 49
1.0
 74
     0
 49
-1.0
 74
     0
 49
1.0
 74
     0
 49
-1.0
 74
     0
  0
LTYPE
  5
12F4
330
5
100
AcDbSymbolTableRecord
100
AcDbLinetypeTableRecord
  2
ACISOTGL
 70
     0
  3
_ _ _ _ _
 72
    65
 73
     2
 40
3.0
 49
2.0
 74
     0
 49
-1.0
 74
     0
  0
ENDTAB
  0
TABLE
  2
LAYER
  5
2
330
0
100
AcDbSymbolTable
 70
     4
  0
LAYER
  5
54
330
2
100
AcDbSymbolTableRecord
100
AcDbLayerTableRecord
  2
0
 70
     0
 62
     7
  6
Continuous
370
    -3
390
F
  0
LAYER
  5
BA
330
2
100
AcDbSymbolTableRecord
100
AcDbLayerTableRecord
  2
Dimension (ISO)
 70
     0
 62
   161
  6
Continuous
370
    18
390
F
  0
LAYER
  5
C8
330
2
100
AcDbSymbolTableRecord
100
AcDbLayerTableRecord
  2
Visible (ISO)
 70
     0
 62
     7
  6
Continuous
370
    35
390
F
  0
LAYER
  5
732
330
2
100
AcDbSymbolTableRecord
100
AcDbLayerTableRecord
  2
Defpoints
 70
     0
 62
     7
  6
Continuous
290
     0
370
    -3
390
F
  0
ENDTAB
  0
TABLE
  2
STYLE
  5
3
330
0
100
AcDbSymbolTable
 70
     5
  0
STYLE
  5
55
330
3
100
AcDbSymbolTableRecord
100
AcDbTextStyleTableRecord
  2
Standard
 70
     0
 40
0.0
 41
1.0
 50
0.0
 71
     0
 42
0.2
  3
tahoma.ttf
  4

1001
ACAD
1000
Tahoma
1071
      256
  0
STYLE
  5
CD
330
3
100
AcDbSymbolTableRecord
100
AcDbTextStyleTableRecord
  2
Label Text (ISO)
 70
     0
 40
0.0
 41
1.0
 50
0.0
 71
     0
 42
0.2
  3
tahoma.ttf
  4

1001
ACAD
1000
Tahoma
1071
      256
  0
STYLE
  5
12E2
330
3
100
AcDbSymbolTableRecord
100
AcDbTextStyleTableRecord
  2

 70
     1
 40
0.0
 41
1.0
 50
0.0
 71
     0
 42
0.2
  3
genltshp.shx
  4

  0
STYLE
  5
12F1
330
3
100
AcDbSymbolTableRecord
100
AcDbTextStyleTableRecord
  2
ACISOGDT
 70
     0
 40
0.0
 41
1.0
 50
0.0
 71
     0
 42
0.2
  3
amgdt.shx
  4

  0
STYLE
  5
1476
330
3
100
AcDbSymbolTableRecord
100
AcDbTextStyleTableRecord
  2
ACISOTS
 70
     0
 40
1.0
 41
1.0
 50
0.0
 71
     0
 42
0.2
  3
isocp.shx
  4

  0
ENDTAB
  0
TABLE
  2
VIEW
  5
6
330
0
100
AcDbSymbolTable
 70
     0
  0
ENDTAB
  0
TABLE
  2
UCS
  5
7
330
0
100
AcDbSymbolTable
 70
     0
  0
ENDTAB
  0
TABLE
  2
APPID
  5
9
330
0
100
AcDbSymbolTable
 70
    16
  0
APPID
  5
56
330
9
100
AcDbSymbolTableRecord
100
AcDbRegAppTableRecord
  2
ACAD
 70
     0
  0
APPID
  5
5E
330
9
100
AcDbSymbolTableRecord
100
AcDbRegAppTableRecord
  2
AcadAnnotative
 70
     0
  0
APPID
  5
123B
330
9
100
AcDbSymbolTableRecord
100
AcDbRegAppTableRecord
  2
ACAD_MLEADERVER
 70
     0
  0
APPID
  5
1273
330
9
100
AcDbSymbolTableRecord
100
AcDbRegAppTableRecord
  2
MCAD_NO_VIS
 70
     0
  0
APPID
  5
1274
330
9
100
AcDbSymbolTableRecord
100
AcDbRegAppTableRecord
  2
ACAD_TEMP_GRAPHIC
 70
     0
  0
APPID
  5
129F
330
9
100
AcDbSymbolTableRecord
100
AcDbRegAppTableRecord
  2
AD_DRAW
 70
     0
  0
APPID
  5
12A2
330
9
100
AcDbSymbolTableRecord
100
AcDbRegAppTableRecord
  2
ACATTRIBSERVICES
 70
     0
  0
APPID
  5
12BB
330
9
100
AcDbSymbolTableRecord
100
AcDbRegAppTableRecord
  2
DESIGNERASSEMBLIES
 70
     0
  0
APPID
  5
12C0
330
9
100
AcDbSymbolTableRecord
100
AcDbRegAppTableRecord
  2
ACADM_DIM_EDIT
 70
     0
  0
APPID
  5
12C1
330
9
100
AcDbSymbolTableRecord
100
AcDbRegAppTableRecord
  2
AMDT_DM_ADJ
 70
     0
  0
APPID
  5
12D8
330
9
100
AcDbSymbolTableRecord
100
AcDbRegAppTableRecord
  2
ACAD_DSTYLE_DIMJAG
 70
     0
  0
APPID
  5
12D9
330
9
100
AcDbSymbolTableRecord
100
AcDbRegAppTableRecord
  2
ACAD_DSTYLE_DIMBREAK
 70
     0
  0
APPID
  5
1408
330
9
100
AcDbSymbolTableRecord
100
AcDbRegAppTableRecord
  2
ACAD_DSTYLE_DIMARC_LENGTH_SYMBOL
 70
     0
  0
APPID
  5
1409
330
9
100
AcDbSymbolTableRecord
100
AcDbRegAppTableRecord
  2
ACAD_DSTYLE_DIM_LINETYPE
 70
     0
  0
APPID
  5
140A
330
9
100
AcDbSymbolTableRecord
100
AcDbRegAppTableRecord
  2
ACAD_DSTYLE_DIM_EXT1_LINETYPE
 70
     0
  0
APPID
  5
140B
330
9
100
AcDbSymbolTableRecord
100
AcDbRegAppTableRecord
  2
ACAD_DSTYLE_DIM_EXT2_LINETYPE
 70
     0
  0
ENDTAB
  0
TABLE
  2
DIMSTYLE
  5
A
330
0
100
AcDbSymbolTable
 70
     9
100
AcDbDimStyleTable
 71
     2
340
D6
340
58
  0
DIMSTYLE
105
58
330
A
100
AcDbSymbolTableRecord
100
AcDbDimStyleTableRecord
  2
Standard
 70
     0
340
55
  0
DIMSTYLE
105
D6
102
{ACAD_REACTORS
330
731
330
814
330
8F6
330
9F4
330
AD6
330
BBE
330
CA0
330
D88
330
E70
102
}
330
A
100
AcDbSymbolTableRecord
100
AcDbDimStyleTableRecord
  2
Default (ISO)
 70
     0
 40
20.0
 41
2.5
 42
0.5
 43
5.999999999999999
 44
1.0
 45
0.00000001
 46
10.0
 73
     0
 77
     1
 78
     8
 79
     2
140
3.5
143
0.03937
146
0.7142857313156128
147
0.762
171
     3
172
     1
176
   256
177
   256
178
   256
271
     2
272
     2
274
     3
278
    44
340
CD
371
    -1
372
    -1
  0
DIMSTYLE
105
12D7
102
{ACAD_REACTORS
330
1462
102
}
330
A
100
AcDbSymbolTableRecord
100
AcDbDimStyleTableRecord
  2
AM_ISO
 70
     0
  4
"
 41
3.5
 42
1.0
 43
10.0
 44
1.0
 47
0.1
 48
0.1
 73
     0
 74
     0
 77
     1
 78
     8
 79
     2
140
3.5
141
0.0
143
0.0393701
146
0.71
147
1.5
172
     1
176
   256
177
   256
178
     2
271
     2
272
     3
274
     4
283
     0
284
     8
340
55
371
    -1
372
    -1
1001
ACAD_DSTYLE_DIMJAG
1070
   388
1040
1.5
1001
ACAD_DSTYLE_DIMBREAK
1070
   391
1040
3.75
1001
ACAD_DSTYLE_DIMARC_LENGTH_SYMBOL
1070
   379
1070
     1
1001
ACAD_DSTYLE_DIM_LINETYPE
1070
   380
1005
5B
1001
ACAD_DSTYLE_DIM_EXT1_LINETYPE
1070
   381
1005
5B
1001
ACAD_DSTYLE_DIM_EXT2_LINETYPE
1070
   382
1005
5B
  0
DIMSTYLE
105
12E4
330
A
100
AcDbSymbolTableRecord
100
AcDbDimStyleTableRecord
  2
AM_ISO$3
 70
     0
  4
"
 41
3.5
 42
1.0
 43
10.0
 44
1.0
 47
0.1
 48
0.1
 73
     0
 77
     1
 78
     8
 79
     2
140
3.5
141
0.0
143
0.0393701
146
0.71
147
1.5
176
   256
177
   256
178
     2
271
     2
272
     3
274
     4
283
     0
284
     8
288
     1
289
     0
340
55
371
    -1
372
    -1
1001
ACAD_DSTYLE_DIMBREAK
1070
   391
1040
3.75
1001
ACAD_DSTYLE_DIMJAG
1070
   388
1040
1.5
1001
ACAD_DSTYLE_DIMARC_LENGTH_SYMBOL
1070
   379
1070
     1
1001
ACAD_DSTYLE_DIM_LINETYPE
1070
   380
1005
5B
1001
ACAD_DSTYLE_DIM_EXT1_LINETYPE
1070
   381
1005
5B
1001
ACAD_DSTYLE_DIM_EXT2_LINETYPE
1070
   382
1005
5B
  0
DIMSTYLE
105
12E5
330
A
100
AcDbSymbolTableRecord
100
AcDbDimStyleTableRecord
  2
AM_ISO$4
 70
     0
  4
"
 41
3.5
 42
1.0
 43
10.0
 44
1.0
 47
0.1
 48
0.1
 73
     0
 77
     1
 78
     8
 79
     2
140
3.5
141
0.0
143
0.0393701
146
0.71
147
1.5
176
   256
177
   256
178
     2
271
     2
272
     3
274
     4
283
     0
284
     8
288
     1
289
     0
340
55
371
    -1
372
    -1
1001
ACAD_DSTYLE_DIMBREAK
1070
   391
1040
3.75
1001
ACAD_DSTYLE_DIMJAG
1070
   388
1040
1.5
1001
ACAD_DSTYLE_DIMARC_LENGTH_SYMBOL
1070
   379
1070
     1
1001
ACAD_DSTYLE_DIM_LINETYPE
1070
   380
1005
5B
1001
ACAD_DSTYLE_DIM_EXT1_LINETYPE
1070
   381
1005
5B
1001
ACAD_DSTYLE_DIM_EXT2_LINETYPE
1070
   382
1005
5B
  0
DIMSTYLE
105
12E6
330
A
100
AcDbSymbolTableRecord
100
AcDbDimStyleTableRecord
  2
AM_ISO$6
 70
     0
  4
"
 41
3.5
 42
1.0
 43
10.0
 44
1.0
 47
0.1
 48
0.1
 73
     0
 74
     0
 78
     8
 79
     2
140
3.5
141
0.0
143
0.0393701
146
0.71
147
1.5
172
     1
176
   256
177
   256
178
     2
271
     2
272
     3
274
     4
283
     0
284
     8
340
55
371
    -1
372
    -1
1001
ACAD_DSTYLE_DIMBREAK
1070
   391
1040
3.75
1001
ACAD_DSTYLE_DIMJAG
1070
   388
1040
1.5
1001
ACAD_DSTYLE_DIMARC_LENGTH_SYMBOL
1070
   379
1070
     1
1001
ACAD_DSTYLE_DIM_LINETYPE
1070
   380
1005
5B
1001
ACAD_DSTYLE_DIM_EXT1_LINETYPE
1070
   381
1005
5B
1001
ACAD_DSTYLE_DIM_EXT2_LINETYPE
1070
   382
1005
5B
  0
DIMSTYLE
105
12E7
330
A
100
AcDbSymbolTableRecord
100
AcDbDimStyleTableRecord
  2
AM_ISO$7
 70
     0
  4
"
 41
3.5
 42
1.0
 43
10.0
 44
1.0
 47
0.1
 48
0.1
 73
     0
 74
     0
 77
     1
 78
     8
 79
     2
140
3.5
141
0.0
143
0.0393701
146
0.71
147
1.5
172
     1
176
   256
177
   256
178
     2
271
     2
272
     3
274
     4
283
     0
284
     8
340
55
371
    -1
372
    -1
1001
ACAD_DSTYLE_DIMBREAK
1070
   391
1040
3.75
1001
ACAD_DSTYLE_DIMJAG
1070
   388
1040
1.5
1001
ACAD_DSTYLE_DIMARC_LENGTH_SYMBOL
1070
   379
1070
     1
1001
ACAD_DSTYLE_DIM_LINETYPE
1070
   380
1005
5B
1001
ACAD_DSTYLE_DIM_EXT1_LINETYPE
1070
   381
1005
5B
1001
ACAD_DSTYLE_DIM_EXT2_LINETYPE
1070
   382
1005
5B
  0
DIMSTYLE
105
12E8
330
A
100
AcDbSymbolTableRecord
100
AcDbDimStyleTableRecord
  2
AM_ISO$SF
 70
     0
  4
"
 41
3.5
 42
1.0
 43
10.0
 44
1.0
 47
0.1
 48
0.1
 73
     0
 74
     0
 75
     1
 76
     1
 77
     1
 78
     8
 79
     2
140
3.5
141
0.0
143
0.0393701
146
0.71
147
1.5
172
     1
176
   256
177
   256
178
     2
271
     2
272
     3
274
     4
283
     0
284
     8
340
55
371
    -1
372
    -1
1001
ACAD_DSTYLE_DIMBREAK
1070
   391
1040
3.75
1001
ACAD_DSTYLE_DIMJAG
1070
   388
1040
1.5
1001
ACAD_DSTYLE_DIMARC_LENGTH_SYMBOL
1070
   379
1070
     1
1001
ACAD_DSTYLE_DIM_LINETYPE
1070
   380
1005
5B
1001
ACAD_DSTYLE_DIM_EXT1_LINETYPE
1070
   381
1005
5B
1001
ACAD_DSTYLE_DIM_EXT2_LINETYPE
1070
   382
1005
5B
  0
DIMSTYLE
105
12ED
330
A
100
AcDbSymbolTableRecord
100
AcDbDimStyleTableRecord
  2
AM_ISO$SH
 70
     0
  4
"
 41
3.5
 42
1.0
 43
10.0
 44
1.0
 47
0.1
 48
0.1
 73
     0
 74
     0
 75
     1
 76
     1
 77
     1
 78
     8
 79
     2
140
3.5
141
0.0
143
0.0393701
144
2.0
146
0.71
147
1.5
172
     1
173
     1
176
   256
177
   256
178
     2
271
     2
272
     3
274
     4
283
     0
284
     8
340
55
343
12E9
371
    -1
372
    -1
1001
ACAD_DSTYLE_DIMBREAK
1070
   391
1040
3.75
1001
ACAD_DSTYLE_DIMJAG
1070
   388
1040
1.5
1001
ACAD_DSTYLE_DIMARC_LENGTH_SYMBOL
1070
   379
1070
     1
1001
ACAD_DSTYLE_DIM_LINETYPE
1070
   380
1005
5B
1001
ACAD_DSTYLE_DIM_EXT1_LINETYPE
1070
   381
1005
5B
1001
ACAD_DSTYLE_DIM_EXT2_LINETYPE
1070
   382
1005
5B
  0
ENDTAB
  0
TABLE
  2
BLOCK_RECORD
  5
1
330
0
100
AcDbSymbolTable
 70
    13
  0
BLOCK_RECORD
  5
6C
330
1
100
AcDbSymbolTableRecord
100
AcDbBlockTableRecord
  2
*Model_Space
340
6F
  0
BLOCK_RECORD
  5
68
330
1
100
AcDbSymbolTableRecord
100
AcDbBlockTableRecord
  2
*Paper_Space
340
6B
  0
BLOCK_RECORD
  5
70
330
1
100
AcDbSymbolTableRecord
100
AcDbBlockTableRecord
  2
*Paper_Space0
340
73
  0
BLOCK_RECORD
  5
733
330
1
100
AcDbSymbolTableRecord
100
AcDbBlockTableRecord
  2
*D1
340
0
  0
BLOCK_RECORD
  5
815
330
1
100
AcDbSymbolTableRecord
100
AcDbBlockTableRecord
  2
*D2
340
0
  0
BLOCK_RECORD
  5
8F7
330
1
100
AcDbSymbolTableRecord
100
AcDbBlockTableRecord
  2
*D3
340
0
  0
BLOCK_RECORD
  5
9F5
330
1
100
AcDbSymbolTableRecord
100
AcDbBlockTableRecord
  2
*D4
340
0
  0
BLOCK_RECORD
  5
AD7
330
1
100
AcDbSymbolTableRecord
100
AcDbBlockTableRecord
  2
*D5
340
0
  0
BLOCK_RECORD
  5
BBF
330
1
100
AcDbSymbolTableRecord
100
AcDbBlockTableRecord
  2
*D6
340
0
  0
BLOCK_RECORD
  5
CA1
330
1
100
AcDbSymbolTableRecord
100
AcDbBlockTableRecord
  2
*D7
340
0
  0
BLOCK_RECORD
  5
D89
330
1
100
AcDbSymbolTableRecord
100
AcDbBlockTableRecord
  2
*D8
340
0
  0
BLOCK_RECORD
  5
E71
330
1
100
AcDbSymbolTableRecord
100
AcDbBlockTableRecord
  2
*D9
340
0
  0
BLOCK_RECORD
  5
12E9
330
1
100
AcDbSymbolTableRecord
100
AcDbBlockTableRecord
  2
GENAXEH
340
0
  0
BLOCK_RECORD
  5
1302
330
1
100
AcDbSymbolTableRecord
100
AcDbBlockTableRecord
  2
52_Lawka-betonowa-bez-oparcia-do-postawienia
340
0
310
2800000020000000200000000100080000000000000400000000000000000000000000000000000000000000000080000080000000808000800000008000800080800000C0C0C000C0DCC000F0CAA6000020400000206000002080000020A0000020C0000020E00000400000004020000040400000406000004080000040A0
310
000040C0000040E00000600000006020000060400000606000006080000060A0000060C0000060E00000800000008020000080400000806000008080000080A0000080C0000080E00000A0000000A0200000A0400000A0600000A0800000A0A00000A0C00000A0E00000C0000000C0200000C0400000C0600000C0800000C0
310
A00000C0C00000C0E00000E0000000E0200000E0400000E0600000E0800000E0A00000E0C00000E0E00040000000400020004000400040006000400080004000A0004000C0004000E00040200000402020004020400040206000402080004020A0004020C0004020E000404000004040200040404000404060004040800040
310
40A0004040C0004040E00040600000406020004060400040606000406080004060A0004060C0004060E00040800000408020004080400040806000408080004080A0004080C0004080E00040A0000040A0200040A0400040A0600040A0800040A0A00040A0C00040A0E00040C0000040C0200040C0400040C0600040C08000
310
40C0A00040C0C00040C0E00040E0000040E0200040E0400040E0600040E0800040E0A00040E0C00040E0E00080000000800020008000400080006000800080008000A0008000C0008000E00080200000802020008020400080206000802080008020A0008020C0008020E00080400000804020008040400080406000804080
310
008040A0008040C0008040E00080600000806020008060400080606000806080008060A0008060C0008060E00080800000808020008080400080806000808080008080A0008080C0008080E00080A0000080A0200080A0400080A0600080A0800080A0A00080A0C00080A0E00080C0000080C0200080C0400080C0600080C0
310
800080C0A00080C0C00080C0E00080E0000080E0200080E0400080E0600080E0800080E0A00080E0C00080E0E000C0000000C0002000C0004000C0006000C0008000C000A000C000C000C000E000C0200000C0202000C0204000C0206000C0208000C020A000C020C000C020E000C0400000C0402000C0404000C0406000C0
310
408000C040A000C040C000C040E000C0600000C0602000C0604000C0606000C0608000C060A000C060C000C060E000C0800000C0802000C0804000C0806000C0808000C080A000C080C000C080E000C0A00000C0A02000C0A04000C0A06000C0A08000C0A0A000C0A0C000C0A0E000C0C00000C0C02000C0C04000C0C06000
310
C0C08000C0C0A000F0FBFF00A4A0A000808080000000FF0000FF000000FFFF00FF000000FF00FF00FFFF0000FFFFFF0049494949494949494949494949494949494949494949494949494949494949494949494949494949494949494949494949494949494949494949494949494949494949494949494949494949494949
310
49494949494949494949494949494949494949494949494949494949494949494949494949494949494949494949494949494949494949494949494949494949494949494949494949494949494949494949494949494949494949494949494949494949494949494949494949494949494949494949494949494949494949
310
49494949494949494949494949494949494949494949494949494949494949494949494949494949494949494949494949494949494949494949494949494949494949494949494949494949494949494949494949494949494949494949494949494949494949494949494949494949494949494949494949494949494949
310
4949494949494949494949494949494949494949494949494949494949494949494949494949494949494949494949494949494949494949FFFF494949494949494949494949494949494949FFFF494949494949FFFFFFFFFFFFFFFFFFFFFFFFFFFFFFFFFFFFFFFFFFFFFFFFFFFFFFFFFFFF4949FFFFFFFFFFFFFFFFFFFFFF
310
FFFFFFFFFFFFFFFFFFFFFFFFFFFFFFFFFFFFFF4949FFFFFFFFFFFFFFFFFFFFFFFFFFFFFFFFFFFFFFFFFFFFFFFFFFFFFFFFFFFF4949FFFFFFFFFFFFFFFFFFFFFFFFFFFFFFFFFFFFFFFFFFFFFFFFFFFFFFFFFFFF4949FFFFFFFFFFFFFFFFFFFFFFFFFFFFFFFFFFFFFFFFFFFFFFFFFFFFFFFFFFFF4949FFFFFFFFFFFFFFFFFFFF
310
FFFFFFFFFFFFFFFFFFFFFFFFFFFFFFFFFFFFFFFF494949494949FFFF494949494949494949494949494949494949FFFF49494949494949494949494949494949494949494949494949494949494949494949494949494949494949494949494949494949494949494949494949494949494949494949494949494949494949
310
49494949494949494949494949494949494949494949494949494949494949494949494949494949494949494949494949494949494949494949494949494949494949494949494949494949494949494949494949494949494949494949494949494949494949494949494949494949494949494949494949494949494949
310
49494949494949494949494949494949494949494949494949494949494949494949494949494949494949494949494949494949494949494949494949494949494949494949494949494949494949494949494949494949494949494949494949494949494949494949494949494949494949494949494949494949494949
310
4949494949494949494949494949494949494949494949494949494949494949494949494949494949494949494949494949494949494949
102
{BLKREFS
331
13C7
102
}
1001
ACAD
1000
DesignCenter Data
1002
{
1070
     1
1070
     4
1002
}
  0
ENDTAB
  0
ENDSEC
  0
SECTION
  2
BLOCKS
  0
BLOCK
  5
6D
330
6C
100
AcDbEntity
  8
0
100
AcDbBlockBegin
  2
*Model_Space
 70
     0
 10
0.0
 20
0.0
 30
0.0
  3
*Model_Space
  1

  0
ENDBLK
  5
6E
330
6C
100
AcDbEntity
  8
0
100
AcDbBlockEnd
  0
BLOCK
  5
69
330
68
100
AcDbEntity
 67
     1
  8
0
100
AcDbBlockBegin
  2
*Paper_Space
 70
     0
 10
0.0
 20
0.0
 30
0.0
  3
*Paper_Space
  1

  0
ENDBLK
  5
6A
330
68
100
AcDbEntity
 67
     1
  8
0
100
AcDbBlockEnd
  0
BLOCK
  5
71
330
70
100
AcDbEntity
 67
     1
  8
0
100
AcDbBlockBegin
  2
*Paper_Space0
 70
     0
 10
0.0
 20
0.0
 30
0.0
  3
*Paper_Space0
  1

  0
ENDBLK
  5
72
330
70
100
AcDbEntity
 67
     1
  8
0
100
AcDbBlockEnd
  0
BLOCK
  5
734
330
733
100
AcDbEntity
  8
0
100
AcDbBlockBegin
  2
*D1
 70
     1
 10
0.0
 20
0.0
 30
0.0
  3
*D1
  1

  0
LINE
  5
80B
330
733
100
AcDbEntity
  8
Dimension (ISO)
100
AcDbLine
 10
3971.986932052433
 20
4127.566825317974
 30
0.0
 11
3971.986932052433
 21
4321.066825317974
 31
0.0
  0
LINE
  5
80C
330
733
100
AcDbEntity
  8
Dimension (ISO)
100
AcDbLine
 10
5771.986932052434
 20
4127.56682531798
 30
0.0
 11
5771.986932052434
 21
4321.066825317974
 31
0.0
  0
LINE
  5
80D
330
733
100
AcDbEntity
  8
Dimension (ISO)
100
AcDbLine
 10
4021.986932052433
 20
4301.066825317974
 30
0.0
 11
5721.986932052434
 21
4301.066825317974
 31
0.0
  0
SOLID
  5
80E
330
733
100
AcDbEntity
  8
Dimension (ISO)
100
AcDbTrace
 10
4021.986932052433
 20
4309.400158651308
 30
0.0
 11
4021.986932052433
 21
4292.733491984641
 31
0.0
 12
3971.986932052433
 22
4301.066825317974
 32
0.0
 13
3971.986932052433
 23
4301.066825317974
 33
0.0
  0
SOLID
  5
80F
330
733
100
AcDbEntity
  8
Dimension (ISO)
100
AcDbTrace
 10
5721.986932052434
 20
4309.400158651308
 30
0.0
 11
5721.986932052434
 21
4292.733491984641
 31
0.0
 12
5771.986932052434
 22
4301.066825317974
 32
0.0
 13
5771.986932052434
 23
4301.066825317974
 33
0.0
  0
MTEXT
  5
810
330
733
100
AcDbEntity
  8
Dimension (ISO)
100
AcDbMText
 10
4871.986932052434
 20
4389.50360120502
 30
0.0
 40
70.0
 41
0.0
 71
     2
 72
     1
  1
\A1;1800
  7
Label Text (ISO)
 73
     1
 44
1.0
1001
ACAD
1000
MTEXTBEGIN
1070
    73
1070
     1
1070
    44
1040
1.0
1070
    74
1070
     0
1000
MTEXTEND
  0
POINT
  5
811
330
733
100
AcDbEntity
  8
Defpoints
 62
     0
100
AcDbPoint
 10
3971.986932052433
 20
4117.566825317974
 30
0.0
  0
POINT
  5
812
330
733
100
AcDbEntity
  8
Defpoints
 62
     0
100
AcDbPoint
 10
5771.986932052434
 20
4117.56682531798
 30
0.0
  0
POINT
  5
813
330
733
100
AcDbEntity
  8
Defpoints
 62
     0
100
AcDbPoint
 10
5771.986932052434
 20
4301.066825317974
 30
0.0
  0
ENDBLK
  5
735
330
733
100
AcDbEntity
  8
0
100
AcDbBlockEnd
  0
BLOCK
  5
816
330
815
100
AcDbEntity
  8
0
100
AcDbBlockBegin
  2
*D2
 70
     1
 10
0.0
 20
0.0
 30
0.0
  3
*D2
  1

  0
LINE
  5
8ED
330
815
100
AcDbEntity
  8
Dimension (ISO)
100
AcDbLine
 10
4251.986932052433
 20
3677.012867270363
 30
0.0
 11
4251.986932052433
 21
3430.180287308804
 31
0.0
  0
LINE
  5
8EE
330
815
100
AcDbEntity
  8
Dimension (ISO)
100
AcDbLine
 10
5491.986932052434
 20
3677.012867270363
 30
0.0
 11
5491.986932052434
 21
3430.180287308804
 31
0.0
  0
LINE
  5
8EF
330
815
100
AcDbEntity
  8
Dimension (ISO)
100
AcDbLine
 10
4301.986932052432
 20
3450.180287308804
 30
0.0
 11
5441.986932052433
 21
3450.180287308804
 31
0.0
  0
SOLID
  5
8F0
330
815
100
AcDbEntity
  8
Dimension (ISO)
100
AcDbTrace
 10
4301.986932052432
 20
3458.513620642138
 30
0.0
 11
4301.986932052432
 21
3441.846953975471
 31
0.0
 12
4251.986932052433
 22
3450.180287308804
 32
0.0
 13
4251.986932052433
 23
3450.180287308804
 33
0.0
  0
SOLID
  5
8F1
330
815
100
AcDbEntity
  8
Dimension (ISO)
100
AcDbTrace
 10
5441.986932052433
 20
3458.513620642138
 30
0.0
 11
5441.986932052433
 21
3441.846953975471
 31
0.0
 12
5491.986932052434
 22
3450.180287308804
 32
0.0
 13
5491.986932052434
 23
3450.180287308804
 33
0.0
  0
MTEXT
  5
8F2
330
815
100
AcDbEntity
  8
Dimension (ISO)
100
AcDbMText
 10
4871.986932052433
 20
3538.334994695321
 30
0.0
 40
70.0
 41
0.0
 71
     2
 72
     1
  1
\A1;1240
  7
Label Text (ISO)
 73
     1
 44
1.0
1001
ACAD
1000
MTEXTBEGIN
1070
    73
1070
     1
1070
    44
1040
1.0
1070
    74
1070
     0
1000
MTEXTEND
  0
POINT
  5
8F3
330
815
100
AcDbEntity
  8
Defpoints
 62
     0
100
AcDbPoint
 10
4251.986932052433
 20
3687.012867270363
 30
0.0
  0
POINT
  5
8F4
330
815
100
AcDbEntity
  8
Defpoints
 62
     0
100
AcDbPoint
 10
5491.986932052434
 20
3687.012867270363
 30
0.0
  0
POINT
  5
8F5
330
815
100
AcDbEntity
  8
Defpoints
 62
     0
100
AcDbPoint
 10
5491.986932052434
 20
3450.180287308804
 30
0.0
  0
ENDBLK
  5
817
330
815
100
AcDbEntity
  8
0
100
AcDbBlockEnd
  0
BLOCK
  5
8F8
330
8F7
100
AcDbEntity
  8
0
100
AcDbBlockBegin
  2
*D3
 70
     1
 10
0.0
 20
0.0
 30
0.0
  3
*D3
  1

  0
LINE
  5
9E9
330
8F7
100
AcDbEntity
  8
Dimension (ISO)
100
AcDbLine
 10
5491.986932052434
 20
3677.012867270363
 30
0.0
 11
5491.986932052434
 21
3548.152054440266
 31
0.0
  0
LINE
  5
9EA
330
8F7
100
AcDbEntity
  8
Dimension (ISO)
100
AcDbLine
 10
5571.986932052433
 20
3677.012867270363
 30
0.0
 11
5571.986932052433
 21
3548.152054440266
 31
0.0
  0
LINE
  5
9EB
330
8F7
100
AcDbEntity
  8
Dimension (ISO)
100
AcDbLine
 10
5441.986932052433
 20
3568.152054440266
 30
0.0
 11
5391.986932052433
 21
3568.152054440266
 31
0.0
  0
LINE
  5
9EC
330
8F7
100
AcDbEntity
  8
Dimension (ISO)
100
AcDbLine
 10
5621.986932052433
 20
3568.152054440266
 30
0.0
 11
5800.203667485424
 21
3568.152054440266
 31
0.0
  0
LINE
  5
9ED
330
8F7
100
AcDbEntity
  8
Dimension (ISO)
100
AcDbLine
 10
5491.986932052434
 20
3568.152054440266
 30
0.0
 11
5571.986932052433
 21
3568.152054440266
 31
0.0
  0
SOLID
  5
9EE
330
8F7
100
AcDbEntity
  8
Dimension (ISO)
100
AcDbTrace
 10
5441.986932052433
 20
3576.4853877736
 30
0.0
 11
5441.986932052433
 21
3559.818721106932
 31
0.0
 12
5491.986932052434
 22
3568.152054440266
 32
0.0
 13
5491.986932052434
 23
3568.152054440266
 33
0.0
  0
SOLID
  5
9EF
330
8F7
100
AcDbEntity
  8
Dimension (ISO)
100
AcDbTrace
 10
5621.986932052433
 20
3576.4853877736
 30
0.0
 11
5621.986932052433
 21
3559.818721106932
 31
0.0
 12
5571.986932052433
 22
3568.152054440266
 32
0.0
 13
5571.986932052433
 23
3568.152054440266
 33
0.0
  0
MTEXT
  5
9F0
330
8F7
100
AcDbEntity
  8
Dimension (ISO)
100
AcDbMText
 10
5736.095299768928
 20
3656.588830327311
 30
0.0
 40
70.0
 41
0.0
 71
     2
 72
     1
  1
\A1;80
  7
Label Text (ISO)
 73
     1
 44
1.0
1001
ACAD
1000
MTEXTBEGIN
1070
    73
1070
     1
1070
    44
1040
1.0
1070
    74
1070
     0
1000
MTEXTEND
  0
POINT
  5
9F1
330
8F7
100
AcDbEntity
  8
Defpoints
 62
     0
100
AcDbPoint
 10
5491.986932052434
 20
3687.012867270363
 30
0.0
  0
POINT
  5
9F2
330
8F7
100
AcDbEntity
  8
Defpoints
 62
     0
100
AcDbPoint
 10
5571.986932052433
 20
3687.012867270363
 30
0.0
  0
POINT
  5
9F3
330
8F7
100
AcDbEntity
  8
Defpoints
 62
     0
100
AcDbPoint
 10
5571.986932052433
 20
3568.152054440266
 30
0.0
  0
ENDBLK
  5
8F9
330
8F7
100
AcDbEntity
  8
0
100
AcDbBlockEnd
  0
BLOCK
  5
9F6
330
9F5
100
AcDbEntity
  8
0
100
AcDbBlockBegin
  2
*D4
 70
     1
 10
0.0
 20
0.0
 30
0.0
  3
*D4
  1

  0
LINE
  5
ACD
330
9F5
100
AcDbEntity
  8
Dimension (ISO)
100
AcDbLine
 10
6278.493451736117
 20
3677.012867270363
 30
0.0
 11
6278.493451736117
 21
3430.180287308804
 31
0.0
  0
LINE
  5
ACE
330
9F5
100
AcDbEntity
  8
Dimension (ISO)
100
AcDbLine
 10
6728.493451736117
 20
3677.012867270363
 30
0.0
 11
6728.493451736117
 21
3430.180287308804
 31
0.0
  0
LINE
  5
ACF
330
9F5
100
AcDbEntity
  8
Dimension (ISO)
100
AcDbLine
 10
6328.493451736116
 20
3450.180287308804
 30
0.0
 11
6678.493451736116
 21
3450.180287308804
 31
0.0
  0
SOLID
  5
AD0
330
9F5
100
AcDbEntity
  8
Dimension (ISO)
100
AcDbTrace
 10
6328.493451736116
 20
3458.513620642138
 30
0.0
 11
6328.493451736116
 21
3441.846953975471
 31
0.0
 12
6278.493451736117
 22
3450.180287308804
 32
0.0
 13
6278.493451736117
 23
3450.180287308804
 33
0.0
  0
SOLID
  5
AD1
330
9F5
100
AcDbEntity
  8
Dimension (ISO)
100
AcDbTrace
 10
6678.493451736116
 20
3458.513620642138
 30
0.0
 11
6678.493451736116
 21
3441.846953975471
 31
0.0
 12
6728.493451736117
 22
3450.180287308804
 32
0.0
 13
6728.493451736117
 23
3450.180287308804
 33
0.0
  0
MTEXT
  5
AD2
330
9F5
100
AcDbEntity
  8
Dimension (ISO)
100
AcDbMText
 10
6503.493451736116
 20
3538.287983278566
 30
0.0
 40
70.0
 41
0.0
 71
     2
 72
     1
  1
\A1;450
  7
Label Text (ISO)
 73
     1
 44
1.0
1001
ACAD
1000
MTEXTBEGIN
1070
    73
1070
     1
1070
    44
1040
1.0
1070
    74
1070
     0
1000
MTEXTEND
  0
POINT
  5
AD3
330
9F5
100
AcDbEntity
  8
Defpoints
 62
     0
100
AcDbPoint
 10
6278.493451736117
 20
3687.012867270363
 30
0.0
  0
POINT
  5
AD4
330
9F5
100
AcDbEntity
  8
Defpoints
 62
     0
100
AcDbPoint
 10
6728.493451736117
 20
3687.012867270363
 30
0.0
  0
POINT
  5
AD5
330
9F5
100
AcDbEntity
  8
Defpoints
 62
     0
100
AcDbPoint
 10
6728.493451736117
 20
3450.180287308804
 30
0.0
  0
ENDBLK
  5
9F7
330
9F5
100
AcDbEntity
  8
0
100
AcDbBlockEnd
  0
BLOCK
  5
AD8
330
AD7
100
AcDbEntity
  8
0
100
AcDbBlockBegin
  2
*D5
 70
     1
 10
0.0
 20
0.0
 30
0.0
  3
*D5
  1

  0
LINE
  5
BB5
330
AD7
100
AcDbEntity
  8
Dimension (ISO)
100
AcDbLine
 10
6672.743451736055
 20
4123.566825317975
 30
0.0
 11
7005.245757671804
 21
4123.566825317975
 31
0.0
  0
LINE
  5
BB6
330
AD7
100
AcDbEntity
  8
Dimension (ISO)
100
AcDbLine
 10
6728.493451736112
 20
3687.012867270363
 30
0.0
 11
7005.245757671804
 21
3687.012867270363
 31
0.0
  0
LINE
  5
BB7
330
AD7
100
AcDbEntity
  8
Dimension (ISO)
100
AcDbLine
 10
6985.245757671804
 20
4073.566825317975
 30
0.0
 11
6985.245757671804
 21
3737.012867270363
 31
0.0
  0
SOLID
  5
BB8
330
AD7
100
AcDbEntity
  8
Dimension (ISO)
100
AcDbTrace
 10
6976.912424338471
 20
4073.566825317975
 30
0.0
 11
6993.579091005137
 21
4073.566825317975
 31
0.0
 12
6985.245757671804
 22
4123.566825317975
 32
0.0
 13
6985.245757671804
 23
4123.566825317975
 33
0.0
  0
SOLID
  5
BB9
330
AD7
100
AcDbEntity
  8
Dimension (ISO)
100
AcDbTrace
 10
6976.912424338471
 20
3737.012867270363
 30
0.0
 11
6993.579091005137
 21
3737.012867270363
 31
0.0
 12
6985.245757671804
 22
3687.012867270363
 32
0.0
 13
6985.245757671804
 23
3687.012867270363
 33
0.0
  0
MTEXT
  5
BBA
330
AD7
100
AcDbEntity
  8
Dimension (ISO)
100
AcDbMText
 10
6897.091050285286
 20
3905.289846294169
 30
0.0
 40
70.0
 41
0.0
 71
     2
 72
     1
  1
\A1;437
  7
Label Text (ISO)
 11
0.0000000000000001
 21
1.0
 31
0.0
 73
     1
 44
1.0
1001
ACAD
1000
MTEXTBEGIN
1070
    73
1070
     1
1070
    44
1040
1.0
1070
    74
1070
     0
1000
MTEXTEND
  0
POINT
  5
BBB
330
AD7
100
AcDbEntity
  8
Defpoints
 62
     0
100
AcDbPoint
 10
6662.743451736055
 20
4123.566825317975
 30
0.0
  0
POINT
  5
BBC
330
AD7
100
AcDbEntity
  8
Defpoints
 62
     0
100
AcDbPoint
 10
6718.493451736113
 20
3687.012867270363
 30
0.0
  0
POINT
  5
BBD
330
AD7
100
AcDbEntity
  8
Defpoints
 62
     0
100
AcDbPoint
 10
6985.245757671804
 20
3687.012867270363
 30
0.0
  0
ENDBLK
  5
AD9
330
AD7
100
AcDbEntity
  8
0
100
AcDbBlockEnd
  0
BLOCK
  5
BC0
330
BBF
100
AcDbEntity
  8
0
100
AcDbBlockBegin
  2
*D6
 70
     1
 10
0.0
 20
0.0
 30
0.0
  3
*D6
  1

  0
LINE
  5
C97
330
BBF
100
AcDbEntity
  8
Dimension (ISO)
100
AcDbLine
 10
6334.243451736057
 20
4127.566825317974
 30
0.0
 11
6334.243451736057
 21
4321.066825317974
 31
0.0
  0
LINE
  5
C98
330
BBF
100
AcDbEntity
  8
Dimension (ISO)
100
AcDbLine
 10
6672.743451736057
 20
4127.566825317974
 30
0.0
 11
6672.743451736057
 21
4321.066825317974
 31
0.0
  0
LINE
  5
C99
330
BBF
100
AcDbEntity
  8
Dimension (ISO)
100
AcDbLine
 10
6384.243451736057
 20
4301.066825317974
 30
0.0
 11
6622.743451736056
 21
4301.066825317974
 31
0.0
  0
SOLID
  5
C9A
330
BBF
100
AcDbEntity
  8
Dimension (ISO)
100
AcDbTrace
 10
6384.243451736057
 20
4309.400158651308
 30
0.0
 11
6384.243451736057
 21
4292.733491984641
 31
0.0
 12
6334.243451736057
 22
4301.066825317974
 32
0.0
 13
6334.243451736057
 23
4301.066825317974
 33
0.0
  0
SOLID
  5
C9B
330
BBF
100
AcDbEntity
  8
Dimension (ISO)
100
AcDbTrace
 10
6622.743451736056
 20
4309.400158651308
 30
0.0
 11
6622.743451736056
 21
4292.733491984641
 31
0.0
 12
6672.743451736057
 22
4301.066825317974
 32
0.0
 13
6672.743451736057
 23
4301.066825317974
 33
0.0
  0
MTEXT
  5
C9C
330
BBF
100
AcDbEntity
  8
Dimension (ISO)
100
AcDbMText
 10
6503.493451736057
 20
4389.221532704492
 30
0.0
 40
70.0
 41
0.0
 71
     2
 72
     1
  1
\A1;339
  7
Label Text (ISO)
 73
     1
 44
1.0
1001
ACAD
1000
MTEXTBEGIN
1070
    73
1070
     1
1070
    44
1040
1.0
1070
    74
1070
     0
1000
MTEXTEND
  0
POINT
  5
C9D
330
BBF
100
AcDbEntity
  8
Defpoints
 62
     0
100
AcDbPoint
 10
6334.243451736057
 20
4117.566825317974
 30
0.0
  0
POINT
  5
C9E
330
BBF
100
AcDbEntity
  8
Defpoints
 62
     0
100
AcDbPoint
 10
6672.743451736057
 20
4117.566825317974
 30
0.0
  0
POINT
  5
C9F
330
BBF
100
AcDbEntity
  8
Defpoints
 62
     0
100
AcDbPoint
 10
6672.743451736057
 20
4301.066825317974
 30
0.0
  0
ENDBLK
  5
BC1
330
BBF
100
AcDbEntity
  8
0
100
AcDbBlockEnd
  0
BLOCK
  5
CA2
330
CA1
100
AcDbEntity
  8
0
100
AcDbBlockBegin
  2
*D7
 70
     1
 10
0.0
 20
0.0
 30
0.0
  3
*D7
  1

  0
LINE
  5
D7F
330
CA1
100
AcDbEntity
  8
Dimension (ISO)
100
AcDbLine
 10
5781.986932052147
 20
3114.331363450404
 30
0.0
 11
6089.256725820797
 21
3114.331363450404
 31
0.0
  0
LINE
  5
D80
330
CA1
100
AcDbEntity
  8
Dimension (ISO)
100
AcDbLine
 10
5781.986932052148
 20
2775.831363450405
 30
0.0
 11
6089.256725820797
 21
2775.831363450405
 31
0.0
  0
LINE
  5
D81
330
CA1
100
AcDbEntity
  8
Dimension (ISO)
100
AcDbLine
 10
6069.256725820797
 20
3064.331363450405
 30
0.0
 11
6069.256725820797
 21
2825.831363450405
 31
0.0
  0
SOLID
  5
D82
330
CA1
100
AcDbEntity
  8
Dimension (ISO)
100
AcDbTrace
 10
6060.923392487464
 20
3064.331363450405
 30
0.0
 11
6077.59005915413
 21
3064.331363450405
 31
0.0
 12
6069.256725820797
 22
3114.331363450404
 32
0.0
 13
6069.256725820797
 23
3114.331363450404
 33
0.0
  0
SOLID
  5
D83
330
CA1
100
AcDbEntity
  8
Dimension (ISO)
100
AcDbTrace
 10
6060.923392487464
 20
2825.831363450405
 30
0.0
 11
6077.59005915413
 21
2825.831363450405
 31
0.0
 12
6069.256725820797
 22
2775.831363450405
 32
0.0
 13
6069.256725820797
 23
2775.831363450405
 33
0.0
  0
MTEXT
  5
D84
330
CA1
100
AcDbEntity
  8
Dimension (ISO)
100
AcDbMText
 10
5981.102018434279
 20
2945.081363450404
 30
0.0
 40
70.0
 41
0.0
 71
     2
 72
     1
  1
\A1;339
  7
Label Text (ISO)
 11
0.0000000000000001
 21
1.0
 31
0.0
 73
     1
 44
1.0
1001
ACAD
1000
MTEXTBEGIN
1070
    73
1070
     1
1070
    44
1040
1.0
1070
    74
1070
     0
1000
MTEXTEND
  0
POINT
  5
D85
330
CA1
100
AcDbEntity
  8
Defpoints
 62
     0
100
AcDbPoint
 10
5771.986932052147
 20
3114.331363450404
 30
0.0
  0
POINT
  5
D86
330
CA1
100
AcDbEntity
  8
Defpoints
 62
     0
100
AcDbPoint
 10
5771.986932052147
 20
2775.831363450405
 30
0.0
  0
POINT
  5
D87
330
CA1
100
AcDbEntity
  8
Defpoints
 62
     0
100
AcDbPoint
 10
6069.256725820797
 20
2775.831363450405
 30
0.0
  0
ENDBLK
  5
CA3
330
CA1
100
AcDbEntity
  8
0
100
AcDbBlockEnd
  0
BLOCK
  5
D8A
330
D89
100
AcDbEntity
  8
0
100
AcDbBlockBegin
  2
*D8
 70
     1
 10
0.0
 20
0.0
 30
0.0
  3
*D8
  1

  0
LINE
  5
E67
330
D89
100
AcDbEntity
  8
Dimension (ISO)
100
AcDbLine
 10
5571.986932052147
 20
3170.081363450298
 30
0.0
 11
6261.863325868016
 21
3170.081363450298
 31
0.0
  0
LINE
  5
E68
330
D89
100
AcDbEntity
  8
Dimension (ISO)
100
AcDbLine
 10
5571.986932052147
 20
2720.081363450298
 30
0.0
 11
6261.863325868016
 21
2720.081363450298
 31
0.0
  0
LINE
  5
E69
330
D89
100
AcDbEntity
  8
Dimension (ISO)
100
AcDbLine
 10
6241.863325868017
 20
3120.081363450298
 30
0.0
 11
6241.863325868017
 21
2770.081363450298
 31
0.0
  0
SOLID
  5
E6A
330
D89
100
AcDbEntity
  8
Dimension (ISO)
100
AcDbTrace
 10
6233.529992534684
 20
3120.081363450298
 30
0.0
 11
6250.19665920135
 21
3120.081363450298
 31
0.0
 12
6241.863325868017
 22
3170.081363450298
 32
0.0
 13
6241.863325868017
 23
3170.081363450298
 33
0.0
  0
SOLID
  5
E6B
330
D89
100
AcDbEntity
  8
Dimension (ISO)
100
AcDbTrace
 10
6233.529992534684
 20
2770.081363450298
 30
0.0
 11
6250.19665920135
 21
2770.081363450298
 31
0.0
 12
6241.863325868017
 22
2720.081363450298
 32
0.0
 13
6241.863325868017
 23
2720.081363450298
 33
0.0
  0
MTEXT
  5
E6C
330
D89
100
AcDbEntity
  8
Dimension (ISO)
100
AcDbMText
 10
6153.755629898253
 20
2945.081363450298
 30
0.0
 40
70.0
 41
0.0
 71
     2
 72
     1
  1
\A1;450
  7
Label Text (ISO)
 11
0.0000000000000001
 21
1.0
 31
0.0
 73
     1
 44
1.0
1001
ACAD
1000
MTEXTBEGIN
1070
    73
1070
     1
1070
    44
1040
1.0
1070
    74
1070
     0
1000
MTEXTEND
  0
POINT
  5
E6D
330
D89
100
AcDbEntity
  8
Defpoints
 62
     0
100
AcDbPoint
 10
5561.986932052146
 20
3170.081363450298
 30
0.0
  0
POINT
  5
E6E
330
D89
100
AcDbEntity
  8
Defpoints
 62
     0
100
AcDbPoint
 10
5561.986932052146
 20
2720.081363450298
 30
0.0
  0
POINT
  5
E6F
330
D89
100
AcDbEntity
  8
Defpoints
 62
     0
100
AcDbPoint
 10
6241.863325868017
 20
2720.081363450298
 30
0.0
  0
ENDBLK
  5
D8B
330
D89
100
AcDbEntity
  8
0
100
AcDbBlockEnd
  0
BLOCK
  5
E72
330
E71
100
AcDbEntity
  8
0
100
AcDbBlockBegin
  2
*D9
 70
     1
 10
0.0
 20
0.0
 30
0.0
  3
*D9
  1

  0
LINE
  5
F6C
330
E71
100
AcDbEntity
  8
Dimension (ISO)
100
AcDbLine
 10
3961.986932052147
 20
3045.8313634504
 30
0.0
 11
3837.749616099083
 21
3045.8313634504
 31
0.0
  0
LINE
  5
F6D
330
E71
100
AcDbEntity
  8
Dimension (ISO)
100
AcDbLine
 10
3961.986932052147
 20
3024.3313634504
 30
0.0
 11
3837.749616099083
 21
3024.3313634504
 31
0.0
  0
LINE
  5
F6E
330
E71
100
AcDbEntity
  8
Dimension (ISO)
100
AcDbLine
 10
3857.749616099084
 20
3095.8313634504
 30
0.0
 11
3857.749616099084
 21
3145.8313634504
 31
0.0
  0
LINE
  5
F6F
330
E71
100
AcDbEntity
  8
Dimension (ISO)
100
AcDbLine
 10
3857.749616099083
 20
2974.3313634504
 30
0.0
 11
3857.749616099083
 21
2924.3313634504
 31
0.0
  0
LINE
  5
F70
330
E71
100
AcDbEntity
  8
Dimension (ISO)
100
AcDbLine
 10
3857.749616099083
 20
3045.8313634504
 30
0.0
 11
3857.749616099083
 21
3024.3313634504
 31
0.0
  0
SOLID
  5
F71
330
E71
100
AcDbEntity
  8
Dimension (ISO)
100
AcDbTrace
 10
3849.41628276575
 20
3095.8313634504
 30
0.0
 11
3866.082949432417
 21
3095.8313634504
 31
0.0
 12
3857.749616099083
 22
3045.8313634504
 32
0.0
 13
3857.749616099083
 23
3045.8313634504
 33
0.0
  0
SOLID
  5
F72
330
E71
100
AcDbEntity
  8
Dimension (ISO)
100
AcDbTrace
 10
3849.41628276575
 20
2974.3313634504
 30
0.0
 11
3866.082949432417
 21
2974.3313634504
 31
0.0
 12
3857.749616099083
 22
3024.3313634504
 32
0.0
 13
3857.749616099083
 23
3024.3313634504
 33
0.0
  0
MTEXT
  5
F73
330
E71
100
AcDbEntity
  8
Dimension (ISO)
100
AcDbMText
 10
3771.052262631962
 20
3035.081363450401
 30
0.0
 40
70.0
 41
0.0
 71
     2
 72
     1
  1
\A1;22
  7
Label Text (ISO)
 11
0.0000000000000001
 21
1.0
 31
0.0
 73
     1
 44
1.0
1001
ACAD
1000
MTEXTBEGIN
1070
    73
1070
     1
1070
    44
1040
1.0
1070
    74
1070
     0
1000
MTEXTEND
  0
POINT
  5
F74
330
E71
100
AcDbEntity
  8
Defpoints
 62
     0
100
AcDbPoint
 10
3971.986932052147
 20
3045.8313634504
 30
0.0
  0
POINT
  5
F75
330
E71
100
AcDbEntity
  8
Defpoints
 62
     0
100
AcDbPoint
 10
3971.986932052147
 20
3024.3313634504
 30
0.0
  0
POINT
  5
F76
330
E71
100
AcDbEntity
  8
Defpoints
 62
     0
100
AcDbPoint
 10
3857.749616099083
 20
3024.3313634504
 30
0.0
  0
ENDBLK
  5
E73
330
E71
100
AcDbEntity
  8
0
100
AcDbBlockEnd
  0
BLOCK
  5
12EB
330
12E9
100
AcDbEntity
  8
0
100
AcDbBlockBegin
  2
GENAXEH
 70
     0
 10
0.0
 20
0.0
 30
0.0
  3
GENAXEH
  1

  0
LINE
  5
12EA
330
12E9
100
AcDbEntity
  8
0
100
AcDbLine
 10
-1.0
 20
0.0
 30
0.0
 11
1.0
 21
0.0
 31
0.0
  0
ENDBLK
  5
12EC
330
12E9
100
AcDbEntity
  8
0
100
AcDbBlockEnd
  0
BLOCK
  5
1303
330
1302
100
AcDbEntity
  8
0
100
AcDbBlockBegin
  2
52_Lawka-betonowa-bez-oparcia-do-postawienia
 70
     0
 10
0.0
 20
0.0
 30
0.0
  3
52_Lawka-betonowa-bez-oparcia-do-postawienia
  1

  0
LINE
  5
1305
330
1302
100
AcDbEntity
  8
Visible (ISO)
100
AcDbLine
 10
-720.0
 20
-21.50000000007685
 30
0.0
 11
-720.0
 21
-0.0000000000768523
 31
0.0
  0
LINE
  5
1306
330
1302
100
AcDbEntity
  8
Visible (ISO)
100
AcDbLine
 10
-729.999999999999
 20
-0.0000000000800355
 30
0.0
 11
-729.999999999999
 21
-21.50000000008004
 31
0.0
  0
LINE
  5
1307
330
1302
100
AcDbEntity
  8
Visible (ISO)
100
AcDbLine
 10
720.0000000000009
 20
-0.0000000000736691
 30
0.0
 11
720.0000000000009
 21
-21.50000000007367
 31
0.0
  0
LINE
  5
1308
330
1302
100
AcDbEntity
  8
Visible (ISO)
100
AcDbLine
 10
730.0
 20
-21.5000000000764
 30
0.0
 11
730.0
 21
-0.0000000000763976
 31
0.0
  0
LINE
  5
1309
330
1302
100
AcDbEntity
  8
Visible (ISO)
100
AcDbLine
 10
620.0000000000009
 20
89.99999999999181
 30
0.0
 11
620.0000000000009
 21
68.49999999999181
 31
0.0
  0
LINE
  5
130A
330
1302
100
AcDbEntity
  8
Visible (ISO)
100
AcDbLine
 10
620.0000000000009
 20
-0.0000000000081855
 30
0.0
 11
620.0000000000009
 21
-21.50000000000819
 31
0.0
  0
LINE
  5
130B
330
1302
100
AcDbEntity
  8
Visible (ISO)
100
AcDbLine
 10
620.0000000000009
 20
-90.00000000000818
 30
0.0
 11
620.0000000000009
 21
-111.5000000000077
 31
0.0
  0
LINE
  5
130C
330
1302
100
AcDbEntity
  8
Visible (ISO)
100
AcDbLine
 10
570.0000000000009
 20
89.99999999999181
 30
0.0
 11
570.0000000000009
 21
68.49999999999181
 31
0.0
  0
LINE
  5
130D
330
1302
100
AcDbEntity
  8
Visible (ISO)
100
AcDbLine
 10
570.0000000000009
 20
-0.0000000000081855
 30
0.0
 11
570.0000000000009
 21
-21.50000000000819
 31
0.0
  0
LINE
  5
130E
330
1302
100
AcDbEntity
  8
Visible (ISO)
100
AcDbLine
 10
570.0000000000009
 20
-90.00000000000818
 30
0.0
 11
570.0000000000009
 21
-111.5000000000082
 31
0.0
  0
LINE
  5
130F
330
1302
100
AcDbEntity
  8
Visible (ISO)
100
AcDbLine
 10
-620.0
 20
-111.5000000000104
 30
0.0
 11
-620.0
 21
-90.00000000001046
 31
0.0
  0
LINE
  5
1310
330
1302
100
AcDbEntity
  8
Visible (ISO)
100
AcDbLine
 10
-620.0
 20
-21.50000000001091
 30
0.0
 11
-620.0
 21
-0.0000000000109139
 31
0.0
  0
LINE
  5
1311
330
1302
100
AcDbEntity
  8
Visible (ISO)
100
AcDbLine
 10
-620.0
 20
68.49999999998908
 30
0.0
 11
-620.0
 21
89.99999999998863
 31
0.0
  0
LINE
  5
1312
330
1302
100
AcDbEntity
  8
Visible (ISO)
100
AcDbLine
 10
-570.0
 20
-111.50000000001
 30
0.0
 11
-570.0
 21
-90.00000000001046
 31
0.0
  0
LINE
  5
1313
330
1302
100
AcDbEntity
  8
Visible (ISO)
100
AcDbLine
 10
-570.0
 20
-21.50000000001046
 30
0.0
 11
-570.0
 21
-0.0000000000109139
 31
0.0
  0
LINE
  5
1314
330
1302
100
AcDbEntity
  8
Visible (ISO)
100
AcDbLine
 10
-570.0
 20
68.49999999998908
 30
0.0
 11
-570.0
 21
89.99999999998909
 31
0.0
  0
CIRCLE
  5
1315
330
1302
100
AcDbEntity
  8
Visible (ISO)
100
AcDbCircle
 10
-590.0
 20
124.2500000000009
 30
0.0
 40
12.325
  0
CIRCLE
  5
1316
330
1302
100
AcDbEntity
  8
Visible (ISO)
100
AcDbCircle
 10
590.0
 20
124.2500000000036
 30
0.0
 40
12.325
  0
CIRCLE
  5
1317
330
1302
100
AcDbEntity
  8
Visible (ISO)
100
AcDbCircle
 10
-590.0
 20
34.25000000000137
 30
0.0
 40
12.325
  0
CIRCLE
  5
1318
330
1302
100
AcDbEntity
  8
Visible (ISO)
100
AcDbCircle
 10
590.0
 20
34.25000000000364
 30
0.0
 40
12.325
  0
CIRCLE
  5
1319
330
1302
100
AcDbEntity
  8
Visible (ISO)
100
AcDbCircle
 10
-590.0
 20
-55.74999999999864
 30
0.0
 40
12.325
  0
CIRCLE
  5
131A
330
1302
100
AcDbEntity
  8
Visible (ISO)
100
AcDbCircle
 10
590.0000000000009
 20
-55.74999999999636
 30
0.0
 40
12.325
  0
CIRCLE
  5
131B
330
1302
100
AcDbEntity
  8
Visible (ISO)
100
AcDbCircle
 10
-590.0
 20
-145.7499999999986
 30
0.0
 40
12.325
  0
CIRCLE
  5
131C
330
1302
100
AcDbEntity
  8
Visible (ISO)
100
AcDbCircle
 10
590.0000000000009
 20
-145.7499999999963
 30
0.0
 40
12.325
  0
LINE
  5
131D
330
1302
100
AcDbEntity
  8
Visible (ISO)
100
AcDbLine
 10
900.0
 20
90.00000000000227
 30
0.0
 11
900.0
 21
100.0000000000041
 31
0.0
  0
LINE
  5
131E
330
1302
100
AcDbEntity
  8
Visible (ISO)
100
AcDbLine
 10
900.0
 20
100.0000000000041
 30
0.0
 11
-900.0
 21
99.99999999999955
 31
0.0
  0
LINE
  5
131F
330
1302
100
AcDbEntity
  8
Visible (ISO)
100
AcDbLine
 10
-900.0
 20
99.99999999999955
 30
0.0
 11
-900.0
 21
89.99999999999818
 31
0.0
  0
LINE
  5
1320
330
1302
100
AcDbEntity
  8
Visible (ISO)
100
AcDbLine
 10
-900.0
 20
89.99999999999818
 30
0.0
 11
900.0
 21
90.00000000000227
 31
0.0
  0
LINE
  5
1321
330
1302
100
AcDbEntity
  8
Visible (ISO)
100
AcDbLine
 10
900.0
 20
100.0000000000041
 30
0.0
 11
900.0
 21
148.5000000000041
 31
0.0
  0
LINE
  5
1322
330
1302
100
AcDbEntity
  8
Visible (ISO)
100
AcDbLine
 10
-900.0000000000005
 20
148.5
 30
0.0
 11
-900.0
 21
99.99999999999955
 31
0.0
  0
LINE
  5
1323
330
1302
100
AcDbEntity
  8
Visible (ISO)
100
AcDbLine
 10
-900.0000000000005
 20
148.5
 30
0.0
 11
900.0
 21
148.5000000000041
 31
0.0
  0
LINE
  5
1324
330
1302
100
AcDbEntity
  8
Visible (ISO)
100
AcDbLine
 10
900.0
 20
148.5000000000041
 30
0.0
 11
900.0
 21
158.5000000000023
 31
0.0
  0
LINE
  5
1325
330
1302
100
AcDbEntity
  8
Visible (ISO)
100
AcDbLine
 10
-900.0000000000005
 20
158.4999999999982
 30
0.0
 11
-900.0000000000005
 21
148.4999999999995
 31
0.0
  0
LINE
  5
1326
330
1302
100
AcDbEntity
  8
Visible (ISO)
100
AcDbLine
 10
900.0
 20
158.5000000000023
 30
0.0
 11
-900.0000000000005
 21
158.4999999999982
 31
0.0
  0
LINE
  5
1327
330
1302
100
AcDbEntity
  8
Visible (ISO)
100
AcDbLine
 10
900.0
 20
0.0000000000022737
 30
0.0
 11
900.0
 21
10.00000000000409
 31
0.0
  0
LINE
  5
1328
330
1302
100
AcDbEntity
  8
Visible (ISO)
100
AcDbLine
 10
900.0
 20
10.00000000000409
 30
0.0
 11
-900.0
 21
10.0
 31
0.0
  0
LINE
  5
1329
330
1302
100
AcDbEntity
  8
Visible (ISO)
100
AcDbLine
 10
-900.0
 20
10.0
 30
0.0
 11
-900.0
 21
-0.000000000001819
 31
0.0
  0
LINE
  5
132A
330
1302
100
AcDbEntity
  8
Visible (ISO)
100
AcDbLine
 10
-900.0
 20
-0.000000000001819
 30
0.0
 11
900.0
 21
0.0000000000022737
 31
0.0
  0
LINE
  5
132B
330
1302
100
AcDbEntity
  8
Visible (ISO)
100
AcDbLine
 10
900.0
 20
10.00000000000409
 30
0.0
 11
900.0
 21
58.50000000000409
 31
0.0
  0
LINE
  5
132C
330
1302
100
AcDbEntity
  8
Visible (ISO)
100
AcDbLine
 10
-900.0
 20
58.5
 30
0.0
 11
-900.0
 21
10.0
 31
0.0
  0
LINE
  5
132D
330
1302
100
AcDbEntity
  8
Visible (ISO)
100
AcDbLine
 10
-900.0
 20
58.5
 30
0.0
 11
900.0
 21
58.50000000000409
 31
0.0
  0
LINE
  5
132E
330
1302
100
AcDbEntity
  8
Visible (ISO)
100
AcDbLine
 10
900.0
 20
58.50000000000409
 30
0.0
 11
900.0
 21
68.50000000000227
 31
0.0
  0
LINE
  5
132F
330
1302
100
AcDbEntity
  8
Visible (ISO)
100
AcDbLine
 10
-900.0
 20
68.49999999999818
 30
0.0
 11
-900.0
 21
58.5
 31
0.0
  0
LINE
  5
1330
330
1302
100
AcDbEntity
  8
Visible (ISO)
100
AcDbLine
 10
900.0
 20
68.50000000000227
 30
0.0
 11
-900.0
 21
68.49999999999818
 31
0.0
  0
LINE
  5
1331
330
1302
100
AcDbEntity
  8
Visible (ISO)
100
AcDbLine
 10
900.0
 20
-89.99999999999772
 30
0.0
 11
900.0
 21
-79.99999999999591
 31
0.0
  0
LINE
  5
1332
330
1302
100
AcDbEntity
  8
Visible (ISO)
100
AcDbLine
 10
900.0
 20
-79.99999999999591
 30
0.0
 11
-900.0
 21
-80.0
 31
0.0
  0
LINE
  5
1333
330
1302
100
AcDbEntity
  8
Visible (ISO)
100
AcDbLine
 10
-900.0
 20
-80.0
 30
0.0
 11
-900.0
 21
-90.00000000000136
 31
0.0
  0
LINE
  5
1334
330
1302
100
AcDbEntity
  8
Visible (ISO)
100
AcDbLine
 10
-900.0
 20
-90.00000000000136
 30
0.0
 11
900.0
 21
-89.99999999999728
 31
0.0
  0
LINE
  5
1335
330
1302
100
AcDbEntity
  8
Visible (ISO)
100
AcDbLine
 10
900.0
 20
-79.99999999999591
 30
0.0
 11
900.0
 21
-31.49999999999591
 31
0.0
  0
LINE
  5
1336
330
1302
100
AcDbEntity
  8
Visible (ISO)
100
AcDbLine
 10
-900.0000000000005
 20
-31.49999999999955
 30
0.0
 11
-900.0
 21
-80.0
 31
0.0
  0
LINE
  5
1337
330
1302
100
AcDbEntity
  8
Visible (ISO)
100
AcDbLine
 10
-900.0000000000005
 20
-31.49999999999955
 30
0.0
 11
900.0
 21
-31.49999999999591
 31
0.0
  0
LINE
  5
1338
330
1302
100
AcDbEntity
  8
Visible (ISO)
100
AcDbLine
 10
900.0
 20
-31.49999999999591
 30
0.0
 11
900.0
 21
-21.49999999999727
 31
0.0
  0
LINE
  5
1339
330
1302
100
AcDbEntity
  8
Visible (ISO)
100
AcDbLine
 10
-900.0000000000005
 20
-21.50000000000182
 30
0.0
 11
-900.0000000000005
 21
-31.49999999999955
 31
0.0
  0
LINE
  5
133A
330
1302
100
AcDbEntity
  8
Visible (ISO)
100
AcDbLine
 10
900.0
 20
-21.49999999999727
 30
0.0
 11
-900.0000000000005
 21
-21.50000000000182
 31
0.0
  0
LINE
  5
133B
330
1302
100
AcDbEntity
  8
Visible (ISO)
100
AcDbLine
 10
900.0
 20
-179.9999999999977
 30
0.0
 11
900.0
 21
-169.9999999999959
 31
0.0
  0
LINE
  5
133C
330
1302
100
AcDbEntity
  8
Visible (ISO)
100
AcDbLine
 10
900.0
 20
-169.9999999999959
 30
0.0
 11
-900.0
 21
-170.0
 31
0.0
  0
LINE
  5
133D
330
1302
100
AcDbEntity
  8
Visible (ISO)
100
AcDbLine
 10
-900.0
 20
-170.0
 30
0.0
 11
-900.0
 21
-180.0000000000018
 31
0.0
  0
LINE
  5
133E
330
1302
100
AcDbEntity
  8
Visible (ISO)
100
AcDbLine
 10
-900.0
 20
-180.0000000000018
 30
0.0
 11
900.0
 21
-179.9999999999977
 31
0.0
  0
LINE
  5
133F
330
1302
100
AcDbEntity
  8
Visible (ISO)
100
AcDbLine
 10
900.0
 20
-169.9999999999959
 30
0.0
 11
900.0
 21
-121.4999999999959
 31
0.0
  0
LINE
  5
1340
330
1302
100
AcDbEntity
  8
Visible (ISO)
100
AcDbLine
 10
-900.0000000000005
 20
-121.5
 30
0.0
 11
-900.0
 21
-170.0
 31
0.0
  0
LINE
  5
1341
330
1302
100
AcDbEntity
  8
Visible (ISO)
100
AcDbLine
 10
-900.0000000000005
 20
-121.5
 30
0.0
 11
900.0
 21
-121.4999999999959
 31
0.0
  0
LINE
  5
1342
330
1302
100
AcDbEntity
  8
Visible (ISO)
100
AcDbLine
 10
900.0
 20
-121.4999999999959
 30
0.0
 11
900.0
 21
-111.4999999999977
 31
0.0
  0
LINE
  5
1343
330
1302
100
AcDbEntity
  8
Visible (ISO)
100
AcDbLine
 10
-900.0000000000005
 20
-111.5000000000018
 30
0.0
 11
-900.0000000000005
 21
-121.5
 31
0.0
  0
LINE
  5
1344
330
1302
100
AcDbEntity
  8
Visible (ISO)
100
AcDbLine
 10
900.0
 20
-111.4999999999977
 30
0.0
 11
-900.0000000000005
 21
-111.5000000000018
 31
0.0
  0
LINE
  5
1345
330
1302
100
AcDbEntity
  8
Visible (ISO)
100
AcDbLine
 10
-620.0
 20
-225.7500000001059
 30
0.0
 11
-630.0
 21
-235.7500000001037
 31
0.0
  0
LINE
  5
1346
330
1302
100
AcDbEntity
  8
Visible (ISO)
100
AcDbLine
 10
-620.0
 20
-225.7500000001059
 30
0.0
 11
-620.0
 21
-180.0000000001005
 31
0.0
  0
LINE
  5
1347
330
1302
100
AcDbEntity
  8
Visible (ISO)
100
AcDbLine
 10
-629.1729954904949
 20
-180.0000000000977
 30
0.0
 11
-630.0
 21
-180.7500000000968
 31
0.0
  0
LINE
  5
1348
330
1302
100
AcDbEntity
  8
Visible (ISO)
100
AcDbLine
 10
-630.0
 20
-180.7500000000968
 30
0.0
 11
-630.0
 21
-235.7500000001037
 31
0.0
  0
LINE
  5
1349
330
1302
100
AcDbEntity
  8
Visible (ISO)
100
AcDbLine
 10
-630.0
 20
-180.0000000000959
 30
0.0
 11
-630.0
 21
-180.7500000000968
 31
0.0
  0
LINE
  5
134A
330
1302
100
AcDbEntity
  8
Visible (ISO)
100
AcDbLine
 10
-620.0
 20
-10.75000000001364
 30
0.0
 11
-630.0
 21
-10.75000000001091
 31
0.0
  0
LINE
  5
134B
330
1302
100
AcDbEntity
  8
Visible (ISO)
100
AcDbLine
 10
-630.0
 20
-10.75000000001091
 30
0.0
 11
-630.0
 21
-21.50000000001182
 31
0.0
  0
LINE
  5
134C
330
1302
100
AcDbEntity
  8
Visible (ISO)
100
AcDbLine
 10
-630.0
 20
-90.00000000001092
 30
0.0
 11
-630.0
 21
-111.5000000000104
 31
0.0
  0
LINE
  5
134D
330
1302
100
AcDbEntity
  8
Visible (ISO)
100
AcDbLine
 10
-620.0
 20
204.249999999894
 30
0.0
 11
-620.0
 21
158.499999999899
 31
0.0
  0
LINE
  5
134E
330
1302
100
AcDbEntity
  8
Visible (ISO)
100
AcDbLine
 10
-620.0
 20
204.249999999894
 30
0.0
 11
-630.0
 21
214.2499999998963
 31
0.0
  0
LINE
  5
134F
330
1302
100
AcDbEntity
  8
Visible (ISO)
100
AcDbLine
 10
-630.0
 20
159.2499999999036
 30
0.0
 11
-630.0
 21
214.2499999998963
 31
0.0
  0
LINE
  5
1350
330
1302
100
AcDbEntity
  8
Visible (ISO)
100
AcDbLine
 10
-629.1729954904931
 20
158.4999999999022
 30
0.0
 11
-630.0
 21
159.2499999999036
 31
0.0
  0
LINE
  5
1351
330
1302
100
AcDbEntity
  8
Visible (ISO)
100
AcDbLine
 10
-630.0
 20
158.499999999904
 30
0.0
 11
-630.0
 21
159.2499999999036
 31
0.0
  0
LINE
  5
1352
330
1302
100
AcDbEntity
  8
Visible (ISO)
100
AcDbLine
 10
-630.0
 20
-10.75000000001091
 30
0.0
 11
-630.0
 21
-0.0000000000118234
 31
0.0
  0
LINE
  5
1353
330
1302
100
AcDbEntity
  8
Visible (ISO)
100
AcDbLine
 10
-630.0
 20
68.49999999998908
 30
0.0
 11
-630.0
 21
89.99999999998953
 31
0.0
  0
LINE
  5
1354
330
1302
100
AcDbEntity
  8
Visible (ISO)
100
AcDbLine
 10
-700.0
 20
-225.7500000001059
 30
0.0
 11
-690.0
 21
-235.7500000001037
 31
0.0
  0
LINE
  5
1355
330
1302
100
AcDbEntity
  8
Visible (ISO)
100
AcDbLine
 10
-700.0
 20
-225.7500000001059
 30
0.0
 11
-700.0
 21
-180.0000000001009
 31
0.0
  0
LINE
  5
1356
330
1302
100
AcDbEntity
  8
Visible (ISO)
100
AcDbLine
 10
-690.0
 20
-180.7500000000968
 30
0.0
 11
-690.0
 21
-235.7500000001037
 31
0.0
  0
LINE
  5
1357
330
1302
100
AcDbEntity
  8
Visible (ISO)
100
AcDbLine
 10
-690.8270045095051
 20
-180.0000000000982
 30
0.0
 11
-690.0
 21
-180.7500000000968
 31
0.0
  0
LINE
  5
1358
330
1302
100
AcDbEntity
  8
Visible (ISO)
100
AcDbLine
 10
-690.0
 20
-180.0000000000964
 30
0.0
 11
-690.0
 21
-180.7500000000968
 31
0.0
  0
LINE
  5
1359
330
1302
100
AcDbEntity
  8
Visible (ISO)
100
AcDbLine
 10
-700.0
 20
-10.75000000001364
 30
0.0
 11
-690.0
 21
-10.75000000001091
 31
0.0
  0
LINE
  5
135A
330
1302
100
AcDbEntity
  8
Visible (ISO)
100
AcDbLine
 10
-700.0
 20
-111.5000000000136
 30
0.0
 11
-700.0
 21
-90.0000000000141
 31
0.0
  0
LINE
  5
135B
330
1302
100
AcDbEntity
  8
Visible (ISO)
100
AcDbLine
 10
-700.0
 20
-21.50000000001501
 30
0.0
 11
-700.0
 21
-10.75000000001364
 31
0.0
  0
LINE
  5
135C
330
1302
100
AcDbEntity
  8
Visible (ISO)
100
AcDbLine
 10
-690.0
 20
-10.75000000001091
 30
0.0
 11
-690.0
 21
-21.50000000001182
 31
0.0
  0
LINE
  5
135D
330
1302
100
AcDbEntity
  8
Visible (ISO)
100
AcDbLine
 10
-690.0
 20
-90.00000000001092
 30
0.0
 11
-690.0
 21
-111.5000000000104
 31
0.0
  0
LINE
  5
135E
330
1302
100
AcDbEntity
  8
Visible (ISO)
100
AcDbLine
 10
-630.0
 20
-10.75000000001091
 30
0.0
 11
-690.0
 21
-10.75000000001091
 31
0.0
  0
LINE
  5
135F
330
1302
100
AcDbEntity
  8
Visible (ISO)
100
AcDbLine
 10
-690.0
 20
-235.7500000001037
 30
0.0
 11
-630.0
 21
-235.7500000001037
 31
0.0
  0
LINE
  5
1360
330
1302
100
AcDbEntity
  8
Visible (ISO)
100
AcDbLine
 10
-690.0
 20
-180.7500000000968
 30
0.0
 11
-630.0
 21
-180.7500000000968
 31
0.0
  0
LINE
  5
1361
330
1302
100
AcDbEntity
  8
Visible (ISO)
100
AcDbLine
 10
-700.0
 20
89.99999999998635
 30
0.0
 11
-700.0
 21
68.4999999999859
 31
0.0
  0
LINE
  5
1362
330
1302
100
AcDbEntity
  8
Visible (ISO)
100
AcDbLine
 10
-700.0
 20
-0.0000000000150067
 30
0.0
 11
-700.0
 21
-10.75000000001364
 31
0.0
  0
LINE
  5
1363
330
1302
100
AcDbEntity
  8
Visible (ISO)
100
AcDbLine
 10
-700.0
 20
204.249999999894
 30
0.0
 11
-700.0
 21
158.499999999899
 31
0.0
  0
LINE
  5
1364
330
1302
100
AcDbEntity
  8
Visible (ISO)
100
AcDbLine
 10
-700.0
 20
204.249999999894
 30
0.0
 11
-690.0
 21
214.2499999998963
 31
0.0
  0
LINE
  5
1365
330
1302
100
AcDbEntity
  8
Visible (ISO)
100
AcDbLine
 10
-690.8270045095077
 20
158.4999999999022
 30
0.0
 11
-690.0
 21
159.2499999999036
 31
0.0
  0
LINE
  5
1366
330
1302
100
AcDbEntity
  8
Visible (ISO)
100
AcDbLine
 10
-690.0
 20
159.2499999999036
 30
0.0
 11
-690.0
 21
214.2499999998963
 31
0.0
  0
LINE
  5
1367
330
1302
100
AcDbEntity
  8
Visible (ISO)
100
AcDbLine
 10
-690.0
 20
158.4999999999036
 30
0.0
 11
-690.0
 21
159.2499999999036
 31
0.0
  0
LINE
  5
1368
330
1302
100
AcDbEntity
  8
Visible (ISO)
100
AcDbLine
 10
-690.0
 20
-10.75000000001091
 30
0.0
 11
-690.0
 21
-0.0000000000118234
 31
0.0
  0
LINE
  5
1369
330
1302
100
AcDbEntity
  8
Visible (ISO)
100
AcDbLine
 10
-690.0
 20
68.49999999998908
 30
0.0
 11
-690.0
 21
89.99999999998909
 31
0.0
  0
LINE
  5
136A
330
1302
100
AcDbEntity
  8
Visible (ISO)
100
AcDbLine
 10
-630.0
 20
214.2499999998963
 30
0.0
 11
-690.0
 21
214.2499999998963
 31
0.0
  0
LINE
  5
136B
330
1302
100
AcDbEntity
  8
Visible (ISO)
100
AcDbLine
 10
-630.0
 20
159.2499999999036
 30
0.0
 11
-690.0
 21
159.2499999999036
 31
0.0
  0
LINE
  5
136C
330
1302
100
AcDbEntity
  8
Visible (ISO)
100
AcDbLine
 10
620.0
 20
204.249999999894
 30
0.0
 11
630.0
 21
214.2499999998959
 31
0.0
  0
LINE
  5
136D
330
1302
100
AcDbEntity
  8
Visible (ISO)
100
AcDbLine
 10
620.0
 20
204.249999999894
 30
0.0
 11
620.0
 21
158.4999999999018
 31
0.0
  0
LINE
  5
136E
330
1302
100
AcDbEntity
  8
Visible (ISO)
100
AcDbLine
 10
629.1729954904949
 20
158.4999999999045
 30
0.0
 11
630.0
 21
159.2499999999031
 31
0.0
  0
LINE
  5
136F
330
1302
100
AcDbEntity
  8
Visible (ISO)
100
AcDbLine
 10
630.0
 20
159.2499999999031
 30
0.0
 11
630.0
 21
214.2499999998959
 31
0.0
  0
LINE
  5
1370
330
1302
100
AcDbEntity
  8
Visible (ISO)
100
AcDbLine
 10
630.0
 20
158.4999999999063
 30
0.0
 11
630.0
 21
159.2499999999031
 31
0.0
  0
LINE
  5
1371
330
1302
100
AcDbEntity
  8
Visible (ISO)
100
AcDbLine
 10
620.0
 20
-10.75000000001409
 30
0.0
 11
630.0
 21
-10.75000000001091
 31
0.0
  0
LINE
  5
1372
330
1302
100
AcDbEntity
  8
Visible (ISO)
100
AcDbLine
 10
630.0
 20
-10.75000000001091
 30
0.0
 11
630.0
 21
-0.0000000000090949
 31
0.0
  0
LINE
  5
1373
330
1302
100
AcDbEntity
  8
Visible (ISO)
100
AcDbLine
 10
630.0
 20
68.49999999999181
 30
0.0
 11
630.0
 21
89.99999999999227
 31
0.0
  0
LINE
  5
1374
330
1302
100
AcDbEntity
  8
Visible (ISO)
100
AcDbLine
 10
620.0
 20
-225.7500000001064
 30
0.0
 11
620.0
 21
-180.0000000000982
 31
0.0
  0
LINE
  5
1375
330
1302
100
AcDbEntity
  8
Visible (ISO)
100
AcDbLine
 10
620.0
 20
-225.7500000001064
 30
0.0
 11
630.0
 21
-235.7500000001041
 31
0.0
  0
LINE
  5
1376
330
1302
100
AcDbEntity
  8
Visible (ISO)
100
AcDbLine
 10
630.0
 20
-180.7500000000968
 30
0.0
 11
630.0
 21
-235.7500000001041
 31
0.0
  0
LINE
  5
1377
330
1302
100
AcDbEntity
  8
Visible (ISO)
100
AcDbLine
 10
629.1729954904913
 20
-180.000000000095
 30
0.0
 11
630.0
 21
-180.7500000000968
 31
0.0
  0
LINE
  5
1378
330
1302
100
AcDbEntity
  8
Visible (ISO)
100
AcDbLine
 10
630.0
 20
-180.0000000000932
 30
0.0
 11
630.0
 21
-180.7500000000968
 31
0.0
  0
LINE
  5
1379
330
1302
100
AcDbEntity
  8
Visible (ISO)
100
AcDbLine
 10
630.0
 20
-10.75000000001091
 30
0.0
 11
630.0
 21
-21.50000000000909
 31
0.0
  0
LINE
  5
137A
330
1302
100
AcDbEntity
  8
Visible (ISO)
100
AcDbLine
 10
630.0
 20
-90.00000000000818
 30
0.0
 11
630.0
 21
-111.5000000000077
 31
0.0
  0
LINE
  5
137B
330
1302
100
AcDbEntity
  8
Visible (ISO)
100
AcDbLine
 10
699.9999999999991
 20
204.249999999894
 30
0.0
 11
689.9999999999991
 21
214.2499999998959
 31
0.0
  0
LINE
  5
137C
330
1302
100
AcDbEntity
  8
Visible (ISO)
100
AcDbLine
 10
699.9999999999991
 20
204.249999999894
 30
0.0
 11
699.9999999999991
 21
158.4999999999022
 31
0.0
  0
LINE
  5
137D
330
1302
100
AcDbEntity
  8
Visible (ISO)
100
AcDbLine
 10
689.9999999999991
 20
159.2499999999031
 30
0.0
 11
689.9999999999991
 21
214.2499999998959
 31
0.0
  0
LINE
  5
137E
330
1302
100
AcDbEntity
  8
Visible (ISO)
100
AcDbLine
 10
690.8270045095041
 20
158.4999999999049
 30
0.0
 11
689.9999999999991
 21
159.2499999999031
 31
0.0
  0
LINE
  5
137F
330
1302
100
AcDbEntity
  8
Visible (ISO)
100
AcDbLine
 10
689.9999999999991
 20
158.4999999999063
 30
0.0
 11
689.9999999999991
 21
159.2499999999031
 31
0.0
  0
LINE
  5
1380
330
1302
100
AcDbEntity
  8
Visible (ISO)
100
AcDbLine
 10
699.9999999999991
 20
-10.75000000001409
 30
0.0
 11
689.9999999999991
 21
-10.75000000001091
 31
0.0
  0
LINE
  5
1381
330
1302
100
AcDbEntity
  8
Visible (ISO)
100
AcDbLine
 10
699.9999999999991
 20
89.99999999998909
 30
0.0
 11
699.9999999999991
 21
68.49999999998908
 31
0.0
  0
LINE
  5
1382
330
1302
100
AcDbEntity
  8
Visible (ISO)
100
AcDbLine
 10
699.9999999999991
 20
-0.0000000000118234
 30
0.0
 11
699.9999999999991
 21
-10.75000000001409
 31
0.0
  0
LINE
  5
1383
330
1302
100
AcDbEntity
  8
Visible (ISO)
100
AcDbLine
 10
689.9999999999991
 20
-10.75000000001091
 30
0.0
 11
689.9999999999991
 21
-0.0000000000086402
 31
0.0
  0
LINE
  5
1384
330
1302
100
AcDbEntity
  8
Visible (ISO)
100
AcDbLine
 10
689.9999999999991
 20
68.49999999999226
 30
0.0
 11
689.9999999999991
 21
89.99999999999227
 31
0.0
  0
LINE
  5
1385
330
1302
100
AcDbEntity
  8
Visible (ISO)
100
AcDbLine
 10
630.0
 20
-10.75000000001091
 30
0.0
 11
689.9999999999991
 21
-10.75000000001091
 31
0.0
  0
LINE
  5
1386
330
1302
100
AcDbEntity
  8
Visible (ISO)
100
AcDbLine
 10
689.9999999999991
 20
214.2499999998959
 30
0.0
 11
630.0
 21
214.2499999998959
 31
0.0
  0
LINE
  5
1387
330
1302
100
AcDbEntity
  8
Visible (ISO)
100
AcDbLine
 10
689.9999999999991
 20
159.2499999999031
 30
0.0
 11
630.0
 21
159.2499999999031
 31
0.0
  0
LINE
  5
1388
330
1302
100
AcDbEntity
  8
Visible (ISO)
100
AcDbLine
 10
699.9999999999991
 20
-111.5000000000104
 30
0.0
 11
699.9999999999991
 21
-90.00000000001092
 31
0.0
  0
LINE
  5
1389
330
1302
100
AcDbEntity
  8
Visible (ISO)
100
AcDbLine
 10
699.9999999999991
 20
-21.50000000001182
 30
0.0
 11
699.9999999999991
 21
-10.75000000001409
 31
0.0
  0
LINE
  5
138A
330
1302
100
AcDbEntity
  8
Visible (ISO)
100
AcDbLine
 10
699.9999999999991
 20
-225.7500000001064
 30
0.0
 11
699.9999999999991
 21
-180.0000000000982
 31
0.0
  0
LINE
  5
138B
330
1302
100
AcDbEntity
  8
Visible (ISO)
100
AcDbLine
 10
699.9999999999991
 20
-225.7500000001064
 30
0.0
 11
689.9999999999991
 21
-235.7500000001041
 31
0.0
  0
LINE
  5
138C
330
1302
100
AcDbEntity
  8
Visible (ISO)
100
AcDbLine
 10
690.8270045095077
 20
-180.000000000095
 30
0.0
 11
689.9999999999991
 21
-180.7500000000968
 31
0.0
  0
LINE
  5
138D
330
1302
100
AcDbEntity
  8
Visible (ISO)
100
AcDbLine
 10
689.9999999999991
 20
-180.7500000000968
 30
0.0
 11
689.9999999999991
 21
-235.7500000001041
 31
0.0
  0
LINE
  5
138E
330
1302
100
AcDbEntity
  8
Visible (ISO)
100
AcDbLine
 10
689.9999999999991
 20
-180.0000000000932
 30
0.0
 11
689.9999999999991
 21
-180.7500000000968
 31
0.0
  0
LINE
  5
138F
330
1302
100
AcDbEntity
  8
Visible (ISO)
100
AcDbLine
 10
689.9999999999991
 20
-10.75000000001091
 30
0.0
 11
689.9999999999991
 21
-21.50000000000864
 31
0.0
  0
LINE
  5
1390
330
1302
100
AcDbEntity
  8
Visible (ISO)
100
AcDbLine
 10
689.9999999999991
 20
-90.00000000000818
 30
0.0
 11
689.9999999999991
 21
-111.5000000000077
 31
0.0
  0
LINE
  5
1391
330
1302
100
AcDbEntity
  8
Visible (ISO)
100
AcDbLine
 10
630.0
 20
-235.7500000001041
 30
0.0
 11
689.9999999999991
 21
-235.7500000001041
 31
0.0
  0
LINE
  5
1392
330
1302
100
AcDbEntity
  8
Visible (ISO)
100
AcDbLine
 10
630.0
 20
-180.7500000000968
 30
0.0
 11
689.9999999999991
 21
-180.7500000000968
 31
0.0
  0
SPLINE
  5
1393
330
1302
100
AcDbEntity
  8
Visible (ISO)
100
AcDbSpline
210
0.0
220
0.0
230
1.0
 70
    12
 71
     2
 72
     6
 73
     3
 74
     0
 42
0.0000000001
 43
0.0000000001
 40
0.0
 40
0.0
 40
0.0
 40
0.4978532609589533
 40
0.4978532609589533
 40
0.4978532609589533
 10
-708.140910621446
 20
-90.65747728813084
 30
0.0
 41
1.0
 10
-708.9000999999998
 20
-91.97243186435526
 30
0.0
 41
1.037954849302014
 10
-708.9000999999998
 20
-93.11121593218832
 30
0.0
 41
1.0
  0
SPLINE
  5
1394
330
1302
100
AcDbEntity
  8
Visible (ISO)
100
AcDbSpline
210
0.0
220
0.0
230
1.0
 70
    12
 71
     2
 72
     6
 73
     3
 74
     0
 42
0.0000000001
 43
0.0000000001
 40
0.9344989164529376
 40
0.9344989164529376
 40
0.9344989164529376
 40
0.9957065219179071
 40
0.9957065219179071
 40
0.9957065219179071
 10
-708.3208508809848
 20
-90.00000000002046
 30
0.0
 41
1.008185196084249
 10
-708.2373403159045
 20
-90.32343502780941
 30
0.0
 41
1.004666285477547
 10
-708.140910621446
 20
-90.65747728813084
 30
0.0
 41
1.0
  0
LINE
  5
1395
330
1302
100
AcDbEntity
  8
Visible (ISO)
100
AcDbLine
 10
-708.9000999999998
 20
-90.00000000002092
 30
0.0
 11
-708.9000999999998
 21
-93.11121593218832
 31
0.0
  0
SPLINE
  5
1396
330
1302
100
AcDbEntity
  8
Visible (ISO)
100
AcDbSpline
210
0.0
220
0.0
230
1.0
 70
    12
 71
     2
 72
     6
 73
     3
 74
     0
 42
0.0000000001
 43
0.0000000001
 40
0.4978532609589533
 40
0.4978532609589533
 40
0.4978532609589533
 40
0.9957065219179066
 40
0.9957065219179066
 40
0.9957065219179066
 10
-708.9000999999998
 20
-93.11121593218832
 30
0.0
 41
1.0
 10
-708.9000999999998
 20
-94.25000000002091
 30
0.0
 41
1.037954849302044
 10
-708.140910621446
 20
-95.56495457624533
 30
0.0
 41
1.0
  0
LINE
  5
1397
330
1302
100
AcDbEntity
  8
Visible (ISO)
100
AcDbLine
 10
-708.9000999999998
 20
-93.11121593218786
 30
0.0
 11
-708.9000999999998
 21
-94.25000000002183
 31
0.0
  0
LINE
  5
1398
330
1302
100
AcDbEntity
  8
Visible (ISO)
100
AcDbLine
 10
-708.9000999999998
 20
-94.25000000002183
 30
0.0
 11
-708.140910621446
 21
-95.56495457624533
 31
0.0
  0
LINE
  5
1399
330
1302
100
AcDbEntity
  8
Visible (ISO)
100
AcDbLine
 10
-703.1000999999996
 20
-90.00000000002046
 30
0.0
 11
-703.1000999999996
 21
-90.65747728813084
 31
0.0
  0
LINE
  5
139A
330
1302
100
AcDbEntity
  8
Visible (ISO)
100
AcDbLine
 10
-703.1000999999996
 20
-90.65747728813084
 30
0.0
 11
-703.1000999999996
 21
-95.56495457624533
 31
0.0
  0
LINE
  5
139B
330
1302
100
AcDbEntity
  8
Visible (ISO)
100
AcDbLine
 10
-703.1000999999996
 20
-90.65747728813084
 30
0.0
 11
-708.140910621446
 21
-90.65747728813084
 31
0.0
  0
LINE
  5
139C
330
1302
100
AcDbEntity
  8
Visible (ISO)
100
AcDbLine
 10
-703.1000999999996
 20
-95.56495457624533
 30
0.0
 11
-708.140910621446
 21
-95.56495457624533
 31
0.0
  0
LINE
  5
139D
330
1302
100
AcDbEntity
  8
Visible (ISO)
100
AcDbLine
 10
-703.1000999999996
 20
-93.55000000002155
 30
0.0
 11
-702.5
 21
-93.55000000002155
 31
0.0
  0
SPLINE
  5
139E
330
1302
100
AcDbEntity
  8
Visible (ISO)
100
AcDbSpline
210
0.0
220
0.0
230
1.0
 70
    12
 71
     2
 72
     6
 73
     3
 74
     0
 42
0.0000000001
 43
0.0000000001
 40
0.0
 40
0.0
 40
0.0
 40
0.4978532609589534
 40
0.4978532609589534
 40
0.4978532609589534
 10
-708.140910621446
 20
74.06495457620121
 30
0.0
 41
1.0
 10
-708.9000999999998
 20
72.74999999997817
 30
0.0
 41
1.037954849302042
 10
-708.9000999999998
 20
71.61121593214648
 30
0.0
 41
1.0
  0
LINE
  5
139F
330
1302
100
AcDbEntity
  8
Visible (ISO)
100
AcDbLine
 10
-708.9000999999998
 20
72.74999999997771
 30
0.0
 11
-708.9000999999998
 21
71.61121593214648
 31
0.0
  0
SPLINE
  5
13A0
330
1302
100
AcDbEntity
  8
Visible (ISO)
100
AcDbSpline
210
0.0
220
0.0
230
1.0
 70
    12
 71
     2
 72
     6
 73
     3
 74
     0
 42
0.0000000001
 43
0.0000000001
 40
0.0
 40
0.0
 40
0.0
 40
0.0612076054651276
 40
0.0612076054651276
 40
0.0612076054651276
 10
-708.140910621446
 20
69.15747728809174
 30
0.0
 41
1.0
 10
-708.2373403159045
 20
68.82343502776939
 30
0.0
 41
1.004666285477558
 10
-708.3208508809848
 20
68.49999999997954
 30
0.0
 41
1.008185196084264
  0
SPLINE
  5
13A1
330
1302
100
AcDbEntity
  8
Visible (ISO)
100
AcDbSpline
210
0.0
220
0.0
230
1.0
 70
    12
 71
     2
 72
     6
 73
     3
 74
     0
 42
0.0000000001
 43
0.0000000001
 40
0.4978532609589534
 40
0.4978532609589534
 40
0.4978532609589534
 40
0.9957065219179067
 40
0.9957065219179067
 40
0.9957065219179067
 10
-708.9000999999998
 20
71.61121593214648
 30
0.0
 41
1.0
 10
-708.9000999999998
 20
70.47243186431479
 30
0.0
 41
1.037954849302043
 10
-708.140910621446
 20
69.15747728809219
 30
0.0
 41
1.0
  0
LINE
  5
13A2
330
1302
100
AcDbEntity
  8
Visible (ISO)
100
AcDbLine
 10
-708.9000999999998
 20
71.61121593214648
 30
0.0
 11
-708.9000999999998
 21
68.49999999997954
 31
0.0
  0
LINE
  5
13A3
330
1302
100
AcDbEntity
  8
Visible (ISO)
100
AcDbLine
 10
-708.9000999999998
 20
72.74999999997771
 30
0.0
 11
-708.140910621446
 21
74.06495457620121
 31
0.0
  0
LINE
  5
13A4
330
1302
100
AcDbEntity
  8
Visible (ISO)
100
AcDbLine
 10
-703.1000999999996
 20
69.15747728809219
 30
0.0
 11
-703.1000999999996
 21
68.49999999997954
 31
0.0
  0
LINE
  5
13A5
330
1302
100
AcDbEntity
  8
Visible (ISO)
100
AcDbLine
 10
-703.1000999999996
 20
69.15747728809219
 30
0.0
 11
-708.140910621446
 21
69.15747728809219
 31
0.0
  0
LINE
  5
13A6
330
1302
100
AcDbEntity
  8
Visible (ISO)
100
AcDbLine
 10
-703.1000999999996
 20
74.06495457620121
 30
0.0
 11
-703.1000999999996
 21
69.15747728809219
 31
0.0
  0
LINE
  5
13A7
330
1302
100
AcDbEntity
  8
Visible (ISO)
100
AcDbLine
 10
-703.1000999999996
 20
74.06495457620121
 30
0.0
 11
-708.140910621446
 21
74.06495457620121
 31
0.0
  0
LINE
  5
13A8
330
1302
100
AcDbEntity
  8
Visible (ISO)
100
AcDbLine
 10
-703.1000999999996
 20
72.04999999997744
 30
0.0
 11
-702.5
 21
72.04999999997744
 31
0.0
  0
SPLINE
  5
13A9
330
1302
100
AcDbEntity
  8
Visible (ISO)
100
AcDbSpline
210
0.0
220
0.0
230
1.0
 70
    12
 71
     2
 72
     6
 73
     3
 74
     0
 42
0.0000000001
 43
0.0000000001
 40
0.0
 40
0.0
 40
0.0
 40
0.4978532609589533
 40
0.4978532609589533
 40
0.4978532609589533
 10
708.1409106214451
 20
69.15747728809265
 30
0.0
 41
1.0
 10
708.9000999999998
 20
70.47243186431569
 30
0.0
 41
1.037954849302014
 10
708.9000999999998
 20
71.61121593214739
 30
0.0
 41
1.0
  0
SPLINE
  5
13AA
330
1302
100
AcDbEntity
  8
Visible (ISO)
100
AcDbSpline
210
0.0
220
0.0
230
1.0
 70
    12
 71
     2
 72
     6
 73
     3
 74
     0
 42
0.0000000001
 43
0.0000000001
 40
0.9344989164530106
 40
0.9344989164530106
 40
0.9344989164530106
 40
0.9957065219179071
 40
0.9957065219179071
 40
0.9957065219179071
 10
708.3208508809839
 20
68.49999999998272
 30
0.0
 41
1.00818519608424
 10
708.2373403159045
 20
68.82343502777121
 30
0.0
 41
1.004666285477542
 10
708.1409106214451
 20
69.15747728809265
 30
0.0
 41
1.0
  0
LINE
  5
13AB
330
1302
100
AcDbEntity
  8
Visible (ISO)
100
AcDbLine
 10
708.9000999999998
 20
68.49999999998226
 30
0.0
 11
708.9000999999998
 21
71.61121593214739
 31
0.0
  0
SPLINE
  5
13AC
330
1302
100
AcDbEntity
  8
Visible (ISO)
100
AcDbSpline
210
0.0
220
0.0
230
1.0
 70
    12
 71
     2
 72
     6
 73
     3
 74
     0
 42
0.0000000001
 43
0.0000000001
 40
0.4978532609589533
 40
0.4978532609589533
 40
0.4978532609589533
 40
0.9957065219179066
 40
0.9957065219179066
 40
0.9957065219179066
 10
708.9000999999998
 20
71.61121593214739
 30
0.0
 41
1.0
 10
708.9000999999998
 20
72.74999999997908
 30
0.0
 41
1.037954849302044
 10
708.1409106214451
 20
74.06495457620167
 30
0.0
 41
1.0
  0
LINE
  5
13AD
330
1302
100
AcDbEntity
  8
Visible (ISO)
100
AcDbLine
 10
708.9000999999998
 20
71.61121593214739
 30
0.0
 11
708.9000999999998
 21
72.74999999997817
 31
0.0
  0
LINE
  5
13AE
330
1302
100
AcDbEntity
  8
Visible (ISO)
100
AcDbLine
 10
708.9000999999998
 20
72.74999999997817
 30
0.0
 11
708.1409106214451
 21
74.06495457620167
 31
0.0
  0
LINE
  5
13AF
330
1302
100
AcDbEntity
  8
Visible (ISO)
100
AcDbLine
 10
703.1000999999996
 20
68.49999999998272
 30
0.0
 11
703.1000999999996
 21
69.15747728809265
 31
0.0
  0
LINE
  5
13B0
330
1302
100
AcDbEntity
  8
Visible (ISO)
100
AcDbLine
 10
703.1000999999996
 20
69.15747728809265
 30
0.0
 11
703.1000999999996
 21
74.06495457620167
 31
0.0
  0
LINE
  5
13B1
330
1302
100
AcDbEntity
  8
Visible (ISO)
100
AcDbLine
 10
703.1000999999996
 20
69.15747728809265
 30
0.0
 11
708.1409106214451
 21
69.15747728809219
 31
0.0
  0
LINE
  5
13B2
330
1302
100
AcDbEntity
  8
Visible (ISO)
100
AcDbLine
 10
703.1000999999996
 20
74.06495457620167
 30
0.0
 11
708.1409106214451
 21
74.06495457620167
 31
0.0
  0
LINE
  5
13B3
330
1302
100
AcDbEntity
  8
Visible (ISO)
100
AcDbLine
 10
703.1000999999996
 20
72.04999999997835
 30
0.0
 11
702.5
 21
72.04999999997835
 31
0.0
  0
SPLINE
  5
13B4
330
1302
100
AcDbEntity
  8
Visible (ISO)
100
AcDbSpline
210
0.0
220
0.0
230
1.0
 70
    12
 71
     2
 72
     6
 73
     3
 74
     0
 42
0.0000000001
 43
0.0000000001
 40
0.0
 40
0.0
 40
0.0
 40
0.4978532609589534
 40
0.4978532609589534
 40
0.4978532609589534
 10
708.1409106214451
 20
-95.56495457624487
 30
0.0
 41
1.0
 10
708.9000999999998
 20
-94.25000000002047
 30
0.0
 41
1.037954849302042
 10
708.9000999999998
 20
-93.11121593218786
 30
0.0
 41
1.0
  0
LINE
  5
13B5
330
1302
100
AcDbEntity
  8
Visible (ISO)
100
AcDbLine
 10
708.9000999999998
 20
-94.25000000002091
 30
0.0
 11
708.9000999999998
 21
-93.11121593218786
 31
0.0
  0
SPLINE
  5
13B6
330
1302
100
AcDbEntity
  8
Visible (ISO)
100
AcDbSpline
210
0.0
220
0.0
230
1.0
 70
    12
 71
     2
 72
     6
 73
     3
 74
     0
 42
0.0000000001
 43
0.0000000001
 40
0.0
 40
0.0
 40
0.0
 40
0.0612076054652
 40
0.0612076054652
 40
0.0612076054652
 10
708.1409106214451
 20
-90.6574772881304
 30
0.0
 41
1.0
 10
708.2373403159045
 20
-90.3234350278076
 30
0.0
 41
1.004666285477563
 10
708.3208508809848
 20
-90.00000000001774
 30
0.0
 41
1.008185196084272
  0
SPLINE
  5
13B7
330
1302
100
AcDbEntity
  8
Visible (ISO)
100
AcDbSpline
210
0.0
220
0.0
230
1.0
 70
    12
 71
     2
 72
     6
 73
     3
 74
     0
 42
0.0000000001
 43
0.0000000001
 40
0.4978532609589534
 40
0.4978532609589534
 40
0.4978532609589534
 40
0.9957065219179067
 40
0.9957065219179067
 40
0.9957065219179067
 10
708.9000999999998
 20
-93.11121593218786
 30
0.0
 41
1.0
 10
708.9000999999998
 20
-91.97243186435434
 30
0.0
 41
1.037954849302043
 10
708.1409106214451
 20
-90.6574772881304
 30
0.0
 41
1.0
  0
LINE
  5
13B8
330
1302
100
AcDbEntity
  8
Visible (ISO)
100
AcDbLine
 10
708.9000999999998
 20
-93.11121593218786
 30
0.0
 11
708.9000999999998
 21
-90.00000000001774
 31
0.0
  0
LINE
  5
13B9
330
1302
100
AcDbEntity
  8
Visible (ISO)
100
AcDbLine
 10
708.9000999999998
 20
-94.25000000002091
 30
0.0
 11
708.1409106214451
 21
-95.56495457624487
 31
0.0
  0
LINE
  5
13BA
330
1302
100
AcDbEntity
  8
Visible (ISO)
100
AcDbLine
 10
703.1000999999996
 20
-90.6574772881304
 30
0.0
 11
703.1000999999996
 21
-90.00000000001774
 31
0.0
  0
LINE
  5
13BB
330
1302
100
AcDbEntity
  8
Visible (ISO)
100
AcDbLine
 10
703.1000999999996
 20
-90.6574772881304
 30
0.0
 11
708.1409106214451
 21
-90.6574772881304
 31
0.0
  0
LINE
  5
13BC
330
1302
100
AcDbEntity
  8
Visible (ISO)
100
AcDbLine
 10
703.1000999999996
 20
-95.56495457624487
 30
0.0
 11
703.1000999999996
 21
-90.6574772881304
 31
0.0
  0
LINE
  5
13BD
330
1302
100
AcDbEntity
  8
Visible (ISO)
100
AcDbLine
 10
703.1000999999996
 20
-95.56495457624487
 30
0.0
 11
708.1409106214451
 21
-95.56495457624487
 31
0.0
  0
LINE
  5
13BE
330
1302
100
AcDbEntity
  8
Visible (ISO)
100
AcDbLine
 10
703.1000999999996
 20
-93.5500000000211
 30
0.0
 11
702.5
 21
-93.5500000000211
 31
0.0
  0
LINE
  5
13BF
330
1302
100
AcDbEntity
  8
Visible (ISO)
100
AcDbLine
 10
-702.5
 20
-100.7500000000218
 30
0.0
 11
-702.5
 21
-90.00000000001865
 31
0.0
  0
LINE
  5
13C0
330
1302
100
AcDbEntity
  8
Visible (ISO)
100
AcDbLine
 10
-700.0
 20
-100.7500000000218
 30
0.0
 11
-702.5
 21
-100.7500000000218
 31
0.0
  0
LINE
  5
13C1
330
1302
100
AcDbEntity
  8
Visible (ISO)
100
AcDbLine
 10
-702.5
 20
68.49999999998136
 30
0.0
 11
-702.5
 21
79.24999999997726
 31
0.0
  0
LINE
  5
13C2
330
1302
100
AcDbEntity
  8
Visible (ISO)
100
AcDbLine
 10
-700.0000000000008
 20
79.24999999997726
 30
0.0
 11
-702.5
 21
79.24999999997726
 31
0.0
  0
LINE
  5
13C3
330
1302
100
AcDbEntity
  8
Visible (ISO)
100
AcDbLine
 10
702.5
 20
79.24999999997817
 30
0.0
 11
702.5
 21
68.49999999998454
 31
0.0
  0
LINE
  5
13C4
330
1302
100
AcDbEntity
  8
Visible (ISO)
100
AcDbLine
 10
700.0
 20
79.24999999997817
 30
0.0
 11
702.5
 21
79.24999999997817
 31
0.0
  0
LINE
  5
13C5
330
1302
100
AcDbEntity
  8
Visible (ISO)
100
AcDbLine
 10
702.5
 20
-90.00000000001591
 30
0.0
 11
702.5
 21
-100.7500000000209
 31
0.0
  0
LINE
  5
13C6
330
1302
100
AcDbEntity
  8
Visible (ISO)
100
AcDbLine
 10
700.0
 20
-100.7500000000209
 30
0.0
 11
702.5
 21
-100.7500000000209
 31
0.0
  0
ENDBLK
  5
1304
330
1302
100
AcDbEntity
  8
0
100
AcDbBlockEnd
  0
ENDSEC
  0
SECTION
  2
ENTITIES
  0
LINE
  5
4CC
330
6C
100
AcDbEntity
  8
Visible (ISO)
100
AcDbLine
 10
5572.986932052433
 20
3770.012867270363
 30
0.0
 11
5572.986932052433
 21
3760.012867270363
 31
0.0
  0
LINE
  5
4CD
330
6C
100
AcDbEntity
  8
Visible (ISO)
100
AcDbLine
 10
5572.986932052433
 20
3772.012867270362
 30
0.0
 11
5572.986932052433
 21
3770.012867270363
 31
0.0
  0
LINE
  5
4CE
330
6C
100
AcDbEntity
  8
Visible (ISO)
100
AcDbLine
 10
5490.986932052434
 20
3760.012867270363
 30
0.0
 11
5490.986932052434
 21
3770.012867270363
 31
0.0
  0
LINE
  5
4CF
330
6C
100
AcDbEntity
  8
Visible (ISO)
100
AcDbLine
 10
5490.986932052434
 20
3770.012867270363
 30
0.0
 11
5490.986932052434
 21
3772.012867270362
 31
0.0
  0
LINE
  5
4D0
330
6C
100
AcDbEntity
  8
Visible (ISO)
100
AcDbLine
 10
5490.986932052434
 20
3772.012867270362
 30
0.0
 11
5491.986932052434
 21
3772.012867270362
 31
0.0
  0
LINE
  5
4D1
330
6C
100
AcDbEntity
  8
Visible (ISO)
100
AcDbLine
 10
5571.986932052433
 20
3772.012867270362
 30
0.0
 11
5572.986932052433
 21
3772.012867270362
 31
0.0
  0
LINE
  5
4D2
330
6C
100
AcDbEntity
  8
Visible (ISO)
100
AcDbLine
 10
5591.986932052433
 20
3770.012867270363
 30
0.0
 11
5572.986932052433
 21
3770.012867270363
 31
0.0
  0
LINE
  5
4D3
330
6C
100
AcDbEntity
  8
Visible (ISO)
100
AcDbLine
 10
5591.986932052433
 20
3853.012867270363
 30
0.0
 11
5591.986932052433
 21
3770.012867270363
 31
0.0
  0
LINE
  5
4D4
330
6C
100
AcDbEntity
  8
Visible (ISO)
100
AcDbLine
 10
4151.986932052433
 20
3853.012867270363
 30
0.0
 11
4171.986932052432
 21
3853.012867270363
 31
0.0
  0
LINE
  5
4D5
330
6C
100
AcDbEntity
  8
Visible (ISO)
100
AcDbLine
 10
4251.986932052433
 20
3853.012867270363
 30
0.0
 11
5491.986932052434
 21
3853.012867270363
 31
0.0
  0
LINE
  5
4D6
330
6C
100
AcDbEntity
  8
Visible (ISO)
100
AcDbLine
 10
5571.986932052433
 20
3853.012867270363
 30
0.0
 11
5591.986932052433
 21
3853.012867270363
 31
0.0
  0
LINE
  5
4D7
330
6C
100
AcDbEntity
  8
Visible (ISO)
100
AcDbLine
 10
4151.986932052433
 20
3770.012867270363
 30
0.0
 11
4151.986932052433
 21
3853.012867270363
 31
0.0
  0
LINE
  5
4D8
330
6C
100
AcDbEntity
  8
Visible (ISO)
100
AcDbLine
 10
4170.986932052433
 20
3770.012867270363
 30
0.0
 11
4151.986932052433
 21
3770.012867270363
 31
0.0
  0
LINE
  5
4D9
330
6C
100
AcDbEntity
  8
Visible (ISO)
100
AcDbLine
 10
5490.986932052434
 20
3770.012867270363
 30
0.0
 11
4252.986932052433
 21
3770.012867270363
 31
0.0
  0
LINE
  5
4DA
330
6C
100
AcDbEntity
  8
Visible (ISO)
100
AcDbLine
 10
5572.986932052433
 20
3760.012867270363
 30
0.0
 11
5591.986932052433
 21
3760.012867270363
 31
0.0
  0
LINE
  5
4DB
330
6C
100
AcDbEntity
  8
Visible (ISO)
100
AcDbLine
 10
5591.986932052433
 20
3760.012867270363
 30
0.0
 11
5591.986932052433
 21
3770.012867270363
 31
0.0
  0
LINE
  5
4DC
330
6C
100
AcDbEntity
  8
Visible (ISO)
100
AcDbLine
 10
4151.986932052433
 20
3770.012867270363
 30
0.0
 11
4151.986932052433
 21
3760.012867270363
 31
0.0
  0
LINE
  5
4DD
330
6C
100
AcDbEntity
  8
Visible (ISO)
100
AcDbLine
 10
4151.986932052433
 20
3760.012867270363
 30
0.0
 11
4170.986932052433
 21
3760.012867270363
 31
0.0
  0
LINE
  5
4DE
330
6C
100
AcDbEntity
  8
Visible (ISO)
100
AcDbLine
 10
4252.986932052433
 20
3760.012867270363
 30
0.0
 11
5490.986932052434
 21
3760.012867270363
 31
0.0
  0
LINE
  5
4DF
330
6C
100
AcDbEntity
  8
Visible (ISO)
100
AcDbLine
 10
5591.986932052433
 20
3770.012867270363
 30
0.0
 11
5601.986932052434
 21
3770.012867270363
 31
0.0
  0
LINE
  5
4E0
330
6C
100
AcDbEntity
  8
Visible (ISO)
100
AcDbLine
 10
5601.986932052434
 20
3770.012867270363
 30
0.0
 11
5591.986932052433
 21
3760.012867270363
 31
0.0
  0
LINE
  5
4E1
330
6C
100
AcDbEntity
  8
Visible (ISO)
100
AcDbLine
 10
5591.986932052433
 20
3863.012867270363
 30
0.0
 11
5601.986932052434
 21
3853.012867270363
 31
0.0
  0
LINE
  5
4E2
330
6C
100
AcDbEntity
  8
Visible (ISO)
100
AcDbLine
 10
5591.986932052433
 20
3853.012867270363
 30
0.0
 11
5591.986932052433
 21
3863.012867270363
 31
0.0
  0
LINE
  5
4E3
330
6C
100
AcDbEntity
  8
Visible (ISO)
100
AcDbLine
 10
5601.986932052434
 20
3853.012867270363
 30
0.0
 11
5591.986932052433
 21
3853.012867270363
 31
0.0
  0
LINE
  5
4E4
330
6C
100
AcDbEntity
  8
Visible (ISO)
100
AcDbLine
 10
4151.986932052433
 20
3760.012867270363
 30
0.0
 11
4141.986932052433
 21
3770.012867270363
 31
0.0
  0
LINE
  5
4E5
330
6C
100
AcDbEntity
  8
Visible (ISO)
100
AcDbLine
 10
4141.986932052433
 20
3770.012867270363
 30
0.0
 11
4151.986932052433
 21
3770.012867270363
 31
0.0
  0
LINE
  5
4E6
330
6C
100
AcDbEntity
  8
Visible (ISO)
100
AcDbLine
 10
4151.986932052433
 20
3853.012867270363
 30
0.0
 11
4141.986932052433
 21
3853.012867270363
 31
0.0
  0
LINE
  5
4E7
330
6C
100
AcDbEntity
  8
Visible (ISO)
100
AcDbLine
 10
4151.986932052433
 20
3863.012867270363
 30
0.0
 11
4151.986932052433
 21
3853.012867270363
 31
0.0
  0
LINE
  5
4E8
330
6C
100
AcDbEntity
  8
Visible (ISO)
100
AcDbLine
 10
4141.986932052433
 20
3853.012867270363
 30
0.0
 11
4151.986932052433
 21
3863.012867270363
 31
0.0
  0
LINE
  5
4E9
330
6C
100
AcDbEntity
  8
Visible (ISO)
100
AcDbLine
 10
5591.986932052433
 20
3863.012867270363
 30
0.0
 11
5571.986932052433
 21
3863.012867270363
 31
0.0
  0
LINE
  5
4EA
330
6C
100
AcDbEntity
  8
Visible (ISO)
100
AcDbLine
 10
5491.986932052434
 20
3863.012867270363
 30
0.0
 11
4251.986932052433
 21
3863.012867270363
 31
0.0
  0
LINE
  5
4EB
330
6C
100
AcDbEntity
  8
Visible (ISO)
100
AcDbLine
 10
4171.986932052432
 20
3863.012867270363
 30
0.0
 11
4151.986932052433
 21
3863.012867270363
 31
0.0
  0
LINE
  5
4EC
330
6C
100
AcDbEntity
  8
Visible (ISO)
100
AcDbLine
 10
4141.986932052433
 20
3853.012867270363
 30
0.0
 11
4141.986932052433
 21
3770.012867270363
 31
0.0
  0
LINE
  5
4ED
330
6C
100
AcDbEntity
  8
Visible (ISO)
100
AcDbLine
 10
5601.986932052434
 20
3770.012867270363
 30
0.0
 11
5601.986932052434
 21
3853.012867270363
 31
0.0
  0
LINE
  5
4EE
330
6C
100
AcDbEntity
  8
Visible (ISO)
100
AcDbLine
 10
4170.986932052433
 20
3770.012867270363
 30
0.0
 11
4170.986932052433
 21
3772.012867270362
 31
0.0
  0
LINE
  5
4EF
330
6C
100
AcDbEntity
  8
Visible (ISO)
100
AcDbLine
 10
4170.986932052433
 20
3772.012867270362
 30
0.0
 11
4171.986932052432
 21
3772.012867270362
 31
0.0
  0
LINE
  5
4F0
330
6C
100
AcDbEntity
  8
Visible (ISO)
100
AcDbLine
 10
4251.986932052433
 20
3772.012867270362
 30
0.0
 11
4252.986932052433
 21
3772.012867270362
 31
0.0
  0
LINE
  5
4F1
330
6C
100
AcDbEntity
  8
Visible (ISO)
100
AcDbLine
 10
4252.986932052433
 20
3772.012867270362
 30
0.0
 11
4252.986932052433
 21
3770.012867270363
 31
0.0
  0
LINE
  5
4F2
330
6C
100
AcDbEntity
  8
Visible (ISO)
100
AcDbLine
 10
4252.986932052433
 20
3770.012867270363
 30
0.0
 11
4252.986932052433
 21
3760.012867270363
 31
0.0
  0
LINE
  5
4F3
330
6C
100
AcDbEntity
  8
Visible (ISO)
100
AcDbLine
 10
4170.986932052433
 20
3760.012867270363
 30
0.0
 11
4170.986932052433
 21
3770.012867270363
 31
0.0
  0
LINE
  5
4F4
330
6C
100
AcDbEntity
  8
Visible (ISO)
100
AcDbLine
 10
5491.986932052434
 20
4032.0982748136
 30
0.0
 11
5491.986932052434
 21
4084.566825317979
 31
0.0
  0
LINE
  5
4F5
330
6C
100
AcDbEntity
  8
Visible (ISO)
100
AcDbLine
 10
5441.986932052433
 20
4084.566825317979
 30
0.0
 11
5441.986932052433
 21
4079.566825317979
 31
0.0
  0
LINE
  5
4F6
330
6C
100
AcDbEntity
  8
Visible (ISO)
100
AcDbLine
 10
5441.986932052433
 20
4079.566825317979
 30
0.0
 11
5481.986932052434
 21
4079.566825317979
 31
0.0
  0
ARC
  5
4F7
330
6C
100
AcDbEntity
  8
Visible (ISO)
100
AcDbCircle
 10
5481.986932052434
 20
4074.566825317979
 30
0.0
 40
5.0
100
AcDbArc
 50
0.0
 51
90.0
  0
LINE
  5
4F8
330
6C
100
AcDbEntity
  8
Visible (ISO)
100
AcDbLine
 10
5486.986932052435
 20
4074.566825317979
 30
0.0
 11
5486.986932052435
 21
4009.566825317979
 31
0.0
  0
LINE
  5
4F9
330
6C
100
AcDbEntity
  8
Visible (ISO)
100
AcDbLine
 10
5486.986932052435
 20
4009.566825317979
 30
0.0
 11
5491.986932052434
 21
4009.566825317979
 31
0.0
  0
LINE
  5
4FA
330
6C
100
AcDbEntity
  8
Visible (ISO)
100
AcDbLine
 10
4251.986932052433
 20
4032.098274813594
 30
0.0
 11
4251.986932052433
 21
4084.566825317976
 31
0.0
  0
LINE
  5
4FB
330
6C
100
AcDbEntity
  8
Visible (ISO)
100
AcDbLine
 10
4256.986932052432
 20
4009.566825317976
 30
0.0
 11
4251.986932052433
 21
4009.566825317976
 31
0.0
  0
LINE
  5
4FC
330
6C
100
AcDbEntity
  8
Visible (ISO)
100
AcDbLine
 10
4256.986932052432
 20
4074.566825317975
 30
0.0
 11
4256.986932052432
 21
4009.566825317976
 31
0.0
  0
ARC
  5
4FD
330
6C
100
AcDbEntity
  8
Visible (ISO)
100
AcDbCircle
 10
4261.986932052432
 20
4074.566825317975
 30
0.0
 40
4.999999999999988
100
AcDbArc
 50
90.0
 51
180.0
  0
LINE
  5
4FE
330
6C
100
AcDbEntity
  8
Visible (ISO)
100
AcDbLine
 10
4301.986932052432
 20
4079.566825317976
 30
0.0
 11
4261.986932052432
 21
4079.566825317976
 31
0.0
  0
LINE
  5
4FF
330
6C
100
AcDbEntity
  8
Visible (ISO)
100
AcDbLine
 10
4301.986932052432
 20
4084.566825317976
 30
0.0
 11
4301.986932052432
 21
4079.566825317976
 31
0.0
  0
LINE
  5
500
330
6C
100
AcDbEntity
  8
Visible (ISO)
100
AcDbLine
 10
5471.986932052434
 20
4079.566825317979
 30
0.0
 11
5471.986932052434
 21
4077.566825317979
 31
0.0
  0
LINE
  5
501
330
6C
100
AcDbEntity
  8
Visible (ISO)
100
AcDbLine
 10
5451.986932052435
 20
4079.566825317979
 30
0.0
 11
5451.986932052435
 21
4077.566825317979
 31
0.0
  0
LINE
  5
502
330
6C
100
AcDbEntity
  8
Visible (ISO)
100
AcDbLine
 10
4291.986932052433
 20
4079.566825317976
 30
0.0
 11
4291.986932052433
 21
4077.566825317975
 31
0.0
  0
LINE
  5
503
330
6C
100
AcDbEntity
  8
Visible (ISO)
100
AcDbLine
 10
4271.986932052433
 20
4079.566825317976
 30
0.0
 11
4271.986932052433
 21
4077.566825317975
 31
0.0
  0
LINE
  5
504
330
6C
100
AcDbEntity
  8
Visible (ISO)
100
AcDbLine
 10
4258.986932052434
 20
4054.566813781909
 30
0.0
 11
4258.986932052434
 21
4034.56681378191
 31
0.0
  0
LINE
  5
505
330
6C
100
AcDbEntity
  8
Visible (ISO)
100
AcDbLine
 10
4256.986932052433
 20
4054.566813781909
 30
0.0
 11
4258.986932052434
 21
4054.566813781909
 31
0.0
  0
LINE
  5
506
330
6C
100
AcDbEntity
  8
Visible (ISO)
100
AcDbLine
 10
4256.986932052433
 20
4034.56681378191
 30
0.0
 11
4258.986932052434
 21
4034.56681378191
 31
0.0
  0
LINE
  5
507
330
6C
100
AcDbEntity
  8
Visible (ISO)
100
AcDbLine
 10
5484.986932052433
 20
4034.56681378191
 30
0.0
 11
5484.986932052433
 21
4054.56681378191
 31
0.0
  0
LINE
  5
508
330
6C
100
AcDbEntity
  8
Visible (ISO)
100
AcDbLine
 10
5486.986932052433
 20
4034.56681378191
 30
0.0
 11
5484.986932052433
 21
4034.56681378191
 31
0.0
  0
LINE
  5
509
330
6C
100
AcDbEntity
  8
Visible (ISO)
100
AcDbLine
 10
5486.986932052433
 20
4054.56681378191
 30
0.0
 11
5484.986932052433
 21
4054.56681378191
 31
0.0
  0
LINE
  5
50A
330
6C
100
AcDbEntity
  8
Visible (ISO)
100
AcDbLine
 10
4269.661932052433
 20
4124.468726519927
 30
0.0
 11
4294.311932052433
 21
4124.468726519927
 31
0.0
  0
ARC
  5
50B
330
6C
100
AcDbEntity
  8
Visible (ISO)
100
AcDbCircle
 10
4281.986932052433
 20
4109.746825317976
 30
0.0
 40
19.2
100
AcDbArc
 50
50.06433219879006
 51
129.9356678012099
  0
LINE
  5
50C
330
6C
100
AcDbEntity
  8
Visible (ISO)
100
AcDbLine
 10
4294.311932052433
 20
4124.468726519927
 30
0.0
 11
4294.311932052433
 21
4123.566825317976
 31
0.0
  0
LINE
  5
50D
330
6C
100
AcDbEntity
  8
Visible (ISO)
100
AcDbLine
 10
4269.661932052433
 20
4124.468726519927
 30
0.0
 11
4269.661932052433
 21
4123.566825317976
 31
0.0
  0
LINE
  5
50E
330
6C
100
AcDbEntity
  8
Visible (ISO)
100
AcDbLine
 10
5449.661932052435
 20
4124.46872651993
 30
0.0
 11
5474.311932052433
 21
4124.46872651993
 31
0.0
  0
ARC
  5
50F
330
6C
100
AcDbEntity
  8
Visible (ISO)
100
AcDbCircle
 10
5461.986932052434
 20
4109.746825317979
 30
0.0
 40
19.2
100
AcDbArc
 50
50.06433219879006
 51
129.9356678012099
  0
LINE
  5
510
330
6C
100
AcDbEntity
  8
Visible (ISO)
100
AcDbLine
 10
5474.311932052433
 20
4124.46872651993
 30
0.0
 11
5474.311932052433
 21
4123.566825317979
 31
0.0
  0
LINE
  5
511
330
6C
100
AcDbEntity
  8
Visible (ISO)
100
AcDbLine
 10
5449.661932052435
 20
4124.46872651993
 30
0.0
 11
5449.661932052435
 21
4123.566825317979
 31
0.0
  0
LINE
  5
512
330
6C
100
AcDbEntity
  8
Visible (ISO)
100
AcDbLine
 10
4266.986932052433
 20
4036.91681378191
 30
0.0
 11
4266.986932052433
 21
4052.216813781909
 31
0.0
  0
SPLINE
  5
513
330
6C
100
AcDbEntity
  8
Visible (ISO)
100
AcDbSpline
210
0.0
220
0.0
230
1.0
 70
    28
 71
     2
 72
     6
 73
     3
 74
     0
 42
0.0000000001
 43
0.0000000001
 40
0.0
 40
0.0
 40
0.0
 40
0.4965853586831158
 40
0.4965853586831158
 40
0.4965853586831158
 10
4265.736994945067
 20
4053.066813781909
 30
0.0
 41
1.0
 10
4266.496184323621
 20
4053.066813781909
 30
0.0
 41
1.077350269189625
 10
4266.496184323621
 20
4053.066813781909
 30
0.0
 41
1.077350269189625
  0
SPLINE
  5
514
330
6C
100
AcDbEntity
  8
Visible (ISO)
100
AcDbSpline
210
0.0
220
0.0
230
1.0
 70
    12
 71
     2
 72
     6
 73
     3
 74
     0
 42
0.0000000001
 43
0.0000000001
 40
0.0
 40
0.0
 40
0.0
 40
0.9931707173662312
 40
0.9931707173662312
 40
0.9931707173662312
 10
4265.736994945067
 20
4044.566813781909
 30
0.0
 41
1.0
 10
4267.153661611733
 20
4048.816813781909
 30
0.0
 41
1.154700538379246
 10
4265.736994945067
 20
4053.066813781909
 30
0.0
 41
1.0
  0
SPLINE
  5
515
330
6C
100
AcDbEntity
  8
Visible (ISO)
100
AcDbSpline
210
0.0
220
0.0
230
1.0
 70
    12
 71
     2
 72
     6
 73
     3
 74
     0
 42
0.0000000001
 43
0.0000000001
 40
0.0
 40
0.0
 40
0.0
 40
0.9931707173662275
 40
0.9931707173662275
 40
0.9931707173662275
 10
4265.736994945067
 20
4036.06681378191
 30
0.0
 41
1.0
 10
4267.153661611733
 20
4040.31681378191
 30
0.0
 41
1.154700538379248
 10
4265.736994945067
 20
4044.566813781909
 30
0.0
 41
1.0
  0
SPLINE
  5
516
330
6C
100
AcDbEntity
  8
Visible (ISO)
100
AcDbSpline
210
0.0
220
0.0
230
1.0
 70
    28
 71
     2
 72
     6
 73
     3
 74
     0
 42
0.0000000001
 43
0.0000000001
 40
0.4965853586831113
 40
0.4965853586831113
 40
0.4965853586831113
 40
0.993170717366226
 40
0.993170717366226
 40
0.993170717366226
 10
4266.496184323621
 20
4036.06681378191
 30
0.0
 41
1.077350269189623
 10
4266.496184323621
 20
4036.06681378191
 30
0.0
 41
1.077350269189623
 10
4265.736994945067
 20
4036.06681378191
 30
0.0
 41
1.0
  0
SPLINE
  5
517
330
6C
100
AcDbEntity
  8
Visible (ISO)
100
AcDbSpline
210
0.0
220
0.0
230
1.0
 70
    12
 71
     2
 72
     6
 73
     3
 74
     0
 42
0.0000000001
 43
0.0000000001
 40
0.0
 40
0.0
 40
0.0
 40
0.9931707173662299
 40
0.9931707173662299
 40
0.9931707173662299
 10
4260.236869159799
 20
4053.066813781909
 30
0.0
 41
1.0
 10
4258.820202493132
 20
4048.816813781909
 30
0.0
 41
1.15470053837925
 10
4260.236869159799
 20
4044.566813781909
 30
0.0
 41
1.0
  0
SPLINE
  5
518
330
6C
100
AcDbEntity
  8
Visible (ISO)
100
AcDbSpline
210
0.0
220
0.0
230
1.0
 70
    28
 71
     2
 72
     6
 73
     3
 74
     0
 42
0.0000000001
 43
0.0000000001
 40
0.4965853586831161
 40
0.4965853586831161
 40
0.4965853586831161
 40
0.9931707173662321
 40
0.9931707173662321
 40
0.9931707173662321
 10
4259.477679781244
 20
4053.066813781909
 30
0.0
 41
1.077350269189624
 10
4259.477679781244
 20
4053.066813781909
 30
0.0
 41
1.077350269189624
 10
4260.236869159799
 20
4053.066813781909
 30
0.0
 41
1.0
  0
SPLINE
  5
519
330
6C
100
AcDbEntity
  8
Visible (ISO)
100
AcDbSpline
210
0.0
220
0.0
230
1.0
 70
    28
 71
     2
 72
     6
 73
     3
 74
     0
 42
0.0000000001
 43
0.0000000001
 40
0.0
 40
0.0
 40
0.0
 40
0.496585358683115
 40
0.496585358683115
 40
0.496585358683115
 10
4260.236869159799
 20
4036.06681378191
 30
0.0
 41
1.0
 10
4259.477679781244
 20
4036.06681378191
 30
0.0
 41
1.077350269189624
 10
4259.477679781244
 20
4036.06681378191
 30
0.0
 41
1.077350269189624
  0
SPLINE
  5
51A
330
6C
100
AcDbEntity
  8
Visible (ISO)
100
AcDbSpline
210
0.0
220
0.0
230
1.0
 70
    12
 71
     2
 72
     6
 73
     3
 74
     0
 42
0.0000000001
 43
0.0000000001
 40
0.0
 40
0.0
 40
0.0
 40
0.9931707173662276
 40
0.9931707173662276
 40
0.9931707173662276
 10
4260.236869159799
 20
4044.566813781909
 30
0.0
 41
1.0
 10
4258.820202493132
 20
4040.31681378191
 30
0.0
 41
1.154700538379249
 10
4260.236869159799
 20
4036.06681378191
 30
0.0
 41
1.0
  0
LINE
  5
51B
330
6C
100
AcDbEntity
  8
Visible (ISO)
100
AcDbLine
 10
4266.986932052433
 20
4036.91681378191
 30
0.0
 11
4266.496184323621
 21
4036.06681378191
 31
0.0
  0
LINE
  5
51C
330
6C
100
AcDbEntity
  8
Visible (ISO)
100
AcDbLine
 10
4266.986932052433
 20
4052.216813781909
 30
0.0
 11
4266.496184323621
 21
4053.066813781909
 31
0.0
  0
LINE
  5
51D
330
6C
100
AcDbEntity
  8
Visible (ISO)
100
AcDbLine
 10
4258.986932052432
 20
4052.216813781909
 30
0.0
 11
4259.477679781245
 21
4053.066813781909
 31
0.0
  0
LINE
  5
51E
330
6C
100
AcDbEntity
  8
Visible (ISO)
100
AcDbLine
 10
4258.986932052432
 20
4036.91681378191
 30
0.0
 11
4259.477679781245
 21
4036.06681378191
 31
0.0
  0
LINE
  5
51F
330
6C
100
AcDbEntity
  8
Visible (ISO)
100
AcDbLine
 10
4265.736994945067
 20
4044.566813781909
 30
0.0
 11
4260.236869159799
 21
4044.566813781909
 31
0.0
  0
LINE
  5
520
330
6C
100
AcDbEntity
  8
Visible (ISO)
100
AcDbLine
 10
4265.736994945067
 20
4036.06681378191
 30
0.0
 11
4260.236869159799
 21
4036.06681378191
 31
0.0
  0
LINE
  5
521
330
6C
100
AcDbEntity
  8
Visible (ISO)
100
AcDbLine
 10
4265.736994945067
 20
4053.066813781909
 30
0.0
 11
4260.236869159799
 21
4053.066813781909
 31
0.0
  0
LINE
  5
522
330
6C
100
AcDbEntity
  8
Visible (ISO)
100
AcDbLine
 10
5476.986932052434
 20
4052.21681378191
 30
0.0
 11
5476.986932052434
 21
4036.91681378191
 31
0.0
  0
SPLINE
  5
523
330
6C
100
AcDbEntity
  8
Visible (ISO)
100
AcDbSpline
210
0.0
220
0.0
230
1.0
 70
    28
 71
     2
 72
     6
 73
     3
 74
     0
 42
0.0000000001
 43
0.0000000001
 40
0.0
 40
0.0
 40
0.0
 40
0.4965853586831203
 40
0.4965853586831203
 40
0.4965853586831203
 10
5478.2368691598
 20
4036.06681378191
 30
0.0
 41
1.0
 10
5477.477679781245
 20
4036.06681378191
 30
0.0
 41
1.077350269189626
 10
5477.477679781245
 20
4036.06681378191
 30
0.0
 41
1.077350269189625
  0
SPLINE
  5
524
330
6C
100
AcDbEntity
  8
Visible (ISO)
100
AcDbSpline
210
0.0
220
0.0
230
1.0
 70
    12
 71
     2
 72
     6
 73
     3
 74
     0
 42
0.0000000001
 43
0.0000000001
 40
0.0
 40
0.0
 40
0.0
 40
0.9931707173662312
 40
0.9931707173662312
 40
0.9931707173662312
 10
5478.2368691598
 20
4044.56681378191
 30
0.0
 41
1.0
 10
5476.820202493133
 20
4040.31681378191
 30
0.0
 41
1.154700538379246
 10
5478.2368691598
 20
4036.06681378191
 30
0.0
 41
1.0
  0
SPLINE
  5
525
330
6C
100
AcDbEntity
  8
Visible (ISO)
100
AcDbSpline
210
0.0
220
0.0
230
1.0
 70
    12
 71
     2
 72
     6
 73
     3
 74
     0
 42
0.0000000001
 43
0.0000000001
 40
0.0
 40
0.0
 40
0.0
 40
0.9931707173662275
 40
0.9931707173662275
 40
0.9931707173662275
 10
5478.2368691598
 20
4053.06681378191
 30
0.0
 41
1.0
 10
5476.820202493133
 20
4048.81681378191
 30
0.0
 41
1.154700538379248
 10
5478.2368691598
 20
4044.56681378191
 30
0.0
 41
1.0
  0
SPLINE
  5
526
330
6C
100
AcDbEntity
  8
Visible (ISO)
100
AcDbSpline
210
0.0
220
0.0
230
1.0
 70
    28
 71
     2
 72
     6
 73
     3
 74
     0
 42
0.0000000001
 43
0.0000000001
 40
0.4965853586831061
 40
0.4965853586831061
 40
0.4965853586831061
 40
0.993170717366226
 40
0.993170717366226
 40
0.993170717366226
 10
5477.477679781245
 20
4053.06681378191
 30
0.0
 41
1.077350269189623
 10
5477.477679781245
 20
4053.06681378191
 30
0.0
 41
1.077350269189624
 10
5478.2368691598
 20
4053.06681378191
 30
0.0
 41
1.0
  0
SPLINE
  5
527
330
6C
100
AcDbEntity
  8
Visible (ISO)
100
AcDbSpline
210
0.0
220
0.0
230
1.0
 70
    12
 71
     2
 72
     6
 73
     3
 74
     0
 42
0.0000000001
 43
0.0000000001
 40
0.0
 40
0.0
 40
0.0
 40
0.9931707173662299
 40
0.9931707173662299
 40
0.9931707173662299
 10
5483.736994945068
 20
4036.06681378191
 30
0.0
 41
1.0
 10
5485.153661611735
 20
4040.31681378191
 30
0.0
 41
1.15470053837925
 10
5483.736994945068
 20
4044.56681378191
 30
0.0
 41
1.0
  0
SPLINE
  5
528
330
6C
100
AcDbEntity
  8
Visible (ISO)
100
AcDbSpline
210
0.0
220
0.0
230
1.0
 70
    28
 71
     2
 72
     6
 73
     3
 74
     0
 42
0.0000000001
 43
0.0000000001
 40
0.496585358683121
 40
0.496585358683121
 40
0.496585358683121
 40
0.9931707173662321
 40
0.9931707173662321
 40
0.9931707173662321
 10
5484.496184323623
 20
4036.06681378191
 30
0.0
 41
1.077350269189624
 10
5484.496184323623
 20
4036.06681378191
 30
0.0
 41
1.077350269189623
 10
5483.736994945068
 20
4036.06681378191
 30
0.0
 41
1.0
  0
SPLINE
  5
529
330
6C
100
AcDbEntity
  8
Visible (ISO)
100
AcDbSpline
210
0.0
220
0.0
230
1.0
 70
    28
 71
     2
 72
     6
 73
     3
 74
     0
 42
0.0000000001
 43
0.0000000001
 40
0.0
 40
0.0
 40
0.0
 40
0.4965853586831105
 40
0.4965853586831105
 40
0.4965853586831105
 10
5483.736994945068
 20
4053.06681378191
 30
0.0
 41
1.0
 10
5484.496184323623
 20
4053.06681378191
 30
0.0
 41
1.077350269189623
 10
5484.496184323623
 20
4053.06681378191
 30
0.0
 41
1.077350269189624
  0
SPLINE
  5
52A
330
6C
100
AcDbEntity
  8
Visible (ISO)
100
AcDbSpline
210
0.0
220
0.0
230
1.0
 70
    12
 71
     2
 72
     6
 73
     3
 74
     0
 42
0.0000000001
 43
0.0000000001
 40
0.0
 40
0.0
 40
0.0
 40
0.9931707173662276
 40
0.9931707173662276
 40
0.9931707173662276
 10
5483.736994945068
 20
4044.56681378191
 30
0.0
 41
1.0
 10
5485.153661611735
 20
4048.81681378191
 30
0.0
 41
1.154700538379249
 10
5483.736994945068
 20
4053.06681378191
 30
0.0
 41
1.0
  0
LINE
  5
52B
330
6C
100
AcDbEntity
  8
Visible (ISO)
100
AcDbLine
 10
5476.986932052434
 20
4052.21681378191
 30
0.0
 11
5477.477679781245
 21
4053.06681378191
 31
0.0
  0
LINE
  5
52C
330
6C
100
AcDbEntity
  8
Visible (ISO)
100
AcDbLine
 10
5476.986932052434
 20
4036.91681378191
 30
0.0
 11
5477.477679781245
 21
4036.06681378191
 31
0.0
  0
LINE
  5
52D
330
6C
100
AcDbEntity
  8
Visible (ISO)
100
AcDbLine
 10
5484.986932052433
 20
4036.91681378191
 30
0.0
 11
5484.496184323623
 21
4036.06681378191
 31
0.0
  0
LINE
  5
52E
330
6C
100
AcDbEntity
  8
Visible (ISO)
100
AcDbLine
 10
5484.986932052433
 20
4052.21681378191
 30
0.0
 11
5484.496184323623
 21
4053.06681378191
 31
0.0
  0
LINE
  5
52F
330
6C
100
AcDbEntity
  8
Visible (ISO)
100
AcDbLine
 10
5478.2368691598
 20
4044.56681378191
 30
0.0
 11
5483.736994945068
 21
4044.56681378191
 31
0.0
  0
LINE
  5
530
330
6C
100
AcDbEntity
  8
Visible (ISO)
100
AcDbLine
 10
5478.2368691598
 20
4053.06681378191
 30
0.0
 11
5483.736994945068
 21
4053.06681378191
 31
0.0
  0
LINE
  5
531
330
6C
100
AcDbEntity
  8
Visible (ISO)
100
AcDbLine
 10
5478.2368691598
 20
4036.06681378191
 30
0.0
 11
5483.736994945068
 21
4036.06681378191
 31
0.0
  0
LINE
  5
532
330
6C
100
AcDbEntity
  8
Visible (ISO)
100
AcDbLine
 10
5451.186932052434
 20
4077.566825317979
 30
0.0
 11
5472.786932052433
 21
4077.566825317979
 31
0.0
  0
LINE
  5
533
330
6C
100
AcDbEntity
  8
Visible (ISO)
100
AcDbLine
 10
5451.186932052434
 20
4067.966798825843
 30
0.0
 11
5451.186932052434
 21
4077.566825317979
 31
0.0
  0
LINE
  5
534
330
6C
100
AcDbEntity
  8
Visible (ISO)
100
AcDbLine
 10
5472.786932052433
 20
4067.966798825843
 30
0.0
 11
5472.786932052433
 21
4077.566825317979
 31
0.0
  0
ARC
  5
535
330
6C
100
AcDbEntity
  8
Visible (ISO)
100
AcDbCircle
 10
5451.686932052433
 20
4067.966798825843
 30
0.0
 40
0.5
100
AcDbArc
 50
180.0
 51
269.5829414048433
  0
ARC
  5
536
330
6C
100
AcDbEntity
  8
Visible (ISO)
100
AcDbCircle
 10
5472.286932052434
 20
4067.966798825843
 30
0.0
 40
0.5000000000000001
100
AcDbArc
 50
270.4170585951567
 51
0.0
  0
ARC
  5
537
330
6C
100
AcDbEntity
  8
Visible (ISO)
100
AcDbCircle
 10
5451.679653071053
 20
4066.966825317979
 30
0.0
 40
0.5
100
AcDbArc
 50
0.5994531795381859
 51
89.58294140484328
  0
ARC
  5
538
330
6C
100
AcDbEntity
  8
Visible (ISO)
100
AcDbCircle
 10
5472.294211033814
 20
4066.966825317979
 30
0.0
 40
0.5000000000000002
100
AcDbArc
 50
90.41705859515612
 51
179.4005468204618
  0
ARC
  5
539
330
6C
100
AcDbEntity
  8
Visible (ISO)
100
AcDbCircle
 10
5461.986932052434
 20
4067.074668455235
 30
0.0
 40
9.807843137254902
100
AcDbArc
 50
180.5994531795479
 51
359.4005468204521
  0
LINE
  5
53A
330
6C
100
AcDbEntity
  8
Visible (ISO)
100
AcDbLine
 10
4271.186932052433
 20
4077.566825317975
 30
0.0
 11
4292.786932052433
 21
4077.566825317975
 31
0.0
  0
LINE
  5
53B
330
6C
100
AcDbEntity
  8
Visible (ISO)
100
AcDbLine
 10
4271.186932052432
 20
4067.96679882584
 30
0.0
 11
4271.186932052432
 21
4077.566825317975
 31
0.0
  0
LINE
  5
53C
330
6C
100
AcDbEntity
  8
Visible (ISO)
100
AcDbLine
 10
4292.786932052433
 20
4067.96679882584
 30
0.0
 11
4292.786932052433
 21
4077.566825317975
 31
0.0
  0
ARC
  5
53D
330
6C
100
AcDbEntity
  8
Visible (ISO)
100
AcDbCircle
 10
4271.686932052433
 20
4067.96679882584
 30
0.0
 40
0.5
100
AcDbArc
 50
180.0
 51
269.5829414048433
  0
ARC
  5
53E
330
6C
100
AcDbEntity
  8
Visible (ISO)
100
AcDbCircle
 10
4292.286932052433
 20
4067.96679882584
 30
0.0
 40
0.5000000000000001
100
AcDbArc
 50
270.4170585951567
 51
0.0
  0
ARC
  5
53F
330
6C
100
AcDbEntity
  8
Visible (ISO)
100
AcDbCircle
 10
4271.679653071053
 20
4066.966825317975
 30
0.0
 40
0.5
100
AcDbArc
 50
0.5994531795381859
 51
89.58294140484328
  0
ARC
  5
540
330
6C
100
AcDbEntity
  8
Visible (ISO)
100
AcDbCircle
 10
4292.294211033813
 20
4066.966825317975
 30
0.0
 40
0.5000000000000002
100
AcDbArc
 50
90.41705859515612
 51
179.4005468204618
  0
ARC
  5
541
330
6C
100
AcDbEntity
  8
Visible (ISO)
100
AcDbCircle
 10
4281.986932052433
 20
4067.074668455231
 30
0.0
 40
9.807843137254902
100
AcDbArc
 50
180.5994531795479
 51
359.4005468204521
  0
LINE
  5
542
330
6C
100
AcDbEntity
  8
Visible (ISO)
100
AcDbLine
 10
5771.986932052434
 20
4117.56682531798
 30
0.0
 11
5771.986932052434
 21
4123.56682531798
 31
0.0
  0
LINE
  5
543
330
6C
100
AcDbEntity
  8
Visible (ISO)
100
AcDbLine
 10
5771.986932052434
 20
4123.56682531798
 30
0.0
 11
3971.986932052434
 21
4123.566825317975
 31
0.0
  0
LINE
  5
544
330
6C
100
AcDbEntity
  8
Visible (ISO)
100
AcDbLine
 10
3971.986932052434
 20
4123.566825317975
 30
0.0
 11
3971.986932052434
 21
4117.566825317974
 31
0.0
  0
LINE
  5
545
330
6C
100
AcDbEntity
  8
Visible (ISO)
100
AcDbLine
 10
3971.986932052434
 20
4117.566825317974
 30
0.0
 11
5771.986932052434
 21
4117.56682531798
 31
0.0
  0
LINE
  5
546
330
6C
100
AcDbEntity
  8
Visible (ISO)
100
AcDbLine
 10
5771.986932052435
 20
4084.56682531798
 30
0.0
 11
5771.986932052434
 21
4117.56682531798
 31
0.0
  0
LINE
  5
547
330
6C
100
AcDbEntity
  8
Visible (ISO)
100
AcDbLine
 10
3971.986932052434
 20
4117.566825317974
 30
0.0
 11
3971.986932052434
 21
4084.566825317974
 31
0.0
  0
LINE
  5
548
330
6C
100
AcDbEntity
  8
Visible (ISO)
100
AcDbLine
 10
3971.986932052434
 20
4084.566825317974
 30
0.0
 11
5771.986932052435
 21
4084.56682531798
 31
0.0
  0
LINE
  5
549
330
6C
100
AcDbEntity
  8
Visible (ISO)
100
AcDbLine
 10
4241.986932052433
 20
3687.012867270363
 30
0.0
 11
4251.986932052433
 21
3687.012867270363
 31
0.0
  0
LINE
  5
54A
330
6C
100
AcDbEntity
  8
Visible (ISO)
100
AcDbLine
 10
4251.986932052433
 20
3687.012867270363
 30
0.0
 11
4251.986932052433
 21
3760.573734567095
 31
0.0
  0
LINE
  5
54B
330
6C
100
AcDbEntity
  8
Visible (ISO)
100
AcDbLine
 10
4251.986932052433
 20
3760.573734567095
 30
0.0
 11
4241.986932052433
 21
3767.012867270363
 31
0.0
  0
LINE
  5
54C
330
6C
100
AcDbEntity
  8
Visible (ISO)
100
AcDbLine
 10
4241.986932052433
 20
3767.012867270363
 30
0.0
 11
4241.986932052433
 21
3687.012867270363
 31
0.0
  0
LINE
  5
54D
330
6C
100
AcDbEntity
  8
Visible (ISO)
100
AcDbLine
 10
4251.986932052433
 20
3760.573734567095
 30
0.0
 11
4251.986932052433
 21
3785.150495644295
 31
0.0
  0
LINE
  5
54E
330
6C
100
AcDbEntity
  8
Visible (ISO)
100
AcDbLine
 10
4251.986932052433
 20
3785.150495644295
 30
0.0
 11
4241.986932052433
 21
3792.012867270363
 31
0.0
  0
LINE
  5
54F
330
6C
100
AcDbEntity
  8
Visible (ISO)
100
AcDbLine
 10
4241.986932052433
 20
3792.012867270363
 30
0.0
 11
4241.986932052433
 21
3767.012867270363
 31
0.0
  0
LINE
  5
550
330
6C
100
AcDbEntity
  8
Visible (ISO)
100
AcDbLine
 10
4251.986932052433
 20
3785.150495644295
 30
0.0
 11
4251.986932052433
 21
4032.098274813594
 31
0.0
  0
LINE
  5
551
330
6C
100
AcDbEntity
  8
Visible (ISO)
100
AcDbLine
 10
4251.986932052433
 20
4076.592102602969
 30
0.0
 11
4244.334208889075
 21
4084.566825317976
 31
0.0
  0
LINE
  5
552
330
6C
100
AcDbEntity
  8
Visible (ISO)
100
AcDbLine
 10
4241.986932052433
 20
4084.566825317976
 30
0.0
 11
4241.986932052433
 21
3792.012867270363
 31
0.0
  0
LINE
  5
553
330
6C
100
AcDbEntity
  8
Visible (ISO)
100
AcDbLine
 10
4181.986932052433
 20
3687.012867270363
 30
0.0
 11
4171.986932052432
 21
3687.012867270363
 31
0.0
  0
LINE
  5
554
330
6C
100
AcDbEntity
  8
Visible (ISO)
100
AcDbLine
 10
4181.986932052433
 20
3767.012867270363
 30
0.0
 11
4181.986932052433
 21
3687.012867270363
 31
0.0
  0
LINE
  5
555
330
6C
100
AcDbEntity
  8
Visible (ISO)
100
AcDbLine
 10
4171.986932052432
 20
3760.573734567095
 30
0.0
 11
4181.986932052433
 21
3767.012867270363
 31
0.0
  0
LINE
  5
556
330
6C
100
AcDbEntity
  8
Visible (ISO)
100
AcDbLine
 10
4171.986932052432
 20
3687.012867270363
 30
0.0
 11
4171.986932052432
 21
3760.573734567095
 31
0.0
  0
LINE
  5
557
330
6C
100
AcDbEntity
  8
Visible (ISO)
100
AcDbLine
 10
4171.986932052432
 20
3760.573734567095
 30
0.0
 11
4171.986932052432
 21
3785.150495644295
 31
0.0
  0
LINE
  5
558
330
6C
100
AcDbEntity
  8
Visible (ISO)
100
AcDbLine
 10
4181.986932052433
 20
3792.012867270363
 30
0.0
 11
4181.986932052433
 21
3767.012867270363
 31
0.0
  0
LINE
  5
559
330
6C
100
AcDbEntity
  8
Visible (ISO)
100
AcDbLine
 10
4171.986932052432
 20
3785.150495644295
 30
0.0
 11
4181.986932052433
 21
3792.012867270363
 31
0.0
  0
LINE
  5
55A
330
6C
100
AcDbEntity
  8
Visible (ISO)
100
AcDbLine
 10
4171.986932052432
 20
3785.150495644295
 30
0.0
 11
4171.986932052432
 21
4076.592102602969
 31
0.0
  0
LINE
  5
55B
330
6C
100
AcDbEntity
  8
Visible (ISO)
100
AcDbLine
 10
4181.986932052433
 20
4084.566825317976
 30
0.0
 11
4181.986932052433
 21
3792.012867270363
 31
0.0
  0
LINE
  5
55C
330
6C
100
AcDbEntity
  8
Visible (ISO)
100
AcDbLine
 10
4171.986932052432
 20
4076.592102602969
 30
0.0
 11
4179.639655215791
 21
4084.566825317976
 31
0.0
  0
LINE
  5
55D
330
6C
100
AcDbEntity
  8
Visible (ISO)
100
AcDbLine
 10
4181.986932052433
 20
3687.012867270363
 30
0.0
 11
4241.986932052433
 21
3687.012867270363
 31
0.0
  0
LINE
  5
55E
330
6C
100
AcDbEntity
  8
Visible (ISO)
100
AcDbLine
 10
4181.986932052433
 20
3767.012867270363
 30
0.0
 11
4241.986932052433
 21
3767.012867270363
 31
0.0
  0
LINE
  5
55F
330
6C
100
AcDbEntity
  8
Visible (ISO)
100
AcDbLine
 10
4181.986932052433
 20
3792.012867270363
 30
0.0
 11
4241.986932052433
 21
3792.012867270363
 31
0.0
  0
LINE
  5
560
330
6C
100
AcDbEntity
  8
Visible (ISO)
100
AcDbLine
 10
5491.986932052434
 20
3687.012867270363
 30
0.0
 11
5491.986932052434
 21
3760.573734567095
 31
0.0
  0
LINE
  5
561
330
6C
100
AcDbEntity
  8
Visible (ISO)
100
AcDbLine
 10
5491.986932052434
 20
3760.573734567095
 30
0.0
 11
5491.986932052434
 21
3785.150495644295
 31
0.0
  0
LINE
  5
562
330
6C
100
AcDbEntity
  8
Visible (ISO)
100
AcDbLine
 10
5491.986932052434
 20
3785.150495644295
 30
0.0
 11
5491.986932052434
 21
4032.0982748136
 31
0.0
  0
LINE
  5
563
330
6C
100
AcDbEntity
  8
Visible (ISO)
100
AcDbLine
 10
5501.986932052434
 20
3687.012867270363
 30
0.0
 11
5491.986932052434
 21
3687.012867270363
 31
0.0
  0
LINE
  5
564
330
6C
100
AcDbEntity
  8
Visible (ISO)
100
AcDbLine
 10
5501.986932052434
 20
3767.012867270363
 30
0.0
 11
5501.986932052434
 21
3687.012867270363
 31
0.0
  0
LINE
  5
565
330
6C
100
AcDbEntity
  8
Visible (ISO)
100
AcDbLine
 10
5491.986932052434
 20
3760.573734567095
 30
0.0
 11
5501.986932052434
 21
3767.012867270363
 31
0.0
  0
LINE
  5
566
330
6C
100
AcDbEntity
  8
Visible (ISO)
100
AcDbLine
 10
5501.986932052434
 20
3792.012867270363
 30
0.0
 11
5501.986932052434
 21
3767.012867270363
 31
0.0
  0
LINE
  5
567
330
6C
100
AcDbEntity
  8
Visible (ISO)
100
AcDbLine
 10
5491.986932052434
 20
3785.150495644295
 30
0.0
 11
5501.986932052434
 21
3792.012867270363
 31
0.0
  0
LINE
  5
568
330
6C
100
AcDbEntity
  8
Visible (ISO)
100
AcDbLine
 10
5501.986932052434
 20
4084.566825317979
 30
0.0
 11
5501.986932052434
 21
3792.012867270363
 31
0.0
  0
LINE
  5
569
330
6C
100
AcDbEntity
  8
Visible (ISO)
100
AcDbLine
 10
5491.986932052434
 20
4076.592102602969
 30
0.0
 11
5499.639655215796
 21
4084.566825317979
 31
0.0
  0
LINE
  5
56A
330
6C
100
AcDbEntity
  8
Visible (ISO)
100
AcDbLine
 10
5571.986932052433
 20
3785.150495644295
 30
0.0
 11
5571.986932052433
 21
4076.592102602969
 31
0.0
  0
LINE
  5
56B
330
6C
100
AcDbEntity
  8
Visible (ISO)
100
AcDbLine
 10
5571.986932052433
 20
3760.573734567095
 30
0.0
 11
5571.986932052433
 21
3785.150495644295
 31
0.0
  0
LINE
  5
56C
330
6C
100
AcDbEntity
  8
Visible (ISO)
100
AcDbLine
 10
5571.986932052433
 20
3687.012867270363
 30
0.0
 11
5571.986932052433
 21
3760.573734567095
 31
0.0
  0
LINE
  5
56D
330
6C
100
AcDbEntity
  8
Visible (ISO)
100
AcDbLine
 10
5561.986932052433
 20
3687.012867270363
 30
0.0
 11
5571.986932052433
 21
3687.012867270363
 31
0.0
  0
LINE
  5
56E
330
6C
100
AcDbEntity
  8
Visible (ISO)
100
AcDbLine
 10
5571.986932052433
 20
3760.573734567095
 30
0.0
 11
5561.986932052433
 21
3767.012867270363
 31
0.0
  0
LINE
  5
56F
330
6C
100
AcDbEntity
  8
Visible (ISO)
100
AcDbLine
 10
5561.986932052433
 20
3767.012867270363
 30
0.0
 11
5561.986932052433
 21
3687.012867270363
 31
0.0
  0
LINE
  5
570
330
6C
100
AcDbEntity
  8
Visible (ISO)
100
AcDbLine
 10
5571.986932052433
 20
3785.150495644295
 30
0.0
 11
5561.986932052433
 21
3792.012867270363
 31
0.0
  0
LINE
  5
571
330
6C
100
AcDbEntity
  8
Visible (ISO)
100
AcDbLine
 10
5561.986932052433
 20
3792.012867270363
 30
0.0
 11
5561.986932052433
 21
3767.012867270363
 31
0.0
  0
LINE
  5
572
330
6C
100
AcDbEntity
  8
Visible (ISO)
100
AcDbLine
 10
5571.986932052433
 20
4076.592102602969
 30
0.0
 11
5564.334208889071
 21
4084.56682531798
 31
0.0
  0
LINE
  5
573
330
6C
100
AcDbEntity
  8
Visible (ISO)
100
AcDbLine
 10
5561.986932052433
 20
4084.56682531798
 30
0.0
 11
5561.986932052433
 21
3792.012867270363
 31
0.0
  0
LINE
  5
574
330
6C
100
AcDbEntity
  8
Visible (ISO)
100
AcDbLine
 10
5501.986932052434
 20
3687.012867270363
 30
0.0
 11
5561.986932052433
 21
3687.012867270363
 31
0.0
  0
LINE
  5
575
330
6C
100
AcDbEntity
  8
Visible (ISO)
100
AcDbLine
 10
5501.986932052434
 20
3767.012867270363
 30
0.0
 11
5561.986932052433
 21
3767.012867270363
 31
0.0
  0
LINE
  5
576
330
6C
100
AcDbEntity
  8
Visible (ISO)
100
AcDbLine
 10
5501.986932052434
 20
3792.012867270363
 30
0.0
 11
5561.986932052433
 21
3792.012867270363
 31
0.0
  0
LINE
  5
577
330
6C
100
AcDbEntity
  8
Visible (ISO)
100
AcDbLine
 10
4268.566657052432
 20
4039.56681378191
 30
0.0
 11
4268.566657052432
 21
4049.566813781909
 31
0.0
  0
LINE
  5
578
330
6C
100
AcDbEntity
  8
Visible (ISO)
100
AcDbLine
 10
4269.486932052433
 20
4048.646638781909
 30
0.0
 11
4269.486932052433
 21
4040.48698878191
 31
0.0
  0
LINE
  5
579
330
6C
100
AcDbEntity
  8
Visible (ISO)
100
AcDbLine
 10
4269.486932052433
 20
4040.48698878191
 30
0.0
 11
4268.566657052432
 21
4039.56681378191
 31
0.0
  0
LINE
  5
57A
330
6C
100
AcDbEntity
  8
Visible (ISO)
100
AcDbLine
 10
4269.486932052433
 20
4048.646638781909
 30
0.0
 11
4268.566657052432
 21
4049.566813781909
 31
0.0
  0
SPLINE
  5
57B
330
6C
100
AcDbEntity
  8
Visible (ISO)
100
AcDbSpline
210
0.0
220
0.0
230
1.0
 70
    12
 71
     2
 72
     6
 73
     3
 74
     0
 42
0.0000000001
 43
0.0000000001
 40
0.0
 40
0.0
 40
0.0
 40
0.4978532609589533
 40
0.4978532609589533
 40
0.4978532609589533
 10
4163.846021430987
 20
4053.066813781909
 30
0.0
 41
1.0
 10
4163.086832052433
 20
4050.789245646245
 30
0.0
 41
1.037954849302014
 10
4163.086832052433
 20
4048.816813781909
 30
0.0
 41
1.0
  0
SPLINE
  5
57C
330
6C
100
AcDbEntity
  8
Visible (ISO)
100
AcDbSpline
210
0.0
220
0.0
230
1.0
 70
    28
 71
     2
 72
     6
 73
     3
 74
     0
 42
0.0000000001
 43
0.0000000001
 40
0.4978532609589536
 40
0.4978532609589536
 40
0.4978532609589536
 40
0.9957065219179071
 40
0.9957065219179071
 40
0.9957065219179071
 10
4163.086832052433
 20
4053.066813781909
 30
0.0
 41
1.0
 10
4163.086832052433
 20
4053.066813781909
 30
0.0
 41
1.037954849302056
 10
4163.846021430987
 20
4053.066813781909
 30
0.0
 41
1.0
  0
LINE
  5
57D
330
6C
100
AcDbEntity
  8
Visible (ISO)
100
AcDbLine
 10
4163.086832052433
 20
4053.066813781909
 30
0.0
 11
4163.086832052433
 21
4048.816813781909
 31
0.0
  0
SPLINE
  5
57E
330
6C
100
AcDbEntity
  8
Visible (ISO)
100
AcDbSpline
210
0.0
220
0.0
230
1.0
 70
    12
 71
     2
 72
     6
 73
     3
 74
     0
 42
0.0000000001
 43
0.0000000001
 40
0.0
 40
0.0
 40
0.0
 40
0.4978532609589534
 40
0.4978532609589534
 40
0.4978532609589534
 10
4163.846021430987
 20
4044.566813781909
 30
0.0
 41
1.0
 10
4163.086832052433
 20
4042.289245646244
 30
0.0
 41
1.037954849302042
 10
4163.086832052433
 20
4040.31681378191
 30
0.0
 41
1.0
  0
SPLINE
  5
57F
330
6C
100
AcDbEntity
  8
Visible (ISO)
100
AcDbSpline
210
0.0
220
0.0
230
1.0
 70
    12
 71
     2
 72
     6
 73
     3
 74
     0
 42
0.0000000001
 43
0.0000000001
 40
0.4978532609589533
 40
0.4978532609589533
 40
0.4978532609589533
 40
0.9957065219179066
 40
0.9957065219179066
 40
0.9957065219179066
 10
4163.086832052433
 20
4048.816813781909
 30
0.0
 41
1.0
 10
4163.086832052433
 20
4046.844381917574
 30
0.0
 41
1.037954849302044
 10
4163.846021430987
 20
4044.566813781909
 30
0.0
 41
1.0
  0
LINE
  5
580
330
6C
100
AcDbEntity
  8
Visible (ISO)
100
AcDbLine
 10
4163.086832052433
 20
4048.816813781909
 30
0.0
 11
4163.086832052433
 21
4040.31681378191
 31
0.0
  0
SPLINE
  5
581
330
6C
100
AcDbEntity
  8
Visible (ISO)
100
AcDbSpline
210
0.0
220
0.0
230
1.0
 70
    28
 71
     2
 72
     6
 73
     3
 74
     0
 42
0.0000000001
 43
0.0000000001
 40
0.0
 40
0.0
 40
0.0
 40
0.4978532609589534
 40
0.4978532609589534
 40
0.4978532609589534
 10
4163.846021430987
 20
4036.06681378191
 30
0.0
 41
1.0
 10
4163.086832052433
 20
4036.06681378191
 30
0.0
 41
1.037954849302043
 10
4163.086832052433
 20
4036.06681378191
 30
0.0
 41
1.0
  0
SPLINE
  5
582
330
6C
100
AcDbEntity
  8
Visible (ISO)
100
AcDbSpline
210
0.0
220
0.0
230
1.0
 70
    12
 71
     2
 72
     6
 73
     3
 74
     0
 42
0.0000000001
 43
0.0000000001
 40
0.4978532609589534
 40
0.4978532609589534
 40
0.4978532609589534
 40
0.9957065219179067
 40
0.9957065219179067
 40
0.9957065219179067
 10
4163.086832052433
 20
4040.31681378191
 30
0.0
 41
1.0
 10
4163.086832052433
 20
4038.344381917574
 30
0.0
 41
1.037954849302043
 10
4163.846021430987
 20
4036.06681378191
 30
0.0
 41
1.0
  0
LINE
  5
583
330
6C
100
AcDbEntity
  8
Visible (ISO)
100
AcDbLine
 10
4163.086832052433
 20
4040.31681378191
 30
0.0
 11
4163.086832052433
 21
4036.06681378191
 31
0.0
  0
LINE
  5
584
330
6C
100
AcDbEntity
  8
Visible (ISO)
100
AcDbLine
 10
4168.886832052432
 20
4036.06681378191
 30
0.0
 11
4163.846021430987
 21
4036.06681378191
 31
0.0
  0
LINE
  5
585
330
6C
100
AcDbEntity
  8
Visible (ISO)
100
AcDbLine
 10
4168.886832052432
 20
4053.066813781909
 30
0.0
 11
4168.886832052432
 21
4044.566813781909
 31
0.0
  0
LINE
  5
586
330
6C
100
AcDbEntity
  8
Visible (ISO)
100
AcDbLine
 10
4168.886832052432
 20
4044.566813781909
 30
0.0
 11
4168.886832052432
 21
4036.06681378191
 31
0.0
  0
LINE
  5
587
330
6C
100
AcDbEntity
  8
Visible (ISO)
100
AcDbLine
 10
4168.886832052432
 20
4053.066813781909
 30
0.0
 11
4163.846021430987
 21
4053.066813781909
 31
0.0
  0
LINE
  5
588
330
6C
100
AcDbEntity
  8
Visible (ISO)
100
AcDbLine
 10
4168.886832052432
 20
4044.566813781909
 30
0.0
 11
4163.846021430987
 21
4044.566813781909
 31
0.0
  0
LINE
  5
589
330
6C
100
AcDbEntity
  8
Visible (ISO)
100
AcDbLine
 10
4266.986932052433
 20
4049.566813781909
 30
0.0
 11
4268.566657052432
 21
4049.566813781909
 31
0.0
  0
LINE
  5
58A
330
6C
100
AcDbEntity
  8
Visible (ISO)
100
AcDbLine
 10
4266.986932052433
 20
4039.56681378191
 30
0.0
 11
4268.566657052432
 21
4039.56681378191
 31
0.0
  0
LINE
  5
58B
330
6C
100
AcDbEntity
  8
Visible (ISO)
100
AcDbLine
 10
4168.886832052432
 20
4052.36681378191
 30
0.0
 11
4169.486932052432
 21
4052.36681378191
 31
0.0
  0
LINE
  5
58C
330
6C
100
AcDbEntity
  8
Visible (ISO)
100
AcDbLine
 10
4168.886832052432
 20
4036.766813781909
 30
0.0
 11
4169.486932052432
 21
4036.766813781909
 31
0.0
  0
LINE
  5
58D
330
6C
100
AcDbEntity
  8
Visible (ISO)
100
AcDbLine
 10
5475.407207052433
 20
4049.56681378191
 30
0.0
 11
5475.407207052433
 21
4039.56681378191
 31
0.0
  0
LINE
  5
58E
330
6C
100
AcDbEntity
  8
Visible (ISO)
100
AcDbLine
 10
5474.486932052433
 20
4040.48698878191
 30
0.0
 11
5474.486932052433
 21
4048.64663878191
 31
0.0
  0
LINE
  5
58F
330
6C
100
AcDbEntity
  8
Visible (ISO)
100
AcDbLine
 10
5474.486932052433
 20
4048.64663878191
 30
0.0
 11
5475.407207052433
 21
4049.56681378191
 31
0.0
  0
LINE
  5
590
330
6C
100
AcDbEntity
  8
Visible (ISO)
100
AcDbLine
 10
5474.486932052433
 20
4040.48698878191
 30
0.0
 11
5475.407207052433
 21
4039.56681378191
 31
0.0
  0
SPLINE
  5
591
330
6C
100
AcDbEntity
  8
Visible (ISO)
100
AcDbSpline
210
0.0
220
0.0
230
1.0
 70
    12
 71
     2
 72
     6
 73
     3
 74
     0
 42
0.0000000001
 43
0.0000000001
 40
0.0
 40
0.0
 40
0.0
 40
0.4978532609589533
 40
0.4978532609589533
 40
0.4978532609589533
 10
5580.127842673878
 20
4036.06681378191
 30
0.0
 41
1.0
 10
5580.887032052433
 20
4038.344381917575
 30
0.0
 41
1.037954849302014
 10
5580.887032052433
 20
4040.31681378191
 30
0.0
 41
1.0
  0
SPLINE
  5
592
330
6C
100
AcDbEntity
  8
Visible (ISO)
100
AcDbSpline
210
0.0
220
0.0
230
1.0
 70
    28
 71
     2
 72
     6
 73
     3
 74
     0
 42
0.0000000001
 43
0.0000000001
 40
0.4978532609589536
 40
0.4978532609589536
 40
0.4978532609589536
 40
0.9957065219179071
 40
0.9957065219179071
 40
0.9957065219179071
 10
5580.887032052433
 20
4036.06681378191
 30
0.0
 41
1.0
 10
5580.887032052433
 20
4036.06681378191
 30
0.0
 41
1.037954849302056
 10
5580.127842673878
 20
4036.06681378191
 30
0.0
 41
1.0
  0
LINE
  5
593
330
6C
100
AcDbEntity
  8
Visible (ISO)
100
AcDbLine
 10
5580.887032052433
 20
4036.06681378191
 30
0.0
 11
5580.887032052433
 21
4040.31681378191
 31
0.0
  0
SPLINE
  5
594
330
6C
100
AcDbEntity
  8
Visible (ISO)
100
AcDbSpline
210
0.0
220
0.0
230
1.0
 70
    12
 71
     2
 72
     6
 73
     3
 74
     0
 42
0.0000000001
 43
0.0000000001
 40
0.0
 40
0.0
 40
0.0
 40
0.4978532609589534
 40
0.4978532609589534
 40
0.4978532609589534
 10
5580.127842673878
 20
4044.566813781909
 30
0.0
 41
1.0
 10
5580.887032052433
 20
4046.844381917575
 30
0.0
 41
1.037954849302042
 10
5580.887032052433
 20
4048.816813781909
 30
0.0
 41
1.0
  0
SPLINE
  5
595
330
6C
100
AcDbEntity
  8
Visible (ISO)
100
AcDbSpline
210
0.0
220
0.0
230
1.0
 70
    12
 71
     2
 72
     6
 73
     3
 74
     0
 42
0.0000000001
 43
0.0000000001
 40
0.4978532609589533
 40
0.4978532609589533
 40
0.4978532609589533
 40
0.9957065219179066
 40
0.9957065219179066
 40
0.9957065219179066
 10
5580.887032052433
 20
4040.31681378191
 30
0.0
 41
1.0
 10
5580.887032052433
 20
4042.289245646244
 30
0.0
 41
1.037954849302044
 10
5580.127842673878
 20
4044.566813781909
 30
0.0
 41
1.0
  0
LINE
  5
596
330
6C
100
AcDbEntity
  8
Visible (ISO)
100
AcDbLine
 10
5580.887032052433
 20
4040.31681378191
 30
0.0
 11
5580.887032052433
 21
4048.816813781909
 31
0.0
  0
SPLINE
  5
597
330
6C
100
AcDbEntity
  8
Visible (ISO)
100
AcDbSpline
210
0.0
220
0.0
230
1.0
 70
    28
 71
     2
 72
     6
 73
     3
 74
     0
 42
0.0000000001
 43
0.0000000001
 40
0.0
 40
0.0
 40
0.0
 40
0.4978532609589534
 40
0.4978532609589534
 40
0.4978532609589534
 10
5580.127842673878
 20
4053.066813781909
 30
0.0
 41
1.0
 10
5580.887032052433
 20
4053.066813781909
 30
0.0
 41
1.037954849302043
 10
5580.887032052433
 20
4053.066813781909
 30
0.0
 41
1.0
  0
SPLINE
  5
598
330
6C
100
AcDbEntity
  8
Visible (ISO)
100
AcDbSpline
210
0.0
220
0.0
230
1.0
 70
    12
 71
     2
 72
     6
 73
     3
 74
     0
 42
0.0000000001
 43
0.0000000001
 40
0.4978532609589534
 40
0.4978532609589534
 40
0.4978532609589534
 40
0.9957065219179067
 40
0.9957065219179067
 40
0.9957065219179067
 10
5580.887032052433
 20
4048.816813781909
 30
0.0
 41
1.0
 10
5580.887032052433
 20
4050.789245646245
 30
0.0
 41
1.037954849302043
 10
5580.127842673878
 20
4053.066813781909
 30
0.0
 41
1.0
  0
LINE
  5
599
330
6C
100
AcDbEntity
  8
Visible (ISO)
100
AcDbLine
 10
5580.887032052433
 20
4048.816813781909
 30
0.0
 11
5580.887032052433
 21
4053.066813781909
 31
0.0
  0
LINE
  5
59A
330
6C
100
AcDbEntity
  8
Visible (ISO)
100
AcDbLine
 10
5575.087032052433
 20
4053.066813781909
 30
0.0
 11
5580.127842673878
 21
4053.066813781909
 31
0.0
  0
LINE
  5
59B
330
6C
100
AcDbEntity
  8
Visible (ISO)
100
AcDbLine
 10
5575.087032052433
 20
4036.06681378191
 30
0.0
 11
5575.087032052433
 21
4044.566813781909
 31
0.0
  0
LINE
  5
59C
330
6C
100
AcDbEntity
  8
Visible (ISO)
100
AcDbLine
 10
5575.087032052433
 20
4044.566813781909
 30
0.0
 11
5575.087032052433
 21
4053.066813781909
 31
0.0
  0
LINE
  5
59D
330
6C
100
AcDbEntity
  8
Visible (ISO)
100
AcDbLine
 10
5575.087032052433
 20
4036.06681378191
 30
0.0
 11
5580.127842673878
 21
4036.06681378191
 31
0.0
  0
LINE
  5
59E
330
6C
100
AcDbEntity
  8
Visible (ISO)
100
AcDbLine
 10
5575.087032052433
 20
4044.566813781909
 30
0.0
 11
5580.127842673878
 21
4044.566813781909
 31
0.0
  0
LINE
  5
59F
330
6C
100
AcDbEntity
  8
Visible (ISO)
100
AcDbLine
 10
5476.986932052433
 20
4039.56681378191
 30
0.0
 11
5475.407207052433
 21
4039.56681378191
 31
0.0
  0
LINE
  5
5A0
330
6C
100
AcDbEntity
  8
Visible (ISO)
100
AcDbLine
 10
5476.986932052433
 20
4049.56681378191
 30
0.0
 11
5475.407207052433
 21
4049.56681378191
 31
0.0
  0
LINE
  5
5A1
330
6C
100
AcDbEntity
  8
Visible (ISO)
100
AcDbLine
 10
5575.087032052433
 20
4036.766813781909
 30
0.0
 11
5574.486932052433
 21
4036.766813781909
 31
0.0
  0
LINE
  5
5A2
330
6C
100
AcDbEntity
  8
Visible (ISO)
100
AcDbLine
 10
5575.087032052433
 20
4052.36681378191
 30
0.0
 11
5574.486932052433
 21
4052.36681378191
 31
0.0
  0
LINE
  5
5A3
330
6C
100
AcDbEntity
  8
Visible (ISO)
100
AcDbLine
 10
4169.486932052432
 20
4029.56681378191
 30
0.0
 11
4169.486932052432
 21
4059.566813781909
 31
0.0
  0
LINE
  5
5A4
330
6C
100
AcDbEntity
  8
Visible (ISO)
100
AcDbLine
 10
4171.986932052432
 20
4029.56681378191
 30
0.0
 11
4169.486932052432
 21
4029.56681378191
 31
0.0
  0
LINE
  5
5A5
330
6C
100
AcDbEntity
  8
Visible (ISO)
100
AcDbLine
 10
4171.986932052432
 20
4059.566813781909
 30
0.0
 11
4169.486932052432
 21
4059.566813781909
 31
0.0
  0
LINE
  5
5A6
330
6C
100
AcDbEntity
  8
Visible (ISO)
100
AcDbLine
 10
5574.486932052433
 20
4059.566813781909
 30
0.0
 11
5574.486932052433
 21
4029.56681378191
 31
0.0
  0
LINE
  5
5A7
330
6C
100
AcDbEntity
  8
Visible (ISO)
100
AcDbLine
 10
5571.986932052433
 20
4059.566813781909
 30
0.0
 11
5574.486932052433
 21
4059.566813781909
 31
0.0
  0
LINE
  5
5A8
330
6C
100
AcDbEntity
  8
Visible (ISO)
100
AcDbLine
 10
5571.986932052433
 20
4029.56681378191
 30
0.0
 11
5574.486932052433
 21
4029.56681378191
 31
0.0
  0
LINE
  5
66B
330
6C
100
AcDbEntity
  8
Visible (ISO)
100
AcDbLine
 10
6544.493451736108
 20
3770.012867270363
 30
0.0
 11
6544.493451736108
 21
3853.012867270363
 31
0.0
  0
LINE
  5
66C
330
6C
100
AcDbEntity
  8
Visible (ISO)
100
AcDbLine
 10
6544.493451736108
 20
3770.012867270363
 30
0.0
 11
6534.493451736108
 21
3760.012867270363
 31
0.0
  0
LINE
  5
66D
330
6C
100
AcDbEntity
  8
Visible (ISO)
100
AcDbLine
 10
6462.493451736107
 20
3853.012867270363
 30
0.0
 11
6462.493451736107
 21
3770.012867270363
 31
0.0
  0
LINE
  5
66E
330
6C
100
AcDbEntity
  8
Visible (ISO)
100
AcDbLine
 10
6472.493451736108
 20
3760.012867270363
 30
0.0
 11
6534.493451736108
 21
3760.012867270363
 31
0.0
  0
LINE
  5
66F
330
6C
100
AcDbEntity
  8
Visible (ISO)
100
AcDbLine
 10
6472.493451736108
 20
3760.012867270363
 30
0.0
 11
6462.493451736107
 21
3770.012867270363
 31
0.0
  0
LINE
  5
670
330
6C
100
AcDbEntity
  8
Visible (ISO)
100
AcDbLine
 10
6534.493451736108
 20
3760.012867270363
 30
0.0
 11
6534.493451736103
 21
3770.012867270363
 31
0.0
  0
LINE
  5
671
330
6C
100
AcDbEntity
  8
Visible (ISO)
100
AcDbLine
 10
6534.493451736103
 20
3770.012867270363
 30
0.0
 11
6544.493451736108
 21
3770.012867270363
 31
0.0
  0
LINE
  5
672
330
6C
100
AcDbEntity
  8
Visible (ISO)
100
AcDbLine
 10
6462.493451736107
 20
3770.012867270363
 30
0.0
 11
6472.493451736105
 21
3770.012867270363
 31
0.0
  0
LINE
  5
673
330
6C
100
AcDbEntity
  8
Visible (ISO)
100
AcDbLine
 10
6472.493451736105
 20
3770.012867270363
 30
0.0
 11
6472.493451736108
 21
3760.012867270363
 31
0.0
  0
LINE
  5
674
330
6C
100
AcDbEntity
  8
Visible (ISO)
100
AcDbLine
 10
6534.493451736103
 20
3770.012867270363
 30
0.0
 11
6472.493451736105
 21
3770.012867270363
 31
0.0
  0
LINE
  5
675
330
6C
100
AcDbEntity
  8
Visible (ISO)
100
AcDbLine
 10
6544.493451736108
 20
3853.012867270363
 30
0.0
 11
6534.493451736103
 21
3853.012867270363
 31
0.0
  0
LINE
  5
676
330
6C
100
AcDbEntity
  8
Visible (ISO)
100
AcDbLine
 10
6534.493451736108
 20
3863.012867270363
 30
0.0
 11
6544.493451736108
 21
3853.012867270363
 31
0.0
  0
LINE
  5
677
330
6C
100
AcDbEntity
  8
Visible (ISO)
100
AcDbLine
 10
6534.493451736103
 20
3853.012867270363
 30
0.0
 11
6534.493451736108
 21
3863.012867270363
 31
0.0
  0
LINE
  5
678
330
6C
100
AcDbEntity
  8
Visible (ISO)
100
AcDbLine
 10
6472.493451736108
 20
3863.012867270363
 30
0.0
 11
6472.493451736105
 21
3853.012867270363
 31
0.0
  0
LINE
  5
679
330
6C
100
AcDbEntity
  8
Visible (ISO)
100
AcDbLine
 10
6462.493451736107
 20
3853.012867270363
 30
0.0
 11
6472.493451736108
 21
3863.012867270363
 31
0.0
  0
LINE
  5
67A
330
6C
100
AcDbEntity
  8
Visible (ISO)
100
AcDbLine
 10
6472.493451736105
 20
3853.012867270363
 30
0.0
 11
6462.493451736107
 21
3853.012867270363
 31
0.0
  0
LINE
  5
67B
330
6C
100
AcDbEntity
  8
Visible (ISO)
100
AcDbLine
 10
6472.493451736105
 20
3770.012867270363
 30
0.0
 11
6472.493451736105
 21
3853.012867270363
 31
0.0
  0
LINE
  5
67C
330
6C
100
AcDbEntity
  8
Visible (ISO)
100
AcDbLine
 10
6534.493451736108
 20
3863.012867270363
 30
0.0
 11
6472.493451736108
 21
3863.012867270363
 31
0.0
  0
LINE
  5
67D
330
6C
100
AcDbEntity
  8
Visible (ISO)
100
AcDbLine
 10
6472.493451736105
 20
3853.012867270363
 30
0.0
 11
6534.493451736103
 21
3853.012867270363
 31
0.0
  0
LINE
  5
67E
330
6C
100
AcDbEntity
  8
Visible (ISO)
100
AcDbLine
 10
6534.493451736103
 20
3853.012867270363
 30
0.0
 11
6534.493451736103
 21
3770.012867270363
 31
0.0
  0
LINE
  5
67F
330
6C
100
AcDbEntity
  8
Visible (ISO)
100
AcDbLine
 10
6635.060732419749
 20
4043.960693900017
 30
0.0
 11
6663.493451736137
 21
4084.566825317976
 31
0.0
  0
LINE
  5
680
330
6C
100
AcDbEntity
  8
Visible (ISO)
100
AcDbLine
 10
6514.243451736139
 20
4084.566825317976
 30
0.0
 11
6492.743451736139
 21
4084.566825317976
 31
0.0
  0
LINE
  5
681
330
6C
100
AcDbEntity
  8
Visible (ISO)
100
AcDbLine
 10
6371.926171052526
 20
4043.960693900018
 30
0.0
 11
6343.493451736138
 21
4084.566825317976
 31
0.0
  0
LINE
  5
682
330
6C
100
AcDbEntity
  8
Visible (ISO)
100
AcDbLine
 10
6356.168451736148
 20
4124.468726519927
 30
0.0
 11
6380.818451736146
 21
4124.468726519927
 31
0.0
  0
ARC
  5
683
330
6C
100
AcDbEntity
  8
Visible (ISO)
100
AcDbCircle
 10
6368.493451736147
 20
4109.746825317976
 30
0.0
 40
19.2
100
AcDbArc
 50
50.06433219879006
 51
129.9356678012099
  0
LINE
  5
684
330
6C
100
AcDbEntity
  8
Visible (ISO)
100
AcDbLine
 10
6380.818451736146
 20
4124.468726519927
 30
0.0
 11
6380.818451736146
 21
4123.566825317976
 31
0.0
  0
LINE
  5
685
330
6C
100
AcDbEntity
  8
Visible (ISO)
100
AcDbLine
 10
6356.168451736148
 20
4124.468726519927
 30
0.0
 11
6356.168451736148
 21
4123.566825317976
 31
0.0
  0
LINE
  5
686
330
6C
100
AcDbEntity
  8
Visible (ISO)
100
AcDbLine
 10
6446.168451736148
 20
4124.468726519927
 30
0.0
 11
6470.818451736147
 21
4124.468726519927
 31
0.0
  0
ARC
  5
687
330
6C
100
AcDbEntity
  8
Visible (ISO)
100
AcDbCircle
 10
6458.493451736147
 20
4109.746825317976
 30
0.0
 40
19.2
100
AcDbArc
 50
50.06433219879006
 51
129.9356678012099
  0
LINE
  5
688
330
6C
100
AcDbEntity
  8
Visible (ISO)
100
AcDbLine
 10
6470.818451736147
 20
4124.468726519927
 30
0.0
 11
6470.818451736147
 21
4123.566825317976
 31
0.0
  0
LINE
  5
689
330
6C
100
AcDbEntity
  8
Visible (ISO)
100
AcDbLine
 10
6446.168451736148
 20
4124.468726519927
 30
0.0
 11
6446.168451736148
 21
4123.566825317976
 31
0.0
  0
LINE
  5
68A
330
6C
100
AcDbEntity
  8
Visible (ISO)
100
AcDbLine
 10
6536.168451736147
 20
4124.468726519927
 30
0.0
 11
6560.818451736146
 21
4124.468726519927
 31
0.0
  0
ARC
  5
68B
330
6C
100
AcDbEntity
  8
Visible (ISO)
100
AcDbCircle
 10
6548.493451736146
 20
4109.746825317976
 30
0.0
 40
19.2
100
AcDbArc
 50
50.06433219879006
 51
129.9356678012099
  0
LINE
  5
68C
330
6C
100
AcDbEntity
  8
Visible (ISO)
100
AcDbLine
 10
6560.818451736146
 20
4124.468726519927
 30
0.0
 11
6560.818451736146
 21
4123.566825317976
 31
0.0
  0
LINE
  5
68D
330
6C
100
AcDbEntity
  8
Visible (ISO)
100
AcDbLine
 10
6536.168451736147
 20
4124.468726519927
 30
0.0
 11
6536.168451736147
 21
4123.566825317976
 31
0.0
  0
LINE
  5
68E
330
6C
100
AcDbEntity
  8
Visible (ISO)
100
AcDbLine
 10
6626.168451736147
 20
4124.468726519927
 30
0.0
 11
6650.818451736147
 21
4124.468726519927
 31
0.0
  0
ARC
  5
68F
330
6C
100
AcDbEntity
  8
Visible (ISO)
100
AcDbCircle
 10
6638.493451736147
 20
4109.746825317976
 30
0.0
 40
19.2
100
AcDbArc
 50
50.06433219879006
 51
129.9356678012099
  0
LINE
  5
690
330
6C
100
AcDbEntity
  8
Visible (ISO)
100
AcDbLine
 10
6650.818451736147
 20
4124.468726519927
 30
0.0
 11
6650.818451736147
 21
4123.566825317976
 31
0.0
  0
LINE
  5
691
330
6C
100
AcDbEntity
  8
Visible (ISO)
100
AcDbLine
 10
6626.168451736147
 20
4124.468726519927
 30
0.0
 11
6626.168451736147
 21
4123.566825317976
 31
0.0
  0
LINE
  5
692
330
6C
100
AcDbEntity
  8
Visible (ISO)
100
AcDbLine
 10
6392.743451736055
 20
4123.566825317975
 30
0.0
 11
6402.743451736056
 21
4117.566825317974
 31
0.0
  0
LINE
  5
693
330
6C
100
AcDbEntity
  8
Visible (ISO)
100
AcDbLine
 10
6344.243451736056
 20
4123.566825317975
 30
0.0
 11
6392.743451736055
 21
4123.566825317975
 31
0.0
  0
LINE
  5
694
330
6C
100
AcDbEntity
  8
Visible (ISO)
100
AcDbLine
 10
6334.243451736057
 20
4084.566825317974
 30
0.0
 11
6334.243451736057
 21
4117.566825317974
 31
0.0
  0
LINE
  5
695
330
6C
100
AcDbEntity
  8
Visible (ISO)
100
AcDbLine
 10
6402.743451736056
 20
4117.566825317974
 30
0.0
 11
6402.743451736056
 21
4084.566825317974
 31
0.0
  0
LINE
  5
696
330
6C
100
AcDbEntity
  8
Visible (ISO)
100
AcDbLine
 10
6402.743451736056
 20
4084.566825317974
 30
0.0
 11
6334.243451736057
 21
4084.566825317974
 31
0.0
  0
LINE
  5
697
330
6C
100
AcDbEntity
  8
Visible (ISO)
100
AcDbLine
 10
6334.243451736057
 20
4117.566825317974
 30
0.0
 11
6344.243451736056
 21
4123.566825317975
 31
0.0
  0
LINE
  5
698
330
6C
100
AcDbEntity
  8
Visible (ISO)
100
AcDbLine
 10
6482.743451736055
 20
4123.566825317975
 30
0.0
 11
6492.743451736055
 21
4117.566825317974
 31
0.0
  0
LINE
  5
699
330
6C
100
AcDbEntity
  8
Visible (ISO)
100
AcDbLine
 10
6434.243451736056
 20
4123.566825317975
 30
0.0
 11
6482.743451736055
 21
4123.566825317975
 31
0.0
  0
LINE
  5
69A
330
6C
100
AcDbEntity
  8
Visible (ISO)
100
AcDbLine
 10
6424.243451736057
 20
4084.566825317974
 30
0.0
 11
6424.243451736057
 21
4117.566825317974
 31
0.0
  0
LINE
  5
69B
330
6C
100
AcDbEntity
  8
Visible (ISO)
100
AcDbLine
 10
6492.743451736055
 20
4117.566825317974
 30
0.0
 11
6492.743451736057
 21
4084.566825317974
 31
0.0
  0
LINE
  5
69C
330
6C
100
AcDbEntity
  8
Visible (ISO)
100
AcDbLine
 10
6492.743451736057
 20
4084.566825317974
 30
0.0
 11
6424.243451736057
 21
4084.566825317974
 31
0.0
  0
LINE
  5
69D
330
6C
100
AcDbEntity
  8
Visible (ISO)
100
AcDbLine
 10
6424.243451736057
 20
4117.566825317974
 30
0.0
 11
6434.243451736056
 21
4123.566825317975
 31
0.0
  0
LINE
  5
69E
330
6C
100
AcDbEntity
  8
Visible (ISO)
100
AcDbLine
 10
6572.743451736056
 20
4123.566825317975
 30
0.0
 11
6582.743451736056
 21
4117.566825317974
 31
0.0
  0
LINE
  5
69F
330
6C
100
AcDbEntity
  8
Visible (ISO)
100
AcDbLine
 10
6524.243451736056
 20
4123.566825317975
 30
0.0
 11
6572.743451736056
 21
4123.566825317975
 31
0.0
  0
LINE
  5
6A0
330
6C
100
AcDbEntity
  8
Visible (ISO)
100
AcDbLine
 10
6514.243451736057
 20
4084.566825317974
 30
0.0
 11
6514.243451736057
 21
4117.566825317974
 31
0.0
  0
LINE
  5
6A1
330
6C
100
AcDbEntity
  8
Visible (ISO)
100
AcDbLine
 10
6582.743451736056
 20
4117.566825317974
 30
0.0
 11
6582.743451736057
 21
4084.566825317974
 31
0.0
  0
LINE
  5
6A2
330
6C
100
AcDbEntity
  8
Visible (ISO)
100
AcDbLine
 10
6582.743451736057
 20
4084.566825317974
 30
0.0
 11
6514.243451736057
 21
4084.566825317974
 31
0.0
  0
LINE
  5
6A3
330
6C
100
AcDbEntity
  8
Visible (ISO)
100
AcDbLine
 10
6514.243451736057
 20
4117.566825317974
 30
0.0
 11
6524.243451736056
 21
4123.566825317975
 31
0.0
  0
LINE
  5
6A4
330
6C
100
AcDbEntity
  8
Visible (ISO)
100
AcDbLine
 10
6662.743451736055
 20
4123.566825317975
 30
0.0
 11
6672.743451736057
 21
4117.566825317974
 31
0.0
  0
LINE
  5
6A5
330
6C
100
AcDbEntity
  8
Visible (ISO)
100
AcDbLine
 10
6614.243451736055
 20
4123.566825317975
 30
0.0
 11
6662.743451736055
 21
4123.566825317975
 31
0.0
  0
LINE
  5
6A6
330
6C
100
AcDbEntity
  8
Visible (ISO)
100
AcDbLine
 10
6604.243451736056
 20
4084.566825317974
 30
0.0
 11
6604.243451736056
 21
4117.566825317974
 31
0.0
  0
LINE
  5
6A7
330
6C
100
AcDbEntity
  8
Visible (ISO)
100
AcDbLine
 10
6672.743451736057
 20
4117.566825317974
 30
0.0
 11
6672.743451736057
 21
4084.566825317974
 31
0.0
  0
LINE
  5
6A8
330
6C
100
AcDbEntity
  8
Visible (ISO)
100
AcDbLine
 10
6672.743451736057
 20
4084.566825317974
 30
0.0
 11
6604.243451736056
 21
4084.566825317974
 31
0.0
  0
LINE
  5
6A9
330
6C
100
AcDbEntity
  8
Visible (ISO)
100
AcDbLine
 10
6604.243451736056
 20
4117.566825317974
 30
0.0
 11
6614.243451736055
 21
4123.566825317975
 31
0.0
  0
SPLINE
  5
6AA
330
6C
100
AcDbEntity
  8
Visible (ISO)
100
AcDbSpline
210
0.0
220
0.0
230
1.0
 70
    12
 71
     2
 72
     6
 73
     3
 74
     0
 42
0.0000000001
 43
0.0000000001
 40
0.4978532609589537
 40
0.4978532609589537
 40
0.4978532609589537
 40
0.9957065219179071
 40
0.9957065219179071
 40
0.9957065219179071
 10
6510.854667668292
 20
3871.912967270363
 30
0.0
 41
1.0
 10
6509.715883600458
 20
3871.912967270363
 30
0.0
 41
1.037954849302035
 10
6508.400929024235
 20
3871.153777891808
 30
0.0
 41
1.0
  0
LINE
  5
6AB
330
6C
100
AcDbEntity
  8
Visible (ISO)
100
AcDbLine
 10
6510.854667668292
 20
3871.912967270363
 30
0.0
 11
6503.493451736122
 21
3871.912967270363
 31
0.0
  0
SPLINE
  5
6AC
330
6C
100
AcDbEntity
  8
Visible (ISO)
100
AcDbSpline
210
0.0
220
0.0
230
1.0
 70
    12
 71
     2
 72
     6
 73
     3
 74
     0
 42
0.0000000001
 43
0.0000000001
 40
0.0
 40
0.0
 40
0.0
 40
0.4978532609589536
 40
0.4978532609589536
 40
0.4978532609589536
 10
6508.400929024235
 20
3871.153777891808
 30
0.0
 41
1.0
 10
6505.771019871787
 20
3871.912967270363
 30
0.0
 41
1.037954849302054
 10
6503.493451736122
 20
3871.912967270363
 30
0.0
 41
1.0
  0
SPLINE
  5
6AD
330
6C
100
AcDbEntity
  8
Visible (ISO)
100
AcDbSpline
210
0.0
220
0.0
230
1.0
 70
    12
 71
     2
 72
     6
 73
     3
 74
     0
 42
0.0000000001
 43
0.0000000001
 40
0.0
 40
0.0
 40
0.0
 40
0.4978532609589533
 40
0.4978532609589533
 40
0.4978532609589533
 10
6498.585974448011
 20
3871.153777891808
 30
0.0
 41
1.0
 10
6497.271019871788
 20
3871.912967270363
 30
0.0
 41
1.037954849302054
 10
6496.132235803957
 20
3871.912967270363
 30
0.0
 41
1.0
  0
SPLINE
  5
6AE
330
6C
100
AcDbEntity
  8
Visible (ISO)
100
AcDbSpline
210
0.0
220
0.0
230
1.0
 70
    12
 71
     2
 72
     6
 73
     3
 74
     0
 42
0.0000000001
 43
0.0000000001
 40
0.4978532609589536
 40
0.4978532609589536
 40
0.4978532609589536
 40
0.9957065219179071
 40
0.9957065219179071
 40
0.9957065219179071
 10
6503.493451736122
 20
3871.912967270363
 30
0.0
 41
1.0
 10
6501.215883600457
 20
3871.912967270363
 30
0.0
 41
1.037954849302056
 10
6498.585974448011
 20
3871.153777891808
 30
0.0
 41
1.0
  0
LINE
  5
6AF
330
6C
100
AcDbEntity
  8
Visible (ISO)
100
AcDbLine
 10
6503.493451736122
 20
3871.912967270363
 30
0.0
 11
6496.132235803957
 21
3871.912967270363
 31
0.0
  0
LINE
  5
6B0
330
6C
100
AcDbEntity
  8
Visible (ISO)
100
AcDbLine
 10
6511.993451736124
 20
3871.912967270363
 30
0.0
 11
6510.854667668292
 21
3871.912967270363
 31
0.0
  0
SPLINE
  5
6B1
330
6C
100
AcDbEntity
  8
Visible (ISO)
100
AcDbSpline
210
0.0
220
0.0
230
1.0
 70
    12
 71
     2
 72
     6
 73
     3
 74
     0
 42
0.0000000001
 43
0.0000000001
 40
0.0
 40
0.0
 40
0.0
 40
0.4978532609589537
 40
0.4978532609589537
 40
0.4978532609589537
 10
6513.308406312349
 20
3871.153777891808
 30
0.0
 41
1.0
 10
6511.993451736124
 20
3871.912967270363
 30
0.0
 41
1.037954849302049
 10
6510.854667668292
 20
3871.912967270363
 30
0.0
 41
1.0
  0
SPLINE
  5
6B2
330
6C
100
AcDbEntity
  8
Visible (ISO)
100
AcDbSpline
210
0.0
220
0.0
230
1.0
 70
    12
 71
     2
 72
     6
 73
     3
 74
     0
 42
0.0000000001
 43
0.0000000001
 40
0.4978532609589533
 40
0.4978532609589533
 40
0.4978532609589533
 40
0.9957065219179067
 40
0.9957065219179067
 40
0.9957065219179067
 10
6496.132235803957
 20
3871.912967270363
 30
0.0
 41
1.0
 10
6494.993451736124
 20
3871.912967270363
 30
0.0
 41
1.037954849302048
 10
6493.678497159901
 20
3871.153777891808
 30
0.0
 41
1.0
  0
LINE
  5
6B3
330
6C
100
AcDbEntity
  8
Visible (ISO)
100
AcDbLine
 10
6496.132235803955
 20
3871.912967270363
 30
0.0
 11
6494.993451736125
 21
3871.912967270363
 31
0.0
  0
LINE
  5
6B4
330
6C
100
AcDbEntity
  8
Visible (ISO)
100
AcDbLine
 10
6511.993451736124
 20
3871.912967270363
 30
0.0
 11
6513.308406312349
 21
3871.153777891808
 31
0.0
  0
LINE
  5
6B5
330
6C
100
AcDbEntity
  8
Visible (ISO)
100
AcDbLine
 10
6494.993451736125
 20
3871.912967270363
 30
0.0
 11
6493.678497159901
 21
3871.153777891808
 31
0.0
  0
LINE
  5
6B6
330
6C
100
AcDbEntity
  8
Visible (ISO)
100
AcDbLine
 10
6513.308406312349
 20
3866.112967270363
 30
0.0
 11
6513.308406312349
 21
3871.153777891808
 31
0.0
  0
LINE
  5
6B7
330
6C
100
AcDbEntity
  8
Visible (ISO)
100
AcDbLine
 10
6508.400929024235
 20
3866.112967270363
 30
0.0
 11
6508.400929024235
 21
3871.153777891808
 31
0.0
  0
LINE
  5
6B8
330
6C
100
AcDbEntity
  8
Visible (ISO)
100
AcDbLine
 10
6513.308406312349
 20
3866.112967270363
 30
0.0
 11
6508.400929024235
 21
3866.112967270363
 31
0.0
  0
LINE
  5
6B9
330
6C
100
AcDbEntity
  8
Visible (ISO)
100
AcDbLine
 10
6508.400929024235
 20
3866.112967270363
 30
0.0
 11
6498.585974448011
 21
3866.112967270363
 31
0.0
  0
LINE
  5
6BA
330
6C
100
AcDbEntity
  8
Visible (ISO)
100
AcDbLine
 10
6498.585974448011
 20
3866.112967270363
 30
0.0
 11
6493.678497159901
 21
3866.112967270363
 31
0.0
  0
LINE
  5
6BB
330
6C
100
AcDbEntity
  8
Visible (ISO)
100
AcDbLine
 10
6498.585974448011
 20
3866.112967270363
 30
0.0
 11
6498.585974448011
 21
3871.153777891808
 31
0.0
  0
LINE
  5
6BC
330
6C
100
AcDbEntity
  8
Visible (ISO)
100
AcDbLine
 10
6493.678497159901
 20
3866.112967270363
 30
0.0
 11
6493.678497159901
 21
3871.153777891808
 31
0.0
  0
LINE
  5
6BD
330
6C
100
AcDbEntity
  8
Visible (ISO)
100
AcDbLine
 10
6511.293451736126
 20
3866.112967270363
 30
0.0
 11
6511.293451736126
 21
3865.512867270363
 31
0.0
  0
LINE
  5
6BE
330
6C
100
AcDbEntity
  8
Visible (ISO)
100
AcDbLine
 10
6495.693451736125
 20
3866.112967270363
 30
0.0
 11
6495.693451736125
 21
3865.512867270363
 31
0.0
  0
LINE
  5
6BF
330
6C
100
AcDbEntity
  8
Visible (ISO)
100
AcDbLine
 10
6488.493451736125
 20
3865.512867270363
 30
0.0
 11
6518.493451736126
 21
3865.512867270363
 31
0.0
  0
LINE
  5
6C0
330
6C
100
AcDbEntity
  8
Visible (ISO)
100
AcDbLine
 10
6488.493451736125
 20
3863.012867270363
 30
0.0
 11
6488.493451736125
 21
3865.512867270363
 31
0.0
  0
LINE
  5
6C1
330
6C
100
AcDbEntity
  8
Visible (ISO)
100
AcDbLine
 10
6518.493451736126
 20
3863.012867270363
 30
0.0
 11
6518.493451736126
 21
3865.512867270363
 31
0.0
  0
CIRCLE
  5
6C2
330
6C
100
AcDbEntity
  8
Visible (ISO)
100
AcDbCircle
 10
6578.493451736112
 20
4044.566813781909
 30
0.0
 40
15.0
  0
CIRCLE
  5
6C3
330
6C
100
AcDbEntity
  8
Visible (ISO)
100
AcDbCircle
 10
6428.493451736112
 20
4044.566813781909
 30
0.0
 40
15.0
  0
LINE
  5
6C4
330
6C
100
AcDbEntity
  8
Visible (ISO)
100
AcDbLine
 10
6577.626916558248
 20
3823.646332092486
 30
0.0
 11
6545.993451736125
 21
3792.012867270363
 31
0.0
  0
LINE
  5
6C5
330
6C
100
AcDbEntity
  8
Visible (ISO)
100
AcDbLine
 10
6556.344963894211
 20
3963.161355112275
 30
0.0
 11
6577.626916558248
 21
3823.646332092486
 31
0.0
  0
LINE
  5
6C6
330
6C
100
AcDbEntity
  8
Visible (ISO)
100
AcDbLine
 10
6528.493451736125
 20
3991.012867270363
 30
0.0
 11
6556.344963894211
 21
3963.161355112275
 31
0.0
  0
LINE
  5
6C7
330
6C
100
AcDbEntity
  8
Visible (ISO)
100
AcDbLine
 10
6429.359986914002
 20
3823.646332092486
 30
0.0
 11
6460.993451736126
 21
3792.012867270363
 31
0.0
  0
LINE
  5
6C8
330
6C
100
AcDbEntity
  8
Visible (ISO)
100
AcDbLine
 10
6450.641939578038
 20
3963.161355112275
 30
0.0
 11
6429.359986914002
 21
3823.646332092486
 31
0.0
  0
LINE
  5
6C9
330
6C
100
AcDbEntity
  8
Visible (ISO)
100
AcDbLine
 10
6478.493451736125
 20
3991.012867270363
 30
0.0
 11
6450.641939578038
 21
3963.161355112275
 31
0.0
  0
LINE
  5
6CA
330
6C
100
AcDbEntity
  8
Visible (ISO)
100
AcDbLine
 10
6528.493451736125
 20
3991.012867270363
 30
0.0
 11
6478.493451736125
 21
3991.012867270363
 31
0.0
  0
LINE
  5
6CB
330
6C
100
AcDbEntity
  8
Visible (ISO)
100
AcDbLine
 10
6545.993451736113
 20
3772.921625466142
 30
0.0
 11
6545.993451736116
 21
3788.296329424197
 31
0.0
  0
LINE
  5
6CC
330
6C
100
AcDbEntity
  8
Visible (ISO)
100
AcDbLine
 10
6592.002030844866
 20
3818.930204574895
 30
0.0
 11
6545.993451736113
 21
3772.921625466142
 31
0.0
  0
LINE
  5
6CD
330
6C
100
AcDbEntity
  8
Visible (ISO)
100
AcDbLine
 10
6580.425354545515
 20
3822.728232233597
 30
0.0
 11
6592.002030844866
 21
3818.930204574895
 31
0.0
  0
LINE
  5
6CE
330
6C
100
AcDbEntity
  8
Visible (ISO)
100
AcDbLine
 10
6545.993451736116
 20
3788.296329424197
 30
0.0
 11
6580.425354545515
 21
3822.728232233597
 31
0.0
  0
LINE
  5
6CF
330
6C
100
AcDbEntity
  8
Visible (ISO)
100
AcDbLine
 10
6580.425354545515
 20
3822.728232233597
 30
0.0
 11
6558.81288593228
 21
3964.409970920365
 31
0.0
  0
LINE
  5
6D0
330
6C
100
AcDbEntity
  8
Visible (ISO)
100
AcDbLine
 10
6569.022272274498
 20
3969.5752885362
 30
0.0
 11
6592.002030844866
 21
3818.930204574895
 31
0.0
  0
LINE
  5
6D1
330
6C
100
AcDbEntity
  8
Visible (ISO)
100
AcDbLine
 10
6558.81288593228
 20
3964.409970920365
 30
0.0
 11
6569.022272274498
 21
3969.5752885362
 31
0.0
  0
LINE
  5
6D2
330
6C
100
AcDbEntity
  8
Visible (ISO)
100
AcDbLine
 10
6558.81288593228
 20
3964.409970920365
 30
0.0
 11
6529.582000468721
 21
3993.640856383924
 31
0.0
  0
LINE
  5
6D3
330
6C
100
AcDbEntity
  8
Visible (ISO)
100
AcDbLine
 10
6534.085146999297
 20
4004.5124138114
 30
0.0
 11
6569.022272274498
 21
3969.5752885362
 31
0.0
  0
LINE
  5
6D4
330
6C
100
AcDbEntity
  8
Visible (ISO)
100
AcDbLine
 10
6529.582000468721
 20
3993.640856383924
 30
0.0
 11
6534.085146999297
 21
4004.5124138114
 31
0.0
  0
LINE
  5
6D5
330
6C
100
AcDbEntity
  8
Visible (ISO)
100
AcDbLine
 10
6728.493451736117
 20
3687.012867270363
 30
0.0
 11
6718.493451736113
 21
3687.012867270363
 31
0.0
  0
LINE
  5
6D6
330
6C
100
AcDbEntity
  8
Visible (ISO)
100
AcDbLine
 10
6728.493451736117
 20
3767.012867270363
 30
0.0
 11
6728.493451736117
 21
3687.012867270363
 31
0.0
  0
LINE
  5
6D7
330
6C
100
AcDbEntity
  8
Visible (ISO)
100
AcDbLine
 10
6718.493451736113
 20
3760.573734567095
 30
0.0
 11
6728.493451736117
 21
3767.012867270363
 31
0.0
  0
LINE
  5
6D8
330
6C
100
AcDbEntity
  8
Visible (ISO)
100
AcDbLine
 10
6718.493451736113
 20
3687.012867270363
 30
0.0
 11
6718.493451736113
 21
3760.573734567095
 31
0.0
  0
LINE
  5
6D9
330
6C
100
AcDbEntity
  8
Visible (ISO)
100
AcDbLine
 10
6718.493451736113
 20
3760.573734567095
 30
0.0
 11
6664.424577366275
 21
3785.150495644295
 31
0.0
  0
LINE
  5
6DA
330
6C
100
AcDbEntity
  8
Visible (ISO)
100
AcDbLine
 10
6673.493451736117
 20
3792.012867270363
 30
0.0
 11
6728.493451736117
 21
3767.012867270363
 31
0.0
  0
LINE
  5
6DB
330
6C
100
AcDbEntity
  8
Visible (ISO)
100
AcDbLine
 10
6664.424577366275
 20
3785.150495644295
 30
0.0
 11
6673.493451736117
 21
3792.012867270363
 31
0.0
  0
LINE
  5
6DC
330
6C
100
AcDbEntity
  8
Visible (ISO)
100
AcDbLine
 10
6664.424577366275
 20
3785.150495644295
 30
0.0
 11
6619.967383084443
 21
4076.592102602969
 31
0.0
  0
LINE
  5
6DD
330
6C
100
AcDbEntity
  8
Visible (ISO)
100
AcDbLine
 10
6628.866576779701
 20
4084.566825317975
 30
0.0
 11
6673.493451736117
 21
3792.012867270363
 31
0.0
  0
LINE
  5
6DE
330
6C
100
AcDbEntity
  8
Visible (ISO)
100
AcDbLine
 10
6619.967383084443
 20
4076.592102602969
 30
0.0
 11
6626.492147390746
 21
4084.566825317975
 31
0.0
  0
LINE
  5
6DF
330
6C
100
AcDbEntity
  8
Visible (ISO)
100
AcDbLine
 10
6503.493451736114
 20
4071.00135389825
 30
0.0
 11
6503.493451736116
 21
4081.012867270362
 31
0.0
  0
LINE
  5
6E0
330
6C
100
AcDbEntity
  8
Visible (ISO)
100
AcDbLine
 10
6619.967383084443
 20
4076.592102602969
 30
0.0
 11
6503.493451736114
 21
4071.00135389825
 31
0.0
  0
LINE
  5
6E1
330
6C
100
AcDbEntity
  8
Visible (ISO)
100
AcDbLine
 10
6503.493451736116
 20
4081.012867270362
 30
0.0
 11
6577.534244394702
 21
4084.566825317975
 31
0.0
  0
LINE
  5
6E2
330
6C
100
AcDbEntity
  8
Visible (ISO)
100
AcDbLine
 10
6582.743451736118
 20
4084.816867270363
 30
0.0
 11
6604.243451736117
 21
4085.848867270363
 31
0.0
  0
LINE
  5
6E3
330
6C
100
AcDbEntity
  8
Visible (ISO)
100
AcDbLine
 10
6580.425354545515
 20
3822.728232233597
 30
0.0
 11
6577.626916558248
 21
3823.646332092486
 31
0.0
  0
LINE
  5
6E4
330
6C
100
AcDbEntity
  8
Visible (ISO)
100
AcDbLine
 10
6545.993451736116
 20
3788.296329424197
 30
0.0
 11
6545.993451736125
 21
3792.012867270363
 31
0.0
  0
LINE
  5
6E5
330
6C
100
AcDbEntity
  8
Visible (ISO)
100
AcDbLine
 10
6545.993451736113
 20
3772.012867270363
 30
0.0
 11
6545.993451736113
 21
3772.921625466142
 31
0.0
  0
LINE
  5
6E6
330
6C
100
AcDbEntity
  8
Visible (ISO)
100
AcDbLine
 10
6558.81288593228
 20
3964.409970920365
 30
0.0
 11
6556.344963894211
 21
3963.161355112275
 31
0.0
  0
LINE
  5
6E7
330
6C
100
AcDbEntity
  8
Visible (ISO)
100
AcDbLine
 10
6529.582000468721
 20
3993.640856383924
 30
0.0
 11
6528.493451736125
 21
3991.012867270363
 31
0.0
  0
LINE
  5
6E8
330
6C
100
AcDbEntity
  8
Visible (ISO)
100
AcDbLine
 10
6590.993451736114
 20
3702.012867270363
 30
0.0
 11
6608.493451736113
 21
3687.012867270363
 31
0.0
  0
LINE
  5
6E9
330
6C
100
AcDbEntity
  8
Visible (ISO)
100
AcDbLine
 10
6608.493451736113
 20
3687.012867270363
 30
0.0
 11
6718.493451736113
 21
3687.012867270363
 31
0.0
  0
LINE
  5
6EA
330
6C
100
AcDbEntity
  8
Visible (ISO)
100
AcDbLine
 10
6460.993451736112
 20
3772.921625466142
 30
0.0
 11
6460.993451736117
 21
3788.296329424197
 31
0.0
  0
LINE
  5
6EB
330
6C
100
AcDbEntity
  8
Visible (ISO)
100
AcDbLine
 10
6460.993451736117
 20
3788.296329424197
 30
0.0
 11
6426.561548926716
 21
3822.728232233597
 31
0.0
  0
LINE
  5
6EC
330
6C
100
AcDbEntity
  8
Visible (ISO)
100
AcDbLine
 10
6426.561548926716
 20
3822.728232233597
 30
0.0
 11
6414.984872627361
 21
3818.930204574895
 31
0.0
  0
LINE
  5
6ED
330
6C
100
AcDbEntity
  8
Visible (ISO)
100
AcDbLine
 10
6414.984872627361
 20
3818.930204574895
 30
0.0
 11
6460.993451736112
 21
3772.921625466142
 31
0.0
  0
LINE
  5
6EE
330
6C
100
AcDbEntity
  8
Visible (ISO)
100
AcDbLine
 10
6426.561548926716
 20
3822.728232233597
 30
0.0
 11
6448.174017539952
 21
3964.409970920365
 31
0.0
  0
LINE
  5
6EF
330
6C
100
AcDbEntity
  8
Visible (ISO)
100
AcDbLine
 10
6448.174017539952
 20
3964.409970920365
 30
0.0
 11
6437.964631197728
 21
3969.5752885362
 31
0.0
  0
LINE
  5
6F0
330
6C
100
AcDbEntity
  8
Visible (ISO)
100
AcDbLine
 10
6437.964631197728
 20
3969.5752885362
 30
0.0
 11
6414.984872627361
 21
3818.930204574895
 31
0.0
  0
LINE
  5
6F1
330
6C
100
AcDbEntity
  8
Visible (ISO)
100
AcDbLine
 10
6448.174017539952
 20
3964.409970920365
 30
0.0
 11
6477.40490300351
 21
3993.640856383924
 31
0.0
  0
LINE
  5
6F2
330
6C
100
AcDbEntity
  8
Visible (ISO)
100
AcDbLine
 10
6477.40490300351
 20
3993.640856383924
 30
0.0
 11
6472.901756472928
 21
4004.5124138114
 31
0.0
  0
LINE
  5
6F3
330
6C
100
AcDbEntity
  8
Visible (ISO)
100
AcDbLine
 10
6472.901756472928
 20
4004.5124138114
 30
0.0
 11
6437.964631197728
 21
3969.5752885362
 31
0.0
  0
LINE
  5
6F4
330
6C
100
AcDbEntity
  8
Visible (ISO)
100
AcDbLine
 10
6534.085146999297
 20
4004.5124138114
 30
0.0
 11
6472.901756472928
 21
4004.5124138114
 31
0.0
  0
LINE
  5
6F5
330
6C
100
AcDbEntity
  8
Visible (ISO)
100
AcDbLine
 10
6477.40490300351
 20
3993.640856383924
 30
0.0
 11
6529.582000468721
 21
3993.640856383924
 31
0.0
  0
LINE
  5
6F6
330
6C
100
AcDbEntity
  8
Visible (ISO)
100
AcDbLine
 10
6387.019520387784
 20
4076.592102602969
 30
0.0
 11
6503.493451736114
 21
4071.00135389825
 31
0.0
  0
LINE
  5
6F7
330
6C
100
AcDbEntity
  8
Visible (ISO)
100
AcDbLine
 10
6342.562326105952
 20
3785.150495644295
 30
0.0
 11
6387.019520387784
 21
4076.592102602969
 31
0.0
  0
LINE
  5
6F8
330
6C
100
AcDbEntity
  8
Visible (ISO)
100
AcDbLine
 10
6288.493451736114
 20
3760.573734567095
 30
0.0
 11
6342.562326105952
 21
3785.150495644295
 31
0.0
  0
LINE
  5
6F9
330
6C
100
AcDbEntity
  8
Visible (ISO)
100
AcDbLine
 10
6288.493451736114
 20
3687.012867270363
 30
0.0
 11
6288.493451736114
 21
3760.573734567095
 31
0.0
  0
LINE
  5
6FA
330
6C
100
AcDbEntity
  8
Visible (ISO)
100
AcDbLine
 10
6278.493451736117
 20
3687.012867270363
 30
0.0
 11
6288.493451736114
 21
3687.012867270363
 31
0.0
  0
LINE
  5
6FB
330
6C
100
AcDbEntity
  8
Visible (ISO)
100
AcDbLine
 10
6288.493451736114
 20
3760.573734567095
 30
0.0
 11
6278.493451736117
 21
3767.012867270363
 31
0.0
  0
LINE
  5
6FC
330
6C
100
AcDbEntity
  8
Visible (ISO)
100
AcDbLine
 10
6278.493451736117
 20
3767.012867270363
 30
0.0
 11
6278.493451736117
 21
3687.012867270363
 31
0.0
  0
LINE
  5
6FD
330
6C
100
AcDbEntity
  8
Visible (ISO)
100
AcDbLine
 10
6342.562326105952
 20
3785.150495644295
 30
0.0
 11
6333.493451736116
 21
3792.012867270363
 31
0.0
  0
LINE
  5
6FE
330
6C
100
AcDbEntity
  8
Visible (ISO)
100
AcDbLine
 10
6333.493451736116
 20
3792.012867270363
 30
0.0
 11
6278.493451736117
 21
3767.012867270363
 31
0.0
  0
LINE
  5
6FF
330
6C
100
AcDbEntity
  8
Visible (ISO)
100
AcDbLine
 10
6387.019520387784
 20
4076.592102602969
 30
0.0
 11
6380.494756081485
 21
4084.566825317975
 31
0.0
  0
LINE
  5
700
330
6C
100
AcDbEntity
  8
Visible (ISO)
100
AcDbLine
 10
6378.120326692531
 20
4084.566825317975
 30
0.0
 11
6333.493451736116
 21
3792.012867270363
 31
0.0
  0
LINE
  5
701
330
6C
100
AcDbEntity
  8
Visible (ISO)
100
AcDbLine
 10
6503.493451736116
 20
4081.012867270362
 30
0.0
 11
6429.45265907753
 21
4084.566825317975
 31
0.0
  0
LINE
  5
702
330
6C
100
AcDbEntity
  8
Visible (ISO)
100
AcDbLine
 10
6424.243451736117
 20
4084.816867270363
 30
0.0
 11
6402.743451736118
 21
4085.848867270363
 31
0.0
  0
LINE
  5
703
330
6C
100
AcDbEntity
  8
Visible (ISO)
100
AcDbLine
 10
6398.493451736113
 20
3687.012867270363
 30
0.0
 11
6288.493451736114
 21
3687.012867270363
 31
0.0
  0
LINE
  5
704
330
6C
100
AcDbEntity
  8
Visible (ISO)
100
AcDbLine
 10
6415.993451736113
 20
3702.012867270363
 30
0.0
 11
6398.493451736113
 21
3687.012867270363
 31
0.0
  0
LINE
  5
705
330
6C
100
AcDbEntity
  8
Visible (ISO)
100
AcDbLine
 10
6590.993451736114
 20
3702.012867270363
 30
0.0
 11
6415.993451736113
 21
3702.012867270363
 31
0.0
  0
LINE
  5
706
330
6C
100
AcDbEntity
  8
Visible (ISO)
100
AcDbLine
 10
6545.993451736113
 20
3772.012867270363
 30
0.0
 11
6544.493451736113
 21
3772.012867270363
 31
0.0
  0
LINE
  5
707
330
6C
100
AcDbEntity
  8
Visible (ISO)
100
AcDbLine
 10
6462.493451736112
 20
3772.012867270363
 30
0.0
 11
6460.993451736112
 21
3772.012867270363
 31
0.0
  0
LINE
  5
708
330
6C
100
AcDbEntity
  8
Visible (ISO)
100
AcDbLine
 10
6460.993451736112
 20
3772.012867270363
 30
0.0
 11
6460.993451736112
 21
3772.921625466142
 31
0.0
  0
LINE
  5
709
330
6C
100
AcDbEntity
  8
Visible (ISO)
100
AcDbLine
 10
6460.993451736117
 20
3788.296329424197
 30
0.0
 11
6460.993451736126
 21
3792.012867270363
 31
0.0
  0
LINE
  5
70A
330
6C
100
AcDbEntity
  8
Visible (ISO)
100
AcDbLine
 10
6426.561548926716
 20
3822.728232233597
 30
0.0
 11
6429.359986914002
 21
3823.646332092486
 31
0.0
  0
LINE
  5
70B
330
6C
100
AcDbEntity
  8
Visible (ISO)
100
AcDbLine
 10
6448.174017539952
 20
3964.409970920365
 30
0.0
 11
6450.641939578038
 21
3963.161355112275
 31
0.0
  0
LINE
  5
70C
330
6C
100
AcDbEntity
  8
Visible (ISO)
100
AcDbLine
 10
6477.40490300351
 20
3993.640856383924
 30
0.0
 11
6478.493451736125
 21
3991.012867270363
 31
0.0
  0
SPLINE
  5
70D
330
6C
100
AcDbEntity
  8
Visible (ISO)
100
AcDbSpline
210
0.0
220
0.0
230
1.0
 70
    28
 71
     2
 72
     6
 73
     3
 74
     0
 42
0.0000000001
 43
0.0000000001
 40
0.4978532609589537
 40
0.4978532609589537
 40
0.4978532609589537
 40
0.9957065219179071
 40
0.9957065219179071
 40
0.9957065219179071
 10
6571.132235803943
 20
4048.816813781909
 30
0.0
 41
1.0
 10
6572.271019871775
 20
4050.789245646245
 30
0.0
 41
1.037954849302035
 10
6573.585974447998
 20
4053.066813781909
 30
0.0
 41
1.0
  0
ARC
  5
70E
330
6C
100
AcDbEntity
  8
Visible (ISO)
100
AcDbCircle
 10
6578.493451736111
 20
4044.566813781909
 30
0.0
 40
8.500000000000028
100
AcDbArc
 50
90.0
 51
150.0000000000039
  0
SPLINE
  5
70F
330
6C
100
AcDbEntity
  8
Visible (ISO)
100
AcDbSpline
210
0.0
220
0.0
230
1.0
 70
    28
 71
     2
 72
     6
 73
     3
 74
     0
 42
0.0000000001
 43
0.0000000001
 40
0.0
 40
0.0
 40
0.0
 40
0.4978532609589536
 40
0.4978532609589536
 40
0.4978532609589536
 10
6573.585974447998
 20
4053.066813781909
 30
0.0
 41
1.0
 10
6576.215883600446
 20
4053.066813781909
 30
0.0
 41
1.037954849302054
 10
6578.493451736111
 20
4053.066813781909
 30
0.0
 41
1.0
  0
SPLINE
  5
710
330
6C
100
AcDbEntity
  8
Visible (ISO)
100
AcDbSpline
210
0.0
220
0.0
230
1.0
 70
    28
 71
     2
 72
     6
 73
     3
 74
     0
 42
0.0000000001
 43
0.0000000001
 40
0.0
 40
0.0
 40
0.0
 40
0.4978532609589533
 40
0.4978532609589533
 40
0.4978532609589533
 10
6583.400929024222
 20
4053.066813781909
 30
0.0
 41
1.0
 10
6584.715883600445
 20
4050.789245646245
 30
0.0
 41
1.037954849302014
 10
6585.854667668278
 20
4048.816813781909
 30
0.0
 41
1.0
  0
SPLINE
  5
711
330
6C
100
AcDbEntity
  8
Visible (ISO)
100
AcDbSpline
210
0.0
220
0.0
230
1.0
 70
    28
 71
     2
 72
     6
 73
     3
 74
     0
 42
0.0000000001
 43
0.0000000001
 40
0.4978532609589536
 40
0.4978532609589536
 40
0.4978532609589536
 40
0.9957065219179071
 40
0.9957065219179071
 40
0.9957065219179071
 10
6578.493451736111
 20
4053.066813781909
 30
0.0
 41
1.0
 10
6580.771019871774
 20
4053.066813781909
 30
0.0
 41
1.037954849302056
 10
6583.400929024222
 20
4053.066813781909
 30
0.0
 41
1.0
  0
ARC
  5
712
330
6C
100
AcDbEntity
  8
Visible (ISO)
100
AcDbCircle
 10
6578.493451736111
 20
4044.566813781909
 30
0.0
 40
8.500000000000031
100
AcDbArc
 50
29.99999999999188
 51
89.99999999999042
  0
SPLINE
  5
713
330
6C
100
AcDbEntity
  8
Visible (ISO)
100
AcDbSpline
210
0.0
220
0.0
230
1.0
 70
    28
 71
     2
 72
     6
 73
     3
 74
     0
 42
0.0000000001
 43
0.0000000001
 40
0.4978532609589542
 40
0.4978532609589542
 40
0.4978532609589542
 40
0.9957065219179085
 40
0.9957065219179085
 40
0.9957065219179085
 10
6571.132235803943
 20
4040.31681378191
 30
0.0
 41
1.0
 10
6569.99345173611
 20
4042.289245646245
 30
0.0
 41
1.037954849302014
 10
6568.678497159886
 20
4044.566813781909
 30
0.0
 41
1.0
  0
ARC
  5
714
330
6C
100
AcDbEntity
  8
Visible (ISO)
100
AcDbCircle
 10
6578.493451736111
 20
4044.566813781909
 30
0.0
 40
8.500000000000024
100
AcDbArc
 50
150.0000000000081
 51
210.0000000000091
  0
SPLINE
  5
715
330
6C
100
AcDbEntity
  8
Visible (ISO)
100
AcDbSpline
210
0.0
220
0.0
230
1.0
 70
    28
 71
     2
 72
     6
 73
     3
 74
     0
 42
0.0000000001
 43
0.0000000001
 40
0.0
 40
0.0
 40
0.0
 40
0.4978532609589537
 40
0.4978532609589537
 40
0.4978532609589537
 10
6568.678497159886
 20
4044.566813781909
 30
0.0
 41
1.0
 10
6569.99345173611
 20
4046.844381917575
 30
0.0
 41
1.037954849302049
 10
6571.132235803943
 20
4048.816813781909
 30
0.0
 41
1.0
  0
SPLINE
  5
716
330
6C
100
AcDbEntity
  8
Visible (ISO)
100
AcDbSpline
210
0.0
220
0.0
230
1.0
 70
    28
 71
     2
 72
     6
 73
     3
 74
     0
 42
0.0000000001
 43
0.0000000001
 40
0.0
 40
0.0
 40
0.0
 40
0.4978532609589534
 40
0.4978532609589534
 40
0.4978532609589534
 10
6588.308406312335
 20
4044.566813781909
 30
0.0
 41
1.0
 10
6586.99345173611
 20
4042.289245646244
 30
0.0
 41
1.037954849302042
 10
6585.854667668278
 20
4040.31681378191
 30
0.0
 41
1.0
  0
SPLINE
  5
717
330
6C
100
AcDbEntity
  8
Visible (ISO)
100
AcDbSpline
210
0.0
220
0.0
230
1.0
 70
    28
 71
     2
 72
     6
 73
     3
 74
     0
 42
0.0000000001
 43
0.0000000001
 40
0.4978532609589533
 40
0.4978532609589533
 40
0.4978532609589533
 40
0.9957065219179066
 40
0.9957065219179066
 40
0.9957065219179066
 10
6585.854667668278
 20
4048.816813781909
 30
0.0
 41
1.0
 10
6586.99345173611
 20
4046.844381917574
 30
0.0
 41
1.037954849302044
 10
6588.308406312335
 20
4044.566813781909
 30
0.0
 41
1.0
  0
ARC
  5
718
330
6C
100
AcDbEntity
  8
Visible (ISO)
100
AcDbCircle
 10
6578.493451736111
 20
4044.566813781909
 30
0.0
 40
8.500000000000026
100
AcDbArc
 50
330.0000000000081
 51
30.00000000000916
  0
SPLINE
  5
719
330
6C
100
AcDbEntity
  8
Visible (ISO)
100
AcDbSpline
210
0.0
220
0.0
230
1.0
 70
    28
 71
     2
 72
     6
 73
     3
 74
     0
 42
0.0000000001
 43
0.0000000001
 40
0.4978532609589534
 40
0.4978532609589534
 40
0.4978532609589534
 40
0.9957065219179066
 40
0.9957065219179066
 40
0.9957065219179066
 10
6578.493451736111
 20
4036.06681378191
 30
0.0
 41
1.0
 10
6576.215883600446
 20
4036.06681378191
 30
0.0
 41
1.037954849302054
 10
6573.585974447998
 20
4036.06681378191
 30
0.0
 41
1.0
  0
ARC
  5
71A
330
6C
100
AcDbEntity
  8
Visible (ISO)
100
AcDbCircle
 10
6578.493451736111
 20
4044.566813781909
 30
0.0
 40
8.500000000000026
100
AcDbArc
 50
209.9999999999918
 51
269.9999999999905
  0
SPLINE
  5
71B
330
6C
100
AcDbEntity
  8
Visible (ISO)
100
AcDbSpline
210
0.0
220
0.0
230
1.0
 70
    28
 71
     2
 72
     6
 73
     3
 74
     0
 42
0.0000000001
 43
0.0000000001
 40
0.0
 40
0.0
 40
0.0
 40
0.4978532609589542
 40
0.4978532609589542
 40
0.4978532609589542
 10
6573.585974447998
 20
4036.06681378191
 30
0.0
 41
1.0
 10
6572.271019871775
 20
4038.344381917574
 30
0.0
 41
1.037954849302022
 10
6571.132235803943
 20
4040.31681378191
 30
0.0
 41
1.0
  0
SPLINE
  5
71C
330
6C
100
AcDbEntity
  8
Visible (ISO)
100
AcDbSpline
210
0.0
220
0.0
230
1.0
 70
    28
 71
     2
 72
     6
 73
     3
 74
     0
 42
0.0000000001
 43
0.0000000001
 40
0.0
 40
0.0
 40
0.0
 40
0.4978532609589534
 40
0.4978532609589534
 40
0.4978532609589534
 10
6583.400929024222
 20
4036.06681378191
 30
0.0
 41
1.0
 10
6580.771019871774
 20
4036.06681378191
 30
0.0
 41
1.037954849302043
 10
6578.493451736111
 20
4036.06681378191
 30
0.0
 41
1.0
  0
SPLINE
  5
71D
330
6C
100
AcDbEntity
  8
Visible (ISO)
100
AcDbSpline
210
0.0
220
0.0
230
1.0
 70
    28
 71
     2
 72
     6
 73
     3
 74
     0
 42
0.0000000001
 43
0.0000000001
 40
0.4978532609589534
 40
0.4978532609589534
 40
0.4978532609589534
 40
0.9957065219179067
 40
0.9957065219179067
 40
0.9957065219179067
 10
6585.854667668278
 20
4040.31681378191
 30
0.0
 41
1.0
 10
6584.715883600445
 20
4038.344381917574
 30
0.0
 41
1.037954849302043
 10
6583.400929024222
 20
4036.06681378191
 30
0.0
 41
1.0
  0
ARC
  5
71E
330
6C
100
AcDbEntity
  8
Visible (ISO)
100
AcDbCircle
 10
6578.493451736111
 20
4044.566813781909
 30
0.0
 40
8.500000000000023
100
AcDbArc
 50
270.0
 51
330.000000000004
  0
SPLINE
  5
71F
330
6C
100
AcDbEntity
  8
Visible (ISO)
100
AcDbSpline
210
0.0
220
0.0
230
1.0
 70
    28
 71
     2
 72
     6
 73
     3
 74
     0
 42
0.0000000001
 43
0.0000000001
 40
0.4978532609589537
 40
0.4978532609589537
 40
0.4978532609589537
 40
0.9957065219179071
 40
0.9957065219179071
 40
0.9957065219179071
 10
6435.854667668279
 20
4040.316813781909
 30
0.0
 41
1.0
 10
6434.715883600446
 20
4038.344381917574
 30
0.0
 41
1.037954849302035
 10
6433.400929024223
 20
4036.06681378191
 30
0.0
 41
1.0
  0
ARC
  5
720
330
6C
100
AcDbEntity
  8
Visible (ISO)
100
AcDbCircle
 10
6428.493451736112
 20
4044.566813781909
 30
0.0
 40
8.500000000000028
100
AcDbArc
 50
270.0
 51
330.000000000004
  0
SPLINE
  5
721
330
6C
100
AcDbEntity
  8
Visible (ISO)
100
AcDbSpline
210
0.0
220
0.0
230
1.0
 70
    28
 71
     2
 72
     6
 73
     3
 74
     0
 42
0.0000000001
 43
0.0000000001
 40
0.0
 40
0.0
 40
0.0
 40
0.4978532609589536
 40
0.4978532609589536
 40
0.4978532609589536
 10
6433.400929024223
 20
4036.06681378191
 30
0.0
 41
1.0
 10
6430.771019871776
 20
4036.06681378191
 30
0.0
 41
1.037954849302054
 10
6428.493451736112
 20
4036.06681378191
 30
0.0
 41
1.0
  0
SPLINE
  5
722
330
6C
100
AcDbEntity
  8
Visible (ISO)
100
AcDbSpline
210
0.0
220
0.0
230
1.0
 70
    28
 71
     2
 72
     6
 73
     3
 74
     0
 42
0.0000000001
 43
0.0000000001
 40
0.0
 40
0.0
 40
0.0
 40
0.4978532609589533
 40
0.4978532609589533
 40
0.4978532609589533
 10
6423.585974447999
 20
4036.06681378191
 30
0.0
 41
1.0
 10
6422.271019871776
 20
4038.344381917575
 30
0.0
 41
1.037954849302014
 10
6421.132235803944
 20
4040.31681378191
 30
0.0
 41
1.0
  0
SPLINE
  5
723
330
6C
100
AcDbEntity
  8
Visible (ISO)
100
AcDbSpline
210
0.0
220
0.0
230
1.0
 70
    28
 71
     2
 72
     6
 73
     3
 74
     0
 42
0.0000000001
 43
0.0000000001
 40
0.4978532609589536
 40
0.4978532609589536
 40
0.4978532609589536
 40
0.9957065219179071
 40
0.9957065219179071
 40
0.9957065219179071
 10
6428.493451736112
 20
4036.06681378191
 30
0.0
 41
1.0
 10
6426.215883600447
 20
4036.06681378191
 30
0.0
 41
1.037954849302056
 10
6423.585974447999
 20
4036.06681378191
 30
0.0
 41
1.0
  0
ARC
  5
724
330
6C
100
AcDbEntity
  8
Visible (ISO)
100
AcDbCircle
 10
6428.493451736112
 20
4044.566813781909
 30
0.0
 40
8.500000000000031
100
AcDbArc
 50
209.9999999999918
 51
269.9999999999905
  0
SPLINE
  5
725
330
6C
100
AcDbEntity
  8
Visible (ISO)
100
AcDbSpline
210
0.0
220
0.0
230
1.0
 70
    28
 71
     2
 72
     6
 73
     3
 74
     0
 42
0.0000000001
 43
0.0000000001
 40
0.4978532609589542
 40
0.4978532609589542
 40
0.4978532609589542
 40
0.9957065219179085
 40
0.9957065219179085
 40
0.9957065219179085
 10
6435.854667668279
 20
4048.816813781909
 30
0.0
 41
1.0
 10
6436.993451736111
 20
4046.844381917575
 30
0.0
 41
1.037954849302014
 10
6438.308406312336
 20
4044.566813781909
 30
0.0
 41
1.0
  0
ARC
  5
726
330
6C
100
AcDbEntity
  8
Visible (ISO)
100
AcDbCircle
 10
6428.493451736112
 20
4044.566813781909
 30
0.0
 40
8.500000000000024
100
AcDbArc
 50
330.0000000000081
 51
30.00000000000916
  0
SPLINE
  5
727
330
6C
100
AcDbEntity
  8
Visible (ISO)
100
AcDbSpline
210
0.0
220
0.0
230
1.0
 70
    28
 71
     2
 72
     6
 73
     3
 74
     0
 42
0.0000000001
 43
0.0000000001
 40
0.0
 40
0.0
 40
0.0
 40
0.4978532609589537
 40
0.4978532609589537
 40
0.4978532609589537
 10
6438.308406312336
 20
4044.566813781909
 30
0.0
 41
1.0
 10
6436.993451736111
 20
4042.289245646245
 30
0.0
 41
1.037954849302049
 10
6435.854667668279
 20
4040.316813781909
 30
0.0
 41
1.0
  0
SPLINE
  5
728
330
6C
100
AcDbEntity
  8
Visible (ISO)
100
AcDbSpline
210
0.0
220
0.0
230
1.0
 70
    28
 71
     2
 72
     6
 73
     3
 74
     0
 42
0.0000000001
 43
0.0000000001
 40
0.0
 40
0.0
 40
0.0
 40
0.4978532609589534
 40
0.4978532609589534
 40
0.4978532609589534
 10
6418.678497159888
 20
4044.566813781909
 30
0.0
 41
1.0
 10
6419.993451736111
 20
4046.844381917575
 30
0.0
 41
1.037954849302042
 10
6421.132235803944
 20
4048.816813781909
 30
0.0
 41
1.0
  0
SPLINE
  5
729
330
6C
100
AcDbEntity
  8
Visible (ISO)
100
AcDbSpline
210
0.0
220
0.0
230
1.0
 70
    28
 71
     2
 72
     6
 73
     3
 74
     0
 42
0.0000000001
 43
0.0000000001
 40
0.4978532609589533
 40
0.4978532609589533
 40
0.4978532609589533
 40
0.9957065219179066
 40
0.9957065219179066
 40
0.9957065219179066
 10
6421.132235803944
 20
4040.31681378191
 30
0.0
 41
1.0
 10
6419.993451736111
 20
4042.289245646244
 30
0.0
 41
1.037954849302044
 10
6418.678497159888
 20
4044.566813781909
 30
0.0
 41
1.0
  0
ARC
  5
72A
330
6C
100
AcDbEntity
  8
Visible (ISO)
100
AcDbCircle
 10
6428.493451736112
 20
4044.566813781909
 30
0.0
 40
8.500000000000024
100
AcDbArc
 50
150.0000000000081
 51
210.0000000000091
  0
SPLINE
  5
72B
330
6C
100
AcDbEntity
  8
Visible (ISO)
100
AcDbSpline
210
0.0
220
0.0
230
1.0
 70
    28
 71
     2
 72
     6
 73
     3
 74
     0
 42
0.0000000001
 43
0.0000000001
 40
0.4978532609589534
 40
0.4978532609589534
 40
0.4978532609589534
 40
0.9957065219179066
 40
0.9957065219179066
 40
0.9957065219179066
 10
6428.493451736112
 20
4053.066813781909
 30
0.0
 41
1.0
 10
6430.771019871776
 20
4053.066813781909
 30
0.0
 41
1.037954849302054
 10
6433.400929024223
 20
4053.066813781909
 30
0.0
 41
1.0
  0
ARC
  5
72C
330
6C
100
AcDbEntity
  8
Visible (ISO)
100
AcDbCircle
 10
6428.493451736112
 20
4044.566813781909
 30
0.0
 40
8.500000000000026
100
AcDbArc
 50
29.99999999999188
 51
89.99999999999042
  0
SPLINE
  5
72D
330
6C
100
AcDbEntity
  8
Visible (ISO)
100
AcDbSpline
210
0.0
220
0.0
230
1.0
 70
    28
 71
     2
 72
     6
 73
     3
 74
     0
 42
0.0000000001
 43
0.0000000001
 40
0.0
 40
0.0
 40
0.0
 40
0.4978532609589542
 40
0.4978532609589542
 40
0.4978532609589542
 10
6433.400929024223
 20
4053.066813781909
 30
0.0
 41
1.0
 10
6434.715883600446
 20
4050.789245646245
 30
0.0
 41
1.037954849302022
 10
6435.854667668279
 20
4048.816813781909
 30
0.0
 41
1.0
  0
SPLINE
  5
72E
330
6C
100
AcDbEntity
  8
Visible (ISO)
100
AcDbSpline
210
0.0
220
0.0
230
1.0
 70
    28
 71
     2
 72
     6
 73
     3
 74
     0
 42
0.0000000001
 43
0.0000000001
 40
0.0
 40
0.0
 40
0.0
 40
0.4978532609589534
 40
0.4978532609589534
 40
0.4978532609589534
 10
6423.585974447999
 20
4053.066813781909
 30
0.0
 41
1.0
 10
6426.215883600447
 20
4053.066813781909
 30
0.0
 41
1.037954849302043
 10
6428.493451736112
 20
4053.066813781909
 30
0.0
 41
1.0
  0
SPLINE
  5
72F
330
6C
100
AcDbEntity
  8
Visible (ISO)
100
AcDbSpline
210
0.0
220
0.0
230
1.0
 70
    28
 71
     2
 72
     6
 73
     3
 74
     0
 42
0.0000000001
 43
0.0000000001
 40
0.4978532609589534
 40
0.4978532609589534
 40
0.4978532609589534
 40
0.9957065219179067
 40
0.9957065219179067
 40
0.9957065219179067
 10
6421.132235803944
 20
4048.816813781909
 30
0.0
 41
1.0
 10
6422.271019871776
 20
4050.789245646245
 30
0.0
 41
1.037954849302043
 10
6423.585974447999
 20
4053.066813781909
 30
0.0
 41
1.0
  0
ARC
  5
730
330
6C
100
AcDbEntity
  8
Visible (ISO)
100
AcDbCircle
 10
6428.493451736112
 20
4044.566813781909
 30
0.0
 40
8.500000000000023
100
AcDbArc
 50
90.0
 51
150.0000000000039
  0
DIMENSION
  5
731
330
6C
100
AcDbEntity
  8
Dimension (ISO)
100
AcDbDimension
  2
*D1
 10
5771.986932052434
 20
4301.066825317974
 30
0.0
 11
4871.986932052434
 21
4301.066825317974
 31
0.0
 70
   160
  1
<>
 71
     2
 42
1800.000000000001
  3
Default (ISO)
100
AcDbAlignedDimension
 13
3971.986932052433
 23
4117.566825317974
 33
0.0
 14
5771.986932052434
 24
4117.56682531798
 34
0.0
 50
180.0
100
AcDbRotatedDimension
1001
ACAD
1000
DSTYLE
1002
{
1070
   172
1070
     0
1070
   289
1070
     1
1070
    74
1070
     0
1070
   271
1070
     2
1070
   272
1070
     2
1070
    48
1040
0.0
1070
    47
1040
0.0
1002
}
  0
DIMENSION
  5
814
330
6C
100
AcDbEntity
  8
Dimension (ISO)
100
AcDbDimension
  2
*D2
 10
5491.986932052434
 20
3450.180287308804
 30
0.0
 11
4871.986932052433
 21
3450.180287308804
 31
0.0
 70
   160
  1
<>
 71
     2
 42
1240.0
  3
Default (ISO)
100
AcDbAlignedDimension
 13
4251.986932052433
 23
3687.012867270363
 33
0.0
 14
5491.986932052434
 24
3687.012867270363
 34
0.0
100
AcDbRotatedDimension
1001
ACAD
1000
DSTYLE
1002
{
1070
   172
1070
     0
1070
   289
1070
     1
1070
    74
1070
     0
1070
   271
1070
     2
1070
   272
1070
     2
1070
    48
1040
0.0
1070
    47
1040
0.0
1002
}
  0
DIMENSION
  5
8F6
330
6C
100
AcDbEntity
  8
Dimension (ISO)
100
AcDbDimension
  2
*D3
 10
5571.986932052433
 20
3568.152054440266
 30
0.0
 11
5736.095299768928
 21
3568.152054440266
 31
0.0
 70
   160
  1
<>
 71
     2
 42
80.0
  3
Default (ISO)
100
AcDbAlignedDimension
 13
5491.986932052434
 23
3687.012867270363
 33
0.0
 14
5571.986932052433
 24
3687.012867270363
 34
0.0
100
AcDbRotatedDimension
1001
ACAD
1000
DSTYLE
1002
{
1070
   172
1070
     1
1070
   289
1070
     1
1070
    74
1070
     0
1070
   271
1070
     2
1070
   272
1070
     2
1070
    48
1040
0.0
1070
    47
1040
0.0
1002
}
  0
DIMENSION
  5
9F4
330
6C
100
AcDbEntity
  8
Dimension (ISO)
100
AcDbDimension
  2
*D4
 10
6728.493451736117
 20
3450.180287308804
 30
0.0
 11
6503.493451736116
 21
3450.180287308804
 31
0.0
 70
   160
  1
<>
 71
     2
 42
450.0
  3
Default (ISO)
100
AcDbAlignedDimension
 13
6278.493451736117
 23
3687.012867270363
 33
0.0
 14
6728.493451736117
 24
3687.012867270363
 34
0.0
 50
180.0
100
AcDbRotatedDimension
1001
ACAD
1000
DSTYLE
1002
{
1070
   172
1070
     0
1070
   289
1070
     1
1070
    74
1070
     0
1070
   271
1070
     2
1070
   272
1070
     2
1070
    48
1040
0.0
1070
    47
1040
0.0
1002
}
  0
DIMENSION
  5
AD6
330
6C
100
AcDbEntity
  8
Dimension (ISO)
100
AcDbDimension
  2
*D5
 10
6985.245757671804
 20
3687.012867270363
 30
0.0
 11
6985.245757671802
 21
3905.289846294169
 31
0.0
 70
   160
  1
<>
 71
     2
 42
436.553958047612
  3
Default (ISO)
100
AcDbAlignedDimension
 13
6662.743451736055
 23
4123.566825317975
 33
0.0
 14
6718.493451736113
 24
3687.012867270363
 34
0.0
 50
270.0
100
AcDbRotatedDimension
1001
ACAD
1000
DSTYLE
1002
{
1070
   172
1070
     0
1070
   289
1070
     1
1070
    74
1070
     0
1070
   271
1070
     0
1070
   272
1070
     2
1070
    48
1040
0.0
1070
    47
1040
0.0
1002
}
  0
DIMENSION
  5
BBE
330
6C
100
AcDbEntity
  8
Dimension (ISO)
100
AcDbDimension
  2
*D6
 10
6672.743451736057
 20
4301.066825317974
 30
0.0
 11
6503.493451736057
 21
4301.066825317974
 31
0.0
 70
   160
  1
<>
 71
     2
 42
338.5
  3
Default (ISO)
100
AcDbAlignedDimension
 13
6334.243451736057
 23
4117.566825317974
 33
0.0
 14
6672.743451736057
 24
4117.566825317974
 34
0.0
 50
180.0
100
AcDbRotatedDimension
1001
ACAD
1000
DSTYLE
1002
{
1070
   172
1070
     0
1070
   289
1070
     1
1070
    74
1070
     0
1070
   271
1070
     0
1070
   272
1070
     2
1070
    48
1040
0.0
1070
    47
1040
0.0
1002
}
  0
DIMENSION
  5
CA0
330
6C
100
AcDbEntity
  8
Dimension (ISO)
100
AcDbDimension
  2
*D7
 10
6069.256725820797
 20
2775.831363450405
 30
0.0
 11
6069.256725820796
 21
2945.081363450404
 31
0.0
 70
   160
  1
<>
 71
     2
 42
338.5
  3
Default (ISO)
100
AcDbAlignedDimension
 13
5771.986932052147
 23
3114.331363450404
 33
0.0
 14
5771.986932052147
 24
2775.831363450405
 34
0.0
 50
90.0
100
AcDbRotatedDimension
1001
ACAD
1000
DSTYLE
1002
{
1070
   172
1070
     0
1070
   289
1070
     1
1070
    74
1070
     0
1070
   271
1070
     0
1070
   272
1070
     2
1070
    48
1040
0.0
1070
    47
1040
0.0
1002
}
  0
DIMENSION
  5
D88
330
6C
100
AcDbEntity
  8
Dimension (ISO)
100
AcDbDimension
  2
*D8
 10
6241.863325868017
 20
2720.081363450298
 30
0.0
 11
6241.863325868016
 21
2945.081363450298
 31
0.0
 70
   160
  1
<>
 71
     2
 42
450.0
  3
Default (ISO)
100
AcDbAlignedDimension
 13
5561.986932052146
 23
3170.081363450298
 33
0.0
 14
5561.986932052146
 24
2720.081363450298
 34
0.0
 50
90.0
100
AcDbRotatedDimension
1001
ACAD
1000
DSTYLE
1002
{
1070
   172
1070
     0
1070
   289
1070
     1
1070
    74
1070
     0
1070
   271
1070
     2
1070
   272
1070
     2
1070
    48
1040
0.0
1070
    47
1040
0.0
1002
}
  0
DIMENSION
  5
E70
330
6C
100
AcDbEntity
  8
Dimension (ISO)
100
AcDbDimension
  2
*D9
 10
3857.749616099083
 20
3024.3313634504
 30
0.0
 11
3857.749616099083
 21
3035.081363450401
 31
0.0
 70
   160
  1
<>
 71
     2
 42
21.5
  3
Default (ISO)
100
AcDbAlignedDimension
 13
3971.986932052147
 23
3045.8313634504
 33
0.0
 14
3971.986932052147
 24
3024.3313634504
 34
0.0
 50
270.0
100
AcDbRotatedDimension
1001
ACAD
1000
DSTYLE
1002
{
1070
   172
1070
     1
1070
   289
1070
     1
1070
    74
1070
     0
1070
   271
1070
     0
1070
   272
1070
     2
1070
    48
1040
0.0
1070
    47
1040
0.0
1002
}
  0
INSERT
  5
13C7
330
6C
100
AcDbEntity
  8
0
100
AcDbBlockReference
  2
52_Lawka-betonowa-bez-oparcia-do-postawienia
 10
4871.986932052147
 20
2955.831363450402
 30
0.0
  0
ENDSEC
  0
SECTION
  2
OBJECTS
  0
DICTIONARY
  5
C
330
0
100
AcDbDictionary
281
     1
  3
ACAD_2007HEADERVARS_RT
350
1481
  3
ACAD_COLOR
350
63
  3
ACAD_GROUP
350
D
  3
ACAD_LAYOUT
350
62
  3
ACAD_MATERIAL
350
10
  3
ACAD_MLEADERSTYLE
350
66
  3
ACAD_MLINESTYLE
350
5F
  3
ACAD_PLOTSETTINGS
350
61
  3
ACAD_PLOTSTYLENAME
350
E
  3
ACAD_SCALELIST
350
42
  3
ACAD_TABLESTYLE
350
64
  3
ACAD_VISUALSTYLE
350
29
  3
ACDB_RECOMPOSE_DATA
350
147F
  3
AcDbVariableDictionary
350
1258
  3
AcmDictionary
350
12BC
  3
AMG
350
126E
  3
AMGSNAPSETTINGS
350
12FB
  3
DWGPROPS
350
1480
  0
DICTIONARY
  5
1205
330
8
100
AcDbDictionary
280
     1
281
     1
  0
DICTIONARY
  5
1481
102
{ACAD_REACTORS
330
C
102
}
330
C
100
AcDbDictionary
281
     1
  3
DIMARCSYM
350
1482
  3
DIMLTEX1
350
1484
  3
DIMLTEX2
350
1485
  3
DIMLTYPE
350
1483
  0
DICTIONARY
  5
63
102
{ACAD_REACTORS
330
C
102
}
330
C
100
AcDbDictionary
281
     1
  0
DICTIONARY
  5
D
102
{ACAD_REACTORS
330
C
102
}
330
C
100
AcDbDictionary
281
     1
  0
DICTIONARY
  5
62
102
{ACAD_REACTORS
330
C
102
}
330
C
100
AcDbDictionary
281
     1
  3
Layout1
350
6B
  3
Layout2
350
73
  3
Model
350
6F
  0
DICTIONARY
  5
10
102
{ACAD_REACTORS
330
C
102
}
330
C
100
AcDbDictionary
281
     1
  3
ByBlock
350
19
  3
ByLayer
350
11
  3
Global
350
21
  0
DICTIONARY
  5
66
102
{ACAD_REACTORS
330
C
102
}
330
C
100
AcDbDictionary
281
     1
  3
Standard
350
67
  0
DICTIONARY
  5
5F
102
{ACAD_REACTORS
330
C
102
}
330
C
100
AcDbDictionary
281
     1
  3
Standard
350
60
  0
DICTIONARY
  5
61
102
{ACAD_REACTORS
330
C
102
}
330
C
100
AcDbDictionary
281
     1
  0
ACDBDICTIONARYWDFLT
  5
E
102
{ACAD_REACTORS
330
C
102
}
330
C
100
AcDbDictionary
281
     1
  3
Normal
350
F
100
AcDbDictionaryWithDefault
340
F
  0
DICTIONARY
  5
42
102
{ACAD_REACTORS
330
C
102
}
330
C
100
AcDbDictionary
281
     1
  3
A0
350
43
  3
A1
350
44
  3
A2
350
45
  3
A3
350
46
  3
A4
350
47
  3
A5
350
48
  3
A6
350
49
  3
A7
350
4A
  3
A8
350
4B
  3
A9
350
4C
  3
B0
350
4D
  3
B1
350
4E
  3
B2
350
4F
  3
B3
350
50
  3
B4
350
51
  3
B5
350
52
  3
B6
350
53
  0
DICTIONARY
  5
64
102
{ACAD_REACTORS
330
C
102
}
330
C
100
AcDbDictionary
281
     1
  3
Standard
350
65
  0
DICTIONARY
  5
29
102
{ACAD_REACTORS
330
C
102
}
330
C
100
AcDbDictionary
281
     1
  3
2dWireframe
350
2F
  3
Basic
350
2E
  3
Brighten
350
35
  3
ColorChange
350
39
  3
Conceptual
350
32
  3
Dim
350
34
  3
EdgeColorOff
350
41
  3
Facepattern
350
38
  3
Flat
350
2A
  3
FlatWithEdges
350
2B
  3
Gouraud
350
2C
  3
GouraudWithEdges
350
2D
  3
Hidden
350
31
  3
JitterOff
350
3F
  3
Linepattern
350
37
  3
OverhangOff
350
40
  3
Realistic
350
33
  3
Shaded
350
3E
  3
Shaded with edges
350
3D
  3
Shades of Gray
350
3A
  3
Sketchy
350
3B
  3
Thicken
350
36
  3
Wireframe
350
30
  3
X-Ray
350
3C
  0
XRECORD
  5
147F
102
{ACAD_REACTORS
330
C
102
}
330
C
100
AcDbXrecord
280
     1
 90
        1
330
65
  0
DICTIONARY
  5
1258
102
{ACAD_REACTORS
330
C
102
}
330
C
100
AcDbDictionary
281
     1
  3
CANNOSCALE
350
125C
  3
CMLEADERSTYLE
350
125A
  3
CTABLESTYLE
350
1259
  3
DIMASSOC
350
1263
  3
HIDETEXT
350
1262
  3
INDEXCTL
350
1261
  3
LAYEREVAL
350
125E
  3
LAYERNOTIFY
350
125F
  3
LIGHTINGUNITS
350
125D
  3
MSLTSCALE
350
125B
  3
SORTENTS
350
1260
  3
XCLIPFRAME
350
147D
  0
DICTIONARY
  5
12BC
102
{ACAD_REACTORS
330
C
102
}
330
C
100
AcDbDictionary
281
     1
  3
AcmStdDictionary
350
12C5
  0
DICTIONARY
  5
126E
102
{ACAD_REACTORS
330
C
102
}
330
C
100
AcDbDictionary
281
     1
  0
DICTIONARY
  5
12FB
102
{ACAD_REACTORS
330
C
102
}
330
C
100
AcDbDictionary
281
     1
  0
XRECORD
  5
1480
102
{ACAD_REACTORS
330
C
102
}
330
C
100
AcDbXrecord
280
     1
  1
DWGPROPS COOKIE
  2

  3

  4
Maruszak Marcin
  6

  7

  8
Natalia
  9
v1
300
Menadżer=
301
Firma=Muller Jelcz-Laskowice Sp.z o.o.
302
Kategoria=
303
Numer części=Ławka betonowa bez oparcia do postawienia
304
Opis=
305
Projekt=5350-5354 Stolik betonowy do postawienia
306
Projektant=Maruszak Marcin
307
Inżynier=Maruszak Marcin
308
Zatwierdził=Ośkiewicz Ryszard
309
Centrum kosztów=
 40
0.000823125
 41
2460388.435423762
 42
2460388.456854931
  1
www.muller.com.pl
 90
       19
300
Dostawca=
300
Stan użytkownika=
300
Stan projektu=PracaWToku
300
Sprawdził=
300
Zatwierdził konstrukcję=
300
Zatwierdził do produkcji=
300
Kolor=szary
300
Stanowisko=Ploter
300
mat.=
  0
XRECORD
  5
1482
102
{ACAD_REACTORS
330
1481
102
}
330
1481
100
AcDbXrecord
280
     1
 70
     1
  0
XRECORD
  5
1484
102
{ACAD_REACTORS
330
1481
102
}
330
1481
100
AcDbXrecord
280
     1
340
5B
  0
XRECORD
  5
1485
102
{ACAD_REACTORS
330
1481
102
}
330
1481
100
AcDbXrecord
280
     1
340
5B
  0
XRECORD
  5
1483
102
{ACAD_REACTORS
330
1481
102
}
330
1481
100
AcDbXrecord
280
     1
340
5B
  0
LAYOUT
  5
6B
102
{ACAD_XDICTIONARY
360
14BA
102
}
102
{ACAD_REACTORS
330
62
102
}
330
62
100
AcDbPlotSettings
  1

  2

  4

  6

 40
0.0
 41
0.0
 42
0.0
 43
0.0
 44
0.0
 45
0.0
 46
0.0
 47
0.0
 48
0.0
 49
0.0
140
0.0
141
0.0
142
1.0
143
1.0
 70
   688
 72
     0
 73
     0
 74
     5
  7

 75
    16
147
1.0
148
0.0
149
0.0
100
AcDbLayout
  1
Layout1
 70
     1
 71
     1
 10
0.0
 20
0.0
 11
5940.0
 21
4200.0
 12
0.0
 22
0.0
 32
0.0
 14
0.0
 24
0.0
 34
0.0
 15
5940.0
 25
4200.0
 35
0.0
146
0.0
 13
0.0
 23
0.0
 33
0.0
 16
1.0
 26
0.0
 36
0.0
 17
0.0
 27
1.0
 37
0.0
 76
     0
330
68
  0
LAYOUT
  5
73
102
{ACAD_XDICTIONARY
360
14BE
102
}
102
{ACAD_REACTORS
330
62
102
}
330
62
100
AcDbPlotSettings
  1

  2

  4

  6

 40
0.0
 41
0.0
 42
0.0
 43
0.0
 44
0.0
 45
0.0
 46
0.0
 47
0.0
 48
0.0
 49
0.0
140
0.0
141
0.0
142
1.0
143
1.0
 70
   688
 72
     0
 73
     0
 74
     5
  7

 75
    16
147
1.0
148
0.0
149
0.0
100
AcDbLayout
  1
Layout2
 70
     1
 71
     2
 10
0.0
 20
0.0
 11
12.0
 21
9.0
 12
0.0
 22
0.0
 32
0.0
 14
0.0
 24
0.0
 34
0.0
 15
0.0
 25
0.0
 35
0.0
146
0.0
 13
0.0
 23
0.0
 33
0.0
 16
1.0
 26
0.0
 36
0.0
 17
0.0
 27
1.0
 37
0.0
 76
     0
330
70
  0
LAYOUT
  5
6F
102
{ACAD_XDICTIONARY
360
14BC
102
}
102
{ACAD_REACTORS
330
62
102
}
330
62
100
AcDbPlotSettings
  1

  2

  4

  6

 40
0.0
 41
0.0
 42
0.0
 43
0.0
 44
0.0
 45
0.0
 46
0.0
 47
0.0
 48
0.0
 49
0.0
140
0.0
141
0.0
142
1.0
143
1.0
 70
  1712
 72
     0
 73
     0
 74
     0
  7

 75
     0
147
1.0
148
0.0
149
0.0
100
AcDbLayout
  1
Model
 70
     1
 71
     0
 10
0.0
 20
0.0
 11
12.0
 21
9.0
 12
0.0
 22
0.0
 32
0.0
 14
0.0
 24
0.0
 34
0.0
 15
0.0
 25
0.0
 35
0.0
146
0.0
 13
0.0
 23
0.0
 33
0.0
 16
1.0
 26
0.0
 36
0.0
 17
0.0
 27
1.0
 37
0.0
 76
     0
330
6C
331
57
  0
MATERIAL
  5
19
102
{ACAD_XDICTIONARY
360
1A
102
}
102
{ACAD_REACTORS
330
10
102
}
330
10
100
AcDbMaterial
  1
ByBlock
 72
     0
 43
0.0208333333333333
 43
0.0
 43
0.0
 43
0.0
 43
0.0
 43
0.0208333333333333
 43
0.0
 43
0.0
 43
0.0
 43
0.0
 43
1.0
 43
0.0
 43
0.0
 43
0.0
 43
0.0
 43
1.0
 77
     0
 47
0.0208333333333333
 47
0.0
 47
0.0
 47
0.0
 47
0.0
 47
0.0208333333333333
 47
0.0
 47
0.0
 47
0.0
 47
0.0
 47
1.0
 47
0.0
 47
0.0
 47
0.0
 47
0.0
 47
1.0
171
     0
 49
0.0208333333333333
 49
0.0
 49
0.0
 49
0.0
 49
0.0
 49
0.0208333333333333
 49
0.0
 49
0.0
 49
0.0
 49
0.0
 49
1.0
 49
0.0
 49
0.0
 49
0.0
 49
0.0
 49
1.0
175
     0
142
0.0208333333333333
142
0.0
142
0.0
142
0.0
142
0.0
142
0.0208333333333333
142
0.0
142
0.0
142
0.0
142
0.0
142
1.0
142
0.0
142
0.0
142
0.0
142
0.0
142
1.0
179
     0
144
0.0208333333333333
144
0.0
144
0.0
144
0.0
144
0.0
144
0.0208333333333333
144
0.0
144
0.0
144
0.0
144
0.0
144
1.0
144
0.0
144
0.0
144
0.0
144
0.0
144
1.0
147
0.0208333333333333
147
0.0
147
0.0
147
0.0
147
0.0
147
0.0208333333333333
147
0.0
147
0.0
147
0.0
147
0.0
147
1.0
147
0.0
147
0.0
147
0.0
147
0.0
147
1.0
  0
MATERIAL
  5
11
102
{ACAD_XDICTIONARY
360
12
102
}
102
{ACAD_REACTORS
330
10
102
}
330
10
100
AcDbMaterial
  1
ByLayer
 72
     0
 43
0.0208333333333333
 43
0.0
 43
0.0
 43
0.0
 43
0.0
 43
0.0208333333333333
 43
0.0
 43
0.0
 43
0.0
 43
0.0
 43
1.0
 43
0.0
 43
0.0
 43
0.0
 43
0.0
 43
1.0
 77
     0
 47
0.0208333333333333
 47
0.0
 47
0.0
 47
0.0
 47
0.0
 47
0.0208333333333333
 47
0.0
 47
0.0
 47
0.0
 47
0.0
 47
1.0
 47
0.0
 47
0.0
 47
0.0
 47
0.0
 47
1.0
171
     0
 49
0.0208333333333333
 49
0.0
 49
0.0
 49
0.0
 49
0.0
 49
0.0208333333333333
 49
0.0
 49
0.0
 49
0.0
 49
0.0
 49
1.0
 49
0.0
 49
0.0
 49
0.0
 49
0.0
 49
1.0
175
     0
142
0.0208333333333333
142
0.0
142
0.0
142
0.0
142
0.0
142
0.0208333333333333
142
0.0
142
0.0
142
0.0
142
0.0
142
1.0
142
0.0
142
0.0
142
0.0
142
0.0
142
1.0
179
     0
144
0.0208333333333333
144
0.0
144
0.0
144
0.0
144
0.0
144
0.0208333333333333
144
0.0
144
0.0
144
0.0
144
0.0
144
1.0
144
0.0
144
0.0
144
0.0
144
0.0
144
1.0
147
0.0208333333333333
147
0.0
147
0.0
147
0.0
147
0.0
147
0.0208333333333333
147
0.0
147
0.0
147
0.0
147
0.0
147
1.0
147
0.0
147
0.0
147
0.0
147
0.0
147
1.0
  0
MATERIAL
  5
21
102
{ACAD_XDICTIONARY
360
22
102
}
102
{ACAD_REACTORS
330
10
102
}
330
10
100
AcDbMaterial
  1
Global
 72
     0
 43
0.0208333333333333
 43
0.0
 43
0.0
 43
0.0
 43
0.0
 43
0.0208333333333333
 43
0.0
 43
0.0
 43
0.0
 43
0.0
 43
1.0
 43
0.0
 43
0.0
 43
0.0
 43
0.0
 43
1.0
 77
     0
 47
0.0208333333333333
 47
0.0
 47
0.0
 47
0.0
 47
0.0
 47
0.0208333333333333
 47
0.0
 47
0.0
 47
0.0
 47
0.0
 47
1.0
 47
0.0
 47
0.0
 47
0.0
 47
0.0
 47
1.0
171
     0
 49
0.0208333333333333
 49
0.0
 49
0.0
 49
0.0
 49
0.0
 49
0.0208333333333333
 49
0.0
 49
0.0
 49
0.0
 49
0.0
 49
1.0
 49
0.0
 49
0.0
 49
0.0
 49
0.0
 49
1.0
175
     0
142
0.0208333333333333
142
0.0
142
0.0
142
0.0
142
0.0
142
0.0208333333333333
142
0.0
142
0.0
142
0.0
142
0.0
142
1.0
142
0.0
142
0.0
142
0.0
142
0.0
142
1.0
179
     0
144
0.0208333333333333
144
0.0
144
0.0
144
0.0
144
0.0
144
0.0208333333333333
144
0.0
144
0.0
144
0.0
144
0.0
144
1.0
144
0.0
144
0.0
144
0.0
144
0.0
144
1.0
147
0.0208333333333333
147
0.0
147
0.0
147
0.0
147
0.0
147
0.0208333333333333
147
0.0
147
0.0
147
0.0
147
0.0
147
1.0
147
0.0
147
0.0
147
0.0
147
0.0
147
1.0
  0
MLEADERSTYLE
  5
67
102
{ACAD_REACTORS
330
66
102
}
330
66
100
AcDbMLeaderStyle
170
     2
171
     1
172
     0
 90
        2
 40
0.0
 41
0.0
173
     1
 91
-1056964608
340
5B
 92
       -2
290
     1
 42
0.09
291
     1
 43
0.36
  3
Standard
 44
0.18
300

342
55
174
     1
178
     6
175
     1
176
     0
 93
-1056964608
 45
0.18
292
     0
297
     0
 46
0.18
 94
-1056964608
 47
1.0
 49
1.0
140
1.0
293
     1
141
0.0
294
     1
177
     0
142
1.0
295
     0
296
     0
143
0.125
1001
ACAD_MLEADERVER
1070
     2
  0
MLINESTYLE
  5
60
102
{ACAD_REACTORS
330
5F
102
}
330
5F
100
AcDbMlineStyle
  2
STANDARD
 70
     0
  3

 62
   256
 51
90.0
 52
90.0
 71
     2
 49
0.5
 62
   256
  6
BYLAYER
 49
-0.5
 62
   256
  6
BYLAYER
  0
ACDBPLACEHOLDER
  5
F
102
{ACAD_REACTORS
330
E
102
}
330
E
  0
SCALE
  5
43
102
{ACAD_REACTORS
330
42
102
}
330
42
100
AcDbScale
 70
     0
300
1:1
140
1.0
141
1.0
290
     1
  0
SCALE
  5
44
102
{ACAD_REACTORS
330
42
102
}
330
42
100
AcDbScale
 70
     0
300
1/128" = 1'-0"
140
0.0078125
141
12.0
290
     0
  0
SCALE
  5
45
102
{ACAD_REACTORS
330
42
102
}
330
42
100
AcDbScale
 70
     0
300
1/64" = 1'-0"
140
0.015625
141
12.0
290
     0
  0
SCALE
  5
46
102
{ACAD_REACTORS
330
42
102
}
330
42
100
AcDbScale
 70
     0
300
1/32" = 1'-0"
140
0.03125
141
12.0
290
     0
  0
SCALE
  5
47
102
{ACAD_REACTORS
330
42
102
}
330
42
100
AcDbScale
 70
     0
300
1/16" = 1'-0"
140
0.0625
141
12.0
290
     0
  0
SCALE
  5
48
102
{ACAD_REACTORS
330
42
102
}
330
42
100
AcDbScale
 70
     0
300
3/32" = 1'-0"
140
0.09375
141
12.0
290
     0
  0
SCALE
  5
49
102
{ACAD_REACTORS
330
42
102
}
330
42
100
AcDbScale
 70
     0
300
1/8" = 1'-0"
140
0.125
141
12.0
290
     0
  0
SCALE
  5
4A
102
{ACAD_REACTORS
330
42
102
}
330
42
100
AcDbScale
 70
     0
300
3/16" = 1'-0"
140
0.1875
141
12.0
290
     0
  0
SCALE
  5
4B
102
{ACAD_REACTORS
330
42
102
}
330
42
100
AcDbScale
 70
     0
300
1/4" = 1'-0"
140
0.25
141
12.0
290
     0
  0
SCALE
  5
4C
102
{ACAD_REACTORS
330
42
102
}
330
42
100
AcDbScale
 70
     0
300
3/8" = 1'-0"
140
0.375
141
12.0
290
     0
  0
SCALE
  5
4D
102
{ACAD_REACTORS
330
42
102
}
330
42
100
AcDbScale
 70
     0
300
1/2" = 1'-0"
140
0.5
141
12.0
290
     0
  0
SCALE
  5
4E
102
{ACAD_REACTORS
330
42
102
}
330
42
100
AcDbScale
 70
     0
300
3/4" = 1'-0"
140
0.75
141
12.0
290
     0
  0
SCALE
  5
4F
102
{ACAD_REACTORS
330
42
102
}
330
42
100
AcDbScale
 70
     0
300
1" = 1'-0"
140
1.0
141
12.0
290
     0
  0
SCALE
  5
50
102
{ACAD_REACTORS
330
42
102
}
330
42
100
AcDbScale
 70
     0
300
1-1/2" = 1'-0"
140
1.5
141
12.0
290
     0
  0
SCALE
  5
51
102
{ACAD_REACTORS
330
42
102
}
330
42
100
AcDbScale
 70
     0
300
3" = 1'-0"
140
3.0
141
12.0
290
     0
  0
SCALE
  5
52
102
{ACAD_REACTORS
330
42
102
}
330
42
100
AcDbScale
 70
     0
300
6" = 1'-0"
140
6.0
141
12.0
290
     0
  0
SCALE
  5
53
102
{ACAD_REACTORS
330
42
102
}
330
42
100
AcDbScale
 70
     0
300
1'-0" = 1'-0"
140
12.0
141
12.0
290
     0
  0
TABLESTYLE
  5
65
102
{ACAD_XDICTIONARY
360
1201
102
}
102
{ACAD_REACTORS
330
64
102
}
330
64
100
AcDbTableStyle
  3
Standard
 70
     0
 71
     0
 40
0.06
 41
0.06
280
     0
281
     0
  7
Standard
140
0.18
170
     2
 62
     0
 63
     7
283
     0
274
    -2
284
     1
 64
     0
275
    -2
285
     1
 65
     0
276
    -2
286
     1
 66
     0
277
    -2
287
     1
 67
     0
278
    -2
288
     1
 68
     0
279
    -2
289
     1
 69
     0
  7
Standard
140
0.25
170
     5
 62
     0
 63
     7
283
     0
274
    -2
284
     1
 64
     0
275
    -2
285
     1
 65
     0
276
    -2
286
     1
 66
     0
277
    -2
287
     1
 67
     0
278
    -2
288
     1
 68
     0
279
    -2
289
     1
 69
     0
  7
Standard
140
0.18
170
     5
 62
     0
 63
     7
283
     0
274
    -2
284
     1
 64
     0
275
    -2
285
     1
 65
     0
276
    -2
286
     1
 66
     0
277
    -2
287
     1
 67
     0
278
    -2
288
     1
 68
     0
279
    -2
289
     1
 69
     0
  0
VISUALSTYLE
  5
2F
102
{ACAD_XDICTIONARY
360
1493
102
}
102
{ACAD_REACTORS
330
29
102
}
330
29
100
AcDbVisualStyle
  2
2dWireframe
 70
     4
 71
     0
 72
     2
 73
     0
 90
        0
 40
-0.6
 41
-30.0
 62
     5
 63
     7
 74
     1
 91
        4
 64
     7
 65
   257
 75
     1
175
     1
 42
1.0
 92
        0
 66
   257
 43
1.0
 76
     1
 77
     6
 78
     2
 67
     7
 79
     5
170
     0
171
     0
290
     0
174
     0
 93
        1
 44
0.0
173
     0
291
     0
 45
0.0
1001
ACAD
1000
AcDbSavedByObjectVersion
1070
     0
  0
VISUALSTYLE
  5
2E
102
{ACAD_XDICTIONARY
360
1491
102
}
102
{ACAD_REACTORS
330
29
102
}
330
29
100
AcDbVisualStyle
  2
Basic
 70
     7
 71
     1
 72
     0
 73
     1
 90
        0
 40
-0.6
 41
-30.0
 62
     5
 63
     7
 74
     0
 91
        4
 64
     7
 65
   257
 75
     1
175
     1
 42
1.0
 92
        8
 66
     7
 43
1.0
 76
     1
 77
     6
 78
     2
 67
     7
 79
     5
170
     0
171
     0
290
     0
174
     0
 93
        1
 44
0.0
173
     0
291
     1
 45
0.0
1001
ACAD
1000
AcDbSavedByObjectVersion
1070
     0
  0
VISUALSTYLE
  5
35
102
{ACAD_XDICTIONARY
360
149F
102
}
102
{ACAD_REACTORS
330
29
102
}
330
29
100
AcDbVisualStyle
  2
Brighten
 70
    12
 71
     2
 72
     2
 73
     0
 90
        0
 40
-0.6
 41
-30.0
 62
     5
 63
     7
 74
     1
 91
        4
 64
     7
 65
   257
 75
     1
175
     1
 42
1.0
 92
        8
 66
     7
 43
1.0
 76
     1
 77
     6
 78
     2
 67
     7
 79
     5
170
     0
171
     0
290
     0
174
     0
 93
        1
 44
50.0
173
     0
291
     1
 45
0.0
1001
ACAD
1000
AcDbSavedByObjectVersion
1070
     0
  0
VISUALSTYLE
  5
39
102
{ACAD_XDICTIONARY
360
14A7
102
}
102
{ACAD_REACTORS
330
29
102
}
330
29
100
AcDbVisualStyle
  2
ColorChange
 70
    16
 71
     2
 72
     2
 73
     3
 90
        0
 40
-0.6
 41
-30.0
 62
     5
 63
     8
 74
     1
 91
        4
 64
     7
 65
   257
 75
     1
175
     1
 42
1.0
 92
        8
 66
     8
 43
1.0
 76
     1
 77
     6
 78
     2
 67
     7
 79
     5
170
     0
171
     0
290
     0
174
     0
 93
        1
 44
0.0
173
     0
291
     1
 45
0.0
1001
ACAD
1000
AcDbSavedByObjectVersion
1070
     0
  0
VISUALSTYLE
  5
32
102
{ACAD_XDICTIONARY
360
1499
102
}
102
{ACAD_REACTORS
330
29
102
}
330
29
100
AcDbVisualStyle
  2
Conceptual
 70
     9
 71
     3
 72
     2
 73
     0
 90
        0
 40
-0.6
 41
-30.0
 62
     5
 63
     7
 74
     2
 91
        2
 64
     7
 65
   257
 75
     1
175
     1
 42
179.0
 92
        8
 66
     7
 43
1.0
 76
     1
 77
     6
 78
     2
 67
     7
 79
     3
170
     0
171
     0
290
     0
174
     0
 93
        1
 44
0.0
173
     0
291
     0
 45
0.0
1001
ACAD
1000
AcDbSavedByObjectVersion
1070
     0
  0
VISUALSTYLE
  5
34
102
{ACAD_XDICTIONARY
360
149D
102
}
102
{ACAD_REACTORS
330
29
102
}
330
29
100
AcDbVisualStyle
  2
Dim
 70
    11
 71
     2
 72
     2
 73
     0
 90
        0
 40
-0.6
 41
-30.0
 62
     5
 63
     7
 74
     1
 91
        4
 64
     7
 65
   257
 75
     1
175
     1
 42
1.0
 92
        8
 66
     7
 43
1.0
 76
     1
 77
     6
 78
     2
 67
     7
 79
     5
170
     0
171
     0
290
     0
174
     0
 93
        1
 44
-50.0
173
     0
291
     1
 45
0.0
1001
ACAD
1000
AcDbSavedByObjectVersion
1070
     0
  0
VISUALSTYLE
  5
41
102
{ACAD_XDICTIONARY
360
14B7
102
}
102
{ACAD_REACTORS
330
29
102
}
330
29
100
AcDbVisualStyle
  2
EdgeColorOff
 70
    22
 71
     2
 72
     2
 73
     0
 90
        0
 40
-0.6
 41
-30.0
 62
     5
 63
     7
 74
     1
 91
        4
 64
     7
 65
   257
 75
     1
175
     1
 42
1.0
 92
        8
 66
     7
 43
1.0
 76
     1
 77
     6
 78
     2
 67
     7
 79
     5
170
     0
171
     0
290
     0
174
     0
 93
        1
 44
0.0
173
     0
291
     1
 45
0.0
1001
ACAD
1000
AcDbSavedByObjectVersion
1070
     0
  0
VISUALSTYLE
  5
38
102
{ACAD_XDICTIONARY
360
14A5
102
}
102
{ACAD_REACTORS
330
29
102
}
330
29
100
AcDbVisualStyle
  2
Facepattern
 70
    15
 71
     2
 72
     2
 73
     0
 90
        0
 40
-0.6
 41
-30.0
 62
     5
 63
     7
 74
     1
 91
        4
 64
     7
 65
   257
 75
     1
175
     1
 42
1.0
 92
        8
 66
     7
 43
1.0
 76
     1
 77
     6
 78
     2
 67
     7
 79
     5
170
     0
171
     0
290
     0
174
     0
 93
        1
 44
0.0
173
     0
291
     1
 45
0.0
1001
ACAD
1000
AcDbSavedByObjectVersion
1070
     0
  0
VISUALSTYLE
  5
2A
102
{ACAD_XDICTIONARY
360
1489
102
}
102
{ACAD_REACTORS
330
29
102
}
330
29
100
AcDbVisualStyle
  2
Flat
 70
     0
 71
     2
 72
     1
 73
     1
 90
        2
 40
-0.6
 41
30.0
 62
     5
 63
     7
 74
     0
 91
        0
 64
     7
 65
   257
 75
     1
175
     1
 42
1.0
 92
        8
 66
     7
 43
1.0
 76
     1
 77
     6
 78
     2
 67
     7
 79
     5
170
     0
171
     0
290
     0
174
     0
 93
       13
 44
0.0
173
     0
291
     1
 45
0.0
1001
ACAD
1000
AcDbSavedByObjectVersion
1070
     0
  0
VISUALSTYLE
  5
2B
102
{ACAD_XDICTIONARY
360
148B
102
}
102
{ACAD_REACTORS
330
29
102
}
330
29
100
AcDbVisualStyle
  2
FlatWithEdges
 70
     1
 71
     2
 72
     1
 73
     1
 90
        2
 40
-0.6
 41
30.0
 62
     5
 63
     7
 74
     1
 91
        0
 64
     7
 65
   257
 75
     1
175
     1
 42
1.0
 92
        0
 66
   257
 43
1.0
 76
     1
 77
     6
 78
     2
 67
     7
 79
     5
170
     0
171
     0
290
     0
174
     0
 93
       13
 44
0.0
173
     0
291
     1
 45
0.0
1001
ACAD
1000
AcDbSavedByObjectVersion
1070
     0
  0
VISUALSTYLE
  5
2C
102
{ACAD_XDICTIONARY
360
148D
102
}
102
{ACAD_REACTORS
330
29
102
}
330
29
100
AcDbVisualStyle
  2
Gouraud
 70
     2
 71
     2
 72
     2
 73
     1
 90
        2
 40
-0.6
 41
30.0
 62
     5
 63
     7
 74
     0
 91
        0
 64
     7
 65
   257
 75
     1
175
     1
 42
1.0
 92
        0
 66
     7
 43
1.0
 76
     1
 77
     6
 78
     2
 67
     7
 79
     5
170
     0
171
     0
290
     0
174
     0
 93
       13
 44
0.0
173
     0
291
     1
 45
0.0
1001
ACAD
1000
AcDbSavedByObjectVersion
1070
     0
  0
VISUALSTYLE
  5
2D
102
{ACAD_XDICTIONARY
360
148F
102
}
102
{ACAD_REACTORS
330
29
102
}
330
29
100
AcDbVisualStyle
  2
GouraudWithEdges
 70
     3
 71
     2
 72
     2
 73
     1
 90
        2
 40
-0.6
 41
30.0
 62
     5
 63
     7
 74
     1
 91
        0
 64
     7
 65
   257
 75
     1
175
     1
 42
1.0
 92
        0
 66
   257
 43
1.0
 76
     1
 77
     6
 78
     2
 67
     7
 79
     5
170
     0
171
     0
290
     0
174
     0
 93
       13
 44
0.0
173
     0
291
     1
 45
0.0
1001
ACAD
1000
AcDbSavedByObjectVersion
1070
     0
  0
VISUALSTYLE
  5
31
102
{ACAD_XDICTIONARY
360
1497
102
}
102
{ACAD_REACTORS
330
29
102
}
330
29
100
AcDbVisualStyle
  2
Hidden
 70
     6
 71
     1
 72
     2
 73
     2
 90
        0
 40
-0.6
 41
-30.0
 62
     5
 63
     7
 74
     2
 91
        2
 64
     7
 65
   257
 75
     2
175
     1
 42
40.0
 92
        0
 66
   257
 43
1.0
 76
     1
 77
     6
 78
     2
 67
     7
 79
     3
170
     0
171
     0
290
     0
174
     0
 93
        1
 44
0.0
173
     0
291
     0
 45
0.0
1001
ACAD
1000
AcDbSavedByObjectVersion
1070
     0
  0
VISUALSTYLE
  5
3F
102
{ACAD_XDICTIONARY
360
14B3
102
}
102
{ACAD_REACTORS
330
29
102
}
330
29
100
AcDbVisualStyle
  2
JitterOff
 70
    20
 71
     2
 72
     2
 73
     0
 90
        0
 40
-0.6
 41
-30.0
 62
     5
 63
     7
 74
     1
 91
        4
 64
     7
 65
   257
 75
     1
175
     1
 42
1.0
 92
       10
 66
     7
 43
1.0
 76
     1
 77
     6
 78
     2
 67
     7
 79
     5
170
     0
171
     0
290
     0
174
     0
 93
        1
 44
0.0
173
     0
291
     1
 45
0.0
1001
ACAD
1000
AcDbSavedByObjectVersion
1070
     0
  0
VISUALSTYLE
  5
37
102
{ACAD_XDICTIONARY
360
14A3
102
}
102
{ACAD_REACTORS
330
29
102
}
330
29
100
AcDbVisualStyle
  2
Linepattern
 70
    14
 71
     2
 72
     2
 73
     0
 90
        0
 40
-0.6
 41
-30.0
 62
     5
 63
     7
 74
     1
 91
        4
 64
     7
 65
   257
 75
     7
175
     7
 42
1.0
 92
        8
 66
     7
 43
1.0
 76
     1
 77
     6
 78
     2
 67
     7
 79
     5
170
     0
171
     0
290
     0
174
     0
 93
        1
 44
0.0
173
     0
291
     1
 45
0.0
1001
ACAD
1000
AcDbSavedByObjectVersion
1070
     0
  0
VISUALSTYLE
  5
40
102
{ACAD_XDICTIONARY
360
14B5
102
}
102
{ACAD_REACTORS
330
29
102
}
330
29
100
AcDbVisualStyle
  2
OverhangOff
 70
    21
 71
     2
 72
     2
 73
     0
 90
        0
 40
-0.6
 41
-30.0
 62
     5
 63
     7
 74
     1
 91
        4
 64
     7
 65
   257
 75
     1
175
     1
 42
1.0
 92
        9
 66
     7
 43
1.0
 76
     1
 77
     6
 78
     2
 67
     7
 79
     5
170
     0
171
     0
290
     0
174
     0
 93
        1
 44
0.0
173
     0
291
     1
 45
0.0
1001
ACAD
1000
AcDbSavedByObjectVersion
1070
     0
  0
VISUALSTYLE
  5
33
102
{ACAD_XDICTIONARY
360
149B
102
}
102
{ACAD_REACTORS
330
29
102
}
330
29
100
AcDbVisualStyle
  2
Realistic
 70
     8
 71
     2
 72
     2
 73
     0
 90
        2
 40
-0.6
 41
30.0
 62
     5
 63
     7
 74
     0
 91
        0
 64
     7
 65
   257
 75
     1
175
     1
 42
1.0
 92
        8
 66
   257
 43
1.0
 76
     1
 77
     6
 78
     2
 67
     7
 79
     3
170
     0
171
     0
290
     0
174
     0
 93
       13
 44
0.0
173
     0
291
     0
 45
0.0
1001
ACAD
1000
AcDbSavedByObjectVersion
1070
     0
  0
VISUALSTYLE
  5
3E
102
{ACAD_XDICTIONARY
360
14B1
102
}
102
{ACAD_REACTORS
330
29
102
}
330
29
100
AcDbVisualStyle
  2
Shaded
 70
    27
 71
     2
 72
     2
 73
     1
 90
        2
 40
-0.6
 41
30.0
 62
     5
 63
     7
 74
     0
 91
        4
 64
     7
 65
   257
 75
     1
175
     1
 42
1.0
 92
        8
 66
   257
 43
1.0
 76
     1
 77
     6
 78
     2
 67
     8
 79
     3
170
     0
171
     0
290
     0
174
     0
 93
        5
 44
0.0
173
     0
291
     0
 45
0.0
1001
ACAD
1000
AcDbSavedByObjectVersion
1070
     0
  0
VISUALSTYLE
  5
3D
102
{ACAD_XDICTIONARY
360
14AF
102
}
102
{ACAD_REACTORS
330
29
102
}
330
29
100
AcDbVisualStyle
  2
Shaded with edges
 70
    26
 71
     2
 72
     2
 73
     1
 90
        2
 40
-0.6
 41
30.0
 62
     5
 63
     7
 74
     1
 91
       10
 64
     7
 65
   257
 75
     2
175
     1
 42
1.0
 92
        8
 66
   257
 43
1.0
 76
     1
 77
     6
 78
     2
 67
     7
 79
     3
170
     0
171
     0
290
     0
174
     0
 93
        5
 44
0.0
173
     0
291
     0
 45
0.0
1001
ACAD
1000
AcDbSavedByObjectVersion
1070
     0
  0
VISUALSTYLE
  5
3A
102
{ACAD_XDICTIONARY
360
14A9
102
}
102
{ACAD_REACTORS
330
29
102
}
330
29
100
AcDbVisualStyle
  2
Shades of Gray
 70
    23
 71
     2
 72
     2
 73
     3
 90
        0
 40
-0.6
 41
-30.0
 62
     5
 63
     7
 74
     2
 91
        2
 64
     7
 65
     7
 75
     1
175
     1
 42
40.0
 92
        8
 66
     7
 43
1.0
 76
     1
 77
     6
 78
     2
 67
     7
 79
     3
170
     0
171
     0
290
     0
174
     0
 93
        1
 44
0.0
173
     0
291
     0
 45
0.0
1001
ACAD
1000
AcDbSavedByObjectVersion
1070
     0
  0
VISUALSTYLE
  5
3B
102
{ACAD_XDICTIONARY
360
14AB
102
}
102
{ACAD_REACTORS
330
29
102
}
330
29
100
AcDbVisualStyle
  2
Sketchy
 70
    24
 71
     1
 72
     2
 73
     2
 90
        0
 40
-0.6
 41
-30.0
 62
     5
 63
     7
 74
     2
 91
        2
 64
     7
 65
     7
 75
     1
175
     1
 42
40.0
 92
       11
 66
     7
 43
1.0
 76
     1
 77
     6
 78
     2
 67
     7
 79
     6
170
     0
171
     0
290
     0
174
     0
 93
        1
 44
0.0
173
     0
291
     0
 45
0.0
1001
ACAD
1000
AcDbSavedByObjectVersion
1070
     0
  0
VISUALSTYLE
  5
36
102
{ACAD_XDICTIONARY
360
14A1
102
}
102
{ACAD_REACTORS
330
29
102
}
330
29
100
AcDbVisualStyle
  2
Thicken
 70
    13
 71
     2
 72
     2
 73
     0
 90
        0
 40
-0.6
 41
-30.0
 62
     5
 63
     7
 74
     1
 91
        4
 64
     7
 65
   257
 75
     1
175
     1
 42
1.0
 92
       12
 66
     7
 43
1.0
 76
     1
 77
     6
 78
     2
 67
     7
 79
     5
170
     0
171
     0
290
     0
174
     0
 93
        1
 44
0.0
173
     0
291
     1
 45
0.0
1001
ACAD
1000
AcDbSavedByObjectVersion
1070
     0
  0
VISUALSTYLE
  5
30
102
{ACAD_XDICTIONARY
360
1495
102
}
102
{ACAD_REACTORS
330
29
102
}
330
29
100
AcDbVisualStyle
  2
Wireframe
 70
     5
 71
     0
 72
     2
 73
     0
 90
        0
 40
-0.6
 41
-30.0
 62
     5
 63
     7
 74
     1
 91
        4
 64
     7
 65
   257
 75
     1
175
     1
 42
1.0
 92
        0
 66
   257
 43
1.0
 76
     1
 77
     6
 78
     2
 67
     7
 79
     3
170
     0
171
     0
290
     0
174
     0
 93
        1
 44
0.0
173
     0
291
     0
 45
0.0
1001
ACAD
1000
AcDbSavedByObjectVersion
1070
     0
  0
VISUALSTYLE
  5
3C
102
{ACAD_XDICTIONARY
360
14AD
102
}
102
{ACAD_REACTORS
330
29
102
}
330
29
100
AcDbVisualStyle
  2
X-Ray
 70
    25
 71
     2
 72
     2
 73
     1
 90
        1
 40
0.5
 41
-30.0
 62
     5
 63
     7
 74
     1
 91
        0
 64
     7
 65
   257
 75
     1
175
     1
 42
1.0
 92
        8
 66
     7
 43
1.0
 76
     1
 77
     6
 78
     2
 67
     7
 79
     3
170
     0
171
     0
290
     0
174
     0
 93
       13
 44
0.0
173
     0
291
     0
 45
0.0
1001
ACAD
1000
AcDbSavedByObjectVersion
1070
     0
  0
DICTIONARYVAR
  5
125C
102
{ACAD_REACTORS
330
1258
102
}
330
1258
100
DictionaryVariables
280
     0
  1
1:1
  0
DICTIONARYVAR
  5
125A
102
{ACAD_REACTORS
330
1258
102
}
330
1258
100
DictionaryVariables
280
     0
  1
STANDARD
  0
DICTIONARYVAR
  5
1259
102
{ACAD_REACTORS
330
1258
102
}
330
1258
100
DictionaryVariables
280
     0
  1
STANDARD
  0
DICTIONARYVAR
  5
1263
102
{ACAD_REACTORS
330
1258
102
}
330
1258
100
DictionaryVariables
280
     0
  1
1
  0
DICTIONARYVAR
  5
1262
102
{ACAD_REACTORS
330
1258
102
}
330
1258
100
DictionaryVariables
280
     0
  1
1
  0
DICTIONARYVAR
  5
1261
102
{ACAD_REACTORS
330
1258
102
}
330
1258
100
DictionaryVariables
280
     0
  1
0
  0
DICTIONARYVAR
  5
125E
102
{ACAD_REACTORS
330
1258
102
}
330
1258
100
DictionaryVariables
280
     0
  1
0
  0
DICTIONARYVAR
  5
125F
102
{ACAD_REACTORS
330
1258
102
}
330
1258
100
DictionaryVariables
280
     0
  1
0
  0
DICTIONARYVAR
  5
125D
102
{ACAD_REACTORS
330
1258
102
}
330
1258
100
DictionaryVariables
280
     0
  1
2
  0
DICTIONARYVAR
  5
125B
102
{ACAD_REACTORS
330
1258
102
}
330
1258
100
DictionaryVariables
280
     0
  1
1
  0
DICTIONARYVAR
  5
1260
102
{ACAD_REACTORS
330
1258
102
}
330
1258
100
DictionaryVariables
280
     0
  1
127
  0
DICTIONARYVAR
  5
147D
102
{ACAD_REACTORS
330
1258
102
}
330
1258
100
DictionaryVariables
280
     0
  1
2
  0
DICTIONARY
  5
12C5
102
{ACAD_REACTORS
330
12BC
102
}
330
12BC
100
AcDbDictionary
281
     1
  0
DICTIONARY
  5
14BA
330
6B
100
AcDbDictionary
280
     1
281
     1
  3
ACAD_XREC_ROUNDTRIP
360
14BB
  0
DICTIONARY
  5
14BE
330
73
100
AcDbDictionary
280
     1
281
     1
  3
ACAD_XREC_ROUNDTRIP
360
14BF
  0
DICTIONARY
  5
14BC
330
6F
100
AcDbDictionary
280
     1
281
     1
  3
ACAD_XREC_ROUNDTRIP
360
14BD
  0
DICTIONARY
  5
1A
330
19
100
AcDbDictionary
280
     1
281
     1
  3
ACAD_XREC_ROUNDTRIP
360
1487
  3
BUMPTILE
360
1C
  3
DIFFUSETILE
360
1B
  3
OPACITYTILE
360
1F
  3
REFLECTIONTILE
360
1E
  3
REFRACTIONTILE
360
20
  3
SPECULARTILE
360
1D
  0
DICTIONARY
  5
12
330
11
100
AcDbDictionary
280
     1
281
     1
  3
ACAD_XREC_ROUNDTRIP
360
1486
  3
BUMPTILE
360
14
  3
DIFFUSETILE
360
13
  3
OPACITYTILE
360
17
  3
REFLECTIONTILE
360
16
  3
REFRACTIONTILE
360
18
  3
SPECULARTILE
360
15
  0
DICTIONARY
  5
22
330
21
100
AcDbDictionary
280
     1
281
     1
  3
ACAD_XREC_ROUNDTRIP
360
1488
  3
BUMPTILE
360
24
  3
DIFFUSETILE
360
23
  3
OPACITYTILE
360
27
  3
REFLECTIONTILE
360
26
  3
REFRACTIONTILE
360
28
  3
SPECULARTILE
360
25
  0
DICTIONARY
  5
1201
330
65
100
AcDbDictionary
280
     1
281
     1
  3
ACAD_ROUNDTRIP_2008_TABLESTYLE_CELLSTYLEMAP
360
147E
  3
ACAD_XREC_ROUNDTRIP
360
14B9
  0
DICTIONARY
  5
1493
330
2F
100
AcDbDictionary
280
     1
281
     1
  3
ACAD_XREC_ROUNDTRIP
360
1494
  0
DICTIONARY
  5
1491
330
2E
100
AcDbDictionary
280
     1
281
     1
  3
ACAD_XREC_ROUNDTRIP
360
1492
  0
DICTIONARY
  5
149F
330
35
100
AcDbDictionary
280
     1
281
     1
  3
ACAD_XREC_ROUNDTRIP
360
14A0
  0
DICTIONARY
  5
14A7
330
39
100
AcDbDictionary
280
     1
281
     1
  3
ACAD_XREC_ROUNDTRIP
360
14A8
  0
DICTIONARY
  5
1499
330
32
100
AcDbDictionary
280
     1
281
     1
  3
ACAD_XREC_ROUNDTRIP
360
149A
  0
DICTIONARY
  5
149D
330
34
100
AcDbDictionary
280
     1
281
     1
  3
ACAD_XREC_ROUNDTRIP
360
149E
  0
DICTIONARY
  5
14B7
330
41
100
AcDbDictionary
280
     1
281
     1
  3
ACAD_XREC_ROUNDTRIP
360
14B8
  0
DICTIONARY
  5
14A5
330
38
100
AcDbDictionary
280
     1
281
     1
  3
ACAD_XREC_ROUNDTRIP
360
14A6
  0
DICTIONARY
  5
1489
330
2A
100
AcDbDictionary
280
     1
281
     1
  3
ACAD_XREC_ROUNDTRIP
360
148A
  0
DICTIONARY
  5
148B
330
2B
100
AcDbDictionary
280
     1
281
     1
  3
ACAD_XREC_ROUNDTRIP
360
148C
  0
DICTIONARY
  5
148D
330
2C
100
AcDbDictionary
280
     1
281
     1
  3
ACAD_XREC_ROUNDTRIP
360
148E
  0
DICTIONARY
  5
148F
330
2D
100
AcDbDictionary
280
     1
281
     1
  3
ACAD_XREC_ROUNDTRIP
360
1490
  0
DICTIONARY
  5
1497
330
31
100
AcDbDictionary
280
     1
281
     1
  3
ACAD_XREC_ROUNDTRIP
360
1498
  0
DICTIONARY
  5
14B3
330
3F
100
AcDbDictionary
280
     1
281
     1
  3
ACAD_XREC_ROUNDTRIP
360
14B4
  0
DICTIONARY
  5
14A3
330
37
100
AcDbDictionary
280
     1
281
     1
  3
ACAD_XREC_ROUNDTRIP
360
14A4
  0
DICTIONARY
  5
14B5
330
40
100
AcDbDictionary
280
     1
281
     1
  3
ACAD_XREC_ROUNDTRIP
360
14B6
  0
DICTIONARY
  5
149B
330
33
100
AcDbDictionary
280
     1
281
     1
  3
ACAD_XREC_ROUNDTRIP
360
149C
  0
DICTIONARY
  5
14B1
330
3E
100
AcDbDictionary
280
     1
281
     1
  3
ACAD_XREC_ROUNDTRIP
360
14B2
  0
DICTIONARY
  5
14AF
330
3D
100
AcDbDictionary
280
     1
281
     1
  3
ACAD_XREC_ROUNDTRIP
360
14B0
  0
DICTIONARY
  5
14A9
330
3A
100
AcDbDictionary
280
     1
281
     1
  3
ACAD_XREC_ROUNDTRIP
360
14AA
  0
DICTIONARY
  5
14AB
330
3B
100
AcDbDictionary
280
     1
281
     1
  3
ACAD_XREC_ROUNDTRIP
360
14AC
  0
DICTIONARY
  5
14A1
330
36
100
AcDbDictionary
280
     1
281
     1
  3
ACAD_XREC_ROUNDTRIP
360
14A2
  0
DICTIONARY
  5
1495
330
30
100
AcDbDictionary
280
     1
281
     1
  3
ACAD_XREC_ROUNDTRIP
360
1496
  0
DICTIONARY
  5
14AD
330
3C
100
AcDbDictionary
280
     1
281
     1
  3
ACAD_XREC_ROUNDTRIP
360
14AE
  0
XRECORD
  5
14BB
102
{ACAD_REACTORS
330
14BA
102
}
330
14BA
100
AcDbXrecord
280
     1
102
SHADEPLOT
 70
     0
102
SHADEPLOTRESLEVEL
 70
     2
102
SHADEPLOTCUSTOMDPI
 70
   300
  0
XRECORD
  5
14BF
102
{ACAD_REACTORS
330
14BE
102
}
330
14BE
100
AcDbXrecord
280
     1
102
SHADEPLOT
 70
     0
102
SHADEPLOTRESLEVEL
 70
     2
102
SHADEPLOTCUSTOMDPI
 70
   300
  0
XRECORD
  5
14BD
102
{ACAD_REACTORS
330
14BC
102
}
330
14BC
100
AcDbXrecord
280
     1
102
SHADEPLOT
 70
     0
102
SHADEPLOTRESLEVEL
 70
     2
102
SHADEPLOTCUSTOMDPI
 70
   300
  0
XRECORD
  5
1487
102
{ACAD_REACTORS
330
1A
102
}
330
1A
100
AcDbXrecord
280
     1
102
MATERIAL
148
0.0
149
0.0
149
0.0
 93
        0
 94
      127
282
     0
 72
     0
 77
     0
171
     0
175
     0
179
     0
273
     0
  0
XRECORD
  5
1C
102
{ACAD_REACTORS
330
1A
102
}
330
1A
100
AcDbXrecord
280
     1
270
     1
271
     1
  0
XRECORD
  5
1B
102
{ACAD_REACTORS
330
1A
102
}
330
1A
100
AcDbXrecord
280
     1
270
     1
271
     1
  0
XRECORD
  5
1F
102
{ACAD_REACTORS
330
1A
102
}
330
1A
100
AcDbXrecord
280
     1
270
     1
271
     1
  0
XRECORD
  5
1E
102
{ACAD_REACTORS
330
1A
102
}
330
1A
100
AcDbXrecord
280
     1
270
     1
271
     1
  0
XRECORD
  5
20
102
{ACAD_REACTORS
330
1A
102
}
330
1A
100
AcDbXrecord
280
     1
270
     1
271
     1
  0
XRECORD
  5
1D
102
{ACAD_REACTORS
330
1A
102
}
330
1A
100
AcDbXrecord
280
     1
270
     1
271
     1
  0
XRECORD
  5
1486
102
{ACAD_REACTORS
330
12
102
}
330
12
100
AcDbXrecord
280
     1
102
MATERIAL
148
0.0
149
0.0
149
0.0
 93
        0
 94
      127
282
     0
 72
     0
 77
     0
171
     0
175
     0
179
     0
273
     0
  0
XRECORD
  5
14
102
{ACAD_REACTORS
330
12
102
}
330
12
100
AcDbXrecord
280
     1
270
     1
271
     1
  0
XRECORD
  5
13
102
{ACAD_REACTORS
330
12
102
}
330
12
100
AcDbXrecord
280
     1
270
     1
271
     1
  0
XRECORD
  5
17
102
{ACAD_REACTORS
330
12
102
}
330
12
100
AcDbXrecord
280
     1
270
     1
271
     1
  0
XRECORD
  5
16
102
{ACAD_REACTORS
330
12
102
}
330
12
100
AcDbXrecord
280
     1
270
     1
271
     1
  0
XRECORD
  5
18
102
{ACAD_REACTORS
330
12
102
}
330
12
100
AcDbXrecord
280
     1
270
     1
271
     1
  0
XRECORD
  5
15
102
{ACAD_REACTORS
330
12
102
}
330
12
100
AcDbXrecord
280
     1
270
     1
271
     1
  0
XRECORD
  5
1488
102
{ACAD_REACTORS
330
22
102
}
330
22
100
AcDbXrecord
280
     1
102
MATERIAL
148
0.0
149
0.0
149
0.0
 93
        0
 94
      127
282
     0
 72
     0
 77
     0
171
     0
175
     0
179
     0
273
     0
  0
XRECORD
  5
24
102
{ACAD_REACTORS
330
22
102
}
330
22
100
AcDbXrecord
280
     1
270
     1
271
     1
  0
XRECORD
  5
23
102
{ACAD_REACTORS
330
22
102
}
330
22
100
AcDbXrecord
280
     1
270
     1
271
     1
  0
XRECORD
  5
27
102
{ACAD_REACTORS
330
22
102
}
330
22
100
AcDbXrecord
280
     1
270
     1
271
     1
  0
XRECORD
  5
26
102
{ACAD_REACTORS
330
22
102
}
330
22
100
AcDbXrecord
280
     1
270
     1
271
     1
  0
XRECORD
  5
28
102
{ACAD_REACTORS
330
22
102
}
330
22
100
AcDbXrecord
280
     1
270
     1
271
     1
  0
XRECORD
  5
25
102
{ACAD_REACTORS
330
22
102
}
330
22
100
AcDbXrecord
280
     1
270
     1
271
     1
  0
CELLSTYLEMAP
  5
147E
102
{ACAD_REACTORS
330
1201
102
}
330
1201
100
AcDbCellStyleMap
 90
        3
300
CELLSTYLE
  1
TABLEFORMAT_BEGIN
 90
        5
170
     1
 91
        0
 92
    32768
 62
   257
 93
        1
300
CONTENTFORMAT
  1
CONTENTFORMAT_BEGIN
 90
        0
 91
        0
 92
      512
 93
        0
300

 40
0.0
140
1.0
 94
        5
 62
     0
340
55
144
0.25
309
CONTENTFORMAT_END
171
     0
 94
        0
309
TABLEFORMAT_END
  1
CELLSTYLE_BEGIN
 90
        1
 91
        1
300
_TITLE
309
CELLSTYLE_END
300
CELLSTYLE
  1
TABLEFORMAT_BEGIN
 90
        5
170
     1
 91
        0
 92
        0
 62
   257
 93
        1
300
CONTENTFORMAT
  1
CONTENTFORMAT_BEGIN
 90
        0
 91
        0
 92
      512
 93
        0
300

 40
0.0
140
1.0
 94
        5
 62
     0
340
55
144
0.18
309
CONTENTFORMAT_END
171
     0
 94
        0
309
TABLEFORMAT_END
  1
CELLSTYLE_BEGIN
 90
        2
 91
        1
300
_HEADER
309
CELLSTYLE_END
300
CELLSTYLE
  1
TABLEFORMAT_BEGIN
 90
        5
170
     1
 91
        0
 92
        0
 62
   257
 93
        1
300
CONTENTFORMAT
  1
CONTENTFORMAT_BEGIN
 90
        0
 91
        0
 92
      512
 93
        0
300

 40
0.0
140
1.0
 94
        2
 62
     0
340
55
144
0.18
309
CONTENTFORMAT_END
171
     0
 94
        0
309
TABLEFORMAT_END
  1
CELLSTYLE_BEGIN
 90
        3
 91
        2
300
_DATA
309
CELLSTYLE_END
  0
XRECORD
  5
14B9
102
{ACAD_REACTORS
330
1201
102
}
330
1201
100
AcDbXrecord
280
     1
102
ACAD_ROUNDTRIP_PRE2007_TABLESTYLE
 90
      512
 91
        0
  1

 92
      512
 93
        0
  2

 94
      512
 95
        0
  3

  0
XRECORD
  5
1494
102
{ACAD_REACTORS
330
1493
102
}
330
1493
100
AcDbXrecord
280
     1
102
RTVSPropertyOp0
 70
     1
102
RTVSPropertyOp1
 70
     1
102
RTVSPropertyOp2
 70
     1
102
RTVSPropertyOp3
 70
     1
102
RTVSPropertyOp4
 70
     1
102
RTVSPropertyOp5
 70
     1
102
RTVSPropertyOp6
 70
     1
102
RTVSPropertyOp7
 70
     1
102
RTVSPropertyOp8
 70
     1
102
RTVSPropertyOp9
 70
     1
102
RTVSPropertyOp10
 70
     1
102
RTVSPropertyOp11
 70
     1
102
RTVSPropertyOp12
 70
     1
102
RTVSPropertyOp13
 70
     1
102
RTVSPropertyOp14
 70
     1
102
RTVSPropertyOp15
 70
     1
102
RTVSPropertyOp16
 70
     1
102
RTVSPropertyOp17
 70
     1
102
RTVSPropertyOp18
 70
     1
102
RTVSPropertyOp19
 70
     1
102
RTVSPropertyOp20
 70
     1
102
RTVSPropertyOp21
 70
     1
102
RTVSPropertyOp22
 70
     1
102
RTVSPropertyOp23
 70
     1
102
RTVSPropertyOp24
 70
     1
102
RTVSPropertyOp25
 70
     1
102
RTVSPropertyOp26
 70
     1
102
RTVSPropertyOp27
 70
     1
102
RTVSPropertyOp28
 70
     1
102
RTVSPropertyOp29
 70
     1
102
RTVSPropertyOp30
 70
     1
102
RTVSPropertyOp31
 70
     1
102
RTVSPropertyOp32
 70
     1
  0
XRECORD
  5
1492
102
{ACAD_REACTORS
330
1491
102
}
330
1491
100
AcDbXrecord
280
     1
102
RTVSPropertyOp0
 70
     1
102
RTVSPropertyOp1
 70
     1
102
RTVSPropertyOp2
 70
     1
102
RTVSPropertyOp3
 70
     1
102
RTVSPropertyOp4
 70
     1
102
RTVSPropertyOp5
 70
     1
102
RTVSPropertyOp6
 70
     1
102
RTVSPropertyOp7
 70
     1
102
RTVSPropertyOp8
 70
     1
102
RTVSPropertyOp9
 70
     1
102
RTVSPropertyOp10
 70
     1
102
RTVSPropertyOp11
 70
     1
102
RTVSPropertyOp12
 70
     1
102
RTVSPropertyOp13
 70
     1
102
RTVSPropertyOp14
 70
     1
102
RTVSPropertyOp15
 70
     1
102
RTVSPropertyOp16
 70
     1
102
RTVSPropertyOp17
 70
     1
102
RTVSPropertyOp18
 70
     1
102
RTVSPropertyOp19
 70
     1
102
RTVSPropertyOp20
 70
     1
102
RTVSPropertyOp21
 70
     1
102
RTVSPropertyOp22
 70
     1
102
RTVSPropertyOp23
 70
     1
102
RTVSPropertyOp24
 70
     1
102
RTVSPropertyOp25
 70
     1
102
RTVSPropertyOp26
 70
     1
102
RTVSPropertyOp27
 70
     1
102
RTVSPropertyOp28
 70
     1
102
RTVSPropertyOp29
 70
     1
102
RTVSPropertyOp30
 70
     1
102
RTVSPropertyOp31
 70
     1
102
RTVSPropertyOp32
 70
     1
  0
XRECORD
  5
14A0
102
{ACAD_REACTORS
330
149F
102
}
330
149F
100
AcDbXrecord
280
     1
102
RTVSPropertyOp0
 70
     1
102
RTVSPropertyOp1
 70
     1
102
RTVSPropertyOp2
 70
     1
102
RTVSPropertyOp3
 70
     1
102
RTVSPropertyOp4
 70
     1
102
RTVSPropertyOp5
 70
     1
102
RTVSPropertyOp6
 70
     1
102
RTVSPropertyOp7
 70
     1
102
RTVSPropertyOp8
 70
     1
102
RTVSPropertyOp9
 70
     1
102
RTVSPropertyOp10
 70
     1
102
RTVSPropertyOp11
 70
     1
102
RTVSPropertyOp12
 70
     1
102
RTVSPropertyOp13
 70
     1
102
RTVSPropertyOp14
 70
     1
102
RTVSPropertyOp15
 70
     1
102
RTVSPropertyOp16
 70
     1
102
RTVSPropertyOp17
 70
     1
102
RTVSPropertyOp18
 70
     1
102
RTVSPropertyOp19
 70
     1
102
RTVSPropertyOp20
 70
     1
102
RTVSPropertyOp21
 70
     1
102
RTVSPropertyOp22
 70
     1
102
RTVSPropertyOp23
 70
     1
102
RTVSPropertyOp24
 70
     1
102
RTVSPropertyOp25
 70
     1
102
RTVSPropertyOp26
 70
     1
102
RTVSPropertyOp27
 70
     1
102
RTVSPropertyOp28
 70
     1
102
RTVSPropertyOp29
 70
     1
102
RTVSPropertyOp30
 70
     1
102
RTVSPropertyOp31
 70
     1
102
RTVSPropertyOp32
 70
     1
  0
XRECORD
  5
14A8
102
{ACAD_REACTORS
330
14A7
102
}
330
14A7
100
AcDbXrecord
280
     1
102
RTVSPropertyOp0
 70
     1
102
RTVSPropertyOp1
 70
     1
102
RTVSPropertyOp2
 70
     1
102
RTVSPropertyOp3
 70
     1
102
RTVSPropertyOp4
 70
     1
102
RTVSPropertyOp5
 70
     1
102
RTVSPropertyOp6
 70
     1
102
RTVSPropertyOp7
 70
     1
102
RTVSPropertyOp8
 70
     1
102
RTVSPropertyOp9
 70
     1
102
RTVSPropertyOp10
 70
     1
102
RTVSPropertyOp11
 70
     1
102
RTVSPropertyOp12
 70
     1
102
RTVSPropertyOp13
 70
     1
102
RTVSPropertyOp14
 70
     1
102
RTVSPropertyOp15
 70
     1
102
RTVSPropertyOp16
 70
     1
102
RTVSPropertyOp17
 70
     1
102
RTVSPropertyOp18
 70
     1
102
RTVSPropertyOp19
 70
     1
102
RTVSPropertyOp20
 70
     1
102
RTVSPropertyOp21
 70
     1
102
RTVSPropertyOp22
 70
     1
102
RTVSPropertyOp23
 70
     1
102
RTVSPropertyOp24
 70
     1
102
RTVSPropertyOp25
 70
     1
102
RTVSPropertyOp26
 70
     1
102
RTVSPropertyOp27
 70
     1
102
RTVSPropertyOp28
 70
     1
102
RTVSPropertyOp29
 70
     1
102
RTVSPropertyOp30
 70
     1
102
RTVSPropertyOp31
 70
     1
102
RTVSPropertyOp32
 70
     1
  0
XRECORD
  5
149A
102
{ACAD_REACTORS
330
1499
102
}
330
1499
100
AcDbXrecord
280
     1
102
RTVSPropertyOp0
 70
     1
102
RTVSPropertyOp1
 70
     1
102
RTVSPropertyOp2
 70
     1
102
RTVSPropertyOp3
 70
     1
102
RTVSPropertyOp4
 70
     1
102
RTVSPropertyOp5
 70
     1
102
RTVSPropertyOp6
 70
     1
102
RTVSPropertyOp7
 70
     1
102
RTVSPropertyOp8
 70
     1
102
RTVSPropertyOp9
 70
     1
102
RTVSPropertyOp10
 70
     1
102
RTVSPropertyOp11
 70
     1
102
RTVSPropertyOp12
 70
     1
102
RTVSPropertyOp13
 70
     1
102
RTVSPropertyOp14
 70
     1
102
RTVSPropertyOp15
 70
     1
102
RTVSPropertyOp16
 70
     1
102
RTVSPropertyOp17
 70
     1
102
RTVSPropertyOp18
 70
     1
102
RTVSPropertyOp19
 70
     1
102
RTVSPropertyOp20
 70
     1
102
RTVSPropertyOp21
 70
     1
102
RTVSPropertyOp22
 70
     1
102
RTVSPropertyOp23
 70
     1
102
RTVSPropertyOp24
 70
     1
102
RTVSPropertyOp25
 70
     1
102
RTVSPropertyOp26
 70
     1
102
RTVSPropertyOp27
 70
     1
102
RTVSPropertyOp28
 70
     1
102
RTVSPropertyOp29
 70
     1
102
RTVSPropertyOp30
 70
     1
102
RTVSPropertyOp31
 70
     1
102
RTVSPropertyOp32
 70
     1
  0
XRECORD
  5
149E
102
{ACAD_REACTORS
330
149D
102
}
330
149D
100
AcDbXrecord
280
     1
102
RTVSPropertyOp0
 70
     1
102
RTVSPropertyOp1
 70
     1
102
RTVSPropertyOp2
 70
     1
102
RTVSPropertyOp3
 70
     1
102
RTVSPropertyOp4
 70
     1
102
RTVSPropertyOp5
 70
     1
102
RTVSPropertyOp6
 70
     1
102
RTVSPropertyOp7
 70
     1
102
RTVSPropertyOp8
 70
     1
102
RTVSPropertyOp9
 70
     1
102
RTVSPropertyOp10
 70
     1
102
RTVSPropertyOp11
 70
     1
102
RTVSPropertyOp12
 70
     1
102
RTVSPropertyOp13
 70
     1
102
RTVSPropertyOp14
 70
     1
102
RTVSPropertyOp15
 70
     1
102
RTVSPropertyOp16
 70
     1
102
RTVSPropertyOp17
 70
     1
102
RTVSPropertyOp18
 70
     1
102
RTVSPropertyOp19
 70
     1
102
RTVSPropertyOp20
 70
     1
102
RTVSPropertyOp21
 70
     1
102
RTVSPropertyOp22
 70
     1
102
RTVSPropertyOp23
 70
     1
102
RTVSPropertyOp24
 70
     1
102
RTVSPropertyOp25
 70
     1
102
RTVSPropertyOp26
 70
     1
102
RTVSPropertyOp27
 70
     1
102
RTVSPropertyOp28
 70
     1
102
RTVSPropertyOp29
 70
     1
102
RTVSPropertyOp30
 70
     1
102
RTVSPropertyOp31
 70
     1
102
RTVSPropertyOp32
 70
     1
  0
XRECORD
  5
14B8
102
{ACAD_REACTORS
330
14B7
102
}
330
14B7
100
AcDbXrecord
280
     1
102
RTVSPropertyOp0
 70
     0
102
RTVSPropertyOp1
 70
     0
102
RTVSPropertyOp2
 70
     0
102
RTVSPropertyOp3
 70
     0
102
RTVSPropertyOp4
 70
     0
102
RTVSPropertyOp5
 70
     0
102
RTVSPropertyOp6
 70
     0
102
RTVSPropertyOp7
 70
     0
102
RTVSPropertyOp8
 70
     0
102
RTVSPropertyOp9
 70
     0
102
RTVSPropertyOp10
 70
     0
102
RTVSPropertyOp11
 70
     0
102
RTVSPropertyOp12
 70
     0
102
RTVSPropertyOp13
 70
     0
102
RTVSPropertyOp14
 70
     2
102
RTVSPropertyOp15
 70
     0
102
RTVSPropertyOp16
 70
     0
102
RTVSPropertyOp17
 70
     0
102
RTVSPropertyOp18
 70
     0
102
RTVSPropertyOp19
 70
     0
102
RTVSPropertyOp20
 70
     0
102
RTVSPropertyOp21
 70
     0
102
RTVSPropertyOp22
 70
     0
102
RTVSPropertyOp23
 70
     0
102
RTVSPropertyOp24
 70
     0
102
RTVSPropertyOp25
 70
     0
102
RTVSPropertyOp26
 70
     0
102
RTVSPropertyOp27
 70
     0
102
RTVSPropertyOp28
 70
     0
102
RTVSPropertyOp29
 70
     0
102
RTVSPropertyOp30
 70
     0
102
RTVSPropertyOp31
 70
     0
102
RTVSPropertyOp32
 70
     0
  0
XRECORD
  5
14A6
102
{ACAD_REACTORS
330
14A5
102
}
330
14A5
100
AcDbXrecord
280
     1
102
RTVSPropertyOp0
 70
     1
102
RTVSPropertyOp1
 70
     1
102
RTVSPropertyOp2
 70
     1
102
RTVSPropertyOp3
 70
     1
102
RTVSPropertyOp4
 70
     1
102
RTVSPropertyOp5
 70
     1
102
RTVSPropertyOp6
 70
     1
102
RTVSPropertyOp7
 70
     1
102
RTVSPropertyOp8
 70
     1
102
RTVSPropertyOp9
 70
     1
102
RTVSPropertyOp10
 70
     1
102
RTVSPropertyOp11
 70
     1
102
RTVSPropertyOp12
 70
     1
102
RTVSPropertyOp13
 70
     1
102
RTVSPropertyOp14
 70
     1
102
RTVSPropertyOp15
 70
     1
102
RTVSPropertyOp16
 70
     1
102
RTVSPropertyOp17
 70
     1
102
RTVSPropertyOp18
 70
     1
102
RTVSPropertyOp19
 70
     1
102
RTVSPropertyOp20
 70
     1
102
RTVSPropertyOp21
 70
     1
102
RTVSPropertyOp22
 70
     1
102
RTVSPropertyOp23
 70
     1
102
RTVSPropertyOp24
 70
     1
102
RTVSPropertyOp25
 70
     1
102
RTVSPropertyOp26
 70
     1
102
RTVSPropertyOp27
 70
     1
102
RTVSPropertyOp28
 70
     1
102
RTVSPropertyOp29
 70
     1
102
RTVSPropertyOp30
 70
     1
102
RTVSPropertyOp31
 70
     1
102
RTVSPropertyOp32
 70
     1
  0
XRECORD
  5
148A
102
{ACAD_REACTORS
330
1489
102
}
330
1489
100
AcDbXrecord
280
     1
102
RTVSPropertyOp0
 70
     1
102
RTVSPropertyOp1
 70
     1
102
RTVSPropertyOp2
 70
     1
102
RTVSPropertyOp3
 70
     1
102
RTVSPropertyOp4
 70
     1
102
RTVSPropertyOp5
 70
     1
102
RTVSPropertyOp6
 70
     1
102
RTVSPropertyOp7
 70
     1
102
RTVSPropertyOp8
 70
     1
102
RTVSPropertyOp9
 70
     1
102
RTVSPropertyOp10
 70
     1
102
RTVSPropertyOp11
 70
     1
102
RTVSPropertyOp12
 70
     1
102
RTVSPropertyOp13
 70
     1
102
RTVSPropertyOp14
 70
     1
102
RTVSPropertyOp15
 70
     1
102
RTVSPropertyOp16
 70
     1
102
RTVSPropertyOp17
 70
     1
102
RTVSPropertyOp18
 70
     1
102
RTVSPropertyOp19
 70
     1
102
RTVSPropertyOp20
 70
     1
102
RTVSPropertyOp21
 70
     1
102
RTVSPropertyOp22
 70
     1
102
RTVSPropertyOp23
 70
     1
102
RTVSPropertyOp24
 70
     1
102
RTVSPropertyOp25
 70
     1
102
RTVSPropertyOp26
 70
     1
102
RTVSPropertyOp27
 70
     1
102
RTVSPropertyOp28
 70
     1
102
RTVSPropertyOp29
 70
     1
102
RTVSPropertyOp30
 70
     1
102
RTVSPropertyOp31
 70
     1
102
RTVSPropertyOp32
 70
     1
  0
XRECORD
  5
148C
102
{ACAD_REACTORS
330
148B
102
}
330
148B
100
AcDbXrecord
280
     1
102
RTVSPropertyOp0
 70
     1
102
RTVSPropertyOp1
 70
     1
102
RTVSPropertyOp2
 70
     1
102
RTVSPropertyOp3
 70
     1
102
RTVSPropertyOp4
 70
     1
102
RTVSPropertyOp5
 70
     1
102
RTVSPropertyOp6
 70
     1
102
RTVSPropertyOp7
 70
     1
102
RTVSPropertyOp8
 70
     1
102
RTVSPropertyOp9
 70
     1
102
RTVSPropertyOp10
 70
     1
102
RTVSPropertyOp11
 70
     1
102
RTVSPropertyOp12
 70
     1
102
RTVSPropertyOp13
 70
     1
102
RTVSPropertyOp14
 70
     1
102
RTVSPropertyOp15
 70
     1
102
RTVSPropertyOp16
 70
     1
102
RTVSPropertyOp17
 70
     1
102
RTVSPropertyOp18
 70
     1
102
RTVSPropertyOp19
 70
     1
102
RTVSPropertyOp20
 70
     1
102
RTVSPropertyOp21
 70
     1
102
RTVSPropertyOp22
 70
     1
102
RTVSPropertyOp23
 70
     1
102
RTVSPropertyOp24
 70
     1
102
RTVSPropertyOp25
 70
     1
102
RTVSPropertyOp26
 70
     1
102
RTVSPropertyOp27
 70
     1
102
RTVSPropertyOp28
 70
     1
102
RTVSPropertyOp29
 70
     1
102
RTVSPropertyOp30
 70
     1
102
RTVSPropertyOp31
 70
     1
102
RTVSPropertyOp32
 70
     1
  0
XRECORD
  5
148E
102
{ACAD_REACTORS
330
148D
102
}
330
148D
100
AcDbXrecord
280
     1
102
RTVSPropertyOp0
 70
     1
102
RTVSPropertyOp1
 70
     1
102
RTVSPropertyOp2
 70
     1
102
RTVSPropertyOp3
 70
     1
102
RTVSPropertyOp4
 70
     1
102
RTVSPropertyOp5
 70
     1
102
RTVSPropertyOp6
 70
     1
102
RTVSPropertyOp7
 70
     1
102
RTVSPropertyOp8
 70
     1
102
RTVSPropertyOp9
 70
     1
102
RTVSPropertyOp10
 70
     1
102
RTVSPropertyOp11
 70
     1
102
RTVSPropertyOp12
 70
     1
102
RTVSPropertyOp13
 70
     1
102
RTVSPropertyOp14
 70
     1
102
RTVSPropertyOp15
 70
     1
102
RTVSPropertyOp16
 70
     1
102
RTVSPropertyOp17
 70
     1
102
RTVSPropertyOp18
 70
     1
102
RTVSPropertyOp19
 70
     1
102
RTVSPropertyOp20
 70
     1
102
RTVSPropertyOp21
 70
     1
102
RTVSPropertyOp22
 70
     1
102
RTVSPropertyOp23
 70
     1
102
RTVSPropertyOp24
 70
     1
102
RTVSPropertyOp25
 70
     1
102
RTVSPropertyOp26
 70
     1
102
RTVSPropertyOp27
 70
     1
102
RTVSPropertyOp28
 70
     1
102
RTVSPropertyOp29
 70
     1
102
RTVSPropertyOp30
 70
     1
102
RTVSPropertyOp31
 70
     1
102
RTVSPropertyOp32
 70
     1
  0
XRECORD
  5
1490
102
{ACAD_REACTORS
330
148F
102
}
330
148F
100
AcDbXrecord
280
     1
102
RTVSPropertyOp0
 70
     1
102
RTVSPropertyOp1
 70
     1
102
RTVSPropertyOp2
 70
     1
102
RTVSPropertyOp3
 70
     1
102
RTVSPropertyOp4
 70
     1
102
RTVSPropertyOp5
 70
     1
102
RTVSPropertyOp6
 70
     1
102
RTVSPropertyOp7
 70
     1
102
RTVSPropertyOp8
 70
     1
102
RTVSPropertyOp9
 70
     1
102
RTVSPropertyOp10
 70
     1
102
RTVSPropertyOp11
 70
     1
102
RTVSPropertyOp12
 70
     1
102
RTVSPropertyOp13
 70
     1
102
RTVSPropertyOp14
 70
     1
102
RTVSPropertyOp15
 70
     1
102
RTVSPropertyOp16
 70
     1
102
RTVSPropertyOp17
 70
     1
102
RTVSPropertyOp18
 70
     1
102
RTVSPropertyOp19
 70
     1
102
RTVSPropertyOp20
 70
     1
102
RTVSPropertyOp21
 70
     1
102
RTVSPropertyOp22
 70
     1
102
RTVSPropertyOp23
 70
     1
102
RTVSPropertyOp24
 70
     1
102
RTVSPropertyOp25
 70
     1
102
RTVSPropertyOp26
 70
     1
102
RTVSPropertyOp27
 70
     1
102
RTVSPropertyOp28
 70
     1
102
RTVSPropertyOp29
 70
     1
102
RTVSPropertyOp30
 70
     1
102
RTVSPropertyOp31
 70
     1
102
RTVSPropertyOp32
 70
     1
  0
XRECORD
  5
1498
102
{ACAD_REACTORS
330
1497
102
}
330
1497
100
AcDbXrecord
280
     1
102
RTVSPropertyOp0
 70
     1
102
RTVSPropertyOp1
 70
     1
102
RTVSPropertyOp2
 70
     1
102
RTVSPropertyOp3
 70
     1
102
RTVSPropertyOp4
 70
     1
102
RTVSPropertyOp5
 70
     1
102
RTVSPropertyOp6
 70
     1
102
RTVSPropertyOp7
 70
     1
102
RTVSPropertyOp8
 70
     1
102
RTVSPropertyOp9
 70
     1
102
RTVSPropertyOp10
 70
     1
102
RTVSPropertyOp11
 70
     1
102
RTVSPropertyOp12
 70
     1
102
RTVSPropertyOp13
 70
     1
102
RTVSPropertyOp14
 70
     1
102
RTVSPropertyOp15
 70
     1
102
RTVSPropertyOp16
 70
     1
102
RTVSPropertyOp17
 70
     1
102
RTVSPropertyOp18
 70
     1
102
RTVSPropertyOp19
 70
     1
102
RTVSPropertyOp20
 70
     1
102
RTVSPropertyOp21
 70
     1
102
RTVSPropertyOp22
 70
     1
102
RTVSPropertyOp23
 70
     1
102
RTVSPropertyOp24
 70
     1
102
RTVSPropertyOp25
 70
     1
102
RTVSPropertyOp26
 70
     1
102
RTVSPropertyOp27
 70
     1
102
RTVSPropertyOp28
 70
     1
102
RTVSPropertyOp29
 70
     1
102
RTVSPropertyOp30
 70
     1
102
RTVSPropertyOp31
 70
     1
102
RTVSPropertyOp32
 70
     1
  0
XRECORD
  5
14B4
102
{ACAD_REACTORS
330
14B3
102
}
330
14B3
100
AcDbXrecord
280
     1
102
RTVSPropertyOp0
 70
     0
102
RTVSPropertyOp1
 70
     0
102
RTVSPropertyOp2
 70
     0
102
RTVSPropertyOp3
 70
     0
102
RTVSPropertyOp4
 70
     0
102
RTVSPropertyOp5
 70
     0
102
RTVSPropertyOp6
 70
     0
102
RTVSPropertyOp7
 70
     0
102
RTVSPropertyOp8
 70
     0
102
RTVSPropertyOp9
 70
     0
102
RTVSPropertyOp10
 70
     0
102
RTVSPropertyOp11
 70
     0
102
RTVSPropertyOp12
 70
     0
102
RTVSPropertyOp13
 70
     0
102
RTVSPropertyOp14
 70
     2
102
RTVSPropertyOp15
 70
     0
102
RTVSPropertyOp16
 70
     0
102
RTVSPropertyOp17
 70
     0
102
RTVSPropertyOp18
 70
     0
102
RTVSPropertyOp19
 70
     0
102
RTVSPropertyOp20
 70
     0
102
RTVSPropertyOp21
 70
     0
102
RTVSPropertyOp22
 70
     0
102
RTVSPropertyOp23
 70
     0
102
RTVSPropertyOp24
 70
     0
102
RTVSPropertyOp25
 70
     0
102
RTVSPropertyOp26
 70
     0
102
RTVSPropertyOp27
 70
     0
102
RTVSPropertyOp28
 70
     0
102
RTVSPropertyOp29
 70
     0
102
RTVSPropertyOp30
 70
     0
102
RTVSPropertyOp31
 70
     0
102
RTVSPropertyOp32
 70
     0
  0
XRECORD
  5
14A4
102
{ACAD_REACTORS
330
14A3
102
}
330
14A3
100
AcDbXrecord
280
     1
102
RTVSPropertyOp0
 70
     1
102
RTVSPropertyOp1
 70
     1
102
RTVSPropertyOp2
 70
     1
102
RTVSPropertyOp3
 70
     1
102
RTVSPropertyOp4
 70
     1
102
RTVSPropertyOp5
 70
     1
102
RTVSPropertyOp6
 70
     1
102
RTVSPropertyOp7
 70
     1
102
RTVSPropertyOp8
 70
     1
102
RTVSPropertyOp9
 70
     1
102
RTVSPropertyOp10
 70
     1
102
RTVSPropertyOp11
 70
     1
102
RTVSPropertyOp12
 70
     1
102
RTVSPropertyOp13
 70
     1
102
RTVSPropertyOp14
 70
     1
102
RTVSPropertyOp15
 70
     1
102
RTVSPropertyOp16
 70
     1
102
RTVSPropertyOp17
 70
     1
102
RTVSPropertyOp18
 70
     1
102
RTVSPropertyOp19
 70
     1
102
RTVSPropertyOp20
 70
     1
102
RTVSPropertyOp21
 70
     1
102
RTVSPropertyOp22
 70
     1
102
RTVSPropertyOp23
 70
     1
102
RTVSPropertyOp24
 70
     1
102
RTVSPropertyOp25
 70
     1
102
RTVSPropertyOp26
 70
     1
102
RTVSPropertyOp27
 70
     1
102
RTVSPropertyOp28
 70
     1
102
RTVSPropertyOp29
 70
     1
102
RTVSPropertyOp30
 70
     1
102
RTVSPropertyOp31
 70
     1
102
RTVSPropertyOp32
 70
     1
  0
XRECORD
  5
14B6
102
{ACAD_REACTORS
330
14B5
102
}
330
14B5
100
AcDbXrecord
280
     1
102
RTVSPropertyOp0
 70
     0
102
RTVSPropertyOp1
 70
     0
102
RTVSPropertyOp2
 70
     0
102
RTVSPropertyOp3
 70
     0
102
RTVSPropertyOp4
 70
     0
102
RTVSPropertyOp5
 70
     0
102
RTVSPropertyOp6
 70
     0
102
RTVSPropertyOp7
 70
     0
102
RTVSPropertyOp8
 70
     0
102
RTVSPropertyOp9
 70
     0
102
RTVSPropertyOp10
 70
     0
102
RTVSPropertyOp11
 70
     0
102
RTVSPropertyOp12
 70
     0
102
RTVSPropertyOp13
 70
     0
102
RTVSPropertyOp14
 70
     2
102
RTVSPropertyOp15
 70
     0
102
RTVSPropertyOp16
 70
     0
102
RTVSPropertyOp17
 70
     0
102
RTVSPropertyOp18
 70
     0
102
RTVSPropertyOp19
 70
     0
102
RTVSPropertyOp20
 70
     0
102
RTVSPropertyOp21
 70
     0
102
RTVSPropertyOp22
 70
     0
102
RTVSPropertyOp23
 70
     0
102
RTVSPropertyOp24
 70
     0
102
RTVSPropertyOp25
 70
     0
102
RTVSPropertyOp26
 70
     0
102
RTVSPropertyOp27
 70
     0
102
RTVSPropertyOp28
 70
     0
102
RTVSPropertyOp29
 70
     0
102
RTVSPropertyOp30
 70
     0
102
RTVSPropertyOp31
 70
     0
102
RTVSPropertyOp32
 70
     0
  0
XRECORD
  5
149C
102
{ACAD_REACTORS
330
149B
102
}
330
149B
100
AcDbXrecord
280
     1
102
RTVSPropertyOp0
 70
     1
102
RTVSPropertyOp1
 70
     1
102
RTVSPropertyOp2
 70
     1
102
RTVSPropertyOp3
 70
     1
102
RTVSPropertyOp4
 70
     1
102
RTVSPropertyOp5
 70
     1
102
RTVSPropertyOp6
 70
     1
102
RTVSPropertyOp7
 70
     1
102
RTVSPropertyOp8
 70
     1
102
RTVSPropertyOp9
 70
     1
102
RTVSPropertyOp10
 70
     1
102
RTVSPropertyOp11
 70
     1
102
RTVSPropertyOp12
 70
     1
102
RTVSPropertyOp13
 70
     1
102
RTVSPropertyOp14
 70
     1
102
RTVSPropertyOp15
 70
     1
102
RTVSPropertyOp16
 70
     1
102
RTVSPropertyOp17
 70
     1
102
RTVSPropertyOp18
 70
     1
102
RTVSPropertyOp19
 70
     1
102
RTVSPropertyOp20
 70
     1
102
RTVSPropertyOp21
 70
     1
102
RTVSPropertyOp22
 70
     1
102
RTVSPropertyOp23
 70
     1
102
RTVSPropertyOp24
 70
     1
102
RTVSPropertyOp25
 70
     1
102
RTVSPropertyOp26
 70
     1
102
RTVSPropertyOp27
 70
     1
102
RTVSPropertyOp28
 70
     1
102
RTVSPropertyOp29
 70
     1
102
RTVSPropertyOp30
 70
     1
102
RTVSPropertyOp31
 70
     1
102
RTVSPropertyOp32
 70
     1
  0
XRECORD
  5
14B2
102
{ACAD_REACTORS
330
14B1
102
}
330
14B1
100
AcDbXrecord
280
     1
102
RTVSPropertyOp0
 70
     1
102
RTVSPropertyOp1
 70
     1
102
RTVSPropertyOp2
 70
     1
102
RTVSPropertyOp3
 70
     1
102
RTVSPropertyOp4
 70
     1
102
RTVSPropertyOp5
 70
     1
102
RTVSPropertyOp6
 70
     1
102
RTVSPropertyOp7
 70
     1
102
RTVSPropertyOp8
 70
     1
102
RTVSPropertyOp9
 70
     1
102
RTVSPropertyOp10
 70
     1
102
RTVSPropertyOp11
 70
     1
102
RTVSPropertyOp12
 70
     1
102
RTVSPropertyOp13
 70
     1
102
RTVSPropertyOp14
 70
     1
102
RTVSPropertyOp15
 70
     1
102
RTVSPropertyOp16
 70
     1
102
RTVSPropertyOp17
 70
     1
102
RTVSPropertyOp18
 70
     1
102
RTVSPropertyOp19
 70
     1
102
RTVSPropertyOp20
 70
     1
102
RTVSPropertyOp21
 70
     1
102
RTVSPropertyOp22
 70
     1
102
RTVSPropertyOp23
 70
     1
102
RTVSPropertyOp24
 70
     1
102
RTVSPropertyOp25
 70
     1
102
RTVSPropertyOp26
 70
     1
102
RTVSPropertyOp27
 70
     1
102
RTVSPropertyOp28
 70
     1
102
RTVSPropertyOp29
 70
     1
102
RTVSPropertyOp30
 70
     1
102
RTVSPropertyOp31
 70
     1
102
RTVSPropertyOp32
 70
     1
  0
XRECORD
  5
14B0
102
{ACAD_REACTORS
330
14AF
102
}
330
14AF
100
AcDbXrecord
280
     1
102
RTVSPropertyOp0
 70
     1
102
RTVSPropertyOp1
 70
     1
102
RTVSPropertyOp2
 70
     1
102
RTVSPropertyOp3
 70
     1
102
RTVSPropertyOp4
 70
     1
102
RTVSPropertyOp5
 70
     1
102
RTVSPropertyOp6
 70
     1
102
RTVSPropertyOp7
 70
     1
102
RTVSPropertyOp8
 70
     1
102
RTVSPropertyOp9
 70
     1
102
RTVSPropertyOp10
 70
     1
102
RTVSPropertyOp11
 70
     1
102
RTVSPropertyOp12
 70
     1
102
RTVSPropertyOp13
 70
     1
102
RTVSPropertyOp14
 70
     1
102
RTVSPropertyOp15
 70
     1
102
RTVSPropertyOp16
 70
     1
102
RTVSPropertyOp17
 70
     1
102
RTVSPropertyOp18
 70
     1
102
RTVSPropertyOp19
 70
     1
102
RTVSPropertyOp20
 70
     1
102
RTVSPropertyOp21
 70
     1
102
RTVSPropertyOp22
 70
     1
102
RTVSPropertyOp23
 70
     1
102
RTVSPropertyOp24
 70
     1
102
RTVSPropertyOp25
 70
     1
102
RTVSPropertyOp26
 70
     1
102
RTVSPropertyOp27
 70
     1
102
RTVSPropertyOp28
 70
     1
102
RTVSPropertyOp29
 70
     1
102
RTVSPropertyOp30
 70
     1
102
RTVSPropertyOp31
 70
     1
102
RTVSPropertyOp32
 70
     1
  0
XRECORD
  5
14AA
102
{ACAD_REACTORS
330
14A9
102
}
330
14A9
100
AcDbXrecord
280
     1
102
RTVSPropertyOp0
 70
     1
102
RTVSPropertyOp1
 70
     1
102
RTVSPropertyOp2
 70
     1
102
RTVSPropertyOp3
 70
     1
102
RTVSPropertyOp4
 70
     1
102
RTVSPropertyOp5
 70
     1
102
RTVSPropertyOp6
 70
     1
102
RTVSPropertyOp7
 70
     1
102
RTVSPropertyOp8
 70
     1
102
RTVSPropertyOp9
 70
     1
102
RTVSPropertyOp10
 70
     1
102
RTVSPropertyOp11
 70
     1
102
RTVSPropertyOp12
 70
     1
102
RTVSPropertyOp13
 70
     1
102
RTVSPropertyOp14
 70
     1
102
RTVSPropertyOp15
 70
     1
102
RTVSPropertyOp16
 70
     1
102
RTVSPropertyOp17
 70
     1
102
RTVSPropertyOp18
 70
     1
102
RTVSPropertyOp19
 70
     1
102
RTVSPropertyOp20
 70
     1
102
RTVSPropertyOp21
 70
     1
102
RTVSPropertyOp22
 70
     1
102
RTVSPropertyOp23
 70
     1
102
RTVSPropertyOp24
 70
     1
102
RTVSPropertyOp25
 70
     1
102
RTVSPropertyOp26
 70
     1
102
RTVSPropertyOp27
 70
     1
102
RTVSPropertyOp28
 70
     1
102
RTVSPropertyOp29
 70
     1
102
RTVSPropertyOp30
 70
     1
102
RTVSPropertyOp31
 70
     1
102
RTVSPropertyOp32
 70
     1
  0
XRECORD
  5
14AC
102
{ACAD_REACTORS
330
14AB
102
}
330
14AB
100
AcDbXrecord
280
     1
102
RTVSPropertyOp0
 70
     1
102
RTVSPropertyOp1
 70
     1
102
RTVSPropertyOp2
 70
     1
102
RTVSPropertyOp3
 70
     1
102
RTVSPropertyOp4
 70
     1
102
RTVSPropertyOp5
 70
     1
102
RTVSPropertyOp6
 70
     1
102
RTVSPropertyOp7
 70
     1
102
RTVSPropertyOp8
 70
     1
102
RTVSPropertyOp9
 70
     1
102
RTVSPropertyOp10
 70
     1
102
RTVSPropertyOp11
 70
     1
102
RTVSPropertyOp12
 70
     1
102
RTVSPropertyOp13
 70
     1
102
RTVSPropertyOp14
 70
     1
102
RTVSPropertyOp15
 70
     1
102
RTVSPropertyOp16
 70
     1
102
RTVSPropertyOp17
 70
     1
102
RTVSPropertyOp18
 70
     1
102
RTVSPropertyOp19
 70
     1
102
RTVSPropertyOp20
 70
     1
102
RTVSPropertyOp21
 70
     1
102
RTVSPropertyOp22
 70
     1
102
RTVSPropertyOp23
 70
     1
102
RTVSPropertyOp24
 70
     1
102
RTVSPropertyOp25
 70
     1
102
RTVSPropertyOp26
 70
     1
102
RTVSPropertyOp27
 70
     1
102
RTVSPropertyOp28
 70
     1
102
RTVSPropertyOp29
 70
     1
102
RTVSPropertyOp30
 70
     1
102
RTVSPropertyOp31
 70
     1
102
RTVSPropertyOp32
 70
     1
  0
XRECORD
  5
14A2
102
{ACAD_REACTORS
330
14A1
102
}
330
14A1
100
AcDbXrecord
280
     1
102
RTVSPropertyOp0
 70
     1
102
RTVSPropertyOp1
 70
     1
102
RTVSPropertyOp2
 70
     1
102
RTVSPropertyOp3
 70
     1
102
RTVSPropertyOp4
 70
     1
102
RTVSPropertyOp5
 70
     1
102
RTVSPropertyOp6
 70
     1
102
RTVSPropertyOp7
 70
     1
102
RTVSPropertyOp8
 70
     1
102
RTVSPropertyOp9
 70
     1
102
RTVSPropertyOp10
 70
     1
102
RTVSPropertyOp11
 70
     1
102
RTVSPropertyOp12
 70
     1
102
RTVSPropertyOp13
 70
     1
102
RTVSPropertyOp14
 70
     1
102
RTVSPropertyOp15
 70
     1
102
RTVSPropertyOp16
 70
     1
102
RTVSPropertyOp17
 70
     1
102
RTVSPropertyOp18
 70
     1
102
RTVSPropertyOp19
 70
     1
102
RTVSPropertyOp20
 70
     1
102
RTVSPropertyOp21
 70
     1
102
RTVSPropertyOp22
 70
     1
102
RTVSPropertyOp23
 70
     1
102
RTVSPropertyOp24
 70
     1
102
RTVSPropertyOp25
 70
     1
102
RTVSPropertyOp26
 70
     1
102
RTVSPropertyOp27
 70
     1
102
RTVSPropertyOp28
 70
     1
102
RTVSPropertyOp29
 70
     1
102
RTVSPropertyOp30
 70
     1
102
RTVSPropertyOp31
 70
     1
102
RTVSPropertyOp32
 70
     1
  0
XRECORD
  5
1496
102
{ACAD_REACTORS
330
1495
102
}
330
1495
100
AcDbXrecord
280
     1
102
RTVSPropertyOp0
 70
     1
102
RTVSPropertyOp1
 70
     1
102
RTVSPropertyOp2
 70
     1
102
RTVSPropertyOp3
 70
     1
102
RTVSPropertyOp4
 70
     1
102
RTVSPropertyOp5
 70
     1
102
RTVSPropertyOp6
 70
     1
102
RTVSPropertyOp7
 70
     1
102
RTVSPropertyOp8
 70
     1
102
RTVSPropertyOp9
 70
     1
102
RTVSPropertyOp10
 70
     1
102
RTVSPropertyOp11
 70
     1
102
RTVSPropertyOp12
 70
     1
102
RTVSPropertyOp13
 70
     1
102
RTVSPropertyOp14
 70
     1
102
RTVSPropertyOp15
 70
     1
102
RTVSPropertyOp16
 70
     1
102
RTVSPropertyOp17
 70
     1
102
RTVSPropertyOp18
 70
     1
102
RTVSPropertyOp19
 70
     1
102
RTVSPropertyOp20
 70
     1
102
RTVSPropertyOp21
 70
     1
102
RTVSPropertyOp22
 70
     1
102
RTVSPropertyOp23
 70
     1
102
RTVSPropertyOp24
 70
     1
102
RTVSPropertyOp25
 70
     1
102
RTVSPropertyOp26
 70
     1
102
RTVSPropertyOp27
 70
     1
102
RTVSPropertyOp28
 70
     1
102
RTVSPropertyOp29
 70
     1
102
RTVSPropertyOp30
 70
     1
102
RTVSPropertyOp31
 70
     1
102
RTVSPropertyOp32
 70
     1
  0
XRECORD
  5
14AE
102
{ACAD_REACTORS
330
14AD
102
}
330
14AD
100
AcDbXrecord
280
     1
102
RTVSPropertyOp0
 70
     1
102
RTVSPropertyOp1
 70
     1
102
RTVSPropertyOp2
 70
     1
102
RTVSPropertyOp3
 70
     1
102
RTVSPropertyOp4
 70
     1
102
RTVSPropertyOp5
 70
     1
102
RTVSPropertyOp6
 70
     1
102
RTVSPropertyOp7
 70
     1
102
RTVSPropertyOp8
 70
     1
102
RTVSPropertyOp9
 70
     1
102
RTVSPropertyOp10
 70
     1
102
RTVSPropertyOp11
 70
     1
102
RTVSPropertyOp12
 70
     1
102
RTVSPropertyOp13
 70
     1
102
RTVSPropertyOp14
 70
     1
102
RTVSPropertyOp15
 70
     1
102
RTVSPropertyOp16
 70
     1
102
RTVSPropertyOp17
 70
     1
102
RTVSPropertyOp18
 70
     1
102
RTVSPropertyOp19
 70
     1
102
RTVSPropertyOp20
 70
     1
102
RTVSPropertyOp21
 70
     1
102
RTVSPropertyOp22
 70
     1
102
RTVSPropertyOp23
 70
     1
102
RTVSPropertyOp24
 70
     1
102
RTVSPropertyOp25
 70
     1
102
RTVSPropertyOp26
 70
     1
102
RTVSPropertyOp27
 70
     1
102
RTVSPropertyOp28
 70
     1
102
RTVSPropertyOp29
 70
     1
102
RTVSPropertyOp30
 70
     1
102
RTVSPropertyOp31
 70
     1
102
RTVSPropertyOp32
 70
     1
  0
ENDSEC
  0
EOF
