  0
SECTION
  2
HEADER
  9
$ACADVER
  1
AC1015
  9
$ACADMAINTVER
 70
    20
  9
$DWGCODEPAGE
  3
ANSI_1250
  9
$INSBASE
 10
0.0
 20
0.0
 30
0.0
  9
$EXTMIN
 10
4089.289270462471
 20
-4.714573291954447
 30
0.0
  9
$EXTMAX
 10
5382.823252080381
 20
2482.10310425255
 30
0.0
  9
$LIMMIN
 10
0.0
 20
0.0
  9
$LIMMAX
 10
4455.0
 20
3150.0
  9
$ORTHOMODE
 70
     0
  9
$REGENMODE
 70
     1
  9
$FILLMODE
 70
     1
  9
$QTEXTMODE
 70
     0
  9
$MIRRTEXT
 70
     0
  9
$LTSCALE
 40
15.0
  9
$ATTMODE
 70
     1
  9
$TEXTSIZE
 40
0.2
  9
$TRACEWID
 40
0.05
  9
$TEXTSTYLE
  7
Standard
  9
$CLAYER
  8
0
  9
$CELTYPE
  6
ByLayer
  9
$CECOLOR
 62
   256
  9
$CELTSCALE
 40
1.0
  9
$DISPSILH
 70
     0
  9
$DIMSCALE
 40
1.0
  9
$DIMASZ
 40
1.799999999999999
  9
$DIMEXO
 40
0.0625
  9
$DIMDLI
 40
0.38
  9
$DIMRND
 40
0.0
  9
$DIMDLE
 40
0.0
  9
$DIMEXE
 40
0.18
  9
$DIMTP
 40
0.0
  9
$DIMTM
 40
0.0
  9
$DIMTXT
 40
0.25
  9
$DIMCEN
 40
0.09
  9
$DIMTSZ
 40
0.0
  9
$DIMTOL
 70
     0
  9
$DIMLIM
 70
     0
  9
$DIMTIH
 70
     1
  9
$DIMTOH
 70
     1
  9
$DIMSE1
 70
     0
  9
$DIMSE2
 70
     0
  9
$DIMTAD
 70
     0
  9
$DIMZIN
 70
     0
  9
$DIMBLK
  1

  9
$DIMASO
 70
     1
  9
$DIMSHO
 70
     1
  9
$DIMPOST
  1

  9
$DIMAPOST
  1

  9
$DIMALT
 70
     0
  9
$DIMALTD
 70
     2
  9
$DIMALTF
 40
25.4
  9
$DIMLFAC
 40
1.0
  9
$DIMTOFL
 70
     0
  9
$DIMTVP
 40
0.0
  9
$DIMTIX
 70
     0
  9
$DIMSOXD
 70
     0
  9
$DIMSAH
 70
     0
  9
$DIMBLK1
  1

  9
$DIMBLK2
  1

  9
$DIMSTYLE
  2
Standard
  9
$DIMCLRD
 70
     0
  9
$DIMCLRE
 70
     0
  9
$DIMCLRT
 70
     0
  9
$DIMTFAC
 40
1.0
  9
$DIMGAP
 40
0.09
  9
$DIMJUST
 70
     0
  9
$DIMSD1
 70
     0
  9
$DIMSD2
 70
     0
  9
$DIMTOLJ
 70
     1
  9
$DIMTZIN
 70
     0
  9
$DIMALTZ
 70
     0
  9
$DIMALTTZ
 70
     0
  9
$DIMUPT
 70
     0
  9
$DIMDEC
 70
     4
  9
$DIMTDEC
 70
     4
  9
$DIMALTU
 70
     2
  9
$DIMALTTD
 70
     2
  9
$DIMTXSTY
  7
Standard
  9
$DIMAUNIT
 70
     0
  9
$DIMADEC
 70
     0
  9
$DIMALTRND
 40
0.0
  9
$DIMAZIN
 70
     0
  9
$DIMDSEP
 70
    46
  9
$DIMATFIT
 70
     3
  9
$DIMFRAC
 70
     0
  9
$DIMLDRBLK
  1

  9
$DIMLUNIT
 70
     2
  9
$DIMLWD
 70
    -2
  9
$DIMLWE
 70
    -2
  9
$DIMTMOVE
 70
     0
  9
$LUNITS
 70
     2
  9
$LUPREC
 70
     4
  9
$SKETCHINC
 40
0.1
  9
$FILLETRAD
 40
0.0
  9
$AUNITS
 70
     0
  9
$AUPREC
 70
     0
  9
$MENU
  1
.
  9
$ELEVATION
 40
0.0
  9
$PELEVATION
 40
0.0
  9
$THICKNESS
 40
0.0
  9
$LIMCHECK
 70
     0
  9
$CHAMFERA
 40
0.0
  9
$CHAMFERB
 40
0.0
  9
$CHAMFERC
 40
0.0
  9
$CHAMFERD
 40
0.0
  9
$SKPOLY
 70
     0
  9
$TDCREATE
 40
2459248.550166621
  9
$TDUCREATE
 40
2459248.508499954
  9
$TDUPDATE
 40
2459248.551299352
  9
$TDUUPDATE
 40
2459248.509632685
  9
$TDINDWG
 40
0.0007903819
  9
$TDUSRTIMER
 40
0.0007903819
  9
$USRTIMER
 70
     1
  9
$ANGBASE
 50
0.0
  9
$ANGDIR
 70
     0
  9
$PDMODE
 70
     0
  9
$PDSIZE
 40
0.0
  9
$PLINEWID
 40
0.0
  9
$SPLFRAME
 70
     0
  9
$SPLINETYPE
 70
     6
  9
$SPLINESEGS
 70
     8
  9
$HANDSEED
  5
812
  9
$SURFTAB1
 70
     6
  9
$SURFTAB2
 70
     6
  9
$SURFTYPE
 70
     6
  9
$SURFU
 70
     6
  9
$SURFV
 70
     6
  9
$UCSBASE
  2

  9
$UCSNAME
  2

  9
$UCSORG
 10
0.0
 20
0.0
 30
0.0
  9
$UCSXDIR
 10
1.0
 20
0.0
 30
0.0
  9
$UCSYDIR
 10
0.0
 20
1.0
 30
0.0
  9
$UCSORTHOREF
  2

  9
$UCSORTHOVIEW
 70
     0
  9
$UCSORGTOP
 10
0.0
 20
0.0
 30
0.0
  9
$UCSORGBOTTOM
 10
0.0
 20
0.0
 30
0.0
  9
$UCSORGLEFT
 10
0.0
 20
0.0
 30
0.0
  9
$UCSORGRIGHT
 10
0.0
 20
0.0
 30
0.0
  9
$UCSORGFRONT
 10
0.0
 20
0.0
 30
0.0
  9
$UCSORGBACK
 10
0.0
 20
0.0
 30
0.0
  9
$PUCSBASE
  2

  9
$PUCSNAME
  2

  9
$PUCSORG
 10
0.0
 20
0.0
 30
0.0
  9
$PUCSXDIR
 10
1.0
 20
0.0
 30
0.0
  9
$PUCSYDIR
 10
0.0
 20
1.0
 30
0.0
  9
$PUCSORTHOREF
  2

  9
$PUCSORTHOVIEW
 70
     0
  9
$PUCSORGTOP
 10
0.0
 20
0.0
 30
0.0
  9
$PUCSORGBOTTOM
 10
0.0
 20
0.0
 30
0.0
  9
$PUCSORGLEFT
 10
0.0
 20
0.0
 30
0.0
  9
$PUCSORGRIGHT
 10
0.0
 20
0.0
 30
0.0
  9
$PUCSORGFRONT
 10
0.0
 20
0.0
 30
0.0
  9
$PUCSORGBACK
 10
0.0
 20
0.0
 30
0.0
  9
$USERI1
 70
     0
  9
$USERI2
 70
     0
  9
$USERI3
 70
     0
  9
$USERI4
 70
     0
  9
$USERI5
 70
     0
  9
$USERR1
 40
0.0
  9
$USERR2
 40
0.0
  9
$USERR3
 40
0.0
  9
$USERR4
 40
0.0
  9
$USERR5
 40
0.0
  9
$WORLDVIEW
 70
     1
  9
$SHADEDGE
 70
     3
  9
$SHADEDIF
 70
    70
  9
$TILEMODE
 70
     1
  9
$MAXACTVP
 70
    64
  9
$PINSBASE
 10
0.0
 20
0.0
 30
0.0
  9
$PLIMCHECK
 70
     0
  9
$PEXTMIN
 10
0.0
 20
0.0
 30
0.0
  9
$PEXTMAX
 10
4455.0
 20
3150.0
 30
0.0
  9
$PLIMMIN
 10
0.0
 20
0.0
  9
$PLIMMAX
 10
4455.0
 20
3150.0
  9
$UNITMODE
 70
     0
  9
$VISRETAIN
 70
     1
  9
$PLINEGEN
 70
     0
  9
$PSLTSCALE
 70
     1
  9
$TREEDEPTH
 70
  3020
  9
$CMLSTYLE
  2
Standard
  9
$CMLJUST
 70
     0
  9
$CMLSCALE
 40
1.0
  9
$PROXYGRAPHICS
 70
     1
  9
$MEASUREMENT
 70
     1
  9
$CELWEIGHT
370
    -1
  9
$ENDCAPS
280
     0
  9
$JOINSTYLE
280
     0
  9
$LWDISPLAY
290
     0
  9
$INSUNITS
 70
     4
  9
$HYPERLINKBASE
  1
www.muller.com.pl
  9
$STYLESHEET
  1

  9
$XEDIT
290
     1
  9
$CEPSNTYPE
380
     0
  9
$PSTYLEMODE
290
     1
  9
$FINGERPRINTGUID
  2
{2148D89F-D7B2-44EE-A1AC-655223D7D30E}
  9
$VERSIONGUID
  2
{51AB1D74-FA82-42F1-9624-597D67B06E61}
  9
$EXTNAMES
290
     1
  9
$PSVPSCALE
 40
0.0
  9
$OLESTARTUP
290
     0
  0
ENDSEC
  0
SECTION
  2
CLASSES
  0
CLASS
  1
ACDBDICTIONARYWDFLT
  2
AcDbDictionaryWithDefault
  3
ObjectDBX Classes
 90
        0
280
     0
281
     0
  0
CLASS
  1
MATERIAL
  2
AcDbMaterial
  3
ObjectDBX Classes
 90
     1153
280
     0
281
     0
  0
CLASS
  1
VISUALSTYLE
  2
AcDbVisualStyle
  3
ObjectDBX Classes
 90
     4095
280
     0
281
     0
  0
CLASS
  1
SCALE
  2
AcDbScale
  3
ObjectDBX Classes
 90
     1153
280
     0
281
     0
  0
CLASS
  1
TABLESTYLE
  2
AcDbTableStyle
  3
ObjectDBX Classes
 90
     4095
280
     0
281
     0
  0
CLASS
  1
MLEADERSTYLE
  2
AcDbMLeaderStyle
  3
ACDB_MLEADERSTYLE_CLASS
 90
     4095
280
     0
281
     0
  0
CLASS
  1
CELLSTYLEMAP
  2
AcDbCellStyleMap
  3
ObjectDBX Classes
 90
     1152
280
     0
281
     0
  0
CLASS
  1
DICTIONARYVAR
  2
AcDbDictionaryVar
  3
ObjectDBX Classes
 90
        0
280
     0
281
     0
  0
CLASS
  1
ACDBPLACEHOLDER
  2
AcDbPlaceHolder
  3
ObjectDBX Classes
 90
        0
280
     0
281
     0
  0
CLASS
  1
LAYOUT
  2
AcDbLayout
  3
ObjectDBX Classes
 90
        0
280
     0
281
     0
  0
CLASS
  1
EXACXREFPANELOBJECT
  2
ExAcXREFPanelObject
  3
EXAC_ESW
 90
     1025
280
     0
281
     0
  0
CLASS
  1
NPOCOLLECTION
  2
AcDbImpNonPersistentObjectsCollection
  3
ObjectDBX Classes
 90
     1153
280
     0
281
     0
  0
ENDSEC
  0
SECTION
  2
TABLES
  0
TABLE
  2
VPORT
  5
8
102
{ACAD_XDICTIONARY
360
694
102
}
330
0
100
AcDbSymbolTable
 70
     1
  0
VPORT
  5
57
330
8
100
AcDbSymbolTableRecord
100
AcDbViewportTableRecord
  2
*Active
 70
     0
 10
0.0
 20
0.0
 11
1.0
 21
1.0
 12
4905.44512618608
 22
1336.377788884077
 13
0.0
 23
0.0
 14
1.0
 24
1.0
 15
0.0
 25
0.0
 16
0.0
 26
0.0
 36
1.0
 17
0.0
 27
0.0
 37
0.0
 40
3031.428352894858
 41
2.430203045685279
 42
50.0
 43
0.0
 44
0.0
 50
0.0
 51
0.0
 71
     0
 72
   100
 73
     1
 74
     1
 75
     0
 76
     0
 77
     0
 78
     0
281
     0
 65
     1
110
0.0
120
0.0
130
0.0
111
1.0
121
0.0
131
0.0
112
0.0
122
1.0
132
0.0
 79
     0
146
0.0
  0
ENDTAB
  0
TABLE
  2
LTYPE
  5
5
330
0
100
AcDbSymbolTable
 70
    59
  0
LTYPE
  5
5B
330
5
100
AcDbSymbolTableRecord
100
AcDbLinetypeTableRecord
  2
ByBlock
 70
     0
  3

 72
    65
 73
     0
 40
0.0
  0
LTYPE
  5
5C
330
5
100
AcDbSymbolTableRecord
100
AcDbLinetypeTableRecord
  2
ByLayer
 70
     0
  3

 72
    65
 73
     0
 40
0.0
  0
LTYPE
  5
5D
330
5
100
AcDbSymbolTableRecord
100
AcDbLinetypeTableRecord
  2
Continuous
 70
     0
  3
Solid line
 72
    65
 73
     0
 40
0.0
  0
ENDTAB
  0
TABLE
  2
LAYER
  5
2
330
0
100
AcDbSymbolTable
 70
     8
  0
LAYER
  5
54
330
2
100
AcDbSymbolTableRecord
100
AcDbLayerTableRecord
  2
0
 70
     0
 62
     7
  6
Continuous
370
    -3
390
F
  0
LAYER
  5
BA
330
2
100
AcDbSymbolTableRecord
100
AcDbLayerTableRecord
  2
Dimension (ISO)
 70
     0
 62
   161
  6
Continuous
370
    18
390
F
  0
LAYER
  5
C5
330
2
100
AcDbSymbolTableRecord
100
AcDbLayerTableRecord
  2
Title (ISO)
 70
     0
 62
     7
  6
Continuous
370
    30
390
F
  0
LAYER
  5
C8
330
2
100
AcDbSymbolTableRecord
100
AcDbLayerTableRecord
  2
Visible (ISO)
 70
     0
 62
     7
  6
Continuous
370
    35
390
F
  0
LAYER
  5
2E4
330
2
100
AcDbSymbolTableRecord
100
AcDbLayerTableRecord
  2
Defpoints
 70
     0
 62
     7
  6
Continuous
290
     0
370
    -3
390
F
  0
ENDTAB
  0
TABLE
  2
STYLE
  5
3
330
0
100
AcDbSymbolTable
 70
     7
  0
STYLE
  5
55
330
3
100
AcDbSymbolTableRecord
100
AcDbTextStyleTableRecord
  2
Standard
 70
     0
 40
0.0
 41
1.0
 50
0.0
 71
     0
 42
0.2
  3
tahoma.ttf
  4

1001
ACAD
1000
Tahoma
1071
      256
  0
STYLE
  5
CD
330
3
100
AcDbSymbolTableRecord
100
AcDbTextStyleTableRecord
  2
Label Text (ISO)
 70
     0
 40
0.0
 41
1.0
 50
0.0
 71
     0
 42
0.2
  3
tahoma.ttf
  4

1001
ACAD
1000
Tahoma
1071
      256
  0
STYLE
  5
CE
330
3
100
AcDbSymbolTableRecord
100
AcDbTextStyleTableRecord
  2
Note Text (ISO)
 70
     0
 40
0.0
 41
1.0
 50
0.0
 71
     0
 42
0.2
  3
tahoma.ttf
  4

1001
ACAD
1000
Tahoma
1071
      256
  0
ENDTAB
  0
TABLE
  2
VIEW
  5
6
330
0
100
AcDbSymbolTable
 70
     0
  0
ENDTAB
  0
TABLE
  2
UCS
  5
7
330
0
100
AcDbSymbolTable
 70
     0
  0
ENDTAB
  0
TABLE
  2
APPID
  5
9
330
0
100
AcDbSymbolTable
 70
     4
  0
APPID
  5
56
330
9
100
AcDbSymbolTableRecord
100
AcDbRegAppTableRecord
  2
ACAD
 70
     0
  0
APPID
  5
5E
330
9
100
AcDbSymbolTableRecord
100
AcDbRegAppTableRecord
  2
AcadAnnotative
 70
     0
  0
APPID
  5
2DB
330
9
100
AcDbSymbolTableRecord
100
AcDbRegAppTableRecord
  2
AcadAnnoPO
 70
     0
  0
APPID
  5
6CA
330
9
100
AcDbSymbolTableRecord
100
AcDbRegAppTableRecord
  2
ACAD_MLEADERVER
 70
     0
  0
ENDTAB
  0
TABLE
  2
DIMSTYLE
  5
A
330
0
100
AcDbSymbolTable
 70
    12
100
AcDbDimStyleTable
 71
     2
340
D5
340
58
  0
DIMSTYLE
105
58
330
A
100
AcDbSymbolTableRecord
100
AcDbDimStyleTableRecord
  2
Standard
 70
     0
340
55
  0
DIMSTYLE
105
D5
102
{ACAD_REACTORS
330
2E3
330
3CC
330
4AE
330
596
102
}
330
A
100
AcDbSymbolTableRecord
100
AcDbDimStyleTableRecord
  2
Default (ISO)
 70
     0
 40
15.0
 41
2.5
 42
0.5
 43
5.999999999999999
 44
1.0
 45
0.00000001
 46
10.0
 73
     0
 77
     1
 78
     8
 79
     2
140
3.5
143
0.03937
146
0.7142857313156128
147
0.762
171
     3
172
     1
176
   256
177
   256
178
   256
271
     2
272
     2
274
     3
278
    44
340
CD
371
    -1
372
    -1
  0
ENDTAB
  0
TABLE
  2
BLOCK_RECORD
  5
1
330
0
100
AcDbSymbolTable
 70
    13
  0
BLOCK_RECORD
  5
6C
330
1
100
AcDbSymbolTableRecord
100
AcDbBlockTableRecord
  2
*Model_Space
340
6F
  0
BLOCK_RECORD
  5
68
330
1
100
AcDbSymbolTableRecord
100
AcDbBlockTableRecord
  2
*Paper_Space
340
6B
  0
BLOCK_RECORD
  5
70
330
1
100
AcDbSymbolTableRecord
100
AcDbBlockTableRecord
  2
*Paper_Space0
340
73
  0
BLOCK_RECORD
  5
2D3
330
1
100
AcDbSymbolTableRecord
100
AcDbBlockTableRecord
  2
Tabelki rysunkowe Rzut
340
0
102
{BLKREFS
331
2DE
102
}
  0
BLOCK_RECORD
  5
2E5
330
1
100
AcDbSymbolTableRecord
100
AcDbBlockTableRecord
  2
*D8
340
0
  0
BLOCK_RECORD
  5
3CD
330
1
100
AcDbSymbolTableRecord
100
AcDbBlockTableRecord
  2
*D9
340
0
  0
BLOCK_RECORD
  5
4AF
330
1
100
AcDbSymbolTableRecord
100
AcDbBlockTableRecord
  2
*D10
340
0
  0
BLOCK_RECORD
  5
597
330
1
100
AcDbSymbolTableRecord
100
AcDbBlockTableRecord
  2
*D11
340
0
  0
BLOCK_RECORD
  5
6EA
330
1
100
AcDbSymbolTableRecord
100
AcDbBlockTableRecord
  2
6700_Grill-betonowy-otwarty
340
0
310
2800000020000000200000000100080000000000000400000000000000000000000000000000000000000000000080000080000000808000800000008000800080800000C0C0C000C0DCC000F0CAA6000020400000206000002080000020A0000020C0000020E00000400000004020000040400000406000004080000040A0
310
000040C0000040E00000600000006020000060400000606000006080000060A0000060C0000060E00000800000008020000080400000806000008080000080A0000080C0000080E00000A0000000A0200000A0400000A0600000A0800000A0A00000A0C00000A0E00000C0000000C0200000C0400000C0600000C0800000C0
310
A00000C0C00000C0E00000E0000000E0200000E0400000E0600000E0800000E0A00000E0C00000E0E00040000000400020004000400040006000400080004000A0004000C0004000E00040200000402020004020400040206000402080004020A0004020C0004020E000404000004040200040404000404060004040800040
310
40A0004040C0004040E00040600000406020004060400040606000406080004060A0004060C0004060E00040800000408020004080400040806000408080004080A0004080C0004080E00040A0000040A0200040A0400040A0600040A0800040A0A00040A0C00040A0E00040C0000040C0200040C0400040C0600040C08000
310
40C0A00040C0C00040C0E00040E0000040E0200040E0400040E0600040E0800040E0A00040E0C00040E0E00080000000800020008000400080006000800080008000A0008000C0008000E00080200000802020008020400080206000802080008020A0008020C0008020E00080400000804020008040400080406000804080
310
008040A0008040C0008040E00080600000806020008060400080606000806080008060A0008060C0008060E00080800000808020008080400080806000808080008080A0008080C0008080E00080A0000080A0200080A0400080A0600080A0800080A0A00080A0C00080A0E00080C0000080C0200080C0400080C0600080C0
310
800080C0A00080C0C00080C0E00080E0000080E0200080E0400080E0600080E0800080E0A00080E0C00080E0E000C0000000C0002000C0004000C0006000C0008000C000A000C000C000C000E000C0200000C0202000C0204000C0206000C0208000C020A000C020C000C020E000C0400000C0402000C0404000C0406000C0
310
408000C040A000C040C000C040E000C0600000C0602000C0604000C0606000C0608000C060A000C060C000C060E000C0800000C0802000C0804000C0806000C0808000C080A000C080C000C080E000C0A00000C0A02000C0A04000C0A06000C0A08000C0A0A000C0A0C000C0A0E000C0C00000C0C02000C0C04000C0C06000
310
C0C08000C0C0A000F0FBFF00A4A0A000808080000000FF0000FF000000FFFF00FF000000FF00FF00FFFF0000FFFFFF00494949494949494949494949494949494949494949494949494949494949494949FFFFFFFFFFFFFFFFFFFFFFFFFFFFFFFFFFFFFFFFFFFFFFFFFFFFFFFFFFFF4949FF4949FFFFFFFFFFFFFFFFFFFFFF
310
FFFFFFFFFFFFFFFFFFFFFFFFFF4949FF4949FF4949FF49FFFFFFFFFFFFFFFFFFFFFFFFFFFFFFFFFFFFFFFF49FF4949FF4949FF4949FF49FFFFFFFFFFFFFFFFFFFFFFFFFFFFFFFFFFFFFFFF49FF4949FF4949FF4949FF49FFFFFFFFFFFFFFFFFFFFFFFFFFFFFFFFFFFFFFFF49FF4949FF4949FF4949FF49FFFFFFFFFFFFFFFF
310
FFFFFFFFFFFFFFFFFFFFFFFF49FF4949FF4949FF4949FF49FFFFFFFFFFFFFFFFFFFFFFFFFFFFFFFFFFFFFFFF49FF4949FF4949FF4949FF49FFFFFFFFFFFFFFFFFFFFFFFFFFFFFFFFFFFFFFFF49FF4949FF4949FF4949FF49FFFFFFFFFFFFFFFFFFFFFFFFFFFFFFFFFFFFFFFF49FF4949FF4949FF4949FF49FFFFFFFFFFFFFF
310
FFFFFFFFFFFFFFFFFFFFFFFFFF49FF4949FF4949FF4949FF49FFFFFFFFFFFFFFFFFFFFFFFFFFFFFFFFFFFFFFFF49FF4949FF4949FF4949FF49FFFFFFFFFFFFFFFFFFFFFFFFFFFFFFFFFFFFFFFF49FF4949FF4949FF4949FF49FFFFFFFFFFFFFFFFFFFFFFFFFFFFFFFFFFFFFFFF49FF4949FF4949FF4949FF49FFFFFFFFFFFF
310
FFFFFFFFFFFFFFFFFFFFFFFFFFFF49FF4949FF4949FF4949FF49FFFFFFFFFFFFFFFFFFFFFFFFFFFFFFFFFFFFFFFF49FF4949FF4949FF4949FF49FFFFFFFFFFFFFFFFFFFFFFFFFFFFFFFFFFFFFFFF49FF4949FF4949FF4949FF49FFFFFFFFFFFFFFFFFFFFFFFFFFFFFFFFFFFFFFFF49FF4949FF4949FF4949FF49FFFFFFFFFF
310
FFFFFFFFFFFFFFFFFFFFFFFFFFFFFF49FF4949FF4949FF4949FF49FFFFFFFFFFFFFFFFFFFFFFFFFFFFFFFFFFFFFFFF49FF4949FF4949FF4949FF49FFFFFFFFFFFFFFFFFFFFFFFFFFFFFFFFFFFFFFFF49FF4949FF4949FF4949FF49FFFFFFFFFFFFFFFFFFFFFFFFFFFFFFFFFFFFFFFF49FF4949FF4949FF4949FF49FFFFFFFF
310
FFFFFFFFFFFFFFFFFFFFFFFFFFFFFFFF49FF4949FF4949FF4949FFFFFFFFFFFFFFFFFFFFFFFFFFFFFFFFFFFFFFFFFFFFFFFF4949FF4949FF4949FFFFFFFFFFFFFFFFFFFFFFFFFFFFFFFFFFFFFFFFFFFFFFFF4949FF4949FF4949FFFFFFFFFFFFFFFFFFFFFFFFFFFFFFFFFFFFFFFFFFFFFFFF4949FF4949FF4949FF49494949
310
494949494949494949494949494949494949FF4949FF4949FF4949FFFFFFFFFFFFFFFFFFFFFFFFFFFFFFFFFFFFFFFFFFFFFFFF4949FF4949FF49494949494949494949494949494949494949494949494949494949FF4949FFFF4949494949494949494949494949494949494949494949494949FFFF4949FFFFFFFFFFFFFF
310
FFFFFFFFFFFFFFFFFFFFFFFFFFFFFFFFFFFFFFFFFFFFFF494949494949494949494949494949494949494949494949494949494949494949
102
{BLKREFS
331
7C7
102
}
1001
ACAD
1000
DesignCenter Data
1002
{
1070
     1
1070
     4
1002
}
  0
ENDTAB
  0
ENDSEC
  0
SECTION
  2
BLOCKS
  0
BLOCK
  5
6D
330
6C
100
AcDbEntity
  8
0
100
AcDbBlockBegin
  2
*Model_Space
 70
     0
 10
0.0
 20
0.0
 30
0.0
  3
*Model_Space
  1

  0
ENDBLK
  5
6E
330
6C
100
AcDbEntity
  8
0
100
AcDbBlockEnd
  0
BLOCK
  5
69
330
68
100
AcDbEntity
 67
     1
  8
0
100
AcDbBlockBegin
  2
*Paper_Space
 70
     0
 10
0.0
 20
0.0
 30
0.0
  3
*Paper_Space
  1

  0
ENDBLK
  5
6A
330
68
100
AcDbEntity
 67
     1
  8
0
100
AcDbBlockEnd
  0
BLOCK
  5
71
330
70
100
AcDbEntity
 67
     1
  8
0
100
AcDbBlockBegin
  2
*Paper_Space0
 70
     0
 10
0.0
 20
0.0
 30
0.0
  3
*Paper_Space0
  1

  0
ENDBLK
  5
72
330
70
100
AcDbEntity
 67
     1
  8
0
100
AcDbBlockEnd
  0
BLOCK
  5
2D4
330
2D3
100
AcDbEntity
  8
0
100
AcDbBlockBegin
  2
Tabelki rysunkowe Rzut
 70
     2
 10
0.0
 20
0.0
 30
0.0
  3
Tabelki rysunkowe Rzut
  1

  0
TEXT
  5
2D6
330
2D3
100
AcDbEntity
  8
Title (ISO)
100
AcDbText
 10
166.7768162971836
 20
11.24130542460445
 30
0.0
 40
2.5
  1
Obowiązuje od:
  7
Note Text (ISO)
 11
166.7768162971836
 21
13.74130542460445
 31
0.0
100
AcDbText
 73
     3
  0
TEXT
  5
2D8
330
2D3
100
AcDbEntity
  8
Title (ISO)
100
AcDbText
 10
166.7768162971836
 20
18.24130542460445
 30
0.0
 40
2.5
  1
Nr kat.:
  7
Note Text (ISO)
 11
166.7768162971836
 21
20.74130542460446
 31
0.0
100
AcDbText
 73
     3
  0
TEXT
  5
2D9
330
2D3
100
AcDbEntity
  8
Title (ISO)
100
AcDbText
 10
166.7768162971836
 20
14.74130542460445
 30
0.0
 40
2.5
  1
Nazwa:
  7
Note Text (ISO)
 11
166.7768162971836
 21
17.24130542460445
 31
0.0
100
AcDbText
 73
     3
  0
ATTDEF
  5
2DA
102
{ACAD_XDICTIONARY
360
680
102
}
330
2D3
100
AcDbEntity
  8
Title (ISO)
100
AcDbText
 10
178.4913898373937
 20
18.14056669024303
 30
0.0
 40
2.5
  1
6700
  7
Note Text (ISO)
100
AcDbAttributeDefinition
  3
Numer katalogowy
  2
Numer_katalogowy_001
 70
     0
  0
ATTDEF
  5
2DC
102
{ACAD_XDICTIONARY
360
683
102
}
330
2D3
100
AcDbEntity
  8
Title (ISO)
100
AcDbText
 10
190.4107988369825
 20
11.13720873189256
 30
0.0
 40
2.5
  1
2021-02-02
  7
Note Text (ISO)
100
AcDbAttributeDefinition
  3
DATA UTWORZENIA
  2
DATA_UTWORZENIA_001
 70
     0
  0
ATTDEF
  5
2DD
102
{ACAD_XDICTIONARY
360
686
102
}
330
2D3
100
AcDbEntity
  8
Title (ISO)
100
AcDbText
 10
178.5551910460526
 20
14.5163222312757
 30
0.0
 40
2.5
  1
Grill betonowy otwarty
  7
Note Text (ISO)
100
AcDbAttributeDefinition
  3
Nazwa
  2
Nazwa_001
 70
     0
  0
ENDBLK
  5
2D5
330
2D3
100
AcDbEntity
  8
0
100
AcDbBlockEnd
  0
BLOCK
  5
2E6
330
2E5
100
AcDbEntity
  8
0
100
AcDbBlockBegin
  2
*D8
 70
     1
 10
0.0
 20
0.0
 30
0.0
  3
*D8
  1

  0
LINE
  5
3C3
330
2E5
100
AcDbEntity
  8
Dimension (ISO)
100
AcDbLine
 10
4392.329363025939
 20
2482.10310425255
 30
0.0
 11
4202.992834992956
 21
2482.10310425255
 31
0.0
  0
LINE
  5
3C4
330
2E5
100
AcDbEntity
  8
Dimension (ISO)
100
AcDbLine
 10
4397.26225197515
 20
1582.103104252549
 30
0.0
 11
4202.992834992954
 21
1582.103104252549
 31
0.0
  0
LINE
  5
3C5
330
2E5
100
AcDbEntity
  8
Dimension (ISO)
100
AcDbLine
 10
4217.992834992956
 20
2444.60310425255
 30
0.0
 11
4217.992834992955
 21
1619.603104252549
 31
0.0
  0
SOLID
  5
3C6
330
2E5
100
AcDbEntity
  8
Dimension (ISO)
100
AcDbTrace
 10
4211.742834992956
 20
2444.60310425255
 30
0.0
 11
4224.242834992955
 21
2444.60310425255
 31
0.0
 12
4217.992834992956
 22
2482.10310425255
 32
0.0
 13
4217.992834992956
 23
2482.10310425255
 33
0.0
  0
SOLID
  5
3C7
330
2E5
100
AcDbEntity
  8
Dimension (ISO)
100
AcDbTrace
 10
4211.742834992955
 20
1619.603104252549
 30
0.0
 11
4224.242834992955
 21
1619.603104252549
 31
0.0
 12
4217.992834992955
 22
1582.103104252549
 32
0.0
 13
4217.992834992955
 23
1582.103104252549
 33
0.0
  0
MTEXT
  5
3C8
330
2E5
100
AcDbEntity
  8
Dimension (ISO)
100
AcDbMText
 10
4151.912063015632
 20
2032.10310425255
 30
0.0
 40
52.5
 41
0.0
 71
     2
 72
     1
  1
\A1;900
  7
Label Text (ISO)
 11
0.0000000000000001
 21
1.0
 31
0.0
 73
     1
 44
1.0
1001
ACAD
1000
MTEXTBEGIN
1070
    73
1070
     1
1070
    44
1040
1.0
1070
    74
1070
     0
1000
MTEXTEND
  0
POINT
  5
3C9
330
2E5
100
AcDbEntity
  8
Defpoints
 62
     0
100
AcDbPoint
 10
4399.829363025939
 20
2482.10310425255
 30
0.0
  0
POINT
  5
3CA
330
2E5
100
AcDbEntity
  8
Defpoints
 62
     0
100
AcDbPoint
 10
4404.76225197515
 20
1582.103104252549
 30
0.0
  0
POINT
  5
3CB
330
2E5
100
AcDbEntity
  8
Defpoints
 62
     0
100
AcDbPoint
 10
4217.992834992955
 20
1582.103104252549
 30
0.0
  0
ENDBLK
  5
2E7
330
2E5
100
AcDbEntity
  8
0
100
AcDbBlockEnd
  0
BLOCK
  5
3CE
330
3CD
100
AcDbEntity
  8
0
100
AcDbBlockBegin
  2
*D9
 70
     1
 10
0.0
 20
0.0
 30
0.0
  3
*D9
  1

  0
LINE
  5
4A5
330
3CD
100
AcDbEntity
  8
Dimension (ISO)
100
AcDbLine
 10
4324.762251974801
 20
585.0102832706438
 30
0.0
 11
4324.762251974801
 21
314.2733933033856
 31
0.0
  0
LINE
  5
4A6
330
3CD
100
AcDbEntity
  8
Dimension (ISO)
100
AcDbLine
 10
5174.762251974801
 20
585.0102832706438
 30
0.0
 11
5174.762251974801
 21
314.2733933033856
 31
0.0
  0
LINE
  5
4A7
330
3CD
100
AcDbEntity
  8
Dimension (ISO)
100
AcDbLine
 10
4362.262251974801
 20
329.2733933033856
 30
0.0
 11
5137.262251974801
 21
329.2733933033856
 31
0.0
  0
SOLID
  5
4A8
330
3CD
100
AcDbEntity
  8
Dimension (ISO)
100
AcDbTrace
 10
4362.262251974801
 20
335.5233933033856
 30
0.0
 11
4362.262251974801
 21
323.0233933033856
 31
0.0
 12
4324.762251974801
 22
329.2733933033856
 32
0.0
 13
4324.762251974801
 23
329.2733933033856
 33
0.0
  0
SOLID
  5
4A9
330
3CD
100
AcDbEntity
  8
Dimension (ISO)
100
AcDbTrace
 10
5137.262251974801
 20
335.5233933033856
 30
0.0
 11
5137.262251974801
 21
323.0233933033856
 31
0.0
 12
5174.762251974801
 22
329.2733933033856
 32
0.0
 13
5174.762251974801
 23
329.2733933033856
 33
0.0
  0
MTEXT
  5
4AA
330
3CD
100
AcDbEntity
  8
Dimension (ISO)
100
AcDbMText
 10
4749.762251974801
 20
395.6009752186694
 30
0.0
 40
52.5
 41
0.0
 71
     2
 72
     1
  1
\A1;850
  7
Label Text (ISO)
 73
     1
 44
1.0
1001
ACAD
1000
MTEXTBEGIN
1070
    73
1070
     1
1070
    44
1040
1.0
1070
    74
1070
     0
1000
MTEXTEND
  0
POINT
  5
4AB
330
3CD
100
AcDbEntity
  8
Defpoints
 62
     0
100
AcDbPoint
 10
4324.762251974801
 20
592.5102832706438
 30
0.0
  0
POINT
  5
4AC
330
3CD
100
AcDbEntity
  8
Defpoints
 62
     0
100
AcDbPoint
 10
5174.762251974801
 20
592.5102832706438
 30
0.0
  0
POINT
  5
4AD
330
3CD
100
AcDbEntity
  8
Defpoints
 62
     0
100
AcDbPoint
 10
5174.762251974801
 20
329.2733933033856
 30
0.0
  0
ENDBLK
  5
3CF
330
3CD
100
AcDbEntity
  8
0
100
AcDbBlockEnd
  0
BLOCK
  5
4B0
330
4AF
100
AcDbEntity
  8
0
100
AcDbBlockBegin
  2
*D10
 70
     1
 10
0.0
 20
0.0
 30
0.0
  3
*D10
  1

  0
LINE
  5
58D
330
4AF
100
AcDbEntity
  8
Dimension (ISO)
100
AcDbLine
 10
4322.262251974801
 20
480.5772488969557
 30
0.0
 11
4159.762251974801
 21
480.5772488969558
 31
0.0
  0
LINE
  5
58E
330
4AF
100
AcDbEntity
  8
Dimension (ISO)
100
AcDbLine
 10
4317.262251974801
 20
1330.577248896984
 30
0.0
 11
4159.762251974801
 21
1330.577248896984
 31
0.0
  0
LINE
  5
58F
330
4AF
100
AcDbEntity
  8
Dimension (ISO)
100
AcDbLine
 10
4174.762251974801
 20
518.0772488969558
 30
0.0
 11
4174.762251974801
 21
1293.077248896984
 31
0.0
  0
SOLID
  5
590
330
4AF
100
AcDbEntity
  8
Dimension (ISO)
100
AcDbTrace
 10
4168.512251974801
 20
518.0772488969558
 30
0.0
 11
4181.012251974801
 21
518.0772488969558
 31
0.0
 12
4174.762251974801
 22
480.5772488969558
 32
0.0
 13
4174.762251974801
 23
480.5772488969558
 33
0.0
  0
SOLID
  5
591
330
4AF
100
AcDbEntity
  8
Dimension (ISO)
100
AcDbTrace
 10
4168.512251974801
 20
1293.077248896984
 30
0.0
 11
4181.012251974801
 21
1293.077248896984
 31
0.0
 12
4174.762251974801
 22
1330.577248896984
 32
0.0
 13
4174.762251974801
 23
1330.577248896984
 33
0.0
  0
MTEXT
  5
592
330
4AF
100
AcDbEntity
  8
Dimension (ISO)
100
AcDbMText
 10
4108.434670059517
 20
905.5772488969699
 30
0.0
 40
52.5
 41
0.0
 71
     2
 72
     1
  1
\A1;850
  7
Label Text (ISO)
 11
0.0000000000000001
 21
1.0
 31
0.0
 73
     1
 44
1.0
1001
ACAD
1000
MTEXTBEGIN
1070
    73
1070
     1
1070
    44
1040
1.0
1070
    74
1070
     0
1000
MTEXTEND
  0
POINT
  5
593
330
4AF
100
AcDbEntity
  8
Defpoints
 62
     0
100
AcDbPoint
 10
4329.762251974801
 20
480.5772488969557
 30
0.0
  0
POINT
  5
594
330
4AF
100
AcDbEntity
  8
Defpoints
 62
     0
100
AcDbPoint
 10
4324.762251974801
 20
1330.577248896984
 30
0.0
  0
POINT
  5
595
330
4AF
100
AcDbEntity
  8
Defpoints
 62
     0
100
AcDbPoint
 10
4174.762251974801
 20
1330.577248896984
 30
0.0
  0
ENDBLK
  5
4B1
330
4AF
100
AcDbEntity
  8
0
100
AcDbBlockEnd
  0
BLOCK
  5
598
330
597
100
AcDbEntity
  8
0
100
AcDbBlockBegin
  2
*D11
 70
     1
 10
0.0
 20
0.0
 30
0.0
  3
*D11
  1

  0
LINE
  5
675
330
597
100
AcDbEntity
  8
Dimension (ISO)
100
AcDbLine
 10
5044.76225197515
 20
2333.10310425255
 30
0.0
 11
5382.823252080381
 21
2333.103104252549
 31
0.0
  0
LINE
  5
676
330
597
100
AcDbEntity
  8
Dimension (ISO)
100
AcDbLine
 10
5102.262251975149
 20
1582.103104252549
 30
0.0
 11
5382.82325208038
 21
1582.103104252549
 31
0.0
  0
LINE
  5
677
330
597
100
AcDbEntity
  8
Dimension (ISO)
100
AcDbLine
 10
5367.823252080381
 20
2295.603104252549
 30
0.0
 11
5367.823252080381
 21
1619.603104252549
 31
0.0
  0
SOLID
  5
678
330
597
100
AcDbEntity
  8
Dimension (ISO)
100
AcDbTrace
 10
5361.573252080382
 20
2295.603104252549
 30
0.0
 11
5374.073252080382
 21
2295.603104252549
 31
0.0
 12
5367.823252080381
 22
2333.103104252549
 32
0.0
 13
5367.823252080381
 23
2333.103104252549
 33
0.0
  0
SOLID
  5
679
330
597
100
AcDbEntity
  8
Dimension (ISO)
100
AcDbTrace
 10
5361.57325208038
 20
1619.603104252549
 30
0.0
 11
5374.07325208038
 21
1619.603104252549
 31
0.0
 12
5367.823252080381
 22
1582.103104252549
 32
0.0
 13
5367.823252080381
 23
1582.103104252549
 33
0.0
  0
MTEXT
  5
67A
330
597
100
AcDbEntity
  8
Dimension (ISO)
100
AcDbMText
 10
5302.623944167208
 20
1957.603104252549
 30
0.0
 40
52.5
 41
0.0
 71
     2
 72
     1
  1
\A1;751
  7
Label Text (ISO)
 11
0.0000000000000001
 21
1.0
 31
0.0
 73
     1
 44
1.0
1001
ACAD
1000
MTEXTBEGIN
1070
    73
1070
     1
1070
    44
1040
1.0
1070
    74
1070
     0
1000
MTEXTEND
  0
POINT
  5
67B
330
597
100
AcDbEntity
  8
Defpoints
 62
     0
100
AcDbPoint
 10
5037.26225197515
 20
2333.10310425255
 30
0.0
  0
POINT
  5
67C
330
597
100
AcDbEntity
  8
Defpoints
 62
     0
100
AcDbPoint
 10
5094.76225197515
 20
1582.103104252549
 30
0.0
  0
POINT
  5
67D
330
597
100
AcDbEntity
  8
Defpoints
 62
     0
100
AcDbPoint
 10
5367.823252080381
 20
1582.103104252549
 30
0.0
  0
ENDBLK
  5
599
330
597
100
AcDbEntity
  8
0
100
AcDbBlockEnd
  0
BLOCK
  5
6EB
330
6EA
100
AcDbEntity
  8
0
100
AcDbBlockBegin
  2
6700_Grill-betonowy-otwarty
 70
     0
 10
0.0
 20
0.0
 30
0.0
  3
6700_Grill-betonowy-otwarty
  1

  0
LINE
  5
6ED
330
6EA
100
AcDbEntity
  8
Visible (ISO)
100
AcDbLine
 10
344.9333454243106
 20
2.02794001894972
 30
0.0
 11
349.9328889492099
 21
7.027483543851303
 31
0.0
  0
LINE
  5
6EE
330
6EA
100
AcDbEntity
  8
Visible (ISO)
100
AcDbLine
 10
-344.9333454243106
 20
2.027940018949493
 30
0.0
 11
-349.9328889492108
 21
7.027483543850848
 31
0.0
  0
LINE
  5
6EF
330
6EA
100
AcDbEntity
  8
Visible (ISO)
100
AcDbLine
 10
424.9999999999991
 20
-767.9054054053913
 30
0.0
 11
419.9999999999991
 21
-767.9054054053892
 31
0.0
  0
LINE
  5
6F0
330
6EA
100
AcDbEntity
  8
Visible (ISO)
100
AcDbLine
 10
425.0
 20
-767.9054054053911
 30
0.0
 11
425.0
 21
-655.9723710317012
 31
0.0
  0
LINE
  5
6F1
330
6EA
100
AcDbEntity
  8
Visible (ISO)
100
AcDbLine
 10
424.9999999999991
 20
82.09459459463891
 30
0.0
 11
419.9999999999991
 21
77.09459459464074
 31
0.0
  0
LINE
  5
6F2
330
6EA
100
AcDbEntity
  8
Visible (ISO)
100
AcDbLine
 10
425.0
 20
82.09459459463891
 30
0.0
 11
-425.0
 21
82.09459459463891
 31
0.0
  0
LINE
  5
6F3
330
6EA
100
AcDbEntity
  8
Visible (ISO)
100
AcDbLine
 10
-420.0
 20
77.09459459464074
 30
0.0
 11
-425.0000000000008
 21
82.09459459463891
 31
0.0
  0
LINE
  5
6F4
330
6EA
100
AcDbEntity
  8
Visible (ISO)
100
AcDbLine
 10
-425.0
 20
82.09459459463891
 30
0.0
 11
-425.0
 21
-655.9723710317012
 31
0.0
  0
LINE
  5
6F5
330
6EA
100
AcDbEntity
  8
Visible (ISO)
100
AcDbLine
 10
-420.0
 20
-767.9054054053892
 30
0.0
 11
-425.0000000000008
 21
-767.9054054053913
 31
0.0
  0
LINE
  5
6F6
330
6EA
100
AcDbEntity
  8
Visible (ISO)
100
AcDbLine
 10
-425.0
 20
-655.9723710317012
 30
0.0
 11
-425.0
 21
-767.9054054053911
 31
0.0
  0
LINE
  5
6F7
330
6EA
100
AcDbEntity
  8
Visible (ISO)
100
AcDbLine
 10
425.0
 20
-655.9723710317012
 30
0.0
 11
425.0
 21
82.09459459463891
 31
0.0
  0
LINE
  5
6F8
330
6EA
100
AcDbEntity
  8
Visible (ISO)
100
AcDbLine
 10
-343.5582467219319
 20
-767.9054054053913
 30
0.0
 11
-348.5991092145223
 21
-767.9054054053892
 31
0.0
  0
LINE
  5
6F9
330
6EA
100
AcDbEntity
  8
Visible (ISO)
100
AcDbLine
 10
348.5991092145214
 20
-767.9054054053892
 30
0.0
 11
343.5582467219319
 21
-767.9054054053913
 31
0.0
  0
LINE
  5
6FA
330
6EA
100
AcDbEntity
  8
Visible (ISO)
100
AcDbLine
 10
419.9999999999991
 20
-767.9054054053892
 30
0.0
 11
348.5991092145214
 21
-767.9054054053892
 31
0.0
  0
LINE
  5
6FB
330
6EA
100
AcDbEntity
  8
Visible (ISO)
100
AcDbLine
 10
-348.5991092145214
 20
-767.9054054053892
 30
0.0
 11
-420.0
 21
-767.9054054053892
 31
0.0
  0
LINE
  5
6FC
330
6EA
100
AcDbEntity
  8
Visible (ISO)
100
AcDbLine
 10
344.9333454243106
 20
2.02794001894972
 30
0.0
 11
342.9054054054059
 21
0.0
 31
0.0
  0
LINE
  5
6FD
330
6EA
100
AcDbEntity
  8
Visible (ISO)
100
AcDbLine
 10
340.0
 20
-767.9054054054692
 30
0.0
 11
340.0
 21
-762.9054054054691
 31
0.0
  0
LINE
  5
6FE
330
6EA
100
AcDbEntity
  8
Visible (ISO)
100
AcDbLine
 10
343.5582467219319
 20
-767.9054054053913
 30
0.0
 11
340.0
 21
-767.9054054054692
 31
0.0
  0
LINE
  5
6FF
330
6EA
100
AcDbEntity
  8
Visible (ISO)
100
AcDbLine
 10
-344.9333454243106
 20
2.02794001894972
 30
0.0
 11
-342.9054054054059
 21
-0.0000000000002274
 31
0.0
  0
LINE
  5
700
330
6EA
100
AcDbEntity
  8
Visible (ISO)
100
AcDbLine
 10
-340.0
 20
-767.9054054054695
 30
0.0
 11
-343.5582467219319
 21
-767.9054054053913
 31
0.0
  0
LINE
  5
701
330
6EA
100
AcDbEntity
  8
Visible (ISO)
100
AcDbLine
 10
-340.0
 20
-762.9054054054691
 30
0.0
 11
-340.0
 21
-767.9054054054695
 31
0.0
  0
LINE
  5
702
330
6EA
100
AcDbEntity
  8
Visible (ISO)
100
AcDbLine
 10
340.0
 20
-767.9054054054692
 30
0.0
 11
-340.0
 21
-767.9054054054695
 31
0.0
  0
LINE
  5
703
330
6EA
100
AcDbEntity
  8
Visible (ISO)
100
AcDbLine
 10
342.9054054054059
 20
0.0
 30
0.0
 11
342.9054054054059
 21
-97.90540540540542
 31
0.0
  0
LINE
  5
704
330
6EA
100
AcDbEntity
  8
Visible (ISO)
100
AcDbLine
 10
-342.9054054054059
 20
-0.0000000000002274
 30
0.0
 11
342.9054054054059
 21
0.0
 31
0.0
  0
LINE
  5
705
330
6EA
100
AcDbEntity
  8
Visible (ISO)
100
AcDbLine
 10
-342.9054054054059
 20
-97.90540540540542
 30
0.0
 11
-342.9054054054059
 21
-0.0000000000002274
 31
0.0
  0
LINE
  5
706
330
6EA
100
AcDbEntity
  8
Visible (ISO)
100
AcDbLine
 10
342.9054054054059
 20
-97.90540540540542
 30
0.0
 11
337.4999999999991
 21
-97.90540540540542
 31
0.0
  0
LINE
  5
707
330
6EA
100
AcDbEntity
  8
Visible (ISO)
100
AcDbLine
 10
-337.5
 20
-97.90540540540542
 30
0.0
 11
-342.9054054054059
 21
-97.90540540540542
 31
0.0
  0
ARC
  5
708
330
6EA
100
AcDbEntity
  8
Visible (ISO)
100
AcDbCircle
 10
287.4999999999991
 20
-75.00000000000068
 30
0.0
 40
6.99999999999906
100
AcDbArc
 50
218.2132107017201
 51
231.7867892982616
  0
ARC
  5
709
330
6EA
100
AcDbEntity
  8
Visible (ISO)
100
AcDbCircle
 10
287.5000000000009
 20
-75.00000000000091
 30
0.0
 40
7.000000000001142
100
AcDbArc
 50
128.2132107017464
 51
141.7867892982799
  0
ARC
  5
70A
330
6EA
100
AcDbEntity
  8
Visible (ISO)
100
AcDbCircle
 10
287.4999999999982
 20
-75.00000000000136
 30
0.0
 40
7.000000000001643
100
AcDbArc
 50
38.21321070176259
 51
51.78678929825354
  0
ARC
  5
70B
330
6EA
100
AcDbEntity
  8
Visible (ISO)
100
AcDbCircle
 10
287.4999999999973
 20
-74.99999999999795
 30
0.0
 40
7.000000000003124
100
AcDbArc
 50
308.2132107017465
 51
321.7867892982374
  0
ARC
  5
70C
330
6EA
100
AcDbEntity
  8
Visible (ISO)
100
AcDbCircle
 10
-287.4999999999991
 20
-74.99999999999932
 30
0.0
 40
7.000000000001143
100
AcDbArc
 50
218.2132107017201
 51
231.7867892982535
  0
ARC
  5
70D
330
6EA
100
AcDbEntity
  8
Visible (ISO)
100
AcDbCircle
 10
-287.5000000000009
 20
-74.99999999999932
 30
0.0
 40
6.999999999999059
100
AcDbArc
 50
128.2132107017464
 51
141.7867892982799
  0
ARC
  5
70E
330
6EA
100
AcDbEntity
  8
Visible (ISO)
100
AcDbCircle
 10
-287.5000000000028
 20
-75.00000000000227
 30
0.0
 40
7.000000000003128
100
AcDbArc
 50
38.21321070176259
 51
51.78678929825354
  0
ARC
  5
70F
330
6EA
100
AcDbEntity
  8
Visible (ISO)
100
AcDbCircle
 10
-287.5000000000009
 20
-74.99999999999886
 30
0.0
 40
7.000000000001644
100
AcDbArc
 50
308.2132107017465
 51
321.7867892982696
  0
LINE
  5
710
330
6EA
100
AcDbEntity
  8
Visible (ISO)
100
AcDbLine
 10
-309.1795246115716
 20
-762.9054054054081
 30
0.0
 11
-309.8281436686402
 21
-754.9999999999966
 31
0.0
  0
LINE
  5
711
330
6EA
100
AcDbEntity
  8
Visible (ISO)
100
AcDbLine
 10
-301.2476076188032
 20
-754.999999999999
 30
0.0
 11
-309.1795246115716
 21
-762.9054054054082
 31
0.0
  0
LINE
  5
712
330
6EA
100
AcDbEntity
  8
Visible (ISO)
100
AcDbLine
 10
-340.0
 20
-752.9054054054052
 30
0.0
 11
-340.0
 21
-762.9054054054081
 31
0.0
  0
LINE
  5
713
330
6EA
100
AcDbEntity
  8
Visible (ISO)
100
AcDbLine
 10
-340.0
 20
-762.9054054054081
 30
0.0
 11
-309.1795246115716
 21
-762.9054054054081
 31
0.0
  0
LINE
  5
714
330
6EA
100
AcDbEntity
  8
Visible (ISO)
100
AcDbLine
 10
-337.5
 20
-752.9054054054052
 30
0.0
 11
-340.0
 21
-752.9054054054052
 31
0.0
  0
LINE
  5
715
330
6EA
100
AcDbEntity
  8
Visible (ISO)
100
AcDbLine
 10
309.1795246115716
 20
-762.9054054054081
 30
0.0
 11
301.2476076188032
 21
-754.9999999999998
 31
0.0
  0
LINE
  5
716
330
6EA
100
AcDbEntity
  8
Visible (ISO)
100
AcDbLine
 10
309.8281436686402
 20
-754.9999999999974
 30
0.0
 11
309.1795246115716
 21
-762.9054054054081
 31
0.0
  0
LINE
  5
717
330
6EA
100
AcDbEntity
  8
Visible (ISO)
100
AcDbLine
 10
295.355437429841
 20
-762.9054054054559
 30
0.0
 11
309.1795246115716
 21
-762.9054054054082
 31
0.0
  0
LINE
  5
718
330
6EA
100
AcDbEntity
  8
Visible (ISO)
100
AcDbLine
 10
280.4102376942137
 20
-762.90540540546
 30
0.0
 11
295.3554374298401
 21
-762.9054054054559
 31
0.0
  0
LINE
  5
719
330
6EA
100
AcDbEntity
  8
Visible (ISO)
100
AcDbLine
 10
-280.4102376942137
 20
-762.90540540546
 30
0.0
 11
280.4102376942137
 21
-762.9054054054599
 31
0.0
  0
LINE
  5
71A
330
6EA
100
AcDbEntity
  8
Visible (ISO)
100
AcDbLine
 10
-295.3554374298401
 20
-762.9054054054559
 30
0.0
 11
-280.4102376942137
 21
-762.9054054054599
 31
0.0
  0
LINE
  5
71B
330
6EA
100
AcDbEntity
  8
Visible (ISO)
100
AcDbLine
 10
-309.1795246115716
 20
-762.9054054054081
 30
0.0
 11
-295.3554374298401
 21
-762.9054054054559
 31
0.0
  0
LINE
  5
71C
330
6EA
100
AcDbEntity
  8
Visible (ISO)
100
AcDbLine
 10
340.0
 20
-762.9054054054081
 30
0.0
 11
340.0
 21
-752.9054054054052
 31
0.0
  0
LINE
  5
71D
330
6EA
100
AcDbEntity
  8
Visible (ISO)
100
AcDbLine
 10
340.0
 20
-752.9054054054052
 30
0.0
 11
337.4999999999991
 21
-752.9054054054052
 31
0.0
  0
LINE
  5
71E
330
6EA
100
AcDbEntity
  8
Visible (ISO)
100
AcDbLine
 10
309.1795246115716
 20
-762.9054054054081
 30
0.0
 11
340.0
 21
-762.9054054054081
 31
0.0
  0
ARC
  5
71F
330
6EA
100
AcDbEntity
  8
Visible (ISO)
100
AcDbCircle
 10
-232.5
 20
-642.9054054054571
 30
0.0
 40
7.500000000000014
100
AcDbArc
 50
213.0893299954993
 51
326.9106700045007
  0
ARC
  5
720
330
6EA
100
AcDbEntity
  8
Visible (ISO)
100
AcDbCircle
 10
-232.5
 20
-642.9054054054573
 30
0.0
 40
7.500000000000052
100
AcDbArc
 50
51.94202472058519
 51
128.0579752794148
  0
ARC
  5
721
330
6EA
100
AcDbEntity
  8
Visible (ISO)
100
AcDbCircle
 10
-232.5
 20
-202.9054054054573
 30
0.0
 40
7.499999999999996
100
AcDbArc
 50
128.0579752794148
 51
51.94202472058519
  0
ARC
  5
722
330
6EA
100
AcDbEntity
  8
Visible (ISO)
100
AcDbCircle
 10
-232.5
 20
-322.9054054054574
 30
0.0
 40
7.500000000000009
100
AcDbArc
 50
128.0579752794148
 51
51.94202472058519
  0
ARC
  5
723
330
6EA
100
AcDbEntity
  8
Visible (ISO)
100
AcDbCircle
 10
-232.5
 20
-442.9054054054571
 30
0.0
 40
7.500000000000001
100
AcDbArc
 50
128.0579752794148
 51
51.94202472058519
  0
ARC
  5
724
330
6EA
100
AcDbEntity
  8
Visible (ISO)
100
AcDbCircle
 10
-232.5
 20
-552.9054054054571
 30
0.0
 40
7.499999999999995
100
AcDbArc
 50
213.0893299954993
 51
326.9106700045007
  0
ARC
  5
725
330
6EA
100
AcDbEntity
  8
Visible (ISO)
100
AcDbCircle
 10
-232.5
 20
-552.9054054054571
 30
0.0
 40
7.499999999999983
100
AcDbArc
 50
51.94202472058519
 51
128.0579752794148
  0
ARC
  5
726
330
6EA
100
AcDbEntity
  8
Visible (ISO)
100
AcDbCircle
 10
-116.25
 20
-202.9054054054573
 30
0.0
 40
7.500000000000014
100
AcDbArc
 50
128.0579752794148
 51
51.94202472058519
  0
ARC
  5
727
330
6EA
100
AcDbEntity
  8
Visible (ISO)
100
AcDbCircle
 10
0.0
 20
-202.9054054054573
 30
0.0
 40
7.49999999999995
100
AcDbArc
 50
131.8103148957983
 51
228.1896851042104
  0
ARC
  5
728
330
6EA
100
AcDbEntity
  8
Visible (ISO)
100
AcDbCircle
 10
0.0
 20
-202.9054054054573
 30
0.0
 40
7.499999999999961
100
AcDbArc
 50
311.8103148957896
 51
48.1896851042104
  0
ARC
  5
729
330
6EA
100
AcDbEntity
  8
Visible (ISO)
100
AcDbCircle
 10
116.25
 20
-202.9054054054573
 30
0.0
 40
7.499999999999984
100
AcDbArc
 50
128.0579752794148
 51
51.94202472058519
  0
ARC
  5
72A
330
6EA
100
AcDbEntity
  8
Visible (ISO)
100
AcDbCircle
 10
232.4999999999991
 20
-202.9054054054573
 30
0.0
 40
7.499999999999995
100
AcDbArc
 50
128.0579752794148
 51
51.94202472058519
  0
ARC
  5
72B
330
6EA
100
AcDbEntity
  8
Visible (ISO)
100
AcDbCircle
 10
232.4999999999991
 20
-642.9054054054571
 30
0.0
 40
7.500000000000002
100
AcDbArc
 50
213.0893299954993
 51
326.9106700045007
  0
ARC
  5
72C
330
6EA
100
AcDbEntity
  8
Visible (ISO)
100
AcDbCircle
 10
232.4999999999991
 20
-642.9054054054571
 30
0.0
 40
7.499999999999992
100
AcDbArc
 50
51.94202472058519
 51
128.0579752794148
  0
ARC
  5
72D
330
6EA
100
AcDbEntity
  8
Visible (ISO)
100
AcDbCircle
 10
232.4999999999991
 20
-552.9054054054571
 30
0.0
 40
7.50000000000001
100
AcDbArc
 50
213.0893299954993
 51
326.9106700045007
  0
ARC
  5
72E
330
6EA
100
AcDbEntity
  8
Visible (ISO)
100
AcDbCircle
 10
232.4999999999991
 20
-552.9054054054571
 30
0.0
 40
7.49999999999998
100
AcDbArc
 50
51.94202472058519
 51
128.0579752794148
  0
ARC
  5
72F
330
6EA
100
AcDbEntity
  8
Visible (ISO)
100
AcDbCircle
 10
232.4999999999991
 20
-442.9054054054571
 30
0.0
 40
7.500000000000002
100
AcDbArc
 50
128.0579752794148
 51
51.94202472058519
  0
ARC
  5
730
330
6EA
100
AcDbEntity
  8
Visible (ISO)
100
AcDbCircle
 10
232.4999999999991
 20
-322.9054054054574
 30
0.0
 40
7.499999999999979
100
AcDbArc
 50
128.0579752794148
 51
51.94202472058519
  0
LINE
  5
731
330
6EA
100
AcDbEntity
  8
Visible (ISO)
100
AcDbLine
 10
340.0
 20
-97.90540540540542
 30
0.0
 11
340.0
 21
-752.9054054054052
 31
0.0
  0
LINE
  5
732
330
6EA
100
AcDbEntity
  8
Visible (ISO)
100
AcDbLine
 10
-340.0
 20
-97.90540540540542
 30
0.0
 11
-337.5
 21
-97.90540540540542
 31
0.0
  0
LINE
  5
733
330
6EA
100
AcDbEntity
  8
Visible (ISO)
100
AcDbLine
 10
337.4999999999991
 20
-97.90540540540542
 30
0.0
 11
340.0
 21
-97.90540540540542
 31
0.0
  0
LINE
  5
734
330
6EA
100
AcDbEntity
  8
Visible (ISO)
100
AcDbLine
 10
-340.0
 20
-752.9054054054052
 30
0.0
 11
-340.0
 21
-97.90540540540542
 31
0.0
  0
LINE
  5
735
330
6EA
100
AcDbEntity
  8
Visible (ISO)
100
AcDbLine
 10
281.9999999999991
 20
-80.49999999999817
 30
0.0
 11
281.9999999999991
 21
-69.49999999999818
 31
0.0
  0
LINE
  5
736
330
6EA
100
AcDbEntity
  8
Visible (ISO)
100
AcDbLine
 10
281.9999999999991
 20
-69.49999999999818
 30
0.0
 11
292.9999999999991
 21
-69.49999999999818
 31
0.0
  0
LINE
  5
737
330
6EA
100
AcDbEntity
  8
Visible (ISO)
100
AcDbLine
 10
292.9999999999991
 20
-69.49999999999818
 30
0.0
 11
292.9999999999991
 21
-80.49999999999817
 31
0.0
  0
LINE
  5
738
330
6EA
100
AcDbEntity
  8
Visible (ISO)
100
AcDbLine
 10
292.9999999999991
 20
-80.49999999999817
 30
0.0
 11
281.9999999999991
 21
-80.49999999999817
 31
0.0
  0
LINE
  5
739
330
6EA
100
AcDbEntity
  8
Visible (ISO)
100
AcDbLine
 10
-282.0000000000009
 20
-69.49999999999818
 30
0.0
 11
-282.0000000000009
 21
-80.49999999999817
 31
0.0
  0
LINE
  5
73A
330
6EA
100
AcDbEntity
  8
Visible (ISO)
100
AcDbLine
 10
-293.0
 20
-69.49999999999818
 30
0.0
 11
-282.0000000000009
 21
-69.49999999999818
 31
0.0
  0
LINE
  5
73B
330
6EA
100
AcDbEntity
  8
Visible (ISO)
100
AcDbLine
 10
-293.0
 20
-80.49999999999817
 30
0.0
 11
-293.0
 21
-69.49999999999818
 31
0.0
  0
LINE
  5
73C
330
6EA
100
AcDbEntity
  8
Visible (ISO)
100
AcDbLine
 10
-282.0000000000009
 20
-80.49999999999817
 30
0.0
 11
-293.0
 21
-80.49999999999817
 31
0.0
  0
LINE
  5
73D
330
6EA
100
AcDbEntity
  8
Visible (ISO)
100
AcDbLine
 10
-340.0000000000009
 20
-94.99999999999818
 30
0.0
 11
-340.0000000000009
 21
-54.99999999999818
 31
0.0
  0
LINE
  5
73E
330
6EA
100
AcDbEntity
  8
Visible (ISO)
100
AcDbLine
 10
-340.0000000000009
 20
-54.99999999999818
 30
0.0
 11
339.9999999999991
 21
-54.99999999999818
 31
0.0
  0
LINE
  5
73F
330
6EA
100
AcDbEntity
  8
Visible (ISO)
100
AcDbLine
 10
339.9999999999991
 20
-54.99999999999818
 30
0.0
 11
339.9999999999991
 21
-94.99999999999818
 31
0.0
  0
LINE
  5
740
330
6EA
100
AcDbEntity
  8
Visible (ISO)
100
AcDbLine
 10
339.9999999999991
 20
-94.99999999999818
 30
0.0
 11
337.4999999999991
 21
-94.99999999999818
 31
0.0
  0
LINE
  5
741
330
6EA
100
AcDbEntity
  8
Visible (ISO)
100
AcDbLine
 10
-337.5
 20
-94.99999999999818
 30
0.0
 11
-340.0000000000009
 21
-94.99999999999818
 31
0.0
  0
LINE
  5
742
330
6EA
100
AcDbEntity
  8
Visible (ISO)
100
AcDbLine
 10
242.4999999999991
 20
-105.6499999999951
 30
0.0
 11
242.4999999999991
 21
-84.34999999999513
 31
0.0
  0
LINE
  5
743
330
6EA
100
AcDbEntity
  8
Visible (ISO)
100
AcDbLine
 10
302.5
 20
-84.34999999999513
 30
0.0
 11
302.5
 21
-105.6499999999951
 31
0.0
  0
LINE
  5
744
330
6EA
100
AcDbEntity
  8
Visible (ISO)
100
AcDbLine
 10
242.4999999999991
 20
-84.34999999999513
 30
0.0
 11
302.5
 21
-84.34999999999513
 31
0.0
  0
LINE
  5
745
330
6EA
100
AcDbEntity
  8
Visible (ISO)
100
AcDbLine
 10
242.4999999999991
 20
-105.6499999999951
 30
0.0
 11
302.5
 21
-105.6499999999951
 31
0.0
  0
LINE
  5
746
330
6EA
100
AcDbEntity
  8
Visible (ISO)
100
AcDbLine
 10
-302.5
 20
-105.6499999999951
 30
0.0
 11
-302.5
 21
-84.34999999999513
 31
0.0
  0
LINE
  5
747
330
6EA
100
AcDbEntity
  8
Visible (ISO)
100
AcDbLine
 10
-242.5
 20
-84.34999999999513
 30
0.0
 11
-242.5
 21
-105.6499999999951
 31
0.0
  0
LINE
  5
748
330
6EA
100
AcDbEntity
  8
Visible (ISO)
100
AcDbLine
 10
-302.5
 20
-84.34999999999513
 30
0.0
 11
-242.5
 21
-84.34999999999513
 31
0.0
  0
LINE
  5
749
330
6EA
100
AcDbEntity
  8
Visible (ISO)
100
AcDbLine
 10
-302.5
 20
-105.6499999999951
 30
0.0
 11
-242.5
 21
-105.6499999999951
 31
0.0
  0
LINE
  5
74A
330
6EA
100
AcDbEntity
  8
Visible (ISO)
100
AcDbLine
 10
179.9999999999991
 20
-105.6499999999951
 30
0.0
 11
179.9999999999991
 21
-84.34999999999513
 31
0.0
  0
LINE
  5
74B
330
6EA
100
AcDbEntity
  8
Visible (ISO)
100
AcDbLine
 10
240.0
 20
-84.34999999999513
 30
0.0
 11
240.0
 21
-105.6499999999951
 31
0.0
  0
LINE
  5
74C
330
6EA
100
AcDbEntity
  8
Visible (ISO)
100
AcDbLine
 10
179.9999999999991
 20
-84.34999999999513
 30
0.0
 11
240.0
 21
-84.34999999999513
 31
0.0
  0
LINE
  5
74D
330
6EA
100
AcDbEntity
  8
Visible (ISO)
100
AcDbLine
 10
179.9999999999991
 20
-105.6499999999951
 30
0.0
 11
240.0
 21
-105.6499999999951
 31
0.0
  0
LINE
  5
74E
330
6EA
100
AcDbEntity
  8
Visible (ISO)
100
AcDbLine
 10
-240.0
 20
-105.6499999999951
 30
0.0
 11
-240.0
 21
-84.34999999999513
 31
0.0
  0
LINE
  5
74F
330
6EA
100
AcDbEntity
  8
Visible (ISO)
100
AcDbLine
 10
-180.0
 20
-84.34999999999513
 30
0.0
 11
-180.0
 21
-105.6499999999951
 31
0.0
  0
LINE
  5
750
330
6EA
100
AcDbEntity
  8
Visible (ISO)
100
AcDbLine
 10
-240.0
 20
-84.34999999999513
 30
0.0
 11
-180.0
 21
-84.3499999999949
 31
0.0
  0
LINE
  5
751
330
6EA
100
AcDbEntity
  8
Visible (ISO)
100
AcDbLine
 10
-240.0
 20
-105.6499999999951
 30
0.0
 11
-180.0
 21
-105.6499999999951
 31
0.0
  0
LINE
  5
752
330
6EA
100
AcDbEntity
  8
Visible (ISO)
100
AcDbLine
 10
287.4999999999991
 20
-144.9999999999981
 30
0.0
 11
329.4999999999991
 21
-102.9999999999984
 31
0.0
  0
LINE
  5
753
330
6EA
100
AcDbEntity
  8
Visible (ISO)
100
AcDbLine
 10
287.4999999999991
 20
-144.9999999999981
 30
0.0
 11
-287.5000000000009
 21
-144.9999999999981
 31
0.0
  0
LINE
  5
754
330
6EA
100
AcDbEntity
  8
Visible (ISO)
100
AcDbLine
 10
-287.5000000000009
 20
-144.9999999999981
 30
0.0
 11
-329.5
 21
-102.9999999999984
 31
0.0
  0
LINE
  5
755
330
6EA
100
AcDbEntity
  8
Visible (ISO)
100
AcDbLine
 10
287.4999999999991
 20
-144.9999999999981
 30
0.0
 11
329.4999999999963
 21
-103.0000000000016
 31
0.0
  0
LINE
  5
756
330
6EA
100
AcDbEntity
  8
Visible (ISO)
100
AcDbLine
 10
337.4999999999991
 20
-754.9999999999952
 30
0.0
 11
337.5
 21
-102.0000000000016
 31
0.0
  0
LINE
  5
757
330
6EA
100
AcDbEntity
  8
Visible (ISO)
100
AcDbLine
 10
287.4999999999991
 20
-754.9999999999952
 30
0.0
 11
287.4999999999991
 21
-144.9999999999981
 31
0.0
  0
LINE
  5
758
330
6EA
100
AcDbEntity
  8
Visible (ISO)
100
AcDbLine
 10
337.4999999999991
 20
-754.9999999999952
 30
0.0
 11
287.4999999999991
 21
-754.9999999999952
 31
0.0
  0
LINE
  5
759
330
6EA
100
AcDbEntity
  8
Visible (ISO)
100
AcDbLine
 10
-287.5000000000009
 20
-144.9999999999981
 30
0.0
 11
-329.4999999999963
 21
-103.000000000002
 31
0.0
  0
LINE
  5
75A
330
6EA
100
AcDbEntity
  8
Visible (ISO)
100
AcDbLine
 10
-337.5
 20
-754.9999999999942
 30
0.0
 11
-337.5
 21
-102.0000000000025
 31
0.0
  0
LINE
  5
75B
330
6EA
100
AcDbEntity
  8
Visible (ISO)
100
AcDbLine
 10
-337.5
 20
-754.9999999999942
 30
0.0
 11
-287.5
 21
-754.9999999999942
 31
0.0
  0
LINE
  5
75C
330
6EA
100
AcDbEntity
  8
Visible (ISO)
100
AcDbLine
 10
-287.5
 20
-754.9999999999942
 30
0.0
 11
-287.5000000000009
 21
-144.9999999999981
 31
0.0
  0
LINE
  5
75D
330
6EA
100
AcDbEntity
  8
Visible (ISO)
100
AcDbLine
 10
287.4999999999982
 20
-748.9999999999975
 30
0.0
 11
-287.5000000000009
 21
-748.9999999999972
 31
0.0
  0
LINE
  5
75E
330
6EA
100
AcDbEntity
  8
Visible (ISO)
100
AcDbLine
 10
-287.5000000000009
 20
-754.9999999999973
 30
0.0
 11
287.4999999999982
 21
-754.9999999999975
 31
0.0
  0
LINE
  5
75F
330
6EA
100
AcDbEntity
  8
Visible (ISO)
100
AcDbLine
 10
-281.5
 20
-748.9999999999977
 30
0.0
 11
-281.5
 21
-144.9999999999979
 31
0.0
  0
LINE
  5
760
330
6EA
100
AcDbEntity
  8
Visible (ISO)
100
AcDbLine
 10
-287.5
 20
-748.9999999999977
 30
0.0
 11
-281.5
 21
-748.9999999999977
 31
0.0
  0
LINE
  5
761
330
6EA
100
AcDbEntity
  8
Visible (ISO)
100
AcDbLine
 10
281.5
 20
-144.9999999999977
 30
0.0
 11
281.4999999999982
 21
-748.9999999999977
 31
0.0
  0
LINE
  5
762
330
6EA
100
AcDbEntity
  8
Visible (ISO)
100
AcDbLine
 10
281.4999999999982
 20
-748.9999999999976
 30
0.0
 11
287.4999999999982
 21
-748.9999999999976
 31
0.0
  0
LINE
  5
763
330
6EA
100
AcDbEntity
  8
Visible (ISO)
100
AcDbLine
 10
-281.5
 20
-157.0000000000016
 30
0.0
 11
281.4999999999982
 21
-157.0000000000016
 31
0.0
  0
LINE
  5
764
330
6EA
100
AcDbEntity
  8
Visible (ISO)
100
AcDbLine
 10
-281.5
 20
-167.0000000000016
 30
0.0
 11
281.4999999999982
 21
-167.0000000000016
 31
0.0
  0
LINE
  5
765
330
6EA
100
AcDbEntity
  8
Visible (ISO)
100
AcDbLine
 10
-281.5
 20
-187.0000000000013
 30
0.0
 11
281.4999999999982
 21
-187.0000000000013
 31
0.0
  0
LINE
  5
766
330
6EA
100
AcDbEntity
  8
Visible (ISO)
100
AcDbLine
 10
-281.5
 20
-197.0000000000013
 30
0.0
 11
281.4999999999982
 21
-197.0000000000013
 31
0.0
  0
LINE
  5
767
330
6EA
100
AcDbEntity
  8
Visible (ISO)
100
AcDbLine
 10
-281.5
 20
-217.0000000000016
 30
0.0
 11
281.4999999999982
 21
-217.0000000000016
 31
0.0
  0
LINE
  5
768
330
6EA
100
AcDbEntity
  8
Visible (ISO)
100
AcDbLine
 10
-281.5
 20
-227.0000000000016
 30
0.0
 11
281.4999999999982
 21
-227.0000000000016
 31
0.0
  0
LINE
  5
769
330
6EA
100
AcDbEntity
  8
Visible (ISO)
100
AcDbLine
 10
-281.5
 20
-247.0000000000015
 30
0.0
 11
281.4999999999982
 21
-247.0000000000015
 31
0.0
  0
LINE
  5
76A
330
6EA
100
AcDbEntity
  8
Visible (ISO)
100
AcDbLine
 10
-281.5
 20
-257.0000000000015
 30
0.0
 11
281.4999999999982
 21
-257.0000000000015
 31
0.0
  0
LINE
  5
76B
330
6EA
100
AcDbEntity
  8
Visible (ISO)
100
AcDbLine
 10
-281.5
 20
-277.0000000000016
 30
0.0
 11
281.4999999999982
 21
-277.0000000000016
 31
0.0
  0
LINE
  5
76C
330
6EA
100
AcDbEntity
  8
Visible (ISO)
100
AcDbLine
 10
-281.5
 20
-287.0000000000015
 30
0.0
 11
281.4999999999982
 21
-287.0000000000015
 31
0.0
  0
LINE
  5
76D
330
6EA
100
AcDbEntity
  8
Visible (ISO)
100
AcDbLine
 10
-281.5
 20
-307.0000000000016
 30
0.0
 11
281.4999999999982
 21
-307.0000000000016
 31
0.0
  0
LINE
  5
76E
330
6EA
100
AcDbEntity
  8
Visible (ISO)
100
AcDbLine
 10
-281.5
 20
-317.0000000000016
 30
0.0
 11
281.4999999999982
 21
-317.0000000000016
 31
0.0
  0
LINE
  5
76F
330
6EA
100
AcDbEntity
  8
Visible (ISO)
100
AcDbLine
 10
-281.5
 20
-337.0000000000015
 30
0.0
 11
281.4999999999982
 21
-337.0000000000015
 31
0.0
  0
LINE
  5
770
330
6EA
100
AcDbEntity
  8
Visible (ISO)
100
AcDbLine
 10
-281.5
 20
-347.0000000000015
 30
0.0
 11
281.4999999999982
 21
-347.0000000000015
 31
0.0
  0
LINE
  5
771
330
6EA
100
AcDbEntity
  8
Visible (ISO)
100
AcDbLine
 10
-281.5
 20
-367.0000000000015
 30
0.0
 11
281.4999999999982
 21
-367.0000000000015
 31
0.0
  0
LINE
  5
772
330
6EA
100
AcDbEntity
  8
Visible (ISO)
100
AcDbLine
 10
-281.5
 20
-377.0000000000015
 30
0.0
 11
281.4999999999982
 21
-377.0000000000015
 31
0.0
  0
LINE
  5
773
330
6EA
100
AcDbEntity
  8
Visible (ISO)
100
AcDbLine
 10
-281.5
 20
-397.0000000000013
 30
0.0
 11
281.4999999999982
 21
-397.0000000000013
 31
0.0
  0
LINE
  5
774
330
6EA
100
AcDbEntity
  8
Visible (ISO)
100
AcDbLine
 10
-281.5
 20
-407.0000000000013
 30
0.0
 11
281.4999999999982
 21
-407.0000000000013
 31
0.0
  0
LINE
  5
775
330
6EA
100
AcDbEntity
  8
Visible (ISO)
100
AcDbLine
 10
-281.5
 20
-427.0000000000013
 30
0.0
 11
281.4999999999982
 21
-427.0000000000013
 31
0.0
  0
LINE
  5
776
330
6EA
100
AcDbEntity
  8
Visible (ISO)
100
AcDbLine
 10
-281.5
 20
-437.0000000000013
 30
0.0
 11
281.4999999999982
 21
-437.0000000000013
 31
0.0
  0
LINE
  5
777
330
6EA
100
AcDbEntity
  8
Visible (ISO)
100
AcDbLine
 10
-281.5
 20
-457.0000000000014
 30
0.0
 11
281.4999999999982
 21
-457.0000000000014
 31
0.0
  0
LINE
  5
778
330
6EA
100
AcDbEntity
  8
Visible (ISO)
100
AcDbLine
 10
-281.5
 20
-467.0000000000014
 30
0.0
 11
281.4999999999982
 21
-467.0000000000014
 31
0.0
  0
LINE
  5
779
330
6EA
100
AcDbEntity
  8
Visible (ISO)
100
AcDbLine
 10
-281.5
 20
-487.0000000000015
 30
0.0
 11
281.4999999999982
 21
-487.0000000000013
 31
0.0
  0
LINE
  5
77A
330
6EA
100
AcDbEntity
  8
Visible (ISO)
100
AcDbLine
 10
-281.5
 20
-497.0000000000014
 30
0.0
 11
281.4999999999982
 21
-497.0000000000014
 31
0.0
  0
LINE
  5
77B
330
6EA
100
AcDbEntity
  8
Visible (ISO)
100
AcDbLine
 10
-281.5
 20
-517.0000000000014
 30
0.0
 11
281.4999999999982
 21
-517.0000000000012
 31
0.0
  0
LINE
  5
77C
330
6EA
100
AcDbEntity
  8
Visible (ISO)
100
AcDbLine
 10
-281.5
 20
-527.0000000000013
 30
0.0
 11
281.4999999999982
 21
-527.0000000000013
 31
0.0
  0
LINE
  5
77D
330
6EA
100
AcDbEntity
  8
Visible (ISO)
100
AcDbLine
 10
-281.5
 20
-547.0000000000012
 30
0.0
 11
281.4999999999982
 21
-547.0000000000011
 31
0.0
  0
LINE
  5
77E
330
6EA
100
AcDbEntity
  8
Visible (ISO)
100
AcDbLine
 10
-281.5
 20
-557.0000000000012
 30
0.0
 11
281.4999999999982
 21
-557.0000000000012
 31
0.0
  0
LINE
  5
77F
330
6EA
100
AcDbEntity
  8
Visible (ISO)
100
AcDbLine
 10
-281.5
 20
-577.0000000000013
 30
0.0
 11
281.4999999999982
 21
-577.0000000000013
 31
0.0
  0
LINE
  5
780
330
6EA
100
AcDbEntity
  8
Visible (ISO)
100
AcDbLine
 10
-281.5
 20
-587.0000000000013
 30
0.0
 11
281.4999999999982
 21
-587.0000000000013
 31
0.0
  0
LINE
  5
781
330
6EA
100
AcDbEntity
  8
Visible (ISO)
100
AcDbLine
 10
-281.5
 20
-607.0000000000013
 30
0.0
 11
281.4999999999982
 21
-607.0000000000013
 31
0.0
  0
LINE
  5
782
330
6EA
100
AcDbEntity
  8
Visible (ISO)
100
AcDbLine
 10
-281.5
 20
-617.0000000000012
 30
0.0
 11
281.4999999999982
 21
-617.0000000000012
 31
0.0
  0
LINE
  5
783
330
6EA
100
AcDbEntity
  8
Visible (ISO)
100
AcDbLine
 10
-281.5
 20
-637.0000000000012
 30
0.0
 11
281.4999999999982
 21
-637.0000000000012
 31
0.0
  0
LINE
  5
784
330
6EA
100
AcDbEntity
  8
Visible (ISO)
100
AcDbLine
 10
-281.5
 20
-647.0000000000011
 30
0.0
 11
281.4999999999982
 21
-647.0000000000011
 31
0.0
  0
LINE
  5
785
330
6EA
100
AcDbEntity
  8
Visible (ISO)
100
AcDbLine
 10
-281.5
 20
-667.0000000000012
 30
0.0
 11
281.4999999999982
 21
-667.0000000000012
 31
0.0
  0
LINE
  5
786
330
6EA
100
AcDbEntity
  8
Visible (ISO)
100
AcDbLine
 10
-281.5
 20
-677.0000000000012
 30
0.0
 11
281.4999999999982
 21
-677.0000000000012
 31
0.0
  0
LINE
  5
787
330
6EA
100
AcDbEntity
  8
Visible (ISO)
100
AcDbLine
 10
-281.5
 20
-697.0000000000013
 30
0.0
 11
281.4999999999982
 21
-697.0000000000013
 31
0.0
  0
LINE
  5
788
330
6EA
100
AcDbEntity
  8
Visible (ISO)
100
AcDbLine
 10
-281.5
 20
-707.0000000000012
 30
0.0
 11
281.4999999999982
 21
-707.0000000000012
 31
0.0
  0
LINE
  5
789
330
6EA
100
AcDbEntity
  8
Visible (ISO)
100
AcDbLine
 10
-281.5
 20
-727.0000000000012
 30
0.0
 11
281.4999999999982
 21
-727.0000000000012
 31
0.0
  0
LINE
  5
78A
330
6EA
100
AcDbEntity
  8
Visible (ISO)
100
AcDbLine
 10
-281.5
 20
-737.0000000000012
 30
0.0
 11
281.4999999999982
 21
-737.0000000000012
 31
0.0
  0
LINE
  5
78B
330
6EA
100
AcDbEntity
  8
Visible (ISO)
100
AcDbLine
 10
5.0
 20
-145.0000000000079
 30
0.0
 11
5.0
 21
-157.0000000000045
 31
0.0
  0
LINE
  5
78C
330
6EA
100
AcDbEntity
  8
Visible (ISO)
100
AcDbLine
 10
5.0
 20
-167.0000000000048
 30
0.0
 11
5.0
 21
-187.0000000000048
 31
0.0
  0
LINE
  5
78D
330
6EA
100
AcDbEntity
  8
Visible (ISO)
100
AcDbLine
 10
5.0
 20
-197.0000000000045
 30
0.0
 11
5.0
 21
-217.0000000000046
 31
0.0
  0
LINE
  5
78E
330
6EA
100
AcDbEntity
  8
Visible (ISO)
100
AcDbLine
 10
5.0
 20
-227.0000000000045
 30
0.0
 11
5.0
 21
-247.0000000000045
 31
0.0
  0
LINE
  5
78F
330
6EA
100
AcDbEntity
  8
Visible (ISO)
100
AcDbLine
 10
5.0
 20
-257.0000000000046
 30
0.0
 11
5.0
 21
-277.0000000000044
 31
0.0
  0
LINE
  5
790
330
6EA
100
AcDbEntity
  8
Visible (ISO)
100
AcDbLine
 10
5.0
 20
-287.0000000000045
 30
0.0
 11
5.0
 21
-307.0000000000046
 31
0.0
  0
LINE
  5
791
330
6EA
100
AcDbEntity
  8
Visible (ISO)
100
AcDbLine
 10
5.0
 20
-317.0000000000044
 30
0.0
 11
5.0
 21
-337.0000000000044
 31
0.0
  0
LINE
  5
792
330
6EA
100
AcDbEntity
  8
Visible (ISO)
100
AcDbLine
 10
5.0
 20
-347.0000000000045
 30
0.0
 11
5.0
 21
-367.0000000000044
 31
0.0
  0
LINE
  5
793
330
6EA
100
AcDbEntity
  8
Visible (ISO)
100
AcDbLine
 10
5.0
 20
-377.0000000000044
 30
0.0
 11
5.0
 21
-397.0000000000045
 31
0.0
  0
LINE
  5
794
330
6EA
100
AcDbEntity
  8
Visible (ISO)
100
AcDbLine
 10
5.0
 20
-407.0000000000044
 30
0.0
 11
5.0
 21
-427.0000000000043
 31
0.0
  0
LINE
  5
795
330
6EA
100
AcDbEntity
  8
Visible (ISO)
100
AcDbLine
 10
5.0
 20
-437.0000000000043
 30
0.0
 11
5.0
 21
-457.0000000000042
 31
0.0
  0
LINE
  5
796
330
6EA
100
AcDbEntity
  8
Visible (ISO)
100
AcDbLine
 10
5.0
 20
-467.0000000000043
 30
0.0
 11
4.99999999999909
 21
-487.0000000000044
 31
0.0
  0
LINE
  5
797
330
6EA
100
AcDbEntity
  8
Visible (ISO)
100
AcDbLine
 10
4.99999999999909
 20
-497.0000000000043
 30
0.0
 11
4.99999999999909
 21
-517.0000000000042
 31
0.0
  0
LINE
  5
798
330
6EA
100
AcDbEntity
  8
Visible (ISO)
100
AcDbLine
 10
4.99999999999909
 20
-527.0000000000042
 30
0.0
 11
4.99999999999909
 21
-547.0000000000042
 31
0.0
  0
LINE
  5
799
330
6EA
100
AcDbEntity
  8
Visible (ISO)
100
AcDbLine
 10
4.99999999999909
 20
-557.0000000000041
 30
0.0
 11
4.99999999999909
 21
-577.0000000000042
 31
0.0
  0
LINE
  5
79A
330
6EA
100
AcDbEntity
  8
Visible (ISO)
100
AcDbLine
 10
4.99999999999909
 20
-587.0000000000043
 30
0.0
 11
4.99999999999909
 21
-607.0000000000042
 31
0.0
  0
LINE
  5
79B
330
6EA
100
AcDbEntity
  8
Visible (ISO)
100
AcDbLine
 10
4.99999999999909
 20
-617.0000000000042
 30
0.0
 11
4.99999999999909
 21
-637.000000000004
 31
0.0
  0
LINE
  5
79C
330
6EA
100
AcDbEntity
  8
Visible (ISO)
100
AcDbLine
 10
4.99999999999909
 20
-647.0000000000041
 30
0.0
 11
4.99999999999909
 21
-667.0000000000039
 31
0.0
  0
LINE
  5
79D
330
6EA
100
AcDbEntity
  8
Visible (ISO)
100
AcDbLine
 10
4.99999999999909
 20
-677.0000000000039
 30
0.0
 11
4.99999999999909
 21
-697.0000000000041
 31
0.0
  0
LINE
  5
79E
330
6EA
100
AcDbEntity
  8
Visible (ISO)
100
AcDbLine
 10
4.99999999999909
 20
-707.0000000000041
 30
0.0
 11
4.99999999999909
 21
-727.0000000000041
 31
0.0
  0
LINE
  5
79F
330
6EA
100
AcDbEntity
  8
Visible (ISO)
100
AcDbLine
 10
4.99999999999909
 20
-737.000000000004
 30
0.0
 11
4.99999999999909
 21
-749.0000000000038
 31
0.0
  0
LINE
  5
7A0
330
6EA
100
AcDbEntity
  8
Visible (ISO)
100
AcDbLine
 10
-5.0
 20
-145.0000000000079
 30
0.0
 11
-5.0
 21
-157.0000000000045
 31
0.0
  0
LINE
  5
7A1
330
6EA
100
AcDbEntity
  8
Visible (ISO)
100
AcDbLine
 10
-5.0
 20
-167.0000000000048
 30
0.0
 11
-5.0
 21
-187.0000000000048
 31
0.0
  0
LINE
  5
7A2
330
6EA
100
AcDbEntity
  8
Visible (ISO)
100
AcDbLine
 10
-5.0
 20
-197.0000000000045
 30
0.0
 11
-5.0
 21
-217.0000000000046
 31
0.0
  0
LINE
  5
7A3
330
6EA
100
AcDbEntity
  8
Visible (ISO)
100
AcDbLine
 10
-5.0
 20
-227.0000000000045
 30
0.0
 11
-5.0
 21
-247.0000000000045
 31
0.0
  0
LINE
  5
7A4
330
6EA
100
AcDbEntity
  8
Visible (ISO)
100
AcDbLine
 10
-5.0
 20
-257.0000000000046
 30
0.0
 11
-5.0
 21
-277.0000000000044
 31
0.0
  0
LINE
  5
7A5
330
6EA
100
AcDbEntity
  8
Visible (ISO)
100
AcDbLine
 10
-5.0
 20
-287.0000000000045
 30
0.0
 11
-5.0
 21
-307.0000000000046
 31
0.0
  0
LINE
  5
7A6
330
6EA
100
AcDbEntity
  8
Visible (ISO)
100
AcDbLine
 10
-5.0
 20
-317.0000000000044
 30
0.0
 11
-5.0
 21
-337.0000000000044
 31
0.0
  0
LINE
  5
7A7
330
6EA
100
AcDbEntity
  8
Visible (ISO)
100
AcDbLine
 10
-5.0
 20
-347.0000000000045
 30
0.0
 11
-5.0
 21
-367.0000000000044
 31
0.0
  0
LINE
  5
7A8
330
6EA
100
AcDbEntity
  8
Visible (ISO)
100
AcDbLine
 10
-5.0
 20
-377.0000000000044
 30
0.0
 11
-5.0
 21
-397.0000000000045
 31
0.0
  0
LINE
  5
7A9
330
6EA
100
AcDbEntity
  8
Visible (ISO)
100
AcDbLine
 10
-5.0
 20
-407.0000000000044
 30
0.0
 11
-5.000000000000909
 21
-427.0000000000043
 31
0.0
  0
LINE
  5
7AA
330
6EA
100
AcDbEntity
  8
Visible (ISO)
100
AcDbLine
 10
-5.000000000000909
 20
-437.0000000000043
 30
0.0
 11
-5.000000000000909
 21
-457.0000000000042
 31
0.0
  0
LINE
  5
7AB
330
6EA
100
AcDbEntity
  8
Visible (ISO)
100
AcDbLine
 10
-5.000000000000909
 20
-467.0000000000043
 30
0.0
 11
-5.000000000000909
 21
-487.0000000000044
 31
0.0
  0
LINE
  5
7AC
330
6EA
100
AcDbEntity
  8
Visible (ISO)
100
AcDbLine
 10
-5.000000000000909
 20
-497.0000000000043
 30
0.0
 11
-5.000000000000909
 21
-517.0000000000042
 31
0.0
  0
LINE
  5
7AD
330
6EA
100
AcDbEntity
  8
Visible (ISO)
100
AcDbLine
 10
-5.000000000000909
 20
-527.0000000000042
 30
0.0
 11
-5.000000000000909
 21
-547.0000000000042
 31
0.0
  0
LINE
  5
7AE
330
6EA
100
AcDbEntity
  8
Visible (ISO)
100
AcDbLine
 10
-5.000000000000909
 20
-557.0000000000041
 30
0.0
 11
-5.000000000000909
 21
-577.0000000000042
 31
0.0
  0
LINE
  5
7AF
330
6EA
100
AcDbEntity
  8
Visible (ISO)
100
AcDbLine
 10
-5.000000000000909
 20
-587.0000000000043
 30
0.0
 11
-5.000000000000909
 21
-607.0000000000042
 31
0.0
  0
LINE
  5
7B0
330
6EA
100
AcDbEntity
  8
Visible (ISO)
100
AcDbLine
 10
-5.000000000000909
 20
-617.0000000000042
 30
0.0
 11
-5.000000000000909
 21
-637.000000000004
 31
0.0
  0
LINE
  5
7B1
330
6EA
100
AcDbEntity
  8
Visible (ISO)
100
AcDbLine
 10
-5.000000000000909
 20
-647.0000000000041
 30
0.0
 11
-5.000000000000909
 21
-667.0000000000039
 31
0.0
  0
LINE
  5
7B2
330
6EA
100
AcDbEntity
  8
Visible (ISO)
100
AcDbLine
 10
-5.000000000000909
 20
-677.0000000000039
 30
0.0
 11
-5.000000000000909
 21
-697.0000000000041
 31
0.0
  0
LINE
  5
7B3
330
6EA
100
AcDbEntity
  8
Visible (ISO)
100
AcDbLine
 10
-5.000000000000909
 20
-707.0000000000041
 30
0.0
 11
-5.000000000000909
 21
-727.0000000000041
 31
0.0
  0
LINE
  5
7B4
330
6EA
100
AcDbEntity
  8
Visible (ISO)
100
AcDbLine
 10
-5.000000000000909
 20
-737.000000000004
 30
0.0
 11
-5.000000000000909
 21
-749.0000000000038
 31
0.0
  0
LINE
  5
7B5
330
6EA
100
AcDbEntity
  8
Visible (ISO)
100
AcDbLine
 10
337.4999999999991
 20
-87.99999999999499
 30
0.0
 11
337.4999999999991
 21
-101.999999999995
 31
0.0
  0
LINE
  5
7B6
330
6EA
100
AcDbEntity
  8
Visible (ISO)
100
AcDbLine
 10
336.4999999999991
 20
-102.9999999999952
 30
0.0
 11
336.4999999999991
 21
-86.999999999995
 31
0.0
  0
LINE
  5
7B7
330
6EA
100
AcDbEntity
  8
Visible (ISO)
100
AcDbLine
 10
-336.5000000000009
 20
-86.999999999995
 30
0.0
 11
-336.5000000000009
 21
-102.9999999999952
 31
0.0
  0
LINE
  5
7B8
330
6EA
100
AcDbEntity
  8
Visible (ISO)
100
AcDbLine
 10
-337.5
 20
-101.999999999995
 30
0.0
 11
-337.5
 21
-87.99999999999499
 31
0.0
  0
LINE
  5
7B9
330
6EA
100
AcDbEntity
  8
Visible (ISO)
100
AcDbLine
 10
337.4999999999991
 20
-101.999999999995
 30
0.0
 11
336.4999999999991
 21
-102.999999999995
 31
0.0
  0
LINE
  5
7BA
330
6EA
100
AcDbEntity
  8
Visible (ISO)
100
AcDbLine
 10
337.4999999999991
 20
-87.99999999999499
 30
0.0
 11
336.4999999999991
 21
-86.999999999995
 31
0.0
  0
LINE
  5
7BB
330
6EA
100
AcDbEntity
  8
Visible (ISO)
100
AcDbLine
 10
-337.5
 20
-87.99999999999499
 30
0.0
 11
-336.5000000000009
 21
-86.99999999999523
 31
0.0
  0
LINE
  5
7BC
330
6EA
100
AcDbEntity
  8
Visible (ISO)
100
AcDbLine
 10
-337.5
 20
-101.999999999995
 30
0.0
 11
-336.5000000000009
 21
-102.9999999999952
 31
0.0
  0
LINE
  5
7BD
330
6EA
100
AcDbEntity
  8
Visible (ISO)
100
AcDbLine
 10
336.4999999999991
 20
-102.999999999995
 30
0.0
 11
302.4999999999991
 21
-102.9999999999952
 31
0.0
  0
LINE
  5
7BE
330
6EA
100
AcDbEntity
  8
Visible (ISO)
100
AcDbLine
 10
242.4999999999991
 20
-102.9999999999952
 30
0.0
 11
239.9999999999991
 21
-102.9999999999952
 31
0.0
  0
LINE
  5
7BF
330
6EA
100
AcDbEntity
  8
Visible (ISO)
100
AcDbLine
 10
179.9999999999991
 20
-102.9999999999952
 30
0.0
 11
-180.0000000000009
 21
-102.9999999999952
 31
0.0
  0
LINE
  5
7C0
330
6EA
100
AcDbEntity
  8
Visible (ISO)
100
AcDbLine
 10
-240.0
 20
-102.9999999999952
 30
0.0
 11
-242.5
 21
-102.9999999999952
 31
0.0
  0
LINE
  5
7C1
330
6EA
100
AcDbEntity
  8
Visible (ISO)
100
AcDbLine
 10
-302.5
 20
-102.9999999999952
 30
0.0
 11
-336.5000000000009
 21
-102.9999999999952
 31
0.0
  0
LINE
  5
7C2
330
6EA
100
AcDbEntity
  8
Visible (ISO)
100
AcDbLine
 10
336.4999999999991
 20
-86.999999999995
 30
0.0
 11
302.4999999999991
 21
-86.999999999995
 31
0.0
  0
LINE
  5
7C3
330
6EA
100
AcDbEntity
  8
Visible (ISO)
100
AcDbLine
 10
242.4999999999991
 20
-86.999999999995
 30
0.0
 11
239.9999999999991
 21
-86.999999999995
 31
0.0
  0
LINE
  5
7C4
330
6EA
100
AcDbEntity
  8
Visible (ISO)
100
AcDbLine
 10
179.9999999999991
 20
-86.999999999995
 30
0.0
 11
-180.0000000000009
 21
-86.999999999995
 31
0.0
  0
LINE
  5
7C5
330
6EA
100
AcDbEntity
  8
Visible (ISO)
100
AcDbLine
 10
-240.0
 20
-86.999999999995
 30
0.0
 11
-242.5
 21
-86.999999999995
 31
0.0
  0
LINE
  5
7C6
330
6EA
100
AcDbEntity
  8
Visible (ISO)
100
AcDbLine
 10
-302.5
 20
-86.999999999995
 30
0.0
 11
-336.5000000000009
 21
-86.99999999999523
 31
0.0
  0
ENDBLK
  5
6EC
330
6EA
100
AcDbEntity
  8
0
100
AcDbBlockEnd
  0
ENDSEC
  0
SECTION
  2
ENTITIES
  0
ARC
  5
172
330
6C
100
AcDbEntity
  8
Visible (ISO)
100
AcDbCircle
 10
5099.695140924359
 20
2477.103104252549
 30
0.0
 40
4.999999999999715
100
AcDbArc
 50
90.0
 51
179.2257798350715
  0
LINE
  5
173
330
6C
100
AcDbEntity
  8
Visible (ISO)
100
AcDbLine
 10
5099.695140924359
 20
2482.10310425255
 30
0.0
 11
4399.829363025939
 21
2482.10310425255
 31
0.0
  0
ARC
  5
174
330
6C
100
AcDbEntity
  8
Visible (ISO)
100
AcDbCircle
 10
5169.76225197515
 20
2477.103104252549
 30
0.0
 40
4.999999999999928
100
AcDbArc
 50
0.0
 51
90.0
  0
LINE
  5
175
330
6C
100
AcDbEntity
  8
Visible (ISO)
100
AcDbLine
 10
5169.76225197515
 20
2482.10310425255
 30
0.0
 11
5099.695140924359
 21
2482.10310425255
 31
0.0
  0
ELLIPSE
  5
176
330
6C
100
AcDbEntity
  8
Visible (ISO)
100
AcDbEllipse
 10
5169.76225197515
 20
2375.345800276495
 30
0.0
 11
0.0000000000000017
 21
6.757303976053852
 31
0.0
210
0.0
220
0.0
230
1.0
 40
0.7399400733959452
 41
4.712388980384728
 42
6.283185307179586
  0
LINE
  5
177
330
6C
100
AcDbEntity
  8
Visible (ISO)
100
AcDbLine
 10
5174.762251975149
 20
2375.345800276495
 30
0.0
 11
5174.762251975149
 21
2477.103104252549
 31
0.0
  0
ARC
  5
178
330
6C
100
AcDbEntity
  8
Visible (ISO)
100
AcDbCircle
 10
4399.829363025939
 20
2477.103104252549
 30
0.0
 40
5.000000000000097
100
AcDbArc
 50
0.7742201649285049
 51
90.0
  0
ARC
  5
179
330
6C
100
AcDbEntity
  8
Visible (ISO)
100
AcDbCircle
 10
4329.762251975149
 20
2477.103104252549
 30
0.0
 40
4.999999999999857
100
AcDbArc
 50
90.0
 51
180.0
  0
LINE
  5
17A
330
6C
100
AcDbEntity
  8
Visible (ISO)
100
AcDbLine
 10
4399.829363025939
 20
2482.10310425255
 30
0.0
 11
4329.762251975149
 21
2482.10310425255
 31
0.0
  0
ELLIPSE
  5
17B
330
6C
100
AcDbEntity
  8
Visible (ISO)
100
AcDbEllipse
 10
4329.762251975149
 20
2375.345800276495
 30
0.0
 11
-0.0000000000000017
 21
6.757303976053852
 31
0.0
210
0.0
220
0.0
230
1.0
 40
0.7399400733959452
 41
0.0
 42
1.570796326794857
  0
LINE
  5
17C
330
6C
100
AcDbEntity
  8
Visible (ISO)
100
AcDbLine
 10
4324.762251975149
 20
2477.103104252549
 30
0.0
 11
4324.762251975149
 21
2375.345800276495
 31
0.0
  0
ELLIPSE
  5
17D
330
6C
100
AcDbEntity
  8
Visible (ISO)
100
AcDbEllipse
 10
4401.204461728318
 20
2375.345800276495
 30
0.0
 11
-0.0913103543082658
 21
6.756966218811546
 31
0.0
210
0.0
220
0.0
230
1.0
 40
0.7399095042063293
 41
4.712388980384659
 42
6.273186863286747
  0
LINE
  5
17E
330
6C
100
AcDbEntity
  8
Visible (ISO)
100
AcDbLine
 10
4406.204005253218
 20
2375.413361675481
 30
0.0
 11
4404.828906550839
 21
2477.170665651535
 31
0.0
  0
ELLIPSE
  5
17F
330
6C
100
AcDbEntity
  8
Visible (ISO)
100
AcDbEllipse
 10
5098.320042221981
 20
2375.345800276495
 30
0.0
 11
0.0913103543082653
 21
6.756966218811546
 31
0.0
210
0.0
220
0.0
230
1.0
 40
0.7399095042063293
 41
0.009998443892945
 42
1.570796326794924
  0
LINE
  5
180
330
6C
100
AcDbEntity
  8
Visible (ISO)
100
AcDbLine
 10
5094.69559739946
 20
2477.170665651535
 30
0.0
 11
5093.320498697082
 21
2375.413361675481
 31
0.0
  0
LINE
  5
181
330
6C
100
AcDbEntity
  8
Visible (ISO)
100
AcDbLine
 10
5169.76225197515
 20
2382.10310425255
 30
0.0
 11
5098.36136118967
 21
2382.10310425255
 31
0.0
  0
LINE
  5
182
330
6C
100
AcDbEntity
  8
Visible (ISO)
100
AcDbLine
 10
4401.163142760628
 20
2382.10310425255
 30
0.0
 11
4329.762251975149
 21
2382.10310425255
 31
0.0
  0
LINE
  5
183
330
6C
100
AcDbEntity
  8
Visible (ISO)
100
AcDbLine
 10
4324.762251975149
 20
2375.345800276495
 30
0.0
 11
4324.762251975149
 21
1582.103104252549
 31
0.0
  0
LINE
  5
184
330
6C
100
AcDbEntity
  8
Visible (ISO)
100
AcDbLine
 10
4404.762251975149
 20
1582.103104252549
 30
0.0
 11
4324.762251975149
 21
1582.103104252549
 31
0.0
  0
LINE
  5
185
330
6C
100
AcDbEntity
  8
Visible (ISO)
100
AcDbLine
 10
5174.762251975149
 20
1582.103104252549
 30
0.0
 11
5094.76225197515
 21
1582.103104252549
 31
0.0
  0
LINE
  5
186
330
6C
100
AcDbEntity
  8
Visible (ISO)
100
AcDbLine
 10
5174.762251975149
 20
1582.103104252549
 30
0.0
 11
5174.762251975149
 21
2375.345800276495
 31
0.0
  0
LINE
  5
187
330
6C
100
AcDbEntity
  8
Visible (ISO)
100
AcDbLine
 10
5093.320498697082
 20
2375.413361675481
 30
0.0
 11
5089.762251975149
 21
2112.103104252549
 31
0.0
  0
LINE
  5
188
330
6C
100
AcDbEntity
  8
Visible (ISO)
100
AcDbLine
 10
4409.762251975149
 20
2112.103104252549
 30
0.0
 11
4406.204005253218
 21
2375.413361675481
 31
0.0
  0
LINE
  5
189
330
6C
100
AcDbEntity
  8
Visible (ISO)
100
AcDbLine
 10
5089.762251975149
 20
2112.103104252549
 30
0.0
 11
4409.762251975149
 21
2112.103104252549
 31
0.0
  0
LINE
  5
18A
330
6C
100
AcDbEntity
  8
Visible (ISO)
100
AcDbLine
 10
4689.762251975149
 20
2029.603104252549
 30
0.0
 11
4689.762251975149
 21
2079.603104252549
 31
0.0
  0
LINE
  5
18B
330
6C
100
AcDbEntity
  8
Visible (ISO)
100
AcDbLine
 10
4689.762251975149
 20
2079.603104252549
 30
0.0
 11
4809.76225197515
 21
2079.603104252549
 31
0.0
  0
LINE
  5
18C
330
6C
100
AcDbEntity
  8
Visible (ISO)
100
AcDbLine
 10
4809.76225197515
 20
2079.603104252549
 30
0.0
 11
4809.76225197515
 21
2029.603104252549
 31
0.0
  0
LINE
  5
18D
330
6C
100
AcDbEntity
  8
Visible (ISO)
100
AcDbLine
 10
4809.76225197515
 20
2029.603104252549
 30
0.0
 11
4689.762251975149
 21
2029.603104252549
 31
0.0
  0
LINE
  5
18E
330
6C
100
AcDbEntity
  8
Visible (ISO)
100
AcDbLine
 10
4691.58210314648
 20
2077.783253081218
 30
0.0
 11
4691.58210314648
 21
2031.42295542388
 31
0.0
  0
LINE
  5
18F
330
6C
100
AcDbEntity
  8
Visible (ISO)
100
AcDbLine
 10
4689.762251975149
 20
2079.603104252549
 30
0.0
 11
4691.58210314648
 21
2077.783253081218
 31
0.0
  0
LINE
  5
190
330
6C
100
AcDbEntity
  8
Visible (ISO)
100
AcDbLine
 10
4689.762251975149
 20
2029.603104252549
 30
0.0
 11
4691.58210314648
 21
2031.42295542388
 31
0.0
  0
LINE
  5
191
330
6C
100
AcDbEntity
  8
Visible (ISO)
100
AcDbLine
 10
4691.58210314648
 20
2031.42295542388
 30
0.0
 11
4807.942400803819
 21
2031.42295542388
 31
0.0
  0
LINE
  5
192
330
6C
100
AcDbEntity
  8
Visible (ISO)
100
AcDbLine
 10
4809.76225197515
 20
2029.603104252549
 30
0.0
 11
4807.942400803819
 21
2031.42295542388
 31
0.0
  0
LINE
  5
193
330
6C
100
AcDbEntity
  8
Visible (ISO)
100
AcDbLine
 10
4807.942400803819
 20
2031.42295542388
 30
0.0
 11
4807.942400803819
 21
2077.783253081218
 31
0.0
  0
LINE
  5
194
330
6C
100
AcDbEntity
  8
Visible (ISO)
100
AcDbLine
 10
4809.76225197515
 20
2079.603104252549
 30
0.0
 11
4807.942400803819
 21
2077.783253081218
 31
0.0
  0
LINE
  5
195
330
6C
100
AcDbEntity
  8
Visible (ISO)
100
AcDbLine
 10
4807.942400803819
 20
2077.783253081218
 30
0.0
 11
4691.58210314648
 21
2077.783253081218
 31
0.0
  0
LINE
  5
196
330
6C
100
AcDbEntity
  8
Visible (ISO)
100
AcDbLine
 10
4404.762251975149
 20
1582.103104252549
 30
0.0
 11
4434.76225197515
 21
1997.103104252549
 31
0.0
  0
LINE
  5
197
330
6C
100
AcDbEntity
  8
Visible (ISO)
100
AcDbLine
 10
4434.76225197515
 20
1997.103104252549
 30
0.0
 11
5064.76225197515
 21
1997.103104252549
 31
0.0
  0
LINE
  5
198
330
6C
100
AcDbEntity
  8
Visible (ISO)
100
AcDbLine
 10
5064.76225197515
 20
1997.103104252549
 30
0.0
 11
5094.76225197515
 21
1582.103104252549
 31
0.0
  0
LINE
  5
199
330
6C
100
AcDbEntity
  8
Visible (ISO)
100
AcDbLine
 10
5094.76225197515
 20
1582.103104252549
 30
0.0
 11
4404.76225197515
 21
1582.103104252549
 31
0.0
  0
CIRCLE
  5
19A
330
6C
100
AcDbEntity
  8
Visible (ISO)
100
AcDbCircle
 10
4784.762251975149
 20
2054.603104252549
 30
0.0
 40
4.187999999999999
  0
CIRCLE
  5
19B
330
6C
100
AcDbEntity
  8
Visible (ISO)
100
AcDbCircle
 10
4714.762251975149
 20
2054.603104252549
 30
0.0
 40
4.187999999999999
  0
LINE
  5
19C
330
6C
100
AcDbEntity
  8
Visible (ISO)
100
AcDbLine
 10
5092.667657380555
 20
2327.103104252549
 30
0.0
 11
5089.762251975149
 21
2327.103104252549
 31
0.0
  0
LINE
  5
19D
330
6C
100
AcDbEntity
  8
Visible (ISO)
100
AcDbLine
 10
4409.762251975149
 20
2327.103104252549
 30
0.0
 11
4406.856846569744
 21
2327.103104252549
 31
0.0
  0
SPLINE
  5
19E
330
6C
100
AcDbEntity
  8
Visible (ISO)
100
AcDbSpline
210
0.0
220
0.0
230
1.0
 70
    28
 71
     1
 72
     4
 73
     2
 74
     0
 42
0.0000000001
 43
0.0000000001
 40
0.0
 40
0.0
 40
1.0
 40
1.0
 10
4439.762251975149
 20
2327.103104252549
 30
0.0
 41
1.0
 10
4450.616263388614
 20
2317.139637762132
 30
0.0
 41
1.0
  0
LINE
  5
19F
330
6C
100
AcDbEntity
  8
Visible (ISO)
100
AcDbLine
 10
4440.582727363578
 20
2317.103104252549
 30
0.0
 11
4439.762251975149
 21
2327.103104252549
 31
0.0
  0
LINE
  5
1A0
330
6C
100
AcDbEntity
  8
Visible (ISO)
100
AcDbLine
 10
4450.616263388614
 20
2317.139637762132
 30
0.0
 11
4440.582727363578
 21
2317.103104252549
 31
0.0
  0
LINE
  5
1A1
330
6C
100
AcDbEntity
  8
Visible (ISO)
100
AcDbLine
 10
4409.762251975149
 20
2327.103104252549
 30
0.0
 11
4409.762251975149
 21
2317.103104252549
 31
0.0
  0
LINE
  5
1A2
330
6C
100
AcDbEntity
  8
Visible (ISO)
100
AcDbLine
 10
4409.762251975149
 20
2317.103104252549
 30
0.0
 11
4440.582727363578
 21
2317.103104252549
 31
0.0
  0
LINE
  5
1A3
330
6C
100
AcDbEntity
  8
Visible (ISO)
100
AcDbLine
 10
4439.762251975149
 20
2327.103104252549
 30
0.0
 11
4409.762251975149
 21
2327.103104252549
 31
0.0
  0
SPLINE
  5
1A4
330
6C
100
AcDbEntity
  8
Visible (ISO)
100
AcDbSpline
210
0.0
220
0.0
230
1.0
 70
    28
 71
     1
 72
     4
 73
     2
 74
     0
 42
0.0000000001
 43
0.0000000001
 40
-1.0
 40
-1.0
 40
0.0
 40
0.0
 10
5048.908240561686
 20
2317.139637762132
 30
0.0
 41
1.0
 10
5059.762251975149
 20
2327.103104252549
 30
0.0
 41
1.0
  0
LINE
  5
1A5
330
6C
100
AcDbEntity
  8
Visible (ISO)
100
AcDbLine
 10
5058.941776586721
 20
2317.103104252549
 30
0.0
 11
5048.908240561686
 21
2317.139637762132
 31
0.0
  0
LINE
  5
1A6
330
6C
100
AcDbEntity
  8
Visible (ISO)
100
AcDbLine
 10
5059.762251975149
 20
2327.103104252549
 30
0.0
 11
5058.941776586721
 21
2317.103104252549
 31
0.0
  0
LINE
  5
1A7
330
6C
100
AcDbEntity
  8
Visible (ISO)
100
AcDbLine
 10
5045.117689404991
 20
2155.822087132353
 30
0.0
 11
5058.941776586721
 21
2317.103104252549
 31
0.0
  0
LINE
  5
1A8
330
6C
100
AcDbEntity
  8
Visible (ISO)
100
AcDbLine
 10
5048.908240561686
 20
2317.139637762132
 30
0.0
 11
5035.154222914573
 21
2156.676098545817
 31
0.0
  0
ARC
  5
1A9
330
6C
100
AcDbEntity
  8
Visible (ISO)
100
AcDbCircle
 10
5030.172489669364
 20
2157.103104252549
 30
0.0
 40
15.00000000000001
100
AcDbArc
 50
270.0
 51
355.1009075462115
  0
ARC
  5
1AA
330
6C
100
AcDbEntity
  8
Visible (ISO)
100
AcDbCircle
 10
5030.172489669364
 20
2157.103104252549
 30
0.0
 40
5.00000000000002
100
AcDbArc
 50
270.0
 51
355.1009075462121
  0
LINE
  5
1AB
330
6C
100
AcDbEntity
  8
Visible (ISO)
100
AcDbLine
 10
4469.352014280935
 20
2142.103104252549
 30
0.0
 11
5030.172489669364
 21
2142.103104252549
 31
0.0
  0
LINE
  5
1AC
330
6C
100
AcDbEntity
  8
Visible (ISO)
100
AcDbLine
 10
5030.172489669364
 20
2152.10310425255
 30
0.0
 11
4469.352014280935
 21
2152.10310425255
 31
0.0
  0
ARC
  5
1AD
330
6C
100
AcDbEntity
  8
Visible (ISO)
100
AcDbCircle
 10
4469.352014280935
 20
2157.103104252549
 30
0.0
 40
14.99999999999994
100
AcDbArc
 50
184.8990924537874
 51
270.0
  0
ARC
  5
1AE
330
6C
100
AcDbEntity
  8
Visible (ISO)
100
AcDbCircle
 10
4469.352014280935
 20
2157.103104252549
 30
0.0
 40
5.000000000000034
100
AcDbArc
 50
184.8990924537874
 51
270.0
  0
LINE
  5
1AF
330
6C
100
AcDbEntity
  8
Visible (ISO)
100
AcDbLine
 10
4440.582727363578
 20
2317.103104252549
 30
0.0
 11
4454.406814545309
 21
2155.822087132353
 31
0.0
  0
LINE
  5
1B0
330
6C
100
AcDbEntity
  8
Visible (ISO)
100
AcDbLine
 10
4464.370281035725
 20
2156.676098545817
 30
0.0
 11
4450.616263388614
 21
2317.139637762132
 31
0.0
  0
LINE
  5
1B1
330
6C
100
AcDbEntity
  8
Visible (ISO)
100
AcDbLine
 10
5089.762251975149
 20
2317.103104252549
 30
0.0
 11
5089.762251975149
 21
2327.103104252549
 31
0.0
  0
LINE
  5
1B2
330
6C
100
AcDbEntity
  8
Visible (ISO)
100
AcDbLine
 10
5089.762251975149
 20
2327.103104252549
 30
0.0
 11
5059.762251975149
 21
2327.103104252549
 31
0.0
  0
LINE
  5
1B3
330
6C
100
AcDbEntity
  8
Visible (ISO)
100
AcDbLine
 10
5058.941776586721
 20
2317.103104252549
 30
0.0
 11
5089.762251975149
 21
2317.103104252549
 31
0.0
  0
SPLINE
  5
1B4
330
6C
100
AcDbEntity
  8
Visible (ISO)
100
AcDbSpline
210
0.0
220
0.0
230
1.0
 70
    28
 71
     1
 72
     4
 73
     2
 74
     0
 42
0.0000000001
 43
0.0000000001
 40
0.0
 40
0.0
 40
0.8525146813683722
 40
0.8525146813683722
 10
4455.55965331536
 20
2317.446248958184
 30
0.0
 41
1.0
 10
4455.559653272641
 20
2325.67885987248
 30
0.0
 41
1.0
  0
SPLINE
  5
1B5
330
6C
100
AcDbEntity
  8
Visible (ISO)
100
AcDbSpline
210
0.0
220
0.0
230
1.0
 70
    28
 71
     3
 72
    14
 73
    10
 74
     0
 42
0.0000000001
 43
0.0000000001
 40
-64.20064579518097
 40
-64.20064579518097
 40
-64.20064579518097
 40
-64.20064579518097
 40
-63.72351106424679
 40
-63.72351106424679
 40
-62.96591595833958
 40
-62.96591595833958
 40
-62.36314891508994
 40
-62.36314891508994
 40
-61.88623143787816
 40
-61.88623143787816
 40
-61.88623143787816
 40
-61.88623143787816
 10
4453.867359480049
 20
2327.103104252549
 30
0.0
 41
1.0
 10
4452.282087375651
 20
2327.103104252549
 30
0.0
 41
1.0
 10
4450.729378478841
 20
2327.103104252549
 30
0.0
 41
1.0
 10
4446.948955653261
 20
2327.103104252549
 30
0.0
 41
1.0
 10
4444.880055196702
 20
2327.103104252549
 30
0.0
 41
1.0
 10
4442.025347476182
 20
2327.103104252549
 30
0.0
 41
1.0
 10
4441.063865426992
 20
2327.103104252549
 30
0.0
 41
1.0
 10
4440.002250361602
 20
2327.103104252549
 30
0.0
 41
1.0
 10
4439.762251975149
 20
2327.103104252549
 30
0.0
 41
1.0
 10
4439.762251975149
 20
2327.103104252549
 30
0.0
 41
1.0
  0
SPLINE
  5
1B6
330
6C
100
AcDbEntity
  8
Visible (ISO)
100
AcDbSpline
210
0.0
220
0.0
230
1.0
 70
    12
 71
     3
 72
    17
 73
    13
 74
     0
 42
0.0000000001
 43
0.0000000001
 40
61.88623143787816
 40
61.88623143787816
 40
61.88623143787816
 40
61.88623143787816
 40
62.36314891508994
 40
62.36314891508994
 40
62.96591595833958
 40
62.96591595833958
 40
63.72351106424679
 40
63.72351106424679
 40
64.29026630229964
 40
64.29026630229964
 40
64.29026630229964
 40
64.36940306724986
 40
64.36940306724986
 40
64.36940306724986
 40
64.36940306724986
 10
4450.616263388614
 20
2317.139637762132
 30
0.0
 41
1.0
 10
4450.605708434241
 20
2317.262778896482
 30
0.0
 41
1.0
 10
4450.671963308771
 20
2317.370645485444
 30
0.0
 41
1.0
 10
4450.988536282225
 20
2317.573625103338
 30
0.0
 41
1.0
 10
4451.283863052572
 20
2317.656969709492
 30
0.0
 41
1.0
 10
4452.172800794727
 20
2317.763354432048
 30
0.0
 41
1.0
 10
4452.823519363372
 20
2317.764899419316
 30
0.0
 41
1.0
 10
4454.107566893145
 20
2317.666303454835
 30
0.0
 41
1.0
 10
4454.700563229446
 20
2317.592359145555
 30
0.0
 41
1.0
 10
4455.305459584329
 20
2317.490545058055
 30
0.0
 41
1.0
 10
4455.389922042622
 20
2317.476328625687
 30
0.0
 41
1.0
 10
4455.47466788343
 20
2317.461562429294
 30
0.0
 41
1.0
 10
4455.55965331536
 20
2317.446248958184
 30
0.0
 41
1.0
  0
SPLINE
  5
1B7
330
6C
100
AcDbEntity
  8
Visible (ISO)
100
AcDbSpline
210
0.0
220
0.0
230
1.0
 70
    28
 71
     1
 72
     4
 73
     2
 74
     0
 42
0.0000000001
 43
0.0000000001
 40
-1.0
 40
-1.0
 40
-0.1474853265089037
 40
-0.1474853265089037
 10
5043.96485061141
 20
2317.446248953945
 30
0.0
 41
1.0
 10
5043.96485061141
 20
2325.678859795786
 30
0.0
 41
1.0
  0
SPLINE
  5
1B8
330
6C
100
AcDbEntity
  8
Visible (ISO)
100
AcDbSpline
210
0.0
220
0.0
230
1.0
 70
    28
 71
     3
 72
     8
 73
     4
 74
     0
 42
0.0000000001
 43
0.0000000001
 40
64.36940307231956
 40
64.36940307231956
 40
64.36940307231956
 40
64.36940307231956
 40
64.53896791131931
 40
64.53896791131931
 40
64.53896791131931
 40
64.53896791131931
 10
4455.559653341927
 20
2317.446248963704
 30
0.0
 41
1.0
 10
4456.129554415921
 20
2317.446248963704
 30
0.0
 41
1.0
 10
4456.697139893295
 20
2317.446248963511
 30
0.0
 41
1.0
 10
4457.262793303068
 20
2317.446248963181
 30
0.0
 41
1.0
  0
SPLINE
  5
1B9
330
6C
100
AcDbEntity
  8
Visible (ISO)
100
AcDbSpline
210
0.0
220
0.0
230
1.0
 70
    28
 71
     3
 72
     8
 73
     4
 74
     0
 42
0.0000000001
 43
0.0000000001
 40
123.0387789574744
 40
123.0387789574744
 40
123.0387789574744
 40
123.0387789574744
 40
123.2083437942407
 40
123.2083437942407
 40
123.2083437942407
 40
123.2083437942407
 10
5042.261139707986
 20
2317.446248953945
 30
0.0
 41
1.0
 10
5042.826941559159
 20
2317.446248953945
 30
0.0
 41
1.0
 10
5043.394715514081
 20
2317.446248953945
 30
0.0
 41
1.0
 10
5043.96485061141
 20
2317.446248953945
 30
0.0
 41
1.0
  0
SPLINE
  5
1BA
330
6C
100
AcDbEntity
  8
Visible (ISO)
100
AcDbSpline
210
0.0
220
0.0
230
1.0
 70
    28
 71
     3
 72
    17
 73
    13
 74
     0
 42
0.0000000001
 43
0.0000000001
 40
-125.6915154302551
 40
-125.6915154302551
 40
-125.6915154302551
 40
-125.6915154302551
 40
-125.5821375273385
 40
-125.5821375273385
 40
-125.5821375273385
 40
-124.8786509709594
 40
-124.8786509709594
 40
-124.258905712744
 40
-124.258905712744
 40
-123.6721475451023
 40
-123.6721475451023
 40
-123.3771010736128
 40
-123.3771010736128
 40
-123.3771010736128
 40
-123.3771010736128
 10
5059.762251975149
 20
2327.103104252549
 30
0.0
 41
1.0
 10
5059.762251974997
 20
2327.103104252549
 30
0.0
 41
1.0
 10
5059.749602148015
 20
2327.103104252549
 30
0.0
 41
1.0
 10
5059.72449045911
 20
2327.103104252549
 30
0.0
 41
1.0
 10
5059.562979449292
 20
2327.103104252549
 30
0.0
 41
1.0
 10
5058.878739723578
 20
2327.103104252549
 30
0.0
 41
1.0
 10
5056.719279576785
 20
2327.103104252549
 30
0.0
 41
1.0
 10
5055.34999913403
 20
2327.103104252549
 30
0.0
 41
1.0
 10
5052.185950094662
 20
2327.103104252549
 30
0.0
 41
1.0
 10
5050.418635984612
 20
2327.103104252549
 30
0.0
 41
1.0
 10
5047.604847853893
 20
2327.103104252549
 30
0.0
 41
1.0
 10
5046.637996295462
 20
2327.103104252549
 30
0.0
 41
1.0
 10
5045.657753852219
 20
2327.103104252549
 30
0.0
 41
1.0
  0
SPLINE
  5
1BB
330
6C
100
AcDbEntity
  8
Visible (ISO)
100
AcDbSpline
210
0.0
220
0.0
230
1.0
 70
    12
 71
     3
 72
    17
 73
    13
 74
     0
 42
0.0000000001
 43
0.0000000001
 40
123.2083437942406
 40
123.2083437942406
 40
123.2083437942406
 40
123.2083437942406
 40
123.6721475451023
 40
123.6721475451023
 40
124.258905712744
 40
124.258905712744
 40
124.8786509709594
 40
124.8786509709594
 40
125.5821375273385
 40
125.5821375273385
 40
125.5821375273385
 40
125.6915154302551
 40
125.6915154302551
 40
125.6915154302551
 40
125.6915154302551
 10
5043.964850611409
 20
2317.446248953945
 30
0.0
 41
1.0
 10
5044.462931455637
 20
2317.53599782609
 30
0.0
 41
1.0
 10
5044.95434495538
 20
2317.607240675767
 30
0.0
 41
1.0
 10
5046.018813120054
 20
2317.722514324527
 30
0.0
 41
1.0
 10
5046.577467109813
 20
2317.753762338599
 30
0.0
 41
1.0
 10
5047.572092175016
 20
2317.745054393564
 30
0.0
 41
1.0
 10
5047.999074035068
 20
2317.700987488056
 30
0.0
 41
1.0
 10
5048.663747868966
 20
2317.529882490497
 30
0.0
 41
1.0
 10
5048.867254478444
 20
2317.392835193956
 30
0.0
 41
1.0
 10
5048.903410539431
 20
2317.221879511416
 30
0.0
 41
1.0
 10
5048.90903207419
 20
2317.195299367305
 30
0.0
 41
1.0
 10
5048.910661274145
 20
2317.167879408059
 30
0.0
 41
1.0
 10
5048.908240561729
 20
2317.139637762643
 30
0.0
 41
1.0
  0
LINE
  5
1BC
330
6C
100
AcDbEntity
  8
Visible (ISO)
100
AcDbLine
 10
5089.762251975149
 20
2112.103104252549
 30
0.0
 11
5089.762251975149
 21
2317.103104252549
 31
0.0
  0
LINE
  5
1BD
330
6C
100
AcDbEntity
  8
Visible (ISO)
100
AcDbLine
 10
4409.762251975149
 20
2112.103104252549
 30
0.0
 11
4409.762251975149
 21
2317.103104252549
 31
0.0
  0
LINE
  5
1BE
330
6C
100
AcDbEntity
  8
Visible (ISO)
100
AcDbLine
 10
4409.762251975149
 20
2333.10310425255
 30
0.0
 11
4409.762251975149
 21
2327.10310425255
 31
0.0
  0
LINE
  5
1BF
330
6C
100
AcDbEntity
  8
Visible (ISO)
100
AcDbLine
 10
5089.762251975148
 20
2327.10310425255
 30
0.0
 11
5089.762251975148
 21
2333.10310425255
 31
0.0
  0
LINE
  5
1C0
330
6C
100
AcDbEntity
  8
Visible (ISO)
100
AcDbLine
 10
5089.762251975148
 20
2333.10310425255
 30
0.0
 11
5087.262251975149
 21
2333.10310425255
 31
0.0
  0
LINE
  5
1C1
330
6C
100
AcDbEntity
  8
Visible (ISO)
100
AcDbLine
 10
4412.262251975149
 20
2333.10310425255
 30
0.0
 11
4409.762251975149
 21
2333.10310425255
 31
0.0
  0
LINE
  5
1C2
330
6C
100
AcDbEntity
  8
Visible (ISO)
100
AcDbLine
 10
4992.262251975148
 20
2333.10310425255
 30
0.0
 11
4992.262251975148
 21
2354.403104252549
 31
0.0
  0
LINE
  5
1C3
330
6C
100
AcDbEntity
  8
Visible (ISO)
100
AcDbLine
 10
5052.262251975149
 20
2354.403104252549
 30
0.0
 11
5052.262251975149
 21
2333.10310425255
 31
0.0
  0
LINE
  5
1C4
330
6C
100
AcDbEntity
  8
Visible (ISO)
100
AcDbLine
 10
4992.262251975148
 20
2354.403104252549
 30
0.0
 11
5052.262251975149
 21
2354.403104252549
 31
0.0
  0
LINE
  5
1C5
330
6C
100
AcDbEntity
  8
Visible (ISO)
100
AcDbLine
 10
4447.262251975149
 20
2333.10310425255
 30
0.0
 11
4447.262251975149
 21
2354.403104252549
 31
0.0
  0
LINE
  5
1C6
330
6C
100
AcDbEntity
  8
Visible (ISO)
100
AcDbLine
 10
4507.262251975149
 20
2354.403104252549
 30
0.0
 11
4507.262251975149
 21
2333.10310425255
 31
0.0
  0
LINE
  5
1C7
330
6C
100
AcDbEntity
  8
Visible (ISO)
100
AcDbLine
 10
4447.262251975149
 20
2354.403104252549
 30
0.0
 11
4507.262251975149
 21
2354.403104252549
 31
0.0
  0
LINE
  5
1C8
330
6C
100
AcDbEntity
  8
Visible (ISO)
100
AcDbLine
 10
4929.762251975148
 20
2333.10310425255
 30
0.0
 11
4929.762251975148
 21
2354.403104252549
 31
0.0
  0
LINE
  5
1C9
330
6C
100
AcDbEntity
  8
Visible (ISO)
100
AcDbLine
 10
4989.762251975149
 20
2354.403104252549
 30
0.0
 11
4989.762251975149
 21
2333.10310425255
 31
0.0
  0
LINE
  5
1CA
330
6C
100
AcDbEntity
  8
Visible (ISO)
100
AcDbLine
 10
4929.762251975148
 20
2354.403104252549
 30
0.0
 11
4989.762251975149
 21
2354.403104252549
 31
0.0
  0
LINE
  5
1CB
330
6C
100
AcDbEntity
  8
Visible (ISO)
100
AcDbLine
 10
4509.762251975149
 20
2333.10310425255
 30
0.0
 11
4509.762251975149
 21
2354.403104252549
 31
0.0
  0
LINE
  5
1CC
330
6C
100
AcDbEntity
  8
Visible (ISO)
100
AcDbLine
 10
4569.762251975149
 20
2354.403104252549
 30
0.0
 11
4569.762251975149
 21
2333.10310425255
 31
0.0
  0
LINE
  5
1CD
330
6C
100
AcDbEntity
  8
Visible (ISO)
100
AcDbLine
 10
4509.762251975149
 20
2354.403104252549
 30
0.0
 11
4569.762251975149
 21
2354.403104252549
 31
0.0
  0
LINE
  5
1CE
330
6C
100
AcDbEntity
  8
Visible (ISO)
100
AcDbLine
 10
5037.26225197515
 20
2333.10310425255
 30
0.0
 11
4462.262251975149
 21
2333.10310425255
 31
0.0
  0
LINE
  5
1CF
330
6C
100
AcDbEntity
  8
Visible (ISO)
100
AcDbLine
 10
5042.262251975149
 20
2286.60310425255
 30
0.0
 11
5042.262251975149
 21
2321.10310425255
 31
0.0
  0
ARC
  5
1D0
330
6C
100
AcDbEntity
  8
Visible (ISO)
100
AcDbCircle
 10
5049.262251975148
 20
2321.10310425255
 30
0.0
 40
6.999999999999985
100
AcDbArc
 50
90.0
 51
180.0
  0
LINE
  5
1D1
330
6C
100
AcDbEntity
  8
Visible (ISO)
100
AcDbLine
 10
5049.262251975148
 20
2328.10310425255
 30
0.0
 11
5083.762251975148
 21
2328.10310425255
 31
0.0
  0
ARC
  5
1D2
330
6C
100
AcDbEntity
  8
Visible (ISO)
100
AcDbCircle
 10
5083.762251975148
 20
2331.60310425255
 30
0.0
 40
3.499999999999989
100
AcDbArc
 50
270.0
 51
0.0
  0
LINE
  5
1D3
330
6C
100
AcDbEntity
  8
Visible (ISO)
100
AcDbLine
 10
5087.262251975149
 20
2331.60310425255
 30
0.0
 11
5087.262251975149
 21
2333.10310425255
 31
0.0
  0
LINE
  5
1D4
330
6C
100
AcDbEntity
  8
Visible (ISO)
100
AcDbLine
 10
5087.262251975149
 20
2333.10310425255
 30
0.0
 11
5037.26225197515
 21
2333.10310425255
 31
0.0
  0
LINE
  5
1D5
330
6C
100
AcDbEntity
  8
Visible (ISO)
100
AcDbLine
 10
5037.26225197515
 20
2333.10310425255
 30
0.0
 11
5037.26225197515
 21
2283.10310425255
 31
0.0
  0
LINE
  5
1D6
330
6C
100
AcDbEntity
  8
Visible (ISO)
100
AcDbLine
 10
5037.26225197515
 20
2283.10310425255
 30
0.0
 11
5038.762251975149
 21
2283.10310425255
 31
0.0
  0
ARC
  5
1D7
330
6C
100
AcDbEntity
  8
Visible (ISO)
100
AcDbCircle
 10
5038.762251975149
 20
2286.60310425255
 30
0.0
 40
3.499999999999992
100
AcDbArc
 50
270.0
 51
0.0
  0
LINE
  5
1D8
330
6C
100
AcDbEntity
  8
Visible (ISO)
100
AcDbLine
 10
4457.26225197515
 20
2286.60310425255
 30
0.0
 11
4457.26225197515
 21
2321.10310425255
 31
0.0
  0
ARC
  5
1D9
330
6C
100
AcDbEntity
  8
Visible (ISO)
100
AcDbCircle
 10
4450.262251975149
 20
2321.10310425255
 30
0.0
 40
6.999999999999986
100
AcDbArc
 50
0.0
 51
90.0
  0
LINE
  5
1DA
330
6C
100
AcDbEntity
  8
Visible (ISO)
100
AcDbLine
 10
4450.262251975149
 20
2328.10310425255
 30
0.0
 11
4415.762251975149
 21
2328.10310425255
 31
0.0
  0
ARC
  5
1DB
330
6C
100
AcDbEntity
  8
Visible (ISO)
100
AcDbCircle
 10
4415.762251975149
 20
2331.60310425255
 30
0.0
 40
3.499999999999989
100
AcDbArc
 50
180.0
 51
270.0
  0
LINE
  5
1DC
330
6C
100
AcDbEntity
  8
Visible (ISO)
100
AcDbLine
 10
4412.262251975149
 20
2331.60310425255
 30
0.0
 11
4412.262251975149
 21
2333.10310425255
 31
0.0
  0
LINE
  5
1DD
330
6C
100
AcDbEntity
  8
Visible (ISO)
100
AcDbLine
 10
4412.262251975149
 20
2333.10310425255
 30
0.0
 11
4462.26225197515
 21
2333.10310425255
 31
0.0
  0
LINE
  5
1DE
330
6C
100
AcDbEntity
  8
Visible (ISO)
100
AcDbLine
 10
4462.26225197515
 20
2333.10310425255
 30
0.0
 11
4462.26225197515
 21
2283.10310425255
 31
0.0
  0
LINE
  5
1DF
330
6C
100
AcDbEntity
  8
Visible (ISO)
100
AcDbLine
 10
4462.26225197515
 20
2283.10310425255
 30
0.0
 11
4460.762251975149
 21
2283.10310425255
 31
0.0
  0
ARC
  5
1E0
330
6C
100
AcDbEntity
  8
Visible (ISO)
100
AcDbCircle
 10
4460.762251975149
 20
2286.60310425255
 30
0.0
 40
3.499999999999992
100
AcDbArc
 50
180.0
 51
270.0
  0
CIRCLE
  5
1E1
330
6C
100
AcDbEntity
  8
Visible (ISO)
100
AcDbCircle
 10
4749.762251975148
 20
2300.603104252551
 30
0.0
 40
5.24999999999999
  0
LINE
  5
1E2
330
6C
100
AcDbEntity
  8
Visible (ISO)
100
AcDbLine
 10
4462.26225197515
 20
2283.10310425255
 30
0.0
 11
4462.262251975149
 21
2323.10310425255
 31
0.0
  0
LINE
  5
1E3
330
6C
100
AcDbEntity
  8
Visible (ISO)
100
AcDbLine
 10
4462.262251975149
 20
2323.10310425255
 30
0.0
 11
5037.262251975149
 21
2323.103104252552
 31
0.0
  0
LINE
  5
1E4
330
6C
100
AcDbEntity
  8
Visible (ISO)
100
AcDbLine
 10
5037.262251975149
 20
2323.103104252552
 30
0.0
 11
5037.262251975149
 21
2283.103104252552
 31
0.0
  0
LINE
  5
1E5
330
6C
100
AcDbEntity
  8
Visible (ISO)
100
AcDbLine
 10
5037.262251975149
 20
2283.103104252552
 30
0.0
 11
4462.26225197515
 21
2283.10310425255
 31
0.0
  0
CIRCLE
  5
1E6
330
6C
100
AcDbEntity
  8
Visible (ISO)
100
AcDbCircle
 10
4749.762251975149
 20
2300.603104252551
 30
0.0
 40
4.999999999999996
  0
LINE
  5
1E7
330
6C
100
AcDbEntity
  8
Visible (ISO)
100
AcDbLine
 10
5087.262251975149
 20
2350.753104252549
 30
0.0
 11
5087.262251975149
 21
2336.753104252549
 31
0.0
  0
LINE
  5
1E8
330
6C
100
AcDbEntity
  8
Visible (ISO)
100
AcDbLine
 10
5086.262251975148
 20
2335.75310425255
 30
0.0
 11
5086.262251975148
 21
2351.75310425255
 31
0.0
  0
LINE
  5
1E9
330
6C
100
AcDbEntity
  8
Visible (ISO)
100
AcDbLine
 10
4413.262251975149
 20
2351.75310425255
 30
0.0
 11
4413.262251975149
 21
2335.75310425255
 31
0.0
  0
LINE
  5
1EA
330
6C
100
AcDbEntity
  8
Visible (ISO)
100
AcDbLine
 10
4412.262251975149
 20
2336.753104252549
 30
0.0
 11
4412.262251975149
 21
2350.753104252549
 31
0.0
  0
LINE
  5
1EB
330
6C
100
AcDbEntity
  8
Visible (ISO)
100
AcDbLine
 10
5087.262251975149
 20
2336.753104252549
 30
0.0
 11
5086.262251975148
 21
2335.75310425255
 31
0.0
  0
LINE
  5
1EC
330
6C
100
AcDbEntity
  8
Visible (ISO)
100
AcDbLine
 10
5087.262251975149
 20
2350.753104252549
 30
0.0
 11
5086.262251975148
 21
2351.75310425255
 31
0.0
  0
LINE
  5
1ED
330
6C
100
AcDbEntity
  8
Visible (ISO)
100
AcDbLine
 10
4412.262251975149
 20
2350.753104252549
 30
0.0
 11
4413.262251975149
 21
2351.75310425255
 31
0.0
  0
LINE
  5
1EE
330
6C
100
AcDbEntity
  8
Visible (ISO)
100
AcDbLine
 10
4412.262251975149
 20
2336.753104252549
 30
0.0
 11
4413.262251975149
 21
2335.75310425255
 31
0.0
  0
LINE
  5
1EF
330
6C
100
AcDbEntity
  8
Visible (ISO)
100
AcDbLine
 10
5086.262251975148
 20
2335.75310425255
 30
0.0
 11
5052.262251975148
 21
2335.75310425255
 31
0.0
  0
LINE
  5
1F0
330
6C
100
AcDbEntity
  8
Visible (ISO)
100
AcDbLine
 10
4992.262251975148
 20
2335.75310425255
 30
0.0
 11
4989.762251975148
 21
2335.75310425255
 31
0.0
  0
LINE
  5
1F1
330
6C
100
AcDbEntity
  8
Visible (ISO)
100
AcDbLine
 10
4929.762251975148
 20
2335.75310425255
 30
0.0
 11
4569.762251975149
 21
2335.75310425255
 31
0.0
  0
LINE
  5
1F2
330
6C
100
AcDbEntity
  8
Visible (ISO)
100
AcDbLine
 10
4509.762251975149
 20
2335.75310425255
 30
0.0
 11
4507.262251975149
 21
2335.75310425255
 31
0.0
  0
LINE
  5
1F3
330
6C
100
AcDbEntity
  8
Visible (ISO)
100
AcDbLine
 10
4447.262251975149
 20
2335.75310425255
 30
0.0
 11
4413.262251975149
 21
2335.75310425255
 31
0.0
  0
LINE
  5
1F4
330
6C
100
AcDbEntity
  8
Visible (ISO)
100
AcDbLine
 10
5086.262251975148
 20
2351.75310425255
 30
0.0
 11
5052.262251975148
 21
2351.75310425255
 31
0.0
  0
LINE
  5
1F5
330
6C
100
AcDbEntity
  8
Visible (ISO)
100
AcDbLine
 10
4992.262251975148
 20
2351.75310425255
 30
0.0
 11
4989.762251975148
 21
2351.75310425255
 31
0.0
  0
LINE
  5
1F6
330
6C
100
AcDbEntity
  8
Visible (ISO)
100
AcDbLine
 10
4929.762251975148
 20
2351.75310425255
 30
0.0
 11
4569.762251975149
 21
2351.75310425255
 31
0.0
  0
LINE
  5
1F7
330
6C
100
AcDbEntity
  8
Visible (ISO)
100
AcDbLine
 10
4509.762251975149
 20
2351.75310425255
 30
0.0
 11
4507.262251975149
 21
2351.75310425255
 31
0.0
  0
LINE
  5
1F8
330
6C
100
AcDbEntity
  8
Visible (ISO)
100
AcDbLine
 10
4447.262251975149
 20
2351.75310425255
 30
0.0
 11
4413.262251975149
 21
2351.75310425255
 31
0.0
  0
INSERT
  5
2DE
330
6C
100
AcDbEntity
  8
0
100
AcDbBlockReference
 66
     1
  2
Tabelki rysunkowe Rzut
 10
1803.347755542246
 20
-161.1195813690668
 30
0.0
 41
15.0
 42
15.0
 43
15.0
  0
ATTRIB
  5
2E0
102
{ACAD_XDICTIONARY
360
689
102
}
330
2DE
100
AcDbEntity
  8
Title (ISO)
100
AcDbText
 10
4480.718603103152
 20
110.9889189845786
 30
0.0
 40
37.5
  1
6700
  7
Note Text (ISO)
100
AcDbAttribute
  2
Numer_katalogowy_001
 70
     0
  0
ATTRIB
  5
2E1
102
{ACAD_XDICTIONARY
360
68C
102
}
330
2DE
100
AcDbEntity
  8
Title (ISO)
100
AcDbText
 10
4659.509738096984
 20
5.938549609321576
 30
0.0
 40
37.5
  1
2021-02-02
  7
Note Text (ISO)
100
AcDbAttribute
  2
DATA_UTWORZENIA_001
 70
     0
  0
ATTRIB
  5
2E2
102
{ACAD_XDICTIONARY
360
68F
102
}
330
2DE
100
AcDbEntity
  8
Title (ISO)
100
AcDbText
 10
4481.675621233036
 20
56.62525210006868
 30
0.0
 40
37.5
  1
Grill betonowy otwarty
  7
Note Text (ISO)
100
AcDbAttribute
  2
Nazwa_001
 70
     0
  0
SEQEND
  5
2DF
330
2DE
100
AcDbEntity
  8
0
  0
DIMENSION
  5
2E3
330
6C
100
AcDbEntity
  8
Dimension (ISO)
100
AcDbDimension
  2
*D8
 10
4217.992834992955
 20
1582.103104252549
 30
0.0
 11
4217.992834992955
 21
2032.10310425255
 31
0.0
 70
   160
  1
<>
 71
     2
 42
900.0000000000005
  3
Default (ISO)
100
AcDbAlignedDimension
 13
4399.829363025939
 23
2482.10310425255
 33
0.0
 14
4404.76225197515
 24
1582.103104252549
 34
0.0
 50
90.0
100
AcDbRotatedDimension
1001
ACAD
1000
DSTYLE
1002
{
1070
   172
1070
     0
1070
   289
1070
     1
1070
    74
1070
     0
1070
   271
1070
     2
1070
   272
1070
     2
1070
    48
1040
0.0
1070
    47
1040
0.0
1002
}
  0
DIMENSION
  5
3CC
330
6C
100
AcDbEntity
  8
Dimension (ISO)
100
AcDbDimension
  2
*D9
 10
5174.762251974801
 20
329.2733933033856
 30
0.0
 11
4749.762251974801
 21
329.2733933033856
 31
0.0
 70
   160
  1
<>
 71
     2
 42
850.0
  3
Default (ISO)
100
AcDbAlignedDimension
 13
4324.762251974801
 23
592.5102832706438
 33
0.0
 14
5174.762251974801
 24
592.5102832706438
 34
0.0
 50
180.0
100
AcDbRotatedDimension
1001
ACAD
1000
DSTYLE
1002
{
1070
   172
1070
     0
1070
   289
1070
     1
1070
    74
1070
     0
1070
   271
1070
     2
1070
   272
1070
     2
1070
    48
1040
0.0
1070
    47
1040
0.0
1002
}
  0
DIMENSION
  5
4AE
330
6C
100
AcDbEntity
  8
Dimension (ISO)
100
AcDbDimension
  2
*D10
 10
4174.762251974801
 20
1330.577248896984
 30
0.0
 11
4174.762251974801
 21
905.5772488969699
 31
0.0
 70
   160
  1
<>
 71
     2
 42
850.0000000000282
  3
Default (ISO)
100
AcDbAlignedDimension
 13
4329.762251974801
 23
480.5772488969557
 33
0.0
 14
4324.762251974801
 24
1330.577248896984
 34
0.0
 50
90.0
100
AcDbRotatedDimension
1001
ACAD
1000
DSTYLE
1002
{
1070
   172
1070
     0
1070
   289
1070
     1
1070
    74
1070
     0
1070
   271
1070
     2
1070
   272
1070
     2
1070
    48
1040
0.0
1070
    47
1040
0.0
1002
}
  0
DIMENSION
  5
596
330
6C
100
AcDbEntity
  8
Dimension (ISO)
100
AcDbDimension
  2
*D11
 10
5367.823252080381
 20
1582.103104252549
 30
0.0
 11
5367.823252080381
 21
1957.603104252549
 31
0.0
 70
   160
  1
<>
 71
     2
 42
751.0000000000002
  3
Default (ISO)
100
AcDbAlignedDimension
 13
5037.26225197515
 23
2333.10310425255
 33
0.0
 14
5094.76225197515
 24
1582.103104252549
 34
0.0
 50
90.0
100
AcDbRotatedDimension
1001
ACAD
1000
DSTYLE
1002
{
1070
   172
1070
     0
1070
   289
1070
     1
1070
    74
1070
     0
1070
   271
1070
     2
1070
   272
1070
     2
1070
    48
1040
0.0
1070
    47
1040
0.0
1002
}
  0
INSERT
  5
7C7
330
6C
100
AcDbEntity
  8
0
100
AcDbBlockReference
  2
6700_Grill-betonowy-otwarty
 10
4749.762251974801
 20
1248.482654302345
 30
0.0
  0
ENDSEC
  0
SECTION
  2
OBJECTS
  0
DICTIONARY
  5
C
330
0
100
AcDbDictionary
281
     1
  3
ACAD_COLOR
350
63
  3
ACAD_GROUP
350
D
  3
ACAD_LAYOUT
350
62
  3
ACAD_MATERIAL
350
10
  3
ACAD_MLEADERSTYLE
350
66
  3
ACAD_MLINESTYLE
350
5F
  3
ACAD_PLOTSETTINGS
350
61
  3
ACAD_PLOTSTYLENAME
350
E
  3
ACAD_SCALELIST
350
42
  3
ACAD_TABLESTYLE
350
64
  3
ACAD_VISUALSTYLE
350
29
  3
ACDB_RECOMPOSE_DATA
350
7D6
  3
AcDbVariableDictionary
350
6D5
  3
DWGPROPS
350
7D7
  0
DICTIONARY
  5
694
330
8
100
AcDbDictionary
280
     1
281
     1
  0
DICTIONARY
  5
680
330
2DA
100
AcDbDictionary
280
     1
281
     1
  3
ACAD_MLATT
360
7CB
  3
ACAD_XREC_ROUNDTRIP
360
7CA
  0
DICTIONARY
  5
683
330
2DC
100
AcDbDictionary
280
     1
281
     1
  3
ACAD_MLATT
360
7CD
  3
ACAD_XREC_ROUNDTRIP
360
7CC
  0
DICTIONARY
  5
686
330
2DD
100
AcDbDictionary
280
     1
281
     1
  3
ACAD_MLATT
360
7CF
  3
ACAD_XREC_ROUNDTRIP
360
7CE
  0
DICTIONARY
  5
689
330
2E0
100
AcDbDictionary
280
     1
281
     1
  3
ACAD_MLATT
360
7D1
  3
ACAD_XREC_ROUNDTRIP
360
7D0
  0
DICTIONARY
  5
68C
330
2E1
100
AcDbDictionary
280
     1
281
     1
  3
ACAD_MLATT
360
7D3
  3
ACAD_XREC_ROUNDTRIP
360
7D2
  0
DICTIONARY
  5
68F
330
2E2
100
AcDbDictionary
280
     1
281
     1
  3
ACAD_MLATT
360
7D5
  3
ACAD_XREC_ROUNDTRIP
360
7D4
  0
DICTIONARY
  5
63
102
{ACAD_REACTORS
330
C
102
}
330
C
100
AcDbDictionary
281
     1
  0
DICTIONARY
  5
D
102
{ACAD_REACTORS
330
C
102
}
330
C
100
AcDbDictionary
281
     1
  0
DICTIONARY
  5
62
102
{ACAD_REACTORS
330
C
102
}
330
C
100
AcDbDictionary
281
     1
  3
Layout1
350
6B
  3
Layout2
350
73
  3
Model
350
6F
  0
DICTIONARY
  5
10
102
{ACAD_REACTORS
330
C
102
}
330
C
100
AcDbDictionary
281
     1
  3
ByBlock
350
19
  3
ByLayer
350
11
  3
Global
350
21
  0
DICTIONARY
  5
66
102
{ACAD_REACTORS
330
C
102
}
330
C
100
AcDbDictionary
281
     1
  3
Standard
350
67
  0
DICTIONARY
  5
5F
102
{ACAD_REACTORS
330
C
102
}
330
C
100
AcDbDictionary
281
     1
  3
Standard
350
60
  0
DICTIONARY
  5
61
102
{ACAD_REACTORS
330
C
102
}
330
C
100
AcDbDictionary
281
     1
  0
ACDBDICTIONARYWDFLT
  5
E
102
{ACAD_REACTORS
330
C
102
}
330
C
100
AcDbDictionary
281
     1
  3
Normal
350
F
100
AcDbDictionaryWithDefault
340
F
  0
DICTIONARY
  5
42
102
{ACAD_REACTORS
330
C
102
}
330
C
100
AcDbDictionary
281
     1
  3
A0
350
43
  3
A1
350
44
  3
A2
350
45
  3
A3
350
46
  3
A4
350
47
  3
A5
350
48
  3
A6
350
49
  3
A7
350
4A
  3
A8
350
4B
  3
A9
350
4C
  3
B0
350
4D
  3
B1
350
4E
  3
B2
350
4F
  3
B3
350
50
  3
B4
350
51
  3
B5
350
52
  3
B6
350
53
  0
DICTIONARY
  5
64
102
{ACAD_REACTORS
330
C
102
}
330
C
100
AcDbDictionary
281
     1
  3
Standard
350
65
  0
DICTIONARY
  5
29
102
{ACAD_REACTORS
330
C
102
}
330
C
100
AcDbDictionary
281
     1
  3
2dWireframe
350
2F
  3
Basic
350
2E
  3
Brighten
350
35
  3
ColorChange
350
39
  3
Conceptual
350
32
  3
Dim
350
34
  3
EdgeColorOff
350
41
  3
Facepattern
350
38
  3
Flat
350
2A
  3
FlatWithEdges
350
2B
  3
Gouraud
350
2C
  3
GouraudWithEdges
350
2D
  3
Hidden
350
31
  3
JitterOff
350
3F
  3
Linepattern
350
37
  3
OverhangOff
350
40
  3
Realistic
350
33
  3
Shaded
350
3E
  3
Shaded with edges
350
3D
  3
Shades of Gray
350
3A
  3
Sketchy
350
3B
  3
Thicken
350
36
  3
Wireframe
350
30
  3
X-Ray
350
3C
  0
XRECORD
  5
7D6
102
{ACAD_REACTORS
330
C
102
}
330
C
100
AcDbXrecord
280
     1
 90
        1
330
65
330
2DA
330
2DC
330
2DD
330
2E0
330
2E1
330
2E2
  0
DICTIONARY
  5
6D5
102
{ACAD_REACTORS
330
C
102
}
330
C
100
AcDbDictionary
281
     1
  3
CANNOSCALE
350
6D9
  3
CMLEADERSTYLE
350
6D7
  3
CTABLESTYLE
350
6D6
  3
DIMASSOC
350
6E0
  3
HIDETEXT
350
6DF
  3
INDEXCTL
350
6DE
  3
LAYEREVAL
350
6DB
  3
LAYERNOTIFY
350
6DC
  3
LIGHTINGUNITS
350
6DA
  3
MSLTSCALE
350
6D8
  3
SORTENTS
350
6DD
  3
XCLIPFRAME
350
7C8
  0
XRECORD
  5
7D7
102
{ACAD_REACTORS
330
C
102
}
330
C
100
AcDbXrecord
280
     1
  1
DWGPROPS COOKIE
  2

  3

  4
Maruszak Marcin
  6

  7

  8
Natalia
  9
v1
300
Menadżer=
301
Firma=Muller Jelcz-Laskowice Sp.z o.o.
302
Kategoria=
303
Numer części=
304
Opis=
305
Projekt=
306
Projektant=Maruszak Marcin
307
Inżynier=Maruszak Marcin
308
Zatwierdził=Ośkiewicz Ryszard
309
Centrum kosztów=
 40
0.0007902662037037
 41
2459248.550166621
 42
2459248.551299352
  1
www.muller.com.pl
 90
       19
300
Dostawca=
300
Stan użytkownika=
300
Stan projektu=PracaWToku
300
Sprawdził=
300
Zatwierdził konstrukcję=
300
Zatwierdził do produkcji=
300
Kolor=szary
300
Stanowisko=Ploter
300
mat.=
  0
XRECORD
  5
7CB
102
{ACAD_REACTORS
330
680
102
}
330
680
100
AcDbXrecord
280
     1
 70
     4
 70
     0
 70
     0
 40
1.0
  2
Numer_katalogowy
  1
Embedded Object
 10
178.6341030677497
 20
20.69093606566278
 30
0.0
 40
2.5
 41
39.63119806127143
 46
0.0
 71
     1
 72
     5
  1
6700
  7
Note Text (ISO)
 73
     1
 44
1.0
  0
XRECORD
  5
7CA
102
{ACAD_REACTORS
330
680
102
}
330
680
100
AcDbXrecord
280
     1
102
ACAD_MATT_HEIGHT
140
2.5
  0
XRECORD
  5
7CD
102
{ACAD_REACTORS
330
683
102
}
330
683
100
AcDbXrecord
280
     1
 70
     4
 70
     0
 70
     0
 40
1.0
  2
DATA_UTWORZENIA
  1
Embedded Object
 10
190.5938075676742
 20
13.68925708649296
 30
0.0
 40
2.5
 41
40.52963831958745
 46
0.0
 71
     1
 72
     5
  1
2021-02-02
  7
Note Text (ISO)
 73
     1
 44
1.0
  0
XRECORD
  5
7CC
102
{ACAD_REACTORS
330
683
102
}
330
683
100
AcDbXrecord
280
     1
102
ACAD_MATT_HEIGHT
140
2.5
  0
XRECORD
  5
7CF
102
{ACAD_REACTORS
330
686
102
}
330
686
100
AcDbXrecord
280
     1
 70
     4
 70
     0
 70
     0
 40
1.0
  2
Nazwa
  1
Embedded Object
 10
178.6660036719761
 20
17.1288138363798
 30
0.0
 40
2.5
 41
38.632931107587
 46
0.0
 71
     1
 72
     5
  1
Grill betonowy otwarty
  7
Note Text (ISO)
 73
     1
 44
1.0
  0
XRECORD
  5
7CE
102
{ACAD_REACTORS
330
686
102
}
330
686
100
AcDbXrecord
280
     1
102
ACAD_MATT_HEIGHT
140
2.5
  0
XRECORD
  5
7D1
102
{ACAD_REACTORS
330
689
102
}
330
689
100
AcDbXrecord
280
     1
 70
     2
 70
     0
 70
     0
 40
1.0
  2
Numer_katalogowy
  1
Embedded Object
 10
4482.859301558492
 20
149.2444596158748
 30
0.0
 40
37.5
 41
594.4679709190713
 46
0.0
 71
     1
 72
     5
  1
6700
  7
Note Text (ISO)
 73
     1
 44
1.0
  0
XRECORD
  5
7D0
102
{ACAD_REACTORS
330
689
102
}
330
689
100
AcDbXrecord
280
     1
102
ACAD_MATT_HEIGHT
140
37.5
  0
XRECORD
  5
7D3
102
{ACAD_REACTORS
330
68C
102
}
330
68C
100
AcDbXrecord
280
     1
 70
     2
 70
     0
 70
     0
 40
1.0
  2
DATA_UTWORZENIA
  1
Embedded Object
 10
4662.254869057359
 20
44.21927492832762
 30
0.0
 40
37.5
 41
607.9445747938118
 46
0.0
 71
     1
 72
     5
  1
2021-02-02
  7
Note Text (ISO)
 73
     1
 44
1.0
  0
XRECORD
  5
7D2
102
{ACAD_REACTORS
330
68C
102
}
330
68C
100
AcDbXrecord
280
     1
102
ACAD_MATT_HEIGHT
140
37.5
  0
XRECORD
  5
7D5
102
{ACAD_REACTORS
330
68F
102
}
330
68F
100
AcDbXrecord
280
     1
 70
     2
 70
     0
 70
     0
 40
1.0
  2
Nazwa
  1
Embedded Object
 10
4483.337810621888
 20
95.81262617663012
 30
0.0
 40
37.5
 41
579.4939666138049
 46
0.0
 71
     1
 72
     5
  1
Grill betonowy otwarty
  7
Note Text (ISO)
 73
     1
 44
1.0
  0
XRECORD
  5
7D4
102
{ACAD_REACTORS
330
68F
102
}
330
68F
100
AcDbXrecord
280
     1
102
ACAD_MATT_HEIGHT
140
37.5
  0
LAYOUT
  5
6B
102
{ACAD_XDICTIONARY
360
80C
102
}
102
{ACAD_REACTORS
330
62
102
}
330
62
100
AcDbPlotSettings
  1

  2

  4

  6

 40
0.0
 41
0.0
 42
0.0
 43
0.0
 44
0.0
 45
0.0
 46
0.0
 47
0.0
 48
0.0
 49
0.0
140
0.0
141
0.0
142
1.0
143
1.0
 70
   688
 72
     0
 73
     0
 74
     5
  7

 75
    16
147
1.0
148
0.0
149
0.0
100
AcDbLayout
  1
Layout1
 70
     1
 71
     1
 10
0.0
 20
0.0
 11
4455.0
 21
3150.0
 12
0.0
 22
0.0
 32
0.0
 14
0.0
 24
0.0
 34
0.0
 15
4455.0
 25
3150.0
 35
0.0
146
0.0
 13
0.0
 23
0.0
 33
0.0
 16
1.0
 26
0.0
 36
0.0
 17
0.0
 27
1.0
 37
0.0
 76
     0
330
68
  0
LAYOUT
  5
73
102
{ACAD_XDICTIONARY
360
810
102
}
102
{ACAD_REACTORS
330
62
102
}
330
62
100
AcDbPlotSettings
  1

  2

  4

  6

 40
0.0
 41
0.0
 42
0.0
 43
0.0
 44
0.0
 45
0.0
 46
0.0
 47
0.0
 48
0.0
 49
0.0
140
0.0
141
0.0
142
1.0
143
1.0
 70
   688
 72
     0
 73
     0
 74
     5
  7

 75
    16
147
1.0
148
0.0
149
0.0
100
AcDbLayout
  1
Layout2
 70
     1
 71
     2
 10
0.0
 20
0.0
 11
12.0
 21
9.0
 12
0.0
 22
0.0
 32
0.0
 14
0.0
 24
0.0
 34
0.0
 15
0.0
 25
0.0
 35
0.0
146
0.0
 13
0.0
 23
0.0
 33
0.0
 16
1.0
 26
0.0
 36
0.0
 17
0.0
 27
1.0
 37
0.0
 76
     0
330
70
  0
LAYOUT
  5
6F
102
{ACAD_XDICTIONARY
360
80E
102
}
102
{ACAD_REACTORS
330
62
102
}
330
62
100
AcDbPlotSettings
  1

  2

  4

  6

 40
0.0
 41
0.0
 42
0.0
 43
0.0
 44
0.0
 45
0.0
 46
0.0
 47
0.0
 48
0.0
 49
0.0
140
0.0
141
0.0
142
1.0
143
1.0
 70
  1712
 72
     0
 73
     0
 74
     0
  7

 75
     0
147
1.0
148
0.0
149
0.0
100
AcDbLayout
  1
Model
 70
     1
 71
     0
 10
0.0
 20
0.0
 11
12.0
 21
9.0
 12
0.0
 22
0.0
 32
0.0
 14
0.0
 24
0.0
 34
0.0
 15
0.0
 25
0.0
 35
0.0
146
0.0
 13
0.0
 23
0.0
 33
0.0
 16
1.0
 26
0.0
 36
0.0
 17
0.0
 27
1.0
 37
0.0
 76
     0
330
6C
331
57
  0
MATERIAL
  5
19
102
{ACAD_XDICTIONARY
360
1A
102
}
102
{ACAD_REACTORS
330
10
102
}
330
10
100
AcDbMaterial
  1
ByBlock
 72
     0
 43
0.0208333333333333
 43
0.0
 43
0.0
 43
0.0
 43
0.0
 43
0.0208333333333333
 43
0.0
 43
0.0
 43
0.0
 43
0.0
 43
1.0
 43
0.0
 43
0.0
 43
0.0
 43
0.0
 43
1.0
 77
     0
 47
0.0208333333333333
 47
0.0
 47
0.0
 47
0.0
 47
0.0
 47
0.0208333333333333
 47
0.0
 47
0.0
 47
0.0
 47
0.0
 47
1.0
 47
0.0
 47
0.0
 47
0.0
 47
0.0
 47
1.0
171
     0
 49
0.0208333333333333
 49
0.0
 49
0.0
 49
0.0
 49
0.0
 49
0.0208333333333333
 49
0.0
 49
0.0
 49
0.0
 49
0.0
 49
1.0
 49
0.0
 49
0.0
 49
0.0
 49
0.0
 49
1.0
175
     0
142
0.0208333333333333
142
0.0
142
0.0
142
0.0
142
0.0
142
0.0208333333333333
142
0.0
142
0.0
142
0.0
142
0.0
142
1.0
142
0.0
142
0.0
142
0.0
142
0.0
142
1.0
179
     0
144
0.0208333333333333
144
0.0
144
0.0
144
0.0
144
0.0
144
0.0208333333333333
144
0.0
144
0.0
144
0.0
144
0.0
144
1.0
144
0.0
144
0.0
144
0.0
144
0.0
144
1.0
147
0.0208333333333333
147
0.0
147
0.0
147
0.0
147
0.0
147
0.0208333333333333
147
0.0
147
0.0
147
0.0
147
0.0
147
1.0
147
0.0
147
0.0
147
0.0
147
0.0
147
1.0
  0
MATERIAL
  5
11
102
{ACAD_XDICTIONARY
360
12
102
}
102
{ACAD_REACTORS
330
10
102
}
330
10
100
AcDbMaterial
  1
ByLayer
 72
     0
 43
0.0208333333333333
 43
0.0
 43
0.0
 43
0.0
 43
0.0
 43
0.0208333333333333
 43
0.0
 43
0.0
 43
0.0
 43
0.0
 43
1.0
 43
0.0
 43
0.0
 43
0.0
 43
0.0
 43
1.0
 77
     0
 47
0.0208333333333333
 47
0.0
 47
0.0
 47
0.0
 47
0.0
 47
0.0208333333333333
 47
0.0
 47
0.0
 47
0.0
 47
0.0
 47
1.0
 47
0.0
 47
0.0
 47
0.0
 47
0.0
 47
1.0
171
     0
 49
0.0208333333333333
 49
0.0
 49
0.0
 49
0.0
 49
0.0
 49
0.0208333333333333
 49
0.0
 49
0.0
 49
0.0
 49
0.0
 49
1.0
 49
0.0
 49
0.0
 49
0.0
 49
0.0
 49
1.0
175
     0
142
0.0208333333333333
142
0.0
142
0.0
142
0.0
142
0.0
142
0.0208333333333333
142
0.0
142
0.0
142
0.0
142
0.0
142
1.0
142
0.0
142
0.0
142
0.0
142
0.0
142
1.0
179
     0
144
0.0208333333333333
144
0.0
144
0.0
144
0.0
144
0.0
144
0.0208333333333333
144
0.0
144
0.0
144
0.0
144
0.0
144
1.0
144
0.0
144
0.0
144
0.0
144
0.0
144
1.0
147
0.0208333333333333
147
0.0
147
0.0
147
0.0
147
0.0
147
0.0208333333333333
147
0.0
147
0.0
147
0.0
147
0.0
147
1.0
147
0.0
147
0.0
147
0.0
147
0.0
147
1.0
  0
MATERIAL
  5
21
102
{ACAD_XDICTIONARY
360
22
102
}
102
{ACAD_REACTORS
330
10
102
}
330
10
100
AcDbMaterial
  1
Global
 72
     0
 43
0.0208333333333333
 43
0.0
 43
0.0
 43
0.0
 43
0.0
 43
0.0208333333333333
 43
0.0
 43
0.0
 43
0.0
 43
0.0
 43
1.0
 43
0.0
 43
0.0
 43
0.0
 43
0.0
 43
1.0
 77
     0
 47
0.0208333333333333
 47
0.0
 47
0.0
 47
0.0
 47
0.0
 47
0.0208333333333333
 47
0.0
 47
0.0
 47
0.0
 47
0.0
 47
1.0
 47
0.0
 47
0.0
 47
0.0
 47
0.0
 47
1.0
171
     0
 49
0.0208333333333333
 49
0.0
 49
0.0
 49
0.0
 49
0.0
 49
0.0208333333333333
 49
0.0
 49
0.0
 49
0.0
 49
0.0
 49
1.0
 49
0.0
 49
0.0
 49
0.0
 49
0.0
 49
1.0
175
     0
142
0.0208333333333333
142
0.0
142
0.0
142
0.0
142
0.0
142
0.0208333333333333
142
0.0
142
0.0
142
0.0
142
0.0
142
1.0
142
0.0
142
0.0
142
0.0
142
0.0
142
1.0
179
     0
144
0.0208333333333333
144
0.0
144
0.0
144
0.0
144
0.0
144
0.0208333333333333
144
0.0
144
0.0
144
0.0
144
0.0
144
1.0
144
0.0
144
0.0
144
0.0
144
0.0
144
1.0
147
0.0208333333333333
147
0.0
147
0.0
147
0.0
147
0.0
147
0.0208333333333333
147
0.0
147
0.0
147
0.0
147
0.0
147
1.0
147
0.0
147
0.0
147
0.0
147
0.0
147
1.0
  0
MLEADERSTYLE
  5
67
102
{ACAD_REACTORS
330
66
102
}
330
66
100
AcDbMLeaderStyle
170
     2
171
     1
172
     0
 90
        2
 40
0.0
 41
0.0
173
     1
 91
-1056964608
340
5B
 92
       -2
290
     1
 42
0.09
291
     1
 43
0.36
  3
Standard
 44
0.18
300

342
55
174
     1
178
     6
175
     1
176
     0
 93
-1056964608
 45
0.18
292
     0
297
     0
 46
0.18
 94
-1056964608
 47
1.0
 49
1.0
140
1.0
293
     1
141
0.0
294
     1
177
     0
142
1.0
295
     0
296
     0
143
0.125
1001
ACAD_MLEADERVER
1070
     2
  0
MLINESTYLE
  5
60
102
{ACAD_REACTORS
330
5F
102
}
330
5F
100
AcDbMlineStyle
  2
STANDARD
 70
     0
  3

 62
   256
 51
90.0
 52
90.0
 71
     2
 49
0.5
 62
   256
  6
BYLAYER
 49
-0.5
 62
   256
  6
BYLAYER
  0
ACDBPLACEHOLDER
  5
F
102
{ACAD_REACTORS
330
E
102
}
330
E
  0
SCALE
  5
43
102
{ACAD_REACTORS
330
42
102
}
330
42
100
AcDbScale
 70
     0
300
1:1
140
1.0
141
1.0
290
     1
  0
SCALE
  5
44
102
{ACAD_REACTORS
330
42
102
}
330
42
100
AcDbScale
 70
     0
300
1/128" = 1'-0"
140
0.0078125
141
12.0
290
     0
  0
SCALE
  5
45
102
{ACAD_REACTORS
330
42
102
}
330
42
100
AcDbScale
 70
     0
300
1/64" = 1'-0"
140
0.015625
141
12.0
290
     0
  0
SCALE
  5
46
102
{ACAD_REACTORS
330
42
102
}
330
42
100
AcDbScale
 70
     0
300
1/32" = 1'-0"
140
0.03125
141
12.0
290
     0
  0
SCALE
  5
47
102
{ACAD_REACTORS
330
42
102
}
330
42
100
AcDbScale
 70
     0
300
1/16" = 1'-0"
140
0.0625
141
12.0
290
     0
  0
SCALE
  5
48
102
{ACAD_REACTORS
330
42
102
}
330
42
100
AcDbScale
 70
     0
300
3/32" = 1'-0"
140
0.09375
141
12.0
290
     0
  0
SCALE
  5
49
102
{ACAD_REACTORS
330
42
102
}
330
42
100
AcDbScale
 70
     0
300
1/8" = 1'-0"
140
0.125
141
12.0
290
     0
  0
SCALE
  5
4A
102
{ACAD_REACTORS
330
42
102
}
330
42
100
AcDbScale
 70
     0
300
3/16" = 1'-0"
140
0.1875
141
12.0
290
     0
  0
SCALE
  5
4B
102
{ACAD_REACTORS
330
42
102
}
330
42
100
AcDbScale
 70
     0
300
1/4" = 1'-0"
140
0.25
141
12.0
290
     0
  0
SCALE
  5
4C
102
{ACAD_REACTORS
330
42
102
}
330
42
100
AcDbScale
 70
     0
300
3/8" = 1'-0"
140
0.375
141
12.0
290
     0
  0
SCALE
  5
4D
102
{ACAD_REACTORS
330
42
102
}
330
42
100
AcDbScale
 70
     0
300
1/2" = 1'-0"
140
0.5
141
12.0
290
     0
  0
SCALE
  5
4E
102
{ACAD_REACTORS
330
42
102
}
330
42
100
AcDbScale
 70
     0
300
3/4" = 1'-0"
140
0.75
141
12.0
290
     0
  0
SCALE
  5
4F
102
{ACAD_REACTORS
330
42
102
}
330
42
100
AcDbScale
 70
     0
300
1" = 1'-0"
140
1.0
141
12.0
290
     0
  0
SCALE
  5
50
102
{ACAD_REACTORS
330
42
102
}
330
42
100
AcDbScale
 70
     0
300
1-1/2" = 1'-0"
140
1.5
141
12.0
290
     0
  0
SCALE
  5
51
102
{ACAD_REACTORS
330
42
102
}
330
42
100
AcDbScale
 70
     0
300
3" = 1'-0"
140
3.0
141
12.0
290
     0
  0
SCALE
  5
52
102
{ACAD_REACTORS
330
42
102
}
330
42
100
AcDbScale
 70
     0
300
6" = 1'-0"
140
6.0
141
12.0
290
     0
  0
SCALE
  5
53
102
{ACAD_REACTORS
330
42
102
}
330
42
100
AcDbScale
 70
     0
300
1'-0" = 1'-0"
140
12.0
141
12.0
290
     0
  0
TABLESTYLE
  5
65
102
{ACAD_XDICTIONARY
360
67E
102
}
102
{ACAD_REACTORS
330
64
102
}
330
64
100
AcDbTableStyle
  3
Standard
 70
     0
 71
     0
 40
0.06
 41
0.06
280
     0
281
     0
  7
Standard
140
0.18
170
     2
 62
     0
 63
     7
283
     0
274
    -2
284
     1
 64
     0
275
    -2
285
     1
 65
     0
276
    -2
286
     1
 66
     0
277
    -2
287
     1
 67
     0
278
    -2
288
     1
 68
     0
279
    -2
289
     1
 69
     0
  7
Standard
140
0.25
170
     5
 62
     0
 63
     7
283
     0
274
    -2
284
     1
 64
     0
275
    -2
285
     1
 65
     0
276
    -2
286
     1
 66
     0
277
    -2
287
     1
 67
     0
278
    -2
288
     1
 68
     0
279
    -2
289
     1
 69
     0
  7
Standard
140
0.18
170
     5
 62
     0
 63
     7
283
     0
274
    -2
284
     1
 64
     0
275
    -2
285
     1
 65
     0
276
    -2
286
     1
 66
     0
277
    -2
287
     1
 67
     0
278
    -2
288
     1
 68
     0
279
    -2
289
     1
 69
     0
  0
VISUALSTYLE
  5
2F
102
{ACAD_XDICTIONARY
360
7E5
102
}
102
{ACAD_REACTORS
330
29
102
}
330
29
100
AcDbVisualStyle
  2
2dWireframe
 70
     4
 71
     0
 72
     2
 73
     0
 90
        0
 40
-0.6
 41
-30.0
 62
     5
 63
     7
 74
     1
 91
        4
 64
     7
 65
   257
 75
     1
175
     1
 42
1.0
 92
        0
 66
   257
 43
1.0
 76
     1
 77
     6
 78
     2
 67
     7
 79
     5
170
     0
171
     0
290
     0
174
     0
 93
        1
 44
0.0
173
     0
291
     0
 45
0.0
1001
ACAD
1000
AcDbSavedByObjectVersion
1070
     0
  0
VISUALSTYLE
  5
2E
102
{ACAD_XDICTIONARY
360
7E3
102
}
102
{ACAD_REACTORS
330
29
102
}
330
29
100
AcDbVisualStyle
  2
Basic
 70
     7
 71
     1
 72
     0
 73
     1
 90
        0
 40
-0.6
 41
-30.0
 62
     5
 63
     7
 74
     0
 91
        4
 64
     7
 65
   257
 75
     1
175
     1
 42
1.0
 92
        8
 66
     7
 43
1.0
 76
     1
 77
     6
 78
     2
 67
     7
 79
     5
170
     0
171
     0
290
     0
174
     0
 93
        1
 44
0.0
173
     0
291
     1
 45
0.0
1001
ACAD
1000
AcDbSavedByObjectVersion
1070
     0
  0
VISUALSTYLE
  5
35
102
{ACAD_XDICTIONARY
360
7F1
102
}
102
{ACAD_REACTORS
330
29
102
}
330
29
100
AcDbVisualStyle
  2
Brighten
 70
    12
 71
     2
 72
     2
 73
     0
 90
        0
 40
-0.6
 41
-30.0
 62
     5
 63
     7
 74
     1
 91
        4
 64
     7
 65
   257
 75
     1
175
     1
 42
1.0
 92
        8
 66
     7
 43
1.0
 76
     1
 77
     6
 78
     2
 67
     7
 79
     5
170
     0
171
     0
290
     0
174
     0
 93
        1
 44
50.0
173
     0
291
     1
 45
0.0
1001
ACAD
1000
AcDbSavedByObjectVersion
1070
     0
  0
VISUALSTYLE
  5
39
102
{ACAD_XDICTIONARY
360
7F9
102
}
102
{ACAD_REACTORS
330
29
102
}
330
29
100
AcDbVisualStyle
  2
ColorChange
 70
    16
 71
     2
 72
     2
 73
     3
 90
        0
 40
-0.6
 41
-30.0
 62
     5
 63
     8
 74
     1
 91
        4
 64
     7
 65
   257
 75
     1
175
     1
 42
1.0
 92
        8
 66
     8
 43
1.0
 76
     1
 77
     6
 78
     2
 67
     7
 79
     5
170
     0
171
     0
290
     0
174
     0
 93
        1
 44
0.0
173
     0
291
     1
 45
0.0
1001
ACAD
1000
AcDbSavedByObjectVersion
1070
     0
  0
VISUALSTYLE
  5
32
102
{ACAD_XDICTIONARY
360
7EB
102
}
102
{ACAD_REACTORS
330
29
102
}
330
29
100
AcDbVisualStyle
  2
Conceptual
 70
     9
 71
     3
 72
     2
 73
     0
 90
        0
 40
-0.6
 41
-30.0
 62
     5
 63
     7
 74
     2
 91
        2
 64
     7
 65
   257
 75
     1
175
     1
 42
179.0
 92
        8
 66
     7
 43
1.0
 76
     1
 77
     6
 78
     2
 67
     7
 79
     3
170
     0
171
     0
290
     0
174
     0
 93
        1
 44
0.0
173
     0
291
     0
 45
0.0
1001
ACAD
1000
AcDbSavedByObjectVersion
1070
     0
  0
VISUALSTYLE
  5
34
102
{ACAD_XDICTIONARY
360
7EF
102
}
102
{ACAD_REACTORS
330
29
102
}
330
29
100
AcDbVisualStyle
  2
Dim
 70
    11
 71
     2
 72
     2
 73
     0
 90
        0
 40
-0.6
 41
-30.0
 62
     5
 63
     7
 74
     1
 91
        4
 64
     7
 65
   257
 75
     1
175
     1
 42
1.0
 92
        8
 66
     7
 43
1.0
 76
     1
 77
     6
 78
     2
 67
     7
 79
     5
170
     0
171
     0
290
     0
174
     0
 93
        1
 44
-50.0
173
     0
291
     1
 45
0.0
1001
ACAD
1000
AcDbSavedByObjectVersion
1070
     0
  0
VISUALSTYLE
  5
41
102
{ACAD_XDICTIONARY
360
809
102
}
102
{ACAD_REACTORS
330
29
102
}
330
29
100
AcDbVisualStyle
  2
EdgeColorOff
 70
    22
 71
     2
 72
     2
 73
     0
 90
        0
 40
-0.6
 41
-30.0
 62
     5
 63
     7
 74
     1
 91
        4
 64
     7
 65
   257
 75
     1
175
     1
 42
1.0
 92
        8
 66
     7
 43
1.0
 76
     1
 77
     6
 78
     2
 67
     7
 79
     5
170
     0
171
     0
290
     0
174
     0
 93
        1
 44
0.0
173
     0
291
     1
 45
0.0
1001
ACAD
1000
AcDbSavedByObjectVersion
1070
     0
  0
VISUALSTYLE
  5
38
102
{ACAD_XDICTIONARY
360
7F7
102
}
102
{ACAD_REACTORS
330
29
102
}
330
29
100
AcDbVisualStyle
  2
Facepattern
 70
    15
 71
     2
 72
     2
 73
     0
 90
        0
 40
-0.6
 41
-30.0
 62
     5
 63
     7
 74
     1
 91
        4
 64
     7
 65
   257
 75
     1
175
     1
 42
1.0
 92
        8
 66
     7
 43
1.0
 76
     1
 77
     6
 78
     2
 67
     7
 79
     5
170
     0
171
     0
290
     0
174
     0
 93
        1
 44
0.0
173
     0
291
     1
 45
0.0
1001
ACAD
1000
AcDbSavedByObjectVersion
1070
     0
  0
VISUALSTYLE
  5
2A
102
{ACAD_XDICTIONARY
360
7DB
102
}
102
{ACAD_REACTORS
330
29
102
}
330
29
100
AcDbVisualStyle
  2
Flat
 70
     0
 71
     2
 72
     1
 73
     1
 90
        2
 40
-0.6
 41
30.0
 62
     5
 63
     7
 74
     0
 91
        0
 64
     7
 65
   257
 75
     1
175
     1
 42
1.0
 92
        8
 66
     7
 43
1.0
 76
     1
 77
     6
 78
     2
 67
     7
 79
     5
170
     0
171
     0
290
     0
174
     0
 93
       13
 44
0.0
173
     0
291
     1
 45
0.0
1001
ACAD
1000
AcDbSavedByObjectVersion
1070
     0
  0
VISUALSTYLE
  5
2B
102
{ACAD_XDICTIONARY
360
7DD
102
}
102
{ACAD_REACTORS
330
29
102
}
330
29
100
AcDbVisualStyle
  2
FlatWithEdges
 70
     1
 71
     2
 72
     1
 73
     1
 90
        2
 40
-0.6
 41
30.0
 62
     5
 63
     7
 74
     1
 91
        0
 64
     7
 65
   257
 75
     1
175
     1
 42
1.0
 92
        0
 66
   257
 43
1.0
 76
     1
 77
     6
 78
     2
 67
     7
 79
     5
170
     0
171
     0
290
     0
174
     0
 93
       13
 44
0.0
173
     0
291
     1
 45
0.0
1001
ACAD
1000
AcDbSavedByObjectVersion
1070
     0
  0
VISUALSTYLE
  5
2C
102
{ACAD_XDICTIONARY
360
7DF
102
}
102
{ACAD_REACTORS
330
29
102
}
330
29
100
AcDbVisualStyle
  2
Gouraud
 70
     2
 71
     2
 72
     2
 73
     1
 90
        2
 40
-0.6
 41
30.0
 62
     5
 63
     7
 74
     0
 91
        0
 64
     7
 65
   257
 75
     1
175
     1
 42
1.0
 92
        0
 66
     7
 43
1.0
 76
     1
 77
     6
 78
     2
 67
     7
 79
     5
170
     0
171
     0
290
     0
174
     0
 93
       13
 44
0.0
173
     0
291
     1
 45
0.0
1001
ACAD
1000
AcDbSavedByObjectVersion
1070
     0
  0
VISUALSTYLE
  5
2D
102
{ACAD_XDICTIONARY
360
7E1
102
}
102
{ACAD_REACTORS
330
29
102
}
330
29
100
AcDbVisualStyle
  2
GouraudWithEdges
 70
     3
 71
     2
 72
     2
 73
     1
 90
        2
 40
-0.6
 41
30.0
 62
     5
 63
     7
 74
     1
 91
        0
 64
     7
 65
   257
 75
     1
175
     1
 42
1.0
 92
        0
 66
   257
 43
1.0
 76
     1
 77
     6
 78
     2
 67
     7
 79
     5
170
     0
171
     0
290
     0
174
     0
 93
       13
 44
0.0
173
     0
291
     1
 45
0.0
1001
ACAD
1000
AcDbSavedByObjectVersion
1070
     0
  0
VISUALSTYLE
  5
31
102
{ACAD_XDICTIONARY
360
7E9
102
}
102
{ACAD_REACTORS
330
29
102
}
330
29
100
AcDbVisualStyle
  2
Hidden
 70
     6
 71
     1
 72
     2
 73
     2
 90
        0
 40
-0.6
 41
-30.0
 62
     5
 63
     7
 74
     2
 91
        2
 64
     7
 65
   257
 75
     2
175
     1
 42
40.0
 92
        0
 66
   257
 43
1.0
 76
     1
 77
     6
 78
     2
 67
     7
 79
     3
170
     0
171
     0
290
     0
174
     0
 93
        1
 44
0.0
173
     0
291
     0
 45
0.0
1001
ACAD
1000
AcDbSavedByObjectVersion
1070
     0
  0
VISUALSTYLE
  5
3F
102
{ACAD_XDICTIONARY
360
805
102
}
102
{ACAD_REACTORS
330
29
102
}
330
29
100
AcDbVisualStyle
  2
JitterOff
 70
    20
 71
     2
 72
     2
 73
     0
 90
        0
 40
-0.6
 41
-30.0
 62
     5
 63
     7
 74
     1
 91
        4
 64
     7
 65
   257
 75
     1
175
     1
 42
1.0
 92
       10
 66
     7
 43
1.0
 76
     1
 77
     6
 78
     2
 67
     7
 79
     5
170
     0
171
     0
290
     0
174
     0
 93
        1
 44
0.0
173
     0
291
     1
 45
0.0
1001
ACAD
1000
AcDbSavedByObjectVersion
1070
     0
  0
VISUALSTYLE
  5
37
102
{ACAD_XDICTIONARY
360
7F5
102
}
102
{ACAD_REACTORS
330
29
102
}
330
29
100
AcDbVisualStyle
  2
Linepattern
 70
    14
 71
     2
 72
     2
 73
     0
 90
        0
 40
-0.6
 41
-30.0
 62
     5
 63
     7
 74
     1
 91
        4
 64
     7
 65
   257
 75
     7
175
     7
 42
1.0
 92
        8
 66
     7
 43
1.0
 76
     1
 77
     6
 78
     2
 67
     7
 79
     5
170
     0
171
     0
290
     0
174
     0
 93
        1
 44
0.0
173
     0
291
     1
 45
0.0
1001
ACAD
1000
AcDbSavedByObjectVersion
1070
     0
  0
VISUALSTYLE
  5
40
102
{ACAD_XDICTIONARY
360
807
102
}
102
{ACAD_REACTORS
330
29
102
}
330
29
100
AcDbVisualStyle
  2
OverhangOff
 70
    21
 71
     2
 72
     2
 73
     0
 90
        0
 40
-0.6
 41
-30.0
 62
     5
 63
     7
 74
     1
 91
        4
 64
     7
 65
   257
 75
     1
175
     1
 42
1.0
 92
        9
 66
     7
 43
1.0
 76
     1
 77
     6
 78
     2
 67
     7
 79
     5
170
     0
171
     0
290
     0
174
     0
 93
        1
 44
0.0
173
     0
291
     1
 45
0.0
1001
ACAD
1000
AcDbSavedByObjectVersion
1070
     0
  0
VISUALSTYLE
  5
33
102
{ACAD_XDICTIONARY
360
7ED
102
}
102
{ACAD_REACTORS
330
29
102
}
330
29
100
AcDbVisualStyle
  2
Realistic
 70
     8
 71
     2
 72
     2
 73
     0
 90
        2
 40
-0.6
 41
30.0
 62
     5
 63
     7
 74
     0
 91
        0
 64
     7
 65
   257
 75
     1
175
     1
 42
1.0
 92
        8
 66
   257
 43
1.0
 76
     1
 77
     6
 78
     2
 67
     7
 79
     3
170
     0
171
     0
290
     0
174
     0
 93
       13
 44
0.0
173
     0
291
     0
 45
0.0
1001
ACAD
1000
AcDbSavedByObjectVersion
1070
     0
  0
VISUALSTYLE
  5
3E
102
{ACAD_XDICTIONARY
360
803
102
}
102
{ACAD_REACTORS
330
29
102
}
330
29
100
AcDbVisualStyle
  2
Shaded
 70
    27
 71
     2
 72
     2
 73
     1
 90
        2
 40
-0.6
 41
30.0
 62
     5
 63
     7
 74
     0
 91
        4
 64
     7
 65
   257
 75
     1
175
     1
 42
1.0
 92
        8
 66
   257
 43
1.0
 76
     1
 77
     6
 78
     2
 67
     8
 79
     3
170
     0
171
     0
290
     0
174
     0
 93
        5
 44
0.0
173
     0
291
     0
 45
0.0
1001
ACAD
1000
AcDbSavedByObjectVersion
1070
     0
  0
VISUALSTYLE
  5
3D
102
{ACAD_XDICTIONARY
360
801
102
}
102
{ACAD_REACTORS
330
29
102
}
330
29
100
AcDbVisualStyle
  2
Shaded with edges
 70
    26
 71
     2
 72
     2
 73
     1
 90
        2
 40
-0.6
 41
30.0
 62
     5
 63
     7
 74
     1
 91
       10
 64
     7
 65
   257
 75
     2
175
     1
 42
1.0
 92
        8
 66
   257
 43
1.0
 76
     1
 77
     6
 78
     2
 67
     7
 79
     3
170
     0
171
     0
290
     0
174
     0
 93
        5
 44
0.0
173
     0
291
     0
 45
0.0
1001
ACAD
1000
AcDbSavedByObjectVersion
1070
     0
  0
VISUALSTYLE
  5
3A
102
{ACAD_XDICTIONARY
360
7FB
102
}
102
{ACAD_REACTORS
330
29
102
}
330
29
100
AcDbVisualStyle
  2
Shades of Gray
 70
    23
 71
     2
 72
     2
 73
     3
 90
        0
 40
-0.6
 41
-30.0
 62
     5
 63
     7
 74
     2
 91
        2
 64
     7
 65
     7
 75
     1
175
     1
 42
40.0
 92
        8
 66
     7
 43
1.0
 76
     1
 77
     6
 78
     2
 67
     7
 79
     3
170
     0
171
     0
290
     0
174
     0
 93
        1
 44
0.0
173
     0
291
     0
 45
0.0
1001
ACAD
1000
AcDbSavedByObjectVersion
1070
     0
  0
VISUALSTYLE
  5
3B
102
{ACAD_XDICTIONARY
360
7FD
102
}
102
{ACAD_REACTORS
330
29
102
}
330
29
100
AcDbVisualStyle
  2
Sketchy
 70
    24
 71
     1
 72
     2
 73
     2
 90
        0
 40
-0.6
 41
-30.0
 62
     5
 63
     7
 74
     2
 91
        2
 64
     7
 65
     7
 75
     1
175
     1
 42
40.0
 92
       11
 66
     7
 43
1.0
 76
     1
 77
     6
 78
     2
 67
     7
 79
     6
170
     0
171
     0
290
     0
174
     0
 93
        1
 44
0.0
173
     0
291
     0
 45
0.0
1001
ACAD
1000
AcDbSavedByObjectVersion
1070
     0
  0
VISUALSTYLE
  5
36
102
{ACAD_XDICTIONARY
360
7F3
102
}
102
{ACAD_REACTORS
330
29
102
}
330
29
100
AcDbVisualStyle
  2
Thicken
 70
    13
 71
     2
 72
     2
 73
     0
 90
        0
 40
-0.6
 41
-30.0
 62
     5
 63
     7
 74
     1
 91
        4
 64
     7
 65
   257
 75
     1
175
     1
 42
1.0
 92
       12
 66
     7
 43
1.0
 76
     1
 77
     6
 78
     2
 67
     7
 79
     5
170
     0
171
     0
290
     0
174
     0
 93
        1
 44
0.0
173
     0
291
     1
 45
0.0
1001
ACAD
1000
AcDbSavedByObjectVersion
1070
     0
  0
VISUALSTYLE
  5
30
102
{ACAD_XDICTIONARY
360
7E7
102
}
102
{ACAD_REACTORS
330
29
102
}
330
29
100
AcDbVisualStyle
  2
Wireframe
 70
     5
 71
     0
 72
     2
 73
     0
 90
        0
 40
-0.6
 41
-30.0
 62
     5
 63
     7
 74
     1
 91
        4
 64
     7
 65
   257
 75
     1
175
     1
 42
1.0
 92
        0
 66
   257
 43
1.0
 76
     1
 77
     6
 78
     2
 67
     7
 79
     3
170
     0
171
     0
290
     0
174
     0
 93
        1
 44
0.0
173
     0
291
     0
 45
0.0
1001
ACAD
1000
AcDbSavedByObjectVersion
1070
     0
  0
VISUALSTYLE
  5
3C
102
{ACAD_XDICTIONARY
360
7FF
102
}
102
{ACAD_REACTORS
330
29
102
}
330
29
100
AcDbVisualStyle
  2
X-Ray
 70
    25
 71
     2
 72
     2
 73
     1
 90
        1
 40
0.5
 41
-30.0
 62
     5
 63
     7
 74
     1
 91
        0
 64
     7
 65
   257
 75
     1
175
     1
 42
1.0
 92
        8
 66
     7
 43
1.0
 76
     1
 77
     6
 78
     2
 67
     7
 79
     3
170
     0
171
     0
290
     0
174
     0
 93
       13
 44
0.0
173
     0
291
     0
 45
0.0
1001
ACAD
1000
AcDbSavedByObjectVersion
1070
     0
  0
DICTIONARYVAR
  5
6D9
102
{ACAD_REACTORS
330
6D5
102
}
330
6D5
100
DictionaryVariables
280
     0
  1
1:1
  0
DICTIONARYVAR
  5
6D7
102
{ACAD_REACTORS
330
6D5
102
}
330
6D5
100
DictionaryVariables
280
     0
  1
STANDARD
  0
DICTIONARYVAR
  5
6D6
102
{ACAD_REACTORS
330
6D5
102
}
330
6D5
100
DictionaryVariables
280
     0
  1
STANDARD
  0
DICTIONARYVAR
  5
6E0
102
{ACAD_REACTORS
330
6D5
102
}
330
6D5
100
DictionaryVariables
280
     0
  1
1
  0
DICTIONARYVAR
  5
6DF
102
{ACAD_REACTORS
330
6D5
102
}
330
6D5
100
DictionaryVariables
280
     0
  1
1
  0
DICTIONARYVAR
  5
6DE
102
{ACAD_REACTORS
330
6D5
102
}
330
6D5
100
DictionaryVariables
280
     0
  1
0
  0
DICTIONARYVAR
  5
6DB
102
{ACAD_REACTORS
330
6D5
102
}
330
6D5
100
DictionaryVariables
280
     0
  1
0
  0
DICTIONARYVAR
  5
6DC
102
{ACAD_REACTORS
330
6D5
102
}
330
6D5
100
DictionaryVariables
280
     0
  1
0
  0
DICTIONARYVAR
  5
6DA
102
{ACAD_REACTORS
330
6D5
102
}
330
6D5
100
DictionaryVariables
280
     0
  1
2
  0
DICTIONARYVAR
  5
6D8
102
{ACAD_REACTORS
330
6D5
102
}
330
6D5
100
DictionaryVariables
280
     0
  1
1
  0
DICTIONARYVAR
  5
6DD
102
{ACAD_REACTORS
330
6D5
102
}
330
6D5
100
DictionaryVariables
280
     0
  1
127
  0
DICTIONARYVAR
  5
7C8
102
{ACAD_REACTORS
330
6D5
102
}
330
6D5
100
DictionaryVariables
280
     0
  1
2
  0
DICTIONARY
  5
80C
330
6B
100
AcDbDictionary
280
     1
281
     1
  3
ACAD_XREC_ROUNDTRIP
360
80D
  0
DICTIONARY
  5
810
330
73
100
AcDbDictionary
280
     1
281
     1
  3
ACAD_XREC_ROUNDTRIP
360
811
  0
DICTIONARY
  5
80E
330
6F
100
AcDbDictionary
280
     1
281
     1
  3
ACAD_XREC_ROUNDTRIP
360
80F
  0
DICTIONARY
  5
1A
330
19
100
AcDbDictionary
280
     1
281
     1
  3
ACAD_XREC_ROUNDTRIP
360
7D9
  3
BUMPTILE
360
1C
  3
DIFFUSETILE
360
1B
  3
OPACITYTILE
360
1F
  3
REFLECTIONTILE
360
1E
  3
REFRACTIONTILE
360
20
  3
SPECULARTILE
360
1D
  0
DICTIONARY
  5
12
330
11
100
AcDbDictionary
280
     1
281
     1
  3
ACAD_XREC_ROUNDTRIP
360
7D8
  3
BUMPTILE
360
14
  3
DIFFUSETILE
360
13
  3
OPACITYTILE
360
17
  3
REFLECTIONTILE
360
16
  3
REFRACTIONTILE
360
18
  3
SPECULARTILE
360
15
  0
DICTIONARY
  5
22
330
21
100
AcDbDictionary
280
     1
281
     1
  3
ACAD_XREC_ROUNDTRIP
360
7DA
  3
BUMPTILE
360
24
  3
DIFFUSETILE
360
23
  3
OPACITYTILE
360
27
  3
REFLECTIONTILE
360
26
  3
REFRACTIONTILE
360
28
  3
SPECULARTILE
360
25
  0
DICTIONARY
  5
67E
330
65
100
AcDbDictionary
280
     1
281
     1
  3
ACAD_ROUNDTRIP_2008_TABLESTYLE_CELLSTYLEMAP
360
7C9
  3
ACAD_XREC_ROUNDTRIP
360
80B
  0
DICTIONARY
  5
7E5
330
2F
100
AcDbDictionary
280
     1
281
     1
  3
ACAD_XREC_ROUNDTRIP
360
7E6
  0
DICTIONARY
  5
7E3
330
2E
100
AcDbDictionary
280
     1
281
     1
  3
ACAD_XREC_ROUNDTRIP
360
7E4
  0
DICTIONARY
  5
7F1
330
35
100
AcDbDictionary
280
     1
281
     1
  3
ACAD_XREC_ROUNDTRIP
360
7F2
  0
DICTIONARY
  5
7F9
330
39
100
AcDbDictionary
280
     1
281
     1
  3
ACAD_XREC_ROUNDTRIP
360
7FA
  0
DICTIONARY
  5
7EB
330
32
100
AcDbDictionary
280
     1
281
     1
  3
ACAD_XREC_ROUNDTRIP
360
7EC
  0
DICTIONARY
  5
7EF
330
34
100
AcDbDictionary
280
     1
281
     1
  3
ACAD_XREC_ROUNDTRIP
360
7F0
  0
DICTIONARY
  5
809
330
41
100
AcDbDictionary
280
     1
281
     1
  3
ACAD_XREC_ROUNDTRIP
360
80A
  0
DICTIONARY
  5
7F7
330
38
100
AcDbDictionary
280
     1
281
     1
  3
ACAD_XREC_ROUNDTRIP
360
7F8
  0
DICTIONARY
  5
7DB
330
2A
100
AcDbDictionary
280
     1
281
     1
  3
ACAD_XREC_ROUNDTRIP
360
7DC
  0
DICTIONARY
  5
7DD
330
2B
100
AcDbDictionary
280
     1
281
     1
  3
ACAD_XREC_ROUNDTRIP
360
7DE
  0
DICTIONARY
  5
7DF
330
2C
100
AcDbDictionary
280
     1
281
     1
  3
ACAD_XREC_ROUNDTRIP
360
7E0
  0
DICTIONARY
  5
7E1
330
2D
100
AcDbDictionary
280
     1
281
     1
  3
ACAD_XREC_ROUNDTRIP
360
7E2
  0
DICTIONARY
  5
7E9
330
31
100
AcDbDictionary
280
     1
281
     1
  3
ACAD_XREC_ROUNDTRIP
360
7EA
  0
DICTIONARY
  5
805
330
3F
100
AcDbDictionary
280
     1
281
     1
  3
ACAD_XREC_ROUNDTRIP
360
806
  0
DICTIONARY
  5
7F5
330
37
100
AcDbDictionary
280
     1
281
     1
  3
ACAD_XREC_ROUNDTRIP
360
7F6
  0
DICTIONARY
  5
807
330
40
100
AcDbDictionary
280
     1
281
     1
  3
ACAD_XREC_ROUNDTRIP
360
808
  0
DICTIONARY
  5
7ED
330
33
100
AcDbDictionary
280
     1
281
     1
  3
ACAD_XREC_ROUNDTRIP
360
7EE
  0
DICTIONARY
  5
803
330
3E
100
AcDbDictionary
280
     1
281
     1
  3
ACAD_XREC_ROUNDTRIP
360
804
  0
DICTIONARY
  5
801
330
3D
100
AcDbDictionary
280
     1
281
     1
  3
ACAD_XREC_ROUNDTRIP
360
802
  0
DICTIONARY
  5
7FB
330
3A
100
AcDbDictionary
280
     1
281
     1
  3
ACAD_XREC_ROUNDTRIP
360
7FC
  0
DICTIONARY
  5
7FD
330
3B
100
AcDbDictionary
280
     1
281
     1
  3
ACAD_XREC_ROUNDTRIP
360
7FE
  0
DICTIONARY
  5
7F3
330
36
100
AcDbDictionary
280
     1
281
     1
  3
ACAD_XREC_ROUNDTRIP
360
7F4
  0
DICTIONARY
  5
7E7
330
30
100
AcDbDictionary
280
     1
281
     1
  3
ACAD_XREC_ROUNDTRIP
360
7E8
  0
DICTIONARY
  5
7FF
330
3C
100
AcDbDictionary
280
     1
281
     1
  3
ACAD_XREC_ROUNDTRIP
360
800
  0
XRECORD
  5
80D
102
{ACAD_REACTORS
330
80C
102
}
330
80C
100
AcDbXrecord
280
     1
102
SHADEPLOT
 70
     0
102
SHADEPLOTRESLEVEL
 70
     2
102
SHADEPLOTCUSTOMDPI
 70
   300
  0
XRECORD
  5
811
102
{ACAD_REACTORS
330
810
102
}
330
810
100
AcDbXrecord
280
     1
102
SHADEPLOT
 70
     0
102
SHADEPLOTRESLEVEL
 70
     2
102
SHADEPLOTCUSTOMDPI
 70
   300
  0
XRECORD
  5
80F
102
{ACAD_REACTORS
330
80E
102
}
330
80E
100
AcDbXrecord
280
     1
102
SHADEPLOT
 70
     0
102
SHADEPLOTRESLEVEL
 70
     2
102
SHADEPLOTCUSTOMDPI
 70
   300
  0
XRECORD
  5
7D9
102
{ACAD_REACTORS
330
1A
102
}
330
1A
100
AcDbXrecord
280
     1
102
MATERIAL
148
0.0
149
0.0
149
0.0
 93
        0
 94
      127
282
     0
 72
     0
 77
     0
171
     0
175
     0
179
     0
273
     0
  0
XRECORD
  5
1C
102
{ACAD_REACTORS
330
1A
102
}
330
1A
100
AcDbXrecord
280
     1
270
     1
271
     1
  0
XRECORD
  5
1B
102
{ACAD_REACTORS
330
1A
102
}
330
1A
100
AcDbXrecord
280
     1
270
     1
271
     1
  0
XRECORD
  5
1F
102
{ACAD_REACTORS
330
1A
102
}
330
1A
100
AcDbXrecord
280
     1
270
     1
271
     1
  0
XRECORD
  5
1E
102
{ACAD_REACTORS
330
1A
102
}
330
1A
100
AcDbXrecord
280
     1
270
     1
271
     1
  0
XRECORD
  5
20
102
{ACAD_REACTORS
330
1A
102
}
330
1A
100
AcDbXrecord
280
     1
270
     1
271
     1
  0
XRECORD
  5
1D
102
{ACAD_REACTORS
330
1A
102
}
330
1A
100
AcDbXrecord
280
     1
270
     1
271
     1
  0
XRECORD
  5
7D8
102
{ACAD_REACTORS
330
12
102
}
330
12
100
AcDbXrecord
280
     1
102
MATERIAL
148
0.0
149
0.0
149
0.0
 93
        0
 94
      127
282
     0
 72
     0
 77
     0
171
     0
175
     0
179
     0
273
     0
  0
XRECORD
  5
14
102
{ACAD_REACTORS
330
12
102
}
330
12
100
AcDbXrecord
280
     1
270
     1
271
     1
  0
XRECORD
  5
13
102
{ACAD_REACTORS
330
12
102
}
330
12
100
AcDbXrecord
280
     1
270
     1
271
     1
  0
XRECORD
  5
17
102
{ACAD_REACTORS
330
12
102
}
330
12
100
AcDbXrecord
280
     1
270
     1
271
     1
  0
XRECORD
  5
16
102
{ACAD_REACTORS
330
12
102
}
330
12
100
AcDbXrecord
280
     1
270
     1
271
     1
  0
XRECORD
  5
18
102
{ACAD_REACTORS
330
12
102
}
330
12
100
AcDbXrecord
280
     1
270
     1
271
     1
  0
XRECORD
  5
15
102
{ACAD_REACTORS
330
12
102
}
330
12
100
AcDbXrecord
280
     1
270
     1
271
     1
  0
XRECORD
  5
7DA
102
{ACAD_REACTORS
330
22
102
}
330
22
100
AcDbXrecord
280
     1
102
MATERIAL
148
0.0
149
0.0
149
0.0
 93
        0
 94
      127
282
     0
 72
     0
 77
     0
171
     0
175
     0
179
     0
273
     0
  0
XRECORD
  5
24
102
{ACAD_REACTORS
330
22
102
}
330
22
100
AcDbXrecord
280
     1
270
     1
271
     1
  0
XRECORD
  5
23
102
{ACAD_REACTORS
330
22
102
}
330
22
100
AcDbXrecord
280
     1
270
     1
271
     1
  0
XRECORD
  5
27
102
{ACAD_REACTORS
330
22
102
}
330
22
100
AcDbXrecord
280
     1
270
     1
271
     1
  0
XRECORD
  5
26
102
{ACAD_REACTORS
330
22
102
}
330
22
100
AcDbXrecord
280
     1
270
     1
271
     1
  0
XRECORD
  5
28
102
{ACAD_REACTORS
330
22
102
}
330
22
100
AcDbXrecord
280
     1
270
     1
271
     1
  0
XRECORD
  5
25
102
{ACAD_REACTORS
330
22
102
}
330
22
100
AcDbXrecord
280
     1
270
     1
271
     1
  0
CELLSTYLEMAP
  5
7C9
102
{ACAD_REACTORS
330
67E
102
}
330
67E
100
AcDbCellStyleMap
 90
        3
300
CELLSTYLE
  1
TABLEFORMAT_BEGIN
 90
        5
170
     1
 91
        0
 92
    32768
 62
   257
 93
        1
300
CONTENTFORMAT
  1
CONTENTFORMAT_BEGIN
 90
        0
 91
        0
 92
      512
 93
        0
300

 40
0.0
140
1.0
 94
        5
 62
     0
340
55
144
0.25
309
CONTENTFORMAT_END
171
     0
 94
        0
309
TABLEFORMAT_END
  1
CELLSTYLE_BEGIN
 90
        1
 91
        1
300
_TITLE
309
CELLSTYLE_END
300
CELLSTYLE
  1
TABLEFORMAT_BEGIN
 90
        5
170
     1
 91
        0
 92
        0
 62
   257
 93
        1
300
CONTENTFORMAT
  1
CONTENTFORMAT_BEGIN
 90
        0
 91
        0
 92
      512
 93
        0
300

 40
0.0
140
1.0
 94
        5
 62
     0
340
55
144
0.18
309
CONTENTFORMAT_END
171
     0
 94
        0
309
TABLEFORMAT_END
  1
CELLSTYLE_BEGIN
 90
        2
 91
        1
300
_HEADER
309
CELLSTYLE_END
300
CELLSTYLE
  1
TABLEFORMAT_BEGIN
 90
        5
170
     1
 91
        0
 92
        0
 62
   257
 93
        1
300
CONTENTFORMAT
  1
CONTENTFORMAT_BEGIN
 90
        0
 91
        0
 92
      512
 93
        0
300

 40
0.0
140
1.0
 94
        2
 62
     0
340
55
144
0.18
309
CONTENTFORMAT_END
171
     0
 94
        0
309
TABLEFORMAT_END
  1
CELLSTYLE_BEGIN
 90
        3
 91
        2
300
_DATA
309
CELLSTYLE_END
  0
XRECORD
  5
80B
102
{ACAD_REACTORS
330
67E
102
}
330
67E
100
AcDbXrecord
280
     1
102
ACAD_ROUNDTRIP_PRE2007_TABLESTYLE
 90
      512
 91
        0
  1

 92
      512
 93
        0
  2

 94
      512
 95
        0
  3

  0
XRECORD
  5
7E6
102
{ACAD_REACTORS
330
7E5
102
}
330
7E5
100
AcDbXrecord
280
     1
102
RTVSPropertyOp0
 70
     1
102
RTVSPropertyOp1
 70
     1
102
RTVSPropertyOp2
 70
     1
102
RTVSPropertyOp3
 70
     1
102
RTVSPropertyOp4
 70
     1
102
RTVSPropertyOp5
 70
     1
102
RTVSPropertyOp6
 70
     1
102
RTVSPropertyOp7
 70
     1
102
RTVSPropertyOp8
 70
     1
102
RTVSPropertyOp9
 70
     1
102
RTVSPropertyOp10
 70
     1
102
RTVSPropertyOp11
 70
     1
102
RTVSPropertyOp12
 70
     1
102
RTVSPropertyOp13
 70
     1
102
RTVSPropertyOp14
 70
     1
102
RTVSPropertyOp15
 70
     1
102
RTVSPropertyOp16
 70
     1
102
RTVSPropertyOp17
 70
     1
102
RTVSPropertyOp18
 70
     1
102
RTVSPropertyOp19
 70
     1
102
RTVSPropertyOp20
 70
     1
102
RTVSPropertyOp21
 70
     1
102
RTVSPropertyOp22
 70
     1
102
RTVSPropertyOp23
 70
     1
102
RTVSPropertyOp24
 70
     1
102
RTVSPropertyOp25
 70
     1
102
RTVSPropertyOp26
 70
     1
102
RTVSPropertyOp27
 70
     1
102
RTVSPropertyOp28
 70
     1
102
RTVSPropertyOp29
 70
     1
102
RTVSPropertyOp30
 70
     1
102
RTVSPropertyOp31
 70
     1
102
RTVSPropertyOp32
 70
     1
  0
XRECORD
  5
7E4
102
{ACAD_REACTORS
330
7E3
102
}
330
7E3
100
AcDbXrecord
280
     1
102
RTVSPropertyOp0
 70
     1
102
RTVSPropertyOp1
 70
     1
102
RTVSPropertyOp2
 70
     1
102
RTVSPropertyOp3
 70
     1
102
RTVSPropertyOp4
 70
     1
102
RTVSPropertyOp5
 70
     1
102
RTVSPropertyOp6
 70
     1
102
RTVSPropertyOp7
 70
     1
102
RTVSPropertyOp8
 70
     1
102
RTVSPropertyOp9
 70
     1
102
RTVSPropertyOp10
 70
     1
102
RTVSPropertyOp11
 70
     1
102
RTVSPropertyOp12
 70
     1
102
RTVSPropertyOp13
 70
     1
102
RTVSPropertyOp14
 70
     1
102
RTVSPropertyOp15
 70
     1
102
RTVSPropertyOp16
 70
     1
102
RTVSPropertyOp17
 70
     1
102
RTVSPropertyOp18
 70
     1
102
RTVSPropertyOp19
 70
     1
102
RTVSPropertyOp20
 70
     1
102
RTVSPropertyOp21
 70
     1
102
RTVSPropertyOp22
 70
     1
102
RTVSPropertyOp23
 70
     1
102
RTVSPropertyOp24
 70
     1
102
RTVSPropertyOp25
 70
     1
102
RTVSPropertyOp26
 70
     1
102
RTVSPropertyOp27
 70
     1
102
RTVSPropertyOp28
 70
     1
102
RTVSPropertyOp29
 70
     1
102
RTVSPropertyOp30
 70
     1
102
RTVSPropertyOp31
 70
     1
102
RTVSPropertyOp32
 70
     1
  0
XRECORD
  5
7F2
102
{ACAD_REACTORS
330
7F1
102
}
330
7F1
100
AcDbXrecord
280
     1
102
RTVSPropertyOp0
 70
     1
102
RTVSPropertyOp1
 70
     1
102
RTVSPropertyOp2
 70
     1
102
RTVSPropertyOp3
 70
     1
102
RTVSPropertyOp4
 70
     1
102
RTVSPropertyOp5
 70
     1
102
RTVSPropertyOp6
 70
     1
102
RTVSPropertyOp7
 70
     1
102
RTVSPropertyOp8
 70
     1
102
RTVSPropertyOp9
 70
     1
102
RTVSPropertyOp10
 70
     1
102
RTVSPropertyOp11
 70
     1
102
RTVSPropertyOp12
 70
     1
102
RTVSPropertyOp13
 70
     1
102
RTVSPropertyOp14
 70
     1
102
RTVSPropertyOp15
 70
     1
102
RTVSPropertyOp16
 70
     1
102
RTVSPropertyOp17
 70
     1
102
RTVSPropertyOp18
 70
     1
102
RTVSPropertyOp19
 70
     1
102
RTVSPropertyOp20
 70
     1
102
RTVSPropertyOp21
 70
     1
102
RTVSPropertyOp22
 70
     1
102
RTVSPropertyOp23
 70
     1
102
RTVSPropertyOp24
 70
     1
102
RTVSPropertyOp25
 70
     1
102
RTVSPropertyOp26
 70
     1
102
RTVSPropertyOp27
 70
     1
102
RTVSPropertyOp28
 70
     1
102
RTVSPropertyOp29
 70
     1
102
RTVSPropertyOp30
 70
     1
102
RTVSPropertyOp31
 70
     1
102
RTVSPropertyOp32
 70
     1
  0
XRECORD
  5
7FA
102
{ACAD_REACTORS
330
7F9
102
}
330
7F9
100
AcDbXrecord
280
     1
102
RTVSPropertyOp0
 70
     1
102
RTVSPropertyOp1
 70
     1
102
RTVSPropertyOp2
 70
     1
102
RTVSPropertyOp3
 70
     1
102
RTVSPropertyOp4
 70
     1
102
RTVSPropertyOp5
 70
     1
102
RTVSPropertyOp6
 70
     1
102
RTVSPropertyOp7
 70
     1
102
RTVSPropertyOp8
 70
     1
102
RTVSPropertyOp9
 70
     1
102
RTVSPropertyOp10
 70
     1
102
RTVSPropertyOp11
 70
     1
102
RTVSPropertyOp12
 70
     1
102
RTVSPropertyOp13
 70
     1
102
RTVSPropertyOp14
 70
     1
102
RTVSPropertyOp15
 70
     1
102
RTVSPropertyOp16
 70
     1
102
RTVSPropertyOp17
 70
     1
102
RTVSPropertyOp18
 70
     1
102
RTVSPropertyOp19
 70
     1
102
RTVSPropertyOp20
 70
     1
102
RTVSPropertyOp21
 70
     1
102
RTVSPropertyOp22
 70
     1
102
RTVSPropertyOp23
 70
     1
102
RTVSPropertyOp24
 70
     1
102
RTVSPropertyOp25
 70
     1
102
RTVSPropertyOp26
 70
     1
102
RTVSPropertyOp27
 70
     1
102
RTVSPropertyOp28
 70
     1
102
RTVSPropertyOp29
 70
     1
102
RTVSPropertyOp30
 70
     1
102
RTVSPropertyOp31
 70
     1
102
RTVSPropertyOp32
 70
     1
  0
XRECORD
  5
7EC
102
{ACAD_REACTORS
330
7EB
102
}
330
7EB
100
AcDbXrecord
280
     1
102
RTVSPropertyOp0
 70
     1
102
RTVSPropertyOp1
 70
     1
102
RTVSPropertyOp2
 70
     1
102
RTVSPropertyOp3
 70
     1
102
RTVSPropertyOp4
 70
     1
102
RTVSPropertyOp5
 70
     1
102
RTVSPropertyOp6
 70
     1
102
RTVSPropertyOp7
 70
     1
102
RTVSPropertyOp8
 70
     1
102
RTVSPropertyOp9
 70
     1
102
RTVSPropertyOp10
 70
     1
102
RTVSPropertyOp11
 70
     1
102
RTVSPropertyOp12
 70
     1
102
RTVSPropertyOp13
 70
     1
102
RTVSPropertyOp14
 70
     1
102
RTVSPropertyOp15
 70
     1
102
RTVSPropertyOp16
 70
     1
102
RTVSPropertyOp17
 70
     1
102
RTVSPropertyOp18
 70
     1
102
RTVSPropertyOp19
 70
     1
102
RTVSPropertyOp20
 70
     1
102
RTVSPropertyOp21
 70
     1
102
RTVSPropertyOp22
 70
     1
102
RTVSPropertyOp23
 70
     1
102
RTVSPropertyOp24
 70
     1
102
RTVSPropertyOp25
 70
     1
102
RTVSPropertyOp26
 70
     1
102
RTVSPropertyOp27
 70
     1
102
RTVSPropertyOp28
 70
     1
102
RTVSPropertyOp29
 70
     1
102
RTVSPropertyOp30
 70
     1
102
RTVSPropertyOp31
 70
     1
102
RTVSPropertyOp32
 70
     1
  0
XRECORD
  5
7F0
102
{ACAD_REACTORS
330
7EF
102
}
330
7EF
100
AcDbXrecord
280
     1
102
RTVSPropertyOp0
 70
     1
102
RTVSPropertyOp1
 70
     1
102
RTVSPropertyOp2
 70
     1
102
RTVSPropertyOp3
 70
     1
102
RTVSPropertyOp4
 70
     1
102
RTVSPropertyOp5
 70
     1
102
RTVSPropertyOp6
 70
     1
102
RTVSPropertyOp7
 70
     1
102
RTVSPropertyOp8
 70
     1
102
RTVSPropertyOp9
 70
     1
102
RTVSPropertyOp10
 70
     1
102
RTVSPropertyOp11
 70
     1
102
RTVSPropertyOp12
 70
     1
102
RTVSPropertyOp13
 70
     1
102
RTVSPropertyOp14
 70
     1
102
RTVSPropertyOp15
 70
     1
102
RTVSPropertyOp16
 70
     1
102
RTVSPropertyOp17
 70
     1
102
RTVSPropertyOp18
 70
     1
102
RTVSPropertyOp19
 70
     1
102
RTVSPropertyOp20
 70
     1
102
RTVSPropertyOp21
 70
     1
102
RTVSPropertyOp22
 70
     1
102
RTVSPropertyOp23
 70
     1
102
RTVSPropertyOp24
 70
     1
102
RTVSPropertyOp25
 70
     1
102
RTVSPropertyOp26
 70
     1
102
RTVSPropertyOp27
 70
     1
102
RTVSPropertyOp28
 70
     1
102
RTVSPropertyOp29
 70
     1
102
RTVSPropertyOp30
 70
     1
102
RTVSPropertyOp31
 70
     1
102
RTVSPropertyOp32
 70
     1
  0
XRECORD
  5
80A
102
{ACAD_REACTORS
330
809
102
}
330
809
100
AcDbXrecord
280
     1
102
RTVSPropertyOp0
 70
     0
102
RTVSPropertyOp1
 70
     0
102
RTVSPropertyOp2
 70
     0
102
RTVSPropertyOp3
 70
     0
102
RTVSPropertyOp4
 70
     0
102
RTVSPropertyOp5
 70
     0
102
RTVSPropertyOp6
 70
     0
102
RTVSPropertyOp7
 70
     0
102
RTVSPropertyOp8
 70
     0
102
RTVSPropertyOp9
 70
     0
102
RTVSPropertyOp10
 70
     0
102
RTVSPropertyOp11
 70
     0
102
RTVSPropertyOp12
 70
     0
102
RTVSPropertyOp13
 70
     0
102
RTVSPropertyOp14
 70
     2
102
RTVSPropertyOp15
 70
     0
102
RTVSPropertyOp16
 70
     0
102
RTVSPropertyOp17
 70
     0
102
RTVSPropertyOp18
 70
     0
102
RTVSPropertyOp19
 70
     0
102
RTVSPropertyOp20
 70
     0
102
RTVSPropertyOp21
 70
     0
102
RTVSPropertyOp22
 70
     0
102
RTVSPropertyOp23
 70
     0
102
RTVSPropertyOp24
 70
     0
102
RTVSPropertyOp25
 70
     0
102
RTVSPropertyOp26
 70
     0
102
RTVSPropertyOp27
 70
     0
102
RTVSPropertyOp28
 70
     0
102
RTVSPropertyOp29
 70
     0
102
RTVSPropertyOp30
 70
     0
102
RTVSPropertyOp31
 70
     0
102
RTVSPropertyOp32
 70
     0
  0
XRECORD
  5
7F8
102
{ACAD_REACTORS
330
7F7
102
}
330
7F7
100
AcDbXrecord
280
     1
102
RTVSPropertyOp0
 70
     1
102
RTVSPropertyOp1
 70
     1
102
RTVSPropertyOp2
 70
     1
102
RTVSPropertyOp3
 70
     1
102
RTVSPropertyOp4
 70
     1
102
RTVSPropertyOp5
 70
     1
102
RTVSPropertyOp6
 70
     1
102
RTVSPropertyOp7
 70
     1
102
RTVSPropertyOp8
 70
     1
102
RTVSPropertyOp9
 70
     1
102
RTVSPropertyOp10
 70
     1
102
RTVSPropertyOp11
 70
     1
102
RTVSPropertyOp12
 70
     1
102
RTVSPropertyOp13
 70
     1
102
RTVSPropertyOp14
 70
     1
102
RTVSPropertyOp15
 70
     1
102
RTVSPropertyOp16
 70
     1
102
RTVSPropertyOp17
 70
     1
102
RTVSPropertyOp18
 70
     1
102
RTVSPropertyOp19
 70
     1
102
RTVSPropertyOp20
 70
     1
102
RTVSPropertyOp21
 70
     1
102
RTVSPropertyOp22
 70
     1
102
RTVSPropertyOp23
 70
     1
102
RTVSPropertyOp24
 70
     1
102
RTVSPropertyOp25
 70
     1
102
RTVSPropertyOp26
 70
     1
102
RTVSPropertyOp27
 70
     1
102
RTVSPropertyOp28
 70
     1
102
RTVSPropertyOp29
 70
     1
102
RTVSPropertyOp30
 70
     1
102
RTVSPropertyOp31
 70
     1
102
RTVSPropertyOp32
 70
     1
  0
XRECORD
  5
7DC
102
{ACAD_REACTORS
330
7DB
102
}
330
7DB
100
AcDbXrecord
280
     1
102
RTVSPropertyOp0
 70
     1
102
RTVSPropertyOp1
 70
     1
102
RTVSPropertyOp2
 70
     1
102
RTVSPropertyOp3
 70
     1
102
RTVSPropertyOp4
 70
     1
102
RTVSPropertyOp5
 70
     1
102
RTVSPropertyOp6
 70
     1
102
RTVSPropertyOp7
 70
     1
102
RTVSPropertyOp8
 70
     1
102
RTVSPropertyOp9
 70
     1
102
RTVSPropertyOp10
 70
     1
102
RTVSPropertyOp11
 70
     1
102
RTVSPropertyOp12
 70
     1
102
RTVSPropertyOp13
 70
     1
102
RTVSPropertyOp14
 70
     1
102
RTVSPropertyOp15
 70
     1
102
RTVSPropertyOp16
 70
     1
102
RTVSPropertyOp17
 70
     1
102
RTVSPropertyOp18
 70
     1
102
RTVSPropertyOp19
 70
     1
102
RTVSPropertyOp20
 70
     1
102
RTVSPropertyOp21
 70
     1
102
RTVSPropertyOp22
 70
     1
102
RTVSPropertyOp23
 70
     1
102
RTVSPropertyOp24
 70
     1
102
RTVSPropertyOp25
 70
     1
102
RTVSPropertyOp26
 70
     1
102
RTVSPropertyOp27
 70
     1
102
RTVSPropertyOp28
 70
     1
102
RTVSPropertyOp29
 70
     1
102
RTVSPropertyOp30
 70
     1
102
RTVSPropertyOp31
 70
     1
102
RTVSPropertyOp32
 70
     1
  0
XRECORD
  5
7DE
102
{ACAD_REACTORS
330
7DD
102
}
330
7DD
100
AcDbXrecord
280
     1
102
RTVSPropertyOp0
 70
     1
102
RTVSPropertyOp1
 70
     1
102
RTVSPropertyOp2
 70
     1
102
RTVSPropertyOp3
 70
     1
102
RTVSPropertyOp4
 70
     1
102
RTVSPropertyOp5
 70
     1
102
RTVSPropertyOp6
 70
     1
102
RTVSPropertyOp7
 70
     1
102
RTVSPropertyOp8
 70
     1
102
RTVSPropertyOp9
 70
     1
102
RTVSPropertyOp10
 70
     1
102
RTVSPropertyOp11
 70
     1
102
RTVSPropertyOp12
 70
     1
102
RTVSPropertyOp13
 70
     1
102
RTVSPropertyOp14
 70
     1
102
RTVSPropertyOp15
 70
     1
102
RTVSPropertyOp16
 70
     1
102
RTVSPropertyOp17
 70
     1
102
RTVSPropertyOp18
 70
     1
102
RTVSPropertyOp19
 70
     1
102
RTVSPropertyOp20
 70
     1
102
RTVSPropertyOp21
 70
     1
102
RTVSPropertyOp22
 70
     1
102
RTVSPropertyOp23
 70
     1
102
RTVSPropertyOp24
 70
     1
102
RTVSPropertyOp25
 70
     1
102
RTVSPropertyOp26
 70
     1
102
RTVSPropertyOp27
 70
     1
102
RTVSPropertyOp28
 70
     1
102
RTVSPropertyOp29
 70
     1
102
RTVSPropertyOp30
 70
     1
102
RTVSPropertyOp31
 70
     1
102
RTVSPropertyOp32
 70
     1
  0
XRECORD
  5
7E0
102
{ACAD_REACTORS
330
7DF
102
}
330
7DF
100
AcDbXrecord
280
     1
102
RTVSPropertyOp0
 70
     1
102
RTVSPropertyOp1
 70
     1
102
RTVSPropertyOp2
 70
     1
102
RTVSPropertyOp3
 70
     1
102
RTVSPropertyOp4
 70
     1
102
RTVSPropertyOp5
 70
     1
102
RTVSPropertyOp6
 70
     1
102
RTVSPropertyOp7
 70
     1
102
RTVSPropertyOp8
 70
     1
102
RTVSPropertyOp9
 70
     1
102
RTVSPropertyOp10
 70
     1
102
RTVSPropertyOp11
 70
     1
102
RTVSPropertyOp12
 70
     1
102
RTVSPropertyOp13
 70
     1
102
RTVSPropertyOp14
 70
     1
102
RTVSPropertyOp15
 70
     1
102
RTVSPropertyOp16
 70
     1
102
RTVSPropertyOp17
 70
     1
102
RTVSPropertyOp18
 70
     1
102
RTVSPropertyOp19
 70
     1
102
RTVSPropertyOp20
 70
     1
102
RTVSPropertyOp21
 70
     1
102
RTVSPropertyOp22
 70
     1
102
RTVSPropertyOp23
 70
     1
102
RTVSPropertyOp24
 70
     1
102
RTVSPropertyOp25
 70
     1
102
RTVSPropertyOp26
 70
     1
102
RTVSPropertyOp27
 70
     1
102
RTVSPropertyOp28
 70
     1
102
RTVSPropertyOp29
 70
     1
102
RTVSPropertyOp30
 70
     1
102
RTVSPropertyOp31
 70
     1
102
RTVSPropertyOp32
 70
     1
  0
XRECORD
  5
7E2
102
{ACAD_REACTORS
330
7E1
102
}
330
7E1
100
AcDbXrecord
280
     1
102
RTVSPropertyOp0
 70
     1
102
RTVSPropertyOp1
 70
     1
102
RTVSPropertyOp2
 70
     1
102
RTVSPropertyOp3
 70
     1
102
RTVSPropertyOp4
 70
     1
102
RTVSPropertyOp5
 70
     1
102
RTVSPropertyOp6
 70
     1
102
RTVSPropertyOp7
 70
     1
102
RTVSPropertyOp8
 70
     1
102
RTVSPropertyOp9
 70
     1
102
RTVSPropertyOp10
 70
     1
102
RTVSPropertyOp11
 70
     1
102
RTVSPropertyOp12
 70
     1
102
RTVSPropertyOp13
 70
     1
102
RTVSPropertyOp14
 70
     1
102
RTVSPropertyOp15
 70
     1
102
RTVSPropertyOp16
 70
     1
102
RTVSPropertyOp17
 70
     1
102
RTVSPropertyOp18
 70
     1
102
RTVSPropertyOp19
 70
     1
102
RTVSPropertyOp20
 70
     1
102
RTVSPropertyOp21
 70
     1
102
RTVSPropertyOp22
 70
     1
102
RTVSPropertyOp23
 70
     1
102
RTVSPropertyOp24
 70
     1
102
RTVSPropertyOp25
 70
     1
102
RTVSPropertyOp26
 70
     1
102
RTVSPropertyOp27
 70
     1
102
RTVSPropertyOp28
 70
     1
102
RTVSPropertyOp29
 70
     1
102
RTVSPropertyOp30
 70
     1
102
RTVSPropertyOp31
 70
     1
102
RTVSPropertyOp32
 70
     1
  0
XRECORD
  5
7EA
102
{ACAD_REACTORS
330
7E9
102
}
330
7E9
100
AcDbXrecord
280
     1
102
RTVSPropertyOp0
 70
     1
102
RTVSPropertyOp1
 70
     1
102
RTVSPropertyOp2
 70
     1
102
RTVSPropertyOp3
 70
     1
102
RTVSPropertyOp4
 70
     1
102
RTVSPropertyOp5
 70
     1
102
RTVSPropertyOp6
 70
     1
102
RTVSPropertyOp7
 70
     1
102
RTVSPropertyOp8
 70
     1
102
RTVSPropertyOp9
 70
     1
102
RTVSPropertyOp10
 70
     1
102
RTVSPropertyOp11
 70
     1
102
RTVSPropertyOp12
 70
     1
102
RTVSPropertyOp13
 70
     1
102
RTVSPropertyOp14
 70
     1
102
RTVSPropertyOp15
 70
     1
102
RTVSPropertyOp16
 70
     1
102
RTVSPropertyOp17
 70
     1
102
RTVSPropertyOp18
 70
     1
102
RTVSPropertyOp19
 70
     1
102
RTVSPropertyOp20
 70
     1
102
RTVSPropertyOp21
 70
     1
102
RTVSPropertyOp22
 70
     1
102
RTVSPropertyOp23
 70
     1
102
RTVSPropertyOp24
 70
     1
102
RTVSPropertyOp25
 70
     1
102
RTVSPropertyOp26
 70
     1
102
RTVSPropertyOp27
 70
     1
102
RTVSPropertyOp28
 70
     1
102
RTVSPropertyOp29
 70
     1
102
RTVSPropertyOp30
 70
     1
102
RTVSPropertyOp31
 70
     1
102
RTVSPropertyOp32
 70
     1
  0
XRECORD
  5
806
102
{ACAD_REACTORS
330
805
102
}
330
805
100
AcDbXrecord
280
     1
102
RTVSPropertyOp0
 70
     0
102
RTVSPropertyOp1
 70
     0
102
RTVSPropertyOp2
 70
     0
102
RTVSPropertyOp3
 70
     0
102
RTVSPropertyOp4
 70
     0
102
RTVSPropertyOp5
 70
     0
102
RTVSPropertyOp6
 70
     0
102
RTVSPropertyOp7
 70
     0
102
RTVSPropertyOp8
 70
     0
102
RTVSPropertyOp9
 70
     0
102
RTVSPropertyOp10
 70
     0
102
RTVSPropertyOp11
 70
     0
102
RTVSPropertyOp12
 70
     0
102
RTVSPropertyOp13
 70
     0
102
RTVSPropertyOp14
 70
     2
102
RTVSPropertyOp15
 70
     0
102
RTVSPropertyOp16
 70
     0
102
RTVSPropertyOp17
 70
     0
102
RTVSPropertyOp18
 70
     0
102
RTVSPropertyOp19
 70
     0
102
RTVSPropertyOp20
 70
     0
102
RTVSPropertyOp21
 70
     0
102
RTVSPropertyOp22
 70
     0
102
RTVSPropertyOp23
 70
     0
102
RTVSPropertyOp24
 70
     0
102
RTVSPropertyOp25
 70
     0
102
RTVSPropertyOp26
 70
     0
102
RTVSPropertyOp27
 70
     0
102
RTVSPropertyOp28
 70
     0
102
RTVSPropertyOp29
 70
     0
102
RTVSPropertyOp30
 70
     0
102
RTVSPropertyOp31
 70
     0
102
RTVSPropertyOp32
 70
     0
  0
XRECORD
  5
7F6
102
{ACAD_REACTORS
330
7F5
102
}
330
7F5
100
AcDbXrecord
280
     1
102
RTVSPropertyOp0
 70
     1
102
RTVSPropertyOp1
 70
     1
102
RTVSPropertyOp2
 70
     1
102
RTVSPropertyOp3
 70
     1
102
RTVSPropertyOp4
 70
     1
102
RTVSPropertyOp5
 70
     1
102
RTVSPropertyOp6
 70
     1
102
RTVSPropertyOp7
 70
     1
102
RTVSPropertyOp8
 70
     1
102
RTVSPropertyOp9
 70
     1
102
RTVSPropertyOp10
 70
     1
102
RTVSPropertyOp11
 70
     1
102
RTVSPropertyOp12
 70
     1
102
RTVSPropertyOp13
 70
     1
102
RTVSPropertyOp14
 70
     1
102
RTVSPropertyOp15
 70
     1
102
RTVSPropertyOp16
 70
     1
102
RTVSPropertyOp17
 70
     1
102
RTVSPropertyOp18
 70
     1
102
RTVSPropertyOp19
 70
     1
102
RTVSPropertyOp20
 70
     1
102
RTVSPropertyOp21
 70
     1
102
RTVSPropertyOp22
 70
     1
102
RTVSPropertyOp23
 70
     1
102
RTVSPropertyOp24
 70
     1
102
RTVSPropertyOp25
 70
     1
102
RTVSPropertyOp26
 70
     1
102
RTVSPropertyOp27
 70
     1
102
RTVSPropertyOp28
 70
     1
102
RTVSPropertyOp29
 70
     1
102
RTVSPropertyOp30
 70
     1
102
RTVSPropertyOp31
 70
     1
102
RTVSPropertyOp32
 70
     1
  0
XRECORD
  5
808
102
{ACAD_REACTORS
330
807
102
}
330
807
100
AcDbXrecord
280
     1
102
RTVSPropertyOp0
 70
     0
102
RTVSPropertyOp1
 70
     0
102
RTVSPropertyOp2
 70
     0
102
RTVSPropertyOp3
 70
     0
102
RTVSPropertyOp4
 70
     0
102
RTVSPropertyOp5
 70
     0
102
RTVSPropertyOp6
 70
     0
102
RTVSPropertyOp7
 70
     0
102
RTVSPropertyOp8
 70
     0
102
RTVSPropertyOp9
 70
     0
102
RTVSPropertyOp10
 70
     0
102
RTVSPropertyOp11
 70
     0
102
RTVSPropertyOp12
 70
     0
102
RTVSPropertyOp13
 70
     0
102
RTVSPropertyOp14
 70
     2
102
RTVSPropertyOp15
 70
     0
102
RTVSPropertyOp16
 70
     0
102
RTVSPropertyOp17
 70
     0
102
RTVSPropertyOp18
 70
     0
102
RTVSPropertyOp19
 70
     0
102
RTVSPropertyOp20
 70
     0
102
RTVSPropertyOp21
 70
     0
102
RTVSPropertyOp22
 70
     0
102
RTVSPropertyOp23
 70
     0
102
RTVSPropertyOp24
 70
     0
102
RTVSPropertyOp25
 70
     0
102
RTVSPropertyOp26
 70
     0
102
RTVSPropertyOp27
 70
     0
102
RTVSPropertyOp28
 70
     0
102
RTVSPropertyOp29
 70
     0
102
RTVSPropertyOp30
 70
     0
102
RTVSPropertyOp31
 70
     0
102
RTVSPropertyOp32
 70
     0
  0
XRECORD
  5
7EE
102
{ACAD_REACTORS
330
7ED
102
}
330
7ED
100
AcDbXrecord
280
     1
102
RTVSPropertyOp0
 70
     1
102
RTVSPropertyOp1
 70
     1
102
RTVSPropertyOp2
 70
     1
102
RTVSPropertyOp3
 70
     1
102
RTVSPropertyOp4
 70
     1
102
RTVSPropertyOp5
 70
     1
102
RTVSPropertyOp6
 70
     1
102
RTVSPropertyOp7
 70
     1
102
RTVSPropertyOp8
 70
     1
102
RTVSPropertyOp9
 70
     1
102
RTVSPropertyOp10
 70
     1
102
RTVSPropertyOp11
 70
     1
102
RTVSPropertyOp12
 70
     1
102
RTVSPropertyOp13
 70
     1
102
RTVSPropertyOp14
 70
     1
102
RTVSPropertyOp15
 70
     1
102
RTVSPropertyOp16
 70
     1
102
RTVSPropertyOp17
 70
     1
102
RTVSPropertyOp18
 70
     1
102
RTVSPropertyOp19
 70
     1
102
RTVSPropertyOp20
 70
     1
102
RTVSPropertyOp21
 70
     1
102
RTVSPropertyOp22
 70
     1
102
RTVSPropertyOp23
 70
     1
102
RTVSPropertyOp24
 70
     1
102
RTVSPropertyOp25
 70
     1
102
RTVSPropertyOp26
 70
     1
102
RTVSPropertyOp27
 70
     1
102
RTVSPropertyOp28
 70
     1
102
RTVSPropertyOp29
 70
     1
102
RTVSPropertyOp30
 70
     1
102
RTVSPropertyOp31
 70
     1
102
RTVSPropertyOp32
 70
     1
  0
XRECORD
  5
804
102
{ACAD_REACTORS
330
803
102
}
330
803
100
AcDbXrecord
280
     1
102
RTVSPropertyOp0
 70
     1
102
RTVSPropertyOp1
 70
     1
102
RTVSPropertyOp2
 70
     1
102
RTVSPropertyOp3
 70
     1
102
RTVSPropertyOp4
 70
     1
102
RTVSPropertyOp5
 70
     1
102
RTVSPropertyOp6
 70
     1
102
RTVSPropertyOp7
 70
     1
102
RTVSPropertyOp8
 70
     1
102
RTVSPropertyOp9
 70
     1
102
RTVSPropertyOp10
 70
     1
102
RTVSPropertyOp11
 70
     1
102
RTVSPropertyOp12
 70
     1
102
RTVSPropertyOp13
 70
     1
102
RTVSPropertyOp14
 70
     1
102
RTVSPropertyOp15
 70
     1
102
RTVSPropertyOp16
 70
     1
102
RTVSPropertyOp17
 70
     1
102
RTVSPropertyOp18
 70
     1
102
RTVSPropertyOp19
 70
     1
102
RTVSPropertyOp20
 70
     1
102
RTVSPropertyOp21
 70
     1
102
RTVSPropertyOp22
 70
     1
102
RTVSPropertyOp23
 70
     1
102
RTVSPropertyOp24
 70
     1
102
RTVSPropertyOp25
 70
     1
102
RTVSPropertyOp26
 70
     1
102
RTVSPropertyOp27
 70
     1
102
RTVSPropertyOp28
 70
     1
102
RTVSPropertyOp29
 70
     1
102
RTVSPropertyOp30
 70
     1
102
RTVSPropertyOp31
 70
     1
102
RTVSPropertyOp32
 70
     1
  0
XRECORD
  5
802
102
{ACAD_REACTORS
330
801
102
}
330
801
100
AcDbXrecord
280
     1
102
RTVSPropertyOp0
 70
     1
102
RTVSPropertyOp1
 70
     1
102
RTVSPropertyOp2
 70
     1
102
RTVSPropertyOp3
 70
     1
102
RTVSPropertyOp4
 70
     1
102
RTVSPropertyOp5
 70
     1
102
RTVSPropertyOp6
 70
     1
102
RTVSPropertyOp7
 70
     1
102
RTVSPropertyOp8
 70
     1
102
RTVSPropertyOp9
 70
     1
102
RTVSPropertyOp10
 70
     1
102
RTVSPropertyOp11
 70
     1
102
RTVSPropertyOp12
 70
     1
102
RTVSPropertyOp13
 70
     1
102
RTVSPropertyOp14
 70
     1
102
RTVSPropertyOp15
 70
     1
102
RTVSPropertyOp16
 70
     1
102
RTVSPropertyOp17
 70
     1
102
RTVSPropertyOp18
 70
     1
102
RTVSPropertyOp19
 70
     1
102
RTVSPropertyOp20
 70
     1
102
RTVSPropertyOp21
 70
     1
102
RTVSPropertyOp22
 70
     1
102
RTVSPropertyOp23
 70
     1
102
RTVSPropertyOp24
 70
     1
102
RTVSPropertyOp25
 70
     1
102
RTVSPropertyOp26
 70
     1
102
RTVSPropertyOp27
 70
     1
102
RTVSPropertyOp28
 70
     1
102
RTVSPropertyOp29
 70
     1
102
RTVSPropertyOp30
 70
     1
102
RTVSPropertyOp31
 70
     1
102
RTVSPropertyOp32
 70
     1
  0
XRECORD
  5
7FC
102
{ACAD_REACTORS
330
7FB
102
}
330
7FB
100
AcDbXrecord
280
     1
102
RTVSPropertyOp0
 70
     1
102
RTVSPropertyOp1
 70
     1
102
RTVSPropertyOp2
 70
     1
102
RTVSPropertyOp3
 70
     1
102
RTVSPropertyOp4
 70
     1
102
RTVSPropertyOp5
 70
     1
102
RTVSPropertyOp6
 70
     1
102
RTVSPropertyOp7
 70
     1
102
RTVSPropertyOp8
 70
     1
102
RTVSPropertyOp9
 70
     1
102
RTVSPropertyOp10
 70
     1
102
RTVSPropertyOp11
 70
     1
102
RTVSPropertyOp12
 70
     1
102
RTVSPropertyOp13
 70
     1
102
RTVSPropertyOp14
 70
     1
102
RTVSPropertyOp15
 70
     1
102
RTVSPropertyOp16
 70
     1
102
RTVSPropertyOp17
 70
     1
102
RTVSPropertyOp18
 70
     1
102
RTVSPropertyOp19
 70
     1
102
RTVSPropertyOp20
 70
     1
102
RTVSPropertyOp21
 70
     1
102
RTVSPropertyOp22
 70
     1
102
RTVSPropertyOp23
 70
     1
102
RTVSPropertyOp24
 70
     1
102
RTVSPropertyOp25
 70
     1
102
RTVSPropertyOp26
 70
     1
102
RTVSPropertyOp27
 70
     1
102
RTVSPropertyOp28
 70
     1
102
RTVSPropertyOp29
 70
     1
102
RTVSPropertyOp30
 70
     1
102
RTVSPropertyOp31
 70
     1
102
RTVSPropertyOp32
 70
     1
  0
XRECORD
  5
7FE
102
{ACAD_REACTORS
330
7FD
102
}
330
7FD
100
AcDbXrecord
280
     1
102
RTVSPropertyOp0
 70
     1
102
RTVSPropertyOp1
 70
     1
102
RTVSPropertyOp2
 70
     1
102
RTVSPropertyOp3
 70
     1
102
RTVSPropertyOp4
 70
     1
102
RTVSPropertyOp5
 70
     1
102
RTVSPropertyOp6
 70
     1
102
RTVSPropertyOp7
 70
     1
102
RTVSPropertyOp8
 70
     1
102
RTVSPropertyOp9
 70
     1
102
RTVSPropertyOp10
 70
     1
102
RTVSPropertyOp11
 70
     1
102
RTVSPropertyOp12
 70
     1
102
RTVSPropertyOp13
 70
     1
102
RTVSPropertyOp14
 70
     1
102
RTVSPropertyOp15
 70
     1
102
RTVSPropertyOp16
 70
     1
102
RTVSPropertyOp17
 70
     1
102
RTVSPropertyOp18
 70
     1
102
RTVSPropertyOp19
 70
     1
102
RTVSPropertyOp20
 70
     1
102
RTVSPropertyOp21
 70
     1
102
RTVSPropertyOp22
 70
     1
102
RTVSPropertyOp23
 70
     1
102
RTVSPropertyOp24
 70
     1
102
RTVSPropertyOp25
 70
     1
102
RTVSPropertyOp26
 70
     1
102
RTVSPropertyOp27
 70
     1
102
RTVSPropertyOp28
 70
     1
102
RTVSPropertyOp29
 70
     1
102
RTVSPropertyOp30
 70
     1
102
RTVSPropertyOp31
 70
     1
102
RTVSPropertyOp32
 70
     1
  0
XRECORD
  5
7F4
102
{ACAD_REACTORS
330
7F3
102
}
330
7F3
100
AcDbXrecord
280
     1
102
RTVSPropertyOp0
 70
     1
102
RTVSPropertyOp1
 70
     1
102
RTVSPropertyOp2
 70
     1
102
RTVSPropertyOp3
 70
     1
102
RTVSPropertyOp4
 70
     1
102
RTVSPropertyOp5
 70
     1
102
RTVSPropertyOp6
 70
     1
102
RTVSPropertyOp7
 70
     1
102
RTVSPropertyOp8
 70
     1
102
RTVSPropertyOp9
 70
     1
102
RTVSPropertyOp10
 70
     1
102
RTVSPropertyOp11
 70
     1
102
RTVSPropertyOp12
 70
     1
102
RTVSPropertyOp13
 70
     1
102
RTVSPropertyOp14
 70
     1
102
RTVSPropertyOp15
 70
     1
102
RTVSPropertyOp16
 70
     1
102
RTVSPropertyOp17
 70
     1
102
RTVSPropertyOp18
 70
     1
102
RTVSPropertyOp19
 70
     1
102
RTVSPropertyOp20
 70
     1
102
RTVSPropertyOp21
 70
     1
102
RTVSPropertyOp22
 70
     1
102
RTVSPropertyOp23
 70
     1
102
RTVSPropertyOp24
 70
     1
102
RTVSPropertyOp25
 70
     1
102
RTVSPropertyOp26
 70
     1
102
RTVSPropertyOp27
 70
     1
102
RTVSPropertyOp28
 70
     1
102
RTVSPropertyOp29
 70
     1
102
RTVSPropertyOp30
 70
     1
102
RTVSPropertyOp31
 70
     1
102
RTVSPropertyOp32
 70
     1
  0
XRECORD
  5
7E8
102
{ACAD_REACTORS
330
7E7
102
}
330
7E7
100
AcDbXrecord
280
     1
102
RTVSPropertyOp0
 70
     1
102
RTVSPropertyOp1
 70
     1
102
RTVSPropertyOp2
 70
     1
102
RTVSPropertyOp3
 70
     1
102
RTVSPropertyOp4
 70
     1
102
RTVSPropertyOp5
 70
     1
102
RTVSPropertyOp6
 70
     1
102
RTVSPropertyOp7
 70
     1
102
RTVSPropertyOp8
 70
     1
102
RTVSPropertyOp9
 70
     1
102
RTVSPropertyOp10
 70
     1
102
RTVSPropertyOp11
 70
     1
102
RTVSPropertyOp12
 70
     1
102
RTVSPropertyOp13
 70
     1
102
RTVSPropertyOp14
 70
     1
102
RTVSPropertyOp15
 70
     1
102
RTVSPropertyOp16
 70
     1
102
RTVSPropertyOp17
 70
     1
102
RTVSPropertyOp18
 70
     1
102
RTVSPropertyOp19
 70
     1
102
RTVSPropertyOp20
 70
     1
102
RTVSPropertyOp21
 70
     1
102
RTVSPropertyOp22
 70
     1
102
RTVSPropertyOp23
 70
     1
102
RTVSPropertyOp24
 70
     1
102
RTVSPropertyOp25
 70
     1
102
RTVSPropertyOp26
 70
     1
102
RTVSPropertyOp27
 70
     1
102
RTVSPropertyOp28
 70
     1
102
RTVSPropertyOp29
 70
     1
102
RTVSPropertyOp30
 70
     1
102
RTVSPropertyOp31
 70
     1
102
RTVSPropertyOp32
 70
     1
  0
XRECORD
  5
800
102
{ACAD_REACTORS
330
7FF
102
}
330
7FF
100
AcDbXrecord
280
     1
102
RTVSPropertyOp0
 70
     1
102
RTVSPropertyOp1
 70
     1
102
RTVSPropertyOp2
 70
     1
102
RTVSPropertyOp3
 70
     1
102
RTVSPropertyOp4
 70
     1
102
RTVSPropertyOp5
 70
     1
102
RTVSPropertyOp6
 70
     1
102
RTVSPropertyOp7
 70
     1
102
RTVSPropertyOp8
 70
     1
102
RTVSPropertyOp9
 70
     1
102
RTVSPropertyOp10
 70
     1
102
RTVSPropertyOp11
 70
     1
102
RTVSPropertyOp12
 70
     1
102
RTVSPropertyOp13
 70
     1
102
RTVSPropertyOp14
 70
     1
102
RTVSPropertyOp15
 70
     1
102
RTVSPropertyOp16
 70
     1
102
RTVSPropertyOp17
 70
     1
102
RTVSPropertyOp18
 70
     1
102
RTVSPropertyOp19
 70
     1
102
RTVSPropertyOp20
 70
     1
102
RTVSPropertyOp21
 70
     1
102
RTVSPropertyOp22
 70
     1
102
RTVSPropertyOp23
 70
     1
102
RTVSPropertyOp24
 70
     1
102
RTVSPropertyOp25
 70
     1
102
RTVSPropertyOp26
 70
     1
102
RTVSPropertyOp27
 70
     1
102
RTVSPropertyOp28
 70
     1
102
RTVSPropertyOp29
 70
     1
102
RTVSPropertyOp30
 70
     1
102
RTVSPropertyOp31
 70
     1
102
RTVSPropertyOp32
 70
     1
  0
ENDSEC
  0
EOF
