  0
SECTION
  2
HEADER
  9
$ACADVER
  1
AC1015
  9
$ACADMAINTVER
 70
    20
  9
$DWGCODEPAGE
  3
ANSI_1250
  9
$INSBASE
 10
0.0
 20
0.0
 30
0.0
  9
$EXTMIN
 10
13646.84657135817
 20
-15.71524430651483
 30
0.0
  9
$EXTMAX
 10
21415.63313141351
 20
10102.82331866702
 30
0.0
  9
$LIMMIN
 10
0.0
 20
0.0
  9
$LIMMAX
 10
14850.0
 20
10500.0
  9
$ORTHOMODE
 70
     0
  9
$REGENMODE
 70
     1
  9
$FILLMODE
 70
     1
  9
$QTEXTMODE
 70
     0
  9
$MIRRTEXT
 70
     0
  9
$LTSCALE
 40
50.0
  9
$ATTMODE
 70
     1
  9
$TEXTSIZE
 40
0.2
  9
$TRACEWID
 40
0.05
  9
$TEXTSTYLE
  7
Standard
  9
$CLAYER
  8
0
  9
$CELTYPE
  6
ByLayer
  9
$CECOLOR
 62
   256
  9
$CELTSCALE
 40
1.0
  9
$DISPSILH
 70
     0
  9
$DIMSCALE
 40
1.0
  9
$DIMASZ
 40
1.799999999999999
  9
$DIMEXO
 40
0.0625
  9
$DIMDLI
 40
0.38
  9
$DIMRND
 40
0.0
  9
$DIMDLE
 40
0.0
  9
$DIMEXE
 40
0.18
  9
$DIMTP
 40
0.0
  9
$DIMTM
 40
0.0
  9
$DIMTXT
 40
0.25
  9
$DIMCEN
 40
0.09
  9
$DIMTSZ
 40
0.0
  9
$DIMTOL
 70
     0
  9
$DIMLIM
 70
     0
  9
$DIMTIH
 70
     1
  9
$DIMTOH
 70
     1
  9
$DIMSE1
 70
     0
  9
$DIMSE2
 70
     0
  9
$DIMTAD
 70
     0
  9
$DIMZIN
 70
     0
  9
$DIMBLK
  1

  9
$DIMASO
 70
     1
  9
$DIMSHO
 70
     1
  9
$DIMPOST
  1

  9
$DIMAPOST
  1

  9
$DIMALT
 70
     0
  9
$DIMALTD
 70
     2
  9
$DIMALTF
 40
25.4
  9
$DIMLFAC
 40
1.0
  9
$DIMTOFL
 70
     0
  9
$DIMTVP
 40
0.0
  9
$DIMTIX
 70
     0
  9
$DIMSOXD
 70
     0
  9
$DIMSAH
 70
     0
  9
$DIMBLK1
  1

  9
$DIMBLK2
  1

  9
$DIMSTYLE
  2
Standard
  9
$DIMCLRD
 70
     0
  9
$DIMCLRE
 70
     0
  9
$DIMCLRT
 70
     0
  9
$DIMTFAC
 40
1.0
  9
$DIMGAP
 40
0.09
  9
$DIMJUST
 70
     0
  9
$DIMSD1
 70
     0
  9
$DIMSD2
 70
     0
  9
$DIMTOLJ
 70
     1
  9
$DIMTZIN
 70
     0
  9
$DIMALTZ
 70
     0
  9
$DIMALTTZ
 70
     0
  9
$DIMUPT
 70
     0
  9
$DIMDEC
 70
     4
  9
$DIMTDEC
 70
     4
  9
$DIMALTU
 70
     2
  9
$DIMALTTD
 70
     2
  9
$DIMTXSTY
  7
Standard
  9
$DIMAUNIT
 70
     0
  9
$DIMADEC
 70
     0
  9
$DIMALTRND
 40
0.0
  9
$DIMAZIN
 70
     0
  9
$DIMDSEP
 70
    46
  9
$DIMATFIT
 70
     3
  9
$DIMFRAC
 70
     0
  9
$DIMLDRBLK
  1

  9
$DIMLUNIT
 70
     2
  9
$DIMLWD
 70
    -2
  9
$DIMLWE
 70
    -2
  9
$DIMTMOVE
 70
     0
  9
$LUNITS
 70
     2
  9
$LUPREC
 70
     4
  9
$SKETCHINC
 40
0.1
  9
$FILLETRAD
 40
0.0
  9
$AUNITS
 70
     0
  9
$AUPREC
 70
     0
  9
$MENU
  1
.
  9
$ELEVATION
 40
0.0
  9
$PELEVATION
 40
0.0
  9
$THICKNESS
 40
0.0
  9
$LIMCHECK
 70
     0
  9
$CHAMFERA
 40
0.0
  9
$CHAMFERB
 40
0.0
  9
$CHAMFERC
 40
0.0
  9
$CHAMFERD
 40
0.0
  9
$SKPOLY
 70
     0
  9
$TDCREATE
 40
2459760.396339826
  9
$TDUCREATE
 40
2459760.313006493
  9
$TDUPDATE
 40
2459760.400288796
  9
$TDUUPDATE
 40
2459760.316955463
  9
$TDINDWG
 40
0.0011890394
  9
$TDUSRTIMER
 40
0.0011890394
  9
$USRTIMER
 70
     1
  9
$ANGBASE
 50
0.0
  9
$ANGDIR
 70
     0
  9
$PDMODE
 70
     0
  9
$PDSIZE
 40
0.0
  9
$PLINEWID
 40
0.0
  9
$SPLFRAME
 70
     0
  9
$SPLINETYPE
 70
     6
  9
$SPLINESEGS
 70
     8
  9
$HANDSEED
  5
1027
  9
$SURFTAB1
 70
     6
  9
$SURFTAB2
 70
     6
  9
$SURFTYPE
 70
     6
  9
$SURFU
 70
     6
  9
$SURFV
 70
     6
  9
$UCSBASE
  2

  9
$UCSNAME
  2

  9
$UCSORG
 10
0.0
 20
0.0
 30
0.0
  9
$UCSXDIR
 10
1.0
 20
0.0
 30
0.0
  9
$UCSYDIR
 10
0.0
 20
1.0
 30
0.0
  9
$UCSORTHOREF
  2

  9
$UCSORTHOVIEW
 70
     0
  9
$UCSORGTOP
 10
0.0
 20
0.0
 30
0.0
  9
$UCSORGBOTTOM
 10
0.0
 20
0.0
 30
0.0
  9
$UCSORGLEFT
 10
0.0
 20
0.0
 30
0.0
  9
$UCSORGRIGHT
 10
0.0
 20
0.0
 30
0.0
  9
$UCSORGFRONT
 10
0.0
 20
0.0
 30
0.0
  9
$UCSORGBACK
 10
0.0
 20
0.0
 30
0.0
  9
$PUCSBASE
  2

  9
$PUCSNAME
  2

  9
$PUCSORG
 10
0.0
 20
0.0
 30
0.0
  9
$PUCSXDIR
 10
1.0
 20
0.0
 30
0.0
  9
$PUCSYDIR
 10
0.0
 20
1.0
 30
0.0
  9
$PUCSORTHOREF
  2

  9
$PUCSORTHOVIEW
 70
     0
  9
$PUCSORGTOP
 10
0.0
 20
0.0
 30
0.0
  9
$PUCSORGBOTTOM
 10
0.0
 20
0.0
 30
0.0
  9
$PUCSORGLEFT
 10
0.0
 20
0.0
 30
0.0
  9
$PUCSORGRIGHT
 10
0.0
 20
0.0
 30
0.0
  9
$PUCSORGFRONT
 10
0.0
 20
0.0
 30
0.0
  9
$PUCSORGBACK
 10
0.0
 20
0.0
 30
0.0
  9
$USERI1
 70
     0
  9
$USERI2
 70
     0
  9
$USERI3
 70
     0
  9
$USERI4
 70
     0
  9
$USERI5
 70
     0
  9
$USERR1
 40
0.0
  9
$USERR2
 40
0.0
  9
$USERR3
 40
0.0
  9
$USERR4
 40
0.0
  9
$USERR5
 40
0.0
  9
$WORLDVIEW
 70
     1
  9
$SHADEDGE
 70
     3
  9
$SHADEDIF
 70
    70
  9
$TILEMODE
 70
     1
  9
$MAXACTVP
 70
    64
  9
$PINSBASE
 10
0.0
 20
0.0
 30
0.0
  9
$PLIMCHECK
 70
     0
  9
$PEXTMIN
 10
0.0
 20
0.0
 30
0.0
  9
$PEXTMAX
 10
14850.0
 20
10500.0
 30
0.0
  9
$PLIMMIN
 10
0.0
 20
0.0
  9
$PLIMMAX
 10
14850.0
 20
10500.0
  9
$UNITMODE
 70
     0
  9
$VISRETAIN
 70
     1
  9
$PLINEGEN
 70
     0
  9
$PSLTSCALE
 70
     1
  9
$TREEDEPTH
 70
  3020
  9
$CMLSTYLE
  2
Standard
  9
$CMLJUST
 70
     0
  9
$CMLSCALE
 40
1.0
  9
$PROXYGRAPHICS
 70
     1
  9
$MEASUREMENT
 70
     1
  9
$CELWEIGHT
370
    -1
  9
$ENDCAPS
280
     0
  9
$JOINSTYLE
280
     0
  9
$LWDISPLAY
290
     0
  9
$INSUNITS
 70
     4
  9
$HYPERLINKBASE
  1
www.muller.com.pl
  9
$STYLESHEET
  1

  9
$XEDIT
290
     1
  9
$CEPSNTYPE
380
     0
  9
$PSTYLEMODE
290
     1
  9
$FINGERPRINTGUID
  2
{8FDAD695-96B1-4EED-B10C-7089430C7897}
  9
$VERSIONGUID
  2
{F7182C29-3D78-4681-ADDC-4EB586623338}
  9
$EXTNAMES
290
     1
  9
$PSVPSCALE
 40
0.0
  9
$OLESTARTUP
290
     0
  0
ENDSEC
  0
SECTION
  2
CLASSES
  0
CLASS
  1
ACDBDICTIONARYWDFLT
  2
AcDbDictionaryWithDefault
  3
ObjectDBX Classes
 90
        0
280
     0
281
     0
  0
CLASS
  1
MATERIAL
  2
AcDbMaterial
  3
ObjectDBX Classes
 90
     1153
280
     0
281
     0
  0
CLASS
  1
VISUALSTYLE
  2
AcDbVisualStyle
  3
ObjectDBX Classes
 90
     4095
280
     0
281
     0
  0
CLASS
  1
SCALE
  2
AcDbScale
  3
ObjectDBX Classes
 90
     1153
280
     0
281
     0
  0
CLASS
  1
TABLESTYLE
  2
AcDbTableStyle
  3
ObjectDBX Classes
 90
     4095
280
     0
281
     0
  0
CLASS
  1
MLEADERSTYLE
  2
AcDbMLeaderStyle
  3
ACDB_MLEADERSTYLE_CLASS
 90
     4095
280
     0
281
     0
  0
CLASS
  1
CELLSTYLEMAP
  2
AcDbCellStyleMap
  3
ObjectDBX Classes
 90
     1152
280
     0
281
     0
  0
CLASS
  1
DICTIONARYVAR
  2
AcDbDictionaryVar
  3
ObjectDBX Classes
 90
        0
280
     0
281
     0
  0
CLASS
  1
ACDBPLACEHOLDER
  2
AcDbPlaceHolder
  3
ObjectDBX Classes
 90
        0
280
     0
281
     0
  0
CLASS
  1
LAYOUT
  2
AcDbLayout
  3
ObjectDBX Classes
 90
        0
280
     0
281
     0
  0
ENDSEC
  0
SECTION
  2
TABLES
  0
TABLE
  2
VPORT
  5
8
102
{ACAD_XDICTIONARY
360
D99
102
}
330
0
100
AcDbSymbolTable
 70
     1
  0
VPORT
  5
57
330
8
100
AcDbSymbolTableRecord
100
AcDbViewportTableRecord
  2
*Active
 70
     0
 10
0.0
 20
0.0
 11
1.0
 21
1.0
 12
18399.8497929931
 22
5166.31020667619
 13
0.0
 23
0.0
 14
1.0
 24
1.0
 15
0.0
 25
0.0
 16
0.0
 26
0.0
 36
1.0
 17
0.0
 27
0.0
 37
0.0
 40
11786.3833466884
 41
2.461439588688945
 42
50.0
 43
0.0
 44
0.0
 50
0.0
 51
0.0
 71
     0
 72
   100
 73
     1
 74
     1
 75
     0
 76
     0
 77
     0
 78
     0
281
     0
 65
     1
110
0.0
120
0.0
130
0.0
111
1.0
121
0.0
131
0.0
112
0.0
122
1.0
132
0.0
 79
     0
146
0.0
  0
ENDTAB
  0
TABLE
  2
LTYPE
  5
5
330
0
100
AcDbSymbolTable
 70
    59
  0
LTYPE
  5
5B
330
5
100
AcDbSymbolTableRecord
100
AcDbLinetypeTableRecord
  2
ByBlock
 70
     0
  3

 72
    65
 73
     0
 40
0.0
  0
LTYPE
  5
5C
330
5
100
AcDbSymbolTableRecord
100
AcDbLinetypeTableRecord
  2
ByLayer
 70
     0
  3

 72
    65
 73
     0
 40
0.0
  0
LTYPE
  5
5D
330
5
100
AcDbSymbolTableRecord
100
AcDbLinetypeTableRecord
  2
Continuous
 70
     0
  3
Solid line
 72
    65
 73
     0
 40
0.0
  0
ENDTAB
  0
TABLE
  2
LAYER
  5
2
330
0
100
AcDbSymbolTable
 70
     8
  0
LAYER
  5
54
330
2
100
AcDbSymbolTableRecord
100
AcDbLayerTableRecord
  2
0
 70
     0
 62
     7
  6
Continuous
370
    -3
390
F
  0
LAYER
  5
BA
330
2
100
AcDbSymbolTableRecord
100
AcDbLayerTableRecord
  2
Dimension (ISO)
 70
     0
 62
   161
  6
Continuous
370
    18
390
F
  0
LAYER
  5
C5
330
2
100
AcDbSymbolTableRecord
100
AcDbLayerTableRecord
  2
Title (ISO)
 70
     0
 62
     7
  6
Continuous
370
    30
390
F
  0
LAYER
  5
C8
330
2
100
AcDbSymbolTableRecord
100
AcDbLayerTableRecord
  2
Visible (ISO)
 70
     0
 62
     7
  6
Continuous
370
    35
390
F
  0
LAYER
  5
573
330
2
100
AcDbSymbolTableRecord
100
AcDbLayerTableRecord
  2
Defpoints
 70
     0
 62
     7
  6
Continuous
290
     0
370
    -3
390
F
  0
ENDTAB
  0
TABLE
  2
STYLE
  5
3
330
0
100
AcDbSymbolTable
 70
     7
  0
STYLE
  5
55
330
3
100
AcDbSymbolTableRecord
100
AcDbTextStyleTableRecord
  2
Standard
 70
     0
 40
0.0
 41
1.0
 50
0.0
 71
     0
 42
0.2
  3
tahoma.ttf
  4

1001
ACAD
1000
Tahoma
1071
      256
  0
STYLE
  5
CD
330
3
100
AcDbSymbolTableRecord
100
AcDbTextStyleTableRecord
  2
Label Text (ISO)
 70
     0
 40
0.0
 41
1.0
 50
0.0
 71
     0
 42
0.2
  3
tahoma.ttf
  4

1001
ACAD
1000
Tahoma
1071
      256
  0
STYLE
  5
CE
330
3
100
AcDbSymbolTableRecord
100
AcDbTextStyleTableRecord
  2
Note Text (ISO)
 70
     0
 40
0.0
 41
1.0
 50
0.0
 71
     0
 42
0.2
  3
tahoma.ttf
  4

1001
ACAD
1000
Tahoma
1071
      256
  0
ENDTAB
  0
TABLE
  2
VIEW
  5
6
330
0
100
AcDbSymbolTable
 70
     0
  0
ENDTAB
  0
TABLE
  2
UCS
  5
7
330
0
100
AcDbSymbolTable
 70
     0
  0
ENDTAB
  0
TABLE
  2
APPID
  5
9
330
0
100
AcDbSymbolTable
 70
     4
  0
APPID
  5
56
330
9
100
AcDbSymbolTableRecord
100
AcDbRegAppTableRecord
  2
ACAD
 70
     0
  0
APPID
  5
5E
330
9
100
AcDbSymbolTableRecord
100
AcDbRegAppTableRecord
  2
AcadAnnotative
 70
     0
  0
APPID
  5
56A
330
9
100
AcDbSymbolTableRecord
100
AcDbRegAppTableRecord
  2
AcadAnnoPO
 70
     0
  0
APPID
  5
DCF
330
9
100
AcDbSymbolTableRecord
100
AcDbRegAppTableRecord
  2
ACAD_MLEADERVER
 70
     0
  0
ENDTAB
  0
TABLE
  2
DIMSTYLE
  5
A
330
0
100
AcDbSymbolTable
 70
    12
100
AcDbDimStyleTable
 71
     2
340
D5
340
58
  0
DIMSTYLE
105
58
330
A
100
AcDbSymbolTableRecord
100
AcDbDimStyleTableRecord
  2
Standard
 70
     0
340
55
  0
DIMSTYLE
105
D5
102
{ACAD_REACTORS
330
572
330
655
330
73D
330
81F
330
907
330
9EC
330
AD1
330
BB6
330
C9B
102
}
330
A
100
AcDbSymbolTableRecord
100
AcDbDimStyleTableRecord
  2
Default (ISO)
 70
     0
 40
50.0
 41
2.5
 42
0.5
 43
5.999999999999999
 44
1.0
 45
0.00000001
 46
10.0
 73
     0
 77
     1
 78
     8
 79
     2
140
3.5
143
0.03937
146
0.7142857313156128
147
0.762
171
     3
172
     1
176
   256
177
   256
178
   256
271
     2
272
     2
274
     3
278
    44
340
CD
371
    -1
372
    -1
  0
ENDTAB
  0
TABLE
  2
BLOCK_RECORD
  5
1
330
0
100
AcDbSymbolTable
 70
    18
  0
BLOCK_RECORD
  5
6C
330
1
100
AcDbSymbolTableRecord
100
AcDbBlockTableRecord
  2
*Model_Space
340
6F
  0
BLOCK_RECORD
  5
68
330
1
100
AcDbSymbolTableRecord
100
AcDbBlockTableRecord
  2
*Paper_Space
340
6B
  0
BLOCK_RECORD
  5
70
330
1
100
AcDbSymbolTableRecord
100
AcDbBlockTableRecord
  2
*Paper_Space0
340
73
  0
BLOCK_RECORD
  5
562
330
1
100
AcDbSymbolTableRecord
100
AcDbBlockTableRecord
  2
Tabelki rysunkowe Rzut
340
0
102
{BLKREFS
331
56D
102
}
  0
BLOCK_RECORD
  5
574
330
1
100
AcDbSymbolTableRecord
100
AcDbBlockTableRecord
  2
*D8
340
0
  0
BLOCK_RECORD
  5
656
330
1
100
AcDbSymbolTableRecord
100
AcDbBlockTableRecord
  2
*D9
340
0
  0
BLOCK_RECORD
  5
73E
330
1
100
AcDbSymbolTableRecord
100
AcDbBlockTableRecord
  2
*D10
340
0
  0
BLOCK_RECORD
  5
820
330
1
100
AcDbSymbolTableRecord
100
AcDbBlockTableRecord
  2
*D11
340
0
  0
BLOCK_RECORD
  5
908
330
1
100
AcDbSymbolTableRecord
100
AcDbBlockTableRecord
  2
*D12
340
0
  0
BLOCK_RECORD
  5
9ED
330
1
100
AcDbSymbolTableRecord
100
AcDbBlockTableRecord
  2
*D13
340
0
  0
BLOCK_RECORD
  5
AD2
330
1
100
AcDbSymbolTableRecord
100
AcDbBlockTableRecord
  2
*D14
340
0
  0
BLOCK_RECORD
  5
BB7
330
1
100
AcDbSymbolTableRecord
100
AcDbBlockTableRecord
  2
*D15
340
0
  0
BLOCK_RECORD
  5
C9C
330
1
100
AcDbSymbolTableRecord
100
AcDbBlockTableRecord
  2
*D16
340
0
  0
BLOCK_RECORD
  5
DED
330
1
100
AcDbSymbolTableRecord
100
AcDbBlockTableRecord
  2
87003_Street-Workout-Fit-3
340
0
310
2800000020000000200000000100080000000000000400000000000000000000000000000000000000000000000080000080000000808000800000008000800080800000C0C0C000C0DCC000F0CAA6000020400000206000002080000020A0000020C0000020E00000400000004020000040400000406000004080000040A0
310
000040C0000040E00000600000006020000060400000606000006080000060A0000060C0000060E00000800000008020000080400000806000008080000080A0000080C0000080E00000A0000000A0200000A0400000A0600000A0800000A0A00000A0C00000A0E00000C0000000C0200000C0400000C0600000C0800000C0
310
A00000C0C00000C0E00000E0000000E0200000E0400000E0600000E0800000E0A00000E0C00000E0E00040000000400020004000400040006000400080004000A0004000C0004000E00040200000402020004020400040206000402080004020A0004020C0004020E000404000004040200040404000404060004040800040
310
40A0004040C0004040E00040600000406020004060400040606000406080004060A0004060C0004060E00040800000408020004080400040806000408080004080A0004080C0004080E00040A0000040A0200040A0400040A0600040A0800040A0A00040A0C00040A0E00040C0000040C0200040C0400040C0600040C08000
310
40C0A00040C0C00040C0E00040E0000040E0200040E0400040E0600040E0800040E0A00040E0C00040E0E00080000000800020008000400080006000800080008000A0008000C0008000E00080200000802020008020400080206000802080008020A0008020C0008020E00080400000804020008040400080406000804080
310
008040A0008040C0008040E00080600000806020008060400080606000806080008060A0008060C0008060E00080800000808020008080400080806000808080008080A0008080C0008080E00080A0000080A0200080A0400080A0600080A0800080A0A00080A0C00080A0E00080C0000080C0200080C0400080C0600080C0
310
800080C0A00080C0C00080C0E00080E0000080E0200080E0400080E0600080E0800080E0A00080E0C00080E0E000C0000000C0002000C0004000C0006000C0008000C000A000C000C000C000E000C0200000C0202000C0204000C0206000C0208000C020A000C020C000C020E000C0400000C0402000C0404000C0406000C0
310
408000C040A000C040C000C040E000C0600000C0602000C0604000C0606000C0608000C060A000C060C000C060E000C0800000C0802000C0804000C0806000C0808000C080A000C080C000C080E000C0A00000C0A02000C0A04000C0A06000C0A08000C0A0A000C0A0C000C0A0E000C0C00000C0C02000C0C04000C0C06000
310
C0C08000C0C0A000F0FBFF00A4A0A000808080000000FF0000FF000000FFFF00FF000000FF00FF00FFFF0000FFFFFF0049494949494949494949494949494949494949494949494949494949494949494949494949494949494949494949494949494949494949494949494949494949494949494949494949494949494949
310
494949494949494949494949494949494949494949494949494949494949494949494949494949494949494949494949494949494949494949494949494949494949494949494949494949494949494949494949494949494949494949494949494949494949494949494949494949494949494949494949494949FFFFFFFF
310
FFFFFFFFFFFFFFFFFFFFFFFFFF4949494949494949494949494949FF4949494949494949494949494949494949FF494949494949494949FFFFFFFF49494949494949494949494949494949494949FF49494949494949FF494949494949494949494949494949494949494949494949FF4949494949FF494949494949494949
310
49494949494949494949494949494949FF49494949FF494949494949494949494949494949494949494949494949494949FF494949FF494949494949494949FFFFFFFFFFFFFFFFFFFFFFFFFF4949494949FF494949FF494949494949494949494949494949494949494949494949494949FF4949FF4949494949FFFFFFFFFF
310
FFFFFFFFFFFFFFFFFFFFFFFFFF4949494949FF4949FF4949494949FFFF494949FFFF49494949494949494949494949494949FF4949FF4949494949FFFF494949FFFF494949494949494949494949494949FF494949FF4949494949FFFF494949FFFF494949494949494949494949494949FF494949FF4949494949FFFF4949
310
49FFFF4949494949494949494949494949FF49494949FF4949494949FFFFFFFFFFFFFF49494949494949494949494949FF494949494949FF494949494949494949494949494949FFFFFFFFFFFFFFFFFF49494949494949FF494949494949494949494949494949FF494949494949494949494949494949FF49494949494949
310
4949494949494949FF494949494949494949494949494949FFFF49494949494949494949494949FF494949494949494949494949494949494949FF4949494949494949494949FF4949494949494949494949494949494949494949FFFFFFFFFFFFFFFFFFFFFF49494949494949494949494949494949494949494949494949
310
49494949494949494949494949494949494949494949494949494949494949494949494949494949494949494949494949494949494949494949494949494949494949494949494949494949494949494949494949494949494949494949494949494949494949494949494949494949494949494949494949494949494949
310
4949494949494949494949494949494949494949494949494949494949494949494949494949494949494949494949494949494949494949
102
{BLKREFS
331
FDC
102
}
1001
ACAD
1000
DesignCenter Data
1002
{
1070
     1
1070
     4
1002
}
  0
ENDTAB
  0
ENDSEC
  0
SECTION
  2
BLOCKS
  0
BLOCK
  5
6D
330
6C
100
AcDbEntity
  8
0
100
AcDbBlockBegin
  2
*Model_Space
 70
     0
 10
0.0
 20
0.0
 30
0.0
  3
*Model_Space
  1

  0
ENDBLK
  5
6E
330
6C
100
AcDbEntity
  8
0
100
AcDbBlockEnd
  0
BLOCK
  5
69
330
68
100
AcDbEntity
 67
     1
  8
0
100
AcDbBlockBegin
  2
*Paper_Space
 70
     0
 10
0.0
 20
0.0
 30
0.0
  3
*Paper_Space
  1

  0
ENDBLK
  5
6A
330
68
100
AcDbEntity
 67
     1
  8
0
100
AcDbBlockEnd
  0
BLOCK
  5
71
330
70
100
AcDbEntity
 67
     1
  8
0
100
AcDbBlockBegin
  2
*Paper_Space0
 70
     0
 10
0.0
 20
0.0
 30
0.0
  3
*Paper_Space0
  1

  0
ENDBLK
  5
72
330
70
100
AcDbEntity
 67
     1
  8
0
100
AcDbBlockEnd
  0
BLOCK
  5
563
330
562
100
AcDbEntity
  8
0
100
AcDbBlockBegin
  2
Tabelki rysunkowe Rzut
 70
     2
 10
0.0
 20
0.0
 30
0.0
  3
Tabelki rysunkowe Rzut
  1

  0
TEXT
  5
565
330
562
100
AcDbEntity
  8
Title (ISO)
100
AcDbText
 10
166.7768162971836
 20
11.24130542460445
 30
0.0
 40
2.5
  1
Obowiązuje od:
  7
Note Text (ISO)
 11
166.7768162971836
 21
13.74130542460445
 31
0.0
100
AcDbText
 73
     3
  0
TEXT
  5
567
330
562
100
AcDbEntity
  8
Title (ISO)
100
AcDbText
 10
166.7768162971836
 20
18.24130542460445
 30
0.0
 40
2.5
  1
Nr kat.:
  7
Note Text (ISO)
 11
166.7768162971836
 21
20.74130542460446
 31
0.0
100
AcDbText
 73
     3
  0
TEXT
  5
568
330
562
100
AcDbEntity
  8
Title (ISO)
100
AcDbText
 10
166.7768162971836
 20
14.74130542460445
 30
0.0
 40
2.5
  1
Nazwa:
  7
Note Text (ISO)
 11
166.7768162971836
 21
17.24130542460445
 31
0.0
100
AcDbText
 73
     3
  0
ATTDEF
  5
569
102
{ACAD_XDICTIONARY
360
D85
102
}
330
562
100
AcDbEntity
  8
Title (ISO)
100
AcDbText
 10
178.5283273792489
 20
18.12713485684115
 30
0.0
 40
2.5
  1
87003
  7
Note Text (ISO)
100
AcDbAttributeDefinition
  3
Numer katalogowy
  2
Numer_katalogowy_001
 70
     0
  0
ATTDEF
  5
56B
102
{ACAD_XDICTIONARY
360
D88
102
}
330
562
100
AcDbEntity
  8
Title (ISO)
100
AcDbText
 10
190.4107988369825
 20
11.13720873189256
 30
0.0
 40
2.5
  1
2022-06-29
  7
Note Text (ISO)
100
AcDbAttributeDefinition
  3
DATA UTWORZENIA
  2
DATA_UTWORZENIA_001
 70
     0
  0
ATTDEF
  5
56C
102
{ACAD_XDICTIONARY
360
D8B
102
}
330
562
100
AcDbEntity
  8
Title (ISO)
100
AcDbText
 10
178.5182535041975
 20
14.5163222312757
 30
0.0
 40
2.5
  1
Street Workout Fit 3
  7
Note Text (ISO)
100
AcDbAttributeDefinition
  3
Nazwa
  2
Nazwa_001
 70
     0
  0
ENDBLK
  5
564
330
562
100
AcDbEntity
  8
0
100
AcDbBlockEnd
  0
BLOCK
  5
575
330
574
100
AcDbEntity
  8
0
100
AcDbBlockBegin
  2
*D8
 70
     1
 10
0.0
 20
0.0
 30
0.0
  3
*D8
  1

  0
LINE
  5
64C
330
574
100
AcDbEntity
  8
Dimension (ISO)
100
AcDbLine
 10
19915.63313141206
 20
2885.495647104195
 30
0.0
 11
19915.63313141206
 21
2327.345647104546
 31
0.0
  0
LINE
  5
64D
330
574
100
AcDbEntity
  8
Dimension (ISO)
100
AcDbLine
 10
15785.63313141206
 20
3420.345647104546
 30
0.0
 11
15785.63313141206
 21
2327.345647104546
 31
0.0
  0
LINE
  5
64E
330
574
100
AcDbEntity
  8
Dimension (ISO)
100
AcDbLine
 10
19790.63313141206
 20
2377.345647104545
 30
0.0
 11
15910.63313141206
 21
2377.345647104545
 31
0.0
  0
SOLID
  5
64F
330
574
100
AcDbEntity
  8
Dimension (ISO)
100
AcDbTrace
 10
19790.63313141206
 20
2398.178980437879
 30
0.0
 11
19790.63313141206
 21
2356.512313771212
 31
0.0
 12
19915.63313141206
 22
2377.345647104545
 32
0.0
 13
19915.63313141206
 23
2377.345647104545
 33
0.0
  0
SOLID
  5
650
330
574
100
AcDbEntity
  8
Dimension (ISO)
100
AcDbTrace
 10
15910.63313141206
 20
2398.178980437879
 30
0.0
 11
15910.63313141206
 21
2356.512313771212
 31
0.0
 12
15785.63313141206
 22
2377.345647104545
 32
0.0
 13
15785.63313141206
 23
2377.345647104545
 33
0.0
  0
MTEXT
  5
651
330
574
100
AcDbEntity
  8
Dimension (ISO)
100
AcDbMText
 10
17850.63313141207
 20
2597.732415570838
 30
0.0
 40
175.0
 41
0.0
 71
     2
 72
     1
  1
\A1;4130
  7
Label Text (ISO)
 73
     1
 44
1.0
1001
ACAD
1000
MTEXTBEGIN
1070
    73
1070
     1
1070
    44
1040
1.0
1070
    74
1070
     0
1000
MTEXTEND
  0
POINT
  5
652
330
574
100
AcDbEntity
  8
Defpoints
 62
     0
100
AcDbPoint
 10
19915.63313141206
 20
2910.495647104195
 30
0.0
  0
POINT
  5
653
330
574
100
AcDbEntity
  8
Defpoints
 62
     0
100
AcDbPoint
 10
15785.63313141206
 20
3445.345647104546
 30
0.0
  0
POINT
  5
654
330
574
100
AcDbEntity
  8
Defpoints
 62
     0
100
AcDbPoint
 10
15785.63313141206
 20
2377.345647104545
 30
0.0
  0
ENDBLK
  5
576
330
574
100
AcDbEntity
  8
0
100
AcDbBlockEnd
  0
BLOCK
  5
657
330
656
100
AcDbEntity
  8
0
100
AcDbBlockBegin
  2
*D9
 70
     1
 10
0.0
 20
0.0
 30
0.0
  3
*D9
  1

  0
LINE
  5
734
330
656
100
AcDbEntity
  8
Dimension (ISO)
100
AcDbLine
 10
19687.63313141206
 20
2892.345647104214
 30
0.0
 11
20391.0069102262
 21
2892.345647104214
 31
0.0
  0
LINE
  5
735
330
656
100
AcDbEntity
  8
Dimension (ISO)
100
AcDbLine
 10
17147.63313141206
 20
4782.345647104544
 30
0.0
 11
20391.0069102262
 21
4782.345647104543
 31
0.0
  0
LINE
  5
736
330
656
100
AcDbEntity
  8
Dimension (ISO)
100
AcDbLine
 10
20341.0069102262
 20
3017.345647104214
 30
0.0
 11
20341.0069102262
 21
4657.345647104543
 31
0.0
  0
SOLID
  5
737
330
656
100
AcDbEntity
  8
Dimension (ISO)
100
AcDbTrace
 10
20320.17357689287
 20
3017.345647104214
 30
0.0
 11
20361.84024355953
 21
3017.345647104214
 31
0.0
 12
20341.0069102262
 22
2892.345647104214
 32
0.0
 13
20341.0069102262
 23
2892.345647104214
 33
0.0
  0
SOLID
  5
738
330
656
100
AcDbEntity
  8
Dimension (ISO)
100
AcDbTrace
 10
20320.17357689287
 20
4657.345647104543
 30
0.0
 11
20361.84024355953
 21
4657.345647104543
 31
0.0
 12
20341.0069102262
 22
4782.345647104543
 32
0.0
 13
20341.0069102262
 23
4782.345647104543
 33
0.0
  0
MTEXT
  5
739
330
656
100
AcDbEntity
  8
Dimension (ISO)
100
AcDbMText
 10
20119.91497050859
 20
3837.34564710438
 30
0.0
 40
175.0
 41
0.0
 71
     2
 72
     1
  1
\A1;1890
  7
Label Text (ISO)
 11
0.0000000000000001
 21
1.0
 31
0.0
 73
     1
 44
1.0
1001
ACAD
1000
MTEXTBEGIN
1070
    73
1070
     1
1070
    44
1040
1.0
1070
    74
1070
     0
1000
MTEXTEND
  0
POINT
  5
73A
330
656
100
AcDbEntity
  8
Defpoints
 62
     0
100
AcDbPoint
 10
19662.63313141206
 20
2892.345647104214
 30
0.0
  0
POINT
  5
73B
330
656
100
AcDbEntity
  8
Defpoints
 62
     0
100
AcDbPoint
 10
17122.63313141206
 20
4782.345647104544
 30
0.0
  0
POINT
  5
73C
330
656
100
AcDbEntity
  8
Defpoints
 62
     0
100
AcDbPoint
 10
20341.0069102262
 20
4782.345647104543
 30
0.0
  0
ENDBLK
  5
658
330
656
100
AcDbEntity
  8
0
100
AcDbBlockEnd
  0
BLOCK
  5
73F
330
73E
100
AcDbEntity
  8
0
100
AcDbBlockBegin
  2
*D10
 70
     1
 10
0.0
 20
0.0
 30
0.0
  3
*D10
  1

  0
LINE
  5
816
330
73E
100
AcDbEntity
  8
Dimension (ISO)
100
AcDbLine
 10
14285.63313141206
 20
3417.34564710386
 30
0.0
 11
14285.63313141206
 21
932.4900258883662
 31
0.0
  0
LINE
  5
817
330
73E
100
AcDbEntity
  8
Dimension (ISO)
100
AcDbLine
 10
21415.63313141206
 20
2867.345647103855
 30
0.0
 11
21415.63313141206
 21
932.4900258883662
 31
0.0
  0
LINE
  5
818
330
73E
100
AcDbEntity
  8
Dimension (ISO)
100
AcDbLine
 10
14410.63313141206
 20
982.4900258883664
 30
0.0
 11
21290.63313141206
 21
982.4900258883664
 31
0.0
  0
SOLID
  5
819
330
73E
100
AcDbEntity
  8
Dimension (ISO)
100
AcDbTrace
 10
14410.63313141206
 20
1003.3233592217
 30
0.0
 11
14410.63313141206
 21
961.656692555033
 31
0.0
 12
14285.63313141206
 22
982.4900258883664
 32
0.0
 13
14285.63313141206
 23
982.4900258883664
 33
0.0
  0
SOLID
  5
81A
330
73E
100
AcDbEntity
  8
Dimension (ISO)
100
AcDbTrace
 10
21290.63313141206
 20
1003.3233592217
 30
0.0
 11
21290.63313141206
 21
961.656692555033
 31
0.0
 12
21415.63313141206
 22
982.4900258883664
 32
0.0
 13
21415.63313141206
 23
982.4900258883664
 33
0.0
  0
MTEXT
  5
81B
330
73E
100
AcDbEntity
  8
Dimension (ISO)
100
AcDbMText
 10
17850.63313141206
 20
1202.876794354659
 30
0.0
 40
175.0
 41
0.0
 71
     2
 72
     1
  1
\A1;7130
  7
Label Text (ISO)
 73
     1
 44
1.0
1001
ACAD
1000
MTEXTBEGIN
1070
    73
1070
     1
1070
    44
1040
1.0
1070
    74
1070
     0
1000
MTEXTEND
  0
POINT
  5
81C
330
73E
100
AcDbEntity
  8
Defpoints
 62
     0
100
AcDbPoint
 10
14285.63313141206
 20
3442.34564710386
 30
0.0
  0
POINT
  5
81D
330
73E
100
AcDbEntity
  8
Defpoints
 62
     0
100
AcDbPoint
 10
21415.63313141206
 20
2892.345647103855
 30
0.0
  0
POINT
  5
81E
330
73E
100
AcDbEntity
  8
Defpoints
 62
     0
100
AcDbPoint
 10
21415.63313141206
 20
982.4900258883664
 30
0.0
  0
ENDBLK
  5
740
330
73E
100
AcDbEntity
  8
0
100
AcDbBlockEnd
  0
BLOCK
  5
821
330
820
100
AcDbEntity
  8
0
100
AcDbBlockBegin
  2
*D11
 70
     1
 10
0.0
 20
0.0
 30
0.0
  3
*D11
  1

  0
LINE
  5
8FE
330
820
100
AcDbEntity
  8
Dimension (ISO)
100
AcDbLine
 10
17030.63313141206
 20
1392.345647103854
 30
0.0
 11
13881.75650973259
 21
1392.345647103855
 31
0.0
  0
LINE
  5
8FF
330
820
100
AcDbEntity
  8
Dimension (ISO)
100
AcDbLine
 10
15760.63313141206
 20
6282.345647103858
 30
0.0
 11
13881.7565097326
 21
6282.345647103859
 31
0.0
  0
LINE
  5
900
330
820
100
AcDbEntity
  8
Dimension (ISO)
100
AcDbLine
 10
13931.7565097326
 20
1517.345647103855
 30
0.0
 11
13931.7565097326
 21
6157.345647103859
 31
0.0
  0
SOLID
  5
901
330
820
100
AcDbEntity
  8
Dimension (ISO)
100
AcDbTrace
 10
13910.92317639926
 20
1517.345647103855
 30
0.0
 11
13952.58984306593
 21
1517.345647103855
 31
0.0
 12
13931.7565097326
 22
1392.345647103855
 32
0.0
 13
13931.7565097326
 23
1392.345647103855
 33
0.0
  0
SOLID
  5
902
330
820
100
AcDbEntity
  8
Dimension (ISO)
100
AcDbTrace
 10
13910.92317639926
 20
6157.345647103859
 30
0.0
 11
13952.58984306593
 21
6157.345647103859
 31
0.0
 12
13931.7565097326
 22
6282.345647103859
 32
0.0
 13
13931.7565097326
 23
6282.345647103859
 33
0.0
  0
MTEXT
  5
903
330
820
100
AcDbEntity
  8
Dimension (ISO)
100
AcDbMText
 10
13710.66457001498
 20
3837.345647103882
 30
0.0
 40
175.0
 41
0.0
 71
     2
 72
     1
  1
\A1;4890
  7
Label Text (ISO)
 11
0.0000000000000001
 21
1.0
 31
0.0
 73
     1
 44
1.0
1001
ACAD
1000
MTEXTBEGIN
1070
    73
1070
     1
1070
    44
1040
1.0
1070
    74
1070
     0
1000
MTEXTEND
  0
POINT
  5
904
330
820
100
AcDbEntity
  8
Defpoints
 62
     0
100
AcDbPoint
 10
17055.63313141206
 20
1392.345647103854
 30
0.0
  0
POINT
  5
905
330
820
100
AcDbEntity
  8
Defpoints
 62
     0
100
AcDbPoint
 10
15785.63313141206
 20
6282.345647103858
 30
0.0
  0
POINT
  5
906
330
820
100
AcDbEntity
  8
Defpoints
 62
     0
100
AcDbPoint
 10
13931.7565097326
 20
6282.345647103859
 30
0.0
  0
ENDBLK
  5
822
330
820
100
AcDbEntity
  8
0
100
AcDbBlockEnd
  0
BLOCK
  5
909
330
908
100
AcDbEntity
  8
0
100
AcDbBlockBegin
  2
*D12
 70
     1
 10
0.0
 20
0.0
 30
0.0
  3
*D12
  1

  0
LINE
  5
9E4
330
908
100
AcDbEntity
  8
Dimension (ISO)
100
AcDbLine
 10
15545.63313141351
 20
7089.823318667019
 30
0.0
 11
14842.56963062728
 21
7089.823318667019
 31
0.0
  0
LINE
  5
9E5
330
908
100
AcDbEntity
  8
Dimension (ISO)
100
AcDbLine
 10
14892.56963062728
 20
7664.82331866702
 30
0.0
 11
14892.56963062728
 21
7214.823318667019
 31
0.0
  0
SOLID
  5
9E6
330
908
100
AcDbEntity
  8
Dimension (ISO)
100
AcDbTrace
 10
14871.73629729394
 20
7664.82331866702
 30
0.0
 11
14913.40296396061
 21
7664.82331866702
 31
0.0
 12
14892.56963062728
 22
7789.82331866702
 32
0.0
 13
14892.56963062728
 23
7789.82331866702
 33
0.0
  0
SOLID
  5
9E7
330
908
100
AcDbEntity
  8
Dimension (ISO)
100
AcDbTrace
 10
14871.73629729394
 20
7214.823318667019
 30
0.0
 11
14913.40296396061
 21
7214.823318667019
 31
0.0
 12
14892.56963062728
 22
7089.823318667019
 32
0.0
 13
14892.56963062728
 23
7089.823318667019
 33
0.0
  0
MTEXT
  5
9E8
330
908
100
AcDbEntity
  8
Dimension (ISO)
100
AcDbMText
 10
14672.30039070287
 20
7439.82331866702
 30
0.0
 40
175.0
 41
0.0
 71
     2
 72
     1
  1
\A1;700
  7
Label Text (ISO)
 11
0.0000000000000001
 21
1.0
 31
0.0
 73
     1
 44
1.0
1001
ACAD
1000
MTEXTBEGIN
1070
    73
1070
     1
1070
    44
1040
1.0
1070
    74
1070
     0
1000
MTEXTEND
  0
POINT
  5
9E9
330
908
100
AcDbEntity
  8
Defpoints
 62
     0
100
AcDbPoint
 10
15035.63313141351
 20
7789.82331866702
 30
0.0
  0
POINT
  5
9EA
330
908
100
AcDbEntity
  8
Defpoints
 62
     0
100
AcDbPoint
 10
15570.63313141351
 20
7089.823318667019
 30
0.0
  0
POINT
  5
9EB
330
908
100
AcDbEntity
  8
Defpoints
 62
     0
100
AcDbPoint
 10
14892.56963062728
 20
7089.823318667019
 30
0.0
  0
ENDBLK
  5
90A
330
908
100
AcDbEntity
  8
0
100
AcDbBlockEnd
  0
BLOCK
  5
9EE
330
9ED
100
AcDbEntity
  8
0
100
AcDbBlockBegin
  2
*D13
 70
     1
 10
0.0
 20
0.0
 30
0.0
  3
*D13
  1

  0
LINE
  5
AC9
330
9ED
100
AcDbEntity
  8
Dimension (ISO)
100
AcDbLine
 10
15725.63313141351
 20
7239.82331866702
 30
0.0
 11
15259.71275455866
 21
7239.82331866702
 31
0.0
  0
LINE
  5
ACA
330
9ED
100
AcDbEntity
  8
Dimension (ISO)
100
AcDbLine
 10
15309.71275455866
 20
7364.82331866702
 30
0.0
 11
15309.71275455866
 21
7664.82331866702
 31
0.0
  0
SOLID
  5
ACB
330
9ED
100
AcDbEntity
  8
Dimension (ISO)
100
AcDbTrace
 10
15288.87942122532
 20
7364.82331866702
 30
0.0
 11
15330.54608789199
 21
7364.82331866702
 31
0.0
 12
15309.71275455866
 22
7239.82331866702
 32
0.0
 13
15309.71275455866
 23
7239.82331866702
 33
0.0
  0
SOLID
  5
ACC
330
9ED
100
AcDbEntity
  8
Dimension (ISO)
100
AcDbTrace
 10
15288.87942122532
 20
7664.82331866702
 30
0.0
 11
15330.54608789199
 21
7664.82331866702
 31
0.0
 12
15309.71275455866
 22
7789.82331866702
 32
0.0
 13
15309.71275455866
 23
7789.82331866702
 33
0.0
  0
MTEXT
  5
ACD
330
9ED
100
AcDbEntity
  8
Dimension (ISO)
100
AcDbMText
 10
15089.44351463425
 20
7514.823318667019
 30
0.0
 40
175.0
 41
0.0
 71
     2
 72
     1
  1
\A1;550
  7
Label Text (ISO)
 11
0.0000000000000001
 21
1.0
 31
0.0
 73
     1
 44
1.0
1001
ACAD
1000
MTEXTBEGIN
1070
    73
1070
     1
1070
    44
1040
1.0
1070
    74
1070
     0
1000
MTEXTEND
  0
POINT
  5
ACE
330
9ED
100
AcDbEntity
  8
Defpoints
 62
     0
100
AcDbPoint
 10
15750.63313141351
 20
7239.82331866702
 30
0.0
  0
POINT
  5
ACF
330
9ED
100
AcDbEntity
  8
Defpoints
 62
     0
100
AcDbPoint
 10
15035.63313141351
 20
7789.82331866702
 30
0.0
  0
POINT
  5
AD0
330
9ED
100
AcDbEntity
  8
Defpoints
 62
     0
100
AcDbPoint
 10
15309.71275455866
 20
7789.82331866702
 30
0.0
  0
ENDBLK
  5
9EF
330
9ED
100
AcDbEntity
  8
0
100
AcDbBlockEnd
  0
BLOCK
  5
AD3
330
AD2
100
AcDbEntity
  8
0
100
AcDbBlockBegin
  2
*D14
 70
     1
 10
0.0
 20
0.0
 30
0.0
  3
*D14
  1

  0
LINE
  5
BAE
330
AD2
100
AcDbEntity
  8
Dimension (ISO)
100
AcDbLine
 10
15835.63313141351
 20
9552.173318667017
 30
0.0
 11
15259.71275455866
 21
9552.173318667017
 31
0.0
  0
LINE
  5
BAF
330
AD2
100
AcDbEntity
  8
Dimension (ISO)
100
AcDbLine
 10
15309.71275455866
 20
7914.82331866702
 30
0.0
 11
15309.71275455866
 21
9427.173318667017
 31
0.0
  0
SOLID
  5
BB0
330
AD2
100
AcDbEntity
  8
Dimension (ISO)
100
AcDbTrace
 10
15288.87942122532
 20
7914.82331866702
 30
0.0
 11
15330.54608789199
 21
7914.82331866702
 31
0.0
 12
15309.71275455866
 22
7789.82331866702
 32
0.0
 13
15309.71275455866
 23
7789.82331866702
 33
0.0
  0
SOLID
  5
BB1
330
AD2
100
AcDbEntity
  8
Dimension (ISO)
100
AcDbTrace
 10
15288.87942122532
 20
9427.173318667017
 30
0.0
 11
15330.54608789199
 21
9427.173318667017
 31
0.0
 12
15309.71275455866
 22
9552.173318667017
 32
0.0
 13
15309.71275455866
 23
9552.173318667017
 33
0.0
  0
MTEXT
  5
BB2
330
AD2
100
AcDbEntity
  8
Dimension (ISO)
100
AcDbMText
 10
15089.32598609236
 20
8670.99831866702
 30
0.0
 40
175.0
 41
0.0
 71
     2
 72
     1
  1
\A1;1762
  7
Label Text (ISO)
 11
0.0000000000000001
 21
1.0
 31
0.0
 73
     1
 44
1.0
1001
ACAD
1000
MTEXTBEGIN
1070
    73
1070
     1
1070
    44
1040
1.0
1070
    74
1070
     0
1000
MTEXTEND
  0
POINT
  5
BB3
330
AD2
100
AcDbEntity
  8
Defpoints
 62
     0
100
AcDbPoint
 10
15309.71275455865
 20
7789.82331866702
 30
0.0
  0
POINT
  5
BB4
330
AD2
100
AcDbEntity
  8
Defpoints
 62
     0
100
AcDbPoint
 10
15860.63313141351
 20
9552.173318667017
 30
0.0
  0
POINT
  5
BB5
330
AD2
100
AcDbEntity
  8
Defpoints
 62
     0
100
AcDbPoint
 10
15309.71275455866
 20
9552.173318667017
 30
0.0
  0
ENDBLK
  5
AD4
330
AD2
100
AcDbEntity
  8
0
100
AcDbBlockEnd
  0
BLOCK
  5
BB8
330
BB7
100
AcDbEntity
  8
0
100
AcDbBlockBegin
  2
*D15
 70
     1
 10
0.0
 20
0.0
 30
0.0
  3
*D15
  1

  0
LINE
  5
C93
330
BB7
100
AcDbEntity
  8
Dimension (ISO)
100
AcDbLine
 10
15765.63313141351
 20
10097.82331866701
 30
0.0
 11
14842.56963062728
 21
10097.82331866701
 31
0.0
  0
LINE
  5
C94
330
BB7
100
AcDbEntity
  8
Dimension (ISO)
100
AcDbLine
 10
14892.56963062728
 20
7914.82331866702
 30
0.0
 11
14892.56963062728
 21
9972.823318667014
 31
0.0
  0
SOLID
  5
C95
330
BB7
100
AcDbEntity
  8
Dimension (ISO)
100
AcDbTrace
 10
14871.73629729394
 20
7914.82331866702
 30
0.0
 11
14913.40296396061
 21
7914.82331866702
 31
0.0
 12
14892.56963062728
 22
7789.82331866702
 32
0.0
 13
14892.56963062728
 23
7789.82331866702
 33
0.0
  0
SOLID
  5
C96
330
BB7
100
AcDbEntity
  8
Dimension (ISO)
100
AcDbTrace
 10
14871.73629729394
 20
9972.823318667014
 30
0.0
 11
14913.40296396061
 21
9972.823318667014
 31
0.0
 12
14892.56963062728
 22
10097.82331866701
 32
0.0
 13
14892.56963062728
 23
10097.82331866701
 33
0.0
  0
MTEXT
  5
C97
330
BB7
100
AcDbEntity
  8
Dimension (ISO)
100
AcDbMText
 10
14671.47769090966
 20
8943.823318667019
 30
0.0
 40
175.0
 41
0.0
 71
     2
 72
     1
  1
\A1;2308
  7
Label Text (ISO)
 11
0.0000000000000001
 21
1.0
 31
0.0
 73
     1
 44
1.0
1001
ACAD
1000
MTEXTBEGIN
1070
    73
1070
     1
1070
    44
1040
1.0
1070
    74
1070
     0
1000
MTEXTEND
  0
POINT
  5
C98
330
BB7
100
AcDbEntity
  8
Defpoints
 62
     0
100
AcDbPoint
 10
14892.56963062727
 20
7789.82331866702
 30
0.0
  0
POINT
  5
C99
330
BB7
100
AcDbEntity
  8
Defpoints
 62
     0
100
AcDbPoint
 10
15790.63313141351
 20
10097.82331866701
 30
0.0
  0
POINT
  5
C9A
330
BB7
100
AcDbEntity
  8
Defpoints
 62
     0
100
AcDbPoint
 10
14892.56963062728
 20
10097.82331866701
 30
0.0
  0
ENDBLK
  5
BB9
330
BB7
100
AcDbEntity
  8
0
100
AcDbBlockEnd
  0
BLOCK
  5
C9D
330
C9C
100
AcDbEntity
  8
0
100
AcDbBlockBegin
  2
*D16
 70
     1
 10
0.0
 20
0.0
 30
0.0
  3
*D16
  1

  0
LINE
  5
D7A
330
C9C
100
AcDbEntity
  8
Dimension (ISO)
100
AcDbLine
 10
19685.63313141351
 20
8997.823318667018
 30
0.0
 11
20524.20218037284
 21
8997.823318667016
 31
0.0
  0
LINE
  5
D7B
330
C9C
100
AcDbEntity
  8
Dimension (ISO)
100
AcDbLine
 10
19940.63313141351
 20
7789.82331866702
 30
0.0
 11
20524.20218037283
 21
7789.82331866702
 31
0.0
  0
LINE
  5
D7C
330
C9C
100
AcDbEntity
  8
Dimension (ISO)
100
AcDbLine
 10
20474.20218037284
 20
8872.823318667018
 30
0.0
 11
20474.20218037284
 21
7914.82331866702
 31
0.0
  0
SOLID
  5
D7D
330
C9C
100
AcDbEntity
  8
Dimension (ISO)
100
AcDbTrace
 10
20453.36884703951
 20
8872.823318667018
 30
0.0
 11
20495.03551370617
 21
8872.823318667016
 31
0.0
 12
20474.20218037284
 22
8997.823318667018
 32
0.0
 13
20474.20218037284
 23
8997.823318667018
 33
0.0
  0
SOLID
  5
D7E
330
C9C
100
AcDbEntity
  8
Dimension (ISO)
100
AcDbTrace
 10
20453.3688470395
 20
7914.82331866702
 30
0.0
 11
20495.03551370617
 21
7914.82331866702
 31
0.0
 12
20474.20218037284
 22
7789.82331866702
 32
0.0
 13
20474.20218037284
 23
7789.82331866702
 33
0.0
  0
MTEXT
  5
D7F
330
C9C
100
AcDbEntity
  8
Dimension (ISO)
100
AcDbMText
 10
20253.11024065522
 20
8393.823318667019
 30
0.0
 40
175.0
 41
0.0
 71
     2
 72
     1
  1
\A1;1208
  7
Label Text (ISO)
 11
0.0000000000000001
 21
1.0
 31
0.0
 73
     1
 44
1.0
1001
ACAD
1000
MTEXTBEGIN
1070
    73
1070
     1
1070
    44
1040
1.0
1070
    74
1070
     0
1000
MTEXTEND
  0
POINT
  5
D80
330
C9C
100
AcDbEntity
  8
Defpoints
 62
     0
100
AcDbPoint
 10
19660.63313141351
 20
8997.823318667018
 30
0.0
  0
POINT
  5
D81
330
C9C
100
AcDbEntity
  8
Defpoints
 62
     0
100
AcDbPoint
 10
19915.63313141351
 20
7789.82331866702
 30
0.0
  0
POINT
  5
D82
330
C9C
100
AcDbEntity
  8
Defpoints
 62
     0
100
AcDbPoint
 10
20474.20218037284
 20
7789.82331866702
 30
0.0
  0
ENDBLK
  5
C9E
330
C9C
100
AcDbEntity
  8
0
100
AcDbBlockEnd
  0
BLOCK
  5
DEE
330
DED
100
AcDbEntity
  8
0
100
AcDbBlockBegin
  2
87003_Street-Workout-Fit-3
 70
     0
 10
0.0
 20
0.0
 30
0.0
  3
87003_Street-Workout-Fit-3
  1

  0
LINE
  5
DF0
330
DED
100
AcDbEntity
  8
Visible (ISO)
100
AcDbLine
 10
1555.000000000003
 20
35.84999999999991
 30
0.0
 11
1555.000000000003
 21
2.150000000000545
 31
0.0
  0
LINE
  5
DF1
330
DED
100
AcDbEntity
  8
Visible (ISO)
100
AcDbLine
 10
1555.000000000003
 20
2.150000000000545
 30
0.0
 11
1317.7
 21
2.150000000000545
 31
0.0
  0
LINE
  5
DF2
330
DED
100
AcDbEntity
  8
Visible (ISO)
100
AcDbLine
 10
1555.000000000003
 20
35.84999999999991
 30
0.0
 11
1317.7
 21
35.84999999999991
 31
0.0
  0
LINE
  5
DF3
330
DED
100
AcDbEntity
  8
Visible (ISO)
100
AcDbLine
 10
1555.000000000003
 20
-514.15
 30
0.0
 11
1555.000000000003
 21
-547.8499999999999
 31
0.0
  0
LINE
  5
DF4
330
DED
100
AcDbEntity
  8
Visible (ISO)
100
AcDbLine
 10
1555.000000000003
 20
-547.8499999999999
 30
0.0
 11
1317.7
 21
-547.8499999999999
 31
0.0
  0
LINE
  5
DF5
330
DED
100
AcDbEntity
  8
Visible (ISO)
100
AcDbLine
 10
1555.000000000003
 20
-514.15
 30
0.0
 11
1317.7
 21
-514.15
 31
0.0
  0
LINE
  5
DF6
330
DED
100
AcDbEntity
  8
Visible (ISO)
100
AcDbLine
 10
1310.000000000004
 20
49.00000000001046
 30
0.0
 11
1310.000000000004
 21
41.42424242425568
 31
0.0
  0
LINE
  5
DF7
330
DED
100
AcDbEntity
  8
Visible (ISO)
100
AcDbLine
 10
1310.000000000004
 20
49.00000000001091
 30
0.0
 11
1305.000000000003
 21
49.00000000001091
 31
0.0
  0
LINE
  5
DF8
330
DED
100
AcDbEntity
  8
Visible (ISO)
100
AcDbLine
 10
1310.000000000004
 20
-3.424242424229305
 30
0.0
 11
1310.000000000004
 21
-10.99999999998954
 31
0.0
  0
LINE
  5
DF9
330
DED
100
AcDbEntity
  8
Visible (ISO)
100
AcDbLine
 10
1305.000000000003
 20
-10.99999999998954
 30
0.0
 11
1310.000000000004
 21
-10.99999999998954
 31
0.0
  0
LINE
  5
DFA
330
DED
100
AcDbEntity
  8
Visible (ISO)
100
AcDbLine
 10
1310.000000000004
 20
41.42424242425568
 30
0.0
 11
1310.000000000004
 21
-3.42424242422885
 31
0.0
  0
LINE
  5
DFB
330
DED
100
AcDbEntity
  8
Visible (ISO)
100
AcDbLine
 10
1310.000000000004
 20
-500.99999999999
 30
0.0
 11
1310.000000000004
 21
-508.5757575757448
 31
0.0
  0
LINE
  5
DFC
330
DED
100
AcDbEntity
  8
Visible (ISO)
100
AcDbLine
 10
1310.000000000004
 20
-500.9999999999895
 30
0.0
 11
1305.000000000003
 21
-500.9999999999895
 31
0.0
  0
LINE
  5
DFD
330
DED
100
AcDbEntity
  8
Visible (ISO)
100
AcDbLine
 10
1310.000000000004
 20
-553.4242424242298
 30
0.0
 11
1310.000000000004
 21
-560.9999999999895
 31
0.0
  0
LINE
  5
DFE
330
DED
100
AcDbEntity
  8
Visible (ISO)
100
AcDbLine
 10
1305.000000000003
 20
-560.9999999999895
 30
0.0
 11
1310.000000000004
 21
-560.9999999999895
 31
0.0
  0
LINE
  5
DFF
330
DED
100
AcDbEntity
  8
Visible (ISO)
100
AcDbLine
 10
1310.000000000004
 20
-508.5757575757448
 30
0.0
 11
1310.000000000004
 21
-553.4242424242292
 31
0.0
  0
LINE
  5
E00
330
DED
100
AcDbEntity
  8
Visible (ISO)
100
AcDbLine
 10
-1240.0
 20
1249.000000000193
 30
0.0
 11
-1247.575757575756
 21
1249.000000000195
 31
0.0
  0
LINE
  5
E01
330
DED
100
AcDbEntity
  8
Visible (ISO)
100
AcDbLine
 10
-1240.0
 20
1249.000000000193
 30
0.0
 11
-1240.0
 21
1254.000000000193
 31
0.0
  0
LINE
  5
E02
330
DED
100
AcDbEntity
  8
Visible (ISO)
100
AcDbLine
 10
-1292.424242424244
 20
1249.000000000195
 30
0.0
 11
-1300.0
 21
1249.000000000193
 31
0.0
  0
LINE
  5
E03
330
DED
100
AcDbEntity
  8
Visible (ISO)
100
AcDbLine
 10
-1300.0
 20
1254.000000000193
 30
0.0
 11
-1300.0
 21
1249.000000000193
 31
0.0
  0
LINE
  5
E04
330
DED
100
AcDbEntity
  8
Visible (ISO)
100
AcDbLine
 10
-1247.575757575756
 20
1249.000000000196
 30
0.0
 11
-1292.424242424244
 21
1249.000000000196
 31
0.0
  0
LINE
  5
E05
330
DED
100
AcDbEntity
  8
Visible (ISO)
100
AcDbLine
 10
-1300.0
 20
59.00000000019281
 30
0.0
 11
-1292.424242424244
 21
59.00000000019554
 31
0.0
  0
LINE
  5
E06
330
DED
100
AcDbEntity
  8
Visible (ISO)
100
AcDbLine
 10
-1300.0
 20
59.00000000019281
 30
0.0
 11
-1300.0
 21
54.00000000019281
 31
0.0
  0
LINE
  5
E07
330
DED
100
AcDbEntity
  8
Visible (ISO)
100
AcDbLine
 10
-1247.575757575756
 20
59.00000000019554
 30
0.0
 11
-1240.0
 21
59.00000000019281
 31
0.0
  0
LINE
  5
E08
330
DED
100
AcDbEntity
  8
Visible (ISO)
100
AcDbLine
 10
-1240.0
 20
54.00000000019281
 30
0.0
 11
-1240.0
 21
59.00000000019281
 31
0.0
  0
LINE
  5
E09
330
DED
100
AcDbEntity
  8
Visible (ISO)
100
AcDbLine
 10
-1292.424242424244
 20
59.00000000019509
 30
0.0
 11
-1247.575757575756
 21
59.00000000019509
 31
0.0
  0
LINE
  5
E0A
330
DED
100
AcDbEntity
  8
Visible (ISO)
100
AcDbLine
 10
-2499.999999999998
 20
1319.000000000339
 30
0.0
 11
-2499.999999999998
 21
1311.424242424585
 31
0.0
  0
LINE
  5
E0B
330
DED
100
AcDbEntity
  8
Visible (ISO)
100
AcDbLine
 10
-2499.999999999998
 20
1319.000000000339
 30
0.0
 11
-2504.999999999999
 21
1319.000000000339
 31
0.0
  0
LINE
  5
E0C
330
DED
100
AcDbEntity
  8
Visible (ISO)
100
AcDbLine
 10
-2499.999999999998
 20
1266.5757575761
 30
0.0
 11
-2499.999999999998
 21
1259.00000000034
 31
0.0
  0
LINE
  5
E0D
330
DED
100
AcDbEntity
  8
Visible (ISO)
100
AcDbLine
 10
-2504.999999999999
 20
1259.00000000034
 30
0.0
 11
-2499.999999999998
 21
1259.00000000034
 31
0.0
  0
LINE
  5
E0E
330
DED
100
AcDbEntity
  8
Visible (ISO)
100
AcDbLine
 10
-2499.999999999998
 20
1311.424242424584
 30
0.0
 11
-2499.999999999998
 21
1266.575757576099
 31
0.0
  0
LINE
  5
E0F
330
DED
100
AcDbEntity
  8
Visible (ISO)
100
AcDbLine
 10
-1310.0
 20
1259.000000000341
 30
0.0
 11
-1310.0
 21
1266.575757576101
 31
0.0
  0
LINE
  5
E10
330
DED
100
AcDbEntity
  8
Visible (ISO)
100
AcDbLine
 10
-1310.0
 20
1259.000000000341
 30
0.0
 11
-1305.0
 21
1259.000000000341
 31
0.0
  0
LINE
  5
E11
330
DED
100
AcDbEntity
  8
Visible (ISO)
100
AcDbLine
 10
-1310.0
 20
1311.424242424585
 30
0.0
 11
-1310.0
 21
1319.00000000034
 31
0.0
  0
LINE
  5
E12
330
DED
100
AcDbEntity
  8
Visible (ISO)
100
AcDbLine
 10
-1305.0
 20
1319.00000000034
 30
0.0
 11
-1310.0
 21
1319.00000000034
 31
0.0
  0
LINE
  5
E13
330
DED
100
AcDbEntity
  8
Visible (ISO)
100
AcDbLine
 10
-1310.0
 20
1266.5757575761
 30
0.0
 11
-1310.0
 21
1311.424242424585
 31
0.0
  0
LINE
  5
E14
330
DED
100
AcDbEntity
  8
Visible (ISO)
100
AcDbLine
 10
-2499.999999999995
 20
49.00000000019463
 30
0.0
 11
-2499.999999999995
 21
41.42424242443985
 31
0.0
  0
LINE
  5
E15
330
DED
100
AcDbEntity
  8
Visible (ISO)
100
AcDbLine
 10
-2499.999999999995
 20
49.00000000019417
 30
0.0
 11
-2504.999999999995
 21
49.00000000019417
 31
0.0
  0
LINE
  5
E16
330
DED
100
AcDbEntity
  8
Visible (ISO)
100
AcDbLine
 10
-2499.999999999995
 20
-3.424242424045132
 30
0.0
 11
-2499.999999999995
 21
-10.99999999980582
 31
0.0
  0
LINE
  5
E17
330
DED
100
AcDbEntity
  8
Visible (ISO)
100
AcDbLine
 10
-2504.999999999995
 20
-10.99999999980582
 30
0.0
 11
-2499.999999999995
 21
-10.99999999980582
 31
0.0
  0
LINE
  5
E18
330
DED
100
AcDbEntity
  8
Visible (ISO)
100
AcDbLine
 10
-2499.999999999995
 20
41.42424242443985
 30
0.0
 11
-2499.999999999995
 21
-3.424242424045132
 31
0.0
  0
LINE
  5
E19
330
DED
100
AcDbEntity
  8
Visible (ISO)
100
AcDbLine
 10
-1309.999999999996
 20
-10.99999999980628
 30
0.0
 11
-1309.999999999996
 21
-3.424242424045587
 31
0.0
  0
LINE
  5
E1A
330
DED
100
AcDbEntity
  8
Visible (ISO)
100
AcDbLine
 10
-1309.999999999996
 20
-10.99999999980628
 30
0.0
 11
-1304.999999999996
 21
-10.99999999980628
 31
0.0
  0
LINE
  5
E1B
330
DED
100
AcDbEntity
  8
Visible (ISO)
100
AcDbLine
 10
-1309.999999999996
 20
41.42424242443939
 30
0.0
 11
-1309.999999999996
 21
49.00000000019417
 31
0.0
  0
LINE
  5
E1C
330
DED
100
AcDbEntity
  8
Visible (ISO)
100
AcDbLine
 10
-1304.999999999996
 20
49.00000000019372
 30
0.0
 11
-1309.999999999996
 21
49.00000000019372
 31
0.0
  0
LINE
  5
E1D
330
DED
100
AcDbEntity
  8
Visible (ISO)
100
AcDbLine
 10
-1309.999999999996
 20
-3.424242424045587
 30
0.0
 11
-1309.999999999996
 21
41.42424242443939
 31
0.0
  0
LINE
  5
E1E
330
DED
100
AcDbEntity
  8
Visible (ISO)
100
AcDbLine
 10
1222.299999999999
 20
0.0
 30
0.0
 11
-1222.299999999999
 21
0.0
 31
0.0
  0
LINE
  5
E1F
330
DED
100
AcDbEntity
  8
Visible (ISO)
100
AcDbLine
 10
1222.299999999999
 20
38.00000000000046
 30
0.0
 11
-1222.299999999999
 21
38.00000000000046
 31
0.0
  0
LINE
  5
E20
330
DED
100
AcDbEntity
  8
Visible (ISO)
100
AcDbLine
 10
1222.299999999999
 20
-549.9999999999995
 30
0.0
 11
-1222.299999999999
 21
-549.9999999999995
 31
0.0
  0
LINE
  5
E21
330
DED
100
AcDbEntity
  8
Visible (ISO)
100
AcDbLine
 10
1222.299999999999
 20
-511.9999999999995
 30
0.0
 11
-1222.299999999999
 21
-511.9999999999995
 31
0.0
  0
LINE
  5
E22
330
DED
100
AcDbEntity
  8
Visible (ISO)
100
AcDbLine
 10
-1230.0
 20
49.00000000001046
 30
0.0
 11
-1230.0
 21
41.42424242425568
 31
0.0
  0
LINE
  5
E23
330
DED
100
AcDbEntity
  8
Visible (ISO)
100
AcDbLine
 10
-1230.0
 20
49.00000000001091
 30
0.0
 11
-1235.0
 21
49.00000000001091
 31
0.0
  0
LINE
  5
E24
330
DED
100
AcDbEntity
  8
Visible (ISO)
100
AcDbLine
 10
-1230.0
 20
-3.424242424229305
 30
0.0
 11
-1230.0
 21
-10.99999999998954
 31
0.0
  0
LINE
  5
E25
330
DED
100
AcDbEntity
  8
Visible (ISO)
100
AcDbLine
 10
-1235.0
 20
-10.99999999998954
 30
0.0
 11
-1230.0
 21
-10.99999999998954
 31
0.0
  0
LINE
  5
E26
330
DED
100
AcDbEntity
  8
Visible (ISO)
100
AcDbLine
 10
-1230.0
 20
41.42424242425568
 30
0.0
 11
-1230.0
 21
-3.42424242422885
 31
0.0
  0
LINE
  5
E27
330
DED
100
AcDbEntity
  8
Visible (ISO)
100
AcDbLine
 10
1230.000000000003
 20
-10.99999999998954
 30
0.0
 11
1230.000000000003
 21
-3.42424242422885
 31
0.0
  0
LINE
  5
E28
330
DED
100
AcDbEntity
  8
Visible (ISO)
100
AcDbLine
 10
1230.000000000003
 20
-10.99999999998954
 30
0.0
 11
1235.000000000004
 21
-10.99999999998954
 31
0.0
  0
LINE
  5
E29
330
DED
100
AcDbEntity
  8
Visible (ISO)
100
AcDbLine
 10
1230.000000000003
 20
41.42424242425568
 30
0.0
 11
1230.000000000003
 21
49.00000000001046
 31
0.0
  0
LINE
  5
E2A
330
DED
100
AcDbEntity
  8
Visible (ISO)
100
AcDbLine
 10
1235.000000000004
 20
49.00000000001091
 30
0.0
 11
1230.000000000003
 21
49.00000000001091
 31
0.0
  0
LINE
  5
E2B
330
DED
100
AcDbEntity
  8
Visible (ISO)
100
AcDbLine
 10
1230.000000000003
 20
-3.42424242422885
 30
0.0
 11
1230.000000000003
 21
41.42424242425613
 31
0.0
  0
LINE
  5
E2C
330
DED
100
AcDbEntity
  8
Visible (ISO)
100
AcDbLine
 10
-1230.0
 20
-500.9999999999895
 30
0.0
 11
-1230.0
 21
-508.5757575757443
 31
0.0
  0
LINE
  5
E2D
330
DED
100
AcDbEntity
  8
Visible (ISO)
100
AcDbLine
 10
-1230.0
 20
-500.999999999989
 30
0.0
 11
-1235.0
 21
-500.999999999989
 31
0.0
  0
LINE
  5
E2E
330
DED
100
AcDbEntity
  8
Visible (ISO)
100
AcDbLine
 10
-1230.0
 20
-553.4242424242292
 30
0.0
 11
-1230.0
 21
-560.9999999999891
 31
0.0
  0
LINE
  5
E2F
330
DED
100
AcDbEntity
  8
Visible (ISO)
100
AcDbLine
 10
-1235.0
 20
-560.9999999999891
 30
0.0
 11
-1230.0
 21
-560.9999999999891
 31
0.0
  0
LINE
  5
E30
330
DED
100
AcDbEntity
  8
Visible (ISO)
100
AcDbLine
 10
-1230.0
 20
-508.5757575757443
 30
0.0
 11
-1230.0
 21
-553.4242424242288
 31
0.0
  0
LINE
  5
E31
330
DED
100
AcDbEntity
  8
Visible (ISO)
100
AcDbLine
 10
1230.000000000003
 20
-560.9999999999895
 30
0.0
 11
1230.000000000003
 21
-553.4242424242292
 31
0.0
  0
LINE
  5
E32
330
DED
100
AcDbEntity
  8
Visible (ISO)
100
AcDbLine
 10
1230.000000000003
 20
-560.9999999999895
 30
0.0
 11
1235.000000000004
 21
-560.9999999999895
 31
0.0
  0
LINE
  5
E33
330
DED
100
AcDbEntity
  8
Visible (ISO)
100
AcDbLine
 10
1230.000000000003
 20
-508.5757575757448
 30
0.0
 11
1230.000000000003
 21
-500.99999999999
 31
0.0
  0
LINE
  5
E34
330
DED
100
AcDbEntity
  8
Visible (ISO)
100
AcDbLine
 10
1235.000000000004
 20
-500.9999999999895
 30
0.0
 11
1230.000000000003
 21
-500.9999999999895
 31
0.0
  0
LINE
  5
E35
330
DED
100
AcDbEntity
  8
Visible (ISO)
100
AcDbLine
 10
1230.000000000003
 20
-553.4242424242292
 30
0.0
 11
1230.000000000003
 21
-508.5757575757443
 31
0.0
  0
LINE
  5
E36
330
DED
100
AcDbEntity
  8
Visible (ISO)
100
AcDbLine
 10
-1286.850000000002
 20
66.70000000018308
 30
0.0
 11
-1286.850000000002
 21
1241.300000000182
 31
0.0
  0
LINE
  5
E37
330
DED
100
AcDbEntity
  8
Visible (ISO)
100
AcDbLine
 10
-1253.150000000001
 20
66.70000000018308
 30
0.0
 11
-1253.150000000001
 21
1241.300000000181
 31
0.0
  0
LINE
  5
E38
330
DED
100
AcDbEntity
  8
Visible (ISO)
100
AcDbLine
 10
-1317.699999999997
 20
1272.15000000033
 30
0.0
 11
-2492.299999999997
 21
1272.15000000033
 31
0.0
  0
LINE
  5
E39
330
DED
100
AcDbEntity
  8
Visible (ISO)
100
AcDbLine
 10
-1317.699999999997
 20
1305.850000000329
 30
0.0
 11
-2492.299999999996
 21
1305.850000000329
 31
0.0
  0
LINE
  5
E3A
330
DED
100
AcDbEntity
  8
Visible (ISO)
100
AcDbLine
 10
-1317.699999999997
 20
2.150000000182899
 30
0.0
 11
-2492.299999999997
 21
2.150000000183354
 31
0.0
  0
LINE
  5
E3B
330
DED
100
AcDbEntity
  8
Visible (ISO)
100
AcDbLine
 10
-1317.699999999997
 20
35.85000000018317
 30
0.0
 11
-2492.299999999997
 21
35.85000000018363
 31
0.0
  0
ARC
  5
E3C
330
DED
100
AcDbEntity
  8
Visible (ISO)
100
AcDbCircle
 10
1302.000000000004
 20
51.00000000001955
 30
0.0
 40
3.000000000000011
100
AcDbArc
 50
0.0
 51
90.0
  0
ARC
  5
E3D
330
DED
100
AcDbEntity
  8
Visible (ISO)
100
AcDbCircle
 10
1302.000000000004
 20
-12.99999999998044
 30
0.0
 40
2.999999999999998
100
AcDbArc
 50
270.0
 51
0.0
  0
LINE
  5
E3E
330
DED
100
AcDbEntity
  8
Visible (ISO)
100
AcDbLine
 10
1305.000000000003
 20
-12.99999999998044
 30
0.0
 11
1305.000000000003
 21
51.00000000001955
 31
0.0
  0
ARC
  5
E3F
330
DED
100
AcDbEntity
  8
Visible (ISO)
100
AcDbCircle
 10
1238.000000000003
 20
51.00000000001955
 30
0.0
 40
2.999999999999998
100
AcDbArc
 50
90.0
 51
180.0
  0
ARC
  5
E40
330
DED
100
AcDbEntity
  8
Visible (ISO)
100
AcDbCircle
 10
1238.000000000003
 20
-12.99999999998044
 30
0.0
 40
3.000000000000011
100
AcDbArc
 50
180.0
 51
270.0
  0
LINE
  5
E41
330
DED
100
AcDbEntity
  8
Visible (ISO)
100
AcDbLine
 10
1238.000000000003
 20
-15.99999999998044
 30
0.0
 11
1302.000000000004
 21
-15.99999999998044
 31
0.0
  0
LINE
  5
E42
330
DED
100
AcDbEntity
  8
Visible (ISO)
100
AcDbLine
 10
1235.000000000004
 20
51.00000000001955
 30
0.0
 11
1235.000000000004
 21
-12.99999999998044
 31
0.0
  0
LINE
  5
E43
330
DED
100
AcDbEntity
  8
Visible (ISO)
100
AcDbLine
 10
1302.000000000004
 20
54.00000000001956
 30
0.0
 11
1238.000000000003
 21
54.00000000001956
 31
0.0
  0
ARC
  5
E44
330
DED
100
AcDbEntity
  8
Visible (ISO)
100
AcDbCircle
 10
1302.000000000004
 20
-498.9999999999809
 30
0.0
 40
3.000000000000011
100
AcDbArc
 50
0.0
 51
90.0
  0
ARC
  5
E45
330
DED
100
AcDbEntity
  8
Visible (ISO)
100
AcDbCircle
 10
1302.000000000004
 20
-562.9999999999808
 30
0.0
 40
2.999999999999998
100
AcDbArc
 50
270.0
 51
0.0
  0
LINE
  5
E46
330
DED
100
AcDbEntity
  8
Visible (ISO)
100
AcDbLine
 10
1305.000000000003
 20
-562.9999999999808
 30
0.0
 11
1305.000000000003
 21
-498.9999999999809
 31
0.0
  0
ARC
  5
E47
330
DED
100
AcDbEntity
  8
Visible (ISO)
100
AcDbCircle
 10
1238.000000000003
 20
-498.9999999999809
 30
0.0
 40
2.999999999999998
100
AcDbArc
 50
90.0
 51
180.0
  0
ARC
  5
E48
330
DED
100
AcDbEntity
  8
Visible (ISO)
100
AcDbCircle
 10
1238.000000000003
 20
-562.9999999999808
 30
0.0
 40
3.000000000000011
100
AcDbArc
 50
180.0
 51
270.0
  0
LINE
  5
E49
330
DED
100
AcDbEntity
  8
Visible (ISO)
100
AcDbLine
 10
1238.000000000003
 20
-565.9999999999804
 30
0.0
 11
1302.000000000004
 21
-565.9999999999804
 31
0.0
  0
LINE
  5
E4A
330
DED
100
AcDbEntity
  8
Visible (ISO)
100
AcDbLine
 10
1235.000000000004
 20
-498.9999999999809
 30
0.0
 11
1235.000000000004
 21
-562.9999999999808
 31
0.0
  0
LINE
  5
E4B
330
DED
100
AcDbEntity
  8
Visible (ISO)
100
AcDbLine
 10
1302.000000000004
 20
-495.9999999999809
 30
0.0
 11
1238.000000000003
 21
-495.9999999999809
 31
0.0
  0
ARC
  5
E4C
330
DED
100
AcDbEntity
  8
Visible (ISO)
100
AcDbCircle
 10
-1238.0
 20
-498.9999999999804
 30
0.0
 40
3.000000000000011
100
AcDbArc
 50
0.0
 51
90.0
  0
ARC
  5
E4D
330
DED
100
AcDbEntity
  8
Visible (ISO)
100
AcDbCircle
 10
-1238.0
 20
-562.9999999999804
 30
0.0
 40
2.999999999999998
100
AcDbArc
 50
270.0
 51
0.0
  0
LINE
  5
E4E
330
DED
100
AcDbEntity
  8
Visible (ISO)
100
AcDbLine
 10
-1235.0
 20
-562.99999999998
 30
0.0
 11
-1235.0
 21
-498.9999999999804
 31
0.0
  0
ARC
  5
E4F
330
DED
100
AcDbEntity
  8
Visible (ISO)
100
AcDbCircle
 10
-1302.0
 20
-498.9999999999804
 30
0.0
 40
2.999999999999998
100
AcDbArc
 50
90.0
 51
180.0
  0
ARC
  5
E50
330
DED
100
AcDbEntity
  8
Visible (ISO)
100
AcDbCircle
 10
-1302.0
 20
-562.9999999999804
 30
0.0
 40
3.000000000000011
100
AcDbArc
 50
180.0
 51
270.0
  0
LINE
  5
E51
330
DED
100
AcDbEntity
  8
Visible (ISO)
100
AcDbLine
 10
-1302.0
 20
-565.99999999998
 30
0.0
 11
-1238.0
 21
-565.99999999998
 31
0.0
  0
LINE
  5
E52
330
DED
100
AcDbEntity
  8
Visible (ISO)
100
AcDbLine
 10
-1305.0
 20
-498.9999999999804
 30
0.0
 11
-1305.0
 21
-562.99999999998
 31
0.0
  0
LINE
  5
E53
330
DED
100
AcDbEntity
  8
Visible (ISO)
100
AcDbLine
 10
-1238.0
 20
-495.9999999999804
 30
0.0
 11
-1302.0
 21
-495.9999999999804
 31
0.0
  0
ARC
  5
E54
330
DED
100
AcDbEntity
  8
Visible (ISO)
100
AcDbCircle
 10
-1238.0
 20
51.00000000018553
 30
0.0
 40
3.00000000000001
100
AcDbArc
 50
0.0
 51
90.0
  0
ARC
  5
E55
330
DED
100
AcDbEntity
  8
Visible (ISO)
100
AcDbCircle
 10
-1238.0
 20
-12.99999999981446
 30
0.0
 40
2.999999999999997
100
AcDbArc
 50
270.0
 51
0.0
  0
LINE
  5
E56
330
DED
100
AcDbEntity
  8
Visible (ISO)
100
AcDbLine
 10
-1235.0
 20
-12.99999999981446
 30
0.0
 11
-1235.0
 21
51.00000000018553
 31
0.0
  0
ARC
  5
E57
330
DED
100
AcDbEntity
  8
Visible (ISO)
100
AcDbCircle
 10
-1302.0
 20
51.00000000018553
 30
0.0
 40
2.999999999999997
100
AcDbArc
 50
90.0
 51
180.0
  0
ARC
  5
E58
330
DED
100
AcDbEntity
  8
Visible (ISO)
100
AcDbCircle
 10
-1302.0
 20
-12.99999999981446
 30
0.0
 40
3.00000000000001
100
AcDbArc
 50
180.0
 51
270.0
  0
LINE
  5
E59
330
DED
100
AcDbEntity
  8
Visible (ISO)
100
AcDbLine
 10
-1302.0
 20
-15.99999999981446
 30
0.0
 11
-1238.0
 21
-15.99999999981446
 31
0.0
  0
LINE
  5
E5A
330
DED
100
AcDbEntity
  8
Visible (ISO)
100
AcDbLine
 10
-1305.0
 20
51.00000000018553
 30
0.0
 11
-1305.0
 21
-12.99999999981446
 31
0.0
  0
LINE
  5
E5B
330
DED
100
AcDbEntity
  8
Visible (ISO)
100
AcDbLine
 10
-1238.0
 20
54.00000000018554
 30
0.0
 11
-1302.0
 21
54.00000000018554
 31
0.0
  0
ARC
  5
E5C
330
DED
100
AcDbEntity
  8
Visible (ISO)
100
AcDbCircle
 10
-1238.0
 20
1257.00000000035
 30
0.0
 40
3.00000000000001
100
AcDbArc
 50
270.0
 51
0.0
  0
ARC
  5
E5D
330
DED
100
AcDbEntity
  8
Visible (ISO)
100
AcDbCircle
 10
-1302.0
 20
1257.00000000035
 30
0.0
 40
2.999999999999996
100
AcDbArc
 50
180.0
 51
270.0
  0
LINE
  5
E5E
330
DED
100
AcDbEntity
  8
Visible (ISO)
100
AcDbLine
 10
-1302.0
 20
1254.000000000349
 30
0.0
 11
-1238.0
 21
1254.000000000349
 31
0.0
  0
ARC
  5
E5F
330
DED
100
AcDbEntity
  8
Visible (ISO)
100
AcDbCircle
 10
-1238.0
 20
1321.00000000035
 30
0.0
 40
2.999999999999996
100
AcDbArc
 50
0.0
 51
90.0
  0
ARC
  5
E60
330
DED
100
AcDbEntity
  8
Visible (ISO)
100
AcDbCircle
 10
-1302.0
 20
1321.00000000035
 30
0.0
 40
3.00000000000001
100
AcDbArc
 50
90.0
 51
180.0
  0
LINE
  5
E61
330
DED
100
AcDbEntity
  8
Visible (ISO)
100
AcDbLine
 10
-1305.0
 20
1321.000000000349
 30
0.0
 11
-1305.0
 21
1257.00000000035
 31
0.0
  0
LINE
  5
E62
330
DED
100
AcDbEntity
  8
Visible (ISO)
100
AcDbLine
 10
-1238.0
 20
1324.000000000349
 30
0.0
 11
-1302.0
 21
1324.000000000349
 31
0.0
  0
LINE
  5
E63
330
DED
100
AcDbEntity
  8
Visible (ISO)
100
AcDbLine
 10
-1235.0
 20
1257.00000000035
 30
0.0
 11
-1235.0
 21
1321.000000000349
 31
0.0
  0
ARC
  5
E64
330
DED
100
AcDbEntity
  8
Visible (ISO)
100
AcDbCircle
 10
-2507.999999999996
 20
1321.000000000349
 30
0.0
 40
3.00000000000001
100
AcDbArc
 50
0.0
 51
90.0
  0
ARC
  5
E65
330
DED
100
AcDbEntity
  8
Visible (ISO)
100
AcDbCircle
 10
-2507.999999999996
 20
1257.000000000349
 30
0.0
 40
2.999999999999996
100
AcDbArc
 50
270.0
 51
0.0
  0
LINE
  5
E66
330
DED
100
AcDbEntity
  8
Visible (ISO)
100
AcDbLine
 10
-2504.999999999995
 20
1257.000000000349
 30
0.0
 11
-2504.999999999995
 21
1321.000000000349
 31
0.0
  0
ARC
  5
E67
330
DED
100
AcDbEntity
  8
Visible (ISO)
100
AcDbCircle
 10
-2571.999999999996
 20
1321.000000000349
 30
0.0
 40
2.999999999999996
100
AcDbArc
 50
90.0
 51
180.0
  0
ARC
  5
E68
330
DED
100
AcDbEntity
  8
Visible (ISO)
100
AcDbCircle
 10
-2571.999999999996
 20
1257.000000000349
 30
0.0
 40
3.00000000000001
100
AcDbArc
 50
180.0
 51
270.0
  0
LINE
  5
E69
330
DED
100
AcDbEntity
  8
Visible (ISO)
100
AcDbLine
 10
-2571.999999999996
 20
1254.000000000348
 30
0.0
 11
-2507.999999999996
 21
1254.000000000348
 31
0.0
  0
LINE
  5
E6A
330
DED
100
AcDbEntity
  8
Visible (ISO)
100
AcDbLine
 10
-2574.999999999997
 20
1321.000000000348
 30
0.0
 11
-2574.999999999997
 21
1257.000000000349
 31
0.0
  0
LINE
  5
E6B
330
DED
100
AcDbEntity
  8
Visible (ISO)
100
AcDbLine
 10
-2507.999999999996
 20
1324.000000000348
 30
0.0
 11
-2571.999999999996
 21
1324.000000000348
 31
0.0
  0
ARC
  5
E6C
330
DED
100
AcDbEntity
  8
Visible (ISO)
100
AcDbCircle
 10
-2571.999999999996
 20
-12.99999999964893
 30
0.0
 40
3.000000000000011
100
AcDbArc
 50
180.0
 51
270.0
  0
ARC
  5
E6D
330
DED
100
AcDbEntity
  8
Visible (ISO)
100
AcDbCircle
 10
-2571.999999999996
 20
51.00000000035106
 30
0.0
 40
2.999999999999998
100
AcDbArc
 50
90.0
 51
180.0
  0
LINE
  5
E6E
330
DED
100
AcDbEntity
  8
Visible (ISO)
100
AcDbLine
 10
-2574.999999999997
 20
51.00000000035106
 30
0.0
 11
-2574.999999999997
 21
-12.99999999964893
 31
0.0
  0
ARC
  5
E6F
330
DED
100
AcDbEntity
  8
Visible (ISO)
100
AcDbCircle
 10
-2507.999999999996
 20
-12.99999999964893
 30
0.0
 40
2.999999999999998
100
AcDbArc
 50
270.0
 51
0.0
  0
ARC
  5
E70
330
DED
100
AcDbEntity
  8
Visible (ISO)
100
AcDbCircle
 10
-2507.999999999996
 20
51.00000000035106
 30
0.0
 40
3.000000000000011
100
AcDbArc
 50
0.0
 51
90.0
  0
LINE
  5
E71
330
DED
100
AcDbEntity
  8
Visible (ISO)
100
AcDbLine
 10
-2507.999999999996
 20
54.00000000035106
 30
0.0
 11
-2571.999999999996
 21
54.00000000035106
 31
0.0
  0
LINE
  5
E72
330
DED
100
AcDbEntity
  8
Visible (ISO)
100
AcDbLine
 10
-2504.999999999995
 20
-12.99999999964893
 30
0.0
 11
-2504.999999999995
 21
51.00000000035106
 31
0.0
  0
LINE
  5
E73
330
DED
100
AcDbEntity
  8
Visible (ISO)
100
AcDbLine
 10
-2571.999999999996
 20
-15.99999999964848
 30
0.0
 11
-2507.999999999996
 21
-15.99999999964848
 31
0.0
  0
LINE
  5
E74
330
DED
100
AcDbEntity
  8
Visible (ISO)
100
AcDbLine
 10
-2556.850000000001
 20
66.70000000033178
 30
0.0
 11
-2556.849999999999
 21
1241.300000000332
 31
0.0
  0
LINE
  5
E75
330
DED
100
AcDbEntity
  8
Visible (ISO)
100
AcDbLine
 10
-2523.15
 20
66.70000000033224
 30
0.0
 11
-2523.149999999998
 21
1241.300000000332
 31
0.0
  0
LINE
  5
E76
330
DED
100
AcDbEntity
  8
Visible (ISO)
100
AcDbLine
 10
-2569.999999999997
 20
1254.000000000343
 30
0.0
 11
-2569.999999999997
 21
1249.000000000343
 31
0.0
  0
LINE
  5
E77
330
DED
100
AcDbEntity
  8
Visible (ISO)
100
AcDbLine
 10
-2562.424242424239
 20
1249.000000000346
 30
0.0
 11
-2569.999999999997
 21
1249.000000000343
 31
0.0
  0
LINE
  5
E78
330
DED
100
AcDbEntity
  8
Visible (ISO)
100
AcDbLine
 10
-2509.999999999998
 20
1249.000000000343
 30
0.0
 11
-2517.575757575756
 21
1249.000000000346
 31
0.0
  0
LINE
  5
E79
330
DED
100
AcDbEntity
  8
Visible (ISO)
100
AcDbLine
 10
-2509.999999999998
 20
1249.000000000343
 30
0.0
 11
-2509.999999999998
 21
1254.000000000343
 31
0.0
  0
LINE
  5
E7A
330
DED
100
AcDbEntity
  8
Visible (ISO)
100
AcDbLine
 10
-2562.424242424239
 20
1249.000000000346
 30
0.0
 11
-2517.575757575756
 21
1249.000000000346
 31
0.0
  0
LINE
  5
E7B
330
DED
100
AcDbEntity
  8
Visible (ISO)
100
AcDbLine
 10
-2510.0
 20
54.00000000034243
 30
0.0
 11
-2510.0
 21
59.00000000034243
 31
0.0
  0
LINE
  5
E7C
330
DED
100
AcDbEntity
  8
Visible (ISO)
100
AcDbLine
 10
-2517.575757575758
 20
59.0000000003447
 30
0.0
 11
-2510.0
 21
59.00000000034243
 31
0.0
  0
LINE
  5
E7D
330
DED
100
AcDbEntity
  8
Visible (ISO)
100
AcDbLine
 10
-2569.999999999998
 20
59.00000000034288
 30
0.0
 11
-2562.424242424241
 21
59.00000000034515
 31
0.0
  0
LINE
  5
E7E
330
DED
100
AcDbEntity
  8
Visible (ISO)
100
AcDbLine
 10
-2569.999999999998
 20
59.00000000034288
 30
0.0
 11
-2569.999999999998
 21
54.00000000034243
 31
0.0
  0
LINE
  5
E7F
330
DED
100
AcDbEntity
  8
Visible (ISO)
100
AcDbLine
 10
-2517.575757575758
 20
59.00000000034515
 30
0.0
 11
-2562.424242424242
 21
59.00000000034515
 31
0.0
  0
ELLIPSE
  5
E80
330
DED
100
AcDbEntity
  8
Visible (ISO)
100
AcDbEllipse
 10
1309.237897644671
 20
-0.9999999999904503
 30
0.0
 11
-15.6750598084983
 21
-0.0000000000026847
 31
0.0
210
0.0
220
0.0
230
1.0
 40
0.5773502691896273
 41
1.619434285797171
 42
1.760908579289958
  0
ELLIPSE
  5
E81
330
DED
100
AcDbEntity
  8
Visible (ISO)
100
AcDbEllipse
 10
1310.762102355333
 20
-0.9999999999904503
 30
0.0
 11
-15.67505980849832
 21
-0.0000000000026847
 31
0.0
210
0.0
220
0.0
230
1.0
 40
0.5773502691896267
 41
1.522158367793105
 42
1.662657022136453
  0
LINE
  5
E82
330
DED
100
AcDbEntity
  8
Visible (ISO)
100
AcDbLine
 10
1312.2
 20
-9.886946412876568
 30
0.0
 11
1312.2
 21
-10.01184314042575
 31
0.0
  0
LINE
  5
E83
330
DED
100
AcDbEntity
  8
Visible (ISO)
100
AcDbLine
 10
1312.2
 20
8.050000000009731
 30
0.0
 11
1312.2
 21
-9.886946412876113
 31
0.0
  0
LINE
  5
E84
330
DED
100
AcDbEntity
  8
Visible (ISO)
100
AcDbLine
 10
1312.2
 20
-10.01184314042575
 30
0.0
 11
1312.2
 21
-10.04999999999063
 31
0.0
  0
LINE
  5
E85
330
DED
100
AcDbEntity
  8
Visible (ISO)
100
AcDbLine
 10
1310.000000000004
 20
8.050000000009731
 30
0.0
 11
1312.2
 21
8.050000000009731
 31
0.0
  0
LINE
  5
E86
330
DED
100
AcDbEntity
  8
Visible (ISO)
100
AcDbLine
 10
1310.762102355333
 20
-10.04999999999063
 30
0.0
 11
1312.2
 21
-10.04999999999063
 31
0.0
  0
ELLIPSE
  5
E87
330
DED
100
AcDbEntity
  8
Visible (ISO)
100
AcDbEllipse
 10
1309.237897644671
 20
39.00000000000955
 30
0.0
 11
-15.6750598084983
 21
-0.0000000000026847
 31
0.0
210
0.0
220
0.0
230
1.0
 40
0.5773502691896273
 41
1.619434285797171
 42
1.760908579289958
  0
ELLIPSE
  5
E88
330
DED
100
AcDbEntity
  8
Visible (ISO)
100
AcDbEllipse
 10
1310.762102355333
 20
39.00000000000955
 30
0.0
 11
-15.67505980849832
 21
-0.0000000000026847
 31
0.0
210
0.0
220
0.0
230
1.0
 40
0.5773502691896267
 41
1.522158367793105
 42
1.662657022136453
  0
LINE
  5
E89
330
DED
100
AcDbEntity
  8
Visible (ISO)
100
AcDbLine
 10
1312.2
 20
30.11305358712343
 30
0.0
 11
1312.2
 21
29.98815685957425
 31
0.0
  0
LINE
  5
E8A
330
DED
100
AcDbEntity
  8
Visible (ISO)
100
AcDbLine
 10
1312.2
 20
48.05000000000973
 30
0.0
 11
1312.2
 21
30.11305358712389
 31
0.0
  0
LINE
  5
E8B
330
DED
100
AcDbEntity
  8
Visible (ISO)
100
AcDbLine
 10
1312.2
 20
29.98815685957425
 30
0.0
 11
1312.2
 21
29.95000000000937
 31
0.0
  0
LINE
  5
E8C
330
DED
100
AcDbEntity
  8
Visible (ISO)
100
AcDbLine
 10
1310.000000000004
 20
48.05000000000973
 30
0.0
 11
1312.2
 21
48.05000000000973
 31
0.0
  0
LINE
  5
E8D
330
DED
100
AcDbEntity
  8
Visible (ISO)
100
AcDbLine
 10
1310.762102355333
 20
29.95000000000937
 30
0.0
 11
1312.2
 21
29.95000000000937
 31
0.0
  0
ELLIPSE
  5
E8E
330
DED
100
AcDbEntity
  8
Visible (ISO)
100
AcDbEllipse
 10
1230.762102355333
 20
39.00000000000955
 30
0.0
 11
15.6750598084983
 21
-0.0000000000026866
 31
0.0
210
0.0
220
0.0
230
1.0
 40
0.5773502691896273
 41
1.619434285796687
 42
1.760908579289657
  0
ELLIPSE
  5
E8F
330
DED
100
AcDbEntity
  8
Visible (ISO)
100
AcDbEllipse
 10
1229.237897644671
 20
39.00000000000955
 30
0.0
 11
15.67505980849832
 21
-0.0000000000026866
 31
0.0
210
0.0
220
0.0
230
1.0
 40
0.5773502691896267
 41
1.522158367792621
 42
1.66265702213596
  0
LINE
  5
E90
330
DED
100
AcDbEntity
  8
Visible (ISO)
100
AcDbLine
 10
1227.800000000003
 20
47.88694641289612
 30
0.0
 11
1227.800000000003
 21
48.0118431404453
 31
0.0
  0
LINE
  5
E91
330
DED
100
AcDbEntity
  8
Visible (ISO)
100
AcDbLine
 10
1227.800000000003
 20
29.95000000000937
 30
0.0
 11
1227.800000000003
 21
47.88694641289658
 31
0.0
  0
LINE
  5
E92
330
DED
100
AcDbEntity
  8
Visible (ISO)
100
AcDbLine
 10
1227.800000000003
 20
48.01184314044576
 30
0.0
 11
1227.800000000003
 21
48.05000000000973
 31
0.0
  0
LINE
  5
E93
330
DED
100
AcDbEntity
  8
Visible (ISO)
100
AcDbLine
 10
1230.0
 20
29.95000000000937
 30
0.0
 11
1227.800000000003
 21
29.95000000000937
 31
0.0
  0
LINE
  5
E94
330
DED
100
AcDbEntity
  8
Visible (ISO)
100
AcDbLine
 10
1229.237897644671
 20
48.05000000000927
 30
0.0
 11
1227.800000000003
 21
48.05000000000927
 31
0.0
  0
ELLIPSE
  5
E95
330
DED
100
AcDbEntity
  8
Visible (ISO)
100
AcDbEllipse
 10
1230.762102355333
 20
-0.9999999999904503
 30
0.0
 11
15.6750598084983
 21
-0.0000000000026866
 31
0.0
210
0.0
220
0.0
230
1.0
 40
0.5773502691896273
 41
1.619434285796687
 42
1.760908579289657
  0
ELLIPSE
  5
E96
330
DED
100
AcDbEntity
  8
Visible (ISO)
100
AcDbEllipse
 10
1229.237897644671
 20
-0.9999999999904503
 30
0.0
 11
15.67505980849832
 21
-0.0000000000026866
 31
0.0
210
0.0
220
0.0
230
1.0
 40
0.5773502691896267
 41
1.522158367792621
 42
1.66265702213596
  0
LINE
  5
E97
330
DED
100
AcDbEntity
  8
Visible (ISO)
100
AcDbLine
 10
1227.800000000003
 20
7.886946412896122
 30
0.0
 11
1227.800000000003
 21
8.011843140445307
 31
0.0
  0
LINE
  5
E98
330
DED
100
AcDbEntity
  8
Visible (ISO)
100
AcDbLine
 10
1227.800000000003
 20
-10.04999999999063
 30
0.0
 11
1227.800000000003
 21
7.886946412896577
 31
0.0
  0
LINE
  5
E99
330
DED
100
AcDbEntity
  8
Visible (ISO)
100
AcDbLine
 10
1227.800000000003
 20
8.011843140445762
 30
0.0
 11
1227.800000000003
 21
8.050000000009731
 31
0.0
  0
LINE
  5
E9A
330
DED
100
AcDbEntity
  8
Visible (ISO)
100
AcDbLine
 10
1230.0
 20
-10.04999999999063
 30
0.0
 11
1227.800000000003
 21
-10.04999999999063
 31
0.0
  0
LINE
  5
E9B
330
DED
100
AcDbEntity
  8
Visible (ISO)
100
AcDbLine
 10
1229.237897644671
 20
8.050000000009276
 30
0.0
 11
1227.800000000003
 21
8.050000000009276
 31
0.0
  0
ELLIPSE
  5
E9C
330
DED
100
AcDbEntity
  8
Visible (ISO)
100
AcDbEllipse
 10
-1230.762102355329
 20
-0.9999999999899955
 30
0.0
 11
-15.6750598084983
 21
-0.0000000000026847
 31
0.0
210
0.0
220
0.0
230
1.0
 40
0.5773502691896273
 41
1.619434285797171
 42
1.760908579289958
  0
ELLIPSE
  5
E9D
330
DED
100
AcDbEntity
  8
Visible (ISO)
100
AcDbEllipse
 10
-1229.237897644667
 20
-0.9999999999899955
 30
0.0
 11
-15.67505980849832
 21
-0.0000000000026847
 31
0.0
210
0.0
220
0.0
230
1.0
 40
0.5773502691896267
 41
1.522158367793105
 42
1.662657022136453
  0
LINE
  5
E9E
330
DED
100
AcDbEntity
  8
Visible (ISO)
100
AcDbLine
 10
-1227.799999999999
 20
-9.886946412876113
 30
0.0
 11
-1227.799999999999
 21
-10.0118431404253
 31
0.0
  0
LINE
  5
E9F
330
DED
100
AcDbEntity
  8
Visible (ISO)
100
AcDbLine
 10
-1227.799999999999
 20
8.050000000009731
 30
0.0
 11
-1227.799999999999
 21
-9.886946412875659
 31
0.0
  0
LINE
  5
EA0
330
DED
100
AcDbEntity
  8
Visible (ISO)
100
AcDbLine
 10
-1227.799999999999
 20
-10.0118431404253
 30
0.0
 11
-1227.799999999999
 21
-10.04999999999018
 31
0.0
  0
LINE
  5
EA1
330
DED
100
AcDbEntity
  8
Visible (ISO)
100
AcDbLine
 10
-1229.999999999996
 20
8.050000000009731
 30
0.0
 11
-1227.799999999999
 21
8.050000000009731
 31
0.0
  0
LINE
  5
EA2
330
DED
100
AcDbEntity
  8
Visible (ISO)
100
AcDbLine
 10
-1229.237897644667
 20
-10.04999999999018
 30
0.0
 11
-1227.799999999999
 21
-10.04999999999018
 31
0.0
  0
ELLIPSE
  5
EA3
330
DED
100
AcDbEntity
  8
Visible (ISO)
100
AcDbEllipse
 10
-1230.762102355329
 20
39.00000000001
 30
0.0
 11
-15.6750598084983
 21
-0.0000000000026847
 31
0.0
210
0.0
220
0.0
230
1.0
 40
0.5773502691896273
 41
1.619434285797171
 42
1.760908579289958
  0
ELLIPSE
  5
EA4
330
DED
100
AcDbEntity
  8
Visible (ISO)
100
AcDbEllipse
 10
-1229.237897644667
 20
39.00000000001
 30
0.0
 11
-15.67505980849832
 21
-0.0000000000026847
 31
0.0
210
0.0
220
0.0
230
1.0
 40
0.5773502691896267
 41
1.522158367793105
 42
1.662657022136453
  0
LINE
  5
EA5
330
DED
100
AcDbEntity
  8
Visible (ISO)
100
AcDbLine
 10
-1227.799999999999
 20
30.11305358712389
 30
0.0
 11
-1227.799999999999
 21
29.9881568595747
 31
0.0
  0
LINE
  5
EA6
330
DED
100
AcDbEntity
  8
Visible (ISO)
100
AcDbLine
 10
-1227.799999999999
 20
48.05000000000973
 30
0.0
 11
-1227.799999999999
 21
30.11305358712434
 31
0.0
  0
LINE
  5
EA7
330
DED
100
AcDbEntity
  8
Visible (ISO)
100
AcDbLine
 10
-1227.799999999999
 20
29.9881568595747
 30
0.0
 11
-1227.799999999999
 21
29.95000000000982
 31
0.0
  0
LINE
  5
EA8
330
DED
100
AcDbEntity
  8
Visible (ISO)
100
AcDbLine
 10
-1229.999999999996
 20
48.05000000000973
 30
0.0
 11
-1227.799999999999
 21
48.05000000000973
 31
0.0
  0
LINE
  5
EA9
330
DED
100
AcDbEntity
  8
Visible (ISO)
100
AcDbLine
 10
-1229.237897644667
 20
29.95000000001028
 30
0.0
 11
-1227.799999999999
 21
29.95000000001028
 31
0.0
  0
ELLIPSE
  5
EAA
330
DED
100
AcDbEntity
  8
Visible (ISO)
100
AcDbEllipse
 10
1309.237897644671
 20
-550.9999999999904
 30
0.0
 11
-15.6750598084983
 21
-0.0000000000026847
 31
0.0
210
0.0
220
0.0
230
1.0
 40
0.5773502691896273
 41
1.619434285797171
 42
1.760908579289958
  0
ELLIPSE
  5
EAB
330
DED
100
AcDbEntity
  8
Visible (ISO)
100
AcDbEllipse
 10
1310.762102355333
 20
-550.9999999999904
 30
0.0
 11
-15.67505980849832
 21
-0.0000000000026847
 31
0.0
210
0.0
220
0.0
230
1.0
 40
0.5773502691896267
 41
1.522158367793105
 42
1.662657022136453
  0
LINE
  5
EAC
330
DED
100
AcDbEntity
  8
Visible (ISO)
100
AcDbLine
 10
1312.2
 20
-559.8869464128766
 30
0.0
 11
1312.2
 21
-560.0118431404257
 31
0.0
  0
LINE
  5
EAD
330
DED
100
AcDbEntity
  8
Visible (ISO)
100
AcDbLine
 10
1312.2
 20
-541.9499999999898
 30
0.0
 11
1312.2
 21
-559.886946412876
 31
0.0
  0
LINE
  5
EAE
330
DED
100
AcDbEntity
  8
Visible (ISO)
100
AcDbLine
 10
1312.2
 20
-560.0118431404257
 30
0.0
 11
1312.2
 21
-560.0499999999906
 31
0.0
  0
LINE
  5
EAF
330
DED
100
AcDbEntity
  8
Visible (ISO)
100
AcDbLine
 10
1310.000000000004
 20
-541.9499999999898
 30
0.0
 11
1312.2
 21
-541.9499999999898
 31
0.0
  0
LINE
  5
EB0
330
DED
100
AcDbEntity
  8
Visible (ISO)
100
AcDbLine
 10
1310.762102355333
 20
-560.0499999999906
 30
0.0
 11
1312.2
 21
-560.0499999999906
 31
0.0
  0
ELLIPSE
  5
EB1
330
DED
100
AcDbEntity
  8
Visible (ISO)
100
AcDbEllipse
 10
1309.237897644671
 20
-510.9999999999899
 30
0.0
 11
-15.6750598084983
 21
-0.0000000000026847
 31
0.0
210
0.0
220
0.0
230
1.0
 40
0.5773502691896273
 41
1.619434285797171
 42
1.760908579289958
  0
ELLIPSE
  5
EB2
330
DED
100
AcDbEntity
  8
Visible (ISO)
100
AcDbEllipse
 10
1310.762102355333
 20
-510.9999999999899
 30
0.0
 11
-15.67505980849832
 21
-0.0000000000026847
 31
0.0
210
0.0
220
0.0
230
1.0
 40
0.5773502691896267
 41
1.522158367793105
 42
1.662657022136453
  0
LINE
  5
EB3
330
DED
100
AcDbEntity
  8
Visible (ISO)
100
AcDbLine
 10
1312.2
 20
-519.8869464128765
 30
0.0
 11
1312.2
 21
-520.0118431404257
 31
0.0
  0
LINE
  5
EB4
330
DED
100
AcDbEntity
  8
Visible (ISO)
100
AcDbLine
 10
1312.2
 20
-501.9499999999898
 30
0.0
 11
1312.2
 21
-519.8869464128761
 31
0.0
  0
LINE
  5
EB5
330
DED
100
AcDbEntity
  8
Visible (ISO)
100
AcDbLine
 10
1312.2
 20
-520.0118431404257
 30
0.0
 11
1312.2
 21
-520.0499999999906
 31
0.0
  0
LINE
  5
EB6
330
DED
100
AcDbEntity
  8
Visible (ISO)
100
AcDbLine
 10
1310.000000000004
 20
-501.9499999999898
 30
0.0
 11
1312.2
 21
-501.9499999999898
 31
0.0
  0
LINE
  5
EB7
330
DED
100
AcDbEntity
  8
Visible (ISO)
100
AcDbLine
 10
1310.762102355333
 20
-520.0499999999906
 30
0.0
 11
1312.2
 21
-520.0499999999906
 31
0.0
  0
ELLIPSE
  5
EB8
330
DED
100
AcDbEntity
  8
Visible (ISO)
100
AcDbEllipse
 10
1230.762102355333
 20
-510.9999999999899
 30
0.0
 11
15.6750598084983
 21
-0.0000000000026866
 31
0.0
210
0.0
220
0.0
230
1.0
 40
0.5773502691896273
 41
1.619434285796687
 42
1.760908579289657
  0
ELLIPSE
  5
EB9
330
DED
100
AcDbEntity
  8
Visible (ISO)
100
AcDbEllipse
 10
1229.237897644671
 20
-510.9999999999899
 30
0.0
 11
15.67505980849832
 21
-0.0000000000026866
 31
0.0
210
0.0
220
0.0
230
1.0
 40
0.5773502691896267
 41
1.522158367792621
 42
1.66265702213596
  0
LINE
  5
EBA
330
DED
100
AcDbEntity
  8
Visible (ISO)
100
AcDbLine
 10
1227.800000000003
 20
-502.1130535871034
 30
0.0
 11
1227.800000000003
 21
-501.9881568595542
 31
0.0
  0
LINE
  5
EBB
330
DED
100
AcDbEntity
  8
Visible (ISO)
100
AcDbLine
 10
1227.800000000003
 20
-520.0499999999906
 30
0.0
 11
1227.800000000003
 21
-502.1130535871029
 31
0.0
  0
LINE
  5
EBC
330
DED
100
AcDbEntity
  8
Visible (ISO)
100
AcDbLine
 10
1227.800000000003
 20
-501.9881568595537
 30
0.0
 11
1227.800000000003
 21
-501.9499999999898
 31
0.0
  0
LINE
  5
EBD
330
DED
100
AcDbEntity
  8
Visible (ISO)
100
AcDbLine
 10
1230.0
 20
-520.0499999999906
 30
0.0
 11
1227.800000000003
 21
-520.0499999999906
 31
0.0
  0
LINE
  5
EBE
330
DED
100
AcDbEntity
  8
Visible (ISO)
100
AcDbLine
 10
1229.237897644671
 20
-501.9499999999898
 30
0.0
 11
1227.800000000003
 21
-501.9499999999898
 31
0.0
  0
ELLIPSE
  5
EBF
330
DED
100
AcDbEntity
  8
Visible (ISO)
100
AcDbEllipse
 10
1230.762102355333
 20
-550.9999999999904
 30
0.0
 11
15.6750598084983
 21
-0.0000000000026866
 31
0.0
210
0.0
220
0.0
230
1.0
 40
0.5773502691896273
 41
1.619434285796687
 42
1.760908579289657
  0
ELLIPSE
  5
EC0
330
DED
100
AcDbEntity
  8
Visible (ISO)
100
AcDbEllipse
 10
1229.237897644671
 20
-550.9999999999904
 30
0.0
 11
15.67505980849832
 21
-0.0000000000026866
 31
0.0
210
0.0
220
0.0
230
1.0
 40
0.5773502691896267
 41
1.522158367792621
 42
1.66265702213596
  0
LINE
  5
EC1
330
DED
100
AcDbEntity
  8
Visible (ISO)
100
AcDbLine
 10
1227.800000000003
 20
-542.1130535871034
 30
0.0
 11
1227.800000000003
 21
-541.9881568595542
 31
0.0
  0
LINE
  5
EC2
330
DED
100
AcDbEntity
  8
Visible (ISO)
100
AcDbLine
 10
1227.800000000003
 20
-560.0499999999906
 30
0.0
 11
1227.800000000003
 21
-542.1130535871029
 31
0.0
  0
LINE
  5
EC3
330
DED
100
AcDbEntity
  8
Visible (ISO)
100
AcDbLine
 10
1227.800000000003
 20
-541.9881568595542
 30
0.0
 11
1227.800000000003
 21
-541.9499999999898
 31
0.0
  0
LINE
  5
EC4
330
DED
100
AcDbEntity
  8
Visible (ISO)
100
AcDbLine
 10
1230.0
 20
-560.0499999999906
 30
0.0
 11
1227.800000000003
 21
-560.0499999999906
 31
0.0
  0
LINE
  5
EC5
330
DED
100
AcDbEntity
  8
Visible (ISO)
100
AcDbLine
 10
1229.237897644671
 20
-541.9499999999898
 30
0.0
 11
1227.800000000003
 21
-541.9499999999898
 31
0.0
  0
ELLIPSE
  5
EC6
330
DED
100
AcDbEntity
  8
Visible (ISO)
100
AcDbEllipse
 10
-1230.762102355329
 20
-550.9999999999904
 30
0.0
 11
-15.6750598084983
 21
-0.0000000000026847
 31
0.0
210
0.0
220
0.0
230
1.0
 40
0.5773502691896273
 41
1.619434285797171
 42
1.760908579289958
  0
ELLIPSE
  5
EC7
330
DED
100
AcDbEntity
  8
Visible (ISO)
100
AcDbEllipse
 10
-1229.237897644667
 20
-550.9999999999904
 30
0.0
 11
-15.67505980849832
 21
-0.0000000000026847
 31
0.0
210
0.0
220
0.0
230
1.0
 40
0.5773502691896267
 41
1.522158367793105
 42
1.662657022136453
  0
LINE
  5
EC8
330
DED
100
AcDbEntity
  8
Visible (ISO)
100
AcDbLine
 10
-1227.799999999999
 20
-559.8869464128766
 30
0.0
 11
-1227.799999999999
 21
-560.0118431404257
 31
0.0
  0
LINE
  5
EC9
330
DED
100
AcDbEntity
  8
Visible (ISO)
100
AcDbLine
 10
-1227.799999999999
 20
-541.9499999999898
 30
0.0
 11
-1227.799999999999
 21
-559.886946412876
 31
0.0
  0
LINE
  5
ECA
330
DED
100
AcDbEntity
  8
Visible (ISO)
100
AcDbLine
 10
-1227.799999999999
 20
-560.0118431404257
 30
0.0
 11
-1227.799999999999
 21
-560.0499999999906
 31
0.0
  0
LINE
  5
ECB
330
DED
100
AcDbEntity
  8
Visible (ISO)
100
AcDbLine
 10
-1229.999999999996
 20
-541.9499999999898
 30
0.0
 11
-1227.799999999999
 21
-541.9499999999898
 31
0.0
  0
LINE
  5
ECC
330
DED
100
AcDbEntity
  8
Visible (ISO)
100
AcDbLine
 10
-1229.237897644667
 20
-560.0499999999906
 30
0.0
 11
-1227.799999999999
 21
-560.0499999999906
 31
0.0
  0
ELLIPSE
  5
ECD
330
DED
100
AcDbEntity
  8
Visible (ISO)
100
AcDbEllipse
 10
-1230.762102355329
 20
-510.9999999999899
 30
0.0
 11
-15.6750598084983
 21
-0.0000000000026847
 31
0.0
210
0.0
220
0.0
230
1.0
 40
0.5773502691896273
 41
1.619434285797171
 42
1.760908579289958
  0
ELLIPSE
  5
ECE
330
DED
100
AcDbEntity
  8
Visible (ISO)
100
AcDbEllipse
 10
-1229.237897644667
 20
-510.9999999999899
 30
0.0
 11
-15.67505980849832
 21
-0.0000000000026847
 31
0.0
210
0.0
220
0.0
230
1.0
 40
0.5773502691896267
 41
1.522158367793105
 42
1.662657022136453
  0
LINE
  5
ECF
330
DED
100
AcDbEntity
  8
Visible (ISO)
100
AcDbLine
 10
-1227.799999999999
 20
-519.8869464128765
 30
0.0
 11
-1227.799999999999
 21
-520.0118431404257
 31
0.0
  0
LINE
  5
ED0
330
DED
100
AcDbEntity
  8
Visible (ISO)
100
AcDbLine
 10
-1227.799999999999
 20
-501.9499999999898
 30
0.0
 11
-1227.799999999999
 21
-519.8869464128761
 31
0.0
  0
LINE
  5
ED1
330
DED
100
AcDbEntity
  8
Visible (ISO)
100
AcDbLine
 10
-1227.799999999999
 20
-520.0118431404257
 30
0.0
 11
-1227.799999999999
 21
-520.0499999999906
 31
0.0
  0
LINE
  5
ED2
330
DED
100
AcDbEntity
  8
Visible (ISO)
100
AcDbLine
 10
-1229.999999999996
 20
-501.9499999999898
 30
0.0
 11
-1227.799999999999
 21
-501.9499999999898
 31
0.0
  0
LINE
  5
ED3
330
DED
100
AcDbEntity
  8
Visible (ISO)
100
AcDbLine
 10
-1229.237897644667
 20
-520.0499999999906
 30
0.0
 11
-1227.799999999999
 21
-520.0499999999906
 31
0.0
  0
ELLIPSE
  5
ED4
330
DED
100
AcDbEntity
  8
Visible (ISO)
100
AcDbEllipse
 10
-1249.999999999996
 20
58.23789764486128
 30
0.0
 11
0.0
 21
-15.67505980850111
 31
0.0
210
0.0
220
0.0
230
1.0
 40
0.5773502691895237
 41
1.619434285796976
 42
1.760908579289862
  0
ELLIPSE
  5
ED5
330
DED
100
AcDbEntity
  8
Visible (ISO)
100
AcDbEllipse
 10
-1249.999999999996
 20
59.76210235552207
 30
0.0
 11
0.0
 21
-15.67505980850113
 31
0.0
210
0.0
220
0.0
230
1.0
 40
0.577350269189523
 41
1.522158367792816
 42
1.662657022136253
  0
LINE
  5
ED6
330
DED
100
AcDbEntity
  8
Visible (ISO)
100
AcDbLine
 10
-1241.113053587109
 20
61.20000000019172
 30
0.0
 11
-1240.988156859563
 21
61.20000000019172
 31
0.0
  0
LINE
  5
ED7
330
DED
100
AcDbEntity
  8
Visible (ISO)
100
AcDbLine
 10
-1259.049999999996
 20
61.20000000019172
 30
0.0
 11
-1241.113053587109
 21
61.20000000019217
 31
0.0
  0
LINE
  5
ED8
330
DED
100
AcDbEntity
  8
Visible (ISO)
100
AcDbLine
 10
-1240.988156859563
 20
61.20000000019217
 30
0.0
 11
-1240.949999999997
 21
61.20000000019172
 31
0.0
  0
LINE
  5
ED9
330
DED
100
AcDbEntity
  8
Visible (ISO)
100
AcDbLine
 10
-1259.049999999996
 20
59.0000000001919
 30
0.0
 11
-1259.049999999996
 21
61.20000000019172
 31
0.0
  0
LINE
  5
EDA
330
DED
100
AcDbEntity
  8
Visible (ISO)
100
AcDbLine
 10
-1240.949999999997
 20
59.76210235552207
 30
0.0
 11
-1240.949999999997
 21
61.20000000019172
 31
0.0
  0
ELLIPSE
  5
EDB
330
DED
100
AcDbEntity
  8
Visible (ISO)
100
AcDbEllipse
 10
-1290.0
 20
58.23789764486128
 30
0.0
 11
0.0
 21
-15.67505980850111
 31
0.0
210
0.0
220
0.0
230
1.0
 40
0.5773502691895237
 41
1.619434285796976
 42
1.760908579289862
  0
ELLIPSE
  5
EDC
330
DED
100
AcDbEntity
  8
Visible (ISO)
100
AcDbEllipse
 10
-1290.0
 20
59.76210235552207
 30
0.0
 11
0.0
 21
-15.67505980850113
 31
0.0
210
0.0
220
0.0
230
1.0
 40
0.577350269189523
 41
1.522158367792816
 42
1.662657022136253
  0
LINE
  5
EDD
330
DED
100
AcDbEntity
  8
Visible (ISO)
100
AcDbLine
 10
-1281.113053587112
 20
61.20000000019172
 30
0.0
 11
-1280.988156859563
 21
61.20000000019172
 31
0.0
  0
LINE
  5
EDE
330
DED
100
AcDbEntity
  8
Visible (ISO)
100
AcDbLine
 10
-1299.049999999999
 20
61.20000000019172
 30
0.0
 11
-1281.113053587112
 21
61.20000000019217
 31
0.0
  0
LINE
  5
EDF
330
DED
100
AcDbEntity
  8
Visible (ISO)
100
AcDbLine
 10
-1280.988156859563
 20
61.20000000019217
 30
0.0
 11
-1280.95
 21
61.20000000019172
 31
0.0
  0
LINE
  5
EE0
330
DED
100
AcDbEntity
  8
Visible (ISO)
100
AcDbLine
 10
-1299.049999999999
 20
59.0000000001919
 30
0.0
 11
-1299.049999999999
 21
61.20000000019172
 31
0.0
  0
LINE
  5
EE1
330
DED
100
AcDbEntity
  8
Visible (ISO)
100
AcDbLine
 10
-1280.95
 20
59.76210235552207
 30
0.0
 11
-1280.95
 21
61.20000000019172
 31
0.0
  0
ELLIPSE
  5
EE2
330
DED
100
AcDbEntity
  8
Visible (ISO)
100
AcDbEllipse
 10
-1290.0
 20
1249.762102355522
 30
0.0
 11
-0.0000000000000019
 21
15.67505980849562
 31
0.0
210
0.0
220
0.0
230
1.0
 40
0.5773502691897261
 41
1.619434285796993
 42
1.760908579289844
  0
ELLIPSE
  5
EE3
330
DED
100
AcDbEntity
  8
Visible (ISO)
100
AcDbEllipse
 10
-1290.0
 20
1248.237897644862
 30
0.0
 11
-0.0000000000000019
 21
15.67505980849563
 31
0.0
210
0.0
220
0.0
230
1.0
 40
0.5773502691897256
 41
1.522158367792799
 42
1.662657022136285
  0
LINE
  5
EE4
330
DED
100
AcDbEntity
  8
Visible (ISO)
100
AcDbLine
 10
-1298.886946412884
 20
1246.800000000192
 30
0.0
 11
-1299.011843140433
 21
1246.800000000192
 31
0.0
  0
LINE
  5
EE5
330
DED
100
AcDbEntity
  8
Visible (ISO)
100
AcDbLine
 10
-1280.95
 20
1246.800000000191
 30
0.0
 11
-1298.886946412884
 21
1246.800000000192
 31
0.0
  0
LINE
  5
EE6
330
DED
100
AcDbEntity
  8
Visible (ISO)
100
AcDbLine
 10
-1299.011843140433
 20
1246.800000000191
 30
0.0
 11
-1299.049999999999
 21
1246.800000000191
 31
0.0
  0
LINE
  5
EE7
330
DED
100
AcDbEntity
  8
Visible (ISO)
100
AcDbLine
 10
-1280.95
 20
1249.000000000192
 30
0.0
 11
-1280.95
 21
1246.800000000191
 31
0.0
  0
LINE
  5
EE8
330
DED
100
AcDbEntity
  8
Visible (ISO)
100
AcDbLine
 10
-1299.049999999999
 20
1248.237897644862
 30
0.0
 11
-1299.049999999999
 21
1246.800000000191
 31
0.0
  0
ELLIPSE
  5
EE9
330
DED
100
AcDbEntity
  8
Visible (ISO)
100
AcDbEllipse
 10
-1250.0
 20
1249.762102355522
 30
0.0
 11
-0.0000000000000019
 21
15.67505980849562
 31
0.0
210
0.0
220
0.0
230
1.0
 40
0.5773502691897261
 41
1.619434285796993
 42
1.760908579289844
  0
ELLIPSE
  5
EEA
330
DED
100
AcDbEntity
  8
Visible (ISO)
100
AcDbEllipse
 10
-1250.0
 20
1248.237897644862
 30
0.0
 11
-0.0000000000000019
 21
15.67505980849563
 31
0.0
210
0.0
220
0.0
230
1.0
 40
0.5773502691897256
 41
1.522158367792799
 42
1.662657022136285
  0
LINE
  5
EEB
330
DED
100
AcDbEntity
  8
Visible (ISO)
100
AcDbLine
 10
-1258.886946412887
 20
1246.800000000192
 30
0.0
 11
-1259.011843140433
 21
1246.800000000192
 31
0.0
  0
LINE
  5
EEC
330
DED
100
AcDbEntity
  8
Visible (ISO)
100
AcDbLine
 10
-1240.950000000001
 20
1246.800000000191
 30
0.0
 11
-1258.886946412887
 21
1246.800000000192
 31
0.0
  0
LINE
  5
EED
330
DED
100
AcDbEntity
  8
Visible (ISO)
100
AcDbLine
 10
-1259.011843140433
 20
1246.800000000191
 30
0.0
 11
-1259.049999999999
 21
1246.800000000191
 31
0.0
  0
LINE
  5
EEE
330
DED
100
AcDbEntity
  8
Visible (ISO)
100
AcDbLine
 10
-1240.950000000001
 20
1249.000000000192
 30
0.0
 11
-1240.950000000001
 21
1246.800000000191
 31
0.0
  0
LINE
  5
EEF
330
DED
100
AcDbEntity
  8
Visible (ISO)
100
AcDbLine
 10
-1259.049999999999
 20
1248.237897644862
 30
0.0
 11
-1259.049999999999
 21
1246.800000000191
 31
0.0
  0
ELLIPSE
  5
EF0
330
DED
100
AcDbEntity
  8
Visible (ISO)
100
AcDbEllipse
 10
-1309.237897644667
 20
1309.000000000339
 30
0.0
 11
15.6750598084983
 21
-0.0000000000026828
 31
0.0
210
0.0
220
0.0
230
1.0
 40
0.5773502691896273
 41
1.619434285796687
 42
1.760908579289648
  0
ELLIPSE
  5
EF1
330
DED
100
AcDbEntity
  8
Visible (ISO)
100
AcDbEllipse
 10
-1310.762102355329
 20
1309.000000000339
 30
0.0
 11
15.67505980849832
 21
-0.0000000000026828
 31
0.0
210
0.0
220
0.0
230
1.0
 40
0.5773502691896267
 41
1.522158367792624
 42
1.662657022135963
  0
LINE
  5
EF2
330
DED
100
AcDbEntity
  8
Visible (ISO)
100
AcDbLine
 10
-1312.2
 20
1317.886946413227
 30
0.0
 11
-1312.2
 21
1318.011843140775
 31
0.0
  0
LINE
  5
EF3
330
DED
100
AcDbEntity
  8
Visible (ISO)
100
AcDbLine
 10
-1312.199999999997
 20
1299.950000000339
 30
0.0
 11
-1312.199999999997
 21
1317.886946413227
 31
0.0
  0
LINE
  5
EF4
330
DED
100
AcDbEntity
  8
Visible (ISO)
100
AcDbLine
 10
-1312.199999999997
 20
1318.011843140775
 30
0.0
 11
-1312.199999999997
 21
1318.050000000339
 31
0.0
  0
LINE
  5
EF5
330
DED
100
AcDbEntity
  8
Visible (ISO)
100
AcDbLine
 10
-1310.0
 20
1299.950000000339
 30
0.0
 11
-1312.2
 21
1299.950000000339
 31
0.0
  0
LINE
  5
EF6
330
DED
100
AcDbEntity
  8
Visible (ISO)
100
AcDbLine
 10
-1310.762102355329
 20
1318.050000000339
 30
0.0
 11
-1312.2
 21
1318.050000000339
 31
0.0
  0
ELLIPSE
  5
EF7
330
DED
100
AcDbEntity
  8
Visible (ISO)
100
AcDbEllipse
 10
-1309.237897644667
 20
1269.000000000338
 30
0.0
 11
15.6750598084983
 21
-0.0000000000026828
 31
0.0
210
0.0
220
0.0
230
1.0
 40
0.5773502691896273
 41
1.619434285796687
 42
1.760908579289648
  0
ELLIPSE
  5
EF8
330
DED
100
AcDbEntity
  8
Visible (ISO)
100
AcDbEllipse
 10
-1310.762102355329
 20
1269.000000000338
 30
0.0
 11
15.67505980849832
 21
-0.0000000000026828
 31
0.0
210
0.0
220
0.0
230
1.0
 40
0.5773502691896267
 41
1.522158367792624
 42
1.662657022135963
  0
LINE
  5
EF9
330
DED
100
AcDbEntity
  8
Visible (ISO)
100
AcDbLine
 10
-1312.2
 20
1277.886946413225
 30
0.0
 11
-1312.2
 21
1278.011843140774
 31
0.0
  0
LINE
  5
EFA
330
DED
100
AcDbEntity
  8
Visible (ISO)
100
AcDbLine
 10
-1312.199999999997
 20
1259.950000000338
 30
0.0
 11
-1312.199999999997
 21
1277.886946413226
 31
0.0
  0
LINE
  5
EFB
330
DED
100
AcDbEntity
  8
Visible (ISO)
100
AcDbLine
 10
-1312.199999999997
 20
1278.011843140774
 30
0.0
 11
-1312.199999999997
 21
1278.050000000338
 31
0.0
  0
LINE
  5
EFC
330
DED
100
AcDbEntity
  8
Visible (ISO)
100
AcDbLine
 10
-1310.0
 20
1259.950000000338
 30
0.0
 11
-1312.2
 21
1259.950000000338
 31
0.0
  0
LINE
  5
EFD
330
DED
100
AcDbEntity
  8
Visible (ISO)
100
AcDbLine
 10
-1310.762102355329
 20
1278.050000000338
 30
0.0
 11
-1312.2
 21
1278.050000000338
 31
0.0
  0
ELLIPSE
  5
EFE
330
DED
100
AcDbEntity
  8
Visible (ISO)
100
AcDbEllipse
 10
-2500.762102355326
 20
1269.000000000338
 30
0.0
 11
-15.6750598084983
 21
-0.0000000000026886
 31
0.0
210
0.0
220
0.0
230
1.0
 40
0.5773502691896273
 41
1.619434285797169
 42
1.760908579290069
  0
ELLIPSE
  5
EFF
330
DED
100
AcDbEntity
  8
Visible (ISO)
100
AcDbEllipse
 10
-2499.237897644667
 20
1269.000000000338
 30
0.0
 11
-15.67505980849832
 21
-0.0000000000026886
 31
0.0
210
0.0
220
0.0
230
1.0
 40
0.5773502691896267
 41
1.522158367792991
 42
1.662657022136444
  0
LINE
  5
F00
330
DED
100
AcDbEntity
  8
Visible (ISO)
100
AcDbLine
 10
-2497.799999999996
 20
1260.113053587452
 30
0.0
 11
-2497.799999999996
 21
1259.988156859903
 31
0.0
  0
LINE
  5
F01
330
DED
100
AcDbEntity
  8
Visible (ISO)
100
AcDbLine
 10
-2497.799999999996
 20
1278.050000000338
 30
0.0
 11
-2497.799999999996
 21
1260.113053587452
 31
0.0
  0
LINE
  5
F02
330
DED
100
AcDbEntity
  8
Visible (ISO)
100
AcDbLine
 10
-2497.799999999996
 20
1259.988156859903
 30
0.0
 11
-2497.799999999996
 21
1259.950000000338
 31
0.0
  0
LINE
  5
F03
330
DED
100
AcDbEntity
  8
Visible (ISO)
100
AcDbLine
 10
-2499.999999999996
 20
1278.050000000338
 30
0.0
 11
-2497.799999999996
 21
1278.050000000338
 31
0.0
  0
LINE
  5
F04
330
DED
100
AcDbEntity
  8
Visible (ISO)
100
AcDbLine
 10
-2499.237897644665
 20
1259.950000000338
 30
0.0
 11
-2497.799999999996
 21
1259.950000000338
 31
0.0
  0
ELLIPSE
  5
F05
330
DED
100
AcDbEntity
  8
Visible (ISO)
100
AcDbEllipse
 10
-2500.762102355326
 20
1309.000000000338
 30
0.0
 11
-15.6750598084983
 21
-0.0000000000026886
 31
0.0
210
0.0
220
0.0
230
1.0
 40
0.5773502691896273
 41
1.619434285797169
 42
1.760908579290069
  0
ELLIPSE
  5
F06
330
DED
100
AcDbEntity
  8
Visible (ISO)
100
AcDbEllipse
 10
-2499.237897644667
 20
1309.000000000338
 30
0.0
 11
-15.67505980849832
 21
-0.0000000000026886
 31
0.0
210
0.0
220
0.0
230
1.0
 40
0.5773502691896267
 41
1.522158367792991
 42
1.662657022136444
  0
LINE
  5
F07
330
DED
100
AcDbEntity
  8
Visible (ISO)
100
AcDbLine
 10
-2497.799999999996
 20
1300.113053587452
 30
0.0
 11
-2497.799999999996
 21
1299.988156859903
 31
0.0
  0
LINE
  5
F08
330
DED
100
AcDbEntity
  8
Visible (ISO)
100
AcDbLine
 10
-2497.799999999996
 20
1318.050000000339
 30
0.0
 11
-2497.799999999996
 21
1300.113053587452
 31
0.0
  0
LINE
  5
F09
330
DED
100
AcDbEntity
  8
Visible (ISO)
100
AcDbLine
 10
-2497.799999999996
 20
1299.988156859903
 30
0.0
 11
-2497.799999999996
 21
1299.950000000338
 31
0.0
  0
LINE
  5
F0A
330
DED
100
AcDbEntity
  8
Visible (ISO)
100
AcDbLine
 10
-2499.999999999996
 20
1318.050000000339
 30
0.0
 11
-2497.799999999996
 21
1318.050000000339
 31
0.0
  0
LINE
  5
F0B
330
DED
100
AcDbEntity
  8
Visible (ISO)
100
AcDbLine
 10
-2499.237897644665
 20
1299.950000000338
 30
0.0
 11
-2497.799999999996
 21
1299.950000000338
 31
0.0
  0
ELLIPSE
  5
F0C
330
DED
100
AcDbEntity
  8
Visible (ISO)
100
AcDbEllipse
 10
-1309.237897644667
 20
39.00000000019281
 30
0.0
 11
15.6750598084983
 21
-0.0000000000026908
 31
0.0
210
0.0
220
0.0
230
1.0
 40
0.5773502691896273
 41
1.619434285796687
 42
1.760908579289657
  0
ELLIPSE
  5
F0D
330
DED
100
AcDbEntity
  8
Visible (ISO)
100
AcDbEllipse
 10
-1310.762102355329
 20
39.00000000019281
 30
0.0
 11
15.67505980849832
 21
-0.0000000000026908
 31
0.0
210
0.0
220
0.0
230
1.0
 40
0.5773502691896267
 41
1.522158367792621
 42
1.66265702213596
  0
LINE
  5
F0E
330
DED
100
AcDbEntity
  8
Visible (ISO)
100
AcDbLine
 10
-1312.2
 20
47.88694641307984
 30
0.0
 11
-1312.2
 21
48.01184314062902
 31
0.0
  0
LINE
  5
F0F
330
DED
100
AcDbEntity
  8
Visible (ISO)
100
AcDbLine
 10
-1312.199999999997
 20
29.95000000019263
 30
0.0
 11
-1312.199999999997
 21
47.88694641308029
 31
0.0
  0
LINE
  5
F10
330
DED
100
AcDbEntity
  8
Visible (ISO)
100
AcDbLine
 10
-1312.199999999997
 20
48.01184314062902
 30
0.0
 11
-1312.199999999997
 21
48.05000000019345
 31
0.0
  0
LINE
  5
F11
330
DED
100
AcDbEntity
  8
Visible (ISO)
100
AcDbLine
 10
-1310.0
 20
29.95000000019263
 30
0.0
 11
-1312.2
 21
29.95000000019263
 31
0.0
  0
LINE
  5
F12
330
DED
100
AcDbEntity
  8
Visible (ISO)
100
AcDbLine
 10
-1310.762102355329
 20
48.05000000019299
 30
0.0
 11
-1312.2
 21
48.05000000019299
 31
0.0
  0
ELLIPSE
  5
F13
330
DED
100
AcDbEntity
  8
Visible (ISO)
100
AcDbEllipse
 10
-1309.237897644667
 20
-0.9999999998071871
 30
0.0
 11
15.6750598084983
 21
-0.0000000000026908
 31
0.0
210
0.0
220
0.0
230
1.0
 40
0.5773502691896273
 41
1.619434285796687
 42
1.760908579289657
  0
ELLIPSE
  5
F14
330
DED
100
AcDbEntity
  8
Visible (ISO)
100
AcDbEllipse
 10
-1310.762102355329
 20
-0.9999999998071871
 30
0.0
 11
15.67505980849832
 21
-0.0000000000026908
 31
0.0
210
0.0
220
0.0
230
1.0
 40
0.5773502691896267
 41
1.522158367792621
 42
1.66265702213596
  0
LINE
  5
F15
330
DED
100
AcDbEntity
  8
Visible (ISO)
100
AcDbLine
 10
-1312.2
 20
7.88694641307984
 30
0.0
 11
-1312.2
 21
8.01184314062857
 31
0.0
  0
LINE
  5
F16
330
DED
100
AcDbEntity
  8
Visible (ISO)
100
AcDbLine
 10
-1312.199999999997
 20
-10.04999999980737
 30
0.0
 11
-1312.199999999997
 21
7.886946413080295
 31
0.0
  0
LINE
  5
F17
330
DED
100
AcDbEntity
  8
Visible (ISO)
100
AcDbLine
 10
-1312.199999999997
 20
8.011843140629025
 30
0.0
 11
-1312.199999999997
 21
8.050000000192994
 31
0.0
  0
LINE
  5
F18
330
DED
100
AcDbEntity
  8
Visible (ISO)
100
AcDbLine
 10
-1310.0
 20
-10.04999999980691
 30
0.0
 11
-1312.2
 21
-10.04999999980691
 31
0.0
  0
LINE
  5
F19
330
DED
100
AcDbEntity
  8
Visible (ISO)
100
AcDbLine
 10
-1310.762102355329
 20
8.050000000192994
 30
0.0
 11
-1312.2
 21
8.050000000192994
 31
0.0
  0
ELLIPSE
  5
F1A
330
DED
100
AcDbEntity
  8
Visible (ISO)
100
AcDbEllipse
 10
-2500.762102355326
 20
-0.9999999998067323
 30
0.0
 11
-15.6750598084983
 21
-0.0000000000026805
 31
0.0
210
0.0
220
0.0
230
1.0
 40
0.5773502691896273
 41
1.619434285797172
 42
1.760908579290069
  0
ELLIPSE
  5
F1B
330
DED
100
AcDbEntity
  8
Visible (ISO)
100
AcDbEllipse
 10
-2499.237897644667
 20
-0.9999999998067323
 30
0.0
 11
-15.67505980849832
 21
-0.0000000000026805
 31
0.0
210
0.0
220
0.0
230
1.0
 40
0.5773502691896267
 41
1.522158367792993
 42
1.662657022136453
  0
LINE
  5
F1C
330
DED
100
AcDbEntity
  8
Visible (ISO)
100
AcDbLine
 10
-2497.799999999996
 20
-9.88694641269285
 30
0.0
 11
-2497.799999999996
 21
-10.01184314024203
 31
0.0
  0
LINE
  5
F1D
330
DED
100
AcDbEntity
  8
Visible (ISO)
100
AcDbLine
 10
-2497.799999999996
 20
8.050000000193449
 30
0.0
 11
-2497.799999999996
 21
-9.886946412692395
 31
0.0
  0
LINE
  5
F1E
330
DED
100
AcDbEntity
  8
Visible (ISO)
100
AcDbLine
 10
-2497.799999999996
 20
-10.01184314024203
 30
0.0
 11
-2497.799999999996
 21
-10.04999999980691
 31
0.0
  0
LINE
  5
F1F
330
DED
100
AcDbEntity
  8
Visible (ISO)
100
AcDbLine
 10
-2499.999999999996
 20
8.050000000193449
 30
0.0
 11
-2497.799999999996
 21
8.050000000193449
 31
0.0
  0
LINE
  5
F20
330
DED
100
AcDbEntity
  8
Visible (ISO)
100
AcDbLine
 10
-2499.237897644665
 20
-10.04999999980691
 30
0.0
 11
-2497.799999999996
 21
-10.04999999980691
 31
0.0
  0
ELLIPSE
  5
F21
330
DED
100
AcDbEntity
  8
Visible (ISO)
100
AcDbEllipse
 10
-2500.762102355326
 20
39.00000000019327
 30
0.0
 11
-15.6750598084983
 21
-0.0000000000026805
 31
0.0
210
0.0
220
0.0
230
1.0
 40
0.5773502691896273
 41
1.619434285797172
 42
1.760908579290069
  0
ELLIPSE
  5
F22
330
DED
100
AcDbEntity
  8
Visible (ISO)
100
AcDbEllipse
 10
-2499.237897644667
 20
39.00000000019327
 30
0.0
 11
-15.67505980849832
 21
-0.0000000000026805
 31
0.0
210
0.0
220
0.0
230
1.0
 40
0.5773502691896267
 41
1.522158367792993
 42
1.662657022136453
  0
LINE
  5
F23
330
DED
100
AcDbEntity
  8
Visible (ISO)
100
AcDbLine
 10
-2497.799999999996
 20
30.11305358730715
 30
0.0
 11
-2497.799999999996
 21
29.98815685975797
 31
0.0
  0
LINE
  5
F24
330
DED
100
AcDbEntity
  8
Visible (ISO)
100
AcDbLine
 10
-2497.799999999996
 20
48.0500000001939
 30
0.0
 11
-2497.799999999996
 21
30.11305358730761
 31
0.0
  0
LINE
  5
F25
330
DED
100
AcDbEntity
  8
Visible (ISO)
100
AcDbLine
 10
-2497.799999999996
 20
29.98815685975797
 30
0.0
 11
-2497.799999999996
 21
29.95000000019309
 31
0.0
  0
LINE
  5
F26
330
DED
100
AcDbEntity
  8
Visible (ISO)
100
AcDbLine
 10
-2499.999999999996
 20
48.0500000001939
 30
0.0
 11
-2497.799999999996
 21
48.0500000001939
 31
0.0
  0
LINE
  5
F27
330
DED
100
AcDbEntity
  8
Visible (ISO)
100
AcDbLine
 10
-2499.237897644665
 20
29.95000000019354
 30
0.0
 11
-2497.799999999996
 21
29.95000000019354
 31
0.0
  0
ELLIPSE
  5
F28
330
DED
100
AcDbEntity
  8
Visible (ISO)
100
AcDbEllipse
 10
-2559.999999999997
 20
1249.762102355672
 30
0.0
 11
0.0000000000000235
 21
15.67505980849562
 31
0.0
210
0.0
220
0.0
230
1.0
 40
0.5773502691897261
 41
1.619434285796994
 42
1.760908579289845
  0
ELLIPSE
  5
F29
330
DED
100
AcDbEntity
  8
Visible (ISO)
100
AcDbEllipse
 10
-2559.999999999997
 20
1248.237897645012
 30
0.0
 11
0.0000000000000235
 21
15.67505980849563
 31
0.0
210
0.0
220
0.0
230
1.0
 40
0.5773502691897256
 41
1.522158367792801
 42
1.662657022136286
  0
LINE
  5
F2A
330
DED
100
AcDbEntity
  8
Visible (ISO)
100
AcDbLine
 10
-2568.886946412884
 20
1246.800000000341
 30
0.0
 11
-2569.011843140432
 21
1246.800000000341
 31
0.0
  0
LINE
  5
F2B
330
DED
100
AcDbEntity
  8
Visible (ISO)
100
AcDbLine
 10
-2550.949999999997
 20
1246.800000000341
 30
0.0
 11
-2568.886946412884
 21
1246.800000000342
 31
0.0
  0
LINE
  5
F2C
330
DED
100
AcDbEntity
  8
Visible (ISO)
100
AcDbLine
 10
-2569.011843140434
 20
1246.800000000341
 30
0.0
 11
-2569.049999999998
 21
1246.800000000341
 31
0.0
  0
LINE
  5
F2D
330
DED
100
AcDbEntity
  8
Visible (ISO)
100
AcDbLine
 10
-2550.949999999997
 20
1249.000000000342
 30
0.0
 11
-2550.949999999997
 21
1246.800000000341
 31
0.0
  0
LINE
  5
F2E
330
DED
100
AcDbEntity
  8
Visible (ISO)
100
AcDbLine
 10
-2569.049999999998
 20
1248.237897645012
 30
0.0
 11
-2569.049999999998
 21
1246.800000000341
 31
0.0
  0
ELLIPSE
  5
F2F
330
DED
100
AcDbEntity
  8
Visible (ISO)
100
AcDbEllipse
 10
-2519.999999999996
 20
1249.762102355672
 30
0.0
 11
0.0000000000000235
 21
15.67505980849562
 31
0.0
210
0.0
220
0.0
230
1.0
 40
0.5773502691897261
 41
1.619434285796994
 42
1.760908579289845
  0
ELLIPSE
  5
F30
330
DED
100
AcDbEntity
  8
Visible (ISO)
100
AcDbEllipse
 10
-2519.999999999996
 20
1248.237897645012
 30
0.0
 11
0.0000000000000235
 21
15.67505980849563
 31
0.0
210
0.0
220
0.0
230
1.0
 40
0.5773502691897256
 41
1.522158367792801
 42
1.662657022136286
  0
LINE
  5
F31
330
DED
100
AcDbEntity
  8
Visible (ISO)
100
AcDbLine
 10
-2528.886946412882
 20
1246.800000000342
 30
0.0
 11
-2529.011843140432
 21
1246.800000000342
 31
0.0
  0
LINE
  5
F32
330
DED
100
AcDbEntity
  8
Visible (ISO)
100
AcDbLine
 10
-2510.949999999996
 20
1246.800000000341
 30
0.0
 11
-2528.886946412882
 21
1246.800000000342
 31
0.0
  0
LINE
  5
F33
330
DED
100
AcDbEntity
  8
Visible (ISO)
100
AcDbLine
 10
-2529.011843140434
 20
1246.800000000341
 30
0.0
 11
-2529.049999999996
 21
1246.800000000341
 31
0.0
  0
LINE
  5
F34
330
DED
100
AcDbEntity
  8
Visible (ISO)
100
AcDbLine
 10
-2510.949999999996
 20
1249.000000000342
 30
0.0
 11
-2510.949999999996
 21
1246.800000000341
 31
0.0
  0
LINE
  5
F35
330
DED
100
AcDbEntity
  8
Visible (ISO)
100
AcDbLine
 10
-2529.049999999996
 20
1248.237897645012
 30
0.0
 11
-2529.049999999996
 21
1246.800000000341
 31
0.0
  0
ELLIPSE
  5
F36
330
DED
100
AcDbEntity
  8
Visible (ISO)
100
AcDbEllipse
 10
-2519.999999999998
 20
58.23789764501134
 30
0.0
 11
-0.0000000000000216
 21
-15.67505980850098
 31
0.0
210
0.0
220
0.0
230
1.0
 40
0.5773502691895286
 41
1.619434285796977
 42
1.760908579289865
  0
ELLIPSE
  5
F37
330
DED
100
AcDbEntity
  8
Visible (ISO)
100
AcDbEllipse
 10
-2519.999999999998
 20
59.76210235567214
 30
0.0
 11
-0.0000000000000216
 21
-15.675059808501
 31
0.0
210
0.0
220
0.0
230
1.0
 40
0.577350269189528
 41
1.522158367792817
 42
1.662657022136254
  0
LINE
  5
F38
330
DED
100
AcDbEntity
  8
Visible (ISO)
100
AcDbLine
 10
-2511.113053587111
 20
61.20000000034178
 30
0.0
 11
-2510.988156859563
 21
61.20000000034178
 31
0.0
  0
LINE
  5
F39
330
DED
100
AcDbEntity
  8
Visible (ISO)
100
AcDbLine
 10
-2529.049999999998
 20
61.20000000034178
 30
0.0
 11
-2511.113053587111
 21
61.20000000034224
 31
0.0
  0
LINE
  5
F3A
330
DED
100
AcDbEntity
  8
Visible (ISO)
100
AcDbLine
 10
-2510.988156859561
 20
61.20000000034224
 30
0.0
 11
-2510.949999999998
 21
61.20000000034178
 31
0.0
  0
LINE
  5
F3B
330
DED
100
AcDbEntity
  8
Visible (ISO)
100
AcDbLine
 10
-2529.049999999998
 20
59.00000000034197
 30
0.0
 11
-2529.049999999998
 21
61.20000000034178
 31
0.0
  0
LINE
  5
F3C
330
DED
100
AcDbEntity
  8
Visible (ISO)
100
AcDbLine
 10
-2510.949999999998
 20
59.76210235567214
 30
0.0
 11
-2510.949999999998
 21
61.20000000034178
 31
0.0
  0
ELLIPSE
  5
F3D
330
DED
100
AcDbEntity
  8
Visible (ISO)
100
AcDbEllipse
 10
-2559.999999999999
 20
58.23789764501089
 30
0.0
 11
-0.0000000000000216
 21
-15.67505980850098
 31
0.0
210
0.0
220
0.0
230
1.0
 40
0.5773502691895286
 41
1.619434285796977
 42
1.760908579289865
  0
ELLIPSE
  5
F3E
330
DED
100
AcDbEntity
  8
Visible (ISO)
100
AcDbEllipse
 10
-2559.999999999999
 20
59.76210235567169
 30
0.0
 11
-0.0000000000000216
 21
-15.675059808501
 31
0.0
210
0.0
220
0.0
230
1.0
 40
0.577350269189528
 41
1.522158367792817
 42
1.662657022136254
  0
LINE
  5
F3F
330
DED
100
AcDbEntity
  8
Visible (ISO)
100
AcDbLine
 10
-2551.113053587112
 20
61.20000000034178
 30
0.0
 11
-2550.988156859563
 21
61.20000000034178
 31
0.0
  0
LINE
  5
F40
330
DED
100
AcDbEntity
  8
Visible (ISO)
100
AcDbLine
 10
-2569.049999999999
 20
61.20000000034178
 30
0.0
 11
-2551.113053587112
 21
61.20000000034178
 31
0.0
  0
LINE
  5
F41
330
DED
100
AcDbEntity
  8
Visible (ISO)
100
AcDbLine
 10
-2550.988156859563
 20
61.20000000034178
 30
0.0
 11
-2550.949999999999
 21
61.20000000034178
 31
0.0
  0
LINE
  5
F42
330
DED
100
AcDbEntity
  8
Visible (ISO)
100
AcDbLine
 10
-2569.049999999999
 20
59.00000000034151
 30
0.0
 11
-2569.049999999999
 21
61.20000000034178
 31
0.0
  0
LINE
  5
F43
330
DED
100
AcDbEntity
  8
Visible (ISO)
100
AcDbLine
 10
-2550.949999999999
 20
59.76210235567169
 30
0.0
 11
-2550.949999999999
 21
61.20000000034133
 31
0.0
  0
LINE
  5
F44
330
DED
100
AcDbEntity
  8
Visible (ISO)
100
AcDbLine
 10
1317.7
 20
3.700000000009822
 30
0.0
 11
1317.7
 21
-5.699999999990723
 31
0.0
  0
ARC
  5
F45
330
DED
100
AcDbEntity
  8
Visible (ISO)
100
AcDbCircle
 10
1313.649999999998
 20
3.700000000009822
 30
0.0
 40
4.05
100
AcDbArc
 50
0.0
 51
90.0
  0
ARC
  5
F46
330
DED
100
AcDbEntity
  8
Visible (ISO)
100
AcDbCircle
 10
1313.649999999998
 20
-5.699999999990723
 30
0.0
 40
4.05
100
AcDbArc
 50
270.0
 51
0.0
  0
LINE
  5
F47
330
DED
100
AcDbEntity
  8
Visible (ISO)
100
AcDbLine
 10
1313.649999999998
 20
-9.74999999999045
 30
0.0
 11
1312.2
 21
-9.74999999999045
 31
0.0
  0
LINE
  5
F48
330
DED
100
AcDbEntity
  8
Visible (ISO)
100
AcDbLine
 10
1313.649999999998
 20
7.750000000009549
 30
0.0
 11
1312.2
 21
7.750000000009549
 31
0.0
  0
LINE
  5
F49
330
DED
100
AcDbEntity
  8
Visible (ISO)
100
AcDbLine
 10
1317.7
 20
43.70000000000982
 30
0.0
 11
1317.7
 21
34.30000000000928
 31
0.0
  0
ARC
  5
F4A
330
DED
100
AcDbEntity
  8
Visible (ISO)
100
AcDbCircle
 10
1313.649999999998
 20
43.70000000000982
 30
0.0
 40
4.05
100
AcDbArc
 50
0.0
 51
90.0
  0
ARC
  5
F4B
330
DED
100
AcDbEntity
  8
Visible (ISO)
100
AcDbCircle
 10
1313.649999999998
 20
34.30000000000928
 30
0.0
 40
4.05
100
AcDbArc
 50
270.0
 51
0.0
  0
LINE
  5
F4C
330
DED
100
AcDbEntity
  8
Visible (ISO)
100
AcDbLine
 10
1313.649999999998
 20
30.25000000000955
 30
0.0
 11
1312.2
 21
30.25000000000955
 31
0.0
  0
LINE
  5
F4D
330
DED
100
AcDbEntity
  8
Visible (ISO)
100
AcDbLine
 10
1313.649999999998
 20
47.75000000000955
 30
0.0
 11
1312.2
 21
47.75000000000955
 31
0.0
  0
LINE
  5
F4E
330
DED
100
AcDbEntity
  8
Visible (ISO)
100
AcDbLine
 10
1222.299999999999
 20
34.30000000000928
 30
0.0
 11
1222.299999999999
 21
43.70000000000982
 31
0.0
  0
ARC
  5
F4F
330
DED
100
AcDbEntity
  8
Visible (ISO)
100
AcDbCircle
 10
1226.350000000002
 20
34.30000000000928
 30
0.0
 40
4.05
100
AcDbArc
 50
180.0
 51
270.0
  0
ARC
  5
F50
330
DED
100
AcDbEntity
  8
Visible (ISO)
100
AcDbCircle
 10
1226.350000000002
 20
43.70000000000982
 30
0.0
 40
4.05
100
AcDbArc
 50
90.0
 51
180.0
  0
LINE
  5
F51
330
DED
100
AcDbEntity
  8
Visible (ISO)
100
AcDbLine
 10
1226.350000000002
 20
47.75000000000955
 30
0.0
 11
1227.800000000003
 21
47.75000000000955
 31
0.0
  0
LINE
  5
F52
330
DED
100
AcDbEntity
  8
Visible (ISO)
100
AcDbLine
 10
1226.350000000002
 20
30.25000000000955
 30
0.0
 11
1227.800000000003
 21
30.25000000000955
 31
0.0
  0
LINE
  5
F53
330
DED
100
AcDbEntity
  8
Visible (ISO)
100
AcDbLine
 10
1222.299999999999
 20
-5.699999999990723
 30
0.0
 11
1222.299999999999
 21
3.700000000009822
 31
0.0
  0
ARC
  5
F54
330
DED
100
AcDbEntity
  8
Visible (ISO)
100
AcDbCircle
 10
1226.350000000002
 20
-5.699999999990723
 30
0.0
 40
4.05
100
AcDbArc
 50
180.0
 51
270.0
  0
ARC
  5
F55
330
DED
100
AcDbEntity
  8
Visible (ISO)
100
AcDbCircle
 10
1226.350000000002
 20
3.700000000009822
 30
0.0
 40
4.05
100
AcDbArc
 50
90.0
 51
180.0
  0
LINE
  5
F56
330
DED
100
AcDbEntity
  8
Visible (ISO)
100
AcDbLine
 10
1226.350000000002
 20
7.750000000009549
 30
0.0
 11
1227.800000000003
 21
7.750000000009549
 31
0.0
  0
LINE
  5
F57
330
DED
100
AcDbEntity
  8
Visible (ISO)
100
AcDbLine
 10
1226.350000000002
 20
-9.74999999999045
 30
0.0
 11
1227.800000000003
 21
-9.74999999999045
 31
0.0
  0
LINE
  5
F58
330
DED
100
AcDbEntity
  8
Visible (ISO)
100
AcDbLine
 10
-1222.299999999995
 20
3.700000000010277
 30
0.0
 11
-1222.299999999995
 21
-5.699999999990268
 31
0.0
  0
ARC
  5
F59
330
DED
100
AcDbEntity
  8
Visible (ISO)
100
AcDbCircle
 10
-1226.349999999998
 20
3.700000000010277
 30
0.0
 40
4.05
100
AcDbArc
 50
0.0
 51
90.0
  0
ARC
  5
F5A
330
DED
100
AcDbEntity
  8
Visible (ISO)
100
AcDbCircle
 10
-1226.349999999998
 20
-5.699999999990268
 30
0.0
 40
4.05
100
AcDbArc
 50
270.0
 51
0.0
  0
LINE
  5
F5B
330
DED
100
AcDbEntity
  8
Visible (ISO)
100
AcDbLine
 10
-1226.349999999998
 20
-9.749999999989995
 30
0.0
 11
-1227.799999999999
 21
-9.749999999989995
 31
0.0
  0
LINE
  5
F5C
330
DED
100
AcDbEntity
  8
Visible (ISO)
100
AcDbLine
 10
-1226.349999999998
 20
7.750000000010004
 30
0.0
 11
-1227.799999999999
 21
7.750000000010004
 31
0.0
  0
LINE
  5
F5D
330
DED
100
AcDbEntity
  8
Visible (ISO)
100
AcDbLine
 10
-1222.299999999995
 20
43.70000000001027
 30
0.0
 11
-1222.299999999995
 21
34.30000000000973
 31
0.0
  0
ARC
  5
F5E
330
DED
100
AcDbEntity
  8
Visible (ISO)
100
AcDbCircle
 10
-1226.349999999998
 20
43.70000000001027
 30
0.0
 40
4.05
100
AcDbArc
 50
0.0
 51
90.0
  0
ARC
  5
F5F
330
DED
100
AcDbEntity
  8
Visible (ISO)
100
AcDbCircle
 10
-1226.349999999998
 20
34.30000000000973
 30
0.0
 40
4.05
100
AcDbArc
 50
270.0
 51
0.0
  0
LINE
  5
F60
330
DED
100
AcDbEntity
  8
Visible (ISO)
100
AcDbLine
 10
-1226.349999999998
 20
30.25000000001
 30
0.0
 11
-1227.799999999999
 21
30.25000000001
 31
0.0
  0
LINE
  5
F61
330
DED
100
AcDbEntity
  8
Visible (ISO)
100
AcDbLine
 10
-1226.349999999998
 20
47.75000000001
 30
0.0
 11
-1227.799999999999
 21
47.75000000001
 31
0.0
  0
LINE
  5
F62
330
DED
100
AcDbEntity
  8
Visible (ISO)
100
AcDbLine
 10
1317.7
 20
-546.2999999999901
 30
0.0
 11
1317.7
 21
-555.6999999999902
 31
0.0
  0
ARC
  5
F63
330
DED
100
AcDbEntity
  8
Visible (ISO)
100
AcDbCircle
 10
1313.649999999998
 20
-546.2999999999901
 30
0.0
 40
4.05
100
AcDbArc
 50
0.0
 51
90.0
  0
ARC
  5
F64
330
DED
100
AcDbEntity
  8
Visible (ISO)
100
AcDbCircle
 10
1313.649999999998
 20
-555.6999999999902
 30
0.0
 40
4.05
100
AcDbArc
 50
270.0
 51
0.0
  0
LINE
  5
F65
330
DED
100
AcDbEntity
  8
Visible (ISO)
100
AcDbLine
 10
1313.649999999998
 20
-559.7499999999904
 30
0.0
 11
1312.2
 21
-559.7499999999904
 31
0.0
  0
LINE
  5
F66
330
DED
100
AcDbEntity
  8
Visible (ISO)
100
AcDbLine
 10
1313.649999999998
 20
-542.2499999999899
 30
0.0
 11
1312.2
 21
-542.2499999999899
 31
0.0
  0
LINE
  5
F67
330
DED
100
AcDbEntity
  8
Visible (ISO)
100
AcDbLine
 10
1317.7
 20
-506.2999999999902
 30
0.0
 11
1317.7
 21
-515.6999999999903
 31
0.0
  0
ARC
  5
F68
330
DED
100
AcDbEntity
  8
Visible (ISO)
100
AcDbCircle
 10
1313.649999999998
 20
-506.2999999999902
 30
0.0
 40
4.05
100
AcDbArc
 50
0.0
 51
90.0
  0
ARC
  5
F69
330
DED
100
AcDbEntity
  8
Visible (ISO)
100
AcDbCircle
 10
1313.649999999998
 20
-515.6999999999903
 30
0.0
 40
4.05
100
AcDbArc
 50
270.0
 51
0.0
  0
LINE
  5
F6A
330
DED
100
AcDbEntity
  8
Visible (ISO)
100
AcDbLine
 10
1313.649999999998
 20
-519.7499999999904
 30
0.0
 11
1312.2
 21
-519.7499999999904
 31
0.0
  0
LINE
  5
F6B
330
DED
100
AcDbEntity
  8
Visible (ISO)
100
AcDbLine
 10
1313.649999999998
 20
-502.24999999999
 30
0.0
 11
1312.2
 21
-502.24999999999
 31
0.0
  0
LINE
  5
F6C
330
DED
100
AcDbEntity
  8
Visible (ISO)
100
AcDbLine
 10
1222.299999999999
 20
-515.6999999999903
 30
0.0
 11
1222.299999999999
 21
-506.2999999999902
 31
0.0
  0
ARC
  5
F6D
330
DED
100
AcDbEntity
  8
Visible (ISO)
100
AcDbCircle
 10
1226.350000000002
 20
-515.6999999999903
 30
0.0
 40
4.05
100
AcDbArc
 50
180.0
 51
270.0
  0
ARC
  5
F6E
330
DED
100
AcDbEntity
  8
Visible (ISO)
100
AcDbCircle
 10
1226.350000000002
 20
-506.2999999999902
 30
0.0
 40
4.05
100
AcDbArc
 50
90.0
 51
180.0
  0
LINE
  5
F6F
330
DED
100
AcDbEntity
  8
Visible (ISO)
100
AcDbLine
 10
1226.350000000002
 20
-502.24999999999
 30
0.0
 11
1227.800000000003
 21
-502.24999999999
 31
0.0
  0
LINE
  5
F70
330
DED
100
AcDbEntity
  8
Visible (ISO)
100
AcDbLine
 10
1226.350000000002
 20
-519.7499999999904
 30
0.0
 11
1227.800000000003
 21
-519.7499999999904
 31
0.0
  0
LINE
  5
F71
330
DED
100
AcDbEntity
  8
Visible (ISO)
100
AcDbLine
 10
1222.299999999999
 20
-555.6999999999902
 30
0.0
 11
1222.299999999999
 21
-546.2999999999901
 31
0.0
  0
ARC
  5
F72
330
DED
100
AcDbEntity
  8
Visible (ISO)
100
AcDbCircle
 10
1226.350000000002
 20
-555.6999999999902
 30
0.0
 40
4.05
100
AcDbArc
 50
180.0
 51
270.0
  0
ARC
  5
F73
330
DED
100
AcDbEntity
  8
Visible (ISO)
100
AcDbCircle
 10
1226.350000000002
 20
-546.2999999999901
 30
0.0
 40
4.05
100
AcDbArc
 50
90.0
 51
180.0
  0
LINE
  5
F74
330
DED
100
AcDbEntity
  8
Visible (ISO)
100
AcDbLine
 10
1226.350000000002
 20
-542.2499999999899
 30
0.0
 11
1227.800000000003
 21
-542.2499999999899
 31
0.0
  0
LINE
  5
F75
330
DED
100
AcDbEntity
  8
Visible (ISO)
100
AcDbLine
 10
1226.350000000002
 20
-559.7499999999904
 30
0.0
 11
1227.800000000003
 21
-559.7499999999904
 31
0.0
  0
LINE
  5
F76
330
DED
100
AcDbEntity
  8
Visible (ISO)
100
AcDbLine
 10
-1222.299999999995
 20
-546.2999999999901
 30
0.0
 11
-1222.299999999995
 21
-555.6999999999902
 31
0.0
  0
ARC
  5
F77
330
DED
100
AcDbEntity
  8
Visible (ISO)
100
AcDbCircle
 10
-1226.349999999998
 20
-546.2999999999901
 30
0.0
 40
4.05
100
AcDbArc
 50
0.0
 51
90.0
  0
ARC
  5
F78
330
DED
100
AcDbEntity
  8
Visible (ISO)
100
AcDbCircle
 10
-1226.349999999998
 20
-555.6999999999902
 30
0.0
 40
4.05
100
AcDbArc
 50
270.0
 51
0.0
  0
LINE
  5
F79
330
DED
100
AcDbEntity
  8
Visible (ISO)
100
AcDbLine
 10
-1226.349999999998
 20
-559.7499999999904
 30
0.0
 11
-1227.799999999999
 21
-559.7499999999904
 31
0.0
  0
LINE
  5
F7A
330
DED
100
AcDbEntity
  8
Visible (ISO)
100
AcDbLine
 10
-1226.349999999998
 20
-542.2499999999899
 30
0.0
 11
-1227.799999999999
 21
-542.2499999999899
 31
0.0
  0
LINE
  5
F7B
330
DED
100
AcDbEntity
  8
Visible (ISO)
100
AcDbLine
 10
-1222.299999999995
 20
-506.2999999999902
 30
0.0
 11
-1222.299999999995
 21
-515.6999999999903
 31
0.0
  0
ARC
  5
F7C
330
DED
100
AcDbEntity
  8
Visible (ISO)
100
AcDbCircle
 10
-1226.349999999998
 20
-506.2999999999902
 30
0.0
 40
4.05
100
AcDbArc
 50
0.0
 51
90.0
  0
ARC
  5
F7D
330
DED
100
AcDbEntity
  8
Visible (ISO)
100
AcDbCircle
 10
-1226.349999999998
 20
-515.6999999999903
 30
0.0
 40
4.05
100
AcDbArc
 50
270.0
 51
0.0
  0
LINE
  5
F7E
330
DED
100
AcDbEntity
  8
Visible (ISO)
100
AcDbLine
 10
-1226.349999999998
 20
-519.7499999999904
 30
0.0
 11
-1227.799999999999
 21
-519.7499999999904
 31
0.0
  0
LINE
  5
F7F
330
DED
100
AcDbEntity
  8
Visible (ISO)
100
AcDbLine
 10
-1226.349999999998
 20
-502.24999999999
 30
0.0
 11
-1227.799999999999
 21
-502.24999999999
 31
0.0
  0
LINE
  5
F80
330
DED
100
AcDbEntity
  8
Visible (ISO)
100
AcDbLine
 10
-1254.699999999997
 20
66.70000000019218
 30
0.0
 11
-1245.299999999996
 21
66.70000000019218
 31
0.0
  0
ARC
  5
F81
330
DED
100
AcDbEntity
  8
Visible (ISO)
100
AcDbCircle
 10
-1254.699999999997
 20
62.65000000019199
 30
0.0
 40
4.05
100
AcDbArc
 50
90.0
 51
180.0
  0
ARC
  5
F82
330
DED
100
AcDbEntity
  8
Visible (ISO)
100
AcDbCircle
 10
-1245.299999999996
 20
62.65000000019199
 30
0.0
 40
4.05
100
AcDbArc
 50
0.0
 51
90.0
  0
LINE
  5
F83
330
DED
100
AcDbEntity
  8
Visible (ISO)
100
AcDbLine
 10
-1241.249999999996
 20
62.65000000019199
 30
0.0
 11
-1241.249999999996
 21
61.20000000019172
 31
0.0
  0
LINE
  5
F84
330
DED
100
AcDbEntity
  8
Visible (ISO)
100
AcDbLine
 10
-1258.749999999996
 20
62.65000000019199
 30
0.0
 11
-1258.749999999996
 21
61.20000000019172
 31
0.0
  0
LINE
  5
F85
330
DED
100
AcDbEntity
  8
Visible (ISO)
100
AcDbLine
 10
-1294.699999999997
 20
66.70000000019218
 30
0.0
 11
-1285.299999999999
 21
66.70000000019218
 31
0.0
  0
ARC
  5
F86
330
DED
100
AcDbEntity
  8
Visible (ISO)
100
AcDbCircle
 10
-1294.699999999997
 20
62.65000000019199
 30
0.0
 40
4.05
100
AcDbArc
 50
90.0
 51
180.0
  0
ARC
  5
F87
330
DED
100
AcDbEntity
  8
Visible (ISO)
100
AcDbCircle
 10
-1285.299999999999
 20
62.65000000019199
 30
0.0
 40
4.05
100
AcDbArc
 50
0.0
 51
90.0
  0
LINE
  5
F88
330
DED
100
AcDbEntity
  8
Visible (ISO)
100
AcDbLine
 10
-1281.25
 20
62.65000000019199
 30
0.0
 11
-1281.25
 21
61.20000000019172
 31
0.0
  0
LINE
  5
F89
330
DED
100
AcDbEntity
  8
Visible (ISO)
100
AcDbLine
 10
-1298.75
 20
62.65000000019199
 30
0.0
 11
-1298.75
 21
61.20000000019172
 31
0.0
  0
LINE
  5
F8A
330
DED
100
AcDbEntity
  8
Visible (ISO)
100
AcDbLine
 10
-1285.299999999999
 20
1241.300000000192
 30
0.0
 11
-1294.699999999997
 21
1241.300000000192
 31
0.0
  0
ARC
  5
F8B
330
DED
100
AcDbEntity
  8
Visible (ISO)
100
AcDbCircle
 10
-1285.299999999999
 20
1245.350000000191
 30
0.0
 40
4.05
100
AcDbArc
 50
270.0
 51
0.0
  0
ARC
  5
F8C
330
DED
100
AcDbEntity
  8
Visible (ISO)
100
AcDbCircle
 10
-1294.699999999997
 20
1245.350000000191
 30
0.0
 40
4.05
100
AcDbArc
 50
180.0
 51
270.0
  0
LINE
  5
F8D
330
DED
100
AcDbEntity
  8
Visible (ISO)
100
AcDbLine
 10
-1298.75
 20
1245.350000000191
 30
0.0
 11
-1298.75
 21
1246.800000000191
 31
0.0
  0
LINE
  5
F8E
330
DED
100
AcDbEntity
  8
Visible (ISO)
100
AcDbLine
 10
-1281.25
 20
1245.350000000191
 30
0.0
 11
-1281.25
 21
1246.800000000191
 31
0.0
  0
LINE
  5
F8F
330
DED
100
AcDbEntity
  8
Visible (ISO)
100
AcDbLine
 10
-1245.299999999999
 20
1241.300000000192
 30
0.0
 11
-1254.700000000001
 21
1241.300000000192
 31
0.0
  0
ARC
  5
F90
330
DED
100
AcDbEntity
  8
Visible (ISO)
100
AcDbCircle
 10
-1245.299999999999
 20
1245.350000000191
 30
0.0
 40
4.05
100
AcDbArc
 50
270.0
 51
0.0
  0
ARC
  5
F91
330
DED
100
AcDbEntity
  8
Visible (ISO)
100
AcDbCircle
 10
-1254.700000000001
 20
1245.350000000191
 30
0.0
 40
4.05
100
AcDbArc
 50
180.0
 51
270.0
  0
LINE
  5
F92
330
DED
100
AcDbEntity
  8
Visible (ISO)
100
AcDbLine
 10
-1258.75
 20
1245.350000000191
 30
0.0
 11
-1258.75
 21
1246.800000000191
 31
0.0
  0
LINE
  5
F93
330
DED
100
AcDbEntity
  8
Visible (ISO)
100
AcDbLine
 10
-1241.25
 20
1245.350000000191
 30
0.0
 11
-1241.25
 21
1246.800000000191
 31
0.0
  0
LINE
  5
F94
330
DED
100
AcDbEntity
  8
Visible (ISO)
100
AcDbLine
 10
-1317.699999999997
 20
1304.30000000034
 30
0.0
 11
-1317.699999999997
 21
1313.700000000339
 31
0.0
  0
ARC
  5
F95
330
DED
100
AcDbEntity
  8
Visible (ISO)
100
AcDbCircle
 10
-1313.649999999994
 20
1304.30000000034
 30
0.0
 40
4.05
100
AcDbArc
 50
180.0
 51
270.0
  0
ARC
  5
F96
330
DED
100
AcDbEntity
  8
Visible (ISO)
100
AcDbCircle
 10
-1313.649999999994
 20
1313.700000000339
 30
0.0
 40
4.05
100
AcDbArc
 50
90.0
 51
180.0
  0
LINE
  5
F97
330
DED
100
AcDbEntity
  8
Visible (ISO)
100
AcDbLine
 10
-1313.649999999994
 20
1317.750000000339
 30
0.0
 11
-1312.199999999997
 21
1317.750000000339
 31
0.0
  0
LINE
  5
F98
330
DED
100
AcDbEntity
  8
Visible (ISO)
100
AcDbLine
 10
-1313.649999999994
 20
1300.250000000339
 30
0.0
 11
-1312.199999999997
 21
1300.250000000339
 31
0.0
  0
LINE
  5
F99
330
DED
100
AcDbEntity
  8
Visible (ISO)
100
AcDbLine
 10
-1317.699999999997
 20
1264.300000000338
 30
0.0
 11
-1317.699999999997
 21
1273.700000000338
 31
0.0
  0
ARC
  5
F9A
330
DED
100
AcDbEntity
  8
Visible (ISO)
100
AcDbCircle
 10
-1313.649999999994
 20
1264.300000000338
 30
0.0
 40
4.05
100
AcDbArc
 50
180.0
 51
270.0
  0
ARC
  5
F9B
330
DED
100
AcDbEntity
  8
Visible (ISO)
100
AcDbCircle
 10
-1313.649999999994
 20
1273.700000000338
 30
0.0
 40
4.05
100
AcDbArc
 50
90.0
 51
180.0
  0
LINE
  5
F9C
330
DED
100
AcDbEntity
  8
Visible (ISO)
100
AcDbLine
 10
-1313.649999999994
 20
1277.750000000338
 30
0.0
 11
-1312.199999999997
 21
1277.750000000338
 31
0.0
  0
LINE
  5
F9D
330
DED
100
AcDbEntity
  8
Visible (ISO)
100
AcDbLine
 10
-1313.649999999994
 20
1260.250000000338
 30
0.0
 11
-1312.199999999997
 21
1260.250000000338
 31
0.0
  0
LINE
  5
F9E
330
DED
100
AcDbEntity
  8
Visible (ISO)
100
AcDbLine
 10
-2492.299999999997
 20
1273.700000000338
 30
0.0
 11
-2492.299999999997
 21
1264.300000000338
 31
0.0
  0
ARC
  5
F9F
330
DED
100
AcDbEntity
  8
Visible (ISO)
100
AcDbCircle
 10
-2496.349999999997
 20
1273.700000000338
 30
0.0
 40
4.05
100
AcDbArc
 50
0.0
 51
90.0
  0
ARC
  5
FA0
330
DED
100
AcDbEntity
  8
Visible (ISO)
100
AcDbCircle
 10
-2496.349999999997
 20
1264.300000000338
 30
0.0
 40
4.05
100
AcDbArc
 50
270.0
 51
0.0
  0
LINE
  5
FA1
330
DED
100
AcDbEntity
  8
Visible (ISO)
100
AcDbLine
 10
-2496.349999999997
 20
1260.250000000338
 30
0.0
 11
-2497.799999999996
 21
1260.250000000338
 31
0.0
  0
LINE
  5
FA2
330
DED
100
AcDbEntity
  8
Visible (ISO)
100
AcDbLine
 10
-2496.349999999997
 20
1277.750000000338
 30
0.0
 11
-2497.799999999996
 21
1277.750000000338
 31
0.0
  0
LINE
  5
FA3
330
DED
100
AcDbEntity
  8
Visible (ISO)
100
AcDbLine
 10
-2492.299999999997
 20
1313.700000000338
 30
0.0
 11
-2492.299999999997
 21
1304.300000000339
 31
0.0
  0
ARC
  5
FA4
330
DED
100
AcDbEntity
  8
Visible (ISO)
100
AcDbCircle
 10
-2496.349999999997
 20
1313.700000000338
 30
0.0
 40
4.05
100
AcDbArc
 50
0.0
 51
90.0
  0
ARC
  5
FA5
330
DED
100
AcDbEntity
  8
Visible (ISO)
100
AcDbCircle
 10
-2496.349999999997
 20
1304.300000000339
 30
0.0
 40
4.05
100
AcDbArc
 50
270.0
 51
0.0
  0
LINE
  5
FA6
330
DED
100
AcDbEntity
  8
Visible (ISO)
100
AcDbLine
 10
-2496.349999999997
 20
1300.250000000338
 30
0.0
 11
-2497.799999999996
 21
1300.250000000338
 31
0.0
  0
LINE
  5
FA7
330
DED
100
AcDbEntity
  8
Visible (ISO)
100
AcDbLine
 10
-2496.349999999997
 20
1317.750000000338
 30
0.0
 11
-2497.799999999996
 21
1317.750000000338
 31
0.0
  0
LINE
  5
FA8
330
DED
100
AcDbEntity
  8
Visible (ISO)
100
AcDbLine
 10
-1317.699999999997
 20
34.300000000193
 30
0.0
 11
-1317.699999999997
 21
43.70000000019309
 31
0.0
  0
ARC
  5
FA9
330
DED
100
AcDbEntity
  8
Visible (ISO)
100
AcDbCircle
 10
-1313.649999999994
 20
34.300000000193
 30
0.0
 40
4.05
100
AcDbArc
 50
180.0
 51
270.0
  0
ARC
  5
FAA
330
DED
100
AcDbEntity
  8
Visible (ISO)
100
AcDbCircle
 10
-1313.649999999994
 20
43.70000000019309
 30
0.0
 40
4.05
100
AcDbArc
 50
90.0
 51
180.0
  0
LINE
  5
FAB
330
DED
100
AcDbEntity
  8
Visible (ISO)
100
AcDbLine
 10
-1313.649999999994
 20
47.75000000019327
 30
0.0
 11
-1312.199999999997
 21
47.75000000019327
 31
0.0
  0
LINE
  5
FAC
330
DED
100
AcDbEntity
  8
Visible (ISO)
100
AcDbLine
 10
-1313.649999999994
 20
30.25000000019281
 30
0.0
 11
-1312.199999999997
 21
30.25000000019281
 31
0.0
  0
LINE
  5
FAD
330
DED
100
AcDbEntity
  8
Visible (ISO)
100
AcDbLine
 10
-1317.699999999997
 20
-5.699999999807005
 30
0.0
 11
-1317.699999999997
 21
3.700000000193085
 31
0.0
  0
ARC
  5
FAE
330
DED
100
AcDbEntity
  8
Visible (ISO)
100
AcDbCircle
 10
-1313.649999999994
 20
-5.699999999807005
 30
0.0
 40
4.05
100
AcDbArc
 50
180.0
 51
270.0
  0
ARC
  5
FAF
330
DED
100
AcDbEntity
  8
Visible (ISO)
100
AcDbCircle
 10
-1313.649999999994
 20
3.700000000193085
 30
0.0
 40
4.05
100
AcDbArc
 50
90.0
 51
180.0
  0
LINE
  5
FB0
330
DED
100
AcDbEntity
  8
Visible (ISO)
100
AcDbLine
 10
-1313.649999999994
 20
7.750000000192812
 30
0.0
 11
-1312.199999999997
 21
7.750000000192812
 31
0.0
  0
LINE
  5
FB1
330
DED
100
AcDbEntity
  8
Visible (ISO)
100
AcDbLine
 10
-1313.649999999994
 20
-9.749999999807187
 30
0.0
 11
-1312.199999999997
 21
-9.749999999807187
 31
0.0
  0
LINE
  5
FB2
330
DED
100
AcDbEntity
  8
Visible (ISO)
100
AcDbLine
 10
-2492.299999999997
 20
3.70000000019354
 30
0.0
 11
-2492.299999999997
 21
-5.69999999980655
 31
0.0
  0
ARC
  5
FB3
330
DED
100
AcDbEntity
  8
Visible (ISO)
100
AcDbCircle
 10
-2496.349999999997
 20
3.70000000019354
 30
0.0
 40
4.05
100
AcDbArc
 50
0.0
 51
90.0
  0
ARC
  5
FB4
330
DED
100
AcDbEntity
  8
Visible (ISO)
100
AcDbCircle
 10
-2496.349999999997
 20
-5.69999999980655
 30
0.0
 40
4.05
100
AcDbArc
 50
270.0
 51
0.0
  0
LINE
  5
FB5
330
DED
100
AcDbEntity
  8
Visible (ISO)
100
AcDbLine
 10
-2496.349999999997
 20
-9.749999999806732
 30
0.0
 11
-2497.799999999996
 21
-9.749999999806732
 31
0.0
  0
LINE
  5
FB6
330
DED
100
AcDbEntity
  8
Visible (ISO)
100
AcDbLine
 10
-2496.349999999997
 20
7.750000000193267
 30
0.0
 11
-2497.799999999996
 21
7.750000000193267
 31
0.0
  0
LINE
  5
FB7
330
DED
100
AcDbEntity
  8
Visible (ISO)
100
AcDbLine
 10
-2492.299999999997
 20
43.70000000019354
 30
0.0
 11
-2492.299999999997
 21
34.30000000019345
 31
0.0
  0
ARC
  5
FB8
330
DED
100
AcDbEntity
  8
Visible (ISO)
100
AcDbCircle
 10
-2496.349999999997
 20
43.70000000019354
 30
0.0
 40
4.05
100
AcDbArc
 50
0.0
 51
90.0
  0
ARC
  5
FB9
330
DED
100
AcDbEntity
  8
Visible (ISO)
100
AcDbCircle
 10
-2496.349999999997
 20
34.30000000019345
 30
0.0
 40
4.05
100
AcDbArc
 50
270.0
 51
0.0
  0
LINE
  5
FBA
330
DED
100
AcDbEntity
  8
Visible (ISO)
100
AcDbLine
 10
-2496.349999999997
 20
30.25000000019327
 30
0.0
 11
-2497.799999999996
 21
30.25000000019327
 31
0.0
  0
LINE
  5
FBB
330
DED
100
AcDbEntity
  8
Visible (ISO)
100
AcDbLine
 10
-2496.349999999997
 20
47.75000000019372
 30
0.0
 11
-2497.799999999996
 21
47.75000000019372
 31
0.0
  0
LINE
  5
FBC
330
DED
100
AcDbEntity
  8
Visible (ISO)
100
AcDbLine
 10
-2555.299999999998
 20
1241.300000000342
 30
0.0
 11
-2564.699999999997
 21
1241.300000000342
 31
0.0
  0
ARC
  5
FBD
330
DED
100
AcDbEntity
  8
Visible (ISO)
100
AcDbCircle
 10
-2555.299999999998
 20
1245.350000000341
 30
0.0
 40
4.05
100
AcDbArc
 50
270.0
 51
0.0
  0
ARC
  5
FBE
330
DED
100
AcDbEntity
  8
Visible (ISO)
100
AcDbCircle
 10
-2564.699999999997
 20
1245.350000000341
 30
0.0
 40
4.05
100
AcDbArc
 50
180.0
 51
270.0
  0
LINE
  5
FBF
330
DED
100
AcDbEntity
  8
Visible (ISO)
100
AcDbLine
 10
-2568.749999999996
 20
1245.350000000341
 30
0.0
 11
-2568.749999999996
 21
1246.800000000341
 31
0.0
  0
LINE
  5
FC0
330
DED
100
AcDbEntity
  8
Visible (ISO)
100
AcDbLine
 10
-2551.249999999998
 20
1245.350000000341
 30
0.0
 11
-2551.249999999998
 21
1246.800000000341
 31
0.0
  0
LINE
  5
FC1
330
DED
100
AcDbEntity
  8
Visible (ISO)
100
AcDbLine
 10
-2515.299999999996
 20
1241.300000000342
 30
0.0
 11
-2524.699999999996
 21
1241.300000000342
 31
0.0
  0
ARC
  5
FC2
330
DED
100
AcDbEntity
  8
Visible (ISO)
100
AcDbCircle
 10
-2515.299999999996
 20
1245.350000000341
 30
0.0
 40
4.05
100
AcDbArc
 50
270.0
 51
0.0
  0
ARC
  5
FC3
330
DED
100
AcDbEntity
  8
Visible (ISO)
100
AcDbCircle
 10
-2524.699999999996
 20
1245.350000000341
 30
0.0
 40
4.05
100
AcDbArc
 50
180.0
 51
270.0
  0
LINE
  5
FC4
330
DED
100
AcDbEntity
  8
Visible (ISO)
100
AcDbLine
 10
-2528.749999999995
 20
1245.350000000341
 30
0.0
 11
-2528.749999999995
 21
1246.800000000341
 31
0.0
  0
LINE
  5
FC5
330
DED
100
AcDbEntity
  8
Visible (ISO)
100
AcDbLine
 10
-2511.249999999997
 20
1245.350000000341
 30
0.0
 11
-2511.249999999997
 21
1246.800000000341
 31
0.0
  0
LINE
  5
FC6
330
DED
100
AcDbEntity
  8
Visible (ISO)
100
AcDbLine
 10
-2524.699999999997
 20
66.70000000034178
 30
0.0
 11
-2515.299999999998
 21
66.70000000034178
 31
0.0
  0
ARC
  5
FC7
330
DED
100
AcDbEntity
  8
Visible (ISO)
100
AcDbCircle
 10
-2524.699999999997
 20
62.6500000003416
 30
0.0
 40
4.05
100
AcDbArc
 50
90.0
 51
180.0
  0
ARC
  5
FC8
330
DED
100
AcDbEntity
  8
Visible (ISO)
100
AcDbCircle
 10
-2515.299999999998
 20
62.6500000003416
 30
0.0
 40
4.05
100
AcDbArc
 50
0.0
 51
90.0
  0
LINE
  5
FC9
330
DED
100
AcDbEntity
  8
Visible (ISO)
100
AcDbLine
 10
-2511.249999999999
 20
62.6500000003416
 30
0.0
 11
-2511.249999999999
 21
61.20000000034178
 31
0.0
  0
LINE
  5
FCA
330
DED
100
AcDbEntity
  8
Visible (ISO)
100
AcDbLine
 10
-2528.749999999997
 20
62.6500000003416
 30
0.0
 11
-2528.749999999997
 21
61.20000000034178
 31
0.0
  0
LINE
  5
FCB
330
DED
100
AcDbEntity
  8
Visible (ISO)
100
AcDbLine
 10
-2564.699999999999
 20
66.70000000034178
 30
0.0
 11
-2555.299999999999
 21
66.70000000034178
 31
0.0
  0
ARC
  5
FCC
330
DED
100
AcDbEntity
  8
Visible (ISO)
100
AcDbCircle
 10
-2564.699999999999
 20
62.6500000003416
 30
0.0
 40
4.05
100
AcDbArc
 50
90.0
 51
180.0
  0
ARC
  5
FCD
330
DED
100
AcDbEntity
  8
Visible (ISO)
100
AcDbCircle
 10
-2555.299999999999
 20
62.6500000003416
 30
0.0
 40
4.05
100
AcDbArc
 50
0.0
 51
90.0
  0
LINE
  5
FCE
330
DED
100
AcDbEntity
  8
Visible (ISO)
100
AcDbLine
 10
-2551.25
 20
62.6500000003416
 30
0.0
 11
-2551.25
 21
61.20000000034178
 31
0.0
  0
LINE
  5
FCF
330
DED
100
AcDbEntity
  8
Visible (ISO)
100
AcDbLine
 10
-2568.749999999998
 20
62.6500000003416
 30
0.0
 11
-2568.749999999998
 21
61.20000000034178
 31
0.0
  0
ARC
  5
FD0
330
DED
100
AcDbEntity
  8
Visible (ISO)
100
AcDbCircle
 10
-2574.999999999998
 20
-16.00000000033378
 30
0.0
 40
1500.000000000001
100
AcDbArc
 50
180.0
 51
270.0
  0
LINE
  5
FD1
330
DED
100
AcDbEntity
  8
Visible (ISO)
100
AcDbLine
 10
-2575.000000000006
 20
-1516.000000000334
 30
0.0
 11
-2465.818676624394
 21
-1516.000000000335
 31
0.0
  0
ARC
  5
FD2
330
DED
100
AcDbEntity
  8
Visible (ISO)
100
AcDbCircle
 10
-1305.0
 20
-566.0000000003383
 30
0.0
 40
1500.000000000001
100
AcDbArc
 50
219.2964802391395
 51
270.0
  0
LINE
  5
FD3
330
DED
100
AcDbEntity
  8
Visible (ISO)
100
AcDbLine
 10
-1305.0
 20
-2066.00000000034
 30
0.0
 11
1555.0
 21
-2066.00000000034
 31
0.0
  0
ARC
  5
FD4
330
DED
100
AcDbEntity
  8
Visible (ISO)
100
AcDbCircle
 10
1555.0
 20
-566.0000000003392
 30
0.0
 40
1500.0
100
AcDbArc
 50
270.0
 51
0.0
  0
LINE
  5
FD5
330
DED
100
AcDbEntity
  8
Visible (ISO)
100
AcDbLine
 10
3055.0
 20
-566.0000000003392
 30
0.0
 11
3055.0
 21
53.99999999966031
 31
0.0
  0
ARC
  5
FD6
330
DED
100
AcDbEntity
  8
Visible (ISO)
100
AcDbCircle
 10
1555.0
 20
53.99999999965939
 30
0.0
 40
1500.000000000001
100
AcDbArc
 50
0.0
 51
90.0
  0
LINE
  5
FD7
330
DED
100
AcDbEntity
  8
Visible (ISO)
100
AcDbLine
 10
1555.0
 20
1553.99999999966
 30
0.0
 11
247.261785245777
 21
1553.999999999659
 31
0.0
  0
ARC
  5
FD8
330
DED
100
AcDbEntity
  8
Visible (ISO)
100
AcDbCircle
 10
-1235.0
 20
1323.999999999652
 30
0.0
 40
1500.0
100
AcDbArc
 50
8.820147829234901
 51
90.0
  0
LINE
  5
FD9
330
DED
100
AcDbEntity
  8
Visible (ISO)
100
AcDbLine
 10
-1234.999999999989
 20
2823.999999999653
 30
0.0
 11
-2575.0
 21
2823.999999999664
 31
0.0
  0
ARC
  5
FDA
330
DED
100
AcDbEntity
  8
Visible (ISO)
100
AcDbCircle
 10
-2574.999999999998
 20
1323.999999999663
 30
0.0
 40
1500.000000000001
100
AcDbArc
 50
90.0
 51
180.0
  0
LINE
  5
FDB
330
DED
100
AcDbEntity
  8
Visible (ISO)
100
AcDbLine
 10
-4075.0
 20
1323.999999999663
 30
0.0
 11
-4075.0
 21
-16.00000000033469
 31
0.0
  0
ENDBLK
  5
DEF
330
DED
100
AcDbEntity
  8
0
100
AcDbBlockEnd
  0
ENDSEC
  0
SECTION
  2
ENTITIES
  0
LINE
  5
172
330
6C
100
AcDbEntity
  8
Visible (ISO)
100
AcDbLine
 10
19670.63313141351
 20
8982.823318667019
 30
0.0
 11
19670.63313141351
 21
8980.064075024978
 31
0.0
  0
LINE
  5
173
330
6C
100
AcDbEntity
  8
Visible (ISO)
100
AcDbLine
 10
19665.63313141351
 20
8970.362371634928
 30
0.0
 11
19665.63313141351
 21
8900.284265699109
 31
0.0
  0
LINE
  5
174
330
6C
100
AcDbEntity
  8
Visible (ISO)
100
AcDbLine
 10
19670.63313141351
 20
8900.284265699109
 30
0.0
 11
19670.63313141351
 21
8970.362371634928
 31
0.0
  0
LINE
  5
175
330
6C
100
AcDbEntity
  8
Visible (ISO)
100
AcDbLine
 10
19670.63313141351
 20
8890.582562309059
 30
0.0
 11
19670.63313141351
 21
8887.823318667019
 31
0.0
  0
LINE
  5
176
330
6C
100
AcDbEntity
  8
Visible (ISO)
100
AcDbLine
 10
19665.63313141351
 20
8982.823318667019
 30
0.0
 11
19670.63313141351
 21
8982.823318667019
 31
0.0
  0
LINE
  5
177
330
6C
100
AcDbEntity
  8
Visible (ISO)
100
AcDbLine
 10
19665.63313141351
 20
8887.823318667019
 30
0.0
 11
19670.63313141351
 21
8887.823318667019
 31
0.0
  0
LINE
  5
178
330
6C
100
AcDbEntity
  8
Visible (ISO)
100
AcDbLine
 10
19670.63313141351
 20
8980.064075024978
 30
0.0
 11
19670.63313141351
 21
8970.362371634928
 31
0.0
  0
LINE
  5
179
330
6C
100
AcDbEntity
  8
Visible (ISO)
100
AcDbLine
 10
19670.63313141351
 20
8900.284265699109
 30
0.0
 11
19670.63313141351
 21
8890.582562309059
 31
0.0
  0
LINE
  5
17A
330
6C
100
AcDbEntity
  8
Visible (ISO)
100
AcDbLine
 10
15860.63313141351
 20
10082.82331866702
 30
0.0
 11
15860.63313141351
 21
10080.06407502498
 31
0.0
  0
LINE
  5
17B
330
6C
100
AcDbEntity
  8
Visible (ISO)
100
AcDbLine
 10
15860.63313141351
 20
10000.28426569911
 30
0.0
 11
15860.63313141351
 21
10070.36237163493
 31
0.0
  0
LINE
  5
17C
330
6C
100
AcDbEntity
  8
Visible (ISO)
100
AcDbLine
 10
15860.63313141351
 20
9990.582562309061
 30
0.0
 11
15860.63313141351
 21
9987.82331866702
 31
0.0
  0
LINE
  5
17D
330
6C
100
AcDbEntity
  8
Visible (ISO)
100
AcDbLine
 10
15855.63313141351
 20
10082.82331866702
 30
0.0
 11
15860.63313141351
 21
10082.82331866702
 31
0.0
  0
LINE
  5
17E
330
6C
100
AcDbEntity
  8
Visible (ISO)
100
AcDbLine
 10
15855.63313141351
 20
9987.82331866702
 30
0.0
 11
15860.63313141351
 21
9987.82331866702
 31
0.0
  0
LINE
  5
17F
330
6C
100
AcDbEntity
  8
Visible (ISO)
100
AcDbLine
 10
15860.63313141351
 20
10080.06407502498
 30
0.0
 11
15860.63313141351
 21
10070.36237163493
 31
0.0
  0
LINE
  5
180
330
6C
100
AcDbEntity
  8
Visible (ISO)
100
AcDbLine
 10
15860.63313141351
 20
10000.28426569911
 30
0.0
 11
15860.63313141351
 21
9990.582562309061
 31
0.0
  0
LINE
  5
181
330
6C
100
AcDbEntity
  8
Visible (ISO)
100
AcDbLine
 10
17050.63313141351
 20
10070.36237163493
 30
0.0
 11
17050.63313141351
 21
10080.06407502498
 31
0.0
  0
LINE
  5
182
330
6C
100
AcDbEntity
  8
Visible (ISO)
100
AcDbLine
 10
17050.63313141351
 20
9990.582562309061
 30
0.0
 11
17050.63313141351
 21
10000.28426569911
 31
0.0
  0
LINE
  5
183
330
6C
100
AcDbEntity
  8
Visible (ISO)
100
AcDbLine
 10
17050.63313141351
 20
10080.06407502498
 30
0.0
 11
17050.63313141351
 21
10082.82331866702
 31
0.0
  0
LINE
  5
184
330
6C
100
AcDbEntity
  8
Visible (ISO)
100
AcDbLine
 10
17055.63313141351
 20
10000.28426569911
 30
0.0
 11
17055.63313141351
 21
10070.36237163493
 31
0.0
  0
LINE
  5
185
330
6C
100
AcDbEntity
  8
Visible (ISO)
100
AcDbLine
 10
17050.63313141351
 20
9987.82331866702
 30
0.0
 11
17050.63313141351
 21
9990.582562309061
 31
0.0
  0
LINE
  5
186
330
6C
100
AcDbEntity
  8
Visible (ISO)
100
AcDbLine
 10
17050.63313141351
 20
10070.36237163493
 30
0.0
 11
17050.63313141351
 21
10000.28426569911
 31
0.0
  0
LINE
  5
187
330
6C
100
AcDbEntity
  8
Visible (ISO)
100
AcDbLine
 10
17055.63313141351
 20
10082.82331866702
 30
0.0
 11
17050.63313141351
 21
10082.82331866702
 31
0.0
  0
LINE
  5
188
330
6C
100
AcDbEntity
  8
Visible (ISO)
100
AcDbLine
 10
17055.63313141351
 20
9987.82331866702
 30
0.0
 11
17050.63313141351
 21
9987.82331866702
 31
0.0
  0
LINE
  5
189
330
6C
100
AcDbEntity
  8
Visible (ISO)
100
AcDbLine
 10
15860.63313141351
 20
9582.823318667017
 30
0.0
 11
15860.63313141351
 21
9580.064075024978
 31
0.0
  0
LINE
  5
18A
330
6C
100
AcDbEntity
  8
Visible (ISO)
100
AcDbLine
 10
15855.63313141351
 20
9570.362371634928
 30
0.0
 11
15855.63313141351
 21
9500.284265699107
 31
0.0
  0
LINE
  5
18B
330
6C
100
AcDbEntity
  8
Visible (ISO)
100
AcDbLine
 10
15860.63313141351
 20
9500.284265699107
 30
0.0
 11
15860.63313141351
 21
9570.362371634928
 31
0.0
  0
LINE
  5
18C
330
6C
100
AcDbEntity
  8
Visible (ISO)
100
AcDbLine
 10
15860.63313141351
 20
9490.582562309059
 30
0.0
 11
15860.63313141351
 21
9487.823318667018
 31
0.0
  0
LINE
  5
18D
330
6C
100
AcDbEntity
  8
Visible (ISO)
100
AcDbLine
 10
15855.63313141351
 20
9582.823318667017
 30
0.0
 11
15860.63313141351
 21
9582.823318667017
 31
0.0
  0
LINE
  5
18E
330
6C
100
AcDbEntity
  8
Visible (ISO)
100
AcDbLine
 10
15855.63313141351
 20
9487.823318667018
 30
0.0
 11
15860.63313141351
 21
9487.823318667018
 31
0.0
  0
LINE
  5
18F
330
6C
100
AcDbEntity
  8
Visible (ISO)
100
AcDbLine
 10
15860.63313141351
 20
9580.064075024978
 30
0.0
 11
15860.63313141351
 21
9570.362371634928
 31
0.0
  0
LINE
  5
190
330
6C
100
AcDbEntity
  8
Visible (ISO)
100
AcDbLine
 10
15860.63313141351
 20
9500.284265699107
 30
0.0
 11
15860.63313141351
 21
9490.582562309059
 31
0.0
  0
LINE
  5
191
330
6C
100
AcDbEntity
  8
Visible (ISO)
100
AcDbLine
 10
17050.63313141351
 20
9570.362371634928
 30
0.0
 11
17050.63313141351
 21
9580.064075024978
 31
0.0
  0
LINE
  5
192
330
6C
100
AcDbEntity
  8
Visible (ISO)
100
AcDbLine
 10
17050.63313141351
 20
9490.582562309059
 30
0.0
 11
17050.63313141351
 21
9500.284265699107
 31
0.0
  0
LINE
  5
193
330
6C
100
AcDbEntity
  8
Visible (ISO)
100
AcDbLine
 10
17050.63313141351
 20
9580.064075024978
 30
0.0
 11
17050.63313141351
 21
9582.823318667019
 31
0.0
  0
LINE
  5
194
330
6C
100
AcDbEntity
  8
Visible (ISO)
100
AcDbLine
 10
17055.63313141351
 20
9500.284265699107
 30
0.0
 11
17055.63313141351
 21
9570.362371634928
 31
0.0
  0
LINE
  5
195
330
6C
100
AcDbEntity
  8
Visible (ISO)
100
AcDbLine
 10
17050.63313141351
 20
9487.823318667018
 30
0.0
 11
17050.63313141351
 21
9490.582562309059
 31
0.0
  0
LINE
  5
196
330
6C
100
AcDbEntity
  8
Visible (ISO)
100
AcDbLine
 10
17050.63313141351
 20
9570.362371634928
 30
0.0
 11
17050.63313141351
 21
9500.284265699107
 31
0.0
  0
LINE
  5
197
330
6C
100
AcDbEntity
  8
Visible (ISO)
100
AcDbLine
 10
17055.63313141351
 20
9582.823318667017
 30
0.0
 11
17050.63313141351
 21
9582.823318667017
 31
0.0
  0
LINE
  5
198
330
6C
100
AcDbEntity
  8
Visible (ISO)
100
AcDbLine
 10
17055.63313141351
 20
9487.823318667018
 30
0.0
 11
17050.63313141351
 21
9487.823318667018
 31
0.0
  0
LINE
  5
199
330
6C
100
AcDbEntity
  8
Visible (ISO)
100
AcDbLine
 10
17130.6331314135
 20
8982.823318667019
 30
0.0
 11
17130.6331314135
 21
8980.064075024978
 31
0.0
  0
LINE
  5
19A
330
6C
100
AcDbEntity
  8
Visible (ISO)
100
AcDbLine
 10
17125.63313141351
 20
8970.362371634928
 30
0.0
 11
17125.63313141351
 21
8900.284265699109
 31
0.0
  0
LINE
  5
19B
330
6C
100
AcDbEntity
  8
Visible (ISO)
100
AcDbLine
 10
17130.6331314135
 20
8900.284265699109
 30
0.0
 11
17130.6331314135
 21
8970.362371634928
 31
0.0
  0
LINE
  5
19C
330
6C
100
AcDbEntity
  8
Visible (ISO)
100
AcDbLine
 10
17130.6331314135
 20
8890.582562309059
 30
0.0
 11
17130.6331314135
 21
8887.823318667019
 31
0.0
  0
LINE
  5
19D
330
6C
100
AcDbEntity
  8
Visible (ISO)
100
AcDbLine
 10
17125.63313141351
 20
8982.823318667019
 30
0.0
 11
17130.6331314135
 21
8982.823318667019
 31
0.0
  0
LINE
  5
19E
330
6C
100
AcDbEntity
  8
Visible (ISO)
100
AcDbLine
 10
17125.63313141351
 20
8887.823318667019
 30
0.0
 11
17130.6331314135
 21
8887.823318667019
 31
0.0
  0
LINE
  5
19F
330
6C
100
AcDbEntity
  8
Visible (ISO)
100
AcDbLine
 10
17130.6331314135
 20
8980.064075024978
 30
0.0
 11
17130.6331314135
 21
8970.362371634928
 31
0.0
  0
LINE
  5
1A0
330
6C
100
AcDbEntity
  8
Visible (ISO)
100
AcDbLine
 10
17130.6331314135
 20
8900.284265699109
 30
0.0
 11
17130.6331314135
 21
8890.582562309059
 31
0.0
  0
LINE
  5
1A1
330
6C
100
AcDbEntity
  8
Visible (ISO)
100
AcDbLine
 10
19590.63313141351
 20
8970.362371634928
 30
0.0
 11
19590.63313141351
 21
8980.064075024978
 31
0.0
  0
LINE
  5
1A2
330
6C
100
AcDbEntity
  8
Visible (ISO)
100
AcDbLine
 10
19590.63313141351
 20
8890.582562309059
 30
0.0
 11
19590.63313141351
 21
8900.284265699109
 31
0.0
  0
LINE
  5
1A3
330
6C
100
AcDbEntity
  8
Visible (ISO)
100
AcDbLine
 10
19590.63313141351
 20
8980.064075024978
 30
0.0
 11
19590.63313141351
 21
8982.823318667019
 31
0.0
  0
LINE
  5
1A4
330
6C
100
AcDbEntity
  8
Visible (ISO)
100
AcDbLine
 10
19595.63313141351
 20
8900.284265699109
 30
0.0
 11
19595.63313141351
 21
8970.362371634928
 31
0.0
  0
LINE
  5
1A5
330
6C
100
AcDbEntity
  8
Visible (ISO)
100
AcDbLine
 10
19590.63313141351
 20
8887.823318667019
 30
0.0
 11
19590.63313141351
 21
8890.582562309059
 31
0.0
  0
LINE
  5
1A6
330
6C
100
AcDbEntity
  8
Visible (ISO)
100
AcDbLine
 10
19590.63313141351
 20
8970.362371634928
 30
0.0
 11
19590.63313141351
 21
8900.284265699109
 31
0.0
  0
LINE
  5
1A7
330
6C
100
AcDbEntity
  8
Visible (ISO)
100
AcDbLine
 10
19595.63313141351
 20
8982.823318667019
 30
0.0
 11
19590.63313141351
 21
8982.823318667019
 31
0.0
  0
LINE
  5
1A8
330
6C
100
AcDbEntity
  8
Visible (ISO)
100
AcDbLine
 10
19595.63313141351
 20
8887.823318667019
 30
0.0
 11
19590.63313141351
 21
8887.823318667019
 31
0.0
  0
LINE
  5
1A9
330
6C
100
AcDbEntity
  8
Visible (ISO)
100
AcDbLine
 10
19556.38691938892
 20
7239.82331866702
 30
0.0
 11
19551.99352110672
 21
7239.82331866702
 31
0.0
  0
LINE
  5
1AA
330
6C
100
AcDbEntity
  8
Visible (ISO)
100
AcDbLine
 10
19551.99352110672
 20
7247.823318667018
 30
0.0
 11
19556.38691938892
 21
7247.823318667018
 31
0.0
  0
LINE
  5
1AB
330
6C
100
AcDbEntity
  8
Visible (ISO)
100
AcDbLine
 10
19620.02652969571
 20
7247.823318667018
 30
0.0
 11
19641.23973313131
 21
7247.823318667018
 31
0.0
  0
LINE
  5
1AC
330
6C
100
AcDbEntity
  8
Visible (ISO)
100
AcDbLine
 10
19704.87934343809
 20
7247.823318667018
 30
0.0
 11
19709.2727417203
 21
7247.823318667018
 31
0.0
  0
LINE
  5
1AD
330
6C
100
AcDbEntity
  8
Visible (ISO)
100
AcDbLine
 10
19641.23973313131
 20
7239.82331866702
 30
0.0
 11
19620.02652969571
 21
7239.82331866702
 31
0.0
  0
LINE
  5
1AE
330
6C
100
AcDbEntity
  8
Visible (ISO)
100
AcDbLine
 10
19709.2727417203
 20
7239.82331866702
 30
0.0
 11
19704.87934343809
 21
7239.82331866702
 31
0.0
  0
LINE
  5
1AF
330
6C
100
AcDbEntity
  8
Visible (ISO)
100
AcDbLine
 10
19551.99352110672
 20
7247.823318667018
 30
0.0
 11
19551.99352110672
 21
7239.82331866702
 31
0.0
  0
LINE
  5
1B0
330
6C
100
AcDbEntity
  8
Visible (ISO)
100
AcDbLine
 10
19709.2727417203
 20
7239.82331866702
 30
0.0
 11
19709.2727417203
 21
7247.823318667018
 31
0.0
  0
LINE
  5
1B1
330
6C
100
AcDbEntity
  8
Visible (ISO)
100
AcDbLine
 10
19620.02652969571
 20
7247.823318667018
 30
0.0
 11
19556.38691938892
 21
7247.823318667018
 31
0.0
  0
LINE
  5
1B2
330
6C
100
AcDbEntity
  8
Visible (ISO)
100
AcDbLine
 10
19704.87934343809
 20
7247.823318667018
 30
0.0
 11
19641.23973313131
 21
7247.823318667018
 31
0.0
  0
LINE
  5
1B3
330
6C
100
AcDbEntity
  8
Visible (ISO)
100
AcDbLine
 10
19641.23973313131
 20
7239.82331866702
 30
0.0
 11
19647.56444071674
 21
7239.82331866702
 31
0.0
  0
LINE
  5
1B4
330
6C
100
AcDbEntity
  8
Visible (ISO)
100
AcDbLine
 10
19698.55463585266
 20
7239.82331866702
 30
0.0
 11
19704.87934343809
 21
7239.82331866702
 31
0.0
  0
LINE
  5
1B5
330
6C
100
AcDbEntity
  8
Visible (ISO)
100
AcDbLine
 10
19556.38691938892
 20
7239.82331866702
 30
0.0
 11
19562.71162697436
 21
7239.82331866702
 31
0.0
  0
LINE
  5
1B6
330
6C
100
AcDbEntity
  8
Visible (ISO)
100
AcDbLine
 10
19613.70182211028
 20
7239.82331866702
 30
0.0
 11
19620.02652969571
 21
7239.82331866702
 31
0.0
  0
LINE
  5
1B7
330
6C
100
AcDbEntity
  8
Visible (ISO)
100
AcDbLine
 10
17016.38691938892
 20
7239.82331866702
 30
0.0
 11
17011.99352110672
 21
7239.82331866702
 31
0.0
  0
LINE
  5
1B8
330
6C
100
AcDbEntity
  8
Visible (ISO)
100
AcDbLine
 10
17011.99352110672
 20
7247.823318667018
 30
0.0
 11
17016.38691938892
 21
7247.823318667018
 31
0.0
  0
LINE
  5
1B9
330
6C
100
AcDbEntity
  8
Visible (ISO)
100
AcDbLine
 10
17080.02652969571
 20
7247.823318667018
 30
0.0
 11
17101.2397331313
 21
7247.823318667018
 31
0.0
  0
LINE
  5
1BA
330
6C
100
AcDbEntity
  8
Visible (ISO)
100
AcDbLine
 10
17164.87934343809
 20
7247.823318667018
 30
0.0
 11
17169.2727417203
 21
7247.823318667018
 31
0.0
  0
LINE
  5
1BB
330
6C
100
AcDbEntity
  8
Visible (ISO)
100
AcDbLine
 10
17101.2397331313
 20
7239.82331866702
 30
0.0
 11
17080.02652969571
 21
7239.82331866702
 31
0.0
  0
LINE
  5
1BC
330
6C
100
AcDbEntity
  8
Visible (ISO)
100
AcDbLine
 10
17169.2727417203
 20
7239.82331866702
 30
0.0
 11
17164.87934343809
 21
7239.82331866702
 31
0.0
  0
LINE
  5
1BD
330
6C
100
AcDbEntity
  8
Visible (ISO)
100
AcDbLine
 10
17011.99352110672
 20
7247.823318667018
 30
0.0
 11
17011.99352110672
 21
7239.82331866702
 31
0.0
  0
LINE
  5
1BE
330
6C
100
AcDbEntity
  8
Visible (ISO)
100
AcDbLine
 10
17169.2727417203
 20
7239.82331866702
 30
0.0
 11
17169.2727417203
 21
7247.823318667018
 31
0.0
  0
LINE
  5
1BF
330
6C
100
AcDbEntity
  8
Visible (ISO)
100
AcDbLine
 10
17080.02652969571
 20
7247.823318667018
 30
0.0
 11
17016.38691938892
 21
7247.823318667018
 31
0.0
  0
LINE
  5
1C0
330
6C
100
AcDbEntity
  8
Visible (ISO)
100
AcDbLine
 10
17164.87934343809
 20
7247.823318667018
 30
0.0
 11
17101.2397331313
 21
7247.823318667018
 31
0.0
  0
LINE
  5
1C1
330
6C
100
AcDbEntity
  8
Visible (ISO)
100
AcDbLine
 10
17101.2397331313
 20
7239.82331866702
 30
0.0
 11
17107.56444071673
 21
7239.82331866702
 31
0.0
  0
LINE
  5
1C2
330
6C
100
AcDbEntity
  8
Visible (ISO)
100
AcDbLine
 10
17158.55463585266
 20
7239.82331866702
 30
0.0
 11
17164.87934343809
 21
7239.82331866702
 31
0.0
  0
LINE
  5
1C3
330
6C
100
AcDbEntity
  8
Visible (ISO)
100
AcDbLine
 10
17016.38691938892
 20
7239.82331866702
 30
0.0
 11
17022.71162697435
 21
7239.82331866702
 31
0.0
  0
LINE
  5
1C4
330
6C
100
AcDbEntity
  8
Visible (ISO)
100
AcDbLine
 10
17073.70182211028
 20
7239.82331866702
 30
0.0
 11
17080.02652969571
 21
7239.82331866702
 31
0.0
  0
LINE
  5
1C5
330
6C
100
AcDbEntity
  8
Visible (ISO)
100
AcDbLine
 10
15899.2727417203
 20
7239.823318667021
 30
0.0
 11
15894.8793434381
 21
7239.823318667021
 31
0.0
  0
LINE
  5
1C6
330
6C
100
AcDbEntity
  8
Visible (ISO)
100
AcDbLine
 10
15894.8793434381
 20
7247.82331866702
 30
0.0
 11
15899.2727417203
 21
7247.82331866702
 31
0.0
  0
LINE
  5
1C7
330
6C
100
AcDbEntity
  8
Visible (ISO)
100
AcDbLine
 10
15741.99352110672
 20
7247.82331866702
 30
0.0
 11
15746.38691938893
 21
7247.82331866702
 31
0.0
  0
LINE
  5
1C8
330
6C
100
AcDbEntity
  8
Visible (ISO)
100
AcDbLine
 10
15810.02652969571
 20
7247.82331866702
 30
0.0
 11
15831.23973313131
 21
7247.82331866702
 31
0.0
  0
LINE
  5
1C9
330
6C
100
AcDbEntity
  8
Visible (ISO)
100
AcDbLine
 10
15831.23973313131
 20
7239.823318667021
 30
0.0
 11
15810.02652969571
 21
7239.823318667021
 31
0.0
  0
LINE
  5
1CA
330
6C
100
AcDbEntity
  8
Visible (ISO)
100
AcDbLine
 10
15746.38691938893
 20
7239.823318667021
 30
0.0
 11
15741.99352110672
 21
7239.823318667021
 31
0.0
  0
LINE
  5
1CB
330
6C
100
AcDbEntity
  8
Visible (ISO)
100
AcDbLine
 10
15899.2727417203
 20
7247.82331866702
 30
0.0
 11
15899.2727417203
 21
7239.823318667021
 31
0.0
  0
LINE
  5
1CC
330
6C
100
AcDbEntity
  8
Visible (ISO)
100
AcDbLine
 10
15741.99352110672
 20
7239.823318667021
 30
0.0
 11
15741.99352110672
 21
7247.82331866702
 31
0.0
  0
LINE
  5
1CD
330
6C
100
AcDbEntity
  8
Visible (ISO)
100
AcDbLine
 10
15894.8793434381
 20
7247.82331866702
 30
0.0
 11
15831.23973313131
 21
7247.82331866702
 31
0.0
  0
LINE
  5
1CE
330
6C
100
AcDbEntity
  8
Visible (ISO)
100
AcDbLine
 10
15831.23973313131
 20
7239.82331866702
 30
0.0
 11
15837.56444071674
 21
7239.823318667021
 31
0.0
  0
LINE
  5
1CF
330
6C
100
AcDbEntity
  8
Visible (ISO)
100
AcDbLine
 10
15888.55463585267
 20
7239.823318667021
 30
0.0
 11
15894.8793434381
 21
7239.823318667021
 31
0.0
  0
LINE
  5
1D0
330
6C
100
AcDbEntity
  8
Visible (ISO)
100
AcDbLine
 10
15810.02652969571
 20
7247.82331866702
 30
0.0
 11
15746.38691938893
 21
7247.82331866702
 31
0.0
  0
LINE
  5
1D1
330
6C
100
AcDbEntity
  8
Visible (ISO)
100
AcDbLine
 10
15746.38691938893
 20
7239.823318667021
 30
0.0
 11
15752.71162697436
 21
7239.823318667021
 31
0.0
  0
LINE
  5
1D2
330
6C
100
AcDbEntity
  8
Visible (ISO)
100
AcDbLine
 10
15803.70182211028
 20
7239.823318667021
 30
0.0
 11
15810.02652969571
 21
7239.82331866702
 31
0.0
  0
LINE
  5
1D3
330
6C
100
AcDbEntity
  8
Visible (ISO)
100
AcDbLine
 10
19595.63313141351
 20
8997.823318667018
 30
0.0
 11
19595.63313141351
 21
7789.823318667018
 31
0.0
  0
LINE
  5
1D4
330
6C
100
AcDbEntity
  8
Visible (ISO)
100
AcDbLine
 10
19595.63313141351
 20
7779.823318667019
 30
0.0
 11
19595.63313141351
 21
7247.823318667018
 31
0.0
  0
LINE
  5
1D5
330
6C
100
AcDbEntity
  8
Visible (ISO)
100
AcDbLine
 10
19665.63313141351
 20
7247.823318667018
 30
0.0
 11
19665.63313141351
 21
7779.823318667019
 31
0.0
  0
LINE
  5
1D6
330
6C
100
AcDbEntity
  8
Visible (ISO)
100
AcDbLine
 10
19665.63313141351
 20
7789.823318667018
 30
0.0
 11
19665.63313141351
 21
8997.823318667018
 31
0.0
  0
LINE
  5
1D7
330
6C
100
AcDbEntity
  8
Visible (ISO)
100
AcDbLine
 10
19660.63313141351
 20
8997.823318667018
 30
0.0
 11
19600.63313141351
 21
8997.823318667018
 31
0.0
  0
LINE
  5
1D8
330
6C
100
AcDbEntity
  8
Visible (ISO)
100
AcDbLine
 10
19915.63313141351
 20
8952.17331866702
 30
0.0
 11
19915.63313141351
 21
8918.473318667018
 31
0.0
  0
LINE
  5
1D9
330
6C
100
AcDbEntity
  8
Visible (ISO)
100
AcDbLine
 10
19915.63313141351
 20
8918.473318667018
 30
0.0
 11
19670.63313141351
 21
8918.473318667018
 31
0.0
  0
LINE
  5
1DA
330
6C
100
AcDbEntity
  8
Visible (ISO)
100
AcDbLine
 10
19915.63313141351
 20
8952.17331866702
 30
0.0
 11
19670.63313141351
 21
8952.17331866702
 31
0.0
  0
LINE
  5
1DB
330
6C
100
AcDbEntity
  8
Visible (ISO)
100
AcDbLine
 10
19590.63313141351
 20
8916.323318667018
 30
0.0
 11
17130.6331314135
 21
8916.323318667018
 31
0.0
  0
LINE
  5
1DC
330
6C
100
AcDbEntity
  8
Visible (ISO)
100
AcDbLine
 10
19590.63313141351
 20
8954.32331866702
 30
0.0
 11
17130.6331314135
 21
8954.32331866702
 31
0.0
  0
LINE
  5
1DD
330
6C
100
AcDbEntity
  8
Visible (ISO)
100
AcDbLine
 10
17125.63313141351
 20
8999.823318667019
 30
0.0
 11
17125.63313141351
 21
9597.823318667019
 31
0.0
  0
LINE
  5
1DE
330
6C
100
AcDbEntity
  8
Visible (ISO)
100
AcDbLine
 10
17055.63313141351
 20
9597.823318667019
 30
0.0
 11
17055.63313141351
 21
8999.823318667019
 31
0.0
  0
LINE
  5
1DF
330
6C
100
AcDbEntity
  8
Visible (ISO)
100
AcDbLine
 10
17120.63313141351
 20
9597.823318667021
 30
0.0
 11
17060.6331314135
 21
9597.823318667021
 31
0.0
  0
LINE
  5
1E0
330
6C
100
AcDbEntity
  8
Visible (ISO)
100
AcDbLine
 10
17125.63313141351
 20
9599.823318667018
 30
0.0
 11
17125.63313141351
 21
10097.82331866702
 31
0.0
  0
LINE
  5
1E1
330
6C
100
AcDbEntity
  8
Visible (ISO)
100
AcDbLine
 10
17055.63313141351
 20
10097.82331866702
 30
0.0
 11
17055.63313141351
 21
9599.823318667018
 31
0.0
  0
LINE
  5
1E2
330
6C
100
AcDbEntity
  8
Visible (ISO)
100
AcDbLine
 10
17120.63313141351
 20
10097.82331866702
 30
0.0
 11
17060.63313141351
 21
10097.82331866702
 31
0.0
  0
LINE
  5
1E3
330
6C
100
AcDbEntity
  8
Visible (ISO)
100
AcDbLine
 10
17050.63313141351
 20
10018.47331866702
 30
0.0
 11
15860.63313141351
 21
10018.47331866702
 31
0.0
  0
LINE
  5
1E4
330
6C
100
AcDbEntity
  8
Visible (ISO)
100
AcDbLine
 10
17050.63313141351
 20
10052.17331866702
 30
0.0
 11
15860.63313141351
 21
10052.17331866702
 31
0.0
  0
LINE
  5
1E5
330
6C
100
AcDbEntity
  8
Visible (ISO)
100
AcDbLine
 10
17050.63313141351
 20
9518.473318667018
 30
0.0
 11
15860.63313141351
 21
9518.473318667018
 31
0.0
  0
LINE
  5
1E6
330
6C
100
AcDbEntity
  8
Visible (ISO)
100
AcDbLine
 10
17050.63313141351
 20
9552.173318667017
 30
0.0
 11
15860.63313141351
 21
9552.173318667017
 31
0.0
  0
LINE
  5
1E7
330
6C
100
AcDbEntity
  8
Visible (ISO)
100
AcDbLine
 10
19665.63313141351
 20
8997.823318667018
 30
0.0
 11
19662.63313141351
 21
8997.823318667018
 31
0.0
  0
LINE
  5
1E8
330
6C
100
AcDbEntity
  8
Visible (ISO)
100
AcDbLine
 10
19598.63313141351
 20
8997.823318667018
 30
0.0
 11
19595.63313141351
 21
8997.823318667018
 31
0.0
  0
ARC
  5
1E9
330
6C
100
AcDbEntity
  8
Visible (ISO)
100
AcDbCircle
 10
19662.63313141351
 20
8999.823318667019
 30
0.0
 40
2.999999999999998
100
AcDbArc
 50
0.0
 51
90.0
  0
LINE
  5
1EA
330
6C
100
AcDbEntity
  8
Visible (ISO)
100
AcDbLine
 10
19665.63313141351
 20
8997.823318667018
 30
0.0
 11
19665.63313141351
 21
8999.823318667019
 31
0.0
  0
ARC
  5
1EB
330
6C
100
AcDbEntity
  8
Visible (ISO)
100
AcDbCircle
 10
19598.63313141351
 20
8999.823318667019
 30
0.0
 40
2.999999999999998
100
AcDbArc
 50
90.0
 51
180.0
  0
LINE
  5
1EC
330
6C
100
AcDbEntity
  8
Visible (ISO)
100
AcDbLine
 10
19595.63313141351
 20
8999.823318667019
 30
0.0
 11
19595.63313141351
 21
8997.823318667018
 31
0.0
  0
LINE
  5
1ED
330
6C
100
AcDbEntity
  8
Visible (ISO)
100
AcDbLine
 10
19662.63313141351
 20
9002.823318667019
 30
0.0
 11
19598.63313141351
 21
9002.823318667019
 31
0.0
  0
LINE
  5
1EE
330
6C
100
AcDbEntity
  8
Visible (ISO)
100
AcDbLine
 10
19662.63313141351
 20
8997.823318667018
 30
0.0
 11
19598.63313141351
 21
8997.823318667018
 31
0.0
  0
LINE
  5
1EF
330
6C
100
AcDbEntity
  8
Visible (ISO)
100
AcDbLine
 10
17125.63313141351
 20
8997.823318667018
 30
0.0
 11
17122.63313141351
 21
8997.823318667018
 31
0.0
  0
LINE
  5
1F0
330
6C
100
AcDbEntity
  8
Visible (ISO)
100
AcDbLine
 10
17058.63313141351
 20
8997.823318667018
 30
0.0
 11
17055.63313141351
 21
8997.823318667018
 31
0.0
  0
ARC
  5
1F1
330
6C
100
AcDbEntity
  8
Visible (ISO)
100
AcDbCircle
 10
17122.63313141351
 20
8999.823318667019
 30
0.0
 40
2.999999999999998
100
AcDbArc
 50
0.0
 51
90.0
  0
LINE
  5
1F2
330
6C
100
AcDbEntity
  8
Visible (ISO)
100
AcDbLine
 10
17125.63313141351
 20
8997.823318667018
 30
0.0
 11
17125.63313141351
 21
8999.823318667019
 31
0.0
  0
ARC
  5
1F3
330
6C
100
AcDbEntity
  8
Visible (ISO)
100
AcDbCircle
 10
17058.63313141351
 20
8999.823318667019
 30
0.0
 40
2.999999999999998
100
AcDbArc
 50
90.0
 51
180.0
  0
LINE
  5
1F4
330
6C
100
AcDbEntity
  8
Visible (ISO)
100
AcDbLine
 10
17055.63313141351
 20
8999.823318667019
 30
0.0
 11
17055.63313141351
 21
8997.823318667018
 31
0.0
  0
LINE
  5
1F5
330
6C
100
AcDbEntity
  8
Visible (ISO)
100
AcDbLine
 10
17122.63313141351
 20
9002.823318667019
 30
0.0
 11
17058.63313141351
 21
9002.823318667019
 31
0.0
  0
LINE
  5
1F6
330
6C
100
AcDbEntity
  8
Visible (ISO)
100
AcDbLine
 10
17122.63313141351
 20
8997.823318667018
 30
0.0
 11
17058.63313141351
 21
8997.823318667018
 31
0.0
  0
LINE
  5
1F7
330
6C
100
AcDbEntity
  8
Visible (ISO)
100
AcDbLine
 10
17125.63313141351
 20
9597.823318667019
 30
0.0
 11
17122.63313141351
 21
9597.823318667019
 31
0.0
  0
LINE
  5
1F8
330
6C
100
AcDbEntity
  8
Visible (ISO)
100
AcDbLine
 10
17058.63313141351
 20
9597.823318667019
 30
0.0
 11
17055.63313141351
 21
9597.823318667019
 31
0.0
  0
ARC
  5
1F9
330
6C
100
AcDbEntity
  8
Visible (ISO)
100
AcDbCircle
 10
17122.63313141351
 20
9599.823318667018
 30
0.0
 40
2.999999999999998
100
AcDbArc
 50
0.0
 51
90.0
  0
LINE
  5
1FA
330
6C
100
AcDbEntity
  8
Visible (ISO)
100
AcDbLine
 10
17125.63313141351
 20
9597.823318667019
 30
0.0
 11
17125.63313141351
 21
9599.823318667018
 31
0.0
  0
ARC
  5
1FB
330
6C
100
AcDbEntity
  8
Visible (ISO)
100
AcDbCircle
 10
17058.63313141351
 20
9599.823318667018
 30
0.0
 40
2.999999999999998
100
AcDbArc
 50
90.0
 51
180.0
  0
LINE
  5
1FC
330
6C
100
AcDbEntity
  8
Visible (ISO)
100
AcDbLine
 10
17055.63313141351
 20
9599.823318667018
 30
0.0
 11
17055.63313141351
 21
9597.823318667019
 31
0.0
  0
LINE
  5
1FD
330
6C
100
AcDbEntity
  8
Visible (ISO)
100
AcDbLine
 10
17122.63313141351
 20
9602.82331866702
 30
0.0
 11
17058.63313141351
 21
9602.82331866702
 31
0.0
  0
LINE
  5
1FE
330
6C
100
AcDbEntity
  8
Visible (ISO)
100
AcDbLine
 10
17122.63313141351
 20
9597.823318667019
 30
0.0
 11
17058.63313141351
 21
9597.823318667019
 31
0.0
  0
LINE
  5
1FF
330
6C
100
AcDbEntity
  8
Visible (ISO)
100
AcDbLine
 10
17125.63313141351
 20
10097.82331866702
 30
0.0
 11
17122.63313141351
 21
10097.82331866702
 31
0.0
  0
LINE
  5
200
330
6C
100
AcDbEntity
  8
Visible (ISO)
100
AcDbLine
 10
17058.63313141351
 20
10097.82331866702
 30
0.0
 11
17055.63313141351
 21
10097.82331866702
 31
0.0
  0
ARC
  5
201
330
6C
100
AcDbEntity
  8
Visible (ISO)
100
AcDbCircle
 10
17122.63313141351
 20
10099.82331866702
 30
0.0
 40
2.999999999999997
100
AcDbArc
 50
0.0
 51
90.0
  0
LINE
  5
202
330
6C
100
AcDbEntity
  8
Visible (ISO)
100
AcDbLine
 10
17125.63313141351
 20
10097.82331866702
 30
0.0
 11
17125.63313141351
 21
10099.82331866702
 31
0.0
  0
ARC
  5
203
330
6C
100
AcDbEntity
  8
Visible (ISO)
100
AcDbCircle
 10
17058.63313141351
 20
10099.82331866702
 30
0.0
 40
3.000000000000007
100
AcDbArc
 50
90.0
 51
180.0
  0
LINE
  5
204
330
6C
100
AcDbEntity
  8
Visible (ISO)
100
AcDbLine
 10
17055.63313141351
 20
10099.82331866702
 30
0.0
 11
17055.63313141351
 21
10097.82331866702
 31
0.0
  0
LINE
  5
205
330
6C
100
AcDbEntity
  8
Visible (ISO)
100
AcDbLine
 10
17122.63313141351
 20
10102.82331866702
 30
0.0
 11
17058.63313141351
 21
10102.82331866702
 31
0.0
  0
LINE
  5
206
330
6C
100
AcDbEntity
  8
Visible (ISO)
100
AcDbLine
 10
17122.63313141351
 20
10097.82331866702
 30
0.0
 11
17058.63313141351
 21
10097.82331866702
 31
0.0
  0
LINE
  5
207
330
6C
100
AcDbEntity
  8
Visible (ISO)
100
AcDbLine
 10
15788.63313141351
 20
10097.82331866701
 30
0.0
 11
15785.63313141351
 21
10097.82331866701
 31
0.0
  0
LINE
  5
208
330
6C
100
AcDbEntity
  8
Visible (ISO)
100
AcDbLine
 10
15855.63313141351
 20
10097.82331866701
 30
0.0
 11
15852.63313141351
 21
10097.82331866701
 31
0.0
  0
ARC
  5
209
330
6C
100
AcDbEntity
  8
Visible (ISO)
100
AcDbCircle
 10
15788.63313141351
 20
10099.82331866701
 30
0.0
 40
2.999999999999998
100
AcDbArc
 50
90.0
 51
180.0
  0
LINE
  5
20A
330
6C
100
AcDbEntity
  8
Visible (ISO)
100
AcDbLine
 10
15785.63313141351
 20
10099.82331866701
 30
0.0
 11
15785.63313141351
 21
10097.82331866701
 31
0.0
  0
ARC
  5
20B
330
6C
100
AcDbEntity
  8
Visible (ISO)
100
AcDbCircle
 10
15852.63313141351
 20
10099.82331866701
 30
0.0
 40
2.999999999999998
100
AcDbArc
 50
0.0
 51
90.0
  0
LINE
  5
20C
330
6C
100
AcDbEntity
  8
Visible (ISO)
100
AcDbLine
 10
15855.63313141351
 20
10097.82331866701
 30
0.0
 11
15855.63313141351
 21
10099.82331866701
 31
0.0
  0
LINE
  5
20D
330
6C
100
AcDbEntity
  8
Visible (ISO)
100
AcDbLine
 10
15852.63313141351
 20
10102.82331866701
 30
0.0
 11
15788.63313141351
 21
10102.82331866701
 31
0.0
  0
LINE
  5
20E
330
6C
100
AcDbEntity
  8
Visible (ISO)
100
AcDbLine
 10
15852.63313141351
 20
10097.82331866701
 30
0.0
 11
15788.63313141351
 21
10097.82331866701
 31
0.0
  0
LINE
  5
20F
330
6C
100
AcDbEntity
  8
Visible (ISO)
100
AcDbLine
 10
17055.63313141351
 20
8997.823318667018
 30
0.0
 11
17055.63313141351
 21
7789.823318667018
 31
0.0
  0
LINE
  5
210
330
6C
100
AcDbEntity
  8
Visible (ISO)
100
AcDbLine
 10
17055.63313141351
 20
7779.823318667019
 30
0.0
 11
17055.63313141351
 21
7247.823318667018
 31
0.0
  0
LINE
  5
211
330
6C
100
AcDbEntity
  8
Visible (ISO)
100
AcDbLine
 10
17125.63313141351
 20
7247.823318667018
 30
0.0
 11
17125.63313141351
 21
7779.823318667019
 31
0.0
  0
LINE
  5
212
330
6C
100
AcDbEntity
  8
Visible (ISO)
100
AcDbLine
 10
17125.63313141351
 20
7789.823318667018
 30
0.0
 11
17125.63313141351
 21
8997.823318667018
 31
0.0
  0
LINE
  5
213
330
6C
100
AcDbEntity
  8
Visible (ISO)
100
AcDbLine
 10
17120.63313141351
 20
8997.823318667018
 30
0.0
 11
17060.6331314135
 21
8997.823318667018
 31
0.0
  0
LINE
  5
214
330
6C
100
AcDbEntity
  8
Visible (ISO)
100
AcDbLine
 10
15850.63313141351
 20
10097.82331866701
 30
0.0
 11
15790.63313141351
 21
10097.82331866701
 31
0.0
  0
LINE
  5
215
330
6C
100
AcDbEntity
  8
Visible (ISO)
100
AcDbLine
 10
15785.63313141351
 20
10097.82331866701
 30
0.0
 11
15785.63313141351
 21
7789.823318667021
 31
0.0
  0
LINE
  5
216
330
6C
100
AcDbEntity
  8
Visible (ISO)
100
AcDbLine
 10
15785.63313141351
 20
7779.82331866702
 30
0.0
 11
15785.63313141351
 21
7247.823318667018
 31
0.0
  0
LINE
  5
217
330
6C
100
AcDbEntity
  8
Visible (ISO)
100
AcDbLine
 10
15855.63313141351
 20
7247.823318667018
 30
0.0
 11
15855.63313141351
 21
7779.82331866702
 31
0.0
  0
LINE
  5
218
330
6C
100
AcDbEntity
  8
Visible (ISO)
100
AcDbLine
 10
15855.63313141351
 20
7789.823318667021
 30
0.0
 11
15855.63313141351
 21
10097.82331866701
 31
0.0
  0
LINE
  5
219
330
6C
100
AcDbEntity
  8
Visible (ISO)
100
AcDbLine
 10
19672.83313141351
 20
8969.533489259237
 30
0.0
 11
19670.63313141351
 21
8968.263318667018
 31
0.0
  0
LINE
  5
21A
330
6C
100
AcDbEntity
  8
Visible (ISO)
100
AcDbLine
 10
19670.63313141351
 20
8967.383318667019
 30
0.0
 11
19672.83313141351
 21
8968.653489259235
 31
0.0
  0
LINE
  5
21B
330
6C
100
AcDbEntity
  8
Visible (ISO)
100
AcDbLine
 10
19672.83313141351
 20
8976.873318667021
 30
0.0
 11
19672.83313141351
 21
8969.533489259237
 31
0.0
  0
LINE
  5
21C
330
6C
100
AcDbEntity
  8
Visible (ISO)
100
AcDbLine
 10
19672.83313141351
 20
8968.653489259235
 30
0.0
 11
19672.83313141351
 21
8958.773318667018
 31
0.0
  0
LINE
  5
21D
330
6C
100
AcDbEntity
  8
Visible (ISO)
100
AcDbLine
 10
19670.63313141351
 20
8976.873318667021
 30
0.0
 11
19672.83313141351
 21
8976.873318667021
 31
0.0
  0
LINE
  5
21E
330
6C
100
AcDbEntity
  8
Visible (ISO)
100
AcDbLine
 10
19670.63313141351
 20
8958.773318667018
 30
0.0
 11
19672.83313141351
 21
8958.773318667018
 31
0.0
  0
LINE
  5
21F
330
6C
100
AcDbEntity
  8
Visible (ISO)
100
AcDbLine
 10
19672.83313141351
 20
8904.533489259236
 30
0.0
 11
19670.63313141351
 21
8903.26331866702
 31
0.0
  0
LINE
  5
220
330
6C
100
AcDbEntity
  8
Visible (ISO)
100
AcDbLine
 10
19670.63313141351
 20
8902.38331866702
 30
0.0
 11
19672.83313141351
 21
8903.653489259236
 31
0.0
  0
LINE
  5
221
330
6C
100
AcDbEntity
  8
Visible (ISO)
100
AcDbLine
 10
19672.83313141351
 20
8911.873318667019
 30
0.0
 11
19672.83313141351
 21
8904.533489259236
 31
0.0
  0
LINE
  5
222
330
6C
100
AcDbEntity
  8
Visible (ISO)
100
AcDbLine
 10
19672.83313141351
 20
8903.653489259236
 30
0.0
 11
19672.83313141351
 21
8893.773318667021
 31
0.0
  0
LINE
  5
223
330
6C
100
AcDbEntity
  8
Visible (ISO)
100
AcDbLine
 10
19670.63313141351
 20
8911.873318667019
 30
0.0
 11
19672.83313141351
 21
8911.873318667019
 31
0.0
  0
LINE
  5
224
330
6C
100
AcDbEntity
  8
Visible (ISO)
100
AcDbLine
 10
19670.63313141351
 20
8893.773318667021
 30
0.0
 11
19672.83313141351
 21
8893.773318667021
 31
0.0
  0
LINE
  5
225
330
6C
100
AcDbEntity
  8
Visible (ISO)
100
AcDbLine
 10
19588.43313141351
 20
8958.773318667018
 30
0.0
 11
19588.43313141351
 21
8976.873318667021
 31
0.0
  0
LINE
  5
226
330
6C
100
AcDbEntity
  8
Visible (ISO)
100
AcDbLine
 10
19590.63313141351
 20
8958.773318667018
 30
0.0
 11
19588.43313141351
 21
8958.773318667018
 31
0.0
  0
LINE
  5
227
330
6C
100
AcDbEntity
  8
Visible (ISO)
100
AcDbLine
 10
19590.63313141351
 20
8976.873318667021
 30
0.0
 11
19588.43313141351
 21
8976.873318667021
 31
0.0
  0
LINE
  5
228
330
6C
100
AcDbEntity
  8
Visible (ISO)
100
AcDbLine
 10
19588.43313141351
 20
8893.773318667021
 30
0.0
 11
19588.43313141351
 21
8911.873318667019
 31
0.0
  0
LINE
  5
229
330
6C
100
AcDbEntity
  8
Visible (ISO)
100
AcDbLine
 10
19590.63313141351
 20
8893.773318667021
 30
0.0
 11
19588.43313141351
 21
8893.773318667021
 31
0.0
  0
LINE
  5
22A
330
6C
100
AcDbEntity
  8
Visible (ISO)
100
AcDbLine
 10
19590.63313141351
 20
8911.873318667019
 30
0.0
 11
19588.43313141351
 21
8911.873318667019
 31
0.0
  0
LINE
  5
22B
330
6C
100
AcDbEntity
  8
Visible (ISO)
100
AcDbLine
 10
17132.83313141351
 20
8969.533489259237
 30
0.0
 11
17130.63313141351
 21
8968.263318667018
 31
0.0
  0
LINE
  5
22C
330
6C
100
AcDbEntity
  8
Visible (ISO)
100
AcDbLine
 10
17130.63313141351
 20
8967.383318667019
 30
0.0
 11
17132.83313141351
 21
8968.653489259235
 31
0.0
  0
LINE
  5
22D
330
6C
100
AcDbEntity
  8
Visible (ISO)
100
AcDbLine
 10
17132.83313141351
 20
8976.873318667021
 30
0.0
 11
17132.83313141351
 21
8969.533489259237
 31
0.0
  0
LINE
  5
22E
330
6C
100
AcDbEntity
  8
Visible (ISO)
100
AcDbLine
 10
17132.83313141351
 20
8968.653489259235
 30
0.0
 11
17132.83313141351
 21
8958.773318667018
 31
0.0
  0
LINE
  5
22F
330
6C
100
AcDbEntity
  8
Visible (ISO)
100
AcDbLine
 10
17130.63313141351
 20
8976.873318667021
 30
0.0
 11
17132.83313141351
 21
8976.873318667021
 31
0.0
  0
LINE
  5
230
330
6C
100
AcDbEntity
  8
Visible (ISO)
100
AcDbLine
 10
17130.63313141351
 20
8958.773318667018
 30
0.0
 11
17132.83313141351
 21
8958.773318667018
 31
0.0
  0
LINE
  5
231
330
6C
100
AcDbEntity
  8
Visible (ISO)
100
AcDbLine
 10
17132.83313141351
 20
8904.533489259236
 30
0.0
 11
17130.63313141351
 21
8903.26331866702
 31
0.0
  0
LINE
  5
232
330
6C
100
AcDbEntity
  8
Visible (ISO)
100
AcDbLine
 10
17130.63313141351
 20
8902.38331866702
 30
0.0
 11
17132.83313141351
 21
8903.653489259236
 31
0.0
  0
LINE
  5
233
330
6C
100
AcDbEntity
  8
Visible (ISO)
100
AcDbLine
 10
17132.83313141351
 20
8911.873318667019
 30
0.0
 11
17132.83313141351
 21
8904.533489259236
 31
0.0
  0
LINE
  5
234
330
6C
100
AcDbEntity
  8
Visible (ISO)
100
AcDbLine
 10
17132.83313141351
 20
8903.653489259236
 30
0.0
 11
17132.83313141351
 21
8893.773318667021
 31
0.0
  0
LINE
  5
235
330
6C
100
AcDbEntity
  8
Visible (ISO)
100
AcDbLine
 10
17130.63313141351
 20
8911.873318667019
 30
0.0
 11
17132.83313141351
 21
8911.873318667019
 31
0.0
  0
LINE
  5
236
330
6C
100
AcDbEntity
  8
Visible (ISO)
100
AcDbLine
 10
17130.63313141351
 20
8893.773318667021
 30
0.0
 11
17132.83313141351
 21
8893.773318667021
 31
0.0
  0
LINE
  5
237
330
6C
100
AcDbEntity
  8
Visible (ISO)
100
AcDbLine
 10
17048.43313141351
 20
10058.77331866702
 30
0.0
 11
17048.43313141351
 21
10076.87331866702
 31
0.0
  0
LINE
  5
238
330
6C
100
AcDbEntity
  8
Visible (ISO)
100
AcDbLine
 10
17050.63313141351
 20
10058.77331866702
 30
0.0
 11
17048.4331314135
 21
10058.77331866702
 31
0.0
  0
LINE
  5
239
330
6C
100
AcDbEntity
  8
Visible (ISO)
100
AcDbLine
 10
17050.63313141351
 20
10076.87331866702
 30
0.0
 11
17048.4331314135
 21
10076.87331866702
 31
0.0
  0
LINE
  5
23A
330
6C
100
AcDbEntity
  8
Visible (ISO)
100
AcDbLine
 10
17048.43313141351
 20
9993.77331866702
 30
0.0
 11
17048.43313141351
 21
10011.87331866702
 31
0.0
  0
LINE
  5
23B
330
6C
100
AcDbEntity
  8
Visible (ISO)
100
AcDbLine
 10
17050.63313141351
 20
9993.77331866702
 30
0.0
 11
17048.4331314135
 21
9993.77331866702
 31
0.0
  0
LINE
  5
23C
330
6C
100
AcDbEntity
  8
Visible (ISO)
100
AcDbLine
 10
17050.63313141351
 20
10011.87331866702
 30
0.0
 11
17048.4331314135
 21
10011.87331866702
 31
0.0
  0
LINE
  5
23D
330
6C
100
AcDbEntity
  8
Visible (ISO)
100
AcDbLine
 10
15862.83313141351
 20
10069.53348925923
 30
0.0
 11
15860.63313141351
 21
10068.26331866701
 31
0.0
  0
LINE
  5
23E
330
6C
100
AcDbEntity
  8
Visible (ISO)
100
AcDbLine
 10
15860.63313141351
 20
10067.38331866702
 30
0.0
 11
15862.83313141351
 21
10068.65348925923
 31
0.0
  0
LINE
  5
23F
330
6C
100
AcDbEntity
  8
Visible (ISO)
100
AcDbLine
 10
15862.83313141351
 20
10076.87331866702
 30
0.0
 11
15862.83313141351
 21
10069.53348925923
 31
0.0
  0
LINE
  5
240
330
6C
100
AcDbEntity
  8
Visible (ISO)
100
AcDbLine
 10
15862.83313141351
 20
10068.65348925923
 30
0.0
 11
15862.83313141351
 21
10058.77331866702
 31
0.0
  0
LINE
  5
241
330
6C
100
AcDbEntity
  8
Visible (ISO)
100
AcDbLine
 10
15860.63313141351
 20
10076.87331866702
 30
0.0
 11
15862.83313141351
 21
10076.87331866702
 31
0.0
  0
LINE
  5
242
330
6C
100
AcDbEntity
  8
Visible (ISO)
100
AcDbLine
 10
15860.63313141351
 20
10058.77331866702
 30
0.0
 11
15862.83313141351
 21
10058.77331866702
 31
0.0
  0
LINE
  5
243
330
6C
100
AcDbEntity
  8
Visible (ISO)
100
AcDbLine
 10
15862.83313141351
 20
10004.53348925923
 30
0.0
 11
15860.63313141351
 21
10003.26331866702
 31
0.0
  0
LINE
  5
244
330
6C
100
AcDbEntity
  8
Visible (ISO)
100
AcDbLine
 10
15860.63313141351
 20
10002.38331866702
 30
0.0
 11
15862.83313141351
 21
10003.65348925923
 31
0.0
  0
LINE
  5
245
330
6C
100
AcDbEntity
  8
Visible (ISO)
100
AcDbLine
 10
15862.83313141351
 20
10011.87331866702
 30
0.0
 11
15862.83313141351
 21
10004.53348925923
 31
0.0
  0
LINE
  5
246
330
6C
100
AcDbEntity
  8
Visible (ISO)
100
AcDbLine
 10
15862.83313141351
 20
10003.65348925923
 30
0.0
 11
15862.83313141351
 21
9993.77331866702
 31
0.0
  0
LINE
  5
247
330
6C
100
AcDbEntity
  8
Visible (ISO)
100
AcDbLine
 10
15860.63313141351
 20
10011.87331866702
 30
0.0
 11
15862.83313141351
 21
10011.87331866702
 31
0.0
  0
LINE
  5
248
330
6C
100
AcDbEntity
  8
Visible (ISO)
100
AcDbLine
 10
15860.63313141351
 20
9993.77331866702
 30
0.0
 11
15862.83313141351
 21
9993.77331866702
 31
0.0
  0
LINE
  5
249
330
6C
100
AcDbEntity
  8
Visible (ISO)
100
AcDbLine
 10
17048.43313141351
 20
9558.77331866702
 30
0.0
 11
17048.43313141351
 21
9576.87331866702
 31
0.0
  0
LINE
  5
24A
330
6C
100
AcDbEntity
  8
Visible (ISO)
100
AcDbLine
 10
17050.63313141351
 20
9558.77331866702
 30
0.0
 11
17048.4331314135
 21
9558.77331866702
 31
0.0
  0
LINE
  5
24B
330
6C
100
AcDbEntity
  8
Visible (ISO)
100
AcDbLine
 10
17050.63313141351
 20
9576.87331866702
 30
0.0
 11
17048.4331314135
 21
9576.87331866702
 31
0.0
  0
LINE
  5
24C
330
6C
100
AcDbEntity
  8
Visible (ISO)
100
AcDbLine
 10
17048.43313141351
 20
9493.77331866702
 30
0.0
 11
17048.43313141351
 21
9511.873318667019
 31
0.0
  0
LINE
  5
24D
330
6C
100
AcDbEntity
  8
Visible (ISO)
100
AcDbLine
 10
17050.63313141351
 20
9493.77331866702
 30
0.0
 11
17048.4331314135
 21
9493.77331866702
 31
0.0
  0
LINE
  5
24E
330
6C
100
AcDbEntity
  8
Visible (ISO)
100
AcDbLine
 10
17050.63313141351
 20
9511.873318667019
 30
0.0
 11
17048.4331314135
 21
9511.873318667019
 31
0.0
  0
LINE
  5
24F
330
6C
100
AcDbEntity
  8
Visible (ISO)
100
AcDbLine
 10
15862.83313141351
 20
9569.533489259237
 30
0.0
 11
15860.63313141351
 21
9568.263318667018
 31
0.0
  0
LINE
  5
250
330
6C
100
AcDbEntity
  8
Visible (ISO)
100
AcDbLine
 10
15860.63313141351
 20
9567.383318667021
 30
0.0
 11
15862.83313141351
 21
9568.653489259236
 31
0.0
  0
LINE
  5
251
330
6C
100
AcDbEntity
  8
Visible (ISO)
100
AcDbLine
 10
15862.83313141351
 20
9576.87331866702
 30
0.0
 11
15862.83313141351
 21
9569.533489259237
 31
0.0
  0
LINE
  5
252
330
6C
100
AcDbEntity
  8
Visible (ISO)
100
AcDbLine
 10
15862.83313141351
 20
9568.653489259236
 30
0.0
 11
15862.83313141351
 21
9558.77331866702
 31
0.0
  0
LINE
  5
253
330
6C
100
AcDbEntity
  8
Visible (ISO)
100
AcDbLine
 10
15860.63313141351
 20
9576.87331866702
 30
0.0
 11
15862.83313141351
 21
9576.87331866702
 31
0.0
  0
LINE
  5
254
330
6C
100
AcDbEntity
  8
Visible (ISO)
100
AcDbLine
 10
15860.63313141351
 20
9558.77331866702
 30
0.0
 11
15862.83313141351
 21
9558.77331866702
 31
0.0
  0
LINE
  5
255
330
6C
100
AcDbEntity
  8
Visible (ISO)
100
AcDbLine
 10
15862.83313141351
 20
9504.533489259236
 30
0.0
 11
15860.63313141351
 21
9503.26331866702
 31
0.0
  0
LINE
  5
256
330
6C
100
AcDbEntity
  8
Visible (ISO)
100
AcDbLine
 10
15860.63313141351
 20
9502.383318667019
 30
0.0
 11
15862.83313141351
 21
9503.653489259235
 31
0.0
  0
LINE
  5
257
330
6C
100
AcDbEntity
  8
Visible (ISO)
100
AcDbLine
 10
15862.83313141351
 20
9511.873318667019
 30
0.0
 11
15862.83313141351
 21
9504.533489259236
 31
0.0
  0
LINE
  5
258
330
6C
100
AcDbEntity
  8
Visible (ISO)
100
AcDbLine
 10
15862.83313141351
 20
9503.653489259235
 30
0.0
 11
15862.83313141351
 21
9493.77331866702
 31
0.0
  0
LINE
  5
259
330
6C
100
AcDbEntity
  8
Visible (ISO)
100
AcDbLine
 10
15860.63313141351
 20
9511.873318667019
 30
0.0
 11
15862.83313141351
 21
9511.873318667019
 31
0.0
  0
LINE
  5
25A
330
6C
100
AcDbEntity
  8
Visible (ISO)
100
AcDbLine
 10
15860.63313141351
 20
9493.77331866702
 30
0.0
 11
15862.83313141351
 21
9493.77331866702
 31
0.0
  0
LINE
  5
25B
330
6C
100
AcDbEntity
  8
Visible (ISO)
100
AcDbLine
 10
19672.83313141351
 20
8969.533489259237
 30
0.0
 11
19672.83313141351
 21
8968.653489259235
 31
0.0
  0
LINE
  5
25C
330
6C
100
AcDbEntity
  8
Visible (ISO)
100
AcDbLine
 10
19674.28313141351
 20
8959.073318667021
 30
0.0
 11
19672.83313141351
 21
8959.073318667021
 31
0.0
  0
LINE
  5
25D
330
6C
100
AcDbEntity
  8
Visible (ISO)
100
AcDbLine
 10
19674.28313141351
 20
8976.57331866702
 30
0.0
 11
19672.83313141351
 21
8976.57331866702
 31
0.0
  0
LINE
  5
25E
330
6C
100
AcDbEntity
  8
Visible (ISO)
100
AcDbLine
 10
19678.33313141351
 20
8972.52331866702
 30
0.0
 11
19678.33313141351
 21
8963.123318667021
 31
0.0
  0
ARC
  5
25F
330
6C
100
AcDbEntity
  8
Visible (ISO)
100
AcDbCircle
 10
19674.28313141351
 20
8972.52331866702
 30
0.0
 40
4.05
100
AcDbArc
 50
0.0
 51
90.0
  0
ARC
  5
260
330
6C
100
AcDbEntity
  8
Visible (ISO)
100
AcDbCircle
 10
19674.28313141351
 20
8963.123318667021
 30
0.0
 40
4.05
100
AcDbArc
 50
270.0
 51
0.0
  0
LINE
  5
261
330
6C
100
AcDbEntity
  8
Visible (ISO)
100
AcDbLine
 10
19672.83313141351
 20
8904.533489259236
 30
0.0
 11
19672.83313141351
 21
8903.653489259236
 31
0.0
  0
LINE
  5
262
330
6C
100
AcDbEntity
  8
Visible (ISO)
100
AcDbLine
 10
19674.28313141351
 20
8894.07331866702
 30
0.0
 11
19672.83313141351
 21
8894.07331866702
 31
0.0
  0
LINE
  5
263
330
6C
100
AcDbEntity
  8
Visible (ISO)
100
AcDbLine
 10
19674.28313141351
 20
8911.573318667018
 30
0.0
 11
19672.83313141351
 21
8911.573318667018
 31
0.0
  0
LINE
  5
264
330
6C
100
AcDbEntity
  8
Visible (ISO)
100
AcDbLine
 10
19678.33313141351
 20
8907.523318667019
 30
0.0
 11
19678.33313141351
 21
8898.123318667019
 31
0.0
  0
ARC
  5
265
330
6C
100
AcDbEntity
  8
Visible (ISO)
100
AcDbCircle
 10
19674.28313141351
 20
8907.523318667019
 30
0.0
 40
4.05
100
AcDbArc
 50
0.0
 51
90.0
  0
ARC
  5
266
330
6C
100
AcDbEntity
  8
Visible (ISO)
100
AcDbCircle
 10
19674.28313141351
 20
8898.123318667019
 30
0.0
 40
4.05
100
AcDbArc
 50
270.0
 51
0.0
  0
LINE
  5
267
330
6C
100
AcDbEntity
  8
Visible (ISO)
100
AcDbLine
 10
19582.93313141351
 20
8963.123318667021
 30
0.0
 11
19582.93313141351
 21
8972.52331866702
 31
0.0
  0
ARC
  5
268
330
6C
100
AcDbEntity
  8
Visible (ISO)
100
AcDbCircle
 10
19586.98313141351
 20
8963.123318667021
 30
0.0
 40
4.05
100
AcDbArc
 50
180.0
 51
270.0
  0
ARC
  5
269
330
6C
100
AcDbEntity
  8
Visible (ISO)
100
AcDbCircle
 10
19586.98313141351
 20
8972.52331866702
 30
0.0
 40
4.05
100
AcDbArc
 50
90.0
 51
180.0
  0
LINE
  5
26A
330
6C
100
AcDbEntity
  8
Visible (ISO)
100
AcDbLine
 10
19586.98313141351
 20
8976.57331866702
 30
0.0
 11
19588.43313141351
 21
8976.57331866702
 31
0.0
  0
LINE
  5
26B
330
6C
100
AcDbEntity
  8
Visible (ISO)
100
AcDbLine
 10
19586.98313141351
 20
8959.073318667021
 30
0.0
 11
19588.43313141351
 21
8959.073318667021
 31
0.0
  0
LINE
  5
26C
330
6C
100
AcDbEntity
  8
Visible (ISO)
100
AcDbLine
 10
19582.93313141351
 20
8898.123318667019
 30
0.0
 11
19582.93313141351
 21
8907.523318667019
 31
0.0
  0
ARC
  5
26D
330
6C
100
AcDbEntity
  8
Visible (ISO)
100
AcDbCircle
 10
19586.98313141351
 20
8898.123318667019
 30
0.0
 40
4.05
100
AcDbArc
 50
180.0
 51
270.0
  0
ARC
  5
26E
330
6C
100
AcDbEntity
  8
Visible (ISO)
100
AcDbCircle
 10
19586.98313141351
 20
8907.523318667019
 30
0.0
 40
4.05
100
AcDbArc
 50
90.0
 51
180.0
  0
LINE
  5
26F
330
6C
100
AcDbEntity
  8
Visible (ISO)
100
AcDbLine
 10
19586.98313141351
 20
8911.573318667018
 30
0.0
 11
19588.43313141351
 21
8911.573318667018
 31
0.0
  0
LINE
  5
270
330
6C
100
AcDbEntity
  8
Visible (ISO)
100
AcDbLine
 10
19586.98313141351
 20
8894.07331866702
 30
0.0
 11
19588.43313141351
 21
8894.07331866702
 31
0.0
  0
LINE
  5
271
330
6C
100
AcDbEntity
  8
Visible (ISO)
100
AcDbLine
 10
17132.83313141351
 20
8969.533489259237
 30
0.0
 11
17132.83313141351
 21
8968.653489259235
 31
0.0
  0
LINE
  5
272
330
6C
100
AcDbEntity
  8
Visible (ISO)
100
AcDbLine
 10
17134.28313141351
 20
8959.073318667021
 30
0.0
 11
17132.83313141351
 21
8959.073318667021
 31
0.0
  0
LINE
  5
273
330
6C
100
AcDbEntity
  8
Visible (ISO)
100
AcDbLine
 10
17134.28313141351
 20
8976.57331866702
 30
0.0
 11
17132.83313141351
 21
8976.57331866702
 31
0.0
  0
LINE
  5
274
330
6C
100
AcDbEntity
  8
Visible (ISO)
100
AcDbLine
 10
17138.33313141351
 20
8972.52331866702
 30
0.0
 11
17138.33313141351
 21
8963.123318667021
 31
0.0
  0
ARC
  5
275
330
6C
100
AcDbEntity
  8
Visible (ISO)
100
AcDbCircle
 10
17134.28313141351
 20
8972.52331866702
 30
0.0
 40
4.05
100
AcDbArc
 50
0.0
 51
90.0
  0
ARC
  5
276
330
6C
100
AcDbEntity
  8
Visible (ISO)
100
AcDbCircle
 10
17134.28313141351
 20
8963.123318667021
 30
0.0
 40
4.05
100
AcDbArc
 50
270.0
 51
0.0
  0
LINE
  5
277
330
6C
100
AcDbEntity
  8
Visible (ISO)
100
AcDbLine
 10
17132.83313141351
 20
8904.533489259236
 30
0.0
 11
17132.83313141351
 21
8903.653489259236
 31
0.0
  0
LINE
  5
278
330
6C
100
AcDbEntity
  8
Visible (ISO)
100
AcDbLine
 10
17134.28313141351
 20
8894.07331866702
 30
0.0
 11
17132.83313141351
 21
8894.07331866702
 31
0.0
  0
LINE
  5
279
330
6C
100
AcDbEntity
  8
Visible (ISO)
100
AcDbLine
 10
17134.28313141351
 20
8911.573318667018
 30
0.0
 11
17132.83313141351
 21
8911.573318667018
 31
0.0
  0
LINE
  5
27A
330
6C
100
AcDbEntity
  8
Visible (ISO)
100
AcDbLine
 10
17138.33313141351
 20
8907.523318667019
 30
0.0
 11
17138.33313141351
 21
8898.123318667019
 31
0.0
  0
ARC
  5
27B
330
6C
100
AcDbEntity
  8
Visible (ISO)
100
AcDbCircle
 10
17134.28313141351
 20
8907.523318667019
 30
0.0
 40
4.05
100
AcDbArc
 50
0.0
 51
90.0
  0
ARC
  5
27C
330
6C
100
AcDbEntity
  8
Visible (ISO)
100
AcDbCircle
 10
17134.28313141351
 20
8898.123318667019
 30
0.0
 40
4.05
100
AcDbArc
 50
270.0
 51
0.0
  0
LINE
  5
27D
330
6C
100
AcDbEntity
  8
Visible (ISO)
100
AcDbLine
 10
17042.93313141351
 20
10063.12331866702
 30
0.0
 11
17042.93313141351
 21
10072.52331866702
 31
0.0
  0
ARC
  5
27E
330
6C
100
AcDbEntity
  8
Visible (ISO)
100
AcDbCircle
 10
17046.98313141351
 20
10063.12331866702
 30
0.0
 40
4.05
100
AcDbArc
 50
180.0
 51
270.0
  0
ARC
  5
27F
330
6C
100
AcDbEntity
  8
Visible (ISO)
100
AcDbCircle
 10
17046.98313141351
 20
10072.52331866702
 30
0.0
 40
4.05
100
AcDbArc
 50
90.0
 51
180.0
  0
LINE
  5
280
330
6C
100
AcDbEntity
  8
Visible (ISO)
100
AcDbLine
 10
17046.98313141351
 20
10076.57331866702
 30
0.0
 11
17048.43313141351
 21
10076.57331866702
 31
0.0
  0
LINE
  5
281
330
6C
100
AcDbEntity
  8
Visible (ISO)
100
AcDbLine
 10
17046.98313141351
 20
10059.07331866702
 30
0.0
 11
17048.43313141351
 21
10059.07331866702
 31
0.0
  0
LINE
  5
282
330
6C
100
AcDbEntity
  8
Visible (ISO)
100
AcDbLine
 10
17042.93313141351
 20
9998.123318667019
 30
0.0
 11
17042.93313141351
 21
10007.52331866702
 31
0.0
  0
ARC
  5
283
330
6C
100
AcDbEntity
  8
Visible (ISO)
100
AcDbCircle
 10
17046.98313141351
 20
9998.123318667019
 30
0.0
 40
4.05
100
AcDbArc
 50
180.0
 51
270.0
  0
ARC
  5
284
330
6C
100
AcDbEntity
  8
Visible (ISO)
100
AcDbCircle
 10
17046.98313141351
 20
10007.52331866702
 30
0.0
 40
4.05
100
AcDbArc
 50
90.0
 51
180.0
  0
LINE
  5
285
330
6C
100
AcDbEntity
  8
Visible (ISO)
100
AcDbLine
 10
17046.98313141351
 20
10011.57331866702
 30
0.0
 11
17048.43313141351
 21
10011.57331866702
 31
0.0
  0
LINE
  5
286
330
6C
100
AcDbEntity
  8
Visible (ISO)
100
AcDbLine
 10
17046.98313141351
 20
9994.07331866702
 30
0.0
 11
17048.43313141351
 21
9994.07331866702
 31
0.0
  0
LINE
  5
287
330
6C
100
AcDbEntity
  8
Visible (ISO)
100
AcDbLine
 10
15862.83313141351
 20
10069.53348925923
 30
0.0
 11
15862.83313141351
 21
10068.65348925923
 31
0.0
  0
LINE
  5
288
330
6C
100
AcDbEntity
  8
Visible (ISO)
100
AcDbLine
 10
15864.28313141351
 20
10059.07331866702
 30
0.0
 11
15862.83313141351
 21
10059.07331866702
 31
0.0
  0
LINE
  5
289
330
6C
100
AcDbEntity
  8
Visible (ISO)
100
AcDbLine
 10
15864.28313141351
 20
10076.57331866702
 30
0.0
 11
15862.83313141351
 21
10076.57331866702
 31
0.0
  0
LINE
  5
28A
330
6C
100
AcDbEntity
  8
Visible (ISO)
100
AcDbLine
 10
15868.33313141351
 20
10072.52331866702
 30
0.0
 11
15868.33313141351
 21
10063.12331866702
 31
0.0
  0
ARC
  5
28B
330
6C
100
AcDbEntity
  8
Visible (ISO)
100
AcDbCircle
 10
15864.28313141351
 20
10072.52331866702
 30
0.0
 40
4.05
100
AcDbArc
 50
0.0
 51
90.0
  0
ARC
  5
28C
330
6C
100
AcDbEntity
  8
Visible (ISO)
100
AcDbCircle
 10
15864.28313141351
 20
10063.12331866702
 30
0.0
 40
4.05
100
AcDbArc
 50
270.0
 51
0.0
  0
LINE
  5
28D
330
6C
100
AcDbEntity
  8
Visible (ISO)
100
AcDbLine
 10
15862.83313141351
 20
10004.53348925923
 30
0.0
 11
15862.83313141351
 21
10003.65348925923
 31
0.0
  0
LINE
  5
28E
330
6C
100
AcDbEntity
  8
Visible (ISO)
100
AcDbLine
 10
15864.28313141351
 20
9994.07331866702
 30
0.0
 11
15862.83313141351
 21
9994.07331866702
 31
0.0
  0
LINE
  5
28F
330
6C
100
AcDbEntity
  8
Visible (ISO)
100
AcDbLine
 10
15864.28313141351
 20
10011.57331866702
 30
0.0
 11
15862.83313141351
 21
10011.57331866702
 31
0.0
  0
LINE
  5
290
330
6C
100
AcDbEntity
  8
Visible (ISO)
100
AcDbLine
 10
15868.33313141351
 20
10007.52331866702
 30
0.0
 11
15868.33313141351
 21
9998.123318667019
 31
0.0
  0
ARC
  5
291
330
6C
100
AcDbEntity
  8
Visible (ISO)
100
AcDbCircle
 10
15864.28313141351
 20
10007.52331866702
 30
0.0
 40
4.05
100
AcDbArc
 50
0.0
 51
90.0
  0
ARC
  5
292
330
6C
100
AcDbEntity
  8
Visible (ISO)
100
AcDbCircle
 10
15864.28313141351
 20
9998.123318667019
 30
0.0
 40
4.05
100
AcDbArc
 50
270.0
 51
0.0
  0
LINE
  5
293
330
6C
100
AcDbEntity
  8
Visible (ISO)
100
AcDbLine
 10
17042.93313141351
 20
9563.12331866702
 30
0.0
 11
17042.93313141351
 21
9572.52331866702
 31
0.0
  0
ARC
  5
294
330
6C
100
AcDbEntity
  8
Visible (ISO)
100
AcDbCircle
 10
17046.98313141351
 20
9563.12331866702
 30
0.0
 40
4.05
100
AcDbArc
 50
180.0
 51
270.0
  0
ARC
  5
295
330
6C
100
AcDbEntity
  8
Visible (ISO)
100
AcDbCircle
 10
17046.98313141351
 20
9572.52331866702
 30
0.0
 40
4.05
100
AcDbArc
 50
90.0
 51
180.0
  0
LINE
  5
296
330
6C
100
AcDbEntity
  8
Visible (ISO)
100
AcDbLine
 10
17046.98313141351
 20
9576.573318667019
 30
0.0
 11
17048.43313141351
 21
9576.573318667019
 31
0.0
  0
LINE
  5
297
330
6C
100
AcDbEntity
  8
Visible (ISO)
100
AcDbLine
 10
17046.98313141351
 20
9559.073318667021
 30
0.0
 11
17048.43313141351
 21
9559.073318667021
 31
0.0
  0
LINE
  5
298
330
6C
100
AcDbEntity
  8
Visible (ISO)
100
AcDbLine
 10
17042.93313141351
 20
9498.123318667019
 30
0.0
 11
17042.93313141351
 21
9507.523318667018
 31
0.0
  0
ARC
  5
299
330
6C
100
AcDbEntity
  8
Visible (ISO)
100
AcDbCircle
 10
17046.98313141351
 20
9498.123318667019
 30
0.0
 40
4.05
100
AcDbArc
 50
180.0
 51
270.0
  0
ARC
  5
29A
330
6C
100
AcDbEntity
  8
Visible (ISO)
100
AcDbCircle
 10
17046.98313141351
 20
9507.523318667018
 30
0.0
 40
4.05
100
AcDbArc
 50
90.0
 51
180.0
  0
LINE
  5
29B
330
6C
100
AcDbEntity
  8
Visible (ISO)
100
AcDbLine
 10
17046.98313141351
 20
9511.573318667018
 30
0.0
 11
17048.43313141351
 21
9511.573318667018
 31
0.0
  0
LINE
  5
29C
330
6C
100
AcDbEntity
  8
Visible (ISO)
100
AcDbLine
 10
17046.98313141351
 20
9494.07331866702
 30
0.0
 11
17048.43313141351
 21
9494.07331866702
 31
0.0
  0
LINE
  5
29D
330
6C
100
AcDbEntity
  8
Visible (ISO)
100
AcDbLine
 10
15862.83313141351
 20
9569.533489259237
 30
0.0
 11
15862.83313141351
 21
9568.653489259236
 31
0.0
  0
LINE
  5
29E
330
6C
100
AcDbEntity
  8
Visible (ISO)
100
AcDbLine
 10
15864.28313141351
 20
9559.073318667021
 30
0.0
 11
15862.83313141351
 21
9559.073318667021
 31
0.0
  0
LINE
  5
29F
330
6C
100
AcDbEntity
  8
Visible (ISO)
100
AcDbLine
 10
15864.28313141351
 20
9576.573318667019
 30
0.0
 11
15862.83313141351
 21
9576.573318667019
 31
0.0
  0
LINE
  5
2A0
330
6C
100
AcDbEntity
  8
Visible (ISO)
100
AcDbLine
 10
15868.33313141351
 20
9572.52331866702
 30
0.0
 11
15868.33313141351
 21
9563.12331866702
 31
0.0
  0
ARC
  5
2A1
330
6C
100
AcDbEntity
  8
Visible (ISO)
100
AcDbCircle
 10
15864.28313141351
 20
9572.52331866702
 30
0.0
 40
4.05
100
AcDbArc
 50
0.0
 51
90.0
  0
ARC
  5
2A2
330
6C
100
AcDbEntity
  8
Visible (ISO)
100
AcDbCircle
 10
15864.28313141351
 20
9563.12331866702
 30
0.0
 40
4.05
100
AcDbArc
 50
270.0
 51
0.0
  0
LINE
  5
2A3
330
6C
100
AcDbEntity
  8
Visible (ISO)
100
AcDbLine
 10
15862.83313141351
 20
9504.533489259236
 30
0.0
 11
15862.83313141351
 21
9503.653489259235
 31
0.0
  0
LINE
  5
2A4
330
6C
100
AcDbEntity
  8
Visible (ISO)
100
AcDbLine
 10
15864.28313141351
 20
9494.07331866702
 30
0.0
 11
15862.83313141351
 21
9494.07331866702
 31
0.0
  0
LINE
  5
2A5
330
6C
100
AcDbEntity
  8
Visible (ISO)
100
AcDbLine
 10
15864.28313141351
 20
9511.573318667018
 30
0.0
 11
15862.83313141351
 21
9511.573318667018
 31
0.0
  0
LINE
  5
2A6
330
6C
100
AcDbEntity
  8
Visible (ISO)
100
AcDbLine
 10
15868.33313141351
 20
9507.523318667018
 30
0.0
 11
15868.33313141351
 21
9498.123318667019
 31
0.0
  0
ARC
  5
2A7
330
6C
100
AcDbEntity
  8
Visible (ISO)
100
AcDbCircle
 10
15864.28313141351
 20
9507.523318667018
 30
0.0
 40
4.05
100
AcDbArc
 50
0.0
 51
90.0
  0
ARC
  5
2A8
330
6C
100
AcDbEntity
  8
Visible (ISO)
100
AcDbCircle
 10
15864.28313141351
 20
9498.123318667019
 30
0.0
 40
4.05
100
AcDbArc
 50
270.0
 51
0.0
  0
LINE
  5
2A9
330
6C
100
AcDbEntity
  8
Visible (ISO)
100
AcDbLine
 10
15785.6331314135
 20
7779.82331866702
 30
0.0
 11
14285.63313141351
 21
7779.82331866702
 31
0.0
  0
LINE
  5
2AA
330
6C
100
AcDbEntity
  8
Visible (ISO)
100
AcDbLine
 10
15785.6331314135
 20
7789.82331866702
 30
0.0
 11
14285.63313141351
 21
7789.82331866702
 31
0.0
  0
LINE
  5
2AB
330
6C
100
AcDbEntity
  8
Visible (ISO)
100
AcDbLine
 10
14285.63313141351
 20
7789.82331866702
 30
0.0
 11
14285.63313141351
 21
7779.82331866702
 31
0.0
  0
LINE
  5
2AC
330
6C
100
AcDbEntity
  8
Visible (ISO)
100
AcDbLine
 10
15785.6331314135
 20
7779.82331866702
 30
0.0
 11
15894.81445478911
 21
7779.82331866702
 31
0.0
  0
LINE
  5
2AD
330
6C
100
AcDbEntity
  8
Visible (ISO)
100
AcDbLine
 10
15894.81445478911
 20
7789.82331866702
 30
0.0
 11
15894.81445478911
 21
7779.82331866702
 31
0.0
  0
LINE
  5
2AE
330
6C
100
AcDbEntity
  8
Visible (ISO)
100
AcDbLine
 10
15785.6331314135
 20
7789.82331866702
 30
0.0
 11
15894.81445478911
 21
7789.82331866702
 31
0.0
  0
LINE
  5
2AF
330
6C
100
AcDbEntity
  8
Visible (ISO)
100
AcDbLine
 10
17055.63313141351
 20
7779.82331866702
 30
0.0
 11
15894.81445478911
 21
7779.82331866702
 31
0.0
  0
LINE
  5
2B0
330
6C
100
AcDbEntity
  8
Visible (ISO)
100
AcDbLine
 10
17055.63313141351
 20
7789.82331866702
 30
0.0
 11
15894.81445478911
 21
7789.82331866702
 31
0.0
  0
LINE
  5
2B1
330
6C
100
AcDbEntity
  8
Visible (ISO)
100
AcDbLine
 10
17055.63313141351
 20
7779.82331866702
 30
0.0
 11
19915.6331314135
 21
7779.82331866702
 31
0.0
  0
LINE
  5
2B2
330
6C
100
AcDbEntity
  8
Visible (ISO)
100
AcDbLine
 10
17055.63313141351
 20
7789.82331866702
 30
0.0
 11
19915.6331314135
 21
7789.82331866702
 31
0.0
  0
LINE
  5
2B3
330
6C
100
AcDbEntity
  8
Visible (ISO)
100
AcDbLine
 10
21415.63313141351
 20
7779.82331866702
 30
0.0
 11
19915.6331314135
 21
7779.82331866702
 31
0.0
  0
LINE
  5
2B4
330
6C
100
AcDbEntity
  8
Visible (ISO)
100
AcDbLine
 10
21415.63313141351
 20
7789.82331866702
 30
0.0
 11
21415.63313141351
 21
7779.82331866702
 31
0.0
  0
LINE
  5
2B5
330
6C
100
AcDbEntity
  8
Visible (ISO)
100
AcDbLine
 10
21415.63313141351
 20
7789.82331866702
 30
0.0
 11
19915.6331314135
 21
7789.82331866702
 31
0.0
  0
LINE
  5
2B6
330
6C
100
AcDbEntity
  8
Visible (ISO)
100
AcDbLine
 10
15803.70182211028
 20
7239.823318667021
 30
0.0
 11
15752.71162697436
 21
7239.823318667021
 31
0.0
  0
LINE
  5
2B7
330
6C
100
AcDbEntity
  8
Visible (ISO)
100
AcDbLine
 10
15888.55463585267
 20
7239.823318667021
 30
0.0
 11
15837.56444071674
 21
7239.823318667021
 31
0.0
  0
LINE
  5
2B8
330
6C
100
AcDbEntity
  8
Visible (ISO)
100
AcDbLine
 10
16070.63313141351
 20
7089.823318667019
 30
0.0
 11
15570.63313141351
 21
7089.823318667019
 31
0.0
  0
LINE
  5
2B9
330
6C
100
AcDbEntity
  8
Visible (ISO)
100
AcDbLine
 10
15570.63313141351
 20
7089.823318667019
 30
0.0
 11
15570.63313141351
 21
7164.823318667021
 31
0.0
  0
LINE
  5
2BA
330
6C
100
AcDbEntity
  8
Visible (ISO)
100
AcDbLine
 10
16070.63313141351
 20
7089.823318667019
 30
0.0
 11
16070.63313141351
 21
7164.823318667021
 31
0.0
  0
SPLINE
  5
2BB
330
6C
100
AcDbEntity
  8
Visible (ISO)
100
AcDbSpline
210
0.0
220
0.0
230
1.0
 70
     8
 71
     3
 72
    18
 73
    14
 74
     0
 42
0.0000000001
 43
0.0000000001
 40
1.570796326794896
 40
1.570796326794896
 40
1.570796326794896
 40
1.570796326794896
 40
1.884955592153876
 40
1.884955592153876
 40
2.199114857512855
 40
2.199114857512855
 40
2.513274122871834
 40
2.513274122871834
 40
2.827433388230813
 40
2.827433388230813
 40
3.021371995349163
 40
3.021371995349163
 40
3.141592653589793
 40
3.141592653589793
 40
3.141592653589793
 40
3.141592653589793
 10
15750.63313141351
 20
7239.823318667021
 30
0.0
 10
15731.78357549197
 20
7239.82331866702
 30
0.0
 10
15712.93706541447
 20
7238.579571187563
 30
0.0
 10
15677.08307943757
 20
7233.725543590749
 30
0.0
 10
15660.08139707781
 20
7230.116047821367
 30
0.0
 10
15629.58217492392
 20
7220.883138668914
 30
0.0
 10
15616.08956340896
 20
7215.261217204349
 30
0.0
 10
15593.93058144308
 20
7202.553207973561
 30
0.0
 10
15585.26779159656
 20
7195.469173656995
 30
0.0
 10
15575.84713895248
 20
7183.388428843612
 30
0.0
 10
15573.32789437215
 20
7178.631634258059
 30
0.0
 10
15571.06724308261
 20
7170.834341122575
 30
0.0
 10
15570.63313141351
 20
7167.828835123036
 30
0.0
 10
15570.63313141351
 20
7164.823318667021
 30
0.0
  0
SPLINE
  5
2BC
330
6C
100
AcDbEntity
  8
Visible (ISO)
100
AcDbSpline
210
0.0
220
0.0
230
1.0
 70
     8
 71
     3
 72
    18
 73
    14
 74
     0
 42
0.0000000001
 43
0.0000000001
 40
1.570796326794896
 40
1.570796326794896
 40
1.570796326794896
 40
1.570796326794896
 40
1.884955592153876
 40
1.884955592153876
 40
2.199114857512855
 40
2.199114857512855
 40
2.513274122871834
 40
2.513274122871834
 40
2.827433388230813
 40
2.827433388230813
 40
3.021371995349163
 40
3.021371995349163
 40
3.141592653589793
 40
3.141592653589793
 40
3.141592653589793
 40
3.141592653589793
 10
15890.63313141351
 20
7239.82331866702
 30
0.0
 10
15909.48268733505
 20
7239.82331866702
 30
0.0
 10
15928.32919741255
 20
7238.579571187563
 30
0.0
 10
15964.18318338945
 20
7233.725543590749
 30
0.0
 10
15981.18486574921
 20
7230.116047821367
 30
0.0
 10
16011.6840879031
 20
7220.883138668914
 30
0.0
 10
16025.17669941806
 20
7215.261217204349
 30
0.0
 10
16047.33568138395
 20
7202.553207973561
 30
0.0
 10
16055.99847123047
 20
7195.469173656995
 30
0.0
 10
16065.41912387454
 20
7183.388428843612
 30
0.0
 10
16067.93836845487
 20
7178.631634258059
 30
0.0
 10
16070.19901974442
 20
7170.834341122575
 30
0.0
 10
16070.63313141351
 20
7167.828835123036
 30
0.0
 10
16070.63313141351
 20
7164.823318667021
 30
0.0
  0
LINE
  5
2BD
330
6C
100
AcDbEntity
  8
Visible (ISO)
100
AcDbLine
 10
17073.70182211028
 20
7239.82331866702
 30
0.0
 11
17022.71162697435
 21
7239.82331866702
 31
0.0
  0
LINE
  5
2BE
330
6C
100
AcDbEntity
  8
Visible (ISO)
100
AcDbLine
 10
17158.55463585266
 20
7239.82331866702
 30
0.0
 11
17107.56444071673
 21
7239.82331866702
 31
0.0
  0
LINE
  5
2BF
330
6C
100
AcDbEntity
  8
Visible (ISO)
100
AcDbLine
 10
17340.63313141351
 20
7089.823318667018
 30
0.0
 11
16840.63313141351
 21
7089.823318667018
 31
0.0
  0
LINE
  5
2C0
330
6C
100
AcDbEntity
  8
Visible (ISO)
100
AcDbLine
 10
16840.63313141351
 20
7089.823318667018
 30
0.0
 11
16840.63313141351
 21
7164.82331866702
 31
0.0
  0
LINE
  5
2C1
330
6C
100
AcDbEntity
  8
Visible (ISO)
100
AcDbLine
 10
17340.63313141351
 20
7089.823318667018
 30
0.0
 11
17340.63313141351
 21
7164.82331866702
 31
0.0
  0
SPLINE
  5
2C2
330
6C
100
AcDbEntity
  8
Visible (ISO)
100
AcDbSpline
210
0.0
220
0.0
230
1.0
 70
     8
 71
     3
 72
    18
 73
    14
 74
     0
 42
0.0000000001
 43
0.0000000001
 40
1.570796326794896
 40
1.570796326794896
 40
1.570796326794896
 40
1.570796326794896
 40
1.884955592153876
 40
1.884955592153876
 40
2.199114857512855
 40
2.199114857512855
 40
2.513274122871834
 40
2.513274122871834
 40
2.827433388230813
 40
2.827433388230813
 40
3.021371995349163
 40
3.021371995349163
 40
3.141592653589793
 40
3.141592653589793
 40
3.141592653589793
 40
3.141592653589793
 10
17020.63313141351
 20
7239.82331866702
 30
0.0
 10
17001.78357549197
 20
7239.82331866702
 30
0.0
 10
16982.93706541447
 20
7238.579571187561
 30
0.0
 10
16947.08307943757
 20
7233.725543590748
 30
0.0
 10
16930.08139707781
 20
7230.116047821366
 30
0.0
 10
16899.58217492392
 20
7220.883138668914
 30
0.0
 10
16886.08956340896
 20
7215.261217204349
 30
0.0
 10
16863.93058144307
 20
7202.553207973561
 30
0.0
 10
16855.26779159656
 20
7195.469173656994
 30
0.0
 10
16845.84713895248
 20
7183.388428843612
 30
0.0
 10
16843.32789437215
 20
7178.631634258059
 30
0.0
 10
16841.0672430826
 20
7170.834341122574
 30
0.0
 10
16840.63313141351
 20
7167.828835123035
 30
0.0
 10
16840.63313141351
 20
7164.82331866702
 30
0.0
  0
SPLINE
  5
2C3
330
6C
100
AcDbEntity
  8
Visible (ISO)
100
AcDbSpline
210
0.0
220
0.0
230
1.0
 70
     8
 71
     3
 72
    18
 73
    14
 74
     0
 42
0.0000000001
 43
0.0000000001
 40
1.570796326794896
 40
1.570796326794896
 40
1.570796326794896
 40
1.570796326794896
 40
1.884955592153876
 40
1.884955592153876
 40
2.199114857512855
 40
2.199114857512855
 40
2.513274122871834
 40
2.513274122871834
 40
2.827433388230813
 40
2.827433388230813
 40
3.021371995349163
 40
3.021371995349163
 40
3.141592653589793
 40
3.141592653589793
 40
3.141592653589793
 40
3.141592653589793
 10
17160.63313141351
 20
7239.82331866702
 30
0.0
 10
17179.48268733505
 20
7239.823318667018
 30
0.0
 10
17198.32919741255
 20
7238.579571187563
 30
0.0
 10
17234.18318338944
 20
7233.725543590748
 30
0.0
 10
17251.18486574921
 20
7230.116047821366
 30
0.0
 10
17281.6840879031
 20
7220.883138668914
 30
0.0
 10
17295.17669941806
 20
7215.261217204349
 30
0.0
 10
17317.33568138394
 20
7202.553207973561
 30
0.0
 10
17325.99847123046
 20
7195.469173656994
 30
0.0
 10
17335.41912387453
 20
7183.388428843612
 30
0.0
 10
17337.93836845486
 20
7178.631634258059
 30
0.0
 10
17340.19901974441
 20
7170.834341122574
 30
0.0
 10
17340.63313141351
 20
7167.828835123035
 30
0.0
 10
17340.63313141351
 20
7164.82331866702
 30
0.0
  0
LINE
  5
2C4
330
6C
100
AcDbEntity
  8
Visible (ISO)
100
AcDbLine
 10
19613.70182211028
 20
7239.82331866702
 30
0.0
 11
19562.71162697436
 21
7239.82331866702
 31
0.0
  0
LINE
  5
2C5
330
6C
100
AcDbEntity
  8
Visible (ISO)
100
AcDbLine
 10
19698.55463585267
 20
7239.82331866702
 30
0.0
 11
19647.56444071674
 21
7239.82331866702
 31
0.0
  0
LINE
  5
2C6
330
6C
100
AcDbEntity
  8
Visible (ISO)
100
AcDbLine
 10
19880.63313141351
 20
7089.823318667018
 30
0.0
 11
19380.63313141351
 21
7089.823318667018
 31
0.0
  0
LINE
  5
2C7
330
6C
100
AcDbEntity
  8
Visible (ISO)
100
AcDbLine
 10
19380.63313141351
 20
7089.823318667018
 30
0.0
 11
19380.63313141351
 21
7164.82331866702
 31
0.0
  0
LINE
  5
2C8
330
6C
100
AcDbEntity
  8
Visible (ISO)
100
AcDbLine
 10
19880.63313141351
 20
7089.823318667018
 30
0.0
 11
19880.63313141351
 21
7164.82331866702
 31
0.0
  0
SPLINE
  5
2C9
330
6C
100
AcDbEntity
  8
Visible (ISO)
100
AcDbSpline
210
0.0
220
0.0
230
1.0
 70
     8
 71
     3
 72
    18
 73
    14
 74
     0
 42
0.0000000001
 43
0.0000000001
 40
1.570796326794896
 40
1.570796326794896
 40
1.570796326794896
 40
1.570796326794896
 40
1.884955592153876
 40
1.884955592153876
 40
2.199114857512855
 40
2.199114857512855
 40
2.513274122871834
 40
2.513274122871834
 40
2.827433388230813
 40
2.827433388230813
 40
3.021371995349163
 40
3.021371995349163
 40
3.141592653589793
 40
3.141592653589793
 40
3.141592653589793
 40
3.141592653589793
 10
19560.63313141351
 20
7239.82331866702
 30
0.0
 10
19541.78357549197
 20
7239.82331866702
 30
0.0
 10
19522.93706541447
 20
7238.579571187561
 30
0.0
 10
19487.08307943757
 20
7233.725543590748
 30
0.0
 10
19470.08139707781
 20
7230.116047821366
 30
0.0
 10
19439.58217492392
 20
7220.883138668914
 30
0.0
 10
19426.08956340896
 20
7215.261217204349
 30
0.0
 10
19403.93058144308
 20
7202.553207973561
 30
0.0
 10
19395.26779159655
 20
7195.469173656994
 30
0.0
 10
19385.84713895248
 20
7183.388428843612
 30
0.0
 10
19383.32789437215
 20
7178.631634258059
 30
0.0
 10
19381.0672430826
 20
7170.834341122574
 30
0.0
 10
19380.63313141351
 20
7167.828835123035
 30
0.0
 10
19380.63313141351
 20
7164.82331866702
 30
0.0
  0
SPLINE
  5
2CA
330
6C
100
AcDbEntity
  8
Visible (ISO)
100
AcDbSpline
210
0.0
220
0.0
230
1.0
 70
     8
 71
     3
 72
    18
 73
    14
 74
     0
 42
0.0000000001
 43
0.0000000001
 40
1.570796326794896
 40
1.570796326794896
 40
1.570796326794896
 40
1.570796326794896
 40
1.884955592153876
 40
1.884955592153876
 40
2.199114857512855
 40
2.199114857512855
 40
2.513274122871834
 40
2.513274122871834
 40
2.827433388230813
 40
2.827433388230813
 40
3.021371995349163
 40
3.021371995349163
 40
3.141592653589793
 40
3.141592653589793
 40
3.141592653589793
 40
3.141592653589793
 10
19700.63313141351
 20
7239.82331866702
 30
0.0
 10
19719.48268733505
 20
7239.82331866702
 30
0.0
 10
19738.32919741255
 20
7238.579571187563
 30
0.0
 10
19774.18318338945
 20
7233.725543590748
 30
0.0
 10
19791.18486574921
 20
7230.116047821366
 30
0.0
 10
19821.6840879031
 20
7220.883138668914
 30
0.0
 10
19835.17669941806
 20
7215.261217204349
 30
0.0
 10
19857.33568138394
 20
7202.553207973561
 30
0.0
 10
19865.99847123046
 20
7195.469173656994
 30
0.0
 10
19875.41912387453
 20
7183.388428843612
 30
0.0
 10
19877.93836845487
 20
7178.631634258059
 30
0.0
 10
19880.19901974442
 20
7170.834341122574
 30
0.0
 10
19880.63313141351
 20
7167.828835123035
 30
0.0
 10
19880.63313141351
 20
7164.82331866702
 30
0.0
  0
SPLINE
  5
2CB
330
6C
100
AcDbEntity
  8
Visible (ISO)
100
AcDbSpline
210
0.0
220
0.0
230
1.0
 70
    12
 71
     2
 72
     6
 73
     3
 74
     0
 42
0.0000000001
 43
0.0000000001
 40
0.4978532609589537
 40
0.4978532609589537
 40
0.4978532609589537
 40
0.9957065219179071
 40
0.9957065219179071
 40
0.9957065219179071
 10
15880.0227417203
 20
7256.223418667018
 30
0.0
 41
1.0
 10
15878.05030985597
 20
7256.223418667018
 30
0.0
 41
1.037954849302035
 10
15875.7727417203
 20
7255.464229288465
 30
0.0
 41
1.0
  0
LINE
  5
2CC
330
6C
100
AcDbEntity
  8
Visible (ISO)
100
AcDbLine
 10
15880.0227417203
 20
7256.223418667018
 30
0.0
 11
15875.7727417203
 21
7256.223418667018
 31
0.0
  0
SPLINE
  5
2CD
330
6C
100
AcDbEntity
  8
Visible (ISO)
100
AcDbSpline
210
0.0
220
0.0
230
1.0
 70
    28
 71
     2
 72
     6
 73
     3
 74
     0
 42
0.0000000001
 43
0.0000000001
 40
0.0
 40
0.0
 40
0.0
 40
0.4978532609589536
 40
0.4978532609589536
 40
0.4978532609589536
 10
15875.7727417203
 20
7255.464229288465
 30
0.0
 41
1.0
 10
15875.7727417203
 20
7256.223418667018
 30
0.0
 41
1.037954849302054
 10
15875.7727417203
 20
7256.223418667018
 30
0.0
 41
1.0
  0
SPLINE
  5
2CE
330
6C
100
AcDbEntity
  8
Visible (ISO)
100
AcDbSpline
210
0.0
220
0.0
230
1.0
 70
    12
 71
     2
 72
     6
 73
     3
 74
     0
 42
0.0000000001
 43
0.0000000001
 40
0.4978532609589542
 40
0.4978532609589542
 40
0.4978532609589542
 40
0.9957065219179085
 40
0.9957065219179085
 40
0.9957065219179085
 10
15888.5227417203
 20
7256.223418667018
 30
0.0
 41
1.0
 10
15886.55030985596
 20
7256.223418667018
 30
0.0
 41
1.037954849302014
 10
15884.2727417203
 20
7255.464229288465
 30
0.0
 41
1.0
  0
LINE
  5
2CF
330
6C
100
AcDbEntity
  8
Visible (ISO)
100
AcDbLine
 10
15888.5227417203
 20
7256.223418667018
 30
0.0
 11
15880.0227417203
 21
7256.223418667018
 31
0.0
  0
SPLINE
  5
2D0
330
6C
100
AcDbEntity
  8
Visible (ISO)
100
AcDbSpline
210
0.0
220
0.0
230
1.0
 70
    12
 71
     2
 72
     6
 73
     3
 74
     0
 42
0.0000000001
 43
0.0000000001
 40
0.0
 40
0.0
 40
0.0
 40
0.4978532609589537
 40
0.4978532609589537
 40
0.4978532609589537
 10
15884.2727417203
 20
7255.464229288465
 30
0.0
 41
1.0
 10
15881.99517358463
 20
7256.223418667018
 30
0.0
 41
1.037954849302049
 10
15880.0227417203
 20
7256.223418667018
 30
0.0
 41
1.0
  0
SPLINE
  5
2D1
330
6C
100
AcDbEntity
  8
Visible (ISO)
100
AcDbSpline
210
0.0
220
0.0
230
1.0
 70
    28
 71
     2
 72
     6
 73
     3
 74
     0
 42
0.0000000001
 43
0.0000000001
 40
0.4978532609589534
 40
0.4978532609589534
 40
0.4978532609589534
 40
0.9957065219179066
 40
0.9957065219179066
 40
0.9957065219179066
 10
15892.7727417203
 20
7256.223418667018
 30
0.0
 41
1.0
 10
15892.7727417203
 20
7256.223418667018
 30
0.0
 41
1.037954849302054
 10
15892.7727417203
 20
7255.464229288465
 30
0.0
 41
1.0
  0
LINE
  5
2D2
330
6C
100
AcDbEntity
  8
Visible (ISO)
100
AcDbLine
 10
15892.7727417203
 20
7256.223418667018
 30
0.0
 11
15888.5227417203
 21
7256.223418667018
 31
0.0
  0
SPLINE
  5
2D3
330
6C
100
AcDbEntity
  8
Visible (ISO)
100
AcDbSpline
210
0.0
220
0.0
230
1.0
 70
    12
 71
     2
 72
     6
 73
     3
 74
     0
 42
0.0000000001
 43
0.0000000001
 40
0.0
 40
0.0
 40
0.0
 40
0.4978532609589542
 40
0.4978532609589542
 40
0.4978532609589542
 10
15892.7727417203
 20
7255.464229288465
 30
0.0
 41
1.0
 10
15890.49517358464
 20
7256.223418667018
 30
0.0
 41
1.037954849302022
 10
15888.5227417203
 20
7256.223418667018
 30
0.0
 41
1.0
  0
LINE
  5
2D4
330
6C
100
AcDbEntity
  8
Visible (ISO)
100
AcDbLine
 10
15892.7727417203
 20
7250.423418667018
 30
0.0
 11
15892.7727417203
 21
7255.464229288465
 31
0.0
  0
LINE
  5
2D5
330
6C
100
AcDbEntity
  8
Visible (ISO)
100
AcDbLine
 10
15884.2727417203
 20
7250.423418667018
 30
0.0
 11
15884.2727417203
 21
7255.464229288465
 31
0.0
  0
LINE
  5
2D6
330
6C
100
AcDbEntity
  8
Visible (ISO)
100
AcDbLine
 10
15892.7727417203
 20
7250.423418667018
 30
0.0
 11
15884.2727417203
 21
7250.423418667018
 31
0.0
  0
LINE
  5
2D7
330
6C
100
AcDbEntity
  8
Visible (ISO)
100
AcDbLine
 10
15875.7727417203
 20
7250.423418667018
 30
0.0
 11
15875.7727417203
 21
7255.464229288465
 31
0.0
  0
LINE
  5
2D8
330
6C
100
AcDbEntity
  8
Visible (ISO)
100
AcDbLine
 10
15884.2727417203
 20
7250.423418667018
 30
0.0
 11
15875.7727417203
 21
7250.423418667018
 31
0.0
  0
LINE
  5
2D9
330
6C
100
AcDbEntity
  8
Visible (ISO)
100
AcDbLine
 10
15891.9727417203
 20
7250.423418667018
 30
0.0
 11
15891.9727417203
 21
7249.823318667019
 31
0.0
  0
LINE
  5
2DA
330
6C
100
AcDbEntity
  8
Visible (ISO)
100
AcDbLine
 10
15876.5727417203
 20
7250.423418667018
 30
0.0
 11
15876.5727417203
 21
7249.823318667019
 31
0.0
  0
SPLINE
  5
2DB
330
6C
100
AcDbEntity
  8
Visible (ISO)
100
AcDbSpline
210
0.0
220
0.0
230
1.0
 70
    12
 71
     2
 72
     6
 73
     3
 74
     0
 42
0.0000000001
 43
0.0000000001
 40
0.4978532609589537
 40
0.4978532609589537
 40
0.4978532609589537
 40
0.9957065219179071
 40
0.9957065219179071
 40
0.9957065219179071
 10
15752.74352110672
 20
7256.223418667018
 30
0.0
 41
1.0
 10
15750.77108924239
 20
7256.223418667018
 30
0.0
 41
1.037954849302035
 10
15748.49352110672
 20
7255.464229288465
 30
0.0
 41
1.0
  0
LINE
  5
2DC
330
6C
100
AcDbEntity
  8
Visible (ISO)
100
AcDbLine
 10
15752.74352110672
 20
7256.223418667018
 30
0.0
 11
15748.49352110672
 21
7256.223418667018
 31
0.0
  0
SPLINE
  5
2DD
330
6C
100
AcDbEntity
  8
Visible (ISO)
100
AcDbSpline
210
0.0
220
0.0
230
1.0
 70
    28
 71
     2
 72
     6
 73
     3
 74
     0
 42
0.0000000001
 43
0.0000000001
 40
0.0
 40
0.0
 40
0.0
 40
0.4978532609589536
 40
0.4978532609589536
 40
0.4978532609589536
 10
15748.49352110672
 20
7255.464229288465
 30
0.0
 41
1.0
 10
15748.49352110673
 20
7256.223418667018
 30
0.0
 41
1.037954849302054
 10
15748.49352110672
 20
7256.223418667018
 30
0.0
 41
1.0
  0
SPLINE
  5
2DE
330
6C
100
AcDbEntity
  8
Visible (ISO)
100
AcDbSpline
210
0.0
220
0.0
230
1.0
 70
    12
 71
     2
 72
     6
 73
     3
 74
     0
 42
0.0000000001
 43
0.0000000001
 40
0.4978532609589542
 40
0.4978532609589542
 40
0.4978532609589542
 40
0.9957065219179085
 40
0.9957065219179085
 40
0.9957065219179085
 10
15761.24352110672
 20
7256.223418667018
 30
0.0
 41
1.0
 10
15759.27108924239
 20
7256.223418667018
 30
0.0
 41
1.037954849302014
 10
15756.99352110672
 20
7255.464229288465
 30
0.0
 41
1.0
  0
LINE
  5
2DF
330
6C
100
AcDbEntity
  8
Visible (ISO)
100
AcDbLine
 10
15761.24352110672
 20
7256.223418667018
 30
0.0
 11
15752.74352110672
 21
7256.223418667018
 31
0.0
  0
SPLINE
  5
2E0
330
6C
100
AcDbEntity
  8
Visible (ISO)
100
AcDbSpline
210
0.0
220
0.0
230
1.0
 70
    12
 71
     2
 72
     6
 73
     3
 74
     0
 42
0.0000000001
 43
0.0000000001
 40
0.0
 40
0.0
 40
0.0
 40
0.4978532609589537
 40
0.4978532609589537
 40
0.4978532609589537
 10
15756.99352110672
 20
7255.464229288465
 30
0.0
 41
1.0
 10
15754.71595297106
 20
7256.223418667018
 30
0.0
 41
1.037954849302049
 10
15752.74352110672
 20
7256.223418667018
 30
0.0
 41
1.0
  0
SPLINE
  5
2E1
330
6C
100
AcDbEntity
  8
Visible (ISO)
100
AcDbSpline
210
0.0
220
0.0
230
1.0
 70
    28
 71
     2
 72
     6
 73
     3
 74
     0
 42
0.0000000001
 43
0.0000000001
 40
0.4978532609589534
 40
0.4978532609589534
 40
0.4978532609589534
 40
0.9957065219179066
 40
0.9957065219179066
 40
0.9957065219179066
 10
15765.49352110672
 20
7256.223418667018
 30
0.0
 41
1.0
 10
15765.49352110673
 20
7256.223418667018
 30
0.0
 41
1.037954849302054
 10
15765.49352110672
 20
7255.464229288465
 30
0.0
 41
1.0
  0
LINE
  5
2E2
330
6C
100
AcDbEntity
  8
Visible (ISO)
100
AcDbLine
 10
15765.49352110672
 20
7256.223418667018
 30
0.0
 11
15761.24352110672
 21
7256.223418667018
 31
0.0
  0
SPLINE
  5
2E3
330
6C
100
AcDbEntity
  8
Visible (ISO)
100
AcDbSpline
210
0.0
220
0.0
230
1.0
 70
    12
 71
     2
 72
     6
 73
     3
 74
     0
 42
0.0000000001
 43
0.0000000001
 40
0.0
 40
0.0
 40
0.0
 40
0.4978532609589542
 40
0.4978532609589542
 40
0.4978532609589542
 10
15765.49352110672
 20
7255.464229288465
 30
0.0
 41
1.0
 10
15763.21595297106
 20
7256.223418667018
 30
0.0
 41
1.037954849302022
 10
15761.24352110672
 20
7256.223418667018
 30
0.0
 41
1.0
  0
LINE
  5
2E4
330
6C
100
AcDbEntity
  8
Visible (ISO)
100
AcDbLine
 10
15765.49352110672
 20
7250.423418667018
 30
0.0
 11
15765.49352110672
 21
7255.464229288465
 31
0.0
  0
LINE
  5
2E5
330
6C
100
AcDbEntity
  8
Visible (ISO)
100
AcDbLine
 10
15756.99352110672
 20
7250.423418667018
 30
0.0
 11
15756.99352110672
 21
7255.464229288465
 31
0.0
  0
LINE
  5
2E6
330
6C
100
AcDbEntity
  8
Visible (ISO)
100
AcDbLine
 10
15765.49352110672
 20
7250.423418667018
 30
0.0
 11
15756.99352110672
 21
7250.423418667018
 31
0.0
  0
LINE
  5
2E7
330
6C
100
AcDbEntity
  8
Visible (ISO)
100
AcDbLine
 10
15748.49352110672
 20
7250.423418667018
 30
0.0
 11
15748.49352110672
 21
7255.464229288465
 31
0.0
  0
LINE
  5
2E8
330
6C
100
AcDbEntity
  8
Visible (ISO)
100
AcDbLine
 10
15756.99352110672
 20
7250.423418667018
 30
0.0
 11
15748.49352110672
 21
7250.423418667018
 31
0.0
  0
LINE
  5
2E9
330
6C
100
AcDbEntity
  8
Visible (ISO)
100
AcDbLine
 10
15764.69352110672
 20
7250.423418667018
 30
0.0
 11
15764.69352110672
 21
7249.823318667019
 31
0.0
  0
LINE
  5
2EA
330
6C
100
AcDbEntity
  8
Visible (ISO)
100
AcDbLine
 10
15749.29352110672
 20
7250.423418667018
 30
0.0
 11
15749.29352110672
 21
7249.823318667019
 31
0.0
  0
SPLINE
  5
2EB
330
6C
100
AcDbEntity
  8
Visible (ISO)
100
AcDbSpline
210
0.0
220
0.0
230
1.0
 70
    12
 71
     2
 72
     6
 73
     3
 74
     0
 42
0.0000000001
 43
0.0000000001
 40
0.4978532609589537
 40
0.4978532609589537
 40
0.4978532609589537
 40
0.9957065219179071
 40
0.9957065219179071
 40
0.9957065219179071
 10
15816.38313141351
 20
7256.223418667018
 30
0.0
 41
1.0
 10
15814.41069954918
 20
7256.223418667018
 30
0.0
 41
1.037954849302035
 10
15812.13313141351
 20
7255.464229288465
 30
0.0
 41
1.0
  0
LINE
  5
2EC
330
6C
100
AcDbEntity
  8
Visible (ISO)
100
AcDbLine
 10
15816.38313141351
 20
7256.223418667018
 30
0.0
 11
15812.13313141351
 21
7256.223418667018
 31
0.0
  0
SPLINE
  5
2ED
330
6C
100
AcDbEntity
  8
Visible (ISO)
100
AcDbSpline
210
0.0
220
0.0
230
1.0
 70
    28
 71
     2
 72
     6
 73
     3
 74
     0
 42
0.0000000001
 43
0.0000000001
 40
0.0
 40
0.0
 40
0.0
 40
0.4978532609589536
 40
0.4978532609589536
 40
0.4978532609589536
 10
15812.13313141351
 20
7255.464229288465
 30
0.0
 41
1.0
 10
15812.13313141351
 20
7256.223418667018
 30
0.0
 41
1.037954849302054
 10
15812.13313141351
 20
7256.223418667018
 30
0.0
 41
1.0
  0
SPLINE
  5
2EE
330
6C
100
AcDbEntity
  8
Visible (ISO)
100
AcDbSpline
210
0.0
220
0.0
230
1.0
 70
    12
 71
     2
 72
     6
 73
     3
 74
     0
 42
0.0000000001
 43
0.0000000001
 40
0.4978532609589542
 40
0.4978532609589542
 40
0.4978532609589542
 40
0.9957065219179085
 40
0.9957065219179085
 40
0.9957065219179085
 10
15824.88313141351
 20
7256.223418667018
 30
0.0
 41
1.0
 10
15822.91069954918
 20
7256.223418667018
 30
0.0
 41
1.037954849302014
 10
15820.63313141351
 20
7255.464229288465
 30
0.0
 41
1.0
  0
LINE
  5
2EF
330
6C
100
AcDbEntity
  8
Visible (ISO)
100
AcDbLine
 10
15824.88313141351
 20
7256.223418667018
 30
0.0
 11
15816.38313141351
 21
7256.223418667018
 31
0.0
  0
SPLINE
  5
2F0
330
6C
100
AcDbEntity
  8
Visible (ISO)
100
AcDbSpline
210
0.0
220
0.0
230
1.0
 70
    12
 71
     2
 72
     6
 73
     3
 74
     0
 42
0.0000000001
 43
0.0000000001
 40
0.0
 40
0.0
 40
0.0
 40
0.4978532609589537
 40
0.4978532609589537
 40
0.4978532609589537
 10
15820.63313141351
 20
7255.464229288465
 30
0.0
 41
1.0
 10
15818.35556327785
 20
7256.223418667018
 30
0.0
 41
1.037954849302049
 10
15816.38313141351
 20
7256.223418667018
 30
0.0
 41
1.0
  0
SPLINE
  5
2F1
330
6C
100
AcDbEntity
  8
Visible (ISO)
100
AcDbSpline
210
0.0
220
0.0
230
1.0
 70
    28
 71
     2
 72
     6
 73
     3
 74
     0
 42
0.0000000001
 43
0.0000000001
 40
0.4978532609589534
 40
0.4978532609589534
 40
0.4978532609589534
 40
0.9957065219179066
 40
0.9957065219179066
 40
0.9957065219179066
 10
15829.13313141351
 20
7256.223418667018
 30
0.0
 41
1.0
 10
15829.13313141351
 20
7256.223418667018
 30
0.0
 41
1.037954849302054
 10
15829.13313141351
 20
7255.464229288465
 30
0.0
 41
1.0
  0
LINE
  5
2F2
330
6C
100
AcDbEntity
  8
Visible (ISO)
100
AcDbLine
 10
15829.13313141351
 20
7256.223418667018
 30
0.0
 11
15824.88313141351
 21
7256.223418667018
 31
0.0
  0
SPLINE
  5
2F3
330
6C
100
AcDbEntity
  8
Visible (ISO)
100
AcDbSpline
210
0.0
220
0.0
230
1.0
 70
    12
 71
     2
 72
     6
 73
     3
 74
     0
 42
0.0000000001
 43
0.0000000001
 40
0.0
 40
0.0
 40
0.0
 40
0.4978532609589542
 40
0.4978532609589542
 40
0.4978532609589542
 10
15829.13313141351
 20
7255.464229288465
 30
0.0
 41
1.0
 10
15826.85556327785
 20
7256.223418667018
 30
0.0
 41
1.037954849302022
 10
15824.88313141351
 20
7256.223418667018
 30
0.0
 41
1.0
  0
LINE
  5
2F4
330
6C
100
AcDbEntity
  8
Visible (ISO)
100
AcDbLine
 10
15829.13313141351
 20
7250.423418667018
 30
0.0
 11
15829.13313141351
 21
7255.464229288465
 31
0.0
  0
LINE
  5
2F5
330
6C
100
AcDbEntity
  8
Visible (ISO)
100
AcDbLine
 10
15820.63313141351
 20
7250.423418667018
 30
0.0
 11
15820.63313141351
 21
7255.464229288465
 31
0.0
  0
LINE
  5
2F6
330
6C
100
AcDbEntity
  8
Visible (ISO)
100
AcDbLine
 10
15829.13313141351
 20
7250.423418667018
 30
0.0
 11
15820.63313141351
 21
7250.423418667018
 31
0.0
  0
LINE
  5
2F7
330
6C
100
AcDbEntity
  8
Visible (ISO)
100
AcDbLine
 10
15812.13313141351
 20
7250.423418667018
 30
0.0
 11
15812.13313141351
 21
7255.464229288465
 31
0.0
  0
LINE
  5
2F8
330
6C
100
AcDbEntity
  8
Visible (ISO)
100
AcDbLine
 10
15820.63313141351
 20
7250.423418667018
 30
0.0
 11
15812.13313141351
 21
7250.423418667018
 31
0.0
  0
LINE
  5
2F9
330
6C
100
AcDbEntity
  8
Visible (ISO)
100
AcDbLine
 10
15828.33313141351
 20
7250.423418667018
 30
0.0
 11
15828.33313141351
 21
7249.823318667019
 31
0.0
  0
LINE
  5
2FA
330
6C
100
AcDbEntity
  8
Visible (ISO)
100
AcDbLine
 10
15812.93313141351
 20
7250.423418667018
 30
0.0
 11
15812.93313141351
 21
7249.823318667019
 31
0.0
  0
SPLINE
  5
2FB
330
6C
100
AcDbEntity
  8
Visible (ISO)
100
AcDbSpline
210
0.0
220
0.0
230
1.0
 70
    12
 71
     2
 72
     6
 73
     3
 74
     0
 42
0.0000000001
 43
0.0000000001
 40
0.4978532609589537
 40
0.4978532609589537
 40
0.4978532609589537
 40
0.9957065219179071
 40
0.9957065219179071
 40
0.9957065219179071
 10
17150.0227417203
 20
7256.223418667018
 30
0.0
 41
1.0
 10
17148.05030985596
 20
7256.223418667018
 30
0.0
 41
1.037954849302035
 10
17145.77274172029
 20
7255.464229288465
 30
0.0
 41
1.0
  0
LINE
  5
2FC
330
6C
100
AcDbEntity
  8
Visible (ISO)
100
AcDbLine
 10
17150.0227417203
 20
7256.223418667018
 30
0.0
 11
17145.77274172029
 21
7256.223418667018
 31
0.0
  0
SPLINE
  5
2FD
330
6C
100
AcDbEntity
  8
Visible (ISO)
100
AcDbSpline
210
0.0
220
0.0
230
1.0
 70
    28
 71
     2
 72
     6
 73
     3
 74
     0
 42
0.0000000001
 43
0.0000000001
 40
0.0
 40
0.0
 40
0.0
 40
0.4978532609589536
 40
0.4978532609589536
 40
0.4978532609589536
 10
17145.77274172029
 20
7255.464229288465
 30
0.0
 41
1.0
 10
17145.77274172029
 20
7256.223418667018
 30
0.0
 41
1.037954849302054
 10
17145.77274172029
 20
7256.223418667018
 30
0.0
 41
1.0
  0
SPLINE
  5
2FE
330
6C
100
AcDbEntity
  8
Visible (ISO)
100
AcDbSpline
210
0.0
220
0.0
230
1.0
 70
    12
 71
     2
 72
     6
 73
     3
 74
     0
 42
0.0000000001
 43
0.0000000001
 40
0.4978532609589542
 40
0.4978532609589542
 40
0.4978532609589542
 40
0.9957065219179085
 40
0.9957065219179085
 40
0.9957065219179085
 10
17158.5227417203
 20
7256.223418667018
 30
0.0
 41
1.0
 10
17156.55030985596
 20
7256.223418667018
 30
0.0
 41
1.037954849302014
 10
17154.2727417203
 20
7255.464229288465
 30
0.0
 41
1.0
  0
LINE
  5
2FF
330
6C
100
AcDbEntity
  8
Visible (ISO)
100
AcDbLine
 10
17158.5227417203
 20
7256.223418667018
 30
0.0
 11
17150.0227417203
 21
7256.223418667018
 31
0.0
  0
SPLINE
  5
300
330
6C
100
AcDbEntity
  8
Visible (ISO)
100
AcDbSpline
210
0.0
220
0.0
230
1.0
 70
    12
 71
     2
 72
     6
 73
     3
 74
     0
 42
0.0000000001
 43
0.0000000001
 40
0.0
 40
0.0
 40
0.0
 40
0.4978532609589537
 40
0.4978532609589537
 40
0.4978532609589537
 10
17154.2727417203
 20
7255.464229288465
 30
0.0
 41
1.0
 10
17151.99517358463
 20
7256.223418667018
 30
0.0
 41
1.037954849302049
 10
17150.0227417203
 20
7256.223418667018
 30
0.0
 41
1.0
  0
SPLINE
  5
301
330
6C
100
AcDbEntity
  8
Visible (ISO)
100
AcDbSpline
210
0.0
220
0.0
230
1.0
 70
    28
 71
     2
 72
     6
 73
     3
 74
     0
 42
0.0000000001
 43
0.0000000001
 40
0.4978532609589534
 40
0.4978532609589534
 40
0.4978532609589534
 40
0.9957065219179066
 40
0.9957065219179066
 40
0.9957065219179066
 10
17162.7727417203
 20
7256.223418667018
 30
0.0
 41
1.0
 10
17162.7727417203
 20
7256.223418667018
 30
0.0
 41
1.037954849302054
 10
17162.7727417203
 20
7255.464229288465
 30
0.0
 41
1.0
  0
LINE
  5
302
330
6C
100
AcDbEntity
  8
Visible (ISO)
100
AcDbLine
 10
17162.7727417203
 20
7256.223418667018
 30
0.0
 11
17158.5227417203
 21
7256.223418667018
 31
0.0
  0
SPLINE
  5
303
330
6C
100
AcDbEntity
  8
Visible (ISO)
100
AcDbSpline
210
0.0
220
0.0
230
1.0
 70
    12
 71
     2
 72
     6
 73
     3
 74
     0
 42
0.0000000001
 43
0.0000000001
 40
0.0
 40
0.0
 40
0.0
 40
0.4978532609589542
 40
0.4978532609589542
 40
0.4978532609589542
 10
17162.7727417203
 20
7255.464229288465
 30
0.0
 41
1.0
 10
17160.49517358463
 20
7256.223418667018
 30
0.0
 41
1.037954849302022
 10
17158.5227417203
 20
7256.223418667018
 30
0.0
 41
1.0
  0
LINE
  5
304
330
6C
100
AcDbEntity
  8
Visible (ISO)
100
AcDbLine
 10
17162.7727417203
 20
7250.423418667018
 30
0.0
 11
17162.7727417203
 21
7255.464229288465
 31
0.0
  0
LINE
  5
305
330
6C
100
AcDbEntity
  8
Visible (ISO)
100
AcDbLine
 10
17154.2727417203
 20
7250.423418667018
 30
0.0
 11
17154.2727417203
 21
7255.464229288465
 31
0.0
  0
LINE
  5
306
330
6C
100
AcDbEntity
  8
Visible (ISO)
100
AcDbLine
 10
17162.7727417203
 20
7250.423418667018
 30
0.0
 11
17154.2727417203
 21
7250.423418667018
 31
0.0
  0
LINE
  5
307
330
6C
100
AcDbEntity
  8
Visible (ISO)
100
AcDbLine
 10
17145.77274172029
 20
7250.423418667018
 30
0.0
 11
17145.77274172029
 21
7255.464229288465
 31
0.0
  0
LINE
  5
308
330
6C
100
AcDbEntity
  8
Visible (ISO)
100
AcDbLine
 10
17154.2727417203
 20
7250.423418667018
 30
0.0
 11
17145.77274172029
 21
7250.423418667018
 31
0.0
  0
LINE
  5
309
330
6C
100
AcDbEntity
  8
Visible (ISO)
100
AcDbLine
 10
17161.9727417203
 20
7250.423418667018
 30
0.0
 11
17161.9727417203
 21
7249.823318667019
 31
0.0
  0
LINE
  5
30A
330
6C
100
AcDbEntity
  8
Visible (ISO)
100
AcDbLine
 10
17146.5727417203
 20
7250.423418667018
 30
0.0
 11
17146.5727417203
 21
7249.823318667019
 31
0.0
  0
SPLINE
  5
30B
330
6C
100
AcDbEntity
  8
Visible (ISO)
100
AcDbSpline
210
0.0
220
0.0
230
1.0
 70
    12
 71
     2
 72
     6
 73
     3
 74
     0
 42
0.0000000001
 43
0.0000000001
 40
0.4978532609589537
 40
0.4978532609589537
 40
0.4978532609589537
 40
0.9957065219179071
 40
0.9957065219179071
 40
0.9957065219179071
 10
17022.74352110672
 20
7256.223418667018
 30
0.0
 41
1.0
 10
17020.77108924239
 20
7256.223418667018
 30
0.0
 41
1.037954849302035
 10
17018.49352110672
 20
7255.464229288465
 30
0.0
 41
1.0
  0
LINE
  5
30C
330
6C
100
AcDbEntity
  8
Visible (ISO)
100
AcDbLine
 10
17022.74352110672
 20
7256.223418667018
 30
0.0
 11
17018.49352110672
 21
7256.223418667018
 31
0.0
  0
SPLINE
  5
30D
330
6C
100
AcDbEntity
  8
Visible (ISO)
100
AcDbSpline
210
0.0
220
0.0
230
1.0
 70
    28
 71
     2
 72
     6
 73
     3
 74
     0
 42
0.0000000001
 43
0.0000000001
 40
0.0
 40
0.0
 40
0.0
 40
0.4978532609589536
 40
0.4978532609589536
 40
0.4978532609589536
 10
17018.49352110672
 20
7255.464229288465
 30
0.0
 41
1.0
 10
17018.49352110672
 20
7256.223418667018
 30
0.0
 41
1.037954849302054
 10
17018.49352110672
 20
7256.223418667018
 30
0.0
 41
1.0
  0
SPLINE
  5
30E
330
6C
100
AcDbEntity
  8
Visible (ISO)
100
AcDbSpline
210
0.0
220
0.0
230
1.0
 70
    12
 71
     2
 72
     6
 73
     3
 74
     0
 42
0.0000000001
 43
0.0000000001
 40
0.4978532609589542
 40
0.4978532609589542
 40
0.4978532609589542
 40
0.9957065219179085
 40
0.9957065219179085
 40
0.9957065219179085
 10
17031.24352110672
 20
7256.223418667018
 30
0.0
 41
1.0
 10
17029.27108924238
 20
7256.223418667018
 30
0.0
 41
1.037954849302014
 10
17026.99352110672
 20
7255.464229288465
 30
0.0
 41
1.0
  0
LINE
  5
30F
330
6C
100
AcDbEntity
  8
Visible (ISO)
100
AcDbLine
 10
17031.24352110672
 20
7256.223418667018
 30
0.0
 11
17022.74352110672
 21
7256.223418667018
 31
0.0
  0
SPLINE
  5
310
330
6C
100
AcDbEntity
  8
Visible (ISO)
100
AcDbSpline
210
0.0
220
0.0
230
1.0
 70
    12
 71
     2
 72
     6
 73
     3
 74
     0
 42
0.0000000001
 43
0.0000000001
 40
0.0
 40
0.0
 40
0.0
 40
0.4978532609589537
 40
0.4978532609589537
 40
0.4978532609589537
 10
17026.99352110672
 20
7255.464229288465
 30
0.0
 41
1.0
 10
17024.71595297106
 20
7256.223418667018
 30
0.0
 41
1.037954849302049
 10
17022.74352110672
 20
7256.223418667018
 30
0.0
 41
1.0
  0
SPLINE
  5
311
330
6C
100
AcDbEntity
  8
Visible (ISO)
100
AcDbSpline
210
0.0
220
0.0
230
1.0
 70
    28
 71
     2
 72
     6
 73
     3
 74
     0
 42
0.0000000001
 43
0.0000000001
 40
0.4978532609589534
 40
0.4978532609589534
 40
0.4978532609589534
 40
0.9957065219179066
 40
0.9957065219179066
 40
0.9957065219179066
 10
17035.49352110672
 20
7256.223418667018
 30
0.0
 41
1.0
 10
17035.49352110672
 20
7256.223418667018
 30
0.0
 41
1.037954849302054
 10
17035.49352110672
 20
7255.464229288465
 30
0.0
 41
1.0
  0
LINE
  5
312
330
6C
100
AcDbEntity
  8
Visible (ISO)
100
AcDbLine
 10
17035.49352110672
 20
7256.223418667018
 30
0.0
 11
17031.24352110672
 21
7256.223418667018
 31
0.0
  0
SPLINE
  5
313
330
6C
100
AcDbEntity
  8
Visible (ISO)
100
AcDbSpline
210
0.0
220
0.0
230
1.0
 70
    12
 71
     2
 72
     6
 73
     3
 74
     0
 42
0.0000000001
 43
0.0000000001
 40
0.0
 40
0.0
 40
0.0
 40
0.4978532609589542
 40
0.4978532609589542
 40
0.4978532609589542
 10
17035.49352110672
 20
7255.464229288465
 30
0.0
 41
1.0
 10
17033.21595297105
 20
7256.223418667018
 30
0.0
 41
1.037954849302022
 10
17031.24352110672
 20
7256.223418667018
 30
0.0
 41
1.0
  0
LINE
  5
314
330
6C
100
AcDbEntity
  8
Visible (ISO)
100
AcDbLine
 10
17035.49352110672
 20
7250.423418667018
 30
0.0
 11
17035.49352110672
 21
7255.464229288465
 31
0.0
  0
LINE
  5
315
330
6C
100
AcDbEntity
  8
Visible (ISO)
100
AcDbLine
 10
17026.99352110672
 20
7250.423418667018
 30
0.0
 11
17026.99352110672
 21
7255.464229288465
 31
0.0
  0
LINE
  5
316
330
6C
100
AcDbEntity
  8
Visible (ISO)
100
AcDbLine
 10
17035.49352110672
 20
7250.423418667018
 30
0.0
 11
17026.99352110672
 21
7250.423418667018
 31
0.0
  0
LINE
  5
317
330
6C
100
AcDbEntity
  8
Visible (ISO)
100
AcDbLine
 10
17018.49352110672
 20
7250.423418667018
 30
0.0
 11
17018.49352110672
 21
7255.464229288465
 31
0.0
  0
LINE
  5
318
330
6C
100
AcDbEntity
  8
Visible (ISO)
100
AcDbLine
 10
17026.99352110672
 20
7250.423418667018
 30
0.0
 11
17018.49352110672
 21
7250.423418667018
 31
0.0
  0
LINE
  5
319
330
6C
100
AcDbEntity
  8
Visible (ISO)
100
AcDbLine
 10
17034.69352110672
 20
7250.423418667018
 30
0.0
 11
17034.69352110672
 21
7249.823318667019
 31
0.0
  0
LINE
  5
31A
330
6C
100
AcDbEntity
  8
Visible (ISO)
100
AcDbLine
 10
17019.29352110672
 20
7250.423418667018
 30
0.0
 11
17019.29352110672
 21
7249.823318667019
 31
0.0
  0
SPLINE
  5
31B
330
6C
100
AcDbEntity
  8
Visible (ISO)
100
AcDbSpline
210
0.0
220
0.0
230
1.0
 70
    12
 71
     2
 72
     6
 73
     3
 74
     0
 42
0.0000000001
 43
0.0000000001
 40
0.4978532609589537
 40
0.4978532609589537
 40
0.4978532609589537
 40
0.9957065219179071
 40
0.9957065219179071
 40
0.9957065219179071
 10
17086.38313141351
 20
7256.223418667018
 30
0.0
 41
1.0
 10
17084.41069954917
 20
7256.223418667018
 30
0.0
 41
1.037954849302035
 10
17082.1331314135
 20
7255.464229288465
 30
0.0
 41
1.0
  0
LINE
  5
31C
330
6C
100
AcDbEntity
  8
Visible (ISO)
100
AcDbLine
 10
17086.38313141351
 20
7256.223418667018
 30
0.0
 11
17082.1331314135
 21
7256.223418667018
 31
0.0
  0
SPLINE
  5
31D
330
6C
100
AcDbEntity
  8
Visible (ISO)
100
AcDbSpline
210
0.0
220
0.0
230
1.0
 70
    28
 71
     2
 72
     6
 73
     3
 74
     0
 42
0.0000000001
 43
0.0000000001
 40
0.0
 40
0.0
 40
0.0
 40
0.4978532609589536
 40
0.4978532609589536
 40
0.4978532609589536
 10
17082.1331314135
 20
7255.464229288465
 30
0.0
 41
1.0
 10
17082.1331314135
 20
7256.223418667018
 30
0.0
 41
1.037954849302054
 10
17082.1331314135
 20
7256.223418667018
 30
0.0
 41
1.0
  0
SPLINE
  5
31E
330
6C
100
AcDbEntity
  8
Visible (ISO)
100
AcDbSpline
210
0.0
220
0.0
230
1.0
 70
    12
 71
     2
 72
     6
 73
     3
 74
     0
 42
0.0000000001
 43
0.0000000001
 40
0.4978532609589542
 40
0.4978532609589542
 40
0.4978532609589542
 40
0.9957065219179085
 40
0.9957065219179085
 40
0.9957065219179085
 10
17094.8831314135
 20
7256.223418667018
 30
0.0
 41
1.0
 10
17092.91069954917
 20
7256.223418667018
 30
0.0
 41
1.037954849302014
 10
17090.63313141351
 20
7255.464229288465
 30
0.0
 41
1.0
  0
LINE
  5
31F
330
6C
100
AcDbEntity
  8
Visible (ISO)
100
AcDbLine
 10
17094.8831314135
 20
7256.223418667018
 30
0.0
 11
17086.38313141351
 21
7256.223418667018
 31
0.0
  0
SPLINE
  5
320
330
6C
100
AcDbEntity
  8
Visible (ISO)
100
AcDbSpline
210
0.0
220
0.0
230
1.0
 70
    12
 71
     2
 72
     6
 73
     3
 74
     0
 42
0.0000000001
 43
0.0000000001
 40
0.0
 40
0.0
 40
0.0
 40
0.4978532609589537
 40
0.4978532609589537
 40
0.4978532609589537
 10
17090.63313141351
 20
7255.464229288465
 30
0.0
 41
1.0
 10
17088.35556327784
 20
7256.223418667018
 30
0.0
 41
1.037954849302049
 10
17086.38313141351
 20
7256.223418667018
 30
0.0
 41
1.0
  0
SPLINE
  5
321
330
6C
100
AcDbEntity
  8
Visible (ISO)
100
AcDbSpline
210
0.0
220
0.0
230
1.0
 70
    28
 71
     2
 72
     6
 73
     3
 74
     0
 42
0.0000000001
 43
0.0000000001
 40
0.4978532609589534
 40
0.4978532609589534
 40
0.4978532609589534
 40
0.9957065219179066
 40
0.9957065219179066
 40
0.9957065219179066
 10
17099.13313141351
 20
7256.223418667018
 30
0.0
 41
1.0
 10
17099.13313141351
 20
7256.223418667018
 30
0.0
 41
1.037954849302054
 10
17099.13313141351
 20
7255.464229288465
 30
0.0
 41
1.0
  0
LINE
  5
322
330
6C
100
AcDbEntity
  8
Visible (ISO)
100
AcDbLine
 10
17099.13313141351
 20
7256.223418667018
 30
0.0
 11
17094.8831314135
 21
7256.223418667018
 31
0.0
  0
SPLINE
  5
323
330
6C
100
AcDbEntity
  8
Visible (ISO)
100
AcDbSpline
210
0.0
220
0.0
230
1.0
 70
    12
 71
     2
 72
     6
 73
     3
 74
     0
 42
0.0000000001
 43
0.0000000001
 40
0.0
 40
0.0
 40
0.0
 40
0.4978532609589542
 40
0.4978532609589542
 40
0.4978532609589542
 10
17099.13313141351
 20
7255.464229288465
 30
0.0
 41
1.0
 10
17096.85556327784
 20
7256.223418667018
 30
0.0
 41
1.037954849302022
 10
17094.8831314135
 20
7256.223418667018
 30
0.0
 41
1.0
  0
LINE
  5
324
330
6C
100
AcDbEntity
  8
Visible (ISO)
100
AcDbLine
 10
17099.13313141351
 20
7250.423418667018
 30
0.0
 11
17099.13313141351
 21
7255.464229288465
 31
0.0
  0
LINE
  5
325
330
6C
100
AcDbEntity
  8
Visible (ISO)
100
AcDbLine
 10
17090.63313141351
 20
7250.423418667018
 30
0.0
 11
17090.63313141351
 21
7255.464229288465
 31
0.0
  0
LINE
  5
326
330
6C
100
AcDbEntity
  8
Visible (ISO)
100
AcDbLine
 10
17099.13313141351
 20
7250.423418667018
 30
0.0
 11
17090.63313141351
 21
7250.423418667018
 31
0.0
  0
LINE
  5
327
330
6C
100
AcDbEntity
  8
Visible (ISO)
100
AcDbLine
 10
17082.1331314135
 20
7250.423418667018
 30
0.0
 11
17082.1331314135
 21
7255.464229288465
 31
0.0
  0
LINE
  5
328
330
6C
100
AcDbEntity
  8
Visible (ISO)
100
AcDbLine
 10
17090.63313141351
 20
7250.423418667018
 30
0.0
 11
17082.1331314135
 21
7250.423418667018
 31
0.0
  0
LINE
  5
329
330
6C
100
AcDbEntity
  8
Visible (ISO)
100
AcDbLine
 10
17098.3331314135
 20
7250.423418667018
 30
0.0
 11
17098.3331314135
 21
7249.823318667019
 31
0.0
  0
LINE
  5
32A
330
6C
100
AcDbEntity
  8
Visible (ISO)
100
AcDbLine
 10
17082.93313141351
 20
7250.423418667018
 30
0.0
 11
17082.93313141351
 21
7249.823318667019
 31
0.0
  0
SPLINE
  5
32B
330
6C
100
AcDbEntity
  8
Visible (ISO)
100
AcDbSpline
210
0.0
220
0.0
230
1.0
 70
    12
 71
     2
 72
     6
 73
     3
 74
     0
 42
0.0000000001
 43
0.0000000001
 40
0.4978532609589537
 40
0.4978532609589537
 40
0.4978532609589537
 40
0.9957065219179071
 40
0.9957065219179071
 40
0.9957065219179071
 10
19690.0227417203
 20
7256.223418667018
 30
0.0
 41
1.0
 10
19688.05030985596
 20
7256.223418667018
 30
0.0
 41
1.037954849302035
 10
19685.77274172029
 20
7255.464229288465
 30
0.0
 41
1.0
  0
LINE
  5
32C
330
6C
100
AcDbEntity
  8
Visible (ISO)
100
AcDbLine
 10
19690.0227417203
 20
7256.223418667018
 30
0.0
 11
19685.77274172029
 21
7256.223418667018
 31
0.0
  0
SPLINE
  5
32D
330
6C
100
AcDbEntity
  8
Visible (ISO)
100
AcDbSpline
210
0.0
220
0.0
230
1.0
 70
    28
 71
     2
 72
     6
 73
     3
 74
     0
 42
0.0000000001
 43
0.0000000001
 40
0.0
 40
0.0
 40
0.0
 40
0.4978532609589536
 40
0.4978532609589536
 40
0.4978532609589536
 10
19685.77274172029
 20
7255.464229288465
 30
0.0
 41
1.0
 10
19685.77274172029
 20
7256.223418667018
 30
0.0
 41
1.037954849302054
 10
19685.77274172029
 20
7256.223418667018
 30
0.0
 41
1.0
  0
SPLINE
  5
32E
330
6C
100
AcDbEntity
  8
Visible (ISO)
100
AcDbSpline
210
0.0
220
0.0
230
1.0
 70
    12
 71
     2
 72
     6
 73
     3
 74
     0
 42
0.0000000001
 43
0.0000000001
 40
0.4978532609589542
 40
0.4978532609589542
 40
0.4978532609589542
 40
0.9957065219179085
 40
0.9957065219179085
 40
0.9957065219179085
 10
19698.52274172029
 20
7256.223418667018
 30
0.0
 41
1.0
 10
19696.55030985596
 20
7256.223418667018
 30
0.0
 41
1.037954849302014
 10
19694.2727417203
 20
7255.464229288465
 30
0.0
 41
1.0
  0
LINE
  5
32F
330
6C
100
AcDbEntity
  8
Visible (ISO)
100
AcDbLine
 10
19698.52274172029
 20
7256.223418667018
 30
0.0
 11
19690.0227417203
 21
7256.223418667018
 31
0.0
  0
SPLINE
  5
330
330
6C
100
AcDbEntity
  8
Visible (ISO)
100
AcDbSpline
210
0.0
220
0.0
230
1.0
 70
    12
 71
     2
 72
     6
 73
     3
 74
     0
 42
0.0000000001
 43
0.0000000001
 40
0.0
 40
0.0
 40
0.0
 40
0.4978532609589537
 40
0.4978532609589537
 40
0.4978532609589537
 10
19694.2727417203
 20
7255.464229288465
 30
0.0
 41
1.0
 10
19691.99517358463
 20
7256.223418667018
 30
0.0
 41
1.037954849302049
 10
19690.0227417203
 20
7256.223418667018
 30
0.0
 41
1.0
  0
SPLINE
  5
331
330
6C
100
AcDbEntity
  8
Visible (ISO)
100
AcDbSpline
210
0.0
220
0.0
230
1.0
 70
    28
 71
     2
 72
     6
 73
     3
 74
     0
 42
0.0000000001
 43
0.0000000001
 40
0.4978532609589534
 40
0.4978532609589534
 40
0.4978532609589534
 40
0.9957065219179066
 40
0.9957065219179066
 40
0.9957065219179066
 10
19702.7727417203
 20
7256.223418667018
 30
0.0
 41
1.0
 10
19702.7727417203
 20
7256.223418667018
 30
0.0
 41
1.037954849302054
 10
19702.7727417203
 20
7255.464229288465
 30
0.0
 41
1.0
  0
LINE
  5
332
330
6C
100
AcDbEntity
  8
Visible (ISO)
100
AcDbLine
 10
19702.7727417203
 20
7256.223418667018
 30
0.0
 11
19698.52274172029
 21
7256.223418667018
 31
0.0
  0
SPLINE
  5
333
330
6C
100
AcDbEntity
  8
Visible (ISO)
100
AcDbSpline
210
0.0
220
0.0
230
1.0
 70
    12
 71
     2
 72
     6
 73
     3
 74
     0
 42
0.0000000001
 43
0.0000000001
 40
0.0
 40
0.0
 40
0.0
 40
0.4978532609589542
 40
0.4978532609589542
 40
0.4978532609589542
 10
19702.7727417203
 20
7255.464229288465
 30
0.0
 41
1.0
 10
19700.49517358463
 20
7256.223418667018
 30
0.0
 41
1.037954849302022
 10
19698.52274172029
 20
7256.223418667018
 30
0.0
 41
1.0
  0
LINE
  5
334
330
6C
100
AcDbEntity
  8
Visible (ISO)
100
AcDbLine
 10
19702.7727417203
 20
7250.423418667018
 30
0.0
 11
19702.7727417203
 21
7255.464229288465
 31
0.0
  0
LINE
  5
335
330
6C
100
AcDbEntity
  8
Visible (ISO)
100
AcDbLine
 10
19694.2727417203
 20
7250.423418667018
 30
0.0
 11
19694.2727417203
 21
7255.464229288465
 31
0.0
  0
LINE
  5
336
330
6C
100
AcDbEntity
  8
Visible (ISO)
100
AcDbLine
 10
19702.7727417203
 20
7250.423418667018
 30
0.0
 11
19694.2727417203
 21
7250.423418667018
 31
0.0
  0
LINE
  5
337
330
6C
100
AcDbEntity
  8
Visible (ISO)
100
AcDbLine
 10
19685.77274172029
 20
7250.423418667018
 30
0.0
 11
19685.77274172029
 21
7255.464229288465
 31
0.0
  0
LINE
  5
338
330
6C
100
AcDbEntity
  8
Visible (ISO)
100
AcDbLine
 10
19694.2727417203
 20
7250.423418667018
 30
0.0
 11
19685.77274172029
 21
7250.423418667018
 31
0.0
  0
LINE
  5
339
330
6C
100
AcDbEntity
  8
Visible (ISO)
100
AcDbLine
 10
19701.97274172029
 20
7250.423418667018
 30
0.0
 11
19701.97274172029
 21
7249.823318667019
 31
0.0
  0
LINE
  5
33A
330
6C
100
AcDbEntity
  8
Visible (ISO)
100
AcDbLine
 10
19686.5727417203
 20
7250.423418667018
 30
0.0
 11
19686.5727417203
 21
7249.823318667019
 31
0.0
  0
SPLINE
  5
33B
330
6C
100
AcDbEntity
  8
Visible (ISO)
100
AcDbSpline
210
0.0
220
0.0
230
1.0
 70
    12
 71
     2
 72
     6
 73
     3
 74
     0
 42
0.0000000001
 43
0.0000000001
 40
0.4978532609589537
 40
0.4978532609589537
 40
0.4978532609589537
 40
0.9957065219179071
 40
0.9957065219179071
 40
0.9957065219179071
 10
19562.74352110672
 20
7256.223418667018
 30
0.0
 41
1.0
 10
19560.77108924238
 20
7256.223418667018
 30
0.0
 41
1.037954849302035
 10
19558.49352110672
 20
7255.464229288465
 30
0.0
 41
1.0
  0
LINE
  5
33C
330
6C
100
AcDbEntity
  8
Visible (ISO)
100
AcDbLine
 10
19562.74352110672
 20
7256.223418667018
 30
0.0
 11
19558.49352110672
 21
7256.223418667018
 31
0.0
  0
SPLINE
  5
33D
330
6C
100
AcDbEntity
  8
Visible (ISO)
100
AcDbSpline
210
0.0
220
0.0
230
1.0
 70
    28
 71
     2
 72
     6
 73
     3
 74
     0
 42
0.0000000001
 43
0.0000000001
 40
0.0
 40
0.0
 40
0.0
 40
0.4978532609589536
 40
0.4978532609589536
 40
0.4978532609589536
 10
19558.49352110672
 20
7255.464229288465
 30
0.0
 41
1.0
 10
19558.49352110672
 20
7256.223418667018
 30
0.0
 41
1.037954849302054
 10
19558.49352110672
 20
7256.223418667018
 30
0.0
 41
1.0
  0
SPLINE
  5
33E
330
6C
100
AcDbEntity
  8
Visible (ISO)
100
AcDbSpline
210
0.0
220
0.0
230
1.0
 70
    12
 71
     2
 72
     6
 73
     3
 74
     0
 42
0.0000000001
 43
0.0000000001
 40
0.4978532609589542
 40
0.4978532609589542
 40
0.4978532609589542
 40
0.9957065219179085
 40
0.9957065219179085
 40
0.9957065219179085
 10
19571.24352110672
 20
7256.223418667018
 30
0.0
 41
1.0
 10
19569.27108924238
 20
7256.223418667018
 30
0.0
 41
1.037954849302014
 10
19566.99352110672
 20
7255.464229288465
 30
0.0
 41
1.0
  0
LINE
  5
33F
330
6C
100
AcDbEntity
  8
Visible (ISO)
100
AcDbLine
 10
19571.24352110672
 20
7256.223418667018
 30
0.0
 11
19562.74352110672
 21
7256.223418667018
 31
0.0
  0
SPLINE
  5
340
330
6C
100
AcDbEntity
  8
Visible (ISO)
100
AcDbSpline
210
0.0
220
0.0
230
1.0
 70
    12
 71
     2
 72
     6
 73
     3
 74
     0
 42
0.0000000001
 43
0.0000000001
 40
0.0
 40
0.0
 40
0.0
 40
0.4978532609589537
 40
0.4978532609589537
 40
0.4978532609589537
 10
19566.99352110672
 20
7255.464229288465
 30
0.0
 41
1.0
 10
19564.71595297105
 20
7256.223418667018
 30
0.0
 41
1.037954849302049
 10
19562.74352110672
 20
7256.223418667018
 30
0.0
 41
1.0
  0
SPLINE
  5
341
330
6C
100
AcDbEntity
  8
Visible (ISO)
100
AcDbSpline
210
0.0
220
0.0
230
1.0
 70
    28
 71
     2
 72
     6
 73
     3
 74
     0
 42
0.0000000001
 43
0.0000000001
 40
0.4978532609589534
 40
0.4978532609589534
 40
0.4978532609589534
 40
0.9957065219179066
 40
0.9957065219179066
 40
0.9957065219179066
 10
19575.49352110672
 20
7256.223418667018
 30
0.0
 41
1.0
 10
19575.49352110672
 20
7256.223418667018
 30
0.0
 41
1.037954849302054
 10
19575.49352110672
 20
7255.464229288465
 30
0.0
 41
1.0
  0
LINE
  5
342
330
6C
100
AcDbEntity
  8
Visible (ISO)
100
AcDbLine
 10
19575.49352110672
 20
7256.223418667018
 30
0.0
 11
19571.24352110672
 21
7256.223418667018
 31
0.0
  0
SPLINE
  5
343
330
6C
100
AcDbEntity
  8
Visible (ISO)
100
AcDbSpline
210
0.0
220
0.0
230
1.0
 70
    12
 71
     2
 72
     6
 73
     3
 74
     0
 42
0.0000000001
 43
0.0000000001
 40
0.0
 40
0.0
 40
0.0
 40
0.4978532609589542
 40
0.4978532609589542
 40
0.4978532609589542
 10
19575.49352110672
 20
7255.464229288465
 30
0.0
 41
1.0
 10
19573.21595297105
 20
7256.223418667018
 30
0.0
 41
1.037954849302022
 10
19571.24352110672
 20
7256.223418667018
 30
0.0
 41
1.0
  0
LINE
  5
344
330
6C
100
AcDbEntity
  8
Visible (ISO)
100
AcDbLine
 10
19575.49352110672
 20
7250.423418667018
 30
0.0
 11
19575.49352110672
 21
7255.464229288465
 31
0.0
  0
LINE
  5
345
330
6C
100
AcDbEntity
  8
Visible (ISO)
100
AcDbLine
 10
19566.99352110672
 20
7250.423418667018
 30
0.0
 11
19566.99352110672
 21
7255.464229288465
 31
0.0
  0
LINE
  5
346
330
6C
100
AcDbEntity
  8
Visible (ISO)
100
AcDbLine
 10
19575.49352110672
 20
7250.423418667018
 30
0.0
 11
19566.99352110672
 21
7250.423418667018
 31
0.0
  0
LINE
  5
347
330
6C
100
AcDbEntity
  8
Visible (ISO)
100
AcDbLine
 10
19558.49352110672
 20
7250.423418667018
 30
0.0
 11
19558.49352110672
 21
7255.464229288465
 31
0.0
  0
LINE
  5
348
330
6C
100
AcDbEntity
  8
Visible (ISO)
100
AcDbLine
 10
19566.99352110672
 20
7250.423418667018
 30
0.0
 11
19558.49352110672
 21
7250.423418667018
 31
0.0
  0
LINE
  5
349
330
6C
100
AcDbEntity
  8
Visible (ISO)
100
AcDbLine
 10
19574.69352110672
 20
7250.423418667018
 30
0.0
 11
19574.69352110672
 21
7249.823318667019
 31
0.0
  0
LINE
  5
34A
330
6C
100
AcDbEntity
  8
Visible (ISO)
100
AcDbLine
 10
19559.29352110672
 20
7250.423418667018
 30
0.0
 11
19559.29352110672
 21
7249.823318667019
 31
0.0
  0
SPLINE
  5
34B
330
6C
100
AcDbEntity
  8
Visible (ISO)
100
AcDbSpline
210
0.0
220
0.0
230
1.0
 70
    12
 71
     2
 72
     6
 73
     3
 74
     0
 42
0.0000000001
 43
0.0000000001
 40
0.4978532609589537
 40
0.4978532609589537
 40
0.4978532609589537
 40
0.9957065219179071
 40
0.9957065219179071
 40
0.9957065219179071
 10
19626.38313141351
 20
7256.223418667018
 30
0.0
 41
1.0
 10
19624.41069954918
 20
7256.223418667018
 30
0.0
 41
1.037954849302035
 10
19622.13313141351
 20
7255.464229288465
 30
0.0
 41
1.0
  0
LINE
  5
34C
330
6C
100
AcDbEntity
  8
Visible (ISO)
100
AcDbLine
 10
19626.38313141351
 20
7256.223418667018
 30
0.0
 11
19622.13313141351
 21
7256.223418667018
 31
0.0
  0
SPLINE
  5
34D
330
6C
100
AcDbEntity
  8
Visible (ISO)
100
AcDbSpline
210
0.0
220
0.0
230
1.0
 70
    28
 71
     2
 72
     6
 73
     3
 74
     0
 42
0.0000000001
 43
0.0000000001
 40
0.0
 40
0.0
 40
0.0
 40
0.4978532609589536
 40
0.4978532609589536
 40
0.4978532609589536
 10
19622.13313141351
 20
7255.464229288465
 30
0.0
 41
1.0
 10
19622.13313141351
 20
7256.223418667018
 30
0.0
 41
1.037954849302054
 10
19622.13313141351
 20
7256.223418667018
 30
0.0
 41
1.0
  0
SPLINE
  5
34E
330
6C
100
AcDbEntity
  8
Visible (ISO)
100
AcDbSpline
210
0.0
220
0.0
230
1.0
 70
    12
 71
     2
 72
     6
 73
     3
 74
     0
 42
0.0000000001
 43
0.0000000001
 40
0.4978532609589542
 40
0.4978532609589542
 40
0.4978532609589542
 40
0.9957065219179085
 40
0.9957065219179085
 40
0.9957065219179085
 10
19634.88313141351
 20
7256.223418667018
 30
0.0
 41
1.0
 10
19632.91069954917
 20
7256.223418667018
 30
0.0
 41
1.037954849302014
 10
19630.63313141351
 20
7255.464229288465
 30
0.0
 41
1.0
  0
LINE
  5
34F
330
6C
100
AcDbEntity
  8
Visible (ISO)
100
AcDbLine
 10
19634.88313141351
 20
7256.223418667018
 30
0.0
 11
19626.38313141351
 21
7256.223418667018
 31
0.0
  0
SPLINE
  5
350
330
6C
100
AcDbEntity
  8
Visible (ISO)
100
AcDbSpline
210
0.0
220
0.0
230
1.0
 70
    12
 71
     2
 72
     6
 73
     3
 74
     0
 42
0.0000000001
 43
0.0000000001
 40
0.0
 40
0.0
 40
0.0
 40
0.4978532609589537
 40
0.4978532609589537
 40
0.4978532609589537
 10
19630.63313141351
 20
7255.464229288465
 30
0.0
 41
1.0
 10
19628.35556327785
 20
7256.223418667018
 30
0.0
 41
1.037954849302049
 10
19626.38313141351
 20
7256.223418667018
 30
0.0
 41
1.0
  0
SPLINE
  5
351
330
6C
100
AcDbEntity
  8
Visible (ISO)
100
AcDbSpline
210
0.0
220
0.0
230
1.0
 70
    28
 71
     2
 72
     6
 73
     3
 74
     0
 42
0.0000000001
 43
0.0000000001
 40
0.4978532609589534
 40
0.4978532609589534
 40
0.4978532609589534
 40
0.9957065219179066
 40
0.9957065219179066
 40
0.9957065219179066
 10
19639.13313141351
 20
7256.223418667018
 30
0.0
 41
1.0
 10
19639.13313141351
 20
7256.223418667018
 30
0.0
 41
1.037954849302054
 10
19639.13313141351
 20
7255.464229288465
 30
0.0
 41
1.0
  0
LINE
  5
352
330
6C
100
AcDbEntity
  8
Visible (ISO)
100
AcDbLine
 10
19639.13313141351
 20
7256.223418667018
 30
0.0
 11
19634.88313141351
 21
7256.223418667018
 31
0.0
  0
SPLINE
  5
353
330
6C
100
AcDbEntity
  8
Visible (ISO)
100
AcDbSpline
210
0.0
220
0.0
230
1.0
 70
    12
 71
     2
 72
     6
 73
     3
 74
     0
 42
0.0000000001
 43
0.0000000001
 40
0.0
 40
0.0
 40
0.0
 40
0.4978532609589542
 40
0.4978532609589542
 40
0.4978532609589542
 10
19639.13313141351
 20
7255.464229288465
 30
0.0
 41
1.0
 10
19636.85556327784
 20
7256.223418667018
 30
0.0
 41
1.037954849302022
 10
19634.88313141351
 20
7256.223418667018
 30
0.0
 41
1.0
  0
LINE
  5
354
330
6C
100
AcDbEntity
  8
Visible (ISO)
100
AcDbLine
 10
19639.13313141351
 20
7250.423418667018
 30
0.0
 11
19639.13313141351
 21
7255.464229288465
 31
0.0
  0
LINE
  5
355
330
6C
100
AcDbEntity
  8
Visible (ISO)
100
AcDbLine
 10
19630.63313141351
 20
7250.423418667018
 30
0.0
 11
19630.63313141351
 21
7255.464229288465
 31
0.0
  0
LINE
  5
356
330
6C
100
AcDbEntity
  8
Visible (ISO)
100
AcDbLine
 10
19639.13313141351
 20
7250.423418667018
 30
0.0
 11
19630.63313141351
 21
7250.423418667018
 31
0.0
  0
LINE
  5
357
330
6C
100
AcDbEntity
  8
Visible (ISO)
100
AcDbLine
 10
19622.13313141351
 20
7250.423418667018
 30
0.0
 11
19622.13313141351
 21
7255.464229288465
 31
0.0
  0
LINE
  5
358
330
6C
100
AcDbEntity
  8
Visible (ISO)
100
AcDbLine
 10
19630.63313141351
 20
7250.423418667018
 30
0.0
 11
19622.13313141351
 21
7250.423418667018
 31
0.0
  0
LINE
  5
359
330
6C
100
AcDbEntity
  8
Visible (ISO)
100
AcDbLine
 10
19638.33313141351
 20
7250.423418667018
 30
0.0
 11
19638.33313141351
 21
7249.823318667019
 31
0.0
  0
LINE
  5
35A
330
6C
100
AcDbEntity
  8
Visible (ISO)
100
AcDbLine
 10
19622.93313141351
 20
7250.423418667018
 30
0.0
 11
19622.93313141351
 21
7249.823318667019
 31
0.0
  0
LINE
  5
35B
330
6C
100
AcDbEntity
  8
Visible (ISO)
100
AcDbLine
 10
15894.2727417203
 20
7249.823318667019
 30
0.0
 11
15874.2727417203
 21
7249.823318667019
 31
0.0
  0
LINE
  5
35C
330
6C
100
AcDbEntity
  8
Visible (ISO)
100
AcDbLine
 10
15894.2727417203
 20
7249.823318667019
 30
0.0
 11
15894.2727417203
 21
7247.82331866702
 31
0.0
  0
LINE
  5
35D
330
6C
100
AcDbEntity
  8
Visible (ISO)
100
AcDbLine
 10
15874.2727417203
 20
7249.823318667019
 30
0.0
 11
15874.2727417203
 21
7247.82331866702
 31
0.0
  0
LINE
  5
35E
330
6C
100
AcDbEntity
  8
Visible (ISO)
100
AcDbLine
 10
15766.99352110672
 20
7249.823318667019
 30
0.0
 11
15746.99352110672
 21
7249.823318667019
 31
0.0
  0
LINE
  5
35F
330
6C
100
AcDbEntity
  8
Visible (ISO)
100
AcDbLine
 10
15766.99352110672
 20
7249.823318667019
 30
0.0
 11
15766.99352110672
 21
7247.82331866702
 31
0.0
  0
LINE
  5
360
330
6C
100
AcDbEntity
  8
Visible (ISO)
100
AcDbLine
 10
15746.99352110672
 20
7249.823318667019
 30
0.0
 11
15746.99352110672
 21
7247.82331866702
 31
0.0
  0
LINE
  5
361
330
6C
100
AcDbEntity
  8
Visible (ISO)
100
AcDbLine
 10
15830.63313141351
 20
7249.823318667019
 30
0.0
 11
15810.63313141351
 21
7249.823318667019
 31
0.0
  0
LINE
  5
362
330
6C
100
AcDbEntity
  8
Visible (ISO)
100
AcDbLine
 10
15830.63313141351
 20
7249.823318667019
 30
0.0
 11
15830.63313141351
 21
7247.82331866702
 31
0.0
  0
LINE
  5
363
330
6C
100
AcDbEntity
  8
Visible (ISO)
100
AcDbLine
 10
15810.63313141351
 20
7249.823318667019
 30
0.0
 11
15810.63313141351
 21
7247.82331866702
 31
0.0
  0
LINE
  5
364
330
6C
100
AcDbEntity
  8
Visible (ISO)
100
AcDbLine
 10
17164.2727417203
 20
7249.823318667019
 30
0.0
 11
17144.27274172029
 21
7249.823318667019
 31
0.0
  0
LINE
  5
365
330
6C
100
AcDbEntity
  8
Visible (ISO)
100
AcDbLine
 10
17164.2727417203
 20
7249.823318667019
 30
0.0
 11
17164.2727417203
 21
7247.82331866702
 31
0.0
  0
LINE
  5
366
330
6C
100
AcDbEntity
  8
Visible (ISO)
100
AcDbLine
 10
17144.27274172029
 20
7249.823318667019
 30
0.0
 11
17144.27274172029
 21
7247.82331866702
 31
0.0
  0
LINE
  5
367
330
6C
100
AcDbEntity
  8
Visible (ISO)
100
AcDbLine
 10
17036.99352110672
 20
7249.823318667019
 30
0.0
 11
17016.99352110672
 21
7249.823318667019
 31
0.0
  0
LINE
  5
368
330
6C
100
AcDbEntity
  8
Visible (ISO)
100
AcDbLine
 10
17036.99352110672
 20
7249.823318667019
 30
0.0
 11
17036.99352110672
 21
7247.82331866702
 31
0.0
  0
LINE
  5
369
330
6C
100
AcDbEntity
  8
Visible (ISO)
100
AcDbLine
 10
17016.99352110672
 20
7249.823318667019
 30
0.0
 11
17016.99352110672
 21
7247.82331866702
 31
0.0
  0
LINE
  5
36A
330
6C
100
AcDbEntity
  8
Visible (ISO)
100
AcDbLine
 10
17100.63313141351
 20
7249.823318667019
 30
0.0
 11
17080.63313141351
 21
7249.823318667019
 31
0.0
  0
LINE
  5
36B
330
6C
100
AcDbEntity
  8
Visible (ISO)
100
AcDbLine
 10
17100.63313141351
 20
7249.823318667019
 30
0.0
 11
17100.63313141351
 21
7247.82331866702
 31
0.0
  0
LINE
  5
36C
330
6C
100
AcDbEntity
  8
Visible (ISO)
100
AcDbLine
 10
17080.63313141351
 20
7249.823318667019
 30
0.0
 11
17080.63313141351
 21
7247.82331866702
 31
0.0
  0
LINE
  5
36D
330
6C
100
AcDbEntity
  8
Visible (ISO)
100
AcDbLine
 10
19704.2727417203
 20
7249.823318667019
 30
0.0
 11
19684.27274172029
 21
7249.823318667019
 31
0.0
  0
LINE
  5
36E
330
6C
100
AcDbEntity
  8
Visible (ISO)
100
AcDbLine
 10
19704.2727417203
 20
7249.823318667019
 30
0.0
 11
19704.2727417203
 21
7247.82331866702
 31
0.0
  0
LINE
  5
36F
330
6C
100
AcDbEntity
  8
Visible (ISO)
100
AcDbLine
 10
19684.27274172029
 20
7249.823318667019
 30
0.0
 11
19684.27274172029
 21
7247.82331866702
 31
0.0
  0
LINE
  5
370
330
6C
100
AcDbEntity
  8
Visible (ISO)
100
AcDbLine
 10
19576.99352110672
 20
7249.823318667019
 30
0.0
 11
19556.99352110672
 21
7249.823318667019
 31
0.0
  0
LINE
  5
371
330
6C
100
AcDbEntity
  8
Visible (ISO)
100
AcDbLine
 10
19576.99352110672
 20
7249.823318667019
 30
0.0
 11
19576.99352110672
 21
7247.82331866702
 31
0.0
  0
LINE
  5
372
330
6C
100
AcDbEntity
  8
Visible (ISO)
100
AcDbLine
 10
19556.99352110672
 20
7249.823318667019
 30
0.0
 11
19556.99352110672
 21
7247.82331866702
 31
0.0
  0
LINE
  5
373
330
6C
100
AcDbEntity
  8
Visible (ISO)
100
AcDbLine
 10
19640.63313141351
 20
7249.823318667019
 30
0.0
 11
19620.63313141351
 21
7249.823318667019
 31
0.0
  0
LINE
  5
374
330
6C
100
AcDbEntity
  8
Visible (ISO)
100
AcDbLine
 10
19640.63313141351
 20
7249.823318667019
 30
0.0
 11
19640.63313141351
 21
7247.82331866702
 31
0.0
  0
LINE
  5
375
330
6C
100
AcDbEntity
  8
Visible (ISO)
100
AcDbLine
 10
19620.63313141351
 20
7249.823318667019
 30
0.0
 11
19620.63313141351
 21
7247.82331866702
 31
0.0
  0
INSERT
  5
56D
330
6C
100
AcDbEntity
  8
0
100
AcDbBlockReference
 66
     1
  2
Tabelki rysunkowe Rzut
 10
6011.159185140821
 20
-537.0652712302228
 30
0.0
 41
50.0
 42
50.0
 43
50.0
  0
ATTRIB
  5
56F
102
{ACAD_XDICTIONARY
360
D8E
102
}
330
56D
100
AcDbEntity
  8
Title (ISO)
100
AcDbText
 10
14937.57555410327
 20
369.2914716118351
 30
0.0
 40
125.0
  1
87003
  7
Note Text (ISO)
100
AcDbAttribute
  2
Numer_katalogowy_001
 70
     0
  0
ATTRIB
  5
570
102
{ACAD_XDICTIONARY
360
D91
102
}
330
56D
100
AcDbEntity
  8
Title (ISO)
100
AcDbText
 10
15531.69912698995
 20
19.79516536440525
 30
0.0
 40
125.0
  1
2022-06-29
  7
Note Text (ISO)
100
AcDbAttribute
  2
DATA_UTWORZENIA_001
 70
     0
  0
ATTRIB
  5
571
102
{ACAD_XDICTIONARY
360
D94
102
}
330
56D
100
AcDbEntity
  8
Title (ISO)
100
AcDbText
 10
14937.0718603507
 20
188.7508403335622
 30
0.0
 40
125.0
  1
Street Workout Fit 3
  7
Note Text (ISO)
100
AcDbAttribute
  2
Nazwa_001
 70
     0
  0
SEQEND
  5
56E
330
56D
100
AcDbEntity
  8
0
  0
DIMENSION
  5
572
330
6C
100
AcDbEntity
  8
Dimension (ISO)
100
AcDbDimension
  2
*D8
 10
15785.63313141206
 20
2377.345647104545
 30
0.0
 11
17850.63313141207
 21
2377.345647104545
 31
0.0
 70
   160
  1
<>
 71
     2
 42
4130.0
  3
Default (ISO)
100
AcDbAlignedDimension
 13
19915.63313141206
 23
2910.495647104195
 33
0.0
 14
15785.63313141206
 24
3445.345647104546
 34
0.0
 50
180.0
100
AcDbRotatedDimension
1001
ACAD
1000
DSTYLE
1002
{
1070
   172
1070
     0
1070
   289
1070
     1
1070
    74
1070
     0
1070
   271
1070
     2
1070
   272
1070
     2
1070
    48
1040
0.0
1070
    47
1040
0.0
1002
}
  0
DIMENSION
  5
655
330
6C
100
AcDbEntity
  8
Dimension (ISO)
100
AcDbDimension
  2
*D9
 10
20341.0069102262
 20
4782.345647104543
 30
0.0
 11
20341.0069102262
 21
3837.34564710438
 31
0.0
 70
   160
  1
<>
 71
     2
 42
1890.000000000329
  3
Default (ISO)
100
AcDbAlignedDimension
 13
19662.63313141206
 23
2892.345647104214
 33
0.0
 14
17122.63313141206
 24
4782.345647104544
 34
0.0
 50
270.0
100
AcDbRotatedDimension
1001
ACAD
1000
DSTYLE
1002
{
1070
   172
1070
     0
1070
   289
1070
     1
1070
    74
1070
     0
1070
   271
1070
     2
1070
   272
1070
     2
1070
    48
1040
0.0
1070
    47
1040
0.0
1002
}
  0
DIMENSION
  5
73D
330
6C
100
AcDbEntity
  8
Dimension (ISO)
100
AcDbDimension
  2
*D10
 10
21415.63313141206
 20
982.4900258883664
 30
0.0
 11
17850.63313141206
 21
982.4900258883664
 31
0.0
 70
   160
  1
<>
 71
     2
 42
7129.999999999999
  3
Default (ISO)
100
AcDbAlignedDimension
 13
14285.63313141206
 23
3442.34564710386
 33
0.0
 14
21415.63313141206
 24
2892.345647103855
 34
0.0
 50
180.0
100
AcDbRotatedDimension
1001
ACAD
1000
DSTYLE
1002
{
1070
   172
1070
     0
1070
   289
1070
     1
1070
    74
1070
     0
1070
   271
1070
     2
1070
   272
1070
     2
1070
    48
1040
0.0
1070
    47
1040
0.0
1002
}
  0
DIMENSION
  5
81F
330
6C
100
AcDbEntity
  8
Dimension (ISO)
100
AcDbDimension
  2
*D11
 10
13931.7565097326
 20
6282.345647103859
 30
0.0
 11
13931.7565097326
 21
3837.345647103882
 31
0.0
 70
   160
  1
<>
 71
     2
 42
4890.000000000004
  3
Default (ISO)
100
AcDbAlignedDimension
 13
17055.63313141206
 23
1392.345647103854
 33
0.0
 14
15785.63313141206
 24
6282.345647103858
 34
0.0
 50
90.0
100
AcDbRotatedDimension
1001
ACAD
1000
DSTYLE
1002
{
1070
   172
1070
     0
1070
   289
1070
     1
1070
    74
1070
     0
1070
   271
1070
     2
1070
   272
1070
     2
1070
    48
1040
0.0
1070
    47
1040
0.0
1002
}
  0
DIMENSION
  5
907
330
6C
100
AcDbEntity
  8
Dimension (ISO)
100
AcDbDimension
  2
*D12
 10
14892.56963062728
 20
7089.823318667019
 30
0.0
 11
14892.56963062727
 21
7439.82331866702
 31
0.0
 70
   160
  1
<>
 71
     2
 42
700.0
  3
Default (ISO)
100
AcDbAlignedDimension
 13
15035.63313141351
 23
7789.82331866702
 33
0.0
 14
15570.63313141351
 24
7089.823318667019
 34
0.0
 50
270.0
100
AcDbRotatedDimension
1001
ACAD
1000
DSTYLE
1002
{
1070
   172
1070
     0
1070
   289
1070
     1
1070
    74
1070
     0
1070
   271
1070
     2
1070
    75
1070
     1
1070
   272
1070
     2
1070
    48
1040
0.0
1070
    47
1040
0.0
1002
}
  0
DIMENSION
  5
9EC
330
6C
100
AcDbEntity
  8
Dimension (ISO)
100
AcDbDimension
  2
*D13
 10
15309.71275455866
 20
7789.82331866702
 30
0.0
 11
15309.71275455865
 21
7514.823318667019
 31
0.0
 70
   160
  1
<>
 71
     2
 42
550.0
  3
Default (ISO)
100
AcDbAlignedDimension
 13
15750.63313141351
 23
7239.82331866702
 33
0.0
 14
15035.63313141351
 24
7789.82331866702
 34
0.0
 50
270.0
100
AcDbRotatedDimension
1001
ACAD
1000
DSTYLE
1002
{
1070
   172
1070
     0
1070
   289
1070
     1
1070
    74
1070
     0
1070
   271
1070
     2
1070
    76
1070
     1
1070
   272
1070
     2
1070
    48
1040
0.0
1070
    47
1040
0.0
1002
}
  0
DIMENSION
  5
AD1
330
6C
100
AcDbEntity
  8
Dimension (ISO)
100
AcDbDimension
  2
*D14
 10
15309.71275455866
 20
9552.173318667017
 30
0.0
 11
15309.71275455865
 21
8670.99831866702
 31
0.0
 70
   160
  1
<>
 71
     2
 42
1762.349999999997
  3
Default (ISO)
100
AcDbAlignedDimension
 13
15309.71275455865
 23
7789.82331866702
 33
0.0
 14
15860.63313141351
 24
9552.173318667017
 34
0.0
 50
270.0
100
AcDbRotatedDimension
1001
ACAD
1000
DSTYLE
1002
{
1070
   172
1070
     0
1070
   289
1070
     1
1070
    74
1070
     0
1070
   271
1070
     0
1070
    75
1070
     1
1070
   272
1070
     2
1070
    48
1040
0.0
1070
    47
1040
0.0
1002
}
  0
DIMENSION
  5
BB6
330
6C
100
AcDbEntity
  8
Dimension (ISO)
100
AcDbDimension
  2
*D15
 10
14892.56963062728
 20
10097.82331866701
 30
0.0
 11
14892.56963062727
 21
8943.823318667018
 31
0.0
 70
   160
  1
<>
 71
     2
 42
2307.999999999994
  3
Default (ISO)
100
AcDbAlignedDimension
 13
14892.56963062727
 23
7789.82331866702
 33
0.0
 14
15790.63313141351
 24
10097.82331866701
 34
0.0
 50
270.0
100
AcDbRotatedDimension
1001
ACAD
1000
DSTYLE
1002
{
1070
   172
1070
     0
1070
   289
1070
     1
1070
    74
1070
     0
1070
   271
1070
     2
1070
    75
1070
     1
1070
   272
1070
     2
1070
    48
1040
0.0
1070
    47
1040
0.0
1002
}
  0
DIMENSION
  5
C9B
330
6C
100
AcDbEntity
  8
Dimension (ISO)
100
AcDbDimension
  2
*D16
 10
20474.20218037284
 20
7789.82331866702
 30
0.0
 11
20474.20218037284
 21
8393.823318667019
 31
0.0
 70
   160
  1
<>
 71
     2
 42
1207.999999999998
  3
Default (ISO)
100
AcDbAlignedDimension
 13
19660.63313141351
 23
8997.823318667018
 33
0.0
 14
19915.63313141351
 24
7789.82331866702
 34
0.0
 50
90.0
100
AcDbRotatedDimension
1001
ACAD
1000
DSTYLE
1002
{
1070
   172
1070
     0
1070
   289
1070
     1
1070
    74
1070
     0
1070
   271
1070
     2
1070
   272
1070
     2
1070
    48
1040
0.0
1070
    47
1040
0.0
1002
}
  0
INSERT
  5
FDC
330
6C
100
AcDbEntity
  8
0
100
AcDbBlockReference
  2
87003_Street-Workout-Fit-3
 10
18360.63313141206
 20
3458.345647104195
 30
0.0
  0
ENDSEC
  0
SECTION
  2
OBJECTS
  0
DICTIONARY
  5
C
330
0
100
AcDbDictionary
281
     1
  3
ACAD_COLOR
350
63
  3
ACAD_GROUP
350
D
  3
ACAD_LAYOUT
350
62
  3
ACAD_MATERIAL
350
10
  3
ACAD_MLEADERSTYLE
350
66
  3
ACAD_MLINESTYLE
350
5F
  3
ACAD_PLOTSETTINGS
350
61
  3
ACAD_PLOTSTYLENAME
350
E
  3
ACAD_SCALELIST
350
42
  3
ACAD_TABLESTYLE
350
64
  3
ACAD_VISUALSTYLE
350
29
  3
ACDB_RECOMPOSE_DATA
350
FEB
  3
AcDbVariableDictionary
350
DDA
  3
DWGPROPS
350
FEC
  0
DICTIONARY
  5
D99
330
8
100
AcDbDictionary
280
     1
281
     1
  0
DICTIONARY
  5
D85
330
569
100
AcDbDictionary
280
     1
281
     1
  3
ACAD_MLATT
360
FE0
  3
ACAD_XREC_ROUNDTRIP
360
FDF
  0
DICTIONARY
  5
D88
330
56B
100
AcDbDictionary
280
     1
281
     1
  3
ACAD_MLATT
360
FE2
  3
ACAD_XREC_ROUNDTRIP
360
FE1
  0
DICTIONARY
  5
D8B
330
56C
100
AcDbDictionary
280
     1
281
     1
  3
ACAD_MLATT
360
FE4
  3
ACAD_XREC_ROUNDTRIP
360
FE3
  0
DICTIONARY
  5
D8E
330
56F
100
AcDbDictionary
280
     1
281
     1
  3
ACAD_MLATT
360
FE6
  3
ACAD_XREC_ROUNDTRIP
360
FE5
  0
DICTIONARY
  5
D91
330
570
100
AcDbDictionary
280
     1
281
     1
  3
ACAD_MLATT
360
FE8
  3
ACAD_XREC_ROUNDTRIP
360
FE7
  0
DICTIONARY
  5
D94
330
571
100
AcDbDictionary
280
     1
281
     1
  3
ACAD_MLATT
360
FEA
  3
ACAD_XREC_ROUNDTRIP
360
FE9
  0
DICTIONARY
  5
63
102
{ACAD_REACTORS
330
C
102
}
330
C
100
AcDbDictionary
281
     1
  0
DICTIONARY
  5
D
102
{ACAD_REACTORS
330
C
102
}
330
C
100
AcDbDictionary
281
     1
  0
DICTIONARY
  5
62
102
{ACAD_REACTORS
330
C
102
}
330
C
100
AcDbDictionary
281
     1
  3
Layout1
350
6B
  3
Layout2
350
73
  3
Model
350
6F
  0
DICTIONARY
  5
10
102
{ACAD_REACTORS
330
C
102
}
330
C
100
AcDbDictionary
281
     1
  3
ByBlock
350
19
  3
ByLayer
350
11
  3
Global
350
21
  0
DICTIONARY
  5
66
102
{ACAD_REACTORS
330
C
102
}
330
C
100
AcDbDictionary
281
     1
  3
Standard
350
67
  0
DICTIONARY
  5
5F
102
{ACAD_REACTORS
330
C
102
}
330
C
100
AcDbDictionary
281
     1
  3
Standard
350
60
  0
DICTIONARY
  5
61
102
{ACAD_REACTORS
330
C
102
}
330
C
100
AcDbDictionary
281
     1
  0
ACDBDICTIONARYWDFLT
  5
E
102
{ACAD_REACTORS
330
C
102
}
330
C
100
AcDbDictionary
281
     1
  3
Normal
350
F
100
AcDbDictionaryWithDefault
340
F
  0
DICTIONARY
  5
42
102
{ACAD_REACTORS
330
C
102
}
330
C
100
AcDbDictionary
281
     1
  3
A0
350
43
  3
A1
350
44
  3
A2
350
45
  3
A3
350
46
  3
A4
350
47
  3
A5
350
48
  3
A6
350
49
  3
A7
350
4A
  3
A8
350
4B
  3
A9
350
4C
  3
B0
350
4D
  3
B1
350
4E
  3
B2
350
4F
  3
B3
350
50
  3
B4
350
51
  3
B5
350
52
  3
B6
350
53
  0
DICTIONARY
  5
64
102
{ACAD_REACTORS
330
C
102
}
330
C
100
AcDbDictionary
281
     1
  3
Standard
350
65
  0
DICTIONARY
  5
29
102
{ACAD_REACTORS
330
C
102
}
330
C
100
AcDbDictionary
281
     1
  3
2dWireframe
350
2F
  3
Basic
350
2E
  3
Brighten
350
35
  3
ColorChange
350
39
  3
Conceptual
350
32
  3
Dim
350
34
  3
EdgeColorOff
350
41
  3
Facepattern
350
38
  3
Flat
350
2A
  3
FlatWithEdges
350
2B
  3
Gouraud
350
2C
  3
GouraudWithEdges
350
2D
  3
Hidden
350
31
  3
JitterOff
350
3F
  3
Linepattern
350
37
  3
OverhangOff
350
40
  3
Realistic
350
33
  3
Shaded
350
3E
  3
Shaded with edges
350
3D
  3
Shades of Gray
350
3A
  3
Sketchy
350
3B
  3
Thicken
350
36
  3
Wireframe
350
30
  3
X-Ray
350
3C
  0
XRECORD
  5
FEB
102
{ACAD_REACTORS
330
C
102
}
330
C
100
AcDbXrecord
280
     1
 90
        1
330
65
330
569
330
56B
330
56C
330
56F
330
570
330
571
  0
DICTIONARY
  5
DDA
102
{ACAD_REACTORS
330
C
102
}
330
C
100
AcDbDictionary
281
     1
  3
CANNOSCALE
350
DDE
  3
CMLEADERSTYLE
350
DDC
  3
CTABLESTYLE
350
DDB
  3
DIMASSOC
350
DE5
  3
HIDETEXT
350
DE4
  3
INDEXCTL
350
DE3
  3
LAYEREVAL
350
DE0
  3
LAYERNOTIFY
350
DE1
  3
LIGHTINGUNITS
350
DDF
  3
MSLTSCALE
350
DDD
  3
SORTENTS
350
DE2
  3
XCLIPFRAME
350
FDD
  0
XRECORD
  5
FEC
102
{ACAD_REACTORS
330
C
102
}
330
C
100
AcDbXrecord
280
     1
  1
DWGPROPS COOKIE
  2

  3

  4
Maruszak Marcin
  6

  7

  8
GRAFIK
  9
v1
300
Menadżer=
301
Firma=Muller Jelcz-Laskowice Sp.z o.o.
302
Kategoria=
303
Numer części=87003.000 Street workout 3+strefa+fundamentowanie
304
Opis=
305
Projekt=Street workout Fit
306
Projektant=Maruszak Marcin
307
Inżynier=Maruszak Marcin
308
Zatwierdził=Ośkiewicz Ryszard
309
Centrum kosztów=
 40
0.001188912037037
 41
2459760.396339826
 42
2459760.400288796
  1
www.muller.com.pl
 90
       19
300
Dostawca=
300
Stan użytkownika=
300
Stan projektu=PracaWToku
300
Sprawdził=
300
Zatwierdził konstrukcję=
300
Zatwierdził do produkcji=
300
Kolor=szary
300
Stanowisko=Ploter
300
mat.=
  0
XRECORD
  5
FE0
102
{ACAD_REACTORS
330
D85
102
}
330
D85
100
AcDbXrecord
280
     1
 70
     4
 70
     0
 70
     0
 40
1.0
  2
Numer_katalogowy
  1
Embedded Object
 10
178.6525718386176
 20
20.68422014898354
 30
0.0
 40
2.5
 41
39.63119806127143
 46
0.0
 71
     1
 72
     5
  1
87003
  7
Note Text (ISO)
 73
     1
 44
1.0
  0
XRECORD
  5
FDF
102
{ACAD_REACTORS
330
D85
102
}
330
D85
100
AcDbXrecord
280
     1
102
ACAD_MATT_HEIGHT
140
2.5
  0
XRECORD
  5
FE2
102
{ACAD_REACTORS
330
D88
102
}
330
D88
100
AcDbXrecord
280
     1
 70
     4
 70
     0
 70
     0
 40
1.0
  2
DATA_UTWORZENIA
  1
Embedded Object
 10
190.5938075676742
 20
13.68925708649296
 30
0.0
 40
2.5
 41
40.52963831958745
 46
0.0
 71
     1
 72
     5
  1
2022-06-29
  7
Note Text (ISO)
 73
     1
 44
1.0
  0
XRECORD
  5
FE1
102
{ACAD_REACTORS
330
D88
102
}
330
D88
100
AcDbXrecord
280
     1
102
ACAD_MATT_HEIGHT
140
2.5
  0
XRECORD
  5
FE4
102
{ACAD_REACTORS
330
D8B
102
}
330
D8B
100
AcDbXrecord
280
     1
 70
     4
 70
     0
 70
     0
 40
1.0
  2
Nazwa
  1
Embedded Object
 10
178.6475349011082
 20
17.1288138363798
 30
0.0
 40
2.5
 41
185.1629687744657
 46
0.0
 71
     1
 72
     5
  1
Street Workout Fit 3
  7
Note Text (ISO)
 73
     1
 44
1.0
  0
XRECORD
  5
FE3
102
{ACAD_REACTORS
330
D8B
102
}
330
D8B
100
AcDbXrecord
280
     1
102
ACAD_MATT_HEIGHT
140
2.5
  0
XRECORD
  5
FE6
102
{ACAD_REACTORS
330
D8E
102
}
330
D8E
100
AcDbXrecord
280
     1
 70
     2
 70
     0
 70
     0
 40
1.0
  2
Numer_katalogowy
  1
Embedded Object
 10
14943.7877770717
 20
497.1457362189539
 30
0.0
 40
125.0
 41
1981.559903063571
 46
0.0
 71
     1
 72
     5
  1
87003
  7
Note Text (ISO)
 73
     1
 44
1.0
  0
XRECORD
  5
FE5
102
{ACAD_REACTORS
330
D8E
102
}
330
D8E
100
AcDbXrecord
280
     1
102
ACAD_MATT_HEIGHT
140
125.0
  0
XRECORD
  5
FE8
102
{ACAD_REACTORS
330
D91
102
}
330
D91
100
AcDbXrecord
280
     1
 70
     2
 70
     0
 70
     0
 40
1.0
  2
DATA_UTWORZENIA
  1
Embedded Object
 10
15540.84956352453
 20
147.3975830944254
 30
0.0
 40
125.0
 41
2026.481915979373
 46
0.0
 71
     1
 72
     5
  1
2022-06-29
  7
Note Text (ISO)
 73
     1
 44
1.0
  0
XRECORD
  5
FE7
102
{ACAD_REACTORS
330
D91
102
}
330
D91
100
AcDbXrecord
280
     1
102
ACAD_MATT_HEIGHT
140
125.0
  0
XRECORD
  5
FEA
102
{ACAD_REACTORS
330
D94
102
}
330
D94
100
AcDbXrecord
280
     1
 70
     2
 70
     0
 70
     0
 40
1.0
  2
Nazwa
  1
Embedded Object
 10
14943.53593019623
 20
319.3754205887671
 30
0.0
 40
125.0
 41
9258.148438723289
 46
0.0
 71
     1
 72
     5
  1
Street Workout Fit 3
  7
Note Text (ISO)
 73
     1
 44
1.0
  0
XRECORD
  5
FE9
102
{ACAD_REACTORS
330
D94
102
}
330
D94
100
AcDbXrecord
280
     1
102
ACAD_MATT_HEIGHT
140
125.0
  0
LAYOUT
  5
6B
102
{ACAD_XDICTIONARY
360
1021
102
}
102
{ACAD_REACTORS
330
62
102
}
330
62
100
AcDbPlotSettings
  1

  2

  4

  6

 40
0.0
 41
0.0
 42
0.0
 43
0.0
 44
0.0
 45
0.0
 46
0.0
 47
0.0
 48
0.0
 49
0.0
140
0.0
141
0.0
142
1.0
143
1.0
 70
   688
 72
     0
 73
     0
 74
     5
  7

 75
    16
147
1.0
148
0.0
149
0.0
100
AcDbLayout
  1
Layout1
 70
     1
 71
     1
 10
0.0
 20
0.0
 11
14850.0
 21
10500.0
 12
0.0
 22
0.0
 32
0.0
 14
0.0
 24
0.0
 34
0.0
 15
14850.0
 25
10500.0
 35
0.0
146
0.0
 13
0.0
 23
0.0
 33
0.0
 16
1.0
 26
0.0
 36
0.0
 17
0.0
 27
1.0
 37
0.0
 76
     0
330
68
  0
LAYOUT
  5
73
102
{ACAD_XDICTIONARY
360
1025
102
}
102
{ACAD_REACTORS
330
62
102
}
330
62
100
AcDbPlotSettings
  1

  2

  4

  6

 40
0.0
 41
0.0
 42
0.0
 43
0.0
 44
0.0
 45
0.0
 46
0.0
 47
0.0
 48
0.0
 49
0.0
140
0.0
141
0.0
142
1.0
143
1.0
 70
   688
 72
     0
 73
     0
 74
     5
  7

 75
    16
147
1.0
148
0.0
149
0.0
100
AcDbLayout
  1
Layout2
 70
     1
 71
     2
 10
0.0
 20
0.0
 11
12.0
 21
9.0
 12
0.0
 22
0.0
 32
0.0
 14
0.0
 24
0.0
 34
0.0
 15
0.0
 25
0.0
 35
0.0
146
0.0
 13
0.0
 23
0.0
 33
0.0
 16
1.0
 26
0.0
 36
0.0
 17
0.0
 27
1.0
 37
0.0
 76
     0
330
70
  0
LAYOUT
  5
6F
102
{ACAD_XDICTIONARY
360
1023
102
}
102
{ACAD_REACTORS
330
62
102
}
330
62
100
AcDbPlotSettings
  1

  2

  4

  6

 40
0.0
 41
0.0
 42
0.0
 43
0.0
 44
0.0
 45
0.0
 46
0.0
 47
0.0
 48
0.0
 49
0.0
140
0.0
141
0.0
142
1.0
143
1.0
 70
  1712
 72
     0
 73
     0
 74
     0
  7

 75
     0
147
1.0
148
0.0
149
0.0
100
AcDbLayout
  1
Model
 70
     1
 71
     0
 10
0.0
 20
0.0
 11
12.0
 21
9.0
 12
0.0
 22
0.0
 32
0.0
 14
0.0
 24
0.0
 34
0.0
 15
0.0
 25
0.0
 35
0.0
146
0.0
 13
0.0
 23
0.0
 33
0.0
 16
1.0
 26
0.0
 36
0.0
 17
0.0
 27
1.0
 37
0.0
 76
     0
330
6C
331
57
  0
MATERIAL
  5
19
102
{ACAD_XDICTIONARY
360
1A
102
}
102
{ACAD_REACTORS
330
10
102
}
330
10
100
AcDbMaterial
  1
ByBlock
 72
     0
 43
0.0208333333333333
 43
0.0
 43
0.0
 43
0.0
 43
0.0
 43
0.0208333333333333
 43
0.0
 43
0.0
 43
0.0
 43
0.0
 43
1.0
 43
0.0
 43
0.0
 43
0.0
 43
0.0
 43
1.0
 77
     0
 47
0.0208333333333333
 47
0.0
 47
0.0
 47
0.0
 47
0.0
 47
0.0208333333333333
 47
0.0
 47
0.0
 47
0.0
 47
0.0
 47
1.0
 47
0.0
 47
0.0
 47
0.0
 47
0.0
 47
1.0
171
     0
 49
0.0208333333333333
 49
0.0
 49
0.0
 49
0.0
 49
0.0
 49
0.0208333333333333
 49
0.0
 49
0.0
 49
0.0
 49
0.0
 49
1.0
 49
0.0
 49
0.0
 49
0.0
 49
0.0
 49
1.0
175
     0
142
0.0208333333333333
142
0.0
142
0.0
142
0.0
142
0.0
142
0.0208333333333333
142
0.0
142
0.0
142
0.0
142
0.0
142
1.0
142
0.0
142
0.0
142
0.0
142
0.0
142
1.0
179
     0
144
0.0208333333333333
144
0.0
144
0.0
144
0.0
144
0.0
144
0.0208333333333333
144
0.0
144
0.0
144
0.0
144
0.0
144
1.0
144
0.0
144
0.0
144
0.0
144
0.0
144
1.0
147
0.0208333333333333
147
0.0
147
0.0
147
0.0
147
0.0
147
0.0208333333333333
147
0.0
147
0.0
147
0.0
147
0.0
147
1.0
147
0.0
147
0.0
147
0.0
147
0.0
147
1.0
  0
MATERIAL
  5
11
102
{ACAD_XDICTIONARY
360
12
102
}
102
{ACAD_REACTORS
330
10
102
}
330
10
100
AcDbMaterial
  1
ByLayer
 72
     0
 43
0.0208333333333333
 43
0.0
 43
0.0
 43
0.0
 43
0.0
 43
0.0208333333333333
 43
0.0
 43
0.0
 43
0.0
 43
0.0
 43
1.0
 43
0.0
 43
0.0
 43
0.0
 43
0.0
 43
1.0
 77
     0
 47
0.0208333333333333
 47
0.0
 47
0.0
 47
0.0
 47
0.0
 47
0.0208333333333333
 47
0.0
 47
0.0
 47
0.0
 47
0.0
 47
1.0
 47
0.0
 47
0.0
 47
0.0
 47
0.0
 47
1.0
171
     0
 49
0.0208333333333333
 49
0.0
 49
0.0
 49
0.0
 49
0.0
 49
0.0208333333333333
 49
0.0
 49
0.0
 49
0.0
 49
0.0
 49
1.0
 49
0.0
 49
0.0
 49
0.0
 49
0.0
 49
1.0
175
     0
142
0.0208333333333333
142
0.0
142
0.0
142
0.0
142
0.0
142
0.0208333333333333
142
0.0
142
0.0
142
0.0
142
0.0
142
1.0
142
0.0
142
0.0
142
0.0
142
0.0
142
1.0
179
     0
144
0.0208333333333333
144
0.0
144
0.0
144
0.0
144
0.0
144
0.0208333333333333
144
0.0
144
0.0
144
0.0
144
0.0
144
1.0
144
0.0
144
0.0
144
0.0
144
0.0
144
1.0
147
0.0208333333333333
147
0.0
147
0.0
147
0.0
147
0.0
147
0.0208333333333333
147
0.0
147
0.0
147
0.0
147
0.0
147
1.0
147
0.0
147
0.0
147
0.0
147
0.0
147
1.0
  0
MATERIAL
  5
21
102
{ACAD_XDICTIONARY
360
22
102
}
102
{ACAD_REACTORS
330
10
102
}
330
10
100
AcDbMaterial
  1
Global
 72
     0
 43
0.0208333333333333
 43
0.0
 43
0.0
 43
0.0
 43
0.0
 43
0.0208333333333333
 43
0.0
 43
0.0
 43
0.0
 43
0.0
 43
1.0
 43
0.0
 43
0.0
 43
0.0
 43
0.0
 43
1.0
 77
     0
 47
0.0208333333333333
 47
0.0
 47
0.0
 47
0.0
 47
0.0
 47
0.0208333333333333
 47
0.0
 47
0.0
 47
0.0
 47
0.0
 47
1.0
 47
0.0
 47
0.0
 47
0.0
 47
0.0
 47
1.0
171
     0
 49
0.0208333333333333
 49
0.0
 49
0.0
 49
0.0
 49
0.0
 49
0.0208333333333333
 49
0.0
 49
0.0
 49
0.0
 49
0.0
 49
1.0
 49
0.0
 49
0.0
 49
0.0
 49
0.0
 49
1.0
175
     0
142
0.0208333333333333
142
0.0
142
0.0
142
0.0
142
0.0
142
0.0208333333333333
142
0.0
142
0.0
142
0.0
142
0.0
142
1.0
142
0.0
142
0.0
142
0.0
142
0.0
142
1.0
179
     0
144
0.0208333333333333
144
0.0
144
0.0
144
0.0
144
0.0
144
0.0208333333333333
144
0.0
144
0.0
144
0.0
144
0.0
144
1.0
144
0.0
144
0.0
144
0.0
144
0.0
144
1.0
147
0.0208333333333333
147
0.0
147
0.0
147
0.0
147
0.0
147
0.0208333333333333
147
0.0
147
0.0
147
0.0
147
0.0
147
1.0
147
0.0
147
0.0
147
0.0
147
0.0
147
1.0
  0
MLEADERSTYLE
  5
67
102
{ACAD_REACTORS
330
66
102
}
330
66
100
AcDbMLeaderStyle
170
     2
171
     1
172
     0
 90
        2
 40
0.0
 41
0.0
173
     1
 91
-1056964608
340
5B
 92
       -2
290
     1
 42
0.09
291
     1
 43
0.36
  3
Standard
 44
0.18
300

342
55
174
     1
178
     6
175
     1
176
     0
 93
-1056964608
 45
0.18
292
     0
297
     0
 46
0.18
 94
-1056964608
 47
1.0
 49
1.0
140
1.0
293
     1
141
0.0
294
     1
177
     0
142
1.0
295
     0
296
     0
143
0.125
1001
ACAD_MLEADERVER
1070
     2
  0
MLINESTYLE
  5
60
102
{ACAD_REACTORS
330
5F
102
}
330
5F
100
AcDbMlineStyle
  2
STANDARD
 70
     0
  3

 62
   256
 51
90.0
 52
90.0
 71
     2
 49
0.5
 62
   256
  6
BYLAYER
 49
-0.5
 62
   256
  6
BYLAYER
  0
ACDBPLACEHOLDER
  5
F
102
{ACAD_REACTORS
330
E
102
}
330
E
  0
SCALE
  5
43
102
{ACAD_REACTORS
330
42
102
}
330
42
100
AcDbScale
 70
     0
300
1:1
140
1.0
141
1.0
290
     1
  0
SCALE
  5
44
102
{ACAD_REACTORS
330
42
102
}
330
42
100
AcDbScale
 70
     0
300
1/128" = 1'-0"
140
0.0078125
141
12.0
290
     0
  0
SCALE
  5
45
102
{ACAD_REACTORS
330
42
102
}
330
42
100
AcDbScale
 70
     0
300
1/64" = 1'-0"
140
0.015625
141
12.0
290
     0
  0
SCALE
  5
46
102
{ACAD_REACTORS
330
42
102
}
330
42
100
AcDbScale
 70
     0
300
1/32" = 1'-0"
140
0.03125
141
12.0
290
     0
  0
SCALE
  5
47
102
{ACAD_REACTORS
330
42
102
}
330
42
100
AcDbScale
 70
     0
300
1/16" = 1'-0"
140
0.0625
141
12.0
290
     0
  0
SCALE
  5
48
102
{ACAD_REACTORS
330
42
102
}
330
42
100
AcDbScale
 70
     0
300
3/32" = 1'-0"
140
0.09375
141
12.0
290
     0
  0
SCALE
  5
49
102
{ACAD_REACTORS
330
42
102
}
330
42
100
AcDbScale
 70
     0
300
1/8" = 1'-0"
140
0.125
141
12.0
290
     0
  0
SCALE
  5
4A
102
{ACAD_REACTORS
330
42
102
}
330
42
100
AcDbScale
 70
     0
300
3/16" = 1'-0"
140
0.1875
141
12.0
290
     0
  0
SCALE
  5
4B
102
{ACAD_REACTORS
330
42
102
}
330
42
100
AcDbScale
 70
     0
300
1/4" = 1'-0"
140
0.25
141
12.0
290
     0
  0
SCALE
  5
4C
102
{ACAD_REACTORS
330
42
102
}
330
42
100
AcDbScale
 70
     0
300
3/8" = 1'-0"
140
0.375
141
12.0
290
     0
  0
SCALE
  5
4D
102
{ACAD_REACTORS
330
42
102
}
330
42
100
AcDbScale
 70
     0
300
1/2" = 1'-0"
140
0.5
141
12.0
290
     0
  0
SCALE
  5
4E
102
{ACAD_REACTORS
330
42
102
}
330
42
100
AcDbScale
 70
     0
300
3/4" = 1'-0"
140
0.75
141
12.0
290
     0
  0
SCALE
  5
4F
102
{ACAD_REACTORS
330
42
102
}
330
42
100
AcDbScale
 70
     0
300
1" = 1'-0"
140
1.0
141
12.0
290
     0
  0
SCALE
  5
50
102
{ACAD_REACTORS
330
42
102
}
330
42
100
AcDbScale
 70
     0
300
1-1/2" = 1'-0"
140
1.5
141
12.0
290
     0
  0
SCALE
  5
51
102
{ACAD_REACTORS
330
42
102
}
330
42
100
AcDbScale
 70
     0
300
3" = 1'-0"
140
3.0
141
12.0
290
     0
  0
SCALE
  5
52
102
{ACAD_REACTORS
330
42
102
}
330
42
100
AcDbScale
 70
     0
300
6" = 1'-0"
140
6.0
141
12.0
290
     0
  0
SCALE
  5
53
102
{ACAD_REACTORS
330
42
102
}
330
42
100
AcDbScale
 70
     0
300
1'-0" = 1'-0"
140
12.0
141
12.0
290
     0
  0
TABLESTYLE
  5
65
102
{ACAD_XDICTIONARY
360
D83
102
}
102
{ACAD_REACTORS
330
64
102
}
330
64
100
AcDbTableStyle
  3
Standard
 70
     0
 71
     0
 40
0.06
 41
0.06
280
     0
281
     0
  7
Standard
140
0.18
170
     2
 62
     0
 63
     7
283
     0
274
    -2
284
     1
 64
     0
275
    -2
285
     1
 65
     0
276
    -2
286
     1
 66
     0
277
    -2
287
     1
 67
     0
278
    -2
288
     1
 68
     0
279
    -2
289
     1
 69
     0
  7
Standard
140
0.25
170
     5
 62
     0
 63
     7
283
     0
274
    -2
284
     1
 64
     0
275
    -2
285
     1
 65
     0
276
    -2
286
     1
 66
     0
277
    -2
287
     1
 67
     0
278
    -2
288
     1
 68
     0
279
    -2
289
     1
 69
     0
  7
Standard
140
0.18
170
     5
 62
     0
 63
     7
283
     0
274
    -2
284
     1
 64
     0
275
    -2
285
     1
 65
     0
276
    -2
286
     1
 66
     0
277
    -2
287
     1
 67
     0
278
    -2
288
     1
 68
     0
279
    -2
289
     1
 69
     0
  0
VISUALSTYLE
  5
2F
102
{ACAD_XDICTIONARY
360
FFA
102
}
102
{ACAD_REACTORS
330
29
102
}
330
29
100
AcDbVisualStyle
  2
2dWireframe
 70
     4
 71
     0
 72
     2
 73
     0
 90
        0
 40
-0.6
 41
-30.0
 62
     5
 63
     7
 74
     1
 91
        4
 64
     7
 65
   257
 75
     1
175
     1
 42
1.0
 92
        0
 66
   257
 43
1.0
 76
     1
 77
     6
 78
     2
 67
     7
 79
     5
170
     0
171
     0
290
     0
174
     0
 93
        1
 44
0.0
173
     0
291
     0
 45
0.0
1001
ACAD
1000
AcDbSavedByObjectVersion
1070
     0
  0
VISUALSTYLE
  5
2E
102
{ACAD_XDICTIONARY
360
FF8
102
}
102
{ACAD_REACTORS
330
29
102
}
330
29
100
AcDbVisualStyle
  2
Basic
 70
     7
 71
     1
 72
     0
 73
     1
 90
        0
 40
-0.6
 41
-30.0
 62
     5
 63
     7
 74
     0
 91
        4
 64
     7
 65
   257
 75
     1
175
     1
 42
1.0
 92
        8
 66
     7
 43
1.0
 76
     1
 77
     6
 78
     2
 67
     7
 79
     5
170
     0
171
     0
290
     0
174
     0
 93
        1
 44
0.0
173
     0
291
     1
 45
0.0
1001
ACAD
1000
AcDbSavedByObjectVersion
1070
     0
  0
VISUALSTYLE
  5
35
102
{ACAD_XDICTIONARY
360
1006
102
}
102
{ACAD_REACTORS
330
29
102
}
330
29
100
AcDbVisualStyle
  2
Brighten
 70
    12
 71
     2
 72
     2
 73
     0
 90
        0
 40
-0.6
 41
-30.0
 62
     5
 63
     7
 74
     1
 91
        4
 64
     7
 65
   257
 75
     1
175
     1
 42
1.0
 92
        8
 66
     7
 43
1.0
 76
     1
 77
     6
 78
     2
 67
     7
 79
     5
170
     0
171
     0
290
     0
174
     0
 93
        1
 44
50.0
173
     0
291
     1
 45
0.0
1001
ACAD
1000
AcDbSavedByObjectVersion
1070
     0
  0
VISUALSTYLE
  5
39
102
{ACAD_XDICTIONARY
360
100E
102
}
102
{ACAD_REACTORS
330
29
102
}
330
29
100
AcDbVisualStyle
  2
ColorChange
 70
    16
 71
     2
 72
     2
 73
     3
 90
        0
 40
-0.6
 41
-30.0
 62
     5
 63
     8
 74
     1
 91
        4
 64
     7
 65
   257
 75
     1
175
     1
 42
1.0
 92
        8
 66
     8
 43
1.0
 76
     1
 77
     6
 78
     2
 67
     7
 79
     5
170
     0
171
     0
290
     0
174
     0
 93
        1
 44
0.0
173
     0
291
     1
 45
0.0
1001
ACAD
1000
AcDbSavedByObjectVersion
1070
     0
  0
VISUALSTYLE
  5
32
102
{ACAD_XDICTIONARY
360
1000
102
}
102
{ACAD_REACTORS
330
29
102
}
330
29
100
AcDbVisualStyle
  2
Conceptual
 70
     9
 71
     3
 72
     2
 73
     0
 90
        0
 40
-0.6
 41
-30.0
 62
     5
 63
     7
 74
     2
 91
        2
 64
     7
 65
   257
 75
     1
175
     1
 42
179.0
 92
        8
 66
     7
 43
1.0
 76
     1
 77
     6
 78
     2
 67
     7
 79
     3
170
     0
171
     0
290
     0
174
     0
 93
        1
 44
0.0
173
     0
291
     0
 45
0.0
1001
ACAD
1000
AcDbSavedByObjectVersion
1070
     0
  0
VISUALSTYLE
  5
34
102
{ACAD_XDICTIONARY
360
1004
102
}
102
{ACAD_REACTORS
330
29
102
}
330
29
100
AcDbVisualStyle
  2
Dim
 70
    11
 71
     2
 72
     2
 73
     0
 90
        0
 40
-0.6
 41
-30.0
 62
     5
 63
     7
 74
     1
 91
        4
 64
     7
 65
   257
 75
     1
175
     1
 42
1.0
 92
        8
 66
     7
 43
1.0
 76
     1
 77
     6
 78
     2
 67
     7
 79
     5
170
     0
171
     0
290
     0
174
     0
 93
        1
 44
-50.0
173
     0
291
     1
 45
0.0
1001
ACAD
1000
AcDbSavedByObjectVersion
1070
     0
  0
VISUALSTYLE
  5
41
102
{ACAD_XDICTIONARY
360
101E
102
}
102
{ACAD_REACTORS
330
29
102
}
330
29
100
AcDbVisualStyle
  2
EdgeColorOff
 70
    22
 71
     2
 72
     2
 73
     0
 90
        0
 40
-0.6
 41
-30.0
 62
     5
 63
     7
 74
     1
 91
        4
 64
     7
 65
   257
 75
     1
175
     1
 42
1.0
 92
        8
 66
     7
 43
1.0
 76
     1
 77
     6
 78
     2
 67
     7
 79
     5
170
     0
171
     0
290
     0
174
     0
 93
        1
 44
0.0
173
     0
291
     1
 45
0.0
1001
ACAD
1000
AcDbSavedByObjectVersion
1070
     0
  0
VISUALSTYLE
  5
38
102
{ACAD_XDICTIONARY
360
100C
102
}
102
{ACAD_REACTORS
330
29
102
}
330
29
100
AcDbVisualStyle
  2
Facepattern
 70
    15
 71
     2
 72
     2
 73
     0
 90
        0
 40
-0.6
 41
-30.0
 62
     5
 63
     7
 74
     1
 91
        4
 64
     7
 65
   257
 75
     1
175
     1
 42
1.0
 92
        8
 66
     7
 43
1.0
 76
     1
 77
     6
 78
     2
 67
     7
 79
     5
170
     0
171
     0
290
     0
174
     0
 93
        1
 44
0.0
173
     0
291
     1
 45
0.0
1001
ACAD
1000
AcDbSavedByObjectVersion
1070
     0
  0
VISUALSTYLE
  5
2A
102
{ACAD_XDICTIONARY
360
FF0
102
}
102
{ACAD_REACTORS
330
29
102
}
330
29
100
AcDbVisualStyle
  2
Flat
 70
     0
 71
     2
 72
     1
 73
     1
 90
        2
 40
-0.6
 41
30.0
 62
     5
 63
     7
 74
     0
 91
        0
 64
     7
 65
   257
 75
     1
175
     1
 42
1.0
 92
        8
 66
     7
 43
1.0
 76
     1
 77
     6
 78
     2
 67
     7
 79
     5
170
     0
171
     0
290
     0
174
     0
 93
       13
 44
0.0
173
     0
291
     1
 45
0.0
1001
ACAD
1000
AcDbSavedByObjectVersion
1070
     0
  0
VISUALSTYLE
  5
2B
102
{ACAD_XDICTIONARY
360
FF2
102
}
102
{ACAD_REACTORS
330
29
102
}
330
29
100
AcDbVisualStyle
  2
FlatWithEdges
 70
     1
 71
     2
 72
     1
 73
     1
 90
        2
 40
-0.6
 41
30.0
 62
     5
 63
     7
 74
     1
 91
        0
 64
     7
 65
   257
 75
     1
175
     1
 42
1.0
 92
        0
 66
   257
 43
1.0
 76
     1
 77
     6
 78
     2
 67
     7
 79
     5
170
     0
171
     0
290
     0
174
     0
 93
       13
 44
0.0
173
     0
291
     1
 45
0.0
1001
ACAD
1000
AcDbSavedByObjectVersion
1070
     0
  0
VISUALSTYLE
  5
2C
102
{ACAD_XDICTIONARY
360
FF4
102
}
102
{ACAD_REACTORS
330
29
102
}
330
29
100
AcDbVisualStyle
  2
Gouraud
 70
     2
 71
     2
 72
     2
 73
     1
 90
        2
 40
-0.6
 41
30.0
 62
     5
 63
     7
 74
     0
 91
        0
 64
     7
 65
   257
 75
     1
175
     1
 42
1.0
 92
        0
 66
     7
 43
1.0
 76
     1
 77
     6
 78
     2
 67
     7
 79
     5
170
     0
171
     0
290
     0
174
     0
 93
       13
 44
0.0
173
     0
291
     1
 45
0.0
1001
ACAD
1000
AcDbSavedByObjectVersion
1070
     0
  0
VISUALSTYLE
  5
2D
102
{ACAD_XDICTIONARY
360
FF6
102
}
102
{ACAD_REACTORS
330
29
102
}
330
29
100
AcDbVisualStyle
  2
GouraudWithEdges
 70
     3
 71
     2
 72
     2
 73
     1
 90
        2
 40
-0.6
 41
30.0
 62
     5
 63
     7
 74
     1
 91
        0
 64
     7
 65
   257
 75
     1
175
     1
 42
1.0
 92
        0
 66
   257
 43
1.0
 76
     1
 77
     6
 78
     2
 67
     7
 79
     5
170
     0
171
     0
290
     0
174
     0
 93
       13
 44
0.0
173
     0
291
     1
 45
0.0
1001
ACAD
1000
AcDbSavedByObjectVersion
1070
     0
  0
VISUALSTYLE
  5
31
102
{ACAD_XDICTIONARY
360
FFE
102
}
102
{ACAD_REACTORS
330
29
102
}
330
29
100
AcDbVisualStyle
  2
Hidden
 70
     6
 71
     1
 72
     2
 73
     2
 90
        0
 40
-0.6
 41
-30.0
 62
     5
 63
     7
 74
     2
 91
        2
 64
     7
 65
   257
 75
     2
175
     1
 42
40.0
 92
        0
 66
   257
 43
1.0
 76
     1
 77
     6
 78
     2
 67
     7
 79
     3
170
     0
171
     0
290
     0
174
     0
 93
        1
 44
0.0
173
     0
291
     0
 45
0.0
1001
ACAD
1000
AcDbSavedByObjectVersion
1070
     0
  0
VISUALSTYLE
  5
3F
102
{ACAD_XDICTIONARY
360
101A
102
}
102
{ACAD_REACTORS
330
29
102
}
330
29
100
AcDbVisualStyle
  2
JitterOff
 70
    20
 71
     2
 72
     2
 73
     0
 90
        0
 40
-0.6
 41
-30.0
 62
     5
 63
     7
 74
     1
 91
        4
 64
     7
 65
   257
 75
     1
175
     1
 42
1.0
 92
       10
 66
     7
 43
1.0
 76
     1
 77
     6
 78
     2
 67
     7
 79
     5
170
     0
171
     0
290
     0
174
     0
 93
        1
 44
0.0
173
     0
291
     1
 45
0.0
1001
ACAD
1000
AcDbSavedByObjectVersion
1070
     0
  0
VISUALSTYLE
  5
37
102
{ACAD_XDICTIONARY
360
100A
102
}
102
{ACAD_REACTORS
330
29
102
}
330
29
100
AcDbVisualStyle
  2
Linepattern
 70
    14
 71
     2
 72
     2
 73
     0
 90
        0
 40
-0.6
 41
-30.0
 62
     5
 63
     7
 74
     1
 91
        4
 64
     7
 65
   257
 75
     7
175
     7
 42
1.0
 92
        8
 66
     7
 43
1.0
 76
     1
 77
     6
 78
     2
 67
     7
 79
     5
170
     0
171
     0
290
     0
174
     0
 93
        1
 44
0.0
173
     0
291
     1
 45
0.0
1001
ACAD
1000
AcDbSavedByObjectVersion
1070
     0
  0
VISUALSTYLE
  5
40
102
{ACAD_XDICTIONARY
360
101C
102
}
102
{ACAD_REACTORS
330
29
102
}
330
29
100
AcDbVisualStyle
  2
OverhangOff
 70
    21
 71
     2
 72
     2
 73
     0
 90
        0
 40
-0.6
 41
-30.0
 62
     5
 63
     7
 74
     1
 91
        4
 64
     7
 65
   257
 75
     1
175
     1
 42
1.0
 92
        9
 66
     7
 43
1.0
 76
     1
 77
     6
 78
     2
 67
     7
 79
     5
170
     0
171
     0
290
     0
174
     0
 93
        1
 44
0.0
173
     0
291
     1
 45
0.0
1001
ACAD
1000
AcDbSavedByObjectVersion
1070
     0
  0
VISUALSTYLE
  5
33
102
{ACAD_XDICTIONARY
360
1002
102
}
102
{ACAD_REACTORS
330
29
102
}
330
29
100
AcDbVisualStyle
  2
Realistic
 70
     8
 71
     2
 72
     2
 73
     0
 90
        2
 40
-0.6
 41
30.0
 62
     5
 63
     7
 74
     0
 91
        0
 64
     7
 65
   257
 75
     1
175
     1
 42
1.0
 92
        8
 66
   257
 43
1.0
 76
     1
 77
     6
 78
     2
 67
     7
 79
     3
170
     0
171
     0
290
     0
174
     0
 93
       13
 44
0.0
173
     0
291
     0
 45
0.0
1001
ACAD
1000
AcDbSavedByObjectVersion
1070
     0
  0
VISUALSTYLE
  5
3E
102
{ACAD_XDICTIONARY
360
1018
102
}
102
{ACAD_REACTORS
330
29
102
}
330
29
100
AcDbVisualStyle
  2
Shaded
 70
    27
 71
     2
 72
     2
 73
     1
 90
        2
 40
-0.6
 41
30.0
 62
     5
 63
     7
 74
     0
 91
        4
 64
     7
 65
   257
 75
     1
175
     1
 42
1.0
 92
        8
 66
   257
 43
1.0
 76
     1
 77
     6
 78
     2
 67
     8
 79
     3
170
     0
171
     0
290
     0
174
     0
 93
        5
 44
0.0
173
     0
291
     0
 45
0.0
1001
ACAD
1000
AcDbSavedByObjectVersion
1070
     0
  0
VISUALSTYLE
  5
3D
102
{ACAD_XDICTIONARY
360
1016
102
}
102
{ACAD_REACTORS
330
29
102
}
330
29
100
AcDbVisualStyle
  2
Shaded with edges
 70
    26
 71
     2
 72
     2
 73
     1
 90
        2
 40
-0.6
 41
30.0
 62
     5
 63
     7
 74
     1
 91
       10
 64
     7
 65
   257
 75
     2
175
     1
 42
1.0
 92
        8
 66
   257
 43
1.0
 76
     1
 77
     6
 78
     2
 67
     7
 79
     3
170
     0
171
     0
290
     0
174
     0
 93
        5
 44
0.0
173
     0
291
     0
 45
0.0
1001
ACAD
1000
AcDbSavedByObjectVersion
1070
     0
  0
VISUALSTYLE
  5
3A
102
{ACAD_XDICTIONARY
360
1010
102
}
102
{ACAD_REACTORS
330
29
102
}
330
29
100
AcDbVisualStyle
  2
Shades of Gray
 70
    23
 71
     2
 72
     2
 73
     3
 90
        0
 40
-0.6
 41
-30.0
 62
     5
 63
     7
 74
     2
 91
        2
 64
     7
 65
     7
 75
     1
175
     1
 42
40.0
 92
        8
 66
     7
 43
1.0
 76
     1
 77
     6
 78
     2
 67
     7
 79
     3
170
     0
171
     0
290
     0
174
     0
 93
        1
 44
0.0
173
     0
291
     0
 45
0.0
1001
ACAD
1000
AcDbSavedByObjectVersion
1070
     0
  0
VISUALSTYLE
  5
3B
102
{ACAD_XDICTIONARY
360
1012
102
}
102
{ACAD_REACTORS
330
29
102
}
330
29
100
AcDbVisualStyle
  2
Sketchy
 70
    24
 71
     1
 72
     2
 73
     2
 90
        0
 40
-0.6
 41
-30.0
 62
     5
 63
     7
 74
     2
 91
        2
 64
     7
 65
     7
 75
     1
175
     1
 42
40.0
 92
       11
 66
     7
 43
1.0
 76
     1
 77
     6
 78
     2
 67
     7
 79
     6
170
     0
171
     0
290
     0
174
     0
 93
        1
 44
0.0
173
     0
291
     0
 45
0.0
1001
ACAD
1000
AcDbSavedByObjectVersion
1070
     0
  0
VISUALSTYLE
  5
36
102
{ACAD_XDICTIONARY
360
1008
102
}
102
{ACAD_REACTORS
330
29
102
}
330
29
100
AcDbVisualStyle
  2
Thicken
 70
    13
 71
     2
 72
     2
 73
     0
 90
        0
 40
-0.6
 41
-30.0
 62
     5
 63
     7
 74
     1
 91
        4
 64
     7
 65
   257
 75
     1
175
     1
 42
1.0
 92
       12
 66
     7
 43
1.0
 76
     1
 77
     6
 78
     2
 67
     7
 79
     5
170
     0
171
     0
290
     0
174
     0
 93
        1
 44
0.0
173
     0
291
     1
 45
0.0
1001
ACAD
1000
AcDbSavedByObjectVersion
1070
     0
  0
VISUALSTYLE
  5
30
102
{ACAD_XDICTIONARY
360
FFC
102
}
102
{ACAD_REACTORS
330
29
102
}
330
29
100
AcDbVisualStyle
  2
Wireframe
 70
     5
 71
     0
 72
     2
 73
     0
 90
        0
 40
-0.6
 41
-30.0
 62
     5
 63
     7
 74
     1
 91
        4
 64
     7
 65
   257
 75
     1
175
     1
 42
1.0
 92
        0
 66
   257
 43
1.0
 76
     1
 77
     6
 78
     2
 67
     7
 79
     3
170
     0
171
     0
290
     0
174
     0
 93
        1
 44
0.0
173
     0
291
     0
 45
0.0
1001
ACAD
1000
AcDbSavedByObjectVersion
1070
     0
  0
VISUALSTYLE
  5
3C
102
{ACAD_XDICTIONARY
360
1014
102
}
102
{ACAD_REACTORS
330
29
102
}
330
29
100
AcDbVisualStyle
  2
X-Ray
 70
    25
 71
     2
 72
     2
 73
     1
 90
        1
 40
0.5
 41
-30.0
 62
     5
 63
     7
 74
     1
 91
        0
 64
     7
 65
   257
 75
     1
175
     1
 42
1.0
 92
        8
 66
     7
 43
1.0
 76
     1
 77
     6
 78
     2
 67
     7
 79
     3
170
     0
171
     0
290
     0
174
     0
 93
       13
 44
0.0
173
     0
291
     0
 45
0.0
1001
ACAD
1000
AcDbSavedByObjectVersion
1070
     0
  0
DICTIONARYVAR
  5
DDE
102
{ACAD_REACTORS
330
DDA
102
}
330
DDA
100
DictionaryVariables
280
     0
  1
1:1
  0
DICTIONARYVAR
  5
DDC
102
{ACAD_REACTORS
330
DDA
102
}
330
DDA
100
DictionaryVariables
280
     0
  1
STANDARD
  0
DICTIONARYVAR
  5
DDB
102
{ACAD_REACTORS
330
DDA
102
}
330
DDA
100
DictionaryVariables
280
     0
  1
STANDARD
  0
DICTIONARYVAR
  5
DE5
102
{ACAD_REACTORS
330
DDA
102
}
330
DDA
100
DictionaryVariables
280
     0
  1
1
  0
DICTIONARYVAR
  5
DE4
102
{ACAD_REACTORS
330
DDA
102
}
330
DDA
100
DictionaryVariables
280
     0
  1
1
  0
DICTIONARYVAR
  5
DE3
102
{ACAD_REACTORS
330
DDA
102
}
330
DDA
100
DictionaryVariables
280
     0
  1
0
  0
DICTIONARYVAR
  5
DE0
102
{ACAD_REACTORS
330
DDA
102
}
330
DDA
100
DictionaryVariables
280
     0
  1
0
  0
DICTIONARYVAR
  5
DE1
102
{ACAD_REACTORS
330
DDA
102
}
330
DDA
100
DictionaryVariables
280
     0
  1
0
  0
DICTIONARYVAR
  5
DDF
102
{ACAD_REACTORS
330
DDA
102
}
330
DDA
100
DictionaryVariables
280
     0
  1
2
  0
DICTIONARYVAR
  5
DDD
102
{ACAD_REACTORS
330
DDA
102
}
330
DDA
100
DictionaryVariables
280
     0
  1
1
  0
DICTIONARYVAR
  5
DE2
102
{ACAD_REACTORS
330
DDA
102
}
330
DDA
100
DictionaryVariables
280
     0
  1
127
  0
DICTIONARYVAR
  5
FDD
102
{ACAD_REACTORS
330
DDA
102
}
330
DDA
100
DictionaryVariables
280
     0
  1
2
  0
DICTIONARY
  5
1021
330
6B
100
AcDbDictionary
280
     1
281
     1
  3
ACAD_XREC_ROUNDTRIP
360
1022
  0
DICTIONARY
  5
1025
330
73
100
AcDbDictionary
280
     1
281
     1
  3
ACAD_XREC_ROUNDTRIP
360
1026
  0
DICTIONARY
  5
1023
330
6F
100
AcDbDictionary
280
     1
281
     1
  3
ACAD_XREC_ROUNDTRIP
360
1024
  0
DICTIONARY
  5
1A
330
19
100
AcDbDictionary
280
     1
281
     1
  3
ACAD_XREC_ROUNDTRIP
360
FEE
  3
BUMPTILE
360
1C
  3
DIFFUSETILE
360
1B
  3
OPACITYTILE
360
1F
  3
REFLECTIONTILE
360
1E
  3
REFRACTIONTILE
360
20
  3
SPECULARTILE
360
1D
  0
DICTIONARY
  5
12
330
11
100
AcDbDictionary
280
     1
281
     1
  3
ACAD_XREC_ROUNDTRIP
360
FED
  3
BUMPTILE
360
14
  3
DIFFUSETILE
360
13
  3
OPACITYTILE
360
17
  3
REFLECTIONTILE
360
16
  3
REFRACTIONTILE
360
18
  3
SPECULARTILE
360
15
  0
DICTIONARY
  5
22
330
21
100
AcDbDictionary
280
     1
281
     1
  3
ACAD_XREC_ROUNDTRIP
360
FEF
  3
BUMPTILE
360
24
  3
DIFFUSETILE
360
23
  3
OPACITYTILE
360
27
  3
REFLECTIONTILE
360
26
  3
REFRACTIONTILE
360
28
  3
SPECULARTILE
360
25
  0
DICTIONARY
  5
D83
330
65
100
AcDbDictionary
280
     1
281
     1
  3
ACAD_ROUNDTRIP_2008_TABLESTYLE_CELLSTYLEMAP
360
FDE
  3
ACAD_XREC_ROUNDTRIP
360
1020
  0
DICTIONARY
  5
FFA
330
2F
100
AcDbDictionary
280
     1
281
     1
  3
ACAD_XREC_ROUNDTRIP
360
FFB
  0
DICTIONARY
  5
FF8
330
2E
100
AcDbDictionary
280
     1
281
     1
  3
ACAD_XREC_ROUNDTRIP
360
FF9
  0
DICTIONARY
  5
1006
330
35
100
AcDbDictionary
280
     1
281
     1
  3
ACAD_XREC_ROUNDTRIP
360
1007
  0
DICTIONARY
  5
100E
330
39
100
AcDbDictionary
280
     1
281
     1
  3
ACAD_XREC_ROUNDTRIP
360
100F
  0
DICTIONARY
  5
1000
330
32
100
AcDbDictionary
280
     1
281
     1
  3
ACAD_XREC_ROUNDTRIP
360
1001
  0
DICTIONARY
  5
1004
330
34
100
AcDbDictionary
280
     1
281
     1
  3
ACAD_XREC_ROUNDTRIP
360
1005
  0
DICTIONARY
  5
101E
330
41
100
AcDbDictionary
280
     1
281
     1
  3
ACAD_XREC_ROUNDTRIP
360
101F
  0
DICTIONARY
  5
100C
330
38
100
AcDbDictionary
280
     1
281
     1
  3
ACAD_XREC_ROUNDTRIP
360
100D
  0
DICTIONARY
  5
FF0
330
2A
100
AcDbDictionary
280
     1
281
     1
  3
ACAD_XREC_ROUNDTRIP
360
FF1
  0
DICTIONARY
  5
FF2
330
2B
100
AcDbDictionary
280
     1
281
     1
  3
ACAD_XREC_ROUNDTRIP
360
FF3
  0
DICTIONARY
  5
FF4
330
2C
100
AcDbDictionary
280
     1
281
     1
  3
ACAD_XREC_ROUNDTRIP
360
FF5
  0
DICTIONARY
  5
FF6
330
2D
100
AcDbDictionary
280
     1
281
     1
  3
ACAD_XREC_ROUNDTRIP
360
FF7
  0
DICTIONARY
  5
FFE
330
31
100
AcDbDictionary
280
     1
281
     1
  3
ACAD_XREC_ROUNDTRIP
360
FFF
  0
DICTIONARY
  5
101A
330
3F
100
AcDbDictionary
280
     1
281
     1
  3
ACAD_XREC_ROUNDTRIP
360
101B
  0
DICTIONARY
  5
100A
330
37
100
AcDbDictionary
280
     1
281
     1
  3
ACAD_XREC_ROUNDTRIP
360
100B
  0
DICTIONARY
  5
101C
330
40
100
AcDbDictionary
280
     1
281
     1
  3
ACAD_XREC_ROUNDTRIP
360
101D
  0
DICTIONARY
  5
1002
330
33
100
AcDbDictionary
280
     1
281
     1
  3
ACAD_XREC_ROUNDTRIP
360
1003
  0
DICTIONARY
  5
1018
330
3E
100
AcDbDictionary
280
     1
281
     1
  3
ACAD_XREC_ROUNDTRIP
360
1019
  0
DICTIONARY
  5
1016
330
3D
100
AcDbDictionary
280
     1
281
     1
  3
ACAD_XREC_ROUNDTRIP
360
1017
  0
DICTIONARY
  5
1010
330
3A
100
AcDbDictionary
280
     1
281
     1
  3
ACAD_XREC_ROUNDTRIP
360
1011
  0
DICTIONARY
  5
1012
330
3B
100
AcDbDictionary
280
     1
281
     1
  3
ACAD_XREC_ROUNDTRIP
360
1013
  0
DICTIONARY
  5
1008
330
36
100
AcDbDictionary
280
     1
281
     1
  3
ACAD_XREC_ROUNDTRIP
360
1009
  0
DICTIONARY
  5
FFC
330
30
100
AcDbDictionary
280
     1
281
     1
  3
ACAD_XREC_ROUNDTRIP
360
FFD
  0
DICTIONARY
  5
1014
330
3C
100
AcDbDictionary
280
     1
281
     1
  3
ACAD_XREC_ROUNDTRIP
360
1015
  0
XRECORD
  5
1022
102
{ACAD_REACTORS
330
1021
102
}
330
1021
100
AcDbXrecord
280
     1
102
SHADEPLOT
 70
     0
102
SHADEPLOTRESLEVEL
 70
     2
102
SHADEPLOTCUSTOMDPI
 70
   300
  0
XRECORD
  5
1026
102
{ACAD_REACTORS
330
1025
102
}
330
1025
100
AcDbXrecord
280
     1
102
SHADEPLOT
 70
     0
102
SHADEPLOTRESLEVEL
 70
     2
102
SHADEPLOTCUSTOMDPI
 70
   300
  0
XRECORD
  5
1024
102
{ACAD_REACTORS
330
1023
102
}
330
1023
100
AcDbXrecord
280
     1
102
SHADEPLOT
 70
     0
102
SHADEPLOTRESLEVEL
 70
     2
102
SHADEPLOTCUSTOMDPI
 70
   300
  0
XRECORD
  5
FEE
102
{ACAD_REACTORS
330
1A
102
}
330
1A
100
AcDbXrecord
280
     1
102
MATERIAL
148
0.0
149
0.0
149
0.0
 93
        0
 94
      127
282
     0
 72
     0
 77
     0
171
     0
175
     0
179
     0
273
     0
  0
XRECORD
  5
1C
102
{ACAD_REACTORS
330
1A
102
}
330
1A
100
AcDbXrecord
280
     1
270
     1
271
     1
  0
XRECORD
  5
1B
102
{ACAD_REACTORS
330
1A
102
}
330
1A
100
AcDbXrecord
280
     1
270
     1
271
     1
  0
XRECORD
  5
1F
102
{ACAD_REACTORS
330
1A
102
}
330
1A
100
AcDbXrecord
280
     1
270
     1
271
     1
  0
XRECORD
  5
1E
102
{ACAD_REACTORS
330
1A
102
}
330
1A
100
AcDbXrecord
280
     1
270
     1
271
     1
  0
XRECORD
  5
20
102
{ACAD_REACTORS
330
1A
102
}
330
1A
100
AcDbXrecord
280
     1
270
     1
271
     1
  0
XRECORD
  5
1D
102
{ACAD_REACTORS
330
1A
102
}
330
1A
100
AcDbXrecord
280
     1
270
     1
271
     1
  0
XRECORD
  5
FED
102
{ACAD_REACTORS
330
12
102
}
330
12
100
AcDbXrecord
280
     1
102
MATERIAL
148
0.0
149
0.0
149
0.0
 93
        0
 94
      127
282
     0
 72
     0
 77
     0
171
     0
175
     0
179
     0
273
     0
  0
XRECORD
  5
14
102
{ACAD_REACTORS
330
12
102
}
330
12
100
AcDbXrecord
280
     1
270
     1
271
     1
  0
XRECORD
  5
13
102
{ACAD_REACTORS
330
12
102
}
330
12
100
AcDbXrecord
280
     1
270
     1
271
     1
  0
XRECORD
  5
17
102
{ACAD_REACTORS
330
12
102
}
330
12
100
AcDbXrecord
280
     1
270
     1
271
     1
  0
XRECORD
  5
16
102
{ACAD_REACTORS
330
12
102
}
330
12
100
AcDbXrecord
280
     1
270
     1
271
     1
  0
XRECORD
  5
18
102
{ACAD_REACTORS
330
12
102
}
330
12
100
AcDbXrecord
280
     1
270
     1
271
     1
  0
XRECORD
  5
15
102
{ACAD_REACTORS
330
12
102
}
330
12
100
AcDbXrecord
280
     1
270
     1
271
     1
  0
XRECORD
  5
FEF
102
{ACAD_REACTORS
330
22
102
}
330
22
100
AcDbXrecord
280
     1
102
MATERIAL
148
0.0
149
0.0
149
0.0
 93
        0
 94
      127
282
     0
 72
     0
 77
     0
171
     0
175
     0
179
     0
273
     0
  0
XRECORD
  5
24
102
{ACAD_REACTORS
330
22
102
}
330
22
100
AcDbXrecord
280
     1
270
     1
271
     1
  0
XRECORD
  5
23
102
{ACAD_REACTORS
330
22
102
}
330
22
100
AcDbXrecord
280
     1
270
     1
271
     1
  0
XRECORD
  5
27
102
{ACAD_REACTORS
330
22
102
}
330
22
100
AcDbXrecord
280
     1
270
     1
271
     1
  0
XRECORD
  5
26
102
{ACAD_REACTORS
330
22
102
}
330
22
100
AcDbXrecord
280
     1
270
     1
271
     1
  0
XRECORD
  5
28
102
{ACAD_REACTORS
330
22
102
}
330
22
100
AcDbXrecord
280
     1
270
     1
271
     1
  0
XRECORD
  5
25
102
{ACAD_REACTORS
330
22
102
}
330
22
100
AcDbXrecord
280
     1
270
     1
271
     1
  0
CELLSTYLEMAP
  5
FDE
102
{ACAD_REACTORS
330
D83
102
}
330
D83
100
AcDbCellStyleMap
 90
        3
300
CELLSTYLE
  1
TABLEFORMAT_BEGIN
 90
        5
170
     1
 91
        0
 92
    32768
 62
   257
 93
        1
300
CONTENTFORMAT
  1
CONTENTFORMAT_BEGIN
 90
        0
 91
        0
 92
      512
 93
        0
300

 40
0.0
140
1.0
 94
        5
 62
     0
340
55
144
0.25
309
CONTENTFORMAT_END
171
     0
 94
        0
309
TABLEFORMAT_END
  1
CELLSTYLE_BEGIN
 90
        1
 91
        1
300
_TITLE
309
CELLSTYLE_END
300
CELLSTYLE
  1
TABLEFORMAT_BEGIN
 90
        5
170
     1
 91
        0
 92
        0
 62
   257
 93
        1
300
CONTENTFORMAT
  1
CONTENTFORMAT_BEGIN
 90
        0
 91
        0
 92
      512
 93
        0
300

 40
0.0
140
1.0
 94
        5
 62
     0
340
55
144
0.18
309
CONTENTFORMAT_END
171
     0
 94
        0
309
TABLEFORMAT_END
  1
CELLSTYLE_BEGIN
 90
        2
 91
        1
300
_HEADER
309
CELLSTYLE_END
300
CELLSTYLE
  1
TABLEFORMAT_BEGIN
 90
        5
170
     1
 91
        0
 92
        0
 62
   257
 93
        1
300
CONTENTFORMAT
  1
CONTENTFORMAT_BEGIN
 90
        0
 91
        0
 92
      512
 93
        0
300

 40
0.0
140
1.0
 94
        2
 62
     0
340
55
144
0.18
309
CONTENTFORMAT_END
171
     0
 94
        0
309
TABLEFORMAT_END
  1
CELLSTYLE_BEGIN
 90
        3
 91
        2
300
_DATA
309
CELLSTYLE_END
  0
XRECORD
  5
1020
102
{ACAD_REACTORS
330
D83
102
}
330
D83
100
AcDbXrecord
280
     1
102
ACAD_ROUNDTRIP_PRE2007_TABLESTYLE
 90
      512
 91
        0
  1

 92
      512
 93
        0
  2

 94
      512
 95
        0
  3

  0
XRECORD
  5
FFB
102
{ACAD_REACTORS
330
FFA
102
}
330
FFA
100
AcDbXrecord
280
     1
102
RTVSPropertyOp0
 70
     1
102
RTVSPropertyOp1
 70
     1
102
RTVSPropertyOp2
 70
     1
102
RTVSPropertyOp3
 70
     1
102
RTVSPropertyOp4
 70
     1
102
RTVSPropertyOp5
 70
     1
102
RTVSPropertyOp6
 70
     1
102
RTVSPropertyOp7
 70
     1
102
RTVSPropertyOp8
 70
     1
102
RTVSPropertyOp9
 70
     1
102
RTVSPropertyOp10
 70
     1
102
RTVSPropertyOp11
 70
     1
102
RTVSPropertyOp12
 70
     1
102
RTVSPropertyOp13
 70
     1
102
RTVSPropertyOp14
 70
     1
102
RTVSPropertyOp15
 70
     1
102
RTVSPropertyOp16
 70
     1
102
RTVSPropertyOp17
 70
     1
102
RTVSPropertyOp18
 70
     1
102
RTVSPropertyOp19
 70
     1
102
RTVSPropertyOp20
 70
     1
102
RTVSPropertyOp21
 70
     1
102
RTVSPropertyOp22
 70
     1
102
RTVSPropertyOp23
 70
     1
102
RTVSPropertyOp24
 70
     1
102
RTVSPropertyOp25
 70
     1
102
RTVSPropertyOp26
 70
     1
102
RTVSPropertyOp27
 70
     1
102
RTVSPropertyOp28
 70
     1
102
RTVSPropertyOp29
 70
     1
102
RTVSPropertyOp30
 70
     1
102
RTVSPropertyOp31
 70
     1
102
RTVSPropertyOp32
 70
     1
  0
XRECORD
  5
FF9
102
{ACAD_REACTORS
330
FF8
102
}
330
FF8
100
AcDbXrecord
280
     1
102
RTVSPropertyOp0
 70
     1
102
RTVSPropertyOp1
 70
     1
102
RTVSPropertyOp2
 70
     1
102
RTVSPropertyOp3
 70
     1
102
RTVSPropertyOp4
 70
     1
102
RTVSPropertyOp5
 70
     1
102
RTVSPropertyOp6
 70
     1
102
RTVSPropertyOp7
 70
     1
102
RTVSPropertyOp8
 70
     1
102
RTVSPropertyOp9
 70
     1
102
RTVSPropertyOp10
 70
     1
102
RTVSPropertyOp11
 70
     1
102
RTVSPropertyOp12
 70
     1
102
RTVSPropertyOp13
 70
     1
102
RTVSPropertyOp14
 70
     1
102
RTVSPropertyOp15
 70
     1
102
RTVSPropertyOp16
 70
     1
102
RTVSPropertyOp17
 70
     1
102
RTVSPropertyOp18
 70
     1
102
RTVSPropertyOp19
 70
     1
102
RTVSPropertyOp20
 70
     1
102
RTVSPropertyOp21
 70
     1
102
RTVSPropertyOp22
 70
     1
102
RTVSPropertyOp23
 70
     1
102
RTVSPropertyOp24
 70
     1
102
RTVSPropertyOp25
 70
     1
102
RTVSPropertyOp26
 70
     1
102
RTVSPropertyOp27
 70
     1
102
RTVSPropertyOp28
 70
     1
102
RTVSPropertyOp29
 70
     1
102
RTVSPropertyOp30
 70
     1
102
RTVSPropertyOp31
 70
     1
102
RTVSPropertyOp32
 70
     1
  0
XRECORD
  5
1007
102
{ACAD_REACTORS
330
1006
102
}
330
1006
100
AcDbXrecord
280
     1
102
RTVSPropertyOp0
 70
     1
102
RTVSPropertyOp1
 70
     1
102
RTVSPropertyOp2
 70
     1
102
RTVSPropertyOp3
 70
     1
102
RTVSPropertyOp4
 70
     1
102
RTVSPropertyOp5
 70
     1
102
RTVSPropertyOp6
 70
     1
102
RTVSPropertyOp7
 70
     1
102
RTVSPropertyOp8
 70
     1
102
RTVSPropertyOp9
 70
     1
102
RTVSPropertyOp10
 70
     1
102
RTVSPropertyOp11
 70
     1
102
RTVSPropertyOp12
 70
     1
102
RTVSPropertyOp13
 70
     1
102
RTVSPropertyOp14
 70
     1
102
RTVSPropertyOp15
 70
     1
102
RTVSPropertyOp16
 70
     1
102
RTVSPropertyOp17
 70
     1
102
RTVSPropertyOp18
 70
     1
102
RTVSPropertyOp19
 70
     1
102
RTVSPropertyOp20
 70
     1
102
RTVSPropertyOp21
 70
     1
102
RTVSPropertyOp22
 70
     1
102
RTVSPropertyOp23
 70
     1
102
RTVSPropertyOp24
 70
     1
102
RTVSPropertyOp25
 70
     1
102
RTVSPropertyOp26
 70
     1
102
RTVSPropertyOp27
 70
     1
102
RTVSPropertyOp28
 70
     1
102
RTVSPropertyOp29
 70
     1
102
RTVSPropertyOp30
 70
     1
102
RTVSPropertyOp31
 70
     1
102
RTVSPropertyOp32
 70
     1
  0
XRECORD
  5
100F
102
{ACAD_REACTORS
330
100E
102
}
330
100E
100
AcDbXrecord
280
     1
102
RTVSPropertyOp0
 70
     1
102
RTVSPropertyOp1
 70
     1
102
RTVSPropertyOp2
 70
     1
102
RTVSPropertyOp3
 70
     1
102
RTVSPropertyOp4
 70
     1
102
RTVSPropertyOp5
 70
     1
102
RTVSPropertyOp6
 70
     1
102
RTVSPropertyOp7
 70
     1
102
RTVSPropertyOp8
 70
     1
102
RTVSPropertyOp9
 70
     1
102
RTVSPropertyOp10
 70
     1
102
RTVSPropertyOp11
 70
     1
102
RTVSPropertyOp12
 70
     1
102
RTVSPropertyOp13
 70
     1
102
RTVSPropertyOp14
 70
     1
102
RTVSPropertyOp15
 70
     1
102
RTVSPropertyOp16
 70
     1
102
RTVSPropertyOp17
 70
     1
102
RTVSPropertyOp18
 70
     1
102
RTVSPropertyOp19
 70
     1
102
RTVSPropertyOp20
 70
     1
102
RTVSPropertyOp21
 70
     1
102
RTVSPropertyOp22
 70
     1
102
RTVSPropertyOp23
 70
     1
102
RTVSPropertyOp24
 70
     1
102
RTVSPropertyOp25
 70
     1
102
RTVSPropertyOp26
 70
     1
102
RTVSPropertyOp27
 70
     1
102
RTVSPropertyOp28
 70
     1
102
RTVSPropertyOp29
 70
     1
102
RTVSPropertyOp30
 70
     1
102
RTVSPropertyOp31
 70
     1
102
RTVSPropertyOp32
 70
     1
  0
XRECORD
  5
1001
102
{ACAD_REACTORS
330
1000
102
}
330
1000
100
AcDbXrecord
280
     1
102
RTVSPropertyOp0
 70
     1
102
RTVSPropertyOp1
 70
     1
102
RTVSPropertyOp2
 70
     1
102
RTVSPropertyOp3
 70
     1
102
RTVSPropertyOp4
 70
     1
102
RTVSPropertyOp5
 70
     1
102
RTVSPropertyOp6
 70
     1
102
RTVSPropertyOp7
 70
     1
102
RTVSPropertyOp8
 70
     1
102
RTVSPropertyOp9
 70
     1
102
RTVSPropertyOp10
 70
     1
102
RTVSPropertyOp11
 70
     1
102
RTVSPropertyOp12
 70
     1
102
RTVSPropertyOp13
 70
     1
102
RTVSPropertyOp14
 70
     1
102
RTVSPropertyOp15
 70
     1
102
RTVSPropertyOp16
 70
     1
102
RTVSPropertyOp17
 70
     1
102
RTVSPropertyOp18
 70
     1
102
RTVSPropertyOp19
 70
     1
102
RTVSPropertyOp20
 70
     1
102
RTVSPropertyOp21
 70
     1
102
RTVSPropertyOp22
 70
     1
102
RTVSPropertyOp23
 70
     1
102
RTVSPropertyOp24
 70
     1
102
RTVSPropertyOp25
 70
     1
102
RTVSPropertyOp26
 70
     1
102
RTVSPropertyOp27
 70
     1
102
RTVSPropertyOp28
 70
     1
102
RTVSPropertyOp29
 70
     1
102
RTVSPropertyOp30
 70
     1
102
RTVSPropertyOp31
 70
     1
102
RTVSPropertyOp32
 70
     1
  0
XRECORD
  5
1005
102
{ACAD_REACTORS
330
1004
102
}
330
1004
100
AcDbXrecord
280
     1
102
RTVSPropertyOp0
 70
     1
102
RTVSPropertyOp1
 70
     1
102
RTVSPropertyOp2
 70
     1
102
RTVSPropertyOp3
 70
     1
102
RTVSPropertyOp4
 70
     1
102
RTVSPropertyOp5
 70
     1
102
RTVSPropertyOp6
 70
     1
102
RTVSPropertyOp7
 70
     1
102
RTVSPropertyOp8
 70
     1
102
RTVSPropertyOp9
 70
     1
102
RTVSPropertyOp10
 70
     1
102
RTVSPropertyOp11
 70
     1
102
RTVSPropertyOp12
 70
     1
102
RTVSPropertyOp13
 70
     1
102
RTVSPropertyOp14
 70
     1
102
RTVSPropertyOp15
 70
     1
102
RTVSPropertyOp16
 70
     1
102
RTVSPropertyOp17
 70
     1
102
RTVSPropertyOp18
 70
     1
102
RTVSPropertyOp19
 70
     1
102
RTVSPropertyOp20
 70
     1
102
RTVSPropertyOp21
 70
     1
102
RTVSPropertyOp22
 70
     1
102
RTVSPropertyOp23
 70
     1
102
RTVSPropertyOp24
 70
     1
102
RTVSPropertyOp25
 70
     1
102
RTVSPropertyOp26
 70
     1
102
RTVSPropertyOp27
 70
     1
102
RTVSPropertyOp28
 70
     1
102
RTVSPropertyOp29
 70
     1
102
RTVSPropertyOp30
 70
     1
102
RTVSPropertyOp31
 70
     1
102
RTVSPropertyOp32
 70
     1
  0
XRECORD
  5
101F
102
{ACAD_REACTORS
330
101E
102
}
330
101E
100
AcDbXrecord
280
     1
102
RTVSPropertyOp0
 70
     0
102
RTVSPropertyOp1
 70
     0
102
RTVSPropertyOp2
 70
     0
102
RTVSPropertyOp3
 70
     0
102
RTVSPropertyOp4
 70
     0
102
RTVSPropertyOp5
 70
     0
102
RTVSPropertyOp6
 70
     0
102
RTVSPropertyOp7
 70
     0
102
RTVSPropertyOp8
 70
     0
102
RTVSPropertyOp9
 70
     0
102
RTVSPropertyOp10
 70
     0
102
RTVSPropertyOp11
 70
     0
102
RTVSPropertyOp12
 70
     0
102
RTVSPropertyOp13
 70
     0
102
RTVSPropertyOp14
 70
     2
102
RTVSPropertyOp15
 70
     0
102
RTVSPropertyOp16
 70
     0
102
RTVSPropertyOp17
 70
     0
102
RTVSPropertyOp18
 70
     0
102
RTVSPropertyOp19
 70
     0
102
RTVSPropertyOp20
 70
     0
102
RTVSPropertyOp21
 70
     0
102
RTVSPropertyOp22
 70
     0
102
RTVSPropertyOp23
 70
     0
102
RTVSPropertyOp24
 70
     0
102
RTVSPropertyOp25
 70
     0
102
RTVSPropertyOp26
 70
     0
102
RTVSPropertyOp27
 70
     0
102
RTVSPropertyOp28
 70
     0
102
RTVSPropertyOp29
 70
     0
102
RTVSPropertyOp30
 70
     0
102
RTVSPropertyOp31
 70
     0
102
RTVSPropertyOp32
 70
     0
  0
XRECORD
  5
100D
102
{ACAD_REACTORS
330
100C
102
}
330
100C
100
AcDbXrecord
280
     1
102
RTVSPropertyOp0
 70
     1
102
RTVSPropertyOp1
 70
     1
102
RTVSPropertyOp2
 70
     1
102
RTVSPropertyOp3
 70
     1
102
RTVSPropertyOp4
 70
     1
102
RTVSPropertyOp5
 70
     1
102
RTVSPropertyOp6
 70
     1
102
RTVSPropertyOp7
 70
     1
102
RTVSPropertyOp8
 70
     1
102
RTVSPropertyOp9
 70
     1
102
RTVSPropertyOp10
 70
     1
102
RTVSPropertyOp11
 70
     1
102
RTVSPropertyOp12
 70
     1
102
RTVSPropertyOp13
 70
     1
102
RTVSPropertyOp14
 70
     1
102
RTVSPropertyOp15
 70
     1
102
RTVSPropertyOp16
 70
     1
102
RTVSPropertyOp17
 70
     1
102
RTVSPropertyOp18
 70
     1
102
RTVSPropertyOp19
 70
     1
102
RTVSPropertyOp20
 70
     1
102
RTVSPropertyOp21
 70
     1
102
RTVSPropertyOp22
 70
     1
102
RTVSPropertyOp23
 70
     1
102
RTVSPropertyOp24
 70
     1
102
RTVSPropertyOp25
 70
     1
102
RTVSPropertyOp26
 70
     1
102
RTVSPropertyOp27
 70
     1
102
RTVSPropertyOp28
 70
     1
102
RTVSPropertyOp29
 70
     1
102
RTVSPropertyOp30
 70
     1
102
RTVSPropertyOp31
 70
     1
102
RTVSPropertyOp32
 70
     1
  0
XRECORD
  5
FF1
102
{ACAD_REACTORS
330
FF0
102
}
330
FF0
100
AcDbXrecord
280
     1
102
RTVSPropertyOp0
 70
     1
102
RTVSPropertyOp1
 70
     1
102
RTVSPropertyOp2
 70
     1
102
RTVSPropertyOp3
 70
     1
102
RTVSPropertyOp4
 70
     1
102
RTVSPropertyOp5
 70
     1
102
RTVSPropertyOp6
 70
     1
102
RTVSPropertyOp7
 70
     1
102
RTVSPropertyOp8
 70
     1
102
RTVSPropertyOp9
 70
     1
102
RTVSPropertyOp10
 70
     1
102
RTVSPropertyOp11
 70
     1
102
RTVSPropertyOp12
 70
     1
102
RTVSPropertyOp13
 70
     1
102
RTVSPropertyOp14
 70
     1
102
RTVSPropertyOp15
 70
     1
102
RTVSPropertyOp16
 70
     1
102
RTVSPropertyOp17
 70
     1
102
RTVSPropertyOp18
 70
     1
102
RTVSPropertyOp19
 70
     1
102
RTVSPropertyOp20
 70
     1
102
RTVSPropertyOp21
 70
     1
102
RTVSPropertyOp22
 70
     1
102
RTVSPropertyOp23
 70
     1
102
RTVSPropertyOp24
 70
     1
102
RTVSPropertyOp25
 70
     1
102
RTVSPropertyOp26
 70
     1
102
RTVSPropertyOp27
 70
     1
102
RTVSPropertyOp28
 70
     1
102
RTVSPropertyOp29
 70
     1
102
RTVSPropertyOp30
 70
     1
102
RTVSPropertyOp31
 70
     1
102
RTVSPropertyOp32
 70
     1
  0
XRECORD
  5
FF3
102
{ACAD_REACTORS
330
FF2
102
}
330
FF2
100
AcDbXrecord
280
     1
102
RTVSPropertyOp0
 70
     1
102
RTVSPropertyOp1
 70
     1
102
RTVSPropertyOp2
 70
     1
102
RTVSPropertyOp3
 70
     1
102
RTVSPropertyOp4
 70
     1
102
RTVSPropertyOp5
 70
     1
102
RTVSPropertyOp6
 70
     1
102
RTVSPropertyOp7
 70
     1
102
RTVSPropertyOp8
 70
     1
102
RTVSPropertyOp9
 70
     1
102
RTVSPropertyOp10
 70
     1
102
RTVSPropertyOp11
 70
     1
102
RTVSPropertyOp12
 70
     1
102
RTVSPropertyOp13
 70
     1
102
RTVSPropertyOp14
 70
     1
102
RTVSPropertyOp15
 70
     1
102
RTVSPropertyOp16
 70
     1
102
RTVSPropertyOp17
 70
     1
102
RTVSPropertyOp18
 70
     1
102
RTVSPropertyOp19
 70
     1
102
RTVSPropertyOp20
 70
     1
102
RTVSPropertyOp21
 70
     1
102
RTVSPropertyOp22
 70
     1
102
RTVSPropertyOp23
 70
     1
102
RTVSPropertyOp24
 70
     1
102
RTVSPropertyOp25
 70
     1
102
RTVSPropertyOp26
 70
     1
102
RTVSPropertyOp27
 70
     1
102
RTVSPropertyOp28
 70
     1
102
RTVSPropertyOp29
 70
     1
102
RTVSPropertyOp30
 70
     1
102
RTVSPropertyOp31
 70
     1
102
RTVSPropertyOp32
 70
     1
  0
XRECORD
  5
FF5
102
{ACAD_REACTORS
330
FF4
102
}
330
FF4
100
AcDbXrecord
280
     1
102
RTVSPropertyOp0
 70
     1
102
RTVSPropertyOp1
 70
     1
102
RTVSPropertyOp2
 70
     1
102
RTVSPropertyOp3
 70
     1
102
RTVSPropertyOp4
 70
     1
102
RTVSPropertyOp5
 70
     1
102
RTVSPropertyOp6
 70
     1
102
RTVSPropertyOp7
 70
     1
102
RTVSPropertyOp8
 70
     1
102
RTVSPropertyOp9
 70
     1
102
RTVSPropertyOp10
 70
     1
102
RTVSPropertyOp11
 70
     1
102
RTVSPropertyOp12
 70
     1
102
RTVSPropertyOp13
 70
     1
102
RTVSPropertyOp14
 70
     1
102
RTVSPropertyOp15
 70
     1
102
RTVSPropertyOp16
 70
     1
102
RTVSPropertyOp17
 70
     1
102
RTVSPropertyOp18
 70
     1
102
RTVSPropertyOp19
 70
     1
102
RTVSPropertyOp20
 70
     1
102
RTVSPropertyOp21
 70
     1
102
RTVSPropertyOp22
 70
     1
102
RTVSPropertyOp23
 70
     1
102
RTVSPropertyOp24
 70
     1
102
RTVSPropertyOp25
 70
     1
102
RTVSPropertyOp26
 70
     1
102
RTVSPropertyOp27
 70
     1
102
RTVSPropertyOp28
 70
     1
102
RTVSPropertyOp29
 70
     1
102
RTVSPropertyOp30
 70
     1
102
RTVSPropertyOp31
 70
     1
102
RTVSPropertyOp32
 70
     1
  0
XRECORD
  5
FF7
102
{ACAD_REACTORS
330
FF6
102
}
330
FF6
100
AcDbXrecord
280
     1
102
RTVSPropertyOp0
 70
     1
102
RTVSPropertyOp1
 70
     1
102
RTVSPropertyOp2
 70
     1
102
RTVSPropertyOp3
 70
     1
102
RTVSPropertyOp4
 70
     1
102
RTVSPropertyOp5
 70
     1
102
RTVSPropertyOp6
 70
     1
102
RTVSPropertyOp7
 70
     1
102
RTVSPropertyOp8
 70
     1
102
RTVSPropertyOp9
 70
     1
102
RTVSPropertyOp10
 70
     1
102
RTVSPropertyOp11
 70
     1
102
RTVSPropertyOp12
 70
     1
102
RTVSPropertyOp13
 70
     1
102
RTVSPropertyOp14
 70
     1
102
RTVSPropertyOp15
 70
     1
102
RTVSPropertyOp16
 70
     1
102
RTVSPropertyOp17
 70
     1
102
RTVSPropertyOp18
 70
     1
102
RTVSPropertyOp19
 70
     1
102
RTVSPropertyOp20
 70
     1
102
RTVSPropertyOp21
 70
     1
102
RTVSPropertyOp22
 70
     1
102
RTVSPropertyOp23
 70
     1
102
RTVSPropertyOp24
 70
     1
102
RTVSPropertyOp25
 70
     1
102
RTVSPropertyOp26
 70
     1
102
RTVSPropertyOp27
 70
     1
102
RTVSPropertyOp28
 70
     1
102
RTVSPropertyOp29
 70
     1
102
RTVSPropertyOp30
 70
     1
102
RTVSPropertyOp31
 70
     1
102
RTVSPropertyOp32
 70
     1
  0
XRECORD
  5
FFF
102
{ACAD_REACTORS
330
FFE
102
}
330
FFE
100
AcDbXrecord
280
     1
102
RTVSPropertyOp0
 70
     1
102
RTVSPropertyOp1
 70
     1
102
RTVSPropertyOp2
 70
     1
102
RTVSPropertyOp3
 70
     1
102
RTVSPropertyOp4
 70
     1
102
RTVSPropertyOp5
 70
     1
102
RTVSPropertyOp6
 70
     1
102
RTVSPropertyOp7
 70
     1
102
RTVSPropertyOp8
 70
     1
102
RTVSPropertyOp9
 70
     1
102
RTVSPropertyOp10
 70
     1
102
RTVSPropertyOp11
 70
     1
102
RTVSPropertyOp12
 70
     1
102
RTVSPropertyOp13
 70
     1
102
RTVSPropertyOp14
 70
     1
102
RTVSPropertyOp15
 70
     1
102
RTVSPropertyOp16
 70
     1
102
RTVSPropertyOp17
 70
     1
102
RTVSPropertyOp18
 70
     1
102
RTVSPropertyOp19
 70
     1
102
RTVSPropertyOp20
 70
     1
102
RTVSPropertyOp21
 70
     1
102
RTVSPropertyOp22
 70
     1
102
RTVSPropertyOp23
 70
     1
102
RTVSPropertyOp24
 70
     1
102
RTVSPropertyOp25
 70
     1
102
RTVSPropertyOp26
 70
     1
102
RTVSPropertyOp27
 70
     1
102
RTVSPropertyOp28
 70
     1
102
RTVSPropertyOp29
 70
     1
102
RTVSPropertyOp30
 70
     1
102
RTVSPropertyOp31
 70
     1
102
RTVSPropertyOp32
 70
     1
  0
XRECORD
  5
101B
102
{ACAD_REACTORS
330
101A
102
}
330
101A
100
AcDbXrecord
280
     1
102
RTVSPropertyOp0
 70
     0
102
RTVSPropertyOp1
 70
     0
102
RTVSPropertyOp2
 70
     0
102
RTVSPropertyOp3
 70
     0
102
RTVSPropertyOp4
 70
     0
102
RTVSPropertyOp5
 70
     0
102
RTVSPropertyOp6
 70
     0
102
RTVSPropertyOp7
 70
     0
102
RTVSPropertyOp8
 70
     0
102
RTVSPropertyOp9
 70
     0
102
RTVSPropertyOp10
 70
     0
102
RTVSPropertyOp11
 70
     0
102
RTVSPropertyOp12
 70
     0
102
RTVSPropertyOp13
 70
     0
102
RTVSPropertyOp14
 70
     2
102
RTVSPropertyOp15
 70
     0
102
RTVSPropertyOp16
 70
     0
102
RTVSPropertyOp17
 70
     0
102
RTVSPropertyOp18
 70
     0
102
RTVSPropertyOp19
 70
     0
102
RTVSPropertyOp20
 70
     0
102
RTVSPropertyOp21
 70
     0
102
RTVSPropertyOp22
 70
     0
102
RTVSPropertyOp23
 70
     0
102
RTVSPropertyOp24
 70
     0
102
RTVSPropertyOp25
 70
     0
102
RTVSPropertyOp26
 70
     0
102
RTVSPropertyOp27
 70
     0
102
RTVSPropertyOp28
 70
     0
102
RTVSPropertyOp29
 70
     0
102
RTVSPropertyOp30
 70
     0
102
RTVSPropertyOp31
 70
     0
102
RTVSPropertyOp32
 70
     0
  0
XRECORD
  5
100B
102
{ACAD_REACTORS
330
100A
102
}
330
100A
100
AcDbXrecord
280
     1
102
RTVSPropertyOp0
 70
     1
102
RTVSPropertyOp1
 70
     1
102
RTVSPropertyOp2
 70
     1
102
RTVSPropertyOp3
 70
     1
102
RTVSPropertyOp4
 70
     1
102
RTVSPropertyOp5
 70
     1
102
RTVSPropertyOp6
 70
     1
102
RTVSPropertyOp7
 70
     1
102
RTVSPropertyOp8
 70
     1
102
RTVSPropertyOp9
 70
     1
102
RTVSPropertyOp10
 70
     1
102
RTVSPropertyOp11
 70
     1
102
RTVSPropertyOp12
 70
     1
102
RTVSPropertyOp13
 70
     1
102
RTVSPropertyOp14
 70
     1
102
RTVSPropertyOp15
 70
     1
102
RTVSPropertyOp16
 70
     1
102
RTVSPropertyOp17
 70
     1
102
RTVSPropertyOp18
 70
     1
102
RTVSPropertyOp19
 70
     1
102
RTVSPropertyOp20
 70
     1
102
RTVSPropertyOp21
 70
     1
102
RTVSPropertyOp22
 70
     1
102
RTVSPropertyOp23
 70
     1
102
RTVSPropertyOp24
 70
     1
102
RTVSPropertyOp25
 70
     1
102
RTVSPropertyOp26
 70
     1
102
RTVSPropertyOp27
 70
     1
102
RTVSPropertyOp28
 70
     1
102
RTVSPropertyOp29
 70
     1
102
RTVSPropertyOp30
 70
     1
102
RTVSPropertyOp31
 70
     1
102
RTVSPropertyOp32
 70
     1
  0
XRECORD
  5
101D
102
{ACAD_REACTORS
330
101C
102
}
330
101C
100
AcDbXrecord
280
     1
102
RTVSPropertyOp0
 70
     0
102
RTVSPropertyOp1
 70
     0
102
RTVSPropertyOp2
 70
     0
102
RTVSPropertyOp3
 70
     0
102
RTVSPropertyOp4
 70
     0
102
RTVSPropertyOp5
 70
     0
102
RTVSPropertyOp6
 70
     0
102
RTVSPropertyOp7
 70
     0
102
RTVSPropertyOp8
 70
     0
102
RTVSPropertyOp9
 70
     0
102
RTVSPropertyOp10
 70
     0
102
RTVSPropertyOp11
 70
     0
102
RTVSPropertyOp12
 70
     0
102
RTVSPropertyOp13
 70
     0
102
RTVSPropertyOp14
 70
     2
102
RTVSPropertyOp15
 70
     0
102
RTVSPropertyOp16
 70
     0
102
RTVSPropertyOp17
 70
     0
102
RTVSPropertyOp18
 70
     0
102
RTVSPropertyOp19
 70
     0
102
RTVSPropertyOp20
 70
     0
102
RTVSPropertyOp21
 70
     0
102
RTVSPropertyOp22
 70
     0
102
RTVSPropertyOp23
 70
     0
102
RTVSPropertyOp24
 70
     0
102
RTVSPropertyOp25
 70
     0
102
RTVSPropertyOp26
 70
     0
102
RTVSPropertyOp27
 70
     0
102
RTVSPropertyOp28
 70
     0
102
RTVSPropertyOp29
 70
     0
102
RTVSPropertyOp30
 70
     0
102
RTVSPropertyOp31
 70
     0
102
RTVSPropertyOp32
 70
     0
  0
XRECORD
  5
1003
102
{ACAD_REACTORS
330
1002
102
}
330
1002
100
AcDbXrecord
280
     1
102
RTVSPropertyOp0
 70
     1
102
RTVSPropertyOp1
 70
     1
102
RTVSPropertyOp2
 70
     1
102
RTVSPropertyOp3
 70
     1
102
RTVSPropertyOp4
 70
     1
102
RTVSPropertyOp5
 70
     1
102
RTVSPropertyOp6
 70
     1
102
RTVSPropertyOp7
 70
     1
102
RTVSPropertyOp8
 70
     1
102
RTVSPropertyOp9
 70
     1
102
RTVSPropertyOp10
 70
     1
102
RTVSPropertyOp11
 70
     1
102
RTVSPropertyOp12
 70
     1
102
RTVSPropertyOp13
 70
     1
102
RTVSPropertyOp14
 70
     1
102
RTVSPropertyOp15
 70
     1
102
RTVSPropertyOp16
 70
     1
102
RTVSPropertyOp17
 70
     1
102
RTVSPropertyOp18
 70
     1
102
RTVSPropertyOp19
 70
     1
102
RTVSPropertyOp20
 70
     1
102
RTVSPropertyOp21
 70
     1
102
RTVSPropertyOp22
 70
     1
102
RTVSPropertyOp23
 70
     1
102
RTVSPropertyOp24
 70
     1
102
RTVSPropertyOp25
 70
     1
102
RTVSPropertyOp26
 70
     1
102
RTVSPropertyOp27
 70
     1
102
RTVSPropertyOp28
 70
     1
102
RTVSPropertyOp29
 70
     1
102
RTVSPropertyOp30
 70
     1
102
RTVSPropertyOp31
 70
     1
102
RTVSPropertyOp32
 70
     1
  0
XRECORD
  5
1019
102
{ACAD_REACTORS
330
1018
102
}
330
1018
100
AcDbXrecord
280
     1
102
RTVSPropertyOp0
 70
     1
102
RTVSPropertyOp1
 70
     1
102
RTVSPropertyOp2
 70
     1
102
RTVSPropertyOp3
 70
     1
102
RTVSPropertyOp4
 70
     1
102
RTVSPropertyOp5
 70
     1
102
RTVSPropertyOp6
 70
     1
102
RTVSPropertyOp7
 70
     1
102
RTVSPropertyOp8
 70
     1
102
RTVSPropertyOp9
 70
     1
102
RTVSPropertyOp10
 70
     1
102
RTVSPropertyOp11
 70
     1
102
RTVSPropertyOp12
 70
     1
102
RTVSPropertyOp13
 70
     1
102
RTVSPropertyOp14
 70
     1
102
RTVSPropertyOp15
 70
     1
102
RTVSPropertyOp16
 70
     1
102
RTVSPropertyOp17
 70
     1
102
RTVSPropertyOp18
 70
     1
102
RTVSPropertyOp19
 70
     1
102
RTVSPropertyOp20
 70
     1
102
RTVSPropertyOp21
 70
     1
102
RTVSPropertyOp22
 70
     1
102
RTVSPropertyOp23
 70
     1
102
RTVSPropertyOp24
 70
     1
102
RTVSPropertyOp25
 70
     1
102
RTVSPropertyOp26
 70
     1
102
RTVSPropertyOp27
 70
     1
102
RTVSPropertyOp28
 70
     1
102
RTVSPropertyOp29
 70
     1
102
RTVSPropertyOp30
 70
     1
102
RTVSPropertyOp31
 70
     1
102
RTVSPropertyOp32
 70
     1
  0
XRECORD
  5
1017
102
{ACAD_REACTORS
330
1016
102
}
330
1016
100
AcDbXrecord
280
     1
102
RTVSPropertyOp0
 70
     1
102
RTVSPropertyOp1
 70
     1
102
RTVSPropertyOp2
 70
     1
102
RTVSPropertyOp3
 70
     1
102
RTVSPropertyOp4
 70
     1
102
RTVSPropertyOp5
 70
     1
102
RTVSPropertyOp6
 70
     1
102
RTVSPropertyOp7
 70
     1
102
RTVSPropertyOp8
 70
     1
102
RTVSPropertyOp9
 70
     1
102
RTVSPropertyOp10
 70
     1
102
RTVSPropertyOp11
 70
     1
102
RTVSPropertyOp12
 70
     1
102
RTVSPropertyOp13
 70
     1
102
RTVSPropertyOp14
 70
     1
102
RTVSPropertyOp15
 70
     1
102
RTVSPropertyOp16
 70
     1
102
RTVSPropertyOp17
 70
     1
102
RTVSPropertyOp18
 70
     1
102
RTVSPropertyOp19
 70
     1
102
RTVSPropertyOp20
 70
     1
102
RTVSPropertyOp21
 70
     1
102
RTVSPropertyOp22
 70
     1
102
RTVSPropertyOp23
 70
     1
102
RTVSPropertyOp24
 70
     1
102
RTVSPropertyOp25
 70
     1
102
RTVSPropertyOp26
 70
     1
102
RTVSPropertyOp27
 70
     1
102
RTVSPropertyOp28
 70
     1
102
RTVSPropertyOp29
 70
     1
102
RTVSPropertyOp30
 70
     1
102
RTVSPropertyOp31
 70
     1
102
RTVSPropertyOp32
 70
     1
  0
XRECORD
  5
1011
102
{ACAD_REACTORS
330
1010
102
}
330
1010
100
AcDbXrecord
280
     1
102
RTVSPropertyOp0
 70
     1
102
RTVSPropertyOp1
 70
     1
102
RTVSPropertyOp2
 70
     1
102
RTVSPropertyOp3
 70
     1
102
RTVSPropertyOp4
 70
     1
102
RTVSPropertyOp5
 70
     1
102
RTVSPropertyOp6
 70
     1
102
RTVSPropertyOp7
 70
     1
102
RTVSPropertyOp8
 70
     1
102
RTVSPropertyOp9
 70
     1
102
RTVSPropertyOp10
 70
     1
102
RTVSPropertyOp11
 70
     1
102
RTVSPropertyOp12
 70
     1
102
RTVSPropertyOp13
 70
     1
102
RTVSPropertyOp14
 70
     1
102
RTVSPropertyOp15
 70
     1
102
RTVSPropertyOp16
 70
     1
102
RTVSPropertyOp17
 70
     1
102
RTVSPropertyOp18
 70
     1
102
RTVSPropertyOp19
 70
     1
102
RTVSPropertyOp20
 70
     1
102
RTVSPropertyOp21
 70
     1
102
RTVSPropertyOp22
 70
     1
102
RTVSPropertyOp23
 70
     1
102
RTVSPropertyOp24
 70
     1
102
RTVSPropertyOp25
 70
     1
102
RTVSPropertyOp26
 70
     1
102
RTVSPropertyOp27
 70
     1
102
RTVSPropertyOp28
 70
     1
102
RTVSPropertyOp29
 70
     1
102
RTVSPropertyOp30
 70
     1
102
RTVSPropertyOp31
 70
     1
102
RTVSPropertyOp32
 70
     1
  0
XRECORD
  5
1013
102
{ACAD_REACTORS
330
1012
102
}
330
1012
100
AcDbXrecord
280
     1
102
RTVSPropertyOp0
 70
     1
102
RTVSPropertyOp1
 70
     1
102
RTVSPropertyOp2
 70
     1
102
RTVSPropertyOp3
 70
     1
102
RTVSPropertyOp4
 70
     1
102
RTVSPropertyOp5
 70
     1
102
RTVSPropertyOp6
 70
     1
102
RTVSPropertyOp7
 70
     1
102
RTVSPropertyOp8
 70
     1
102
RTVSPropertyOp9
 70
     1
102
RTVSPropertyOp10
 70
     1
102
RTVSPropertyOp11
 70
     1
102
RTVSPropertyOp12
 70
     1
102
RTVSPropertyOp13
 70
     1
102
RTVSPropertyOp14
 70
     1
102
RTVSPropertyOp15
 70
     1
102
RTVSPropertyOp16
 70
     1
102
RTVSPropertyOp17
 70
     1
102
RTVSPropertyOp18
 70
     1
102
RTVSPropertyOp19
 70
     1
102
RTVSPropertyOp20
 70
     1
102
RTVSPropertyOp21
 70
     1
102
RTVSPropertyOp22
 70
     1
102
RTVSPropertyOp23
 70
     1
102
RTVSPropertyOp24
 70
     1
102
RTVSPropertyOp25
 70
     1
102
RTVSPropertyOp26
 70
     1
102
RTVSPropertyOp27
 70
     1
102
RTVSPropertyOp28
 70
     1
102
RTVSPropertyOp29
 70
     1
102
RTVSPropertyOp30
 70
     1
102
RTVSPropertyOp31
 70
     1
102
RTVSPropertyOp32
 70
     1
  0
XRECORD
  5
1009
102
{ACAD_REACTORS
330
1008
102
}
330
1008
100
AcDbXrecord
280
     1
102
RTVSPropertyOp0
 70
     1
102
RTVSPropertyOp1
 70
     1
102
RTVSPropertyOp2
 70
     1
102
RTVSPropertyOp3
 70
     1
102
RTVSPropertyOp4
 70
     1
102
RTVSPropertyOp5
 70
     1
102
RTVSPropertyOp6
 70
     1
102
RTVSPropertyOp7
 70
     1
102
RTVSPropertyOp8
 70
     1
102
RTVSPropertyOp9
 70
     1
102
RTVSPropertyOp10
 70
     1
102
RTVSPropertyOp11
 70
     1
102
RTVSPropertyOp12
 70
     1
102
RTVSPropertyOp13
 70
     1
102
RTVSPropertyOp14
 70
     1
102
RTVSPropertyOp15
 70
     1
102
RTVSPropertyOp16
 70
     1
102
RTVSPropertyOp17
 70
     1
102
RTVSPropertyOp18
 70
     1
102
RTVSPropertyOp19
 70
     1
102
RTVSPropertyOp20
 70
     1
102
RTVSPropertyOp21
 70
     1
102
RTVSPropertyOp22
 70
     1
102
RTVSPropertyOp23
 70
     1
102
RTVSPropertyOp24
 70
     1
102
RTVSPropertyOp25
 70
     1
102
RTVSPropertyOp26
 70
     1
102
RTVSPropertyOp27
 70
     1
102
RTVSPropertyOp28
 70
     1
102
RTVSPropertyOp29
 70
     1
102
RTVSPropertyOp30
 70
     1
102
RTVSPropertyOp31
 70
     1
102
RTVSPropertyOp32
 70
     1
  0
XRECORD
  5
FFD
102
{ACAD_REACTORS
330
FFC
102
}
330
FFC
100
AcDbXrecord
280
     1
102
RTVSPropertyOp0
 70
     1
102
RTVSPropertyOp1
 70
     1
102
RTVSPropertyOp2
 70
     1
102
RTVSPropertyOp3
 70
     1
102
RTVSPropertyOp4
 70
     1
102
RTVSPropertyOp5
 70
     1
102
RTVSPropertyOp6
 70
     1
102
RTVSPropertyOp7
 70
     1
102
RTVSPropertyOp8
 70
     1
102
RTVSPropertyOp9
 70
     1
102
RTVSPropertyOp10
 70
     1
102
RTVSPropertyOp11
 70
     1
102
RTVSPropertyOp12
 70
     1
102
RTVSPropertyOp13
 70
     1
102
RTVSPropertyOp14
 70
     1
102
RTVSPropertyOp15
 70
     1
102
RTVSPropertyOp16
 70
     1
102
RTVSPropertyOp17
 70
     1
102
RTVSPropertyOp18
 70
     1
102
RTVSPropertyOp19
 70
     1
102
RTVSPropertyOp20
 70
     1
102
RTVSPropertyOp21
 70
     1
102
RTVSPropertyOp22
 70
     1
102
RTVSPropertyOp23
 70
     1
102
RTVSPropertyOp24
 70
     1
102
RTVSPropertyOp25
 70
     1
102
RTVSPropertyOp26
 70
     1
102
RTVSPropertyOp27
 70
     1
102
RTVSPropertyOp28
 70
     1
102
RTVSPropertyOp29
 70
     1
102
RTVSPropertyOp30
 70
     1
102
RTVSPropertyOp31
 70
     1
102
RTVSPropertyOp32
 70
     1
  0
XRECORD
  5
1015
102
{ACAD_REACTORS
330
1014
102
}
330
1014
100
AcDbXrecord
280
     1
102
RTVSPropertyOp0
 70
     1
102
RTVSPropertyOp1
 70
     1
102
RTVSPropertyOp2
 70
     1
102
RTVSPropertyOp3
 70
     1
102
RTVSPropertyOp4
 70
     1
102
RTVSPropertyOp5
 70
     1
102
RTVSPropertyOp6
 70
     1
102
RTVSPropertyOp7
 70
     1
102
RTVSPropertyOp8
 70
     1
102
RTVSPropertyOp9
 70
     1
102
RTVSPropertyOp10
 70
     1
102
RTVSPropertyOp11
 70
     1
102
RTVSPropertyOp12
 70
     1
102
RTVSPropertyOp13
 70
     1
102
RTVSPropertyOp14
 70
     1
102
RTVSPropertyOp15
 70
     1
102
RTVSPropertyOp16
 70
     1
102
RTVSPropertyOp17
 70
     1
102
RTVSPropertyOp18
 70
     1
102
RTVSPropertyOp19
 70
     1
102
RTVSPropertyOp20
 70
     1
102
RTVSPropertyOp21
 70
     1
102
RTVSPropertyOp22
 70
     1
102
RTVSPropertyOp23
 70
     1
102
RTVSPropertyOp24
 70
     1
102
RTVSPropertyOp25
 70
     1
102
RTVSPropertyOp26
 70
     1
102
RTVSPropertyOp27
 70
     1
102
RTVSPropertyOp28
 70
     1
102
RTVSPropertyOp29
 70
     1
102
RTVSPropertyOp30
 70
     1
102
RTVSPropertyOp31
 70
     1
102
RTVSPropertyOp32
 70
     1
  0
ENDSEC
  0
EOF
