  0
SECTION
  2
HEADER
  9
$ACADVER
  1
AC1015
  9
$ACADMAINTVER
 70
    20
  9
$DWGCODEPAGE
  3
ANSI_1250
  9
$INSBASE
 10
0.0
 20
0.0
 30
0.0
  9
$EXTMIN
 10
14057.51583958088
 20
-15.71524430651483
 30
0.0
  9
$EXTMAX
 10
28329.57088741332
 20
10152.61079747705
 30
0.0
  9
$LIMMIN
 10
0.0
 20
0.0
  9
$LIMMAX
 10
14850.0
 20
10500.0
  9
$ORTHOMODE
 70
     0
  9
$REGENMODE
 70
     1
  9
$FILLMODE
 70
     1
  9
$QTEXTMODE
 70
     0
  9
$MIRRTEXT
 70
     0
  9
$LTSCALE
 40
50.0
  9
$ATTMODE
 70
     1
  9
$TEXTSIZE
 40
0.2
  9
$TRACEWID
 40
0.05
  9
$TEXTSTYLE
  7
Standard
  9
$CLAYER
  8
0
  9
$CELTYPE
  6
ByLayer
  9
$CECOLOR
 62
   256
  9
$CELTSCALE
 40
1.0
  9
$DISPSILH
 70
     0
  9
$DIMSCALE
 40
1.0
  9
$DIMASZ
 40
1.799999999999999
  9
$DIMEXO
 40
0.0625
  9
$DIMDLI
 40
0.38
  9
$DIMRND
 40
0.0
  9
$DIMDLE
 40
0.0
  9
$DIMEXE
 40
0.18
  9
$DIMTP
 40
0.0
  9
$DIMTM
 40
0.0
  9
$DIMTXT
 40
0.25
  9
$DIMCEN
 40
0.09
  9
$DIMTSZ
 40
0.0
  9
$DIMTOL
 70
     0
  9
$DIMLIM
 70
     0
  9
$DIMTIH
 70
     1
  9
$DIMTOH
 70
     1
  9
$DIMSE1
 70
     0
  9
$DIMSE2
 70
     0
  9
$DIMTAD
 70
     0
  9
$DIMZIN
 70
     0
  9
$DIMBLK
  1

  9
$DIMASO
 70
     1
  9
$DIMSHO
 70
     1
  9
$DIMPOST
  1

  9
$DIMAPOST
  1

  9
$DIMALT
 70
     0
  9
$DIMALTD
 70
     2
  9
$DIMALTF
 40
25.4
  9
$DIMLFAC
 40
1.0
  9
$DIMTOFL
 70
     0
  9
$DIMTVP
 40
0.0
  9
$DIMTIX
 70
     0
  9
$DIMSOXD
 70
     0
  9
$DIMSAH
 70
     0
  9
$DIMBLK1
  1

  9
$DIMBLK2
  1

  9
$DIMSTYLE
  2
Standard
  9
$DIMCLRD
 70
     0
  9
$DIMCLRE
 70
     0
  9
$DIMCLRT
 70
     0
  9
$DIMTFAC
 40
1.0
  9
$DIMGAP
 40
0.09
  9
$DIMJUST
 70
     0
  9
$DIMSD1
 70
     0
  9
$DIMSD2
 70
     0
  9
$DIMTOLJ
 70
     1
  9
$DIMTZIN
 70
     0
  9
$DIMALTZ
 70
     0
  9
$DIMALTTZ
 70
     0
  9
$DIMUPT
 70
     0
  9
$DIMDEC
 70
     4
  9
$DIMTDEC
 70
     4
  9
$DIMALTU
 70
     2
  9
$DIMALTTD
 70
     2
  9
$DIMTXSTY
  7
Standard
  9
$DIMAUNIT
 70
     0
  9
$DIMADEC
 70
     0
  9
$DIMALTRND
 40
0.0
  9
$DIMAZIN
 70
     0
  9
$DIMDSEP
 70
    46
  9
$DIMATFIT
 70
     3
  9
$DIMFRAC
 70
     0
  9
$DIMLDRBLK
  1

  9
$DIMLUNIT
 70
     2
  9
$DIMLWD
 70
    -2
  9
$DIMLWE
 70
    -2
  9
$DIMTMOVE
 70
     0
  9
$LUNITS
 70
     2
  9
$LUPREC
 70
     4
  9
$SKETCHINC
 40
0.1
  9
$FILLETRAD
 40
0.0
  9
$AUNITS
 70
     0
  9
$AUPREC
 70
     0
  9
$MENU
  1
.
  9
$ELEVATION
 40
0.0
  9
$PELEVATION
 40
0.0
  9
$THICKNESS
 40
0.0
  9
$LIMCHECK
 70
     0
  9
$CHAMFERA
 40
0.0
  9
$CHAMFERB
 40
0.0
  9
$CHAMFERC
 40
0.0
  9
$CHAMFERD
 40
0.0
  9
$SKPOLY
 70
     0
  9
$TDCREATE
 40
2457919.359822512
  9
$TDUCREATE
 40
2457919.276489178
  9
$TDUPDATE
 40
2458619.596521771
  9
$TDUUPDATE
 40
2458619.513188438
  9
$TDINDWG
 40
0.0036487616
  9
$TDUSRTIMER
 40
0.0036487616
  9
$USRTIMER
 70
     1
  9
$ANGBASE
 50
0.0
  9
$ANGDIR
 70
     0
  9
$PDMODE
 70
     0
  9
$PDSIZE
 40
0.0
  9
$PLINEWID
 40
0.0
  9
$SPLFRAME
 70
     0
  9
$SPLINETYPE
 70
     6
  9
$SPLINESEGS
 70
     8
  9
$HANDSEED
  5
DBA
  9
$SURFTAB1
 70
     6
  9
$SURFTAB2
 70
     6
  9
$SURFTYPE
 70
     6
  9
$SURFU
 70
     6
  9
$SURFV
 70
     6
  9
$UCSBASE
  2

  9
$UCSNAME
  2

  9
$UCSORG
 10
0.0
 20
0.0
 30
0.0
  9
$UCSXDIR
 10
1.0
 20
0.0
 30
0.0
  9
$UCSYDIR
 10
0.0
 20
1.0
 30
0.0
  9
$UCSORTHOREF
  2

  9
$UCSORTHOVIEW
 70
     0
  9
$UCSORGTOP
 10
0.0
 20
0.0
 30
0.0
  9
$UCSORGBOTTOM
 10
0.0
 20
0.0
 30
0.0
  9
$UCSORGLEFT
 10
0.0
 20
0.0
 30
0.0
  9
$UCSORGRIGHT
 10
0.0
 20
0.0
 30
0.0
  9
$UCSORGFRONT
 10
0.0
 20
0.0
 30
0.0
  9
$UCSORGBACK
 10
0.0
 20
0.0
 30
0.0
  9
$PUCSBASE
  2

  9
$PUCSNAME
  2

  9
$PUCSORG
 10
0.0
 20
0.0
 30
0.0
  9
$PUCSXDIR
 10
1.0
 20
0.0
 30
0.0
  9
$PUCSYDIR
 10
0.0
 20
1.0
 30
0.0
  9
$PUCSORTHOREF
  2

  9
$PUCSORTHOVIEW
 70
     0
  9
$PUCSORGTOP
 10
0.0
 20
0.0
 30
0.0
  9
$PUCSORGBOTTOM
 10
0.0
 20
0.0
 30
0.0
  9
$PUCSORGLEFT
 10
0.0
 20
0.0
 30
0.0
  9
$PUCSORGRIGHT
 10
0.0
 20
0.0
 30
0.0
  9
$PUCSORGFRONT
 10
0.0
 20
0.0
 30
0.0
  9
$PUCSORGBACK
 10
0.0
 20
0.0
 30
0.0
  9
$USERI1
 70
     0
  9
$USERI2
 70
     0
  9
$USERI3
 70
     0
  9
$USERI4
 70
     0
  9
$USERI5
 70
     0
  9
$USERR1
 40
0.0
  9
$USERR2
 40
0.0
  9
$USERR3
 40
0.0
  9
$USERR4
 40
0.0
  9
$USERR5
 40
0.0
  9
$WORLDVIEW
 70
     1
  9
$SHADEDGE
 70
     3
  9
$SHADEDIF
 70
    70
  9
$TILEMODE
 70
     1
  9
$MAXACTVP
 70
    64
  9
$PINSBASE
 10
0.0
 20
0.0
 30
0.0
  9
$PLIMCHECK
 70
     0
  9
$PEXTMIN
 10
0.0
 20
0.0
 30
0.0
  9
$PEXTMAX
 10
14850.0
 20
10500.0
 30
0.0
  9
$PLIMMIN
 10
0.0
 20
0.0
  9
$PLIMMAX
 10
14850.0
 20
10500.0
  9
$UNITMODE
 70
     0
  9
$VISRETAIN
 70
     1
  9
$PLINEGEN
 70
     0
  9
$PSLTSCALE
 70
     1
  9
$TREEDEPTH
 70
  3020
  9
$CMLSTYLE
  2
Standard
  9
$CMLJUST
 70
     0
  9
$CMLSCALE
 40
1.0
  9
$PROXYGRAPHICS
 70
     1
  9
$MEASUREMENT
 70
     1
  9
$CELWEIGHT
370
    -1
  9
$ENDCAPS
280
     0
  9
$JOINSTYLE
280
     0
  9
$LWDISPLAY
290
     0
  9
$INSUNITS
 70
     4
  9
$HYPERLINKBASE
  1

  9
$STYLESHEET
  1

  9
$XEDIT
290
     1
  9
$CEPSNTYPE
380
     0
  9
$PSTYLEMODE
290
     1
  9
$FINGERPRINTGUID
  2
{1A0103AE-77BF-460B-A891-8221864A4B8A}
  9
$VERSIONGUID
  2
{9EBF3CD7-D770-448B-82C4-5FDD66C114E6}
  9
$EXTNAMES
290
     1
  9
$PSVPSCALE
 40
0.0
  9
$OLESTARTUP
290
     0
  0
ENDSEC
  0
SECTION
  2
CLASSES
  0
CLASS
  1
ACDBDICTIONARYWDFLT
  2
AcDbDictionaryWithDefault
  3
ObjectDBX Classes
 90
        0
280
     0
281
     0
  0
CLASS
  1
MATERIAL
  2
AcDbMaterial
  3
ObjectDBX Classes
 90
     1153
280
     0
281
     0
  0
CLASS
  1
VISUALSTYLE
  2
AcDbVisualStyle
  3
ObjectDBX Classes
 90
     4095
280
     0
281
     0
  0
CLASS
  1
SCALE
  2
AcDbScale
  3
ObjectDBX Classes
 90
     1153
280
     0
281
     0
  0
CLASS
  1
TABLESTYLE
  2
AcDbTableStyle
  3
ObjectDBX Classes
 90
     4095
280
     0
281
     0
  0
CLASS
  1
MLEADERSTYLE
  2
AcDbMLeaderStyle
  3
ACDB_MLEADERSTYLE_CLASS
 90
     4095
280
     0
281
     0
  0
CLASS
  1
CELLSTYLEMAP
  2
AcDbCellStyleMap
  3
ObjectDBX Classes
 90
     1152
280
     0
281
     0
  0
CLASS
  1
DICTIONARYVAR
  2
AcDbDictionaryVar
  3
ObjectDBX Classes
 90
        0
280
     0
281
     0
  0
CLASS
  1
ACDBPLACEHOLDER
  2
AcDbPlaceHolder
  3
ObjectDBX Classes
 90
        0
280
     0
281
     0
  0
CLASS
  1
LAYOUT
  2
AcDbLayout
  3
ObjectDBX Classes
 90
        0
280
     0
281
     0
  0
CLASS
  1
EXACXREFPANELOBJECT
  2
ExAcXREFPanelObject
  3
EXAC_ESW
 90
     1025
280
     0
281
     0
  0
CLASS
  1
NPOCOLLECTION
  2
AcDbImpNonPersistentObjectsCollection
  3
ObjectDBX Classes
 90
     1153
280
     0
281
     0
  0
CLASS
  1
ACDBASSOCNETWORK
  2
AcDbAssocNetwork
  3
ObjectDBX Classes
 90
     1025
280
     0
281
     0
  0
CLASS
  1
ACDBASSOC2DCONSTRAINTGROUP
  2
AcDbAssoc2dConstraintGroup
  3
ObjectDBX Classes
 90
     1025
280
     0
281
     0
  0
CLASS
  1
ACDBASSOCGEOMDEPENDENCY
  2
AcDbAssocGeomDependency
  3
ObjectDBX Classes
 90
     1025
280
     0
281
     0
  0
ENDSEC
  0
SECTION
  2
TABLES
  0
TABLE
  2
VPORT
  5
8
102
{ACAD_XDICTIONARY
360
A8C
102
}
330
0
100
AcDbSymbolTable
 70
     1
  0
VPORT
  5
57
330
8
100
AcDbSymbolTableRecord
100
AcDbViewportTableRecord
  2
*Active
 70
     0
 10
0.0
 20
0.0
 11
1.0
 21
1.0
 12
19540.75854407419
 22
4659.787178372789
 13
0.0
 23
0.0
 14
1.0
 24
1.0
 15
0.0
 25
0.0
 16
0.0
 26
0.0
 36
1.0
 17
0.0
 27
0.0
 37
0.0
 40
13149.20491158298
 41
2.430203045685279
 42
50.0
 43
0.0
 44
0.0
 50
0.0
 51
0.0
 71
     0
 72
   100
 73
     1
 74
     1
 75
     0
 76
     0
 77
     0
 78
     0
281
     0
 65
     1
110
0.0
120
0.0
130
0.0
111
1.0
121
0.0
131
0.0
112
0.0
122
1.0
132
0.0
 79
     0
146
0.0
  0
ENDTAB
  0
TABLE
  2
LTYPE
  5
5
330
0
100
AcDbSymbolTable
 70
     2
  0
LTYPE
  5
5B
330
5
100
AcDbSymbolTableRecord
100
AcDbLinetypeTableRecord
  2
ByBlock
 70
     0
  3

 72
    65
 73
     0
 40
0.0
  0
LTYPE
  5
5C
330
5
100
AcDbSymbolTableRecord
100
AcDbLinetypeTableRecord
  2
ByLayer
 70
     0
  3

 72
    65
 73
     0
 40
0.0
  0
LTYPE
  5
5D
330
5
100
AcDbSymbolTableRecord
100
AcDbLinetypeTableRecord
  2
Continuous
 70
     0
  3
Solid line
 72
    65
 73
     0
 40
0.0
  0
ENDTAB
  0
TABLE
  2
LAYER
  5
2
330
0
100
AcDbSymbolTable
 70
     5
  0
LAYER
  5
54
330
2
100
AcDbSymbolTableRecord
100
AcDbLayerTableRecord
  2
0
 70
     0
 62
     7
  6
Continuous
370
    -3
390
F
  0
LAYER
  5
BA
330
2
100
AcDbSymbolTableRecord
100
AcDbLayerTableRecord
  2
Dimension (ISO)
 70
     0
 62
   161
  6
Continuous
370
    18
390
F
  0
LAYER
  5
C5
330
2
100
AcDbSymbolTableRecord
100
AcDbLayerTableRecord
  2
Title (ISO)
 70
     0
 62
     7
  6
Continuous
370
    30
390
F
  0
LAYER
  5
C8
330
2
100
AcDbSymbolTableRecord
100
AcDbLayerTableRecord
  2
Visible (ISO)
 70
     0
 62
     7
  6
Continuous
370
    30
390
F
  0
LAYER
  5
346
330
2
100
AcDbSymbolTableRecord
100
AcDbLayerTableRecord
  2
Defpoints
 70
     0
 62
     7
  6
Continuous
290
     0
370
    -3
390
F
  0
ENDTAB
  0
TABLE
  2
STYLE
  5
3
330
0
100
AcDbSymbolTable
 70
     3
  0
STYLE
  5
55
330
3
100
AcDbSymbolTableRecord
100
AcDbTextStyleTableRecord
  2
Standard
 70
     0
 40
0.0
 41
1.0
 50
0.0
 71
     0
 42
0.2
  3
tahoma.ttf
  4

1001
ACAD
1000
Tahoma
1071
      256
  0
STYLE
  5
CD
330
3
100
AcDbSymbolTableRecord
100
AcDbTextStyleTableRecord
  2
Label Text (ISO)
 70
     0
 40
0.0
 41
1.0
 50
0.0
 71
     0
 42
0.2
  3
tahoma.ttf
  4

1001
ACAD
1000
Tahoma
1071
      256
  0
STYLE
  5
CE
330
3
100
AcDbSymbolTableRecord
100
AcDbTextStyleTableRecord
  2
Note Text (ISO)
 70
     0
 40
0.0
 41
1.0
 50
0.0
 71
     0
 42
0.2
  3
tahoma.ttf
  4

1001
ACAD
1000
Tahoma
1071
      256
  0
ENDTAB
  0
TABLE
  2
VIEW
  5
6
330
0
100
AcDbSymbolTable
 70
     0
  0
ENDTAB
  0
TABLE
  2
UCS
  5
7
330
0
100
AcDbSymbolTable
 70
     0
  0
ENDTAB
  0
TABLE
  2
APPID
  5
9
330
0
100
AcDbSymbolTable
 70
     5
  0
APPID
  5
56
330
9
100
AcDbSymbolTableRecord
100
AcDbRegAppTableRecord
  2
ACAD
 70
     0
  0
APPID
  5
5E
330
9
100
AcDbSymbolTableRecord
100
AcDbRegAppTableRecord
  2
AcadAnnotative
 70
     0
  0
APPID
  5
33C
330
9
100
AcDbSymbolTableRecord
100
AcDbRegAppTableRecord
  2
AcadAnnoPO
 70
     0
  0
APPID
  5
AC2
330
9
100
AcDbSymbolTableRecord
100
AcDbRegAppTableRecord
  2
ACAD_MLEADERVER
 70
     0
  0
APPID
  5
CFC
330
9
100
AcDbSymbolTableRecord
100
AcDbRegAppTableRecord
  2
ACAD_EXEMPT_FROM_CAD_STANDARDS
 70
     0
  0
ENDTAB
  0
TABLE
  2
DIMSTYLE
  5
A
330
0
100
AcDbSymbolTable
 70
     3
100
AcDbDimStyleTable
 71
     2
340
58
340
D4
  0
DIMSTYLE
105
58
330
A
100
AcDbSymbolTableRecord
100
AcDbDimStyleTableRecord
  2
Standard
 70
     0
340
55
  0
DIMSTYLE
105
D4
102
{ACAD_REACTORS
330
6DA
330
7BF
330
8A4
330
989
330
CA4
330
CA5
330
CA6
330
CA7
102
}
330
A
100
AcDbSymbolTableRecord
100
AcDbDimStyleTableRecord
  2
Default (ISO)
 70
     0
 40
50.0
 41
2.5
 42
0.5
 43
5.999999999999999
 44
1.0
 45
0.00000001
 46
10.0
 73
     0
 77
     1
 78
     8
 79
     2
140
3.5
143
0.03937
146
0.7142857313156128
147
0.762
171
     3
172
     1
176
   256
177
   256
178
   256
271
     2
272
     2
274
     3
278
    44
340
CD
371
    -1
372
    -1
  0
ENDTAB
  0
TABLE
  2
BLOCK_RECORD
  5
1
330
0
100
AcDbSymbolTable
 70
    21
  0
BLOCK_RECORD
  5
6C
102
{ACAD_XDICTIONARY
360
D04
102
}
330
1
100
AcDbSymbolTableRecord
100
AcDbBlockTableRecord
  2
*Model_Space
340
6F
  0
BLOCK_RECORD
  5
68
330
1
100
AcDbSymbolTableRecord
100
AcDbBlockTableRecord
  2
*Paper_Space
340
6B
  0
BLOCK_RECORD
  5
70
330
1
100
AcDbSymbolTableRecord
100
AcDbBlockTableRecord
  2
*Paper_Space0
340
73
  0
BLOCK_RECORD
  5
334
330
1
100
AcDbSymbolTableRecord
100
AcDbBlockTableRecord
  2
Tabelki rysunkowe Rzut
340
0
102
{BLKREFS
331
33F
102
}
  0
BLOCK_RECORD
  5
347
330
1
100
AcDbSymbolTableRecord
100
AcDbBlockTableRecord
  2
*D2
340
0
  0
BLOCK_RECORD
  5
42F
330
1
100
AcDbSymbolTableRecord
100
AcDbBlockTableRecord
  2
*D3
340
0
  0
BLOCK_RECORD
  5
511
330
1
100
AcDbSymbolTableRecord
100
AcDbBlockTableRecord
  2
*D4
340
0
  0
BLOCK_RECORD
  5
5F9
330
1
100
AcDbSymbolTableRecord
100
AcDbBlockTableRecord
  2
*D5
340
0
  0
BLOCK_RECORD
  5
6DB
330
1
100
AcDbSymbolTableRecord
100
AcDbBlockTableRecord
  2
*D6
340
0
  0
BLOCK_RECORD
  5
7C0
330
1
100
AcDbSymbolTableRecord
100
AcDbBlockTableRecord
  2
*D7
340
0
  0
BLOCK_RECORD
  5
8A5
330
1
100
AcDbSymbolTableRecord
100
AcDbBlockTableRecord
  2
*D8
340
0
  0
BLOCK_RECORD
  5
98A
330
1
100
AcDbSymbolTableRecord
100
AcDbBlockTableRecord
  2
*D9
340
0
  0
BLOCK_RECORD
  5
B39
330
1
100
AcDbSymbolTableRecord
100
AcDbBlockTableRecord
  2
88100_Kola-gimanstyczne
340
0
310
2800000020000000200000000100080000000000000400000000000000000000000000000000000000000000000080000080000000808000800000008000800080800000C0C0C000C0DCC000F0CAA6000020400000206000002080000020A0000020C0000020E00000400000004020000040400000406000004080000040A0
310
000040C0000040E00000600000006020000060400000606000006080000060A0000060C0000060E00000800000008020000080400000806000008080000080A0000080C0000080E00000A0000000A0200000A0400000A0600000A0800000A0A00000A0C00000A0E00000C0000000C0200000C0400000C0600000C0800000C0
310
A00000C0C00000C0E00000E0000000E0200000E0400000E0600000E0800000E0A00000E0C00000E0E00040000000400020004000400040006000400080004000A0004000C0004000E00040200000402020004020400040206000402080004020A0004020C0004020E000404000004040200040404000404060004040800040
310
40A0004040C0004040E00040600000406020004060400040606000406080004060A0004060C0004060E00040800000408020004080400040806000408080004080A0004080C0004080E00040A0000040A0200040A0400040A0600040A0800040A0A00040A0C00040A0E00040C0000040C0200040C0400040C0600040C08000
310
40C0A00040C0C00040C0E00040E0000040E0200040E0400040E0600040E0800040E0A00040E0C00040E0E00080000000800020008000400080006000800080008000A0008000C0008000E00080200000802020008020400080206000802080008020A0008020C0008020E00080400000804020008040400080406000804080
310
008040A0008040C0008040E00080600000806020008060400080606000806080008060A0008060C0008060E00080800000808020008080400080806000808080008080A0008080C0008080E00080A0000080A0200080A0400080A0600080A0800080A0A00080A0C00080A0E00080C0000080C0200080C0400080C0600080C0
310
800080C0A00080C0C00080C0E00080E0000080E0200080E0400080E0600080E0800080E0A00080E0C00080E0E000C0000000C0002000C0004000C0006000C0008000C000A000C000C000C000E000C0200000C0202000C0204000C0206000C0208000C020A000C020C000C020E000C0400000C0402000C0404000C0406000C0
310
408000C040A000C040C000C040E000C0600000C0602000C0604000C0606000C0608000C060A000C060C000C060E000C0800000C0802000C0804000C0806000C0808000C080A000C080C000C080E000C0A00000C0A02000C0A04000C0A06000C0A08000C0A0A000C0A0C000C0A0E000C0C00000C0C02000C0C04000C0C06000
310
C0C08000C0C0A000F0FBFF00A4A0A000808080000000FF0000FF000000FFFF00FF000000FF00FF00FFFF0000FFFFFF0049494949494949494949494949494949494949494949494949494949494949494949494949494949494949494949494949494949494949494949494949494949494949494949494949494949494949
310
49494949494949494949494949494949494949494949494949494949494949494949494949494949494949494949494949494949494949494949494949494949494949494949494949494949494949494949494949494949494949494949494949494949494949494949494949494949494949494949494949494949FFFFFF
310
FFFFFFFFFFFFFF494949494949494949494949494949494949FFFFFFFF49494949494949494949FFFFFFFF49494949494949494949494949FF494949494949494949494949494949494949FF49494949494949494949FFFF4949494949494949494949494949494949494949FFFF49494949494949FF494949494949494949
310
494949494949494949494949494949FF4949494949FF4949494949494949494949494949494949494949494949494949FF49494949FF49494949494949FFFF4949494949494949494949494949494949FF49494949FF49494949494949FFFF4949494949494949494949494949494949FF49494949FF49494949494949FFFF
310
494949494949494949494949494949494949FF4949FF4949494949494949FFFFFFFFFFFFFFFFFFFFFFFF4949494949494949FF4949FF4949494949494949FFFFFFFFFFFFFFFFFFFFFFFF4949494949494949FF494949FF4949494949494949494949494949494949FFFF4949494949494949FF494949FF4949494949494949
310
494949494949494949FFFF49494949494949FF49494949FF4949494949494949494949494949494949FFFF49494949494949FF49494949FF4949494949494949494949494949494949494949494949494949FF4949494949FF494949494949494949494949494949494949494949494949FF49494949494949FF4949494949
310
4949494949494949494949494949494949FF494949494949494949FFFF494949494949494949494949494949494949FFFF494949494949494949494949FFFFFF494949494949494949494949FFFFFF4949494949494949494949494949494949FFFFFFFFFFFFFFFFFFFFFFFF49494949494949494949494949494949494949
310
49494949494949494949494949494949494949494949494949494949494949494949494949494949494949494949494949494949494949494949494949494949494949494949494949494949494949494949494949494949494949494949494949494949494949494949494949494949494949494949494949494949494949
310
4949494949494949494949494949494949494949494949494949494949494949494949494949494949494949494949494949494949494949
102
{BLKREFS
331
D6F
102
}
1001
ACAD
1000
DesignCenter Data
1002
{
1070
     1
1070
     4
1002
}
  0
BLOCK_RECORD
  5
BF4
330
1
100
AcDbSymbolTableRecord
100
AcDbBlockTableRecord
  2
*D11
340
0
  0
BLOCK_RECORD
  5
C00
330
1
100
AcDbSymbolTableRecord
100
AcDbBlockTableRecord
  2
*D12
340
0
  0
BLOCK_RECORD
  5
C0C
330
1
100
AcDbSymbolTableRecord
100
AcDbBlockTableRecord
  2
*D13
340
0
  0
BLOCK_RECORD
  5
C18
330
1
100
AcDbSymbolTableRecord
100
AcDbBlockTableRecord
  2
*D14
340
0
  0
BLOCK_RECORD
  5
CA8
330
1
100
AcDbSymbolTableRecord
100
AcDbBlockTableRecord
  2
*D16
340
0
  0
BLOCK_RECORD
  5
CB4
330
1
100
AcDbSymbolTableRecord
100
AcDbBlockTableRecord
  2
*D17
340
0
  0
BLOCK_RECORD
  5
CC0
330
1
100
AcDbSymbolTableRecord
100
AcDbBlockTableRecord
  2
*D18
340
0
  0
BLOCK_RECORD
  5
CCC
330
1
100
AcDbSymbolTableRecord
100
AcDbBlockTableRecord
  2
*D19
340
0
  0
ENDTAB
  0
ENDSEC
  0
SECTION
  2
BLOCKS
  0
BLOCK
  5
6D
330
6C
100
AcDbEntity
  8
0
100
AcDbBlockBegin
  2
*Model_Space
 70
     0
 10
0.0
 20
0.0
 30
0.0
  3
*Model_Space
  1

  0
ENDBLK
  5
6E
330
6C
100
AcDbEntity
  8
0
100
AcDbBlockEnd
  0
BLOCK
  5
69
330
68
100
AcDbEntity
 67
     1
  8
0
100
AcDbBlockBegin
  2
*Paper_Space
 70
     0
 10
0.0
 20
0.0
 30
0.0
  3
*Paper_Space
  1

  0
ENDBLK
  5
6A
330
68
100
AcDbEntity
 67
     1
  8
0
100
AcDbBlockEnd
  0
BLOCK
  5
71
330
70
100
AcDbEntity
 67
     1
  8
0
100
AcDbBlockBegin
  2
*Paper_Space0
 70
     0
 10
0.0
 20
0.0
 30
0.0
  3
*Paper_Space0
  1

  0
ENDBLK
  5
72
330
70
100
AcDbEntity
 67
     1
  8
0
100
AcDbBlockEnd
  0
BLOCK
  5
335
330
334
100
AcDbEntity
  8
0
100
AcDbBlockBegin
  2
Tabelki rysunkowe Rzut
 70
     2
 10
0.0
 20
0.0
 30
0.0
  3
Tabelki rysunkowe Rzut
  1

  0
TEXT
  5
337
330
334
100
AcDbEntity
  8
Title (ISO)
100
AcDbText
 10
166.7768162971836
 20
11.24130542460445
 30
0.0
 40
2.5
  1
Obowiązuje od:
  7
Note Text (ISO)
 11
166.7768162971836
 21
13.74130542460445
 31
0.0
100
AcDbText
 73
     3
  0
TEXT
  5
339
330
334
100
AcDbEntity
  8
Title (ISO)
100
AcDbText
 10
166.7768162971836
 20
18.24130542460445
 30
0.0
 40
2.5
  1
Nr kat.:
  7
Note Text (ISO)
 11
166.7768162971836
 21
20.74130542460446
 31
0.0
100
AcDbText
 73
     3
  0
TEXT
  5
33A
330
334
100
AcDbEntity
  8
Title (ISO)
100
AcDbText
 10
166.7768162971836
 20
14.74130542460445
 30
0.0
 40
2.5
  1
Nazwa:
  7
Note Text (ISO)
 11
166.7768162971836
 21
17.24130542460445
 31
0.0
100
AcDbText
 73
     3
  0
ATTDEF
  5
33B
102
{ACAD_XDICTIONARY
360
A78
102
}
330
334
100
AcDbEntity
  8
Title (ISO)
100
AcDbText
 10
178.5283273792489
 20
18.12713485684115
 30
0.0
 40
2.5
  1
88100
  7
Note Text (ISO)
100
AcDbAttributeDefinition
  3
Numer katalogowy
  2
Numer_katalogowy_001
 70
     0
  0
ATTDEF
  5
33D
102
{ACAD_XDICTIONARY
360
A7B
102
}
330
334
100
AcDbEntity
  8
Title (ISO)
100
AcDbText
 10
190.4107988369825
 20
11.13720873189256
 30
0.0
 40
2.5
  1
2017-06-14
  7
Note Text (ISO)
100
AcDbAttributeDefinition
  3
DATA UTWORZENIA
  2
DATA_UTWORZENIA_001
 70
     0
  0
ATTDEF
  5
33E
102
{ACAD_XDICTIONARY
360
A7E
102
}
330
334
100
AcDbEntity
  8
Title (ISO)
100
AcDbText
 10
178.2697645862628
 20
14.5163222312757
 30
0.0
 40
2.5
  1
Koła gimnastyczne
  7
Note Text (ISO)
100
AcDbAttributeDefinition
  3
Nazwa
  2
Nazwa_001
 70
     0
  0
ENDBLK
  5
336
330
334
100
AcDbEntity
  8
0
100
AcDbBlockEnd
  0
BLOCK
  5
348
330
347
100
AcDbEntity
  8
0
100
AcDbBlockBegin
  2
*D2
 70
     1
 10
0.0
 20
0.0
 30
0.0
  3
*D2
  1

  0
LINE
  5
425
330
347
100
AcDbEntity
  8
Dimension (ISO)
100
AcDbLine
 10
18127.13620105848
 20
5136.606582668264
 30
0.0
 11
20821.28675302431
 21
5136.606582668264
 31
0.0
  0
LINE
  5
426
330
347
100
AcDbEntity
  8
Dimension (ISO)
100
AcDbLine
 10
18127.13620105848
 20
1036.606582668264
 30
0.0
 11
20821.28675302431
 21
1036.606582668263
 31
0.0
  0
LINE
  5
427
330
347
100
AcDbEntity
  8
Dimension (ISO)
100
AcDbLine
 10
20771.28675302431
 20
5011.606582668264
 30
0.0
 11
20771.28675302431
 21
1161.606582668263
 31
0.0
  0
SOLID
  5
428
330
347
100
AcDbEntity
  8
Dimension (ISO)
100
AcDbTrace
 10
20750.45341969098
 20
5011.606582668264
 30
0.0
 11
20792.12008635765
 21
5011.606582668264
 31
0.0
 12
20771.28675302431
 22
5136.606582668264
 32
0.0
 13
20771.28675302431
 23
5136.606582668264
 33
0.0
  0
SOLID
  5
429
330
347
100
AcDbEntity
  8
Dimension (ISO)
100
AcDbTrace
 10
20750.45341969098
 20
1161.606582668263
 30
0.0
 11
20792.12008635765
 21
1161.606582668263
 31
0.0
 12
20771.28675302431
 22
1036.606582668263
 32
0.0
 13
20771.28675302431
 23
1036.606582668263
 33
0.0
  0
MTEXT
  5
42A
330
347
100
AcDbEntity
  8
Dimension (ISO)
100
AcDbMText
 10
20551.01751309991
 20
3086.606582668264
 30
0.0
 40
175.0
 41
0.0
 71
     2
 72
     1
  1
\A1;4100
  7
Label Text (ISO)
 11
0.0000000000000001
 21
1.0
 31
0.0
 73
     1
 44
1.0
1001
ACAD
1000
MTEXTBEGIN
1070
    73
1070
     1
1070
    44
1040
1.0
1070
    74
1070
     0
1000
MTEXTEND
  0
POINT
  5
42B
330
347
100
AcDbEntity
  8
Defpoints
 62
     0
100
AcDbPoint
 10
18102.13620105848
 20
5136.606582668264
 30
0.0
  0
POINT
  5
42C
330
347
100
AcDbEntity
  8
Defpoints
 62
     0
100
AcDbPoint
 10
18102.13620105848
 20
1036.606582668264
 30
0.0
  0
POINT
  5
42D
330
347
100
AcDbEntity
  8
Defpoints
 62
     0
100
AcDbPoint
 10
20771.28675302431
 20
1036.606582668263
 30
0.0
  0
ENDBLK
  5
349
330
347
100
AcDbEntity
  8
0
100
AcDbBlockEnd
  0
BLOCK
  5
430
330
42F
100
AcDbEntity
  8
0
100
AcDbBlockBegin
  2
*D3
 70
     1
 10
0.0
 20
0.0
 30
0.0
  3
*D3
  1

  0
LINE
  5
507
330
42F
100
AcDbEntity
  8
Dimension (ISO)
100
AcDbLine
 10
20152.13620105848
 20
3061.606582668264
 30
0.0
 11
20152.13620105848
 21
643.1883957446139
 31
0.0
  0
LINE
  5
508
330
42F
100
AcDbEntity
  8
Dimension (ISO)
100
AcDbLine
 10
14352.13620105848
 20
3061.606582668265
 30
0.0
 11
14352.13620105848
 21
643.1883957446143
 31
0.0
  0
LINE
  5
509
330
42F
100
AcDbEntity
  8
Dimension (ISO)
100
AcDbLine
 10
20027.13620105848
 20
693.1883957446141
 30
0.0
 11
14477.13620105847
 21
693.1883957446141
 31
0.0
  0
SOLID
  5
50A
330
42F
100
AcDbEntity
  8
Dimension (ISO)
100
AcDbTrace
 10
20027.13620105848
 20
714.0217290779474
 30
0.0
 11
20027.13620105848
 21
672.3550624112808
 31
0.0
 12
20152.13620105848
 22
693.1883957446141
 32
0.0
 13
20152.13620105848
 23
693.1883957446141
 33
0.0
  0
SOLID
  5
50B
330
42F
100
AcDbEntity
  8
Dimension (ISO)
100
AcDbTrace
 10
14477.13620105847
 20
714.0217290779474
 30
0.0
 11
14477.13620105847
 21
672.3550624112808
 31
0.0
 12
14352.13620105848
 22
693.1883957446141
 32
0.0
 13
14352.13620105848
 23
693.1883957446141
 33
0.0
  0
MTEXT
  5
50C
330
42F
100
AcDbEntity
  8
Dimension (ISO)
100
AcDbMText
 10
17252.13620105848
 20
914.2803354622268
 30
0.0
 40
175.0
 41
0.0
 71
     2
 72
     1
  1
\A1;5800
  7
Label Text (ISO)
 73
     1
 44
1.0
1001
ACAD
1000
MTEXTBEGIN
1070
    73
1070
     1
1070
    44
1040
1.0
1070
    74
1070
     0
1000
MTEXTEND
  0
POINT
  5
50D
330
42F
100
AcDbEntity
  8
Defpoints
 62
     0
100
AcDbPoint
 10
20152.13620105848
 20
3086.606582668264
 30
0.0
  0
POINT
  5
50E
330
42F
100
AcDbEntity
  8
Defpoints
 62
     0
100
AcDbPoint
 10
14352.13620105848
 20
3086.606582668264
 30
0.0
  0
POINT
  5
50F
330
42F
100
AcDbEntity
  8
Defpoints
 62
     0
100
AcDbPoint
 10
14352.13620105848
 20
693.1883957446141
 30
0.0
  0
ENDBLK
  5
431
330
42F
100
AcDbEntity
  8
0
100
AcDbBlockEnd
  0
BLOCK
  5
512
330
511
100
AcDbEntity
  8
0
100
AcDbBlockBegin
  2
*D4
 70
     1
 10
0.0
 20
0.0
 30
0.0
  3
*D4
  1

  0
LINE
  5
5EF
330
511
100
AcDbEntity
  8
Dimension (ISO)
100
AcDbLine
 10
18155.00566929203
 20
3686.606582592006
 30
0.0
 11
18781.00576982379
 21
3686.606582592006
 31
0.0
  0
LINE
  5
5F0
330
511
100
AcDbEntity
  8
Dimension (ISO)
100
AcDbLine
 10
16457.26673282492
 20
2486.606582745208
 30
0.0
 11
18781.00576982379
 21
2486.606582745207
 31
0.0
  0
LINE
  5
5F1
330
511
100
AcDbEntity
  8
Dimension (ISO)
100
AcDbLine
 10
18731.00576982379
 20
3561.606582592006
 30
0.0
 11
18731.00576982379
 21
2611.606582745207
 31
0.0
  0
SOLID
  5
5F2
330
511
100
AcDbEntity
  8
Dimension (ISO)
100
AcDbTrace
 10
18710.17243649046
 20
3561.606582592006
 30
0.0
 11
18751.83910315712
 21
3561.606582592006
 31
0.0
 12
18731.00576982379
 22
3686.606582592006
 32
0.0
 13
18731.00576982379
 23
3686.606582592006
 33
0.0
  0
SOLID
  5
5F3
330
511
100
AcDbEntity
  8
Dimension (ISO)
100
AcDbTrace
 10
18710.17243649046
 20
2611.606582745207
 30
0.0
 11
18751.83910315712
 21
2611.606582745207
 31
0.0
 12
18731.00576982379
 22
2486.606582745207
 32
0.0
 13
18731.00576982379
 23
2486.606582745207
 33
0.0
  0
MTEXT
  5
5F4
330
511
100
AcDbEntity
  8
Dimension (ISO)
100
AcDbMText
 10
18510.6190013575
 20
3086.606582668607
 30
0.0
 40
175.0
 41
0.0
 71
     2
 72
     1
  1
\A1;1200
  7
Label Text (ISO)
 11
0.0000000000000001
 21
1.0
 31
0.0
 73
     1
 44
1.0
1001
ACAD
1000
MTEXTBEGIN
1070
    73
1070
     1
1070
    44
1040
1.0
1070
    74
1070
     0
1000
MTEXTEND
  0
POINT
  5
5F5
330
511
100
AcDbEntity
  8
Defpoints
 62
     0
100
AcDbPoint
 10
18130.00566929203
 20
3686.606582592006
 30
0.0
  0
POINT
  5
5F6
330
511
100
AcDbEntity
  8
Defpoints
 62
     0
100
AcDbPoint
 10
16432.26673282492
 20
2486.606582745208
 30
0.0
  0
POINT
  5
5F7
330
511
100
AcDbEntity
  8
Defpoints
 62
     0
100
AcDbPoint
 10
18731.00576982379
 20
2486.606582745207
 30
0.0
  0
ENDBLK
  5
513
330
511
100
AcDbEntity
  8
0
100
AcDbBlockEnd
  0
BLOCK
  5
5FA
330
5F9
100
AcDbEntity
  8
0
100
AcDbBlockBegin
  2
*D5
 70
     1
 10
0.0
 20
0.0
 30
0.0
  3
*D5
  1

  0
LINE
  5
6D1
330
5F9
100
AcDbEntity
  8
Dimension (ISO)
100
AcDbLine
 10
18151.00566929205
 20
3016.60658266923
 30
0.0
 11
18151.00566929205
 21
1926.917560818605
 31
0.0
  0
LINE
  5
6D2
330
5F9
100
AcDbEntity
  8
Dimension (ISO)
100
AcDbLine
 10
16353.26673282493
 20
3016.606582669227
 30
0.0
 11
16353.26673282493
 21
1926.917560818605
 31
0.0
  0
LINE
  5
6D3
330
5F9
100
AcDbEntity
  8
Dimension (ISO)
100
AcDbLine
 10
18026.00566929205
 20
1976.917560818605
 30
0.0
 11
16478.26673282493
 21
1976.917560818605
 31
0.0
  0
SOLID
  5
6D4
330
5F9
100
AcDbEntity
  8
Dimension (ISO)
100
AcDbTrace
 10
18026.00566929205
 20
1997.750894151938
 30
0.0
 11
18026.00566929205
 21
1956.084227485272
 31
0.0
 12
18151.00566929205
 22
1976.917560818605
 32
0.0
 13
18151.00566929205
 23
1976.917560818605
 33
0.0
  0
SOLID
  5
6D5
330
5F9
100
AcDbEntity
  8
Dimension (ISO)
100
AcDbTrace
 10
16478.26673282493
 20
1997.750894151938
 30
0.0
 11
16478.26673282493
 21
1956.084227485272
 31
0.0
 12
16353.26673282493
 22
1976.917560818605
 32
0.0
 13
16353.26673282493
 23
1976.917560818605
 33
0.0
  0
MTEXT
  5
6D6
330
5F9
100
AcDbEntity
  8
Dimension (ISO)
100
AcDbMText
 10
17252.13620105849
 20
2198.009500536218
 30
0.0
 40
175.0
 41
0.0
 71
     2
 72
     1
  1
\A1;1798
  7
Label Text (ISO)
 73
     1
 44
1.0
1001
ACAD
1000
MTEXTBEGIN
1070
    73
1070
     1
1070
    44
1040
1.0
1070
    74
1070
     0
1000
MTEXTEND
  0
POINT
  5
6D7
330
5F9
100
AcDbEntity
  8
Defpoints
 62
     0
100
AcDbPoint
 10
18151.00566929205
 20
3041.60658266923
 30
0.0
  0
POINT
  5
6D8
330
5F9
100
AcDbEntity
  8
Defpoints
 62
     0
100
AcDbPoint
 10
16353.26673282493
 20
3041.606582669227
 30
0.0
  0
POINT
  5
6D9
330
5F9
100
AcDbEntity
  8
Defpoints
 62
     0
100
AcDbPoint
 10
16353.26673282493
 20
1976.917560818605
 30
0.0
  0
ENDBLK
  5
5FB
330
5F9
100
AcDbEntity
  8
0
100
AcDbBlockEnd
  0
BLOCK
  5
6DC
330
6DB
100
AcDbEntity
  8
0
100
AcDbBlockBegin
  2
*D6
 70
     1
 10
0.0
 20
0.0
 30
0.0
  3
*D6
  1

  0
LINE
  5
7B7
330
6DB
100
AcDbEntity
  8
Dimension (ISO)
100
AcDbLine
 10
16128.26673282634
 20
5543.473020825864
 30
0.0
 11
15422.91103990604
 21
5543.473020825864
 31
0.0
  0
LINE
  5
7B8
330
6DB
100
AcDbEntity
  8
Dimension (ISO)
100
AcDbLine
 10
15472.91103990604
 20
6126.473020825862
 30
0.0
 11
15472.91103990604
 21
5668.473020825864
 31
0.0
  0
SOLID
  5
7B9
330
6DB
100
AcDbEntity
  8
Dimension (ISO)
100
AcDbTrace
 10
15452.0777065727
 20
6126.473020825862
 30
0.0
 11
15493.74437323937
 21
6126.473020825862
 31
0.0
 12
15472.91103990604
 22
6251.473020825862
 32
0.0
 13
15472.91103990604
 23
6251.473020825862
 33
0.0
  0
SOLID
  5
7BA
330
6DB
100
AcDbEntity
  8
Dimension (ISO)
100
AcDbTrace
 10
15452.0777065727
 20
5668.473020825864
 30
0.0
 11
15493.74437323937
 21
5668.473020825864
 31
0.0
 12
15472.91103990604
 22
5543.473020825864
 32
0.0
 13
15472.91103990604
 23
5543.473020825864
 33
0.0
  0
MTEXT
  5
7BB
330
6DB
100
AcDbEntity
  8
Dimension (ISO)
100
AcDbMText
 10
15251.81910018842
 20
5897.473020825863
 30
0.0
 40
175.0
 41
0.0
 71
     2
 72
     1
  1
\A1;708
  7
Label Text (ISO)
 11
0.0000000000000001
 21
1.0
 31
0.0
 73
     1
 44
1.0
1001
ACAD
1000
MTEXTBEGIN
1070
    73
1070
     1
1070
    44
1040
1.0
1070
    74
1070
     0
1000
MTEXTEND
  0
POINT
  5
7BC
330
6DB
100
AcDbEntity
  8
Defpoints
 62
     0
100
AcDbPoint
 10
15377.13620105989
 20
6251.473020825862
 30
0.0
  0
POINT
  5
7BD
330
6DB
100
AcDbEntity
  8
Defpoints
 62
     0
100
AcDbPoint
 10
16153.26673282634
 20
5543.473020825864
 30
0.0
  0
POINT
  5
7BE
330
6DB
100
AcDbEntity
  8
Defpoints
 62
     0
100
AcDbPoint
 10
15472.91103990604
 20
5543.473020825864
 30
0.0
  0
ENDBLK
  5
6DD
330
6DB
100
AcDbEntity
  8
0
100
AcDbBlockEnd
  0
BLOCK
  5
7C1
330
7C0
100
AcDbEntity
  8
0
100
AcDbBlockBegin
  2
*D7
 70
     1
 10
0.0
 20
0.0
 30
0.0
  3
*D7
  1

  0
LINE
  5
89C
330
7C0
100
AcDbEntity
  8
Dimension (ISO)
100
AcDbLine
 10
18225.00061865955
 20
5693.473020825858
 30
0.0
 11
18860.01210800173
 21
5693.473020825857
 31
0.0
  0
LINE
  5
89D
330
7C0
100
AcDbEntity
  8
Dimension (ISO)
100
AcDbLine
 10
18810.01210800173
 20
6126.473020825862
 30
0.0
 11
18810.01210800173
 21
5818.473020825857
 31
0.0
  0
SOLID
  5
89E
330
7C0
100
AcDbEntity
  8
Dimension (ISO)
100
AcDbTrace
 10
18789.1787746684
 20
6126.473020825862
 30
0.0
 11
18830.84544133506
 21
6126.473020825862
 31
0.0
 12
18810.01210800173
 22
6251.473020825862
 32
0.0
 13
18810.01210800173
 23
6251.473020825862
 33
0.0
  0
SOLID
  5
89F
330
7C0
100
AcDbEntity
  8
Dimension (ISO)
100
AcDbTrace
 10
18789.1787746684
 20
5818.473020825857
 30
0.0
 11
18830.84544133506
 21
5818.473020825857
 31
0.0
 12
18810.01210800173
 22
5693.473020825857
 32
0.0
 13
18810.01210800173
 23
5693.473020825857
 33
0.0
  0
MTEXT
  5
8A0
330
7C0
100
AcDbEntity
  8
Dimension (ISO)
100
AcDbMText
 10
18588.92016828412
 20
5972.47302082586
 30
0.0
 40
175.0
 41
0.0
 71
     2
 72
     1
  1
\A1;558
  7
Label Text (ISO)
 11
0.0000000000000001
 21
1.0
 31
0.0
 73
     1
 44
1.0
1001
ACAD
1000
MTEXTBEGIN
1070
    73
1070
     1
1070
    44
1040
1.0
1070
    74
1070
     0
1000
MTEXTEND
  0
POINT
  5
8A1
330
7C0
100
AcDbEntity
  8
Defpoints
 62
     0
100
AcDbPoint
 10
18810.01210800173
 20
6251.473020825862
 30
0.0
  0
POINT
  5
8A2
330
7C0
100
AcDbEntity
  8
Defpoints
 62
     0
100
AcDbPoint
 10
18200.00061865956
 20
5693.473020825858
 30
0.0
  0
POINT
  5
8A3
330
7C0
100
AcDbEntity
  8
Defpoints
 62
     0
100
AcDbPoint
 10
18810.01210800173
 20
5693.473020825857
 30
0.0
  0
ENDBLK
  5
7C2
330
7C0
100
AcDbEntity
  8
0
100
AcDbBlockEnd
  0
BLOCK
  5
8A6
330
8A5
100
AcDbEntity
  8
0
100
AcDbBlockBegin
  2
*D8
 70
     1
 10
0.0
 20
0.0
 30
0.0
  3
*D8
  1

  0
LINE
  5
981
330
8A5
100
AcDbEntity
  8
Dimension (ISO)
100
AcDbLine
 10
17509.6362010599
 20
8487.979686365891
 30
0.0
 11
17882.71186930206
 21
8487.979686365891
 31
0.0
  0
LINE
  5
982
330
8A5
100
AcDbEntity
  8
Dimension (ISO)
100
AcDbLine
 10
17832.71186930206
 20
8362.979686365891
 30
0.0
 11
17832.71186930206
 21
6376.473020825862
 31
0.0
  0
SOLID
  5
983
330
8A5
100
AcDbEntity
  8
Dimension (ISO)
100
AcDbTrace
 10
17811.87853596873
 20
8362.979686365891
 30
0.0
 11
17853.54520263539
 21
8362.979686365891
 31
0.0
 12
17832.71186930206
 22
8487.979686365891
 32
0.0
 13
17832.71186930206
 23
8487.979686365891
 33
0.0
  0
SOLID
  5
984
330
8A5
100
AcDbEntity
  8
Dimension (ISO)
100
AcDbTrace
 10
17811.87853596873
 20
6376.473020825862
 30
0.0
 11
17853.54520263539
 21
6376.473020825862
 31
0.0
 12
17832.71186930206
 22
6251.473020825862
 32
0.0
 13
17832.71186930206
 23
6251.473020825862
 33
0.0
  0
MTEXT
  5
985
330
8A5
100
AcDbEntity
  8
Dimension (ISO)
100
AcDbMText
 10
17612.32510083577
 20
7369.726353595877
 30
0.0
 40
175.0
 41
0.0
 71
     2
 72
     1
  1
\A1;2237
  7
Label Text (ISO)
 11
0.0000000000000001
 21
1.0
 31
0.0
 73
     1
 44
1.0
1001
ACAD
1000
MTEXTBEGIN
1070
    73
1070
     1
1070
    44
1040
1.0
1070
    74
1070
     0
1000
MTEXTEND
  0
POINT
  5
986
330
8A5
100
AcDbEntity
  8
Defpoints
 62
     0
100
AcDbPoint
 10
17484.6362010599
 20
8487.979686365891
 30
0.0
  0
POINT
  5
987
330
8A5
100
AcDbEntity
  8
Defpoints
 62
     0
100
AcDbPoint
 10
17832.71186930206
 20
6251.473020825862
 30
0.0
  0
POINT
  5
988
330
8A5
100
AcDbEntity
  8
Defpoints
 62
     0
100
AcDbPoint
 10
17832.71186930206
 20
6251.473020825862
 30
0.0
  0
ENDBLK
  5
8A7
330
8A5
100
AcDbEntity
  8
0
100
AcDbBlockEnd
  0
BLOCK
  5
98B
330
98A
100
AcDbEntity
  8
0
100
AcDbBlockBegin
  2
*D9
 70
     1
 10
0.0
 20
0.0
 30
0.0
  3
*D9
  1

  0
LINE
  5
A6E
330
98A
100
AcDbEntity
  8
Dimension (ISO)
100
AcDbLine
 10
17629.6362010599
 20
10149.61079747699
 30
0.0
 11
18860.01210800173
 21
10149.61079747699
 31
0.0
  0
LINE
  5
A6F
330
98A
100
AcDbEntity
  8
Dimension (ISO)
100
AcDbLine
 10
18810.01210800173
 20
10024.61079747699
 30
0.0
 11
18810.01210800173
 21
6376.473020825862
 31
0.0
  0
SOLID
  5
A70
330
98A
100
AcDbEntity
  8
Dimension (ISO)
100
AcDbTrace
 10
18789.1787746684
 20
10024.61079747699
 30
0.0
 11
18830.84544133506
 21
10024.61079747699
 31
0.0
 12
18810.01210800173
 22
10149.61079747699
 32
0.0
 13
18810.01210800173
 23
10149.61079747699
 33
0.0
  0
SOLID
  5
A71
330
98A
100
AcDbEntity
  8
Dimension (ISO)
100
AcDbTrace
 10
18789.1787746684
 20
6376.473020825862
 30
0.0
 11
18830.84544133506
 21
6376.473020825862
 31
0.0
 12
18810.01210800173
 22
6251.473020825862
 32
0.0
 13
18810.01210800173
 23
6251.473020825862
 33
0.0
  0
MTEXT
  5
A72
330
98A
100
AcDbEntity
  8
Dimension (ISO)
100
AcDbMText
 10
18589.62533953544
 20
8200.541909151429
 30
0.0
 40
175.0
 41
0.0
 71
     2
 72
     1
  1
\A1;3900
  7
Label Text (ISO)
 11
0.0000000000000001
 21
1.0
 31
0.0
 73
     1
 44
1.0
1001
ACAD
1000
MTEXTBEGIN
1070
    73
1070
     1
1070
    44
1040
1.0
1070
    74
1070
     0
1000
MTEXTEND
  0
POINT
  5
A73
330
98A
100
AcDbEntity
  8
Defpoints
 62
     0
100
AcDbPoint
 10
17604.6362010599
 20
10149.61079747699
 30
0.0
  0
POINT
  5
A74
330
98A
100
AcDbEntity
  8
Defpoints
 62
     0
100
AcDbPoint
 10
18810.01210800173
 20
6251.473020825862
 30
0.0
  0
POINT
  5
A75
330
98A
100
AcDbEntity
  8
Defpoints
 62
     0
100
AcDbPoint
 10
18810.01210800173
 20
6251.473020825862
 30
0.0
  0
ENDBLK
  5
98C
330
98A
100
AcDbEntity
  8
0
100
AcDbBlockEnd
  0
BLOCK
  5
B3A
330
B39
100
AcDbEntity
  8
0
100
AcDbBlockBegin
  2
88100_Kola-gimanstyczne
 70
     0
 10
0.0
 20
0.0
 30
0.0
  3
88100_Kola-gimanstyczne
  1

  0
LINE
  5
D33
330
B39
100
AcDbEntity
  8
Visible (ISO)
100
AcDbLine
 10
187.5
 20
0.0
 30
0.0
 11
-187.5
 21
0.0
 31
0.0
  0
LINE
  5
D34
330
B39
100
AcDbEntity
  8
Visible (ISO)
100
AcDbLine
 10
187.5
 20
0.0
 30
0.0
 11
187.5
 21
6.000000000000909
 31
0.0
  0
LINE
  5
D35
330
B39
100
AcDbEntity
  8
Visible (ISO)
100
AcDbLine
 10
-187.5
 20
0.0
 30
0.0
 11
-187.5
 21
6.000000000000909
 31
0.0
  0
LINE
  5
D36
330
B39
100
AcDbEntity
  8
Visible (ISO)
100
AcDbLine
 10
187.5
 20
102.0000000000009
 30
0.0
 11
187.5
 21
108.0000000000009
 31
0.0
  0
LINE
  5
D37
330
B39
100
AcDbEntity
  8
Visible (ISO)
100
AcDbLine
 10
187.5
 20
108.0000000000009
 30
0.0
 11
-187.5
 21
108.0000000000009
 31
0.0
  0
LINE
  5
D38
330
B39
100
AcDbEntity
  8
Visible (ISO)
100
AcDbLine
 10
-187.5
 20
102.0000000000009
 30
0.0
 11
-187.5
 21
108.0000000000009
 31
0.0
  0
LINE
  5
D39
330
B39
100
AcDbEntity
  8
Visible (ISO)
100
AcDbLine
 10
-187.5
 20
102.0000000000009
 30
0.0
 11
-187.5
 21
6.000000000000909
 31
0.0
  0
LINE
  5
D3A
330
B39
100
AcDbEntity
  8
Visible (ISO)
100
AcDbLine
 10
187.5
 20
102.0000000000009
 30
0.0
 11
187.5
 21
6.000000000000909
 31
0.0
  0
ARC
  5
D3B
330
B39
100
AcDbEntity
  8
Visible (ISO)
100
AcDbCircle
 10
893.8694682335626
 20
9.000000000000909
 30
0.0
 40
4.999999999999999
100
AcDbArc
 50
270.0
 51
0.0
  0
LINE
  5
D3C
330
B39
100
AcDbEntity
  8
Visible (ISO)
100
AcDbLine
 10
898.8694682335626
 20
99.0
 30
0.0
 11
898.8694682335626
 21
9.000000000000909
 31
0.0
  0
ARC
  5
D3D
330
B39
100
AcDbEntity
  8
Visible (ISO)
100
AcDbCircle
 10
893.8694682335626
 20
99.0
 30
0.0
 40
4.999999999999999
100
AcDbArc
 50
0.0
 51
90.0
  0
ARC
  5
D3E
330
B39
100
AcDbEntity
  8
Visible (ISO)
100
AcDbCircle
 10
-893.8694682335553
 20
99.0
 30
0.0
 40
5.000000000000008
100
AcDbArc
 50
90.0
 51
180.0
  0
LINE
  5
D3F
330
B39
100
AcDbEntity
  8
Visible (ISO)
100
AcDbLine
 10
-898.8694682335554
 20
9.0
 30
0.0
 11
-898.8694682335554
 21
99.0
 31
0.0
  0
ARC
  5
D40
330
B39
100
AcDbEntity
  8
Visible (ISO)
100
AcDbCircle
 10
-893.8694682335553
 20
9.0
 30
0.0
 40
5.000000000000008
100
AcDbArc
 50
180.0
 51
270.0
  0
ARC
  5
D41
330
B39
100
AcDbEntity
  8
Visible (ISO)
100
AcDbCircle
 10
893.8694682335626
 20
99.0000000000009
 30
0.0
 40
5.000000000000007
100
AcDbArc
 50
0.0
 51
90.0
  0
LINE
  5
D42
330
B39
100
AcDbEntity
  8
Visible (ISO)
100
AcDbLine
 10
898.8694682335626
 20
9.000000000001818
 30
0.0
 11
898.8694682335626
 21
99.0000000000009
 31
0.0
  0
ARC
  5
D43
330
B39
100
AcDbEntity
  8
Visible (ISO)
100
AcDbCircle
 10
893.8694682335626
 20
9.000000000001818
 30
0.0
 40
5.000000000000007
100
AcDbArc
 50
270.0
 51
0.0
  0
LINE
  5
D44
330
B39
100
AcDbEntity
  8
Visible (ISO)
100
AcDbLine
 10
350.1684617092251
 20
4.000000000001818
 30
0.0
 11
893.8694682335626
 21
4.000000000001818
 31
0.0
  0
LINE
  5
D45
330
B39
100
AcDbEntity
  8
Visible (ISO)
100
AcDbLine
 10
893.8694682335626
 20
104.0000000000009
 30
0.0
 11
350.1684617092251
 21
104.0000000000009
 31
0.0
  0
ELLIPSE
  5
D46
330
B39
100
AcDbEntity
  8
Visible (ISO)
100
AcDbEllipse
 10
350.1684617092251
 20
9.000000000001818
 30
0.0
 11
-0.0000000000000078
 21
-5.000000000000005
 31
0.0
210
0.0
220
0.0
230
1.0
 40
0.4663076581549978
 41
0.0
 42
1.570796326794897
  0
LINE
  5
D47
330
B39
100
AcDbEntity
  8
Visible (ISO)
100
AcDbLine
 10
352.5
 20
99.0000000000009
 30
0.0
 11
352.5
 21
9.000000000001818
 31
0.0
  0
ELLIPSE
  5
D48
330
B39
100
AcDbEntity
  8
Visible (ISO)
100
AcDbEllipse
 10
350.1684617092251
 20
99.0000000000009
 30
0.0
 11
-0.0000000000000074
 21
-5.000000000000005
 31
0.0
210
0.0
220
0.0
230
1.0
 40
0.4663076581549978
 41
1.570796326794897
 42
3.141592653589791
  0
ARC
  5
D49
330
B39
100
AcDbEntity
  8
Visible (ISO)
100
AcDbCircle
 10
-893.8694682335553
 20
8.99999999999909
 30
0.0
 40
5.000000000000016
100
AcDbArc
 50
180.0
 51
270.0
  0
LINE
  5
D4A
330
B39
100
AcDbEntity
  8
Visible (ISO)
100
AcDbLine
 10
-898.8694682335554
 20
99.0
 30
0.0
 11
-898.8694682335554
 21
9.0
 31
0.0
  0
ARC
  5
D4B
330
B39
100
AcDbEntity
  8
Visible (ISO)
100
AcDbCircle
 10
-893.8694682335553
 20
99.0
 30
0.0
 40
5.000000000000016
100
AcDbArc
 50
90.0
 51
180.0
  0
LINE
  5
D4C
330
B39
100
AcDbEntity
  8
Visible (ISO)
100
AcDbLine
 10
-350.1684617092251
 20
104.0
 30
0.0
 11
-893.8694682335553
 21
103.9999999999991
 31
0.0
  0
LINE
  5
D4D
330
B39
100
AcDbEntity
  8
Visible (ISO)
100
AcDbLine
 10
-893.8694682335553
 20
3.99999999999909
 30
0.0
 11
-350.1684617092251
 21
4.0
 31
0.0
  0
ELLIPSE
  5
D4E
330
B39
100
AcDbEntity
  8
Visible (ISO)
100
AcDbEllipse
 10
-350.1684617092251
 20
99.0
 30
0.0
 11
0.0000000000000084
 21
5.000000000000005
 31
0.0
210
0.0
220
0.0
230
1.0
 40
0.4663076581550032
 41
0.0
 42
1.570796326794897
  0
LINE
  5
D4F
330
B39
100
AcDbEntity
  8
Visible (ISO)
100
AcDbLine
 10
-352.5
 20
9.0
 30
0.0
 11
-352.5
 21
99.0
 31
0.0
  0
ELLIPSE
  5
D50
330
B39
100
AcDbEntity
  8
Visible (ISO)
100
AcDbEllipse
 10
-350.1684617092251
 20
9.0
 30
0.0
 11
0.000000000000008
 21
5.000000000000005
 31
0.0
210
0.0
220
0.0
230
1.0
 40
0.4663076581550032
 41
1.570796326794897
 42
3.141592653589798
  0
LINE
  5
D51
330
B39
100
AcDbEntity
  8
Visible (ISO)
100
AcDbLine
 10
352.5
 20
9.000000000002728
 30
0.0
 11
352.5
 21
99.00000000000183
 31
0.0
  0
ELLIPSE
  5
D52
330
B39
100
AcDbEntity
  8
Visible (ISO)
100
AcDbEllipse
 10
350.1684617092251
 20
99.00000000000183
 30
0.0
 11
0.0000000000000038
 21
5.00000000000002
 31
0.0
210
0.0
220
0.0
230
1.0
 40
0.4663076581549949
 41
4.712388980384689
 42
6.283185307179584
  0
ELLIPSE
  5
D53
330
B39
100
AcDbEntity
  8
Visible (ISO)
100
AcDbEllipse
 10
350.1684617092251
 20
9.000000000002728
 30
0.0
 11
0.0000000000000043
 21
5.00000000000002
 31
0.0
210
0.0
220
0.0
230
1.0
 40
0.4663076581549949
 41
3.141592653589793
 42
4.712388980384689
  0
LINE
  5
D54
330
B39
100
AcDbEntity
  8
Visible (ISO)
100
AcDbLine
 10
187.5
 20
4.000000000002728
 30
0.0
 11
350.1684617092251
 21
4.000000000002728
 31
0.0
  0
LINE
  5
D55
330
B39
100
AcDbEntity
  8
Visible (ISO)
100
AcDbLine
 10
350.1684617092251
 20
104.0000000000018
 30
0.0
 11
187.5
 21
104.0000000000027
 31
0.0
  0
LINE
  5
D56
330
B39
100
AcDbEntity
  8
Visible (ISO)
100
AcDbLine
 10
-352.5
 20
99.0
 30
0.0
 11
-352.5
 21
9.0
 31
0.0
  0
ELLIPSE
  5
D57
330
B39
100
AcDbEntity
  8
Visible (ISO)
100
AcDbEllipse
 10
-350.1684617092251
 20
9.0
 30
0.0
 11
-0.0000000000000044
 21
-5.00000000000002
 31
0.0
210
0.0
220
0.0
230
1.0
 40
0.4663076581550002
 41
4.712388980384689
 42
6.283185307179591
  0
ELLIPSE
  5
D58
330
B39
100
AcDbEntity
  8
Visible (ISO)
100
AcDbEllipse
 10
-350.1684617092251
 20
99.0
 30
0.0
 11
-0.0000000000000049
 21
-5.00000000000002
 31
0.0
210
0.0
220
0.0
230
1.0
 40
0.4663076581550002
 41
3.141592653589799
 42
4.712388980384689
  0
LINE
  5
D59
330
B39
100
AcDbEntity
  8
Visible (ISO)
100
AcDbLine
 10
-187.5
 20
103.9999999999991
 30
0.0
 11
-350.1684617092251
 21
104.0
 31
0.0
  0
LINE
  5
D5A
330
B39
100
AcDbEntity
  8
Visible (ISO)
100
AcDbLine
 10
-350.1684617092251
 20
4.0
 30
0.0
 11
-187.5
 21
4.0
 31
0.0
  0
ARC
  5
D5B
330
B39
100
AcDbEntity
  8
Visible (ISO)
100
AcDbCircle
 10
877.8694682335625
 20
647.9999999233978
 30
0.0
 40
6.000000000000005
100
AcDbArc
 50
0.0
 51
90.0
  0
LINE
  5
D5C
330
B39
100
AcDbEntity
  8
Visible (ISO)
100
AcDbLine
 10
819.8694682335625
 20
653.9999999233987
 30
0.0
 11
877.8694682335625
 21
653.9999999233987
 31
0.0
  0
ARC
  5
D5D
330
B39
100
AcDbEntity
  8
Visible (ISO)
100
AcDbCircle
 10
819.8694682335625
 20
647.9999999233978
 30
0.0
 40
6.000000000000005
100
AcDbArc
 50
90.0
 51
180.0
  0
ARC
  5
D5E
330
B39
100
AcDbEntity
  8
Visible (ISO)
100
AcDbCircle
 10
-877.8694682335482
 20
-539.9999999234005
 30
0.0
 40
6.000000000000001
100
AcDbArc
 50
180.0
 51
270.0
  0
LINE
  5
D5F
330
B39
100
AcDbEntity
  8
Visible (ISO)
100
AcDbLine
 10
-819.8694682335482
 20
-545.9999999234005
 30
0.0
 11
-877.8694682335482
 21
-545.9999999234005
 31
0.0
  0
ARC
  5
D60
330
B39
100
AcDbEntity
  8
Visible (ISO)
100
AcDbCircle
 10
-819.8694682335482
 20
-539.9999999234014
 30
0.0
 40
6.000000000000001
100
AcDbArc
 50
270.0
 51
0.0
  0
LINE
  5
D61
330
B39
100
AcDbEntity
  8
Visible (ISO)
100
AcDbLine
 10
883.8694682335626
 20
647.9999999000028
 30
0.0
 11
883.8694682335626
 21
104.0000000000009
 31
0.0
  0
LINE
  5
D62
330
B39
100
AcDbEntity
  8
Visible (ISO)
100
AcDbLine
 10
813.8694682335627
 20
647.9999999000028
 30
0.0
 11
813.8694682335627
 21
104.0000000000009
 31
0.0
  0
ARC
  5
D63
330
B39
100
AcDbEntity
  8
Visible (ISO)
100
AcDbCircle
 10
877.8694682335625
 20
647.9999999000028
 30
0.0
 40
6.000000000000016
100
AcDbArc
 50
0.0
 51
90.0
  0
LINE
  5
D64
330
B39
100
AcDbEntity
  8
Visible (ISO)
100
AcDbLine
 10
819.8694682335625
 20
653.9999999233987
 30
0.0
 11
877.8694682335625
 21
653.9999999233987
 31
0.0
  0
ARC
  5
D65
330
B39
100
AcDbEntity
  8
Visible (ISO)
100
AcDbCircle
 10
819.8694682335625
 20
647.9999999000028
 30
0.0
 40
6.000000000000016
100
AcDbArc
 50
90.0
 51
180.0
  0
LINE
  5
D66
330
B39
100
AcDbEntity
  8
Visible (ISO)
100
AcDbLine
 10
-883.869468233548
 20
-539.9999999000047
 30
0.0
 11
-883.869468233548
 21
3.999999999997271
 31
0.0
  0
LINE
  5
D67
330
B39
100
AcDbEntity
  8
Visible (ISO)
100
AcDbLine
 10
-813.8694682335481
 20
-539.9999999000047
 30
0.0
 11
-813.8694682335481
 21
3.999999999997271
 31
0.0
  0
ARC
  5
D68
330
B39
100
AcDbEntity
  8
Visible (ISO)
100
AcDbCircle
 10
-877.8694682335482
 20
-539.9999999000047
 30
0.0
 40
6.000000000000014
100
AcDbArc
 50
180.0
 51
270.0
  0
LINE
  5
D69
330
B39
100
AcDbEntity
  8
Visible (ISO)
100
AcDbLine
 10
-819.8694682335482
 20
-545.9999999234005
 30
0.0
 11
-877.8694682335482
 21
-545.9999999234005
 31
0.0
  0
ARC
  5
D6A
330
B39
100
AcDbEntity
  8
Visible (ISO)
100
AcDbCircle
 10
-819.8694682335482
 20
-539.9999999000047
 30
0.0
 40
6.000000000000014
100
AcDbArc
 50
270.0
 51
0.0
  0
LINE
  5
D6B
330
B39
100
AcDbEntity
  8
Visible (ISO)
100
AcDbLine
 10
-849.9999999999891
 20
-1496.0
 30
0.0
 11
850.000000000011
 21
-1496.0
 31
0.0
  0
ARC
  5
D6C
330
B39
100
AcDbEntity
  8
Visible (ISO)
100
AcDbCircle
 10
850.000000000011
 20
54.0000000000009
 30
0.0
 40
1550.0
100
AcDbArc
 50
270.0
 51
90.0
  0
LINE
  5
D6D
330
B39
100
AcDbEntity
  8
Visible (ISO)
100
AcDbLine
 10
850.000000000011
 20
1604.0
 30
0.0
 11
-849.9999999999891
 21
1604.0
 31
0.0
  0
ARC
  5
D6E
330
B39
100
AcDbEntity
  8
Visible (ISO)
100
AcDbCircle
 10
-849.9999999999891
 20
54.0000000000009
 30
0.0
 40
1550.0
100
AcDbArc
 50
90.0
 51
270.0
  0
ENDBLK
  5
B3B
330
B39
100
AcDbEntity
  8
0
100
AcDbBlockEnd
  0
BLOCK
  5
BF5
330
BF4
100
AcDbEntity
  8
0
100
AcDbBlockBegin
  2
*D11
 70
     1
 10
0.0
 20
0.0
 30
0.0
  3
*D11
  1

  0
LINE
  5
BF6
330
BF4
100
AcDbEntity
  8
Dimension (ISO)
100
AcDbLine
 10
1371.277432691354
 20
7819.580436961725
 30
0.0
 11
-713.9618676728149
 21
7819.580436961725
 31
0.0
  0
LINE
  5
BF7
330
BF4
100
AcDbEntity
  8
Dimension (ISO)
100
AcDbLine
 10
1371.277432691354
 20
4719.580436961724
 30
0.0
 11
-713.9618676728158
 21
4719.580436961724
 31
0.0
  0
LINE
  5
BF8
330
BF4
100
AcDbEntity
  8
Dimension (ISO)
100
AcDbLine
 10
-663.9618676728149
 20
7694.580436961725
 30
0.0
 11
-663.9618676728156
 21
4844.580436961724
 31
0.0
  0
SOLID
  5
BF9
330
BF4
100
AcDbEntity
  8
Dimension (ISO)
100
AcDbTrace
 10
-684.7952010061483
 20
7694.580436961725
 30
0.0
 11
-643.1285343394815
 21
7694.580436961725
 31
0.0
 12
-663.9618676728149
 22
7819.580436961725
 32
0.0
 13
-663.9618676728149
 23
7819.580436961725
 33
0.0
  0
SOLID
  5
BFA
330
BF4
100
AcDbEntity
  8
Dimension (ISO)
100
AcDbTrace
 10
-684.795201006149
 20
4844.580436961724
 30
0.0
 11
-643.1285343394822
 21
4844.580436961724
 31
0.0
 12
-663.9618676728156
 22
4719.580436961724
 32
0.0
 13
-663.9618676728156
 23
4719.580436961724
 33
0.0
  0
MTEXT
  5
BFB
330
BF4
100
AcDbEntity
  8
Dimension (ISO)
100
AcDbMText
 10
-884.3486361391088
 20
6269.580436961725
 30
0.0
 40
175.0
 41
0.0
 71
     2
 72
     1
  1
\A1;3100
  7
Label Text (ISO)
 11
0.0000000000000001
 21
1.0
 31
0.0
 73
     1
 44
1.0
1001
ACAD
1000
MTEXTBEGIN
1070
    73
1070
     1
1070
    44
1040
1.0
1070
    74
1070
     0
1000
MTEXTEND
  0
POINT
  5
BFC
330
BF4
100
AcDbEntity
  8
Defpoints
 62
     0
100
AcDbPoint
 10
1396.277432691354
 20
7819.580436961725
 30
0.0
  0
POINT
  5
BFD
330
BF4
100
AcDbEntity
  8
Defpoints
 62
     0
100
AcDbPoint
 10
1396.277432691354
 20
4719.580436961724
 30
0.0
  0
POINT
  5
BFE
330
BF4
100
AcDbEntity
  8
Defpoints
 62
     0
100
AcDbPoint
 10
-663.9618676728156
 20
4719.580436961724
 30
0.0
  0
ENDBLK
  5
BFF
330
BF4
100
AcDbEntity
  8
0
100
AcDbBlockEnd
  0
BLOCK
  5
C01
330
C00
100
AcDbEntity
  8
0
100
AcDbBlockBegin
  2
*D12
 70
     1
 10
0.0
 20
0.0
 30
0.0
  3
*D12
  1

  0
LINE
  5
C02
330
C00
100
AcDbEntity
  8
Dimension (ISO)
100
AcDbLine
 10
-153.7225673086462
 20
6244.580436961726
 30
0.0
 11
-153.7225673086463
 21
4177.214584731154
 31
0.0
  0
LINE
  5
C03
330
C00
100
AcDbEntity
  8
Dimension (ISO)
100
AcDbLine
 10
4646.277432691354
 20
6244.580436961726
 30
0.0
 11
4646.277432691354
 21
4177.214584731154
 31
0.0
  0
LINE
  5
C04
330
C00
100
AcDbEntity
  8
Dimension (ISO)
100
AcDbLine
 10
-28.72256730864632
 20
4227.214584731154
 30
0.0
 11
4521.277432691354
 21
4227.214584731154
 31
0.0
  0
SOLID
  5
C05
330
C00
100
AcDbEntity
  8
Dimension (ISO)
100
AcDbTrace
 10
-28.72256730864632
 20
4248.047918064487
 30
0.0
 11
-28.72256730864632
 21
4206.381251397821
 31
0.0
 12
-153.7225673086463
 22
4227.214584731154
 32
0.0
 13
-153.7225673086463
 23
4227.214584731154
 33
0.0
  0
SOLID
  5
C06
330
C00
100
AcDbEntity
  8
Dimension (ISO)
100
AcDbTrace
 10
4521.277432691354
 20
4248.047918064487
 30
0.0
 11
4521.277432691354
 21
4206.381251397821
 31
0.0
 12
4646.277432691354
 22
4227.214584731154
 32
0.0
 13
4646.277432691354
 23
4227.214584731154
 33
0.0
  0
MTEXT
  5
C07
330
C00
100
AcDbEntity
  8
Dimension (ISO)
100
AcDbMText
 10
2246.277432691354
 20
4448.306524448766
 30
0.0
 40
175.0
 41
0.0
 71
     2
 72
     1
  1
\A1;4800
  7
Label Text (ISO)
 73
     1
 44
1.0
1001
ACAD
1000
MTEXTBEGIN
1070
    73
1070
     1
1070
    44
1040
1.0
1070
    74
1070
     0
1000
MTEXTEND
  0
POINT
  5
C08
330
C00
100
AcDbEntity
  8
Defpoints
 62
     0
100
AcDbPoint
 10
-153.7225673086462
 20
6269.580436961725
 30
0.0
  0
POINT
  5
C09
330
C00
100
AcDbEntity
  8
Defpoints
 62
     0
100
AcDbPoint
 10
4646.277432691354
 20
6269.580436961725
 30
0.0
  0
POINT
  5
C0A
330
C00
100
AcDbEntity
  8
Defpoints
 62
     0
100
AcDbPoint
 10
4646.277432691354
 20
4227.214584731154
 30
0.0
  0
ENDBLK
  5
C0B
330
C00
100
AcDbEntity
  8
0
100
AcDbBlockEnd
  0
BLOCK
  5
C0D
330
C0C
100
AcDbEntity
  8
0
100
AcDbBlockBegin
  2
*D13
 70
     1
 10
0.0
 20
0.0
 30
0.0
  3
*D13
  1

  0
LINE
  5
C0E
330
C0C
100
AcDbEntity
  8
Dimension (ISO)
100
AcDbLine
 10
1347.407964457786
 20
6199.580436961724
 30
0.0
 11
1347.407964457786
 21
5152.418855226938
 31
0.0
  0
LINE
  5
C0F
330
C0C
100
AcDbEntity
  8
Dimension (ISO)
100
AcDbLine
 10
3145.146900924904
 20
6199.580436961726
 30
0.0
 11
3145.146900924904
 21
5152.418855226938
 31
0.0
  0
LINE
  5
C10
330
C0C
100
AcDbEntity
  8
Dimension (ISO)
100
AcDbLine
 10
1472.407964457786
 20
5202.418855226937
 30
0.0
 11
3020.146900924904
 21
5202.418855226937
 31
0.0
  0
SOLID
  5
C11
330
C0C
100
AcDbEntity
  8
Dimension (ISO)
100
AcDbTrace
 10
1472.407964457786
 20
5223.25218856027
 30
0.0
 11
1472.407964457786
 21
5181.585521893605
 31
0.0
 12
1347.407964457786
 22
5202.418855226937
 32
0.0
 13
1347.407964457786
 23
5202.418855226937
 33
0.0
  0
SOLID
  5
C12
330
C0C
100
AcDbEntity
  8
Dimension (ISO)
100
AcDbTrace
 10
3020.146900924904
 20
5223.25218856027
 30
0.0
 11
3020.146900924904
 21
5181.585521893605
 31
0.0
 12
3145.146900924904
 22
5202.418855226937
 32
0.0
 13
3145.146900924904
 23
5202.418855226937
 33
0.0
  0
MTEXT
  5
C13
330
C0C
100
AcDbEntity
  8
Dimension (ISO)
100
AcDbMText
 10
2246.277432691345
 20
5423.510794944551
 30
0.0
 40
175.0
 41
0.0
 71
     2
 72
     1
  1
\A1;1798
  7
Label Text (ISO)
 73
     1
 44
1.0
1001
ACAD
1000
MTEXTBEGIN
1070
    73
1070
     1
1070
    44
1040
1.0
1070
    74
1070
     0
1000
MTEXTEND
  0
POINT
  5
C14
330
C0C
100
AcDbEntity
  8
Defpoints
 62
     0
100
AcDbPoint
 10
1347.407964457786
 20
6224.580436961724
 30
0.0
  0
POINT
  5
C15
330
C0C
100
AcDbEntity
  8
Defpoints
 62
     0
100
AcDbPoint
 10
3145.146900924904
 20
6224.580436961726
 30
0.0
  0
POINT
  5
C16
330
C0C
100
AcDbEntity
  8
Defpoints
 62
     0
100
AcDbPoint
 10
3145.146900924904
 20
5202.418855226937
 30
0.0
  0
ENDBLK
  5
C17
330
C0C
100
AcDbEntity
  8
0
100
AcDbBlockEnd
  0
BLOCK
  5
C19
330
C18
100
AcDbEntity
  8
0
100
AcDbBlockBegin
  2
*D14
 70
     1
 10
0.0
 20
0.0
 30
0.0
  3
*D14
  1

  0
LINE
  5
C1A
330
C18
100
AcDbEntity
  8
Dimension (ISO)
100
AcDbLine
 10
1451.407964457796
 20
5669.580437038324
 30
0.0
 11
3704.58836381637
 21
5669.580437038323
 31
0.0
  0
LINE
  5
C1B
330
C18
100
AcDbEntity
  8
Dimension (ISO)
100
AcDbLine
 10
3149.146900924905
 20
6869.580436885122
 30
0.0
 11
3704.58836381637
 21
6869.580436885122
 31
0.0
  0
LINE
  5
C1C
330
C18
100
AcDbEntity
  8
Dimension (ISO)
100
AcDbLine
 10
3654.588363816369
 20
5794.580437038323
 30
0.0
 11
3654.588363816369
 21
6744.580436885122
 31
0.0
  0
SOLID
  5
C1D
330
C18
100
AcDbEntity
  8
Dimension (ISO)
100
AcDbTrace
 10
3633.755030483036
 20
5794.580437038323
 30
0.0
 11
3675.421697149703
 21
5794.580437038323
 31
0.0
 12
3654.588363816369
 22
5669.580437038323
 32
0.0
 13
3654.588363816369
 23
5669.580437038323
 33
0.0
  0
SOLID
  5
C1E
330
C18
100
AcDbEntity
  8
Dimension (ISO)
100
AcDbTrace
 10
3633.755030483036
 20
6744.580436885122
 30
0.0
 11
3675.421697149703
 21
6744.580436885122
 31
0.0
 12
3654.588363816369
 22
6869.580436885122
 32
0.0
 13
3654.588363816369
 23
6869.580436885122
 33
0.0
  0
MTEXT
  5
C1F
330
C18
100
AcDbEntity
  8
Dimension (ISO)
100
AcDbMText
 10
3434.201595350077
 20
6269.580436961724
 30
0.0
 40
175.0
 41
0.0
 71
     2
 72
     1
  1
\A1;1200
  7
Label Text (ISO)
 11
0.0000000000000001
 21
1.0
 31
0.0
 73
     1
 44
1.0
1001
ACAD
1000
MTEXTBEGIN
1070
    73
1070
     1
1070
    44
1040
1.0
1070
    74
1070
     0
1000
MTEXTEND
  0
POINT
  5
C20
330
C18
100
AcDbEntity
  8
Defpoints
 62
     0
100
AcDbPoint
 10
1426.407964457796
 20
5669.580437038324
 30
0.0
  0
POINT
  5
C21
330
C18
100
AcDbEntity
  8
Defpoints
 62
     0
100
AcDbPoint
 10
3124.146900924905
 20
6869.580436885122
 30
0.0
  0
POINT
  5
C22
330
C18
100
AcDbEntity
  8
Defpoints
 62
     0
100
AcDbPoint
 10
3654.588363816369
 20
6869.580436885122
 30
0.0
  0
ENDBLK
  5
C23
330
C18
100
AcDbEntity
  8
0
100
AcDbBlockEnd
  0
BLOCK
  5
CA9
330
CA8
100
AcDbEntity
  8
0
100
AcDbBlockBegin
  2
*D16
 70
     1
 10
0.0
 20
0.0
 30
0.0
  3
*D16
  1

  0
LINE
  5
D0E
330
CA8
100
AcDbEntity
  8
Dimension (ISO)
100
AcDbLine
 10
16377.1362010599
 20
5121.128065394952
 30
0.0
 11
14291.89690069573
 21
5121.128065394953
 31
0.0
  0
LINE
  5
D0F
330
CA8
100
AcDbEntity
  8
Dimension (ISO)
100
AcDbLine
 10
16377.1362010599
 20
2021.128065394951
 30
0.0
 11
14291.89690069572
 21
2021.128065394952
 31
0.0
  0
LINE
  5
D10
330
CA8
100
AcDbEntity
  8
Dimension (ISO)
100
AcDbLine
 10
14341.89690069573
 20
4996.128065394952
 30
0.0
 11
14341.89690069572
 21
2146.128065394951
 31
0.0
  0
SOLID
  5
D11
330
CA8
100
AcDbEntity
  8
Dimension (ISO)
100
AcDbTrace
 10
14321.06356736239
 20
4996.128065394953
 30
0.0
 11
14362.73023402906
 21
4996.128065394952
 31
0.0
 12
14341.89690069573
 22
5121.128065394952
 32
0.0
 13
14341.89690069573
 23
5121.128065394952
 33
0.0
  0
SOLID
  5
D12
330
CA8
100
AcDbEntity
  8
Dimension (ISO)
100
AcDbTrace
 10
14321.06356736239
 20
2146.128065394951
 30
0.0
 11
14362.73023402906
 21
2146.128065394951
 31
0.0
 12
14341.89690069572
 22
2021.128065394952
 32
0.0
 13
14341.89690069572
 23
2021.128065394952
 33
0.0
  0
MTEXT
  5
D13
330
CA8
100
AcDbEntity
  8
Dimension (ISO)
100
AcDbMText
 10
14121.51013105167
 20
3571.128065394951
 30
0.0
 40
175.0
 41
0.0
 71
     2
 72
     1
  1
\A1;3100
  7
Label Text (ISO)
 11
0.0000000000000001
 21
1.0
 31
0.0
 73
     1
 44
1.0
1001
ACAD
1000
MTEXTBEGIN
1070
    73
1070
     1
1070
    44
1040
1.0
1070
    74
1070
     0
1000
MTEXTEND
  0
POINT
  5
D14
330
CA8
100
AcDbEntity
  8
Defpoints
 62
     0
100
AcDbPoint
 10
16402.13620105989
 20
5121.128065394952
 30
0.0
  0
POINT
  5
D15
330
CA8
100
AcDbEntity
  8
Defpoints
 62
     0
100
AcDbPoint
 10
16402.13620105989
 20
2021.128065394951
 30
0.0
  0
POINT
  5
D16
330
CA8
100
AcDbEntity
  8
Defpoints
 62
     0
100
AcDbPoint
 10
14341.89690069572
 20
2021.128065394952
 30
0.0
  0
ENDBLK
  5
CAA
330
CA8
100
AcDbEntity
  8
0
100
AcDbBlockEnd
  0
BLOCK
  5
CB5
330
CB4
100
AcDbEntity
  8
0
100
AcDbBlockBegin
  2
*D17
 70
     1
 10
0.0
 20
0.0
 30
0.0
  3
*D17
  1

  0
LINE
  5
D17
330
CB4
100
AcDbEntity
  8
Dimension (ISO)
100
AcDbLine
 10
14852.1362010599
 20
3546.128065394952
 30
0.0
 11
14852.1362010599
 21
1478.76221316438
 31
0.0
  0
LINE
  5
D18
330
CB4
100
AcDbEntity
  8
Dimension (ISO)
100
AcDbLine
 10
19652.13620105989
 20
3546.128065394952
 30
0.0
 11
19652.13620105989
 21
1478.76221316438
 31
0.0
  0
LINE
  5
D19
330
CB4
100
AcDbEntity
  8
Dimension (ISO)
100
AcDbLine
 10
14977.13620105989
 20
1528.76221316438
 30
0.0
 11
19527.13620105989
 21
1528.76221316438
 31
0.0
  0
SOLID
  5
D1A
330
CB4
100
AcDbEntity
  8
Dimension (ISO)
100
AcDbTrace
 10
14977.13620105989
 20
1549.595546497713
 30
0.0
 11
14977.13620105989
 21
1507.928879831047
 31
0.0
 12
14852.1362010599
 22
1528.76221316438
 32
0.0
 13
14852.1362010599
 23
1528.76221316438
 33
0.0
  0
SOLID
  5
D1B
330
CB4
100
AcDbEntity
  8
Dimension (ISO)
100
AcDbTrace
 10
19527.13620105989
 20
1549.595546497713
 30
0.0
 11
19527.13620105989
 21
1507.928879831047
 31
0.0
 12
19652.13620105989
 22
1528.76221316438
 32
0.0
 13
19652.13620105989
 23
1528.76221316438
 33
0.0
  0
MTEXT
  5
D1C
330
CB4
100
AcDbEntity
  8
Dimension (ISO)
100
AcDbMText
 10
17252.13620105989
 20
1749.854154064313
 30
0.0
 40
175.0
 41
0.0
 71
     2
 72
     1
  1
\A1;4800
  7
Label Text (ISO)
 73
     1
 44
1.0
1001
ACAD
1000
MTEXTBEGIN
1070
    73
1070
     1
1070
    44
1040
1.0
1070
    74
1070
     0
1000
MTEXTEND
  0
POINT
  5
D1D
330
CB4
100
AcDbEntity
  8
Defpoints
 62
     0
100
AcDbPoint
 10
14852.1362010599
 20
3571.128065394951
 30
0.0
  0
POINT
  5
D1E
330
CB4
100
AcDbEntity
  8
Defpoints
 62
     0
100
AcDbPoint
 10
19652.13620105989
 20
3571.128065394951
 30
0.0
  0
POINT
  5
D1F
330
CB4
100
AcDbEntity
  8
Defpoints
 62
     0
100
AcDbPoint
 10
19652.13620105989
 20
1528.76221316438
 30
0.0
  0
ENDBLK
  5
CB6
330
CB4
100
AcDbEntity
  8
0
100
AcDbBlockEnd
  0
BLOCK
  5
CC1
330
CC0
100
AcDbEntity
  8
0
100
AcDbBlockBegin
  2
*D18
 70
     1
 10
0.0
 20
0.0
 30
0.0
  3
*D18
  1

  0
LINE
  5
D20
330
CC0
100
AcDbEntity
  8
Dimension (ISO)
100
AcDbLine
 10
16353.26673282633
 20
3501.12806539495
 30
0.0
 11
16353.26673282633
 21
2453.966483660164
 31
0.0
  0
LINE
  5
D21
330
CC0
100
AcDbEntity
  8
Dimension (ISO)
100
AcDbLine
 10
18151.00566929345
 20
3501.128065394953
 30
0.0
 11
18151.00566929345
 21
2453.966483660164
 31
0.0
  0
LINE
  5
D22
330
CC0
100
AcDbEntity
  8
Dimension (ISO)
100
AcDbLine
 10
16478.26673282633
 20
2503.966483660164
 30
0.0
 11
18026.00566929345
 21
2503.966483660164
 31
0.0
  0
SOLID
  5
D23
330
CC0
100
AcDbEntity
  8
Dimension (ISO)
100
AcDbTrace
 10
16478.26673282633
 20
2524.799816993498
 30
0.0
 11
16478.26673282633
 21
2483.133150326831
 31
0.0
 12
16353.26673282633
 22
2503.966483660164
 32
0.0
 13
16353.26673282633
 23
2503.966483660164
 33
0.0
  0
SOLID
  5
D24
330
CC0
100
AcDbEntity
  8
Dimension (ISO)
100
AcDbTrace
 10
18026.00566929345
 20
2524.799816993498
 30
0.0
 11
18026.00566929345
 21
2483.133150326831
 31
0.0
 12
18151.00566929345
 22
2503.966483660164
 32
0.0
 13
18151.00566929345
 23
2503.966483660164
 33
0.0
  0
MTEXT
  5
D25
330
CC0
100
AcDbEntity
  8
Dimension (ISO)
100
AcDbMText
 10
17252.13620105989
 20
2725.058424560097
 30
0.0
 40
175.0
 41
0.0
 71
     2
 72
     1
  1
\A1;1798
  7
Label Text (ISO)
 73
     1
 44
1.0
1001
ACAD
1000
MTEXTBEGIN
1070
    73
1070
     1
1070
    44
1040
1.0
1070
    74
1070
     0
1000
MTEXTEND
  0
POINT
  5
D26
330
CC0
100
AcDbEntity
  8
Defpoints
 62
     0
100
AcDbPoint
 10
16353.26673282633
 20
3526.12806539495
 30
0.0
  0
POINT
  5
D27
330
CC0
100
AcDbEntity
  8
Defpoints
 62
     0
100
AcDbPoint
 10
18151.00566929345
 20
3526.128065394953
 30
0.0
  0
POINT
  5
D28
330
CC0
100
AcDbEntity
  8
Defpoints
 62
     0
100
AcDbPoint
 10
18151.00566929345
 20
2503.966483660164
 30
0.0
  0
ENDBLK
  5
CC2
330
CC0
100
AcDbEntity
  8
0
100
AcDbBlockEnd
  0
BLOCK
  5
CCD
330
CCC
100
AcDbEntity
  8
0
100
AcDbBlockBegin
  2
*D19
 70
     1
 10
0.0
 20
0.0
 30
0.0
  3
*D19
  1

  0
LINE
  5
D29
330
CCC
100
AcDbEntity
  8
Dimension (ISO)
100
AcDbLine
 10
16457.26673282634
 20
2971.12806547155
 30
0.0
 11
18710.44713218491
 21
2971.12806547155
 31
0.0
  0
LINE
  5
D2A
330
CCC
100
AcDbEntity
  8
Dimension (ISO)
100
AcDbLine
 10
18155.00566929345
 20
4171.128065318349
 30
0.0
 11
18710.44713218491
 21
4171.128065318348
 31
0.0
  0
LINE
  5
D2B
330
CCC
100
AcDbEntity
  8
Dimension (ISO)
100
AcDbLine
 10
18660.44713218491
 20
3096.12806547155
 30
0.0
 11
18660.44713218491
 21
4046.128065318349
 31
0.0
  0
SOLID
  5
D2C
330
CCC
100
AcDbEntity
  8
Dimension (ISO)
100
AcDbTrace
 10
18639.61379885158
 20
3096.12806547155
 30
0.0
 11
18681.28046551824
 21
3096.12806547155
 31
0.0
 12
18660.44713218491
 22
2971.12806547155
 32
0.0
 13
18660.44713218491
 23
2971.12806547155
 33
0.0
  0
SOLID
  5
D2D
330
CCC
100
AcDbEntity
  8
Dimension (ISO)
100
AcDbTrace
 10
18639.61379885158
 20
4046.128065318349
 30
0.0
 11
18681.28046551824
 21
4046.128065318349
 31
0.0
 12
18660.44713218491
 22
4171.128065318348
 32
0.0
 13
18660.44713218491
 23
4171.128065318348
 33
0.0
  0
MTEXT
  5
D2E
330
CCC
100
AcDbEntity
  8
Dimension (ISO)
100
AcDbMText
 10
18440.06036254085
 20
3571.12806539495
 30
0.0
 40
175.0
 41
0.0
 71
     2
 72
     1
  1
\A1;1200
  7
Label Text (ISO)
 11
0.0000000000000001
 21
1.0
 31
0.0
 73
     1
 44
1.0
1001
ACAD
1000
MTEXTBEGIN
1070
    73
1070
     1
1070
    44
1040
1.0
1070
    74
1070
     0
1000
MTEXTEND
  0
POINT
  5
D2F
330
CCC
100
AcDbEntity
  8
Defpoints
 62
     0
100
AcDbPoint
 10
16432.26673282634
 20
2971.12806547155
 30
0.0
  0
POINT
  5
D30
330
CCC
100
AcDbEntity
  8
Defpoints
 62
     0
100
AcDbPoint
 10
18130.00566929345
 20
4171.128065318349
 30
0.0
  0
POINT
  5
D31
330
CCC
100
AcDbEntity
  8
Defpoints
 62
     0
100
AcDbPoint
 10
18660.44713218491
 20
4171.128065318348
 30
0.0
  0
ENDBLK
  5
CCE
330
CCC
100
AcDbEntity
  8
0
100
AcDbBlockEnd
  0
ENDSEC
  0
SECTION
  2
ENTITIES
  0
ARC
  5
109
330
6C
100
AcDbEntity
  8
Visible (ISO)
100
AcDbCircle
 10
17429.6362010599
 20
10110.11079747705
 30
0.0
 40
9.999999999999991
100
AcDbArc
 50
270.0
 51
0.0
  0
ARC
  5
10A
330
6C
100
AcDbEntity
  8
Visible (ISO)
100
AcDbCircle
 10
17074.63620105991
 20
10110.11079747705
 30
0.0
 40
10.00000000000001
100
AcDbArc
 50
180.0
 51
270.0
  0
LINE
  5
10B
330
6C
100
AcDbEntity
  8
Visible (ISO)
100
AcDbLine
 10
17429.6362010599
 20
10100.11079747705
 30
0.0
 11
17074.63620105991
 21
10100.11079747705
 31
0.0
  0
LINE
  5
10C
330
6C
100
AcDbEntity
  8
Visible (ISO)
100
AcDbLine
 10
17439.6362010599
 20
10110.11079747705
 30
0.0
 11
17439.6362010599
 21
10146.61079747705
 31
0.0
  0
LINE
  5
10D
330
6C
100
AcDbEntity
  8
Visible (ISO)
100
AcDbLine
 10
17064.6362010599
 20
10110.11079747705
 30
0.0
 11
17064.6362010599
 21
10146.61079747705
 31
0.0
  0
LINE
  5
10E
330
6C
100
AcDbEntity
  8
Visible (ISO)
100
AcDbLine
 10
17064.6362010599
 20
10152.61079747705
 30
0.0
 11
17439.6362010599
 21
10152.61079747705
 31
0.0
  0
LINE
  5
10F
330
6C
100
AcDbEntity
  8
Visible (ISO)
100
AcDbLine
 10
17064.6362010599
 20
10152.61079747705
 30
0.0
 11
17064.6362010599
 21
10146.61079747705
 31
0.0
  0
LINE
  5
110
330
6C
100
AcDbEntity
  8
Visible (ISO)
100
AcDbLine
 10
17439.6362010599
 20
10152.61079747705
 30
0.0
 11
17439.6362010599
 21
10146.61079747705
 31
0.0
  0
ARC
  5
111
330
6C
100
AcDbEntity
  8
Visible (ISO)
100
AcDbCircle
 10
17429.6362010599
 20
10089.11079747694
 30
0.0
 40
10.00000000000001
100
AcDbArc
 50
0.0
 51
90.0
  0
ARC
  5
112
330
6C
100
AcDbEntity
  8
Visible (ISO)
100
AcDbCircle
 10
17074.63620105991
 20
10089.11079747694
 30
0.0
 40
9.999999999999991
100
AcDbArc
 50
90.0
 51
180.0
  0
LINE
  5
113
330
6C
100
AcDbEntity
  8
Visible (ISO)
100
AcDbLine
 10
17429.6362010599
 20
10099.11079747694
 30
0.0
 11
17074.63620105991
 21
10099.11079747694
 31
0.0
  0
LINE
  5
114
330
6C
100
AcDbEntity
  8
Visible (ISO)
100
AcDbLine
 10
17064.6362010599
 20
10052.61079747694
 30
0.0
 11
17064.6362010599
 21
10089.11079747694
 31
0.0
  0
LINE
  5
115
330
6C
100
AcDbEntity
  8
Visible (ISO)
100
AcDbLine
 10
17439.6362010599
 20
10052.61079747693
 30
0.0
 11
17439.6362010599
 21
10089.11079747694
 31
0.0
  0
LINE
  5
116
330
6C
100
AcDbEntity
  8
Visible (ISO)
100
AcDbLine
 10
17064.6362010599
 20
10052.61079747694
 30
0.0
 11
17064.6362010599
 21
10046.61079747694
 31
0.0
  0
LINE
  5
117
330
6C
100
AcDbEntity
  8
Visible (ISO)
100
AcDbLine
 10
17064.6362010599
 20
10046.61079747694
 30
0.0
 11
17439.6362010599
 21
10046.61079747694
 31
0.0
  0
LINE
  5
118
330
6C
100
AcDbEntity
  8
Visible (ISO)
100
AcDbLine
 10
17439.6362010599
 20
10052.61079747693
 30
0.0
 11
17439.6362010599
 21
10046.61079747694
 31
0.0
  0
CIRCLE
  5
119
330
6C
100
AcDbEntity
  8
Visible (ISO)
100
AcDbCircle
 10
17079.6362010599
 20
10136.61079747705
 30
0.0
 40
8.800000000000002
  0
CIRCLE
  5
11A
330
6C
100
AcDbEntity
  8
Visible (ISO)
100
AcDbCircle
 10
17424.6362010599
 20
10136.61079747705
 30
0.0
 40
8.800000000000002
  0
CIRCLE
  5
11B
330
6C
100
AcDbEntity
  8
Visible (ISO)
100
AcDbCircle
 10
17079.6362010599
 20
10111.61079747705
 30
0.0
 40
8.800000000000002
  0
CIRCLE
  5
11C
330
6C
100
AcDbEntity
  8
Visible (ISO)
100
AcDbCircle
 10
17424.6362010599
 20
10111.61079747705
 30
0.0
 40
8.800000000000002
  0
CIRCLE
  5
11D
330
6C
100
AcDbEntity
  8
Visible (ISO)
100
AcDbCircle
 10
17079.6362010599
 20
10062.61079747694
 30
0.0
 40
8.799999999999997
  0
CIRCLE
  5
11E
330
6C
100
AcDbEntity
  8
Visible (ISO)
100
AcDbCircle
 10
17424.6362010599
 20
10062.61079747694
 30
0.0
 40
8.799999999999997
  0
CIRCLE
  5
11F
330
6C
100
AcDbEntity
  8
Visible (ISO)
100
AcDbCircle
 10
17079.6362010599
 20
10087.61079747694
 30
0.0
 40
8.799999999999997
  0
CIRCLE
  5
120
330
6C
100
AcDbEntity
  8
Visible (ISO)
100
AcDbCircle
 10
17424.6362010599
 20
10087.61079747694
 30
0.0
 40
8.799999999999997
  0
LINE
  5
121
330
6C
100
AcDbEntity
  8
Visible (ISO)
100
AcDbLine
 10
16448.26673282634
 20
9463.895848570576
 30
0.0
 11
16453.26673282634
 21
9462.075997399244
 31
0.0
  0
LINE
  5
122
330
6C
100
AcDbEntity
  8
Visible (ISO)
100
AcDbLine
 10
16353.26673282634
 20
9498.473020825864
 30
0.0
 11
16358.26673282634
 21
9496.653169654532
 31
0.0
  0
LINE
  5
123
330
6C
100
AcDbEntity
  8
Visible (ISO)
100
AcDbLine
 10
16448.26673282634
 20
9463.895848570576
 30
0.0
 11
16358.26673282634
 21
9496.653169654532
 31
0.0
  0
LINE
  5
124
330
6C
100
AcDbEntity
  8
Visible (ISO)
100
AcDbLine
 10
16453.26673282634
 20
5698.473020825862
 30
0.0
 11
16453.26673282634
 21
6241.473020825862
 31
0.0
  0
LINE
  5
125
330
6C
100
AcDbEntity
  8
Visible (ISO)
100
AcDbLine
 10
16453.26673282634
 20
6251.473020825862
 30
0.0
 11
16453.26673282634
 21
9462.075997399244
 31
0.0
  0
LINE
  5
126
330
6C
100
AcDbEntity
  8
Visible (ISO)
100
AcDbLine
 10
16353.26673282634
 20
9498.473020825862
 30
0.0
 11
16353.26673282634
 21
6251.473020825862
 31
0.0
  0
LINE
  5
127
330
6C
100
AcDbEntity
  8
Visible (ISO)
100
AcDbLine
 10
16353.26673282634
 20
6241.473020825862
 30
0.0
 11
16353.26673282634
 21
5698.473020825862
 31
0.0
  0
LINE
  5
128
330
6C
100
AcDbEntity
  8
Visible (ISO)
100
AcDbLine
 10
18051.00566929346
 20
9462.075997399239
 30
0.0
 11
18056.00566929346
 21
9463.895848570571
 31
0.0
  0
LINE
  5
129
330
6C
100
AcDbEntity
  8
Visible (ISO)
100
AcDbLine
 10
18146.00566929346
 20
9496.653169654528
 30
0.0
 11
18056.00566929346
 21
9463.895848570571
 31
0.0
  0
LINE
  5
12A
330
6C
100
AcDbEntity
  8
Visible (ISO)
100
AcDbLine
 10
18146.00566929346
 20
9496.653169654527
 30
0.0
 11
18151.00566929346
 21
9498.473020825857
 31
0.0
  0
LINE
  5
12B
330
6C
100
AcDbEntity
  8
Visible (ISO)
100
AcDbLine
 10
18051.00566929346
 20
9462.075997399239
 30
0.0
 11
18051.00566929344
 21
6251.473020825862
 31
0.0
  0
LINE
  5
12C
330
6C
100
AcDbEntity
  8
Visible (ISO)
100
AcDbLine
 10
18051.00566929344
 20
6241.473020825862
 30
0.0
 11
18051.00566929344
 21
5698.473020825858
 31
0.0
  0
LINE
  5
12D
330
6C
100
AcDbEntity
  8
Visible (ISO)
100
AcDbLine
 10
18151.00566929344
 20
5698.473020825858
 30
0.0
 11
18151.00566929345
 21
6241.473020825862
 31
0.0
  0
LINE
  5
12E
330
6C
100
AcDbEntity
  8
Visible (ISO)
100
AcDbLine
 10
18151.00566929345
 20
6251.473020825862
 30
0.0
 11
18151.00566929346
 21
9498.47302082586
 31
0.0
  0
LINE
  5
12F
330
6C
100
AcDbEntity
  8
Visible (ISO)
100
AcDbLine
 10
16505.19061438059
 20
5693.473020825862
 30
0.0
 11
16502.26168219246
 21
5693.473020825862
 31
0.0
  0
LINE
  5
130
330
6C
100
AcDbEntity
  8
Visible (ISO)
100
AcDbLine
 10
16502.26168219246
 20
5698.473020825863
 30
0.0
 11
16505.19061438059
 21
5698.473020825863
 31
0.0
  0
LINE
  5
131
330
6C
100
AcDbEntity
  8
Visible (ISO)
100
AcDbLine
 10
16301.34285127209
 20
5698.473020825863
 30
0.0
 11
16304.27178346022
 21
5698.473020825863
 31
0.0
  0
LINE
  5
132
330
6C
100
AcDbEntity
  8
Visible (ISO)
100
AcDbLine
 10
16304.27178346022
 20
5693.473020825862
 30
0.0
 11
16301.34285127209
 21
5693.473020825862
 31
0.0
  0
LINE
  5
133
330
6C
100
AcDbEntity
  8
Visible (ISO)
100
AcDbLine
 10
16505.19061438059
 20
5698.473020825863
 30
0.0
 11
16505.19061438059
 21
5693.473020825862
 31
0.0
  0
LINE
  5
134
330
6C
100
AcDbEntity
  8
Visible (ISO)
100
AcDbLine
 10
16301.34285127209
 20
5693.473020825862
 30
0.0
 11
16301.34285127209
 21
5698.473020825863
 31
0.0
  0
LINE
  5
135
330
6C
100
AcDbEntity
  8
Visible (ISO)
100
AcDbLine
 10
16502.26168219246
 20
5698.473020825863
 30
0.0
 11
16478.26673282633
 21
5698.473020825863
 31
0.0
  0
LINE
  5
136
330
6C
100
AcDbEntity
  8
Visible (ISO)
100
AcDbLine
 10
16478.26673282633
 20
5693.473020825862
 30
0.0
 11
16502.26168219246
 21
5693.473020825862
 31
0.0
  0
LINE
  5
137
330
6C
100
AcDbEntity
  8
Visible (ISO)
100
AcDbLine
 10
16328.26673282633
 20
5698.473020825863
 30
0.0
 11
16304.27178346022
 21
5698.473020825863
 31
0.0
  0
LINE
  5
138
330
6C
100
AcDbEntity
  8
Visible (ISO)
100
AcDbLine
 10
16304.27178346022
 20
5693.473020825862
 30
0.0
 11
16328.26673282633
 21
5693.473020825862
 31
0.0
  0
LINE
  5
139
330
6C
100
AcDbEntity
  8
Visible (ISO)
100
AcDbLine
 10
16328.26673282633
 20
5698.473020825863
 30
0.0
 11
16338.26673282633
 21
5698.473020825863
 31
0.0
  0
LINE
  5
13A
330
6C
100
AcDbEntity
  8
Visible (ISO)
100
AcDbLine
 10
16328.26673282633
 20
5698.473020825863
 30
0.0
 11
16328.26673282633
 21
5693.473020825863
 31
0.0
  0
LINE
  5
13B
330
6C
100
AcDbEntity
  8
Visible (ISO)
100
AcDbLine
 10
16338.26673282633
 20
5693.473020825863
 30
0.0
 11
16328.26673282633
 21
5693.473020825863
 31
0.0
  0
LINE
  5
13C
330
6C
100
AcDbEntity
  8
Visible (ISO)
100
AcDbLine
 10
16478.26673282634
 20
5693.473020825862
 30
0.0
 11
16468.26673282633
 21
5693.473020825862
 31
0.0
  0
LINE
  5
13D
330
6C
100
AcDbEntity
  8
Visible (ISO)
100
AcDbLine
 10
16478.26673282633
 20
5693.473020825862
 30
0.0
 11
16478.26673282633
 21
5698.473020825862
 31
0.0
  0
LINE
  5
13E
330
6C
100
AcDbEntity
  8
Visible (ISO)
100
AcDbLine
 10
16468.26673282633
 20
5698.473020825862
 30
0.0
 11
16478.26673282634
 21
5698.473020825862
 31
0.0
  0
LINE
  5
13F
330
6C
100
AcDbEntity
  8
Visible (ISO)
100
AcDbLine
 10
16338.26673282633
 20
5693.473020825863
 30
0.0
 11
16468.26673282633
 21
5693.473020825862
 31
0.0
  0
LINE
  5
140
330
6C
100
AcDbEntity
  8
Visible (ISO)
100
AcDbLine
 10
16468.26673282633
 20
5698.473020825862
 30
0.0
 11
16338.26673282633
 21
5698.473020825863
 31
0.0
  0
LINE
  5
141
330
6C
100
AcDbEntity
  8
Visible (ISO)
100
AcDbLine
 10
18002.01071992732
 20
5693.473020825859
 30
0.0
 11
17999.08178773919
 21
5693.473020825859
 31
0.0
  0
LINE
  5
142
330
6C
100
AcDbEntity
  8
Visible (ISO)
100
AcDbLine
 10
17999.08178773919
 20
5698.473020825859
 30
0.0
 11
18002.01071992732
 21
5698.473020825859
 31
0.0
  0
LINE
  5
143
330
6C
100
AcDbEntity
  8
Visible (ISO)
100
AcDbLine
 10
18093.93460148158
 20
5698.473020825858
 30
0.0
 11
18108.07673710531
 21
5698.473020825858
 31
0.0
  0
LINE
  5
144
330
6C
100
AcDbEntity
  8
Visible (ISO)
100
AcDbLine
 10
18200.00061865956
 20
5698.473020825858
 30
0.0
 11
18202.92955084769
 21
5698.473020825858
 31
0.0
  0
LINE
  5
145
330
6C
100
AcDbEntity
  8
Visible (ISO)
100
AcDbLine
 10
18108.07673710531
 20
5693.473020825858
 30
0.0
 11
18093.93460148158
 21
5693.473020825858
 31
0.0
  0
LINE
  5
146
330
6C
100
AcDbEntity
  8
Visible (ISO)
100
AcDbLine
 10
18202.92955084769
 20
5693.473020825858
 30
0.0
 11
18200.00061865956
 21
5693.473020825858
 31
0.0
  0
LINE
  5
147
330
6C
100
AcDbEntity
  8
Visible (ISO)
100
AcDbLine
 10
17999.08178773919
 20
5698.473020825859
 30
0.0
 11
17999.08178773919
 21
5693.473020825859
 31
0.0
  0
LINE
  5
148
330
6C
100
AcDbEntity
  8
Visible (ISO)
100
AcDbLine
 10
18202.92955084769
 20
5693.473020825858
 30
0.0
 11
18202.92955084769
 21
5698.473020825858
 31
0.0
  0
LINE
  5
149
330
6C
100
AcDbEntity
  8
Visible (ISO)
100
AcDbLine
 10
18093.93460148158
 20
5698.473020825858
 30
0.0
 11
18002.01071992732
 21
5698.473020825859
 31
0.0
  0
LINE
  5
14A
330
6C
100
AcDbEntity
  8
Visible (ISO)
100
AcDbLine
 10
18200.00061865956
 20
5698.473020825858
 30
0.0
 11
18108.07673710531
 21
5698.473020825858
 31
0.0
  0
LINE
  5
14B
330
6C
100
AcDbEntity
  8
Visible (ISO)
100
AcDbLine
 10
18108.07673710531
 20
5693.473020825858
 30
0.0
 11
18200.00061865956
 21
5693.473020825858
 31
0.0
  0
LINE
  5
14C
330
6C
100
AcDbEntity
  8
Visible (ISO)
100
AcDbLine
 10
18002.01071992732
 20
5693.473020825859
 30
0.0
 11
18093.93460148158
 21
5693.473020825858
 31
0.0
  0
LINE
  5
14D
330
6C
100
AcDbEntity
  8
Visible (ISO)
100
AcDbLine
 10
16453.26673282634
 20
9462.075997399244
 30
0.0
 11
16448.26673282634
 21
9463.895848570576
 31
0.0
  0
LINE
  5
14E
330
6C
100
AcDbEntity
  8
Visible (ISO)
100
AcDbLine
 10
16358.26673282634
 20
9496.653169654532
 30
0.0
 11
16448.26673282634
 21
9463.895848570576
 31
0.0
  0
LINE
  5
14F
330
6C
100
AcDbEntity
  8
Visible (ISO)
100
AcDbLine
 10
16358.26673282634
 20
9496.653169654532
 30
0.0
 11
16353.26673282634
 21
9498.473020825864
 31
0.0
  0
LINE
  5
150
330
6C
100
AcDbEntity
  8
Visible (ISO)
100
AcDbLine
 10
16453.26673282634
 20
9462.075997399244
 30
0.0
 11
16946.2669668754
 21
10049.61079747699
 31
0.0
  0
LINE
  5
151
330
6C
100
AcDbEntity
  8
Visible (ISO)
100
AcDbLine
 10
16899.6362010599
 20
10149.610797477
 30
0.0
 11
16353.26673282634
 21
9498.473020825864
 31
0.0
  0
LINE
  5
152
330
6C
100
AcDbEntity
  8
Visible (ISO)
100
AcDbLine
 10
16943.93542858463
 20
10054.61079747699
 30
0.0
 11
16946.2669668754
 21
10049.61079747699
 31
0.0
  0
LINE
  5
153
330
6C
100
AcDbEntity
  8
Visible (ISO)
100
AcDbLine
 10
16899.6362010599
 20
10149.610797477
 30
0.0
 11
16901.96773935068
 21
10144.61079747699
 31
0.0
  0
LINE
  5
154
330
6C
100
AcDbEntity
  8
Visible (ISO)
100
AcDbLine
 10
16943.93542858463
 20
10054.61079747699
 30
0.0
 11
16901.96773935068
 21
10144.61079747699
 31
0.0
  0
LINE
  5
155
330
6C
100
AcDbEntity
  8
Visible (ISO)
100
AcDbLine
 10
18151.00566929346
 20
9498.473020825857
 30
0.0
 11
18146.00566929346
 21
9496.653169654527
 31
0.0
  0
LINE
  5
156
330
6C
100
AcDbEntity
  8
Visible (ISO)
100
AcDbLine
 10
18056.00566929346
 20
9463.895848570571
 30
0.0
 11
18146.00566929346
 21
9496.653169654527
 31
0.0
  0
LINE
  5
157
330
6C
100
AcDbEntity
  8
Visible (ISO)
100
AcDbLine
 10
18056.00566929346
 20
9463.895848570571
 30
0.0
 11
18051.00566929346
 21
9462.075997399239
 31
0.0
  0
LINE
  5
158
330
6C
100
AcDbEntity
  8
Visible (ISO)
100
AcDbLine
 10
17558.0054352444
 20
10049.61079747699
 30
0.0
 11
18051.00566929346
 21
9462.075997399239
 31
0.0
  0
LINE
  5
159
330
6C
100
AcDbEntity
  8
Visible (ISO)
100
AcDbLine
 10
18151.00566929346
 20
9498.47302082586
 30
0.0
 11
17604.6362010599
 21
10149.61079747699
 31
0.0
  0
LINE
  5
15A
330
6C
100
AcDbEntity
  8
Visible (ISO)
100
AcDbLine
 10
17558.0054352444
 20
10049.61079747699
 30
0.0
 11
17560.33697353518
 21
10054.61079747699
 31
0.0
  0
LINE
  5
15B
330
6C
100
AcDbEntity
  8
Visible (ISO)
100
AcDbLine
 10
17602.30466276913
 20
10144.61079747699
 30
0.0
 11
17560.33697353518
 21
10054.61079747699
 31
0.0
  0
LINE
  5
15C
330
6C
100
AcDbEntity
  8
Visible (ISO)
100
AcDbLine
 10
17602.30466276913
 20
10144.61079747699
 30
0.0
 11
17604.6362010599
 21
10149.61079747699
 31
0.0
  0
LINE
  5
15D
330
6C
100
AcDbEntity
  8
Visible (ISO)
100
AcDbLine
 10
17064.6362010599
 20
10149.61079747699
 30
0.0
 11
16899.6362010599
 21
10149.61079747699
 31
0.0
  0
LINE
  5
15E
330
6C
100
AcDbEntity
  8
Visible (ISO)
100
AcDbLine
 10
16946.2669668754
 20
10049.61079747699
 30
0.0
 11
17064.6362010599
 21
10049.61079747699
 31
0.0
  0
LINE
  5
15F
330
6C
100
AcDbEntity
  8
Visible (ISO)
100
AcDbLine
 10
16946.2669668754
 20
10049.61079747699
 30
0.0
 11
16943.93542858463
 21
10054.61079747699
 31
0.0
  0
LINE
  5
160
330
6C
100
AcDbEntity
  8
Visible (ISO)
100
AcDbLine
 10
16901.96773935068
 20
10144.61079747699
 30
0.0
 11
16943.93542858463
 21
10054.61079747699
 31
0.0
  0
LINE
  5
161
330
6C
100
AcDbEntity
  8
Visible (ISO)
100
AcDbLine
 10
16901.96773935068
 20
10144.61079747699
 30
0.0
 11
16899.6362010599
 21
10149.610797477
 31
0.0
  0
LINE
  5
162
330
6C
100
AcDbEntity
  8
Visible (ISO)
100
AcDbLine
 10
17099.6362010599
 20
10099.11079747694
 30
0.0
 11
17099.6362010599
 21
10100.11079747705
 31
0.0
  0
LINE
  5
163
330
6C
100
AcDbEntity
  8
Visible (ISO)
100
AcDbLine
 10
17604.63620105991
 20
10149.61079747699
 30
0.0
 11
17439.6362010599
 21
10149.61079747699
 31
0.0
  0
LINE
  5
164
330
6C
100
AcDbEntity
  8
Visible (ISO)
100
AcDbLine
 10
17439.6362010599
 20
10049.61079747699
 30
0.0
 11
17558.0054352444
 21
10049.61079747699
 31
0.0
  0
LINE
  5
165
330
6C
100
AcDbEntity
  8
Visible (ISO)
100
AcDbLine
 10
17560.33697353518
 20
10054.61079747699
 30
0.0
 11
17558.0054352444
 21
10049.61079747699
 31
0.0
  0
LINE
  5
166
330
6C
100
AcDbEntity
  8
Visible (ISO)
100
AcDbLine
 10
17604.63620105991
 20
10149.61079747699
 30
0.0
 11
17602.30466276913
 21
10144.61079747699
 31
0.0
  0
LINE
  5
167
330
6C
100
AcDbEntity
  8
Visible (ISO)
100
AcDbLine
 10
17560.33697353518
 20
10054.61079747699
 30
0.0
 11
17602.30466276913
 21
10144.61079747699
 31
0.0
  0
LINE
  5
168
330
6C
100
AcDbEntity
  8
Visible (ISO)
100
AcDbLine
 10
17404.6362010599
 20
10100.11079747705
 30
0.0
 11
17404.6362010599
 21
10099.11079747694
 31
0.0
  0
LINE
  5
169
330
6C
100
AcDbEntity
  8
Visible (ISO)
100
AcDbLine
 10
16303.26673282634
 20
5962.857797136713
 30
0.0
 11
16303.26673282634
 21
5961.100437823831
 31
0.0
  0
LINE
  5
16A
330
6C
100
AcDbEntity
  8
Visible (ISO)
100
AcDbLine
 10
16353.26673282634
 20
5962.857797136713
 30
0.0
 11
16303.26673282634
 21
5962.857797136713
 31
0.0
  0
LINE
  5
16B
330
6C
100
AcDbEntity
  8
Visible (ISO)
100
AcDbLine
 10
16303.26673282634
 20
5938.473020825862
 30
0.0
 11
16353.26673282634
 21
5938.473020825862
 31
0.0
  0
LINE
  5
16C
330
6C
100
AcDbEntity
  8
Visible (ISO)
100
AcDbLine
 10
16303.26673282634
 20
5940.594341169422
 30
0.0
 11
16303.26673282634
 21
5938.473020825862
 31
0.0
  0
LINE
  5
16D
330
6C
100
AcDbEntity
  8
Visible (ISO)
100
AcDbLine
 10
16303.26673282634
 20
5940.594341169422
 30
0.0
 11
16303.26673282634
 21
5961.100437823832
 31
0.0
  0
LINE
  5
16E
330
6C
100
AcDbEntity
  8
Visible (ISO)
100
AcDbLine
 10
16353.26673282634
 20
5940.594341169422
 30
0.0
 11
16303.26673282634
 21
5940.594341169422
 31
0.0
  0
LINE
  5
16F
330
6C
100
AcDbEntity
  8
Visible (ISO)
100
AcDbLine
 10
16503.26673282634
 20
5961.100437823831
 30
0.0
 11
16503.26673282634
 21
5962.857797136713
 31
0.0
  0
LINE
  5
170
330
6C
100
AcDbEntity
  8
Visible (ISO)
100
AcDbLine
 10
16453.26673282634
 20
5962.857797136713
 30
0.0
 11
16503.26673282634
 21
5962.857797136713
 31
0.0
  0
LINE
  5
171
330
6C
100
AcDbEntity
  8
Visible (ISO)
100
AcDbLine
 10
16453.26673282634
 20
5938.473020825862
 30
0.0
 11
16503.26673282634
 21
5938.473020825862
 31
0.0
  0
LINE
  5
172
330
6C
100
AcDbEntity
  8
Visible (ISO)
100
AcDbLine
 10
16503.26673282634
 20
5961.100437823832
 30
0.0
 11
16503.26673282634
 21
5940.594341169422
 31
0.0
  0
LINE
  5
173
330
6C
100
AcDbEntity
  8
Visible (ISO)
100
AcDbLine
 10
16503.26673282634
 20
5940.594341169422
 30
0.0
 11
16503.26673282634
 21
5938.473020825862
 31
0.0
  0
LINE
  5
174
330
6C
100
AcDbEntity
  8
Visible (ISO)
100
AcDbLine
 10
16453.26673282634
 20
5940.594341169422
 30
0.0
 11
16503.26673282634
 21
5940.594341169422
 31
0.0
  0
LINE
  5
175
330
6C
100
AcDbEntity
  8
Visible (ISO)
100
AcDbLine
 10
18201.00566929344
 20
5961.100437823827
 30
0.0
 11
18201.00566929344
 21
5962.857797136709
 31
0.0
  0
LINE
  5
176
330
6C
100
AcDbEntity
  8
Visible (ISO)
100
AcDbLine
 10
18151.00566929344
 20
5962.857797136709
 30
0.0
 11
18201.00566929344
 21
5962.857797136709
 31
0.0
  0
LINE
  5
177
330
6C
100
AcDbEntity
  8
Visible (ISO)
100
AcDbLine
 10
18151.00566929344
 20
5938.473020825859
 30
0.0
 11
18201.00566929344
 21
5938.473020825858
 31
0.0
  0
LINE
  5
178
330
6C
100
AcDbEntity
  8
Visible (ISO)
100
AcDbLine
 10
18201.00566929344
 20
5961.100437823827
 30
0.0
 11
18201.00566929344
 21
5940.594341169418
 31
0.0
  0
LINE
  5
179
330
6C
100
AcDbEntity
  8
Visible (ISO)
100
AcDbLine
 10
18201.00566929344
 20
5940.594341169418
 30
0.0
 11
18201.00566929344
 21
5938.473020825858
 31
0.0
  0
LINE
  5
17A
330
6C
100
AcDbEntity
  8
Visible (ISO)
100
AcDbLine
 10
18151.00566929344
 20
5940.594341169418
 30
0.0
 11
18201.00566929344
 21
5940.594341169417
 31
0.0
  0
LINE
  5
17B
330
6C
100
AcDbEntity
  8
Visible (ISO)
100
AcDbLine
 10
18001.00566929344
 20
5962.85779713671
 30
0.0
 11
18001.00566929344
 21
5961.100437823827
 31
0.0
  0
LINE
  5
17C
330
6C
100
AcDbEntity
  8
Visible (ISO)
100
AcDbLine
 10
18051.00566929344
 20
5962.85779713671
 30
0.0
 11
18001.00566929344
 21
5962.85779713671
 31
0.0
  0
LINE
  5
17D
330
6C
100
AcDbEntity
  8
Visible (ISO)
100
AcDbLine
 10
18001.00566929344
 20
5938.47302082586
 30
0.0
 11
18051.00566929344
 21
5938.473020825859
 31
0.0
  0
LINE
  5
17E
330
6C
100
AcDbEntity
  8
Visible (ISO)
100
AcDbLine
 10
18001.00566929344
 20
5940.594341169418
 30
0.0
 11
18001.00566929344
 21
5938.47302082586
 31
0.0
  0
LINE
  5
17F
330
6C
100
AcDbEntity
  8
Visible (ISO)
100
AcDbLine
 10
18001.00566929344
 20
5940.594341169418
 30
0.0
 11
18001.00566929344
 21
5961.100437823828
 31
0.0
  0
LINE
  5
180
330
6C
100
AcDbEntity
  8
Visible (ISO)
100
AcDbLine
 10
18051.00566929344
 20
5940.594341169418
 30
0.0
 11
18001.00566929344
 21
5940.594341169418
 31
0.0
  0
LINE
  5
181
330
6C
100
AcDbEntity
  8
Visible (ISO)
100
AcDbLine
 10
16368.26673282634
 20
5698.473020825862
 30
0.0
 11
16368.26673282634
 21
6241.473020825862
 31
0.0
  0
LINE
  5
182
330
6C
100
AcDbEntity
  8
Visible (ISO)
100
AcDbLine
 10
16368.26673282634
 20
6251.473020825862
 30
0.0
 11
16368.26673282634
 21
7396.289199383868
 31
0.0
  0
LINE
  5
183
330
6C
100
AcDbEntity
  8
Visible (ISO)
100
AcDbLine
 10
16438.26673282634
 20
5698.473020825862
 30
0.0
 11
16438.26673282634
 21
6241.473020825862
 31
0.0
  0
LINE
  5
184
330
6C
100
AcDbEntity
  8
Visible (ISO)
100
AcDbLine
 10
16438.26673282634
 20
6251.473020825862
 30
0.0
 11
16438.26673282634
 21
7396.289199383868
 31
0.0
  0
ELLIPSE
  5
185
330
6C
100
AcDbEntity
  8
Visible (ISO)
100
AcDbEllipse
 10
16374.26673282634
 20
7396.289199383868
 30
0.0
 11
6.0
 21
-0.0000000000000235
 31
0.0
210
0.0
220
0.0
230
1.0
 40
0.3639702342662038
 41
1.570796326794898
 42
3.141592653589779
  0
LINE
  5
186
330
6C
100
AcDbEntity
  8
Visible (ISO)
100
AcDbLine
 10
16432.26673282634
 20
7398.473020825862
 30
0.0
 11
16374.26673282634
 21
7398.473020825862
 31
0.0
  0
ELLIPSE
  5
187
330
6C
100
AcDbEntity
  8
Visible (ISO)
100
AcDbEllipse
 10
16432.26673282634
 20
7396.289199383868
 30
0.0
 11
6.0
 21
-0.0000000000000235
 31
0.0
210
0.0
220
0.0
230
1.0
 40
0.3639702342662038
 41
-0.0000000000000133
 42
1.570796326794898
  0
ELLIPSE
  5
188
330
6C
100
AcDbEntity
  8
Visible (ISO)
100
AcDbEllipse
 10
16374.26673282634
 20
8044.603153700222
 30
0.0
 11
0.0
 21
-9.334342961162468
 31
0.0
210
0.0
220
0.0
230
1.0
 40
0.6427876096865396
 41
3.141592653589801
 42
4.712388980384689
  0
LINE
  5
189
330
6C
100
AcDbEntity
  8
Visible (ISO)
100
AcDbLine
 10
16432.26673282634
 20
8053.937496750206
 30
0.0
 11
16374.26673282634
 21
8053.937496750206
 31
0.0
  0
ELLIPSE
  5
18A
330
6C
100
AcDbEntity
  8
Visible (ISO)
100
AcDbEllipse
 10
16432.26673282634
 20
8044.60315370022
 30
0.0
 11
0.0
 21
-9.334342961162468
 31
0.0
210
0.0
220
0.0
230
1.0
 40
0.6427876096865396
 41
1.570796326794896
 42
3.141592653589801
  0
LINE
  5
18B
330
6C
100
AcDbEntity
  8
Visible (ISO)
100
AcDbLine
 10
16368.26673282634
 20
7396.289199448147
 30
0.0
 11
16368.26673282634
 21
8044.60315370022
 31
0.0
  0
LINE
  5
18C
330
6C
100
AcDbEntity
  8
Visible (ISO)
100
AcDbLine
 10
16438.26673282634
 20
7396.289199448147
 30
0.0
 11
16438.26673282634
 21
8044.60315370022
 31
0.0
  0
ELLIPSE
  5
18D
330
6C
100
AcDbEntity
  8
Visible (ISO)
100
AcDbEllipse
 10
16374.26673282634
 20
7396.289199448147
 30
0.0
 11
-5.999999999999999
 21
0.0000000000000323
 31
0.0
210
0.0
220
0.0
230
1.0
 40
0.3639702342662019
 41
4.712388980384691
 42
6.283185307179572
  0
LINE
  5
18E
330
6C
100
AcDbEntity
  8
Visible (ISO)
100
AcDbLine
 10
16432.26673282634
 20
7398.473020825862
 30
0.0
 11
16374.26673282634
 21
7398.473020825862
 31
0.0
  0
ELLIPSE
  5
18F
330
6C
100
AcDbEntity
  8
Visible (ISO)
100
AcDbEllipse
 10
16432.26673282634
 20
7396.289199448147
 30
0.0
 11
-5.999999999999999
 21
0.0000000000000323
 31
0.0
210
0.0
220
0.0
230
1.0
 40
0.3639702342662019
 41
3.141592653589778
 42
4.712388980384691
  0
ARC
  5
190
330
6C
100
AcDbEntity
  8
Visible (ISO)
100
AcDbCircle
 10
17029.6362010599
 20
9999.610797476996
 30
0.0
 40
10.00000000000001
100
AcDbArc
 50
270.0
 51
0.0
  0
ARC
  5
191
330
6C
100
AcDbEntity
  8
Visible (ISO)
100
AcDbCircle
 10
17009.6362010599
 20
9999.610797476996
 30
0.0
 40
10.0
100
AcDbArc
 50
180.0
 51
270.0
  0
LINE
  5
192
330
6C
100
AcDbEntity
  8
Visible (ISO)
100
AcDbLine
 10
17029.6362010599
 20
9989.610797476997
 30
0.0
 11
17023.54132589785
 21
9989.610797476997
 31
0.0
  0
LINE
  5
193
330
6C
100
AcDbEntity
  8
Visible (ISO)
100
AcDbLine
 10
17015.73107622195
 20
9989.610797476997
 30
0.0
 11
17009.6362010599
 21
9989.610797476997
 31
0.0
  0
LINE
  5
194
330
6C
100
AcDbEntity
  8
Visible (ISO)
100
AcDbLine
 10
17039.6362010599
 20
9999.610797476996
 30
0.0
 11
17039.6362010599
 21
10044.61079747699
 31
0.0
  0
LINE
  5
195
330
6C
100
AcDbEntity
  8
Visible (ISO)
100
AcDbLine
 10
16999.6362010599
 20
9999.610797476996
 30
0.0
 11
16999.6362010599
 21
10044.61079747699
 31
0.0
  0
LINE
  5
196
330
6C
100
AcDbEntity
  8
Visible (ISO)
100
AcDbLine
 10
16999.6362010599
 20
10024.61079747699
 30
0.0
 11
16999.6362010599
 21
10049.61079747699
 31
0.0
  0
LINE
  5
197
330
6C
100
AcDbEntity
  8
Visible (ISO)
100
AcDbLine
 10
16996.6362010599
 20
10049.61079747699
 30
0.0
 11
16996.6362010599
 21
10024.61079747699
 31
0.0
  0
LINE
  5
198
330
6C
100
AcDbEntity
  8
Visible (ISO)
100
AcDbLine
 10
16996.6362010599
 20
10024.61079747699
 30
0.0
 11
16999.6362010599
 21
10024.61079747699
 31
0.0
  0
LINE
  5
199
330
6C
100
AcDbEntity
  8
Visible (ISO)
100
AcDbLine
 10
17042.6362010599
 20
10024.61079747699
 30
0.0
 11
17042.6362010599
 21
10049.61079747699
 31
0.0
  0
LINE
  5
19A
330
6C
100
AcDbEntity
  8
Visible (ISO)
100
AcDbLine
 10
17039.6362010599
 20
10024.61079747699
 30
0.0
 11
17042.6362010599
 21
10024.61079747699
 31
0.0
  0
LINE
  5
19B
330
6C
100
AcDbEntity
  8
Visible (ISO)
100
AcDbLine
 10
17039.6362010599
 20
10049.61079747699
 30
0.0
 11
17039.6362010599
 21
10024.61079747699
 31
0.0
  0
LINE
  5
19C
330
6C
100
AcDbEntity
  8
Visible (ISO)
100
AcDbLine
 10
17504.6362010599
 20
10049.61079747699
 30
0.0
 11
17504.6362010599
 21
10024.61079747699
 31
0.0
  0
LINE
  5
19D
330
6C
100
AcDbEntity
  8
Visible (ISO)
100
AcDbLine
 10
17504.6362010599
 20
10024.61079747699
 30
0.0
 11
17507.6362010599
 21
10024.61079747699
 31
0.0
  0
LINE
  5
19E
330
6C
100
AcDbEntity
  8
Visible (ISO)
100
AcDbLine
 10
17507.6362010599
 20
10024.61079747699
 30
0.0
 11
17507.6362010599
 21
10049.61079747699
 31
0.0
  0
LINE
  5
19F
330
6C
100
AcDbEntity
  8
Visible (ISO)
100
AcDbLine
 10
17461.6362010599
 20
10049.61079747699
 30
0.0
 11
17461.6362010599
 21
10024.61079747699
 31
0.0
  0
LINE
  5
1A0
330
6C
100
AcDbEntity
  8
Visible (ISO)
100
AcDbLine
 10
17464.6362010599
 20
10024.61079747699
 30
0.0
 11
17461.6362010599
 21
10024.61079747699
 31
0.0
  0
LINE
  5
1A1
330
6C
100
AcDbEntity
  8
Visible (ISO)
100
AcDbLine
 10
17464.6362010599
 20
10024.61079747699
 30
0.0
 11
17464.6362010599
 21
10049.61079747699
 31
0.0
  0
LINE
  5
1A2
330
6C
100
AcDbEntity
  8
Visible (ISO)
100
AcDbLine
 10
17010.40770433595
 20
9966.838060554742
 30
0.0
 11
16996.4292418415
 21
9991.407500773702
 31
0.0
  0
LINE
  5
1A3
330
6C
100
AcDbEntity
  8
Visible (ISO)
100
AcDbLine
 10
17042.84316027831
 20
9991.407500773702
 30
0.0
 11
17028.86469778385
 21
9966.838060554742
 31
0.0
  0
ARC
  5
1A4
330
6C
100
AcDbEntity
  8
Visible (ISO)
100
AcDbCircle
 10
17019.63620105991
 20
10004.61079747699
 30
0.0
 40
26.69999999999989
100
AcDbArc
 50
138.5093351044918
 51
209.6371473718665
  0
ARC
  5
1A5
330
6C
100
AcDbEntity
  8
Visible (ISO)
100
AcDbCircle
 10
17019.63620105991
 20
10004.61079747699
 30
0.0
 40
26.69999999999989
100
AcDbArc
 50
330.3628526281335
 51
41.49066489551099
  0
LINE
  5
1A6
330
6C
100
AcDbEntity
  8
Visible (ISO)
100
AcDbLine
 10
16996.42924184149
 20
8698.182983069187
 30
0.0
 11
17010.40770433595
 21
8722.75242328814
 31
0.0
  0
LINE
  5
1A7
330
6C
100
AcDbEntity
  8
Visible (ISO)
100
AcDbLine
 10
17027.6362010599
 20
9936.838060554743
 30
0.0
 11
17027.6362010599
 21
8752.752423288141
 31
0.0
  0
LINE
  5
1A8
330
6C
100
AcDbEntity
  8
Visible (ISO)
100
AcDbLine
 10
17011.6362010599
 20
9936.838060554743
 30
0.0
 11
17011.6362010599
 21
8752.752423288141
 31
0.0
  0
ARC
  5
1A9
330
6C
100
AcDbEntity
  8
Visible (ISO)
100
AcDbCircle
 10
17019.6362010599
 20
8684.97968636589
 30
0.0
 40
26.69999999999989
100
AcDbArc
 50
316.6802157245774
 51
29.63714737186654
  0
ARC
  5
1AA
330
6C
100
AcDbEntity
  8
Visible (ISO)
100
AcDbCircle
 10
17019.6362010599
 20
8684.97968636589
 30
0.0
 40
26.69999999999989
100
AcDbArc
 50
150.3628526281368
 51
223.3197842754226
  0
LINE
  5
1AB
330
6C
100
AcDbEntity
  8
Visible (ISO)
100
AcDbLine
 10
17028.86469778385
 20
8722.75242328814
 30
0.0
 11
17042.8431602783
 21
8698.182983069187
 31
0.0
  0
LINE
  5
1AC
330
6C
100
AcDbEntity
  8
Visible (ISO)
100
AcDbLine
 10
17493.86469778385
 20
9966.838060554742
 30
0.0
 11
17507.84316027831
 21
9991.4075007737
 31
0.0
  0
LINE
  5
1AD
330
6C
100
AcDbEntity
  8
Visible (ISO)
100
AcDbLine
 10
17461.4292418415
 20
9991.4075007737
 30
0.0
 11
17475.40770433595
 21
9966.838060554742
 31
0.0
  0
ARC
  5
1AE
330
6C
100
AcDbEntity
  8
Visible (ISO)
100
AcDbCircle
 10
17484.6362010599
 20
10004.61079747699
 30
0.0
 40
26.69999999999989
100
AcDbArc
 50
138.5093351044861
 51
209.6371473718632
  0
ARC
  5
1AF
330
6C
100
AcDbEntity
  8
Visible (ISO)
100
AcDbCircle
 10
17484.6362010599
 20
10004.61079747699
 30
0.0
 40
26.69999999999989
100
AcDbArc
 50
330.3628526281335
 51
41.49066489551099
  0
LINE
  5
1B0
330
6C
100
AcDbEntity
  8
Visible (ISO)
100
AcDbLine
 10
17507.84316027831
 20
8698.182983069186
 30
0.0
 11
17493.86469778385
 21
8722.75242328814
 31
0.0
  0
LINE
  5
1B1
330
6C
100
AcDbEntity
  8
Visible (ISO)
100
AcDbLine
 10
17492.6362010599
 20
9936.838060554739
 30
0.0
 11
17492.6362010599
 21
8752.752423288139
 31
0.0
  0
LINE
  5
1B2
330
6C
100
AcDbEntity
  8
Visible (ISO)
100
AcDbLine
 10
17476.6362010599
 20
9936.838060554739
 30
0.0
 11
17476.6362010599
 21
8752.752423288139
 31
0.0
  0
ARC
  5
1B3
330
6C
100
AcDbEntity
  8
Visible (ISO)
100
AcDbCircle
 10
17484.6362010599
 20
8684.979686365888
 30
0.0
 40
26.6999999999999
100
AcDbArc
 50
316.6802157245774
 51
29.63714737186654
  0
ARC
  5
1B4
330
6C
100
AcDbEntity
  8
Visible (ISO)
100
AcDbCircle
 10
17484.6362010599
 20
8684.979686365888
 30
0.0
 40
26.69999999999989
100
AcDbArc
 50
150.3628526281368
 51
223.3197842754226
  0
LINE
  5
1B5
330
6C
100
AcDbEntity
  8
Visible (ISO)
100
AcDbLine
 10
17475.40770433595
 20
8722.752423288136
 30
0.0
 11
17461.42924184149
 21
8698.182983069186
 31
0.0
  0
LINE
  5
1B6
330
6C
100
AcDbEntity
  8
Visible (ISO)
100
AcDbLine
 10
17005.6362010599
 20
8752.752423288141
 30
0.0
 11
17033.6362010599
 21
8752.752423288141
 31
0.0
  0
ARC
  5
1B7
330
6C
100
AcDbEntity
  8
Visible (ISO)
100
AcDbCircle
 10
17005.6362010599
 20
8750.75242328814
 30
0.0
 40
1.999999999999993
100
AcDbArc
 50
90.0
 51
180.0
  0
ARC
  5
1B8
330
6C
100
AcDbEntity
  8
Visible (ISO)
100
AcDbCircle
 10
17033.6362010599
 20
8750.75242328814
 30
0.0
 40
1.999999999999993
100
AcDbArc
 50
0.0
 51
90.0
  0
LINE
  5
1B9
330
6C
100
AcDbEntity
  8
Visible (ISO)
100
AcDbLine
 10
17033.6362010599
 20
8722.75242328814
 30
0.0
 11
17005.6362010599
 21
8722.75242328814
 31
0.0
  0
ARC
  5
1BA
330
6C
100
AcDbEntity
  8
Visible (ISO)
100
AcDbCircle
 10
17005.6362010599
 20
8724.752423288141
 30
0.0
 40
1.999999999999993
100
AcDbArc
 50
180.0
 51
270.0
  0
ARC
  5
1BB
330
6C
100
AcDbEntity
  8
Visible (ISO)
100
AcDbCircle
 10
17033.6362010599
 20
8724.752423288141
 30
0.0
 40
1.999999999999993
100
AcDbArc
 50
270.0
 51
0.0
  0
LINE
  5
1BC
330
6C
100
AcDbEntity
  8
Visible (ISO)
100
AcDbLine
 10
17035.6362010599
 20
8750.75242328814
 30
0.0
 11
17035.6362010599
 21
8724.752423288141
 31
0.0
  0
LINE
  5
1BD
330
6C
100
AcDbEntity
  8
Visible (ISO)
100
AcDbLine
 10
17003.6362010599
 20
8750.75242328814
 30
0.0
 11
17003.6362010599
 21
8724.752423288141
 31
0.0
  0
LINE
  5
1BE
330
6C
100
AcDbEntity
  8
Visible (ISO)
100
AcDbLine
 10
17005.6362010599
 20
9966.838060554749
 30
0.0
 11
17033.6362010599
 21
9966.838060554749
 31
0.0
  0
ARC
  5
1BF
330
6C
100
AcDbEntity
  8
Visible (ISO)
100
AcDbCircle
 10
17005.6362010599
 20
9964.83806055475
 30
0.0
 40
1.99999999999999
100
AcDbArc
 50
90.0
 51
180.0
  0
ARC
  5
1C0
330
6C
100
AcDbEntity
  8
Visible (ISO)
100
AcDbCircle
 10
17033.6362010599
 20
9964.83806055475
 30
0.0
 40
1.99999999999999
100
AcDbArc
 50
0.0
 51
90.0
  0
LINE
  5
1C1
330
6C
100
AcDbEntity
  8
Visible (ISO)
100
AcDbLine
 10
17033.6362010599
 20
9936.838060554748
 30
0.0
 11
17005.6362010599
 21
9936.838060554748
 31
0.0
  0
ARC
  5
1C2
330
6C
100
AcDbEntity
  8
Visible (ISO)
100
AcDbCircle
 10
17005.6362010599
 20
9938.838060554751
 30
0.0
 40
1.99999999999999
100
AcDbArc
 50
180.0
 51
270.0
  0
ARC
  5
1C3
330
6C
100
AcDbEntity
  8
Visible (ISO)
100
AcDbCircle
 10
17033.6362010599
 20
9938.838060554751
 30
0.0
 40
1.99999999999999
100
AcDbArc
 50
270.0
 51
0.0
  0
LINE
  5
1C4
330
6C
100
AcDbEntity
  8
Visible (ISO)
100
AcDbLine
 10
17035.6362010599
 20
9964.83806055475
 30
0.0
 11
17035.6362010599
 21
9938.838060554751
 31
0.0
  0
LINE
  5
1C5
330
6C
100
AcDbEntity
  8
Visible (ISO)
100
AcDbLine
 10
17003.6362010599
 20
9964.83806055475
 30
0.0
 11
17003.6362010599
 21
9938.838060554751
 31
0.0
  0
LINE
  5
1C6
330
6C
100
AcDbEntity
  8
Visible (ISO)
100
AcDbLine
 10
17470.6362010599
 20
8752.752423288139
 30
0.0
 11
17498.6362010599
 21
8752.752423288139
 31
0.0
  0
ARC
  5
1C7
330
6C
100
AcDbEntity
  8
Visible (ISO)
100
AcDbCircle
 10
17470.6362010599
 20
8750.752423288139
 30
0.0
 40
1.999999999999993
100
AcDbArc
 50
90.0
 51
180.0
  0
ARC
  5
1C8
330
6C
100
AcDbEntity
  8
Visible (ISO)
100
AcDbCircle
 10
17498.6362010599
 20
8750.752423288139
 30
0.0
 40
1.999999999999993
100
AcDbArc
 50
0.0
 51
90.0
  0
LINE
  5
1C9
330
6C
100
AcDbEntity
  8
Visible (ISO)
100
AcDbLine
 10
17498.6362010599
 20
8722.75242328814
 30
0.0
 11
17470.6362010599
 21
8722.75242328814
 31
0.0
  0
ARC
  5
1CA
330
6C
100
AcDbEntity
  8
Visible (ISO)
100
AcDbCircle
 10
17470.6362010599
 20
8724.752423288139
 30
0.0
 40
1.999999999999993
100
AcDbArc
 50
180.0
 51
270.0
  0
ARC
  5
1CB
330
6C
100
AcDbEntity
  8
Visible (ISO)
100
AcDbCircle
 10
17498.6362010599
 20
8724.752423288139
 30
0.0
 40
1.999999999999993
100
AcDbArc
 50
270.0
 51
0.0
  0
LINE
  5
1CC
330
6C
100
AcDbEntity
  8
Visible (ISO)
100
AcDbLine
 10
17500.6362010599
 20
8750.752423288139
 30
0.0
 11
17500.6362010599
 21
8724.752423288139
 31
0.0
  0
LINE
  5
1CD
330
6C
100
AcDbEntity
  8
Visible (ISO)
100
AcDbLine
 10
17468.6362010599
 20
8750.752423288139
 30
0.0
 11
17468.6362010599
 21
8724.752423288139
 31
0.0
  0
LINE
  5
1CE
330
6C
100
AcDbEntity
  8
Visible (ISO)
100
AcDbLine
 10
17470.6362010599
 20
9966.838060554744
 30
0.0
 11
17498.6362010599
 21
9966.838060554744
 31
0.0
  0
ARC
  5
1CF
330
6C
100
AcDbEntity
  8
Visible (ISO)
100
AcDbCircle
 10
17470.6362010599
 20
9964.838060554747
 30
0.0
 40
1.99999999999999
100
AcDbArc
 50
90.0
 51
180.0
  0
ARC
  5
1D0
330
6C
100
AcDbEntity
  8
Visible (ISO)
100
AcDbCircle
 10
17498.6362010599
 20
9964.838060554747
 30
0.0
 40
1.99999999999999
100
AcDbArc
 50
0.0
 51
90.0
  0
LINE
  5
1D1
330
6C
100
AcDbEntity
  8
Visible (ISO)
100
AcDbLine
 10
17498.6362010599
 20
9936.838060554745
 30
0.0
 11
17470.6362010599
 21
9936.838060554745
 31
0.0
  0
ARC
  5
1D2
330
6C
100
AcDbEntity
  8
Visible (ISO)
100
AcDbCircle
 10
17470.6362010599
 20
9938.838060554747
 30
0.0
 40
1.99999999999999
100
AcDbArc
 50
180.0
 51
270.0
  0
ARC
  5
1D3
330
6C
100
AcDbEntity
  8
Visible (ISO)
100
AcDbCircle
 10
17498.6362010599
 20
9938.838060554747
 30
0.0
 40
1.99999999999999
100
AcDbArc
 50
270.0
 51
0.0
  0
LINE
  5
1D4
330
6C
100
AcDbEntity
  8
Visible (ISO)
100
AcDbLine
 10
17500.6362010599
 20
9964.838060554745
 30
0.0
 11
17500.6362010599
 21
9938.838060554747
 31
0.0
  0
LINE
  5
1D5
330
6C
100
AcDbEntity
  8
Visible (ISO)
100
AcDbLine
 10
17468.6362010599
 20
9964.838060554745
 30
0.0
 11
17468.6362010599
 21
9938.838060554747
 31
0.0
  0
LINE
  5
1D6
330
6C
100
AcDbEntity
  8
Visible (ISO)
100
AcDbLine
 10
17019.6362010599
 20
9967.110797476998
 30
0.0
 11
17019.51916385476
 21
9967.044419370942
 31
0.0
  0
LINE
  5
1D7
330
6C
100
AcDbEntity
  8
Visible (ISO)
100
AcDbLine
 10
17019.6362010599
 20
9967.110797476998
 30
0.0
 11
17019.75323826504
 21
9967.044419370942
 31
0.0
  0
LINE
  5
1D8
330
6C
100
AcDbEntity
  8
Visible (ISO)
100
AcDbLine
 10
17019.75323826504
 20
9967.044419370942
 30
0.0
 11
17019.6362010599
 21
9966.838060554747
 31
0.0
  0
LINE
  5
1D9
330
6C
100
AcDbEntity
  8
Visible (ISO)
100
AcDbLine
 10
17019.6362010599
 20
9966.838060554747
 30
0.0
 11
17019.51916385476
 21
9967.044419370942
 31
0.0
  0
LINE
  5
1DA
330
6C
100
AcDbEntity
  8
Visible (ISO)
100
AcDbLine
 10
17032.85336947247
 20
9990.14243819964
 30
0.0
 11
17019.86423510178
 21
9967.240127870679
 31
0.0
  0
LINE
  5
1DB
330
6C
100
AcDbEntity
  8
Visible (ISO)
100
AcDbLine
 10
17019.40816701802
 20
9967.240127870679
 30
0.0
 11
17006.41903264733
 21
9990.142438199637
 31
0.0
  0
LINE
  5
1DC
330
6C
100
AcDbEntity
  8
Visible (ISO)
100
AcDbLine
 10
17019.6362010599
 20
9967.110797476998
 30
0.0
 11
17019.40816701802
 21
9967.240127870679
 31
0.0
  0
LINE
  5
1DD
330
6C
100
AcDbEntity
  8
Visible (ISO)
100
AcDbLine
 10
17019.86423510178
 20
9967.240127870679
 30
0.0
 11
17019.6362010599
 21
9967.110797476998
 31
0.0
  0
LINE
  5
1DE
330
6C
100
AcDbEntity
  8
Visible (ISO)
100
AcDbLine
 10
17019.51916385476
 20
9967.044419370942
 30
0.0
 11
17019.40816701802
 21
9967.240127870679
 31
0.0
  0
LINE
  5
1DF
330
6C
100
AcDbEntity
  8
Visible (ISO)
100
AcDbLine
 10
17019.86423510178
 20
9967.240127870679
 30
0.0
 11
17019.75323826504
 21
9967.044419370942
 31
0.0
  0
LINE
  5
1E0
330
6C
100
AcDbEntity
  8
Visible (ISO)
100
AcDbLine
 10
17019.51916385476
 20
8722.546064471947
 30
0.0
 11
17019.6362010599
 21
8722.479686365891
 31
0.0
  0
LINE
  5
1E1
330
6C
100
AcDbEntity
  8
Visible (ISO)
100
AcDbLine
 10
17019.75323826504
 20
8722.546064471947
 30
0.0
 11
17019.6362010599
 21
8722.479686365891
 31
0.0
  0
LINE
  5
1E2
330
6C
100
AcDbEntity
  8
Visible (ISO)
100
AcDbLine
 10
17019.75323826504
 20
8722.546064471947
 30
0.0
 11
17019.6362010599
 21
8722.75242328814
 31
0.0
  0
LINE
  5
1E3
330
6C
100
AcDbEntity
  8
Visible (ISO)
100
AcDbLine
 10
17019.51916385476
 20
8722.546064471947
 30
0.0
 11
17019.6362010599
 21
8722.75242328814
 31
0.0
  0
LINE
  5
1E4
330
6C
100
AcDbEntity
  8
Visible (ISO)
100
AcDbLine
 10
17019.40816701802
 20
8722.350355972208
 30
0.0
 11
17019.6362010599
 21
8722.479686365891
 31
0.0
  0
LINE
  5
1E5
330
6C
100
AcDbEntity
  8
Visible (ISO)
100
AcDbLine
 10
17019.6362010599
 20
8722.479686365891
 30
0.0
 11
17019.86423510177
 21
8722.350355972208
 31
0.0
  0
ARC
  5
1E6
330
6C
100
AcDbEntity
  8
Visible (ISO)
100
AcDbCircle
 10
17019.6362010599
 20
8684.97968636589
 30
0.0
 40
18.63455021497606
100
AcDbArc
 50
150.4400916213134
 51
203.8939575235593
  0
ARC
  5
1E7
330
6C
100
AcDbEntity
  8
Visible (ISO)
100
AcDbCircle
 10
17019.6362010599
 20
8684.97968636589
 30
0.0
 40
18.63455021497605
100
AcDbArc
 50
336.1060424764406
 51
29.55990837868184
  0
LINE
  5
1E8
330
6C
100
AcDbEntity
  8
Visible (ISO)
100
AcDbLine
 10
17035.8452846096
 20
8694.172731138612
 30
0.0
 11
17019.86423510177
 21
8722.350355972208
 31
0.0
  0
LINE
  5
1E9
330
6C
100
AcDbEntity
  8
Visible (ISO)
100
AcDbLine
 10
17003.4271175102
 20
8694.172731138612
 30
0.0
 11
17019.40816701802
 21
8722.350355972208
 31
0.0
  0
LINE
  5
1EA
330
6C
100
AcDbEntity
  8
Visible (ISO)
100
AcDbLine
 10
17019.40816701802
 20
8722.350355972208
 30
0.0
 11
17019.51916385476
 21
8722.546064471947
 31
0.0
  0
LINE
  5
1EB
330
6C
100
AcDbEntity
  8
Visible (ISO)
100
AcDbLine
 10
17019.86423510177
 20
8722.350355972208
 30
0.0
 11
17019.75323826504
 21
8722.546064471947
 31
0.0
  0
LINE
  5
1EC
330
6C
100
AcDbEntity
  8
Visible (ISO)
100
AcDbLine
 10
17484.75323826504
 20
9967.044419370942
 30
0.0
 11
17484.6362010599
 21
9967.110797476998
 31
0.0
  0
LINE
  5
1ED
330
6C
100
AcDbEntity
  8
Visible (ISO)
100
AcDbLine
 10
17484.51916385476
 20
9967.044419370942
 30
0.0
 11
17484.6362010599
 21
9967.110797476998
 31
0.0
  0
LINE
  5
1EE
330
6C
100
AcDbEntity
  8
Visible (ISO)
100
AcDbLine
 10
17484.51916385476
 20
9967.044419370942
 30
0.0
 11
17484.6362010599
 21
9966.838060554747
 31
0.0
  0
LINE
  5
1EF
330
6C
100
AcDbEntity
  8
Visible (ISO)
100
AcDbLine
 10
17484.75323826504
 20
9967.044419370942
 30
0.0
 11
17484.6362010599
 21
9966.838060554747
 31
0.0
  0
LINE
  5
1F0
330
6C
100
AcDbEntity
  8
Visible (ISO)
100
AcDbLine
 10
17484.86423510178
 20
9967.240127870679
 30
0.0
 11
17484.6362010599
 21
9967.110797476998
 31
0.0
  0
LINE
  5
1F1
330
6C
100
AcDbEntity
  8
Visible (ISO)
100
AcDbLine
 10
17484.6362010599
 20
9967.110797476998
 30
0.0
 11
17484.40816701802
 21
9967.240127870679
 31
0.0
  0
LINE
  5
1F2
330
6C
100
AcDbEntity
  8
Visible (ISO)
100
AcDbLine
 10
17471.41903264733
 20
9990.142438199637
 30
0.0
 11
17484.40816701802
 21
9967.240127870679
 31
0.0
  0
LINE
  5
1F3
330
6C
100
AcDbEntity
  8
Visible (ISO)
100
AcDbLine
 10
17497.85336947247
 20
9990.142438199637
 30
0.0
 11
17484.86423510178
 21
9967.240127870679
 31
0.0
  0
LINE
  5
1F4
330
6C
100
AcDbEntity
  8
Visible (ISO)
100
AcDbLine
 10
17484.86423510178
 20
9967.240127870679
 30
0.0
 11
17484.75323826504
 21
9967.044419370942
 31
0.0
  0
LINE
  5
1F5
330
6C
100
AcDbEntity
  8
Visible (ISO)
100
AcDbLine
 10
17484.40816701802
 20
9967.240127870679
 30
0.0
 11
17484.51916385476
 21
9967.044419370942
 31
0.0
  0
LINE
  5
1F6
330
6C
100
AcDbEntity
  8
Visible (ISO)
100
AcDbLine
 10
17484.6362010599
 20
8722.479686365888
 30
0.0
 11
17484.75323826504
 21
8722.546064471945
 31
0.0
  0
LINE
  5
1F7
330
6C
100
AcDbEntity
  8
Visible (ISO)
100
AcDbLine
 10
17484.6362010599
 20
8722.479686365888
 30
0.0
 11
17484.51916385476
 21
8722.546064471945
 31
0.0
  0
LINE
  5
1F8
330
6C
100
AcDbEntity
  8
Visible (ISO)
100
AcDbLine
 10
17484.51916385476
 20
8722.546064471945
 30
0.0
 11
17484.6362010599
 21
8722.752423288136
 31
0.0
  0
LINE
  5
1F9
330
6C
100
AcDbEntity
  8
Visible (ISO)
100
AcDbLine
 10
17484.6362010599
 20
8722.752423288136
 30
0.0
 11
17484.75323826504
 21
8722.546064471945
 31
0.0
  0
LINE
  5
1FA
330
6C
100
AcDbEntity
  8
Visible (ISO)
100
AcDbLine
 10
17468.4271175102
 20
8694.172731138612
 30
0.0
 11
17484.40816701802
 21
8722.350355972206
 31
0.0
  0
ARC
  5
1FB
330
6C
100
AcDbEntity
  8
Visible (ISO)
100
AcDbCircle
 10
17484.6362010599
 20
8684.979686365888
 30
0.0
 40
18.63455021497607
100
AcDbArc
 50
336.1060424764406
 51
29.55990837868664
  0
ARC
  5
1FC
330
6C
100
AcDbEntity
  8
Visible (ISO)
100
AcDbCircle
 10
17484.6362010599
 20
8684.979686365888
 30
0.0
 40
18.63455021497606
100
AcDbArc
 50
150.4400916213181
 51
203.8939575235593
  0
LINE
  5
1FD
330
6C
100
AcDbEntity
  8
Visible (ISO)
100
AcDbLine
 10
17484.86423510178
 20
8722.350355972206
 30
0.0
 11
17500.8452846096
 21
8694.172731138612
 31
0.0
  0
LINE
  5
1FE
330
6C
100
AcDbEntity
  8
Visible (ISO)
100
AcDbLine
 10
17484.6362010599
 20
8722.479686365888
 30
0.0
 11
17484.86423510178
 21
8722.350355972206
 31
0.0
  0
LINE
  5
1FF
330
6C
100
AcDbEntity
  8
Visible (ISO)
100
AcDbLine
 10
17484.40816701802
 20
8722.350355972206
 30
0.0
 11
17484.6362010599
 21
8722.479686365888
 31
0.0
  0
LINE
  5
200
330
6C
100
AcDbEntity
  8
Visible (ISO)
100
AcDbLine
 10
17484.75323826504
 20
8722.546064471945
 30
0.0
 11
17484.86423510178
 21
8722.350355972206
 31
0.0
  0
LINE
  5
201
330
6C
100
AcDbEntity
  8
Visible (ISO)
100
AcDbLine
 10
17484.40816701802
 20
8722.350355972206
 30
0.0
 11
17484.51916385476
 21
8722.546064471945
 31
0.0
  0
ARC
  5
202
330
6C
100
AcDbEntity
  8
Visible (ISO)
100
AcDbCircle
 10
17019.63620105989
 20
8557.979686365889
 30
0.0
 40
99.99999999999973
100
AcDbArc
 50
102.6429610575574
 51
77.35703894244062
  0
CIRCLE
  5
203
330
6C
100
AcDbEntity
  8
Visible (ISO)
100
AcDbCircle
 10
17019.63620105989
 20
8557.979686365889
 30
0.0
 40
69.9999999999998
  0
ARC
  5
204
330
6C
100
AcDbEntity
  8
Visible (ISO)
100
AcDbCircle
 10
17484.6362010599
 20
8557.979686365889
 30
0.0
 40
99.99999999999971
100
AcDbArc
 50
102.6429610575593
 51
77.35703894244261
  0
CIRCLE
  5
205
330
6C
100
AcDbEntity
  8
Visible (ISO)
100
AcDbCircle
 10
17484.6362010599
 20
8557.979686365889
 30
0.0
 40
69.9999999999998
  0
LINE
  5
206
330
6C
100
AcDbEntity
  8
Visible (ISO)
100
AcDbLine
 10
17035.125864879
 20
8684.413722788363
 30
0.0
 11
17042.75970696712
 21
8649.97968636589
 31
0.0
  0
ARC
  5
207
330
6C
100
AcDbEntity
  8
Visible (ISO)
100
AcDbCircle
 10
17019.6362010599
 20
8583.909243090863
 30
0.0
 40
69.99999999999996
100
AcDbArc
 50
70.71084163528549
 51
109.2891583647122
  0
LINE
  5
208
330
6C
100
AcDbEntity
  8
Visible (ISO)
100
AcDbLine
 10
16996.51269515267
 20
8649.97968636589
 30
0.0
 11
17004.14653724079
 21
8684.413722788363
 31
0.0
  0
ARC
  5
209
330
6C
100
AcDbEntity
  8
Visible (ISO)
100
AcDbCircle
 10
17484.6362010599
 20
8583.909243090863
 30
0.0
 40
69.99999999999983
100
AcDbArc
 50
70.710841635285
 51
109.2891583647118
  0
LINE
  5
20A
330
6C
100
AcDbEntity
  8
Visible (ISO)
100
AcDbLine
 10
17500.12586487901
 20
8684.413722788361
 30
0.0
 11
17507.75970696712
 21
8649.979686365888
 31
0.0
  0
LINE
  5
20B
330
6C
100
AcDbEntity
  8
Visible (ISO)
100
AcDbLine
 10
17461.51269515268
 20
8649.979686365888
 30
0.0
 11
17469.14653724079
 21
8684.413722788361
 31
0.0
  0
CIRCLE
  5
20C
330
6C
100
AcDbEntity
  8
Visible (ISO)
100
AcDbCircle
 10
17019.6362010599
 20
8684.97968636589
 30
0.0
 40
15.5
  0
CIRCLE
  5
20D
330
6C
100
AcDbEntity
  8
Visible (ISO)
100
AcDbCircle
 10
17019.6362010599
 20
8684.97968636589
 30
0.0
 40
11.5
  0
CIRCLE
  5
20E
330
6C
100
AcDbEntity
  8
Visible (ISO)
100
AcDbCircle
 10
17019.6362010599
 20
10004.61079747699
 30
0.0
 40
15.5
  0
CIRCLE
  5
20F
330
6C
100
AcDbEntity
  8
Visible (ISO)
100
AcDbCircle
 10
17019.6362010599
 20
10004.61079747699
 30
0.0
 40
11.5
  0
CIRCLE
  5
210
330
6C
100
AcDbEntity
  8
Visible (ISO)
100
AcDbCircle
 10
17484.6362010599
 20
8684.979686365888
 30
0.0
 40
15.5
  0
CIRCLE
  5
211
330
6C
100
AcDbEntity
  8
Visible (ISO)
100
AcDbCircle
 10
17484.6362010599
 20
8684.979686365888
 30
0.0
 40
11.5
  0
CIRCLE
  5
212
330
6C
100
AcDbEntity
  8
Visible (ISO)
100
AcDbCircle
 10
17484.6362010599
 20
10004.61079747699
 30
0.0
 40
15.5
  0
CIRCLE
  5
213
330
6C
100
AcDbEntity
  8
Visible (ISO)
100
AcDbCircle
 10
17484.6362010599
 20
10004.61079747699
 30
0.0
 40
11.5
  0
CIRCLE
  5
214
330
6C
100
AcDbEntity
  8
Visible (ISO)
100
AcDbCircle
 10
17019.6362010599
 20
8684.97968636589
 30
0.0
 40
11.5
  0
CIRCLE
  5
215
330
6C
100
AcDbEntity
  8
Visible (ISO)
100
AcDbCircle
 10
17019.6362010599
 20
10004.61079747699
 30
0.0
 40
11.5
  0
CIRCLE
  5
216
330
6C
100
AcDbEntity
  8
Visible (ISO)
100
AcDbCircle
 10
17484.6362010599
 20
8684.979686365888
 30
0.0
 40
11.5
  0
CIRCLE
  5
217
330
6C
100
AcDbEntity
  8
Visible (ISO)
100
AcDbCircle
 10
17484.6362010599
 20
10004.61079747699
 30
0.0
 40
11.5
  0
ELLIPSE
  5
218
330
6C
100
AcDbEntity
  8
Visible (ISO)
100
AcDbEllipse
 10
16984.6362010599
 20
10048.84869512167
 30
0.0
 11
0.0000000000001066
 21
15.67505980849828
 31
0.0
210
0.0
220
0.0
230
1.0
 40
0.5773502691896281
 41
4.712388980384693
 42
4.761026939386838
  0
LINE
  5
219
330
6C
100
AcDbEntity
  8
Visible (ISO)
100
AcDbLine
 10
16993.6862010599
 20
10047.41079747699
 30
0.0
 11
16975.5862010599
 21
10047.41079747699
 31
0.0
  0
LINE
  5
21A
330
6C
100
AcDbEntity
  8
Visible (ISO)
100
AcDbLine
 10
16993.6862010599
 20
10048.84869512166
 30
0.0
 11
16993.6862010599
 21
10047.41079747699
 31
0.0
  0
LINE
  5
21B
330
6C
100
AcDbEntity
  8
Visible (ISO)
100
AcDbLine
 10
16975.5862010599
 20
10049.61079747699
 30
0.0
 11
16975.5862010599
 21
10047.41079747699
 31
0.0
  0
ELLIPSE
  5
21C
330
6C
100
AcDbEntity
  8
Visible (ISO)
100
AcDbEllipse
 10
17054.6362010599
 20
10048.84869512167
 30
0.0
 11
0.0000000000001066
 21
15.67505980849828
 31
0.0
210
0.0
220
0.0
230
1.0
 40
0.5773502691896281
 41
4.712388980384693
 42
4.761026939386838
  0
LINE
  5
21D
330
6C
100
AcDbEntity
  8
Visible (ISO)
100
AcDbLine
 10
17063.6862010599
 20
10047.41079747699
 30
0.0
 11
17045.5862010599
 21
10047.41079747699
 31
0.0
  0
LINE
  5
21E
330
6C
100
AcDbEntity
  8
Visible (ISO)
100
AcDbLine
 10
17063.6862010599
 20
10048.84869512166
 30
0.0
 11
17063.6862010599
 21
10047.41079747699
 31
0.0
  0
LINE
  5
21F
330
6C
100
AcDbEntity
  8
Visible (ISO)
100
AcDbLine
 10
17045.5862010599
 20
10049.61079747699
 30
0.0
 11
17045.5862010599
 21
10047.41079747699
 31
0.0
  0
ELLIPSE
  5
220
330
6C
100
AcDbEntity
  8
Visible (ISO)
100
AcDbEllipse
 10
17519.6362010599
 20
10050.37289983232
 30
0.0
 11
-0.0000000000000237
 21
15.67505980849827
 31
0.0
210
0.0
220
0.0
230
1.0
 40
0.5773502691896284
 41
1.619434285796927
 42
1.760908579289812
  0
ELLIPSE
  5
221
330
6C
100
AcDbEntity
  8
Visible (ISO)
100
AcDbEllipse
 10
17519.6362010599
 20
10048.84869512167
 30
0.0
 11
-0.0000000000000237
 21
15.67505980849829
 31
0.0
210
0.0
220
0.0
230
1.0
 40
0.5773502691896278
 41
1.522158367792863
 42
1.662657022136212
  0
LINE
  5
222
330
6C
100
AcDbEntity
  8
Visible (ISO)
100
AcDbLine
 10
17510.74925464702
 20
10047.41079747699
 30
0.0
 11
17510.62435791947
 21
10047.41079747699
 31
0.0
  0
LINE
  5
223
330
6C
100
AcDbEntity
  8
Visible (ISO)
100
AcDbLine
 10
17528.6862010599
 20
10047.41079747699
 30
0.0
 11
17510.74925464702
 21
10047.41079747699
 31
0.0
  0
LINE
  5
224
330
6C
100
AcDbEntity
  8
Visible (ISO)
100
AcDbLine
 10
17510.62435791947
 20
10047.41079747699
 30
0.0
 11
17510.5862010599
 21
10047.41079747699
 31
0.0
  0
LINE
  5
225
330
6C
100
AcDbEntity
  8
Visible (ISO)
100
AcDbLine
 10
17528.6862010599
 20
10049.61079747699
 30
0.0
 11
17528.6862010599
 21
10047.41079747699
 31
0.0
  0
LINE
  5
226
330
6C
100
AcDbEntity
  8
Visible (ISO)
100
AcDbLine
 10
17510.5862010599
 20
10048.84869512166
 30
0.0
 11
17510.5862010599
 21
10047.41079747699
 31
0.0
  0
ELLIPSE
  5
227
330
6C
100
AcDbEntity
  8
Visible (ISO)
100
AcDbEllipse
 10
17449.6362010599
 20
10050.37289983232
 30
0.0
 11
-0.0000000000000237
 21
15.67505980849827
 31
0.0
210
0.0
220
0.0
230
1.0
 40
0.5773502691896284
 41
1.619434285796927
 42
1.760908579289812
  0
ELLIPSE
  5
228
330
6C
100
AcDbEntity
  8
Visible (ISO)
100
AcDbEllipse
 10
17449.6362010599
 20
10048.84869512167
 30
0.0
 11
-0.0000000000000237
 21
15.67505980849829
 31
0.0
210
0.0
220
0.0
230
1.0
 40
0.5773502691896278
 41
1.522158367792863
 42
1.662657022136212
  0
LINE
  5
229
330
6C
100
AcDbEntity
  8
Visible (ISO)
100
AcDbLine
 10
17440.74925464701
 20
10047.41079747699
 30
0.0
 11
17440.62435791946
 21
10047.41079747699
 31
0.0
  0
LINE
  5
22A
330
6C
100
AcDbEntity
  8
Visible (ISO)
100
AcDbLine
 10
17458.6862010599
 20
10047.41079747699
 30
0.0
 11
17440.74925464701
 21
10047.41079747699
 31
0.0
  0
LINE
  5
22B
330
6C
100
AcDbEntity
  8
Visible (ISO)
100
AcDbLine
 10
17440.62435791946
 20
10047.41079747699
 30
0.0
 11
17440.5862010599
 21
10047.41079747699
 31
0.0
  0
LINE
  5
22C
330
6C
100
AcDbEntity
  8
Visible (ISO)
100
AcDbLine
 10
17458.6862010599
 20
10049.61079747699
 30
0.0
 11
17458.6862010599
 21
10047.41079747699
 31
0.0
  0
LINE
  5
22D
330
6C
100
AcDbEntity
  8
Visible (ISO)
100
AcDbLine
 10
17440.5862010599
 20
10048.84869512166
 30
0.0
 11
17440.5862010599
 21
10047.41079747699
 31
0.0
  0
LINE
  5
22E
330
6C
100
AcDbEntity
  8
Visible (ISO)
100
AcDbLine
 10
16989.3362010599
 20
10041.91079747699
 30
0.0
 11
16979.9362010599
 21
10041.91079747699
 31
0.0
  0
ARC
  5
22F
330
6C
100
AcDbEntity
  8
Visible (ISO)
100
AcDbCircle
 10
16989.3362010599
 20
10045.96079747699
 30
0.0
 40
4.05
100
AcDbArc
 50
270.0
 51
0.0
  0
ARC
  5
230
330
6C
100
AcDbEntity
  8
Visible (ISO)
100
AcDbCircle
 10
16979.9362010599
 20
10045.96079747699
 30
0.0
 40
4.05
100
AcDbArc
 50
180.0
 51
270.0
  0
LINE
  5
231
330
6C
100
AcDbEntity
  8
Visible (ISO)
100
AcDbLine
 10
16975.8862010599
 20
10045.96079747699
 30
0.0
 11
16975.8862010599
 21
10047.41079747699
 31
0.0
  0
LINE
  5
232
330
6C
100
AcDbEntity
  8
Visible (ISO)
100
AcDbLine
 10
16993.3862010599
 20
10045.96079747699
 30
0.0
 11
16993.3862010599
 21
10047.41079747699
 31
0.0
  0
LINE
  5
233
330
6C
100
AcDbEntity
  8
Visible (ISO)
100
AcDbLine
 10
17059.3362010599
 20
10041.91079747699
 30
0.0
 11
17049.9362010599
 21
10041.91079747699
 31
0.0
  0
ARC
  5
234
330
6C
100
AcDbEntity
  8
Visible (ISO)
100
AcDbCircle
 10
17059.3362010599
 20
10045.96079747699
 30
0.0
 40
4.05
100
AcDbArc
 50
270.0
 51
0.0
  0
ARC
  5
235
330
6C
100
AcDbEntity
  8
Visible (ISO)
100
AcDbCircle
 10
17049.9362010599
 20
10045.96079747699
 30
0.0
 40
4.05
100
AcDbArc
 50
180.0
 51
270.0
  0
LINE
  5
236
330
6C
100
AcDbEntity
  8
Visible (ISO)
100
AcDbLine
 10
17045.8862010599
 20
10045.96079747699
 30
0.0
 11
17045.8862010599
 21
10047.41079747699
 31
0.0
  0
LINE
  5
237
330
6C
100
AcDbEntity
  8
Visible (ISO)
100
AcDbLine
 10
17063.3862010599
 20
10045.96079747699
 30
0.0
 11
17063.3862010599
 21
10047.41079747699
 31
0.0
  0
LINE
  5
238
330
6C
100
AcDbEntity
  8
Visible (ISO)
100
AcDbLine
 10
17524.3362010599
 20
10041.91079747699
 30
0.0
 11
17514.9362010599
 21
10041.91079747699
 31
0.0
  0
ARC
  5
239
330
6C
100
AcDbEntity
  8
Visible (ISO)
100
AcDbCircle
 10
17524.3362010599
 20
10045.96079747699
 30
0.0
 40
4.05
100
AcDbArc
 50
270.0
 51
0.0
  0
ARC
  5
23A
330
6C
100
AcDbEntity
  8
Visible (ISO)
100
AcDbCircle
 10
17514.9362010599
 20
10045.96079747699
 30
0.0
 40
4.05
100
AcDbArc
 50
180.0
 51
270.0
  0
LINE
  5
23B
330
6C
100
AcDbEntity
  8
Visible (ISO)
100
AcDbLine
 10
17510.8862010599
 20
10045.96079747699
 30
0.0
 11
17510.8862010599
 21
10047.41079747699
 31
0.0
  0
LINE
  5
23C
330
6C
100
AcDbEntity
  8
Visible (ISO)
100
AcDbLine
 10
17528.3862010599
 20
10045.96079747699
 30
0.0
 11
17528.3862010599
 21
10047.41079747699
 31
0.0
  0
LINE
  5
23D
330
6C
100
AcDbEntity
  8
Visible (ISO)
100
AcDbLine
 10
17454.3362010599
 20
10041.91079747699
 30
0.0
 11
17444.9362010599
 21
10041.91079747699
 31
0.0
  0
ARC
  5
23E
330
6C
100
AcDbEntity
  8
Visible (ISO)
100
AcDbCircle
 10
17454.3362010599
 20
10045.96079747699
 30
0.0
 40
4.05
100
AcDbArc
 50
270.0
 51
0.0
  0
ARC
  5
23F
330
6C
100
AcDbEntity
  8
Visible (ISO)
100
AcDbCircle
 10
17444.9362010599
 20
10045.96079747699
 30
0.0
 40
4.05
100
AcDbArc
 50
180.0
 51
270.0
  0
LINE
  5
240
330
6C
100
AcDbEntity
  8
Visible (ISO)
100
AcDbLine
 10
17440.8862010599
 20
10045.96079747699
 30
0.0
 11
17440.8862010599
 21
10047.41079747699
 31
0.0
  0
LINE
  5
241
330
6C
100
AcDbEntity
  8
Visible (ISO)
100
AcDbLine
 10
17458.3862010599
 20
10045.96079747699
 30
0.0
 11
17458.3862010599
 21
10047.41079747699
 31
0.0
  0
ARC
  5
242
330
6C
100
AcDbEntity
  8
Visible (ISO)
100
AcDbCircle
 10
17494.6362010599
 20
9999.610797476996
 30
0.0
 40
10.00000000000001
100
AcDbArc
 50
270.0
 51
0.0
  0
ARC
  5
243
330
6C
100
AcDbEntity
  8
Visible (ISO)
100
AcDbCircle
 10
17474.6362010599
 20
9999.610797476996
 30
0.0
 40
10.00000000000001
100
AcDbArc
 50
180.0
 51
270.0
  0
LINE
  5
244
330
6C
100
AcDbEntity
  8
Visible (ISO)
100
AcDbLine
 10
17494.6362010599
 20
9989.610797476995
 30
0.0
 11
17488.54132589785
 21
9989.610797476995
 31
0.0
  0
LINE
  5
245
330
6C
100
AcDbEntity
  8
Visible (ISO)
100
AcDbLine
 10
17480.73107622195
 20
9989.610797476995
 30
0.0
 11
17474.6362010599
 21
9989.610797476995
 31
0.0
  0
LINE
  5
246
330
6C
100
AcDbEntity
  8
Visible (ISO)
100
AcDbLine
 10
17504.6362010599
 20
10049.61079747699
 30
0.0
 11
17504.6362010599
 21
9999.610797476996
 31
0.0
  0
LINE
  5
247
330
6C
100
AcDbEntity
  8
Visible (ISO)
100
AcDbLine
 10
17464.6362010599
 20
9999.610797476996
 30
0.0
 11
17464.6362010599
 21
10049.61079747699
 31
0.0
  0
LINE
  5
248
330
6C
100
AcDbEntity
  8
Visible (ISO)
100
AcDbLine
 10
16402.13620105989
 20
6241.473020825862
 30
0.0
 11
14352.13620105989
 21
6241.473020825862
 31
0.0
  0
LINE
  5
249
330
6C
100
AcDbEntity
  8
Visible (ISO)
100
AcDbLine
 10
16402.13620105989
 20
6251.473020825862
 30
0.0
 11
14352.13620105989
 21
6251.473020825862
 31
0.0
  0
LINE
  5
24A
330
6C
100
AcDbEntity
  8
Visible (ISO)
100
AcDbLine
 10
16402.13620105989
 20
6241.473020825862
 30
0.0
 11
18102.13620105989
 21
6241.473020825862
 31
0.0
  0
LINE
  5
24B
330
6C
100
AcDbEntity
  8
Visible (ISO)
100
AcDbLine
 10
16402.13620105989
 20
6251.473020825862
 30
0.0
 11
18102.13620105989
 21
6251.473020825862
 31
0.0
  0
LINE
  5
24C
330
6C
100
AcDbEntity
  8
Visible (ISO)
100
AcDbLine
 10
20152.1362010599
 20
6241.473020825862
 30
0.0
 11
18102.13620105989
 21
6241.473020825862
 31
0.0
  0
LINE
  5
24D
330
6C
100
AcDbEntity
  8
Visible (ISO)
100
AcDbLine
 10
20152.1362010599
 20
6251.473020825862
 30
0.0
 11
18102.13620105989
 21
6251.473020825862
 31
0.0
  0
LINE
  5
24E
330
6C
100
AcDbEntity
  8
Visible (ISO)
100
AcDbLine
 10
14352.13620105989
 20
6251.473020825862
 30
0.0
 11
14352.13620105989
 21
6241.473020825862
 31
0.0
  0
LINE
  5
24F
330
6C
100
AcDbEntity
  8
Visible (ISO)
100
AcDbLine
 10
20152.13620105989
 20
6251.473020825862
 30
0.0
 11
20152.13620105989
 21
6241.473020825862
 31
0.0
  0
SPLINE
  5
250
330
6C
100
AcDbEntity
  8
Visible (ISO)
100
AcDbSpline
210
0.0
220
0.0
230
1.0
 70
    12
 71
     3
 72
    16
 73
    12
 74
     0
 42
0.0000000001
 43
0.0000000001
 40
-3.21920367780631
 40
-3.21920367780631
 40
-3.21920367780631
 40
-3.21920367780631
 40
-3.144907213975396
 40
-3.144907213975396
 40
-2.787539367331071
 40
-2.787539367331071
 40
-2.424347457857939
 40
-2.424347457857939
 40
-2.066653533424752
 40
-2.066653533424752
 40
-1.787238537295984
 40
-1.787238537295984
 40
-1.787238537295984
 40
-1.787238537295984
 10
16313.53090683435
 20
5693.020059808892
 30
0.0
 41
1.0
 10
16313.61565071081
 20
5693.023747534362
 30
0.0
 41
1.0
 10
16313.71742642271
 20
5693.028159169051
 30
0.0
 41
1.0
 10
16314.40151389722
 20
5693.057582569484
 30
0.0
 41
1.0
 10
16315.34817751839
 20
5693.097467373409
 30
0.0
 41
1.0
 10
16317.59119676662
 20
5693.183724834212
 30
0.0
 41
1.0
 10
16318.88400027792
 20
5693.229332108472
 30
0.0
 41
1.0
 10
16321.17402093348
 20
5693.301697369025
 30
0.0
 41
1.0
 10
16322.16640212352
 20
5693.328760853431
 30
0.0
 41
1.0
 10
16323.27570357384
 20
5693.357286388971
 30
0.0
 41
1.0
 10
16323.53375917301
 20
5693.363417033096
 30
0.0
 41
1.0
 10
16323.53624468463
 20
5693.363398201761
 30
0.0
 41
1.0
  0
SPLINE
  5
251
330
6C
100
AcDbEntity
  8
Visible (ISO)
100
AcDbSpline
210
0.0
220
0.0
230
1.0
 70
    12
 71
     3
 72
    10
 73
     6
 74
     0
 42
0.0000000001
 43
0.0000000001
 40
-0.1776365713640171
 40
-0.1776365713640171
 40
-0.1776365713640171
 40
-0.1776365713640171
 40
-0.1711659271061255
 40
-0.1711659271061255
 40
-0.0000000000000377
 40
-0.0000000000000377
 40
-0.0000000000000377
 40
-0.0000000000000377
 10
16313.22386136413
 20
5693.006620938413
 30
0.0
 41
1.0
 10
16313.22385539403
 20
5693.006620538685
 30
0.0
 41
1.0
 10
16313.22398935698
 20
5693.006626362172
 30
0.0
 41
1.0
 10
16313.23152050075
 20
5693.006957886963
 30
0.0
 41
1.0
 10
16313.33567191424
 20
5693.011563940903
 30
0.0
 41
1.0
 10
16313.53090683435
 20
5693.020059808892
 30
0.0
 41
1.0
  0
SPLINE
  5
252
330
6C
100
AcDbEntity
  8
Visible (ISO)
100
AcDbSpline
210
0.0
220
0.0
230
1.0
 70
    12
 71
     3
 72
    20
 73
    16
 74
     0
 42
0.0000000001
 43
0.0000000001
 40
-2.593825353815824
 40
-2.593825353815824
 40
-2.593825353815824
 40
-2.593825353815824
 40
-2.444876729396556
 40
-2.444876729396556
 40
-2.081458385646629
 40
-2.081458385646629
 40
-1.720207435399889
 40
-1.720207435399889
 40
-1.371840256717066
 40
-1.371840256717066
 40
-1.030725615518616
 40
-1.030725615518616
 40
-0.7218612798990212
 40
-0.7218612798990212
 40
-0.6662270921109599
 40
-0.6662270921109599
 40
-0.6662270921109599
 40
-0.6662270921109599
 10
16398.26970045248
 20
5693.259705283634
 30
0.0
 41
1.0
 10
16398.12803717012
 20
5693.244407705623
 30
0.0
 41
1.0
 10
16398.05376366551
 20
5693.227828853624
 30
0.0
 41
1.0
 10
16398.05418156318
 20
5693.167855642293
 30
0.0
 41
1.0
 10
16398.49693792881
 20
5693.120707397577
 30
0.0
 41
1.0
 10
16400.06108123181
 20
5693.044465500137
 30
0.0
 41
1.0
 10
16401.17270468958
 20
5693.016120581046
 30
0.0
 41
1.0
 10
16403.51433054208
 20
5692.997984976313
 30
0.0
 41
1.0
 10
16404.73068334133
 20
5693.007008205426
 30
0.0
 41
1.0
 10
16406.75987303789
 20
5693.054616588568
 30
0.0
 41
1.0
 10
16407.57493825799
 20
5693.092075050026
 30
0.0
 41
1.0
 10
16408.45337819366
 20
5693.169479483467
 30
0.0
 41
1.0
 10
16408.58045328736
 20
5693.208426223606
 30
0.0
 41
1.0
 10
16408.36250887364
 20
5693.248214963682
 30
0.0
 41
1.0
 10
16408.31920326488
 20
5693.25411774277
 30
0.0
 41
1.0
 10
16408.26631444894
 20
5693.259832693414
 30
0.0
 41
1.0
  0
SPLINE
  5
253
330
6C
100
AcDbEntity
  8
Visible (ISO)
100
AcDbSpline
210
0.0
220
0.0
230
1.0
 70
    12
 71
     3
 72
    18
 73
    14
 74
     0
 42
0.0000000001
 43
0.0000000001
 40
-3.260051491272619
 40
-3.260051491272619
 40
-3.260051491272619
 40
-3.260051491272619
 40
-3.179955838887736
 40
-3.179955838887736
 40
-2.812782097510741
 40
-2.812782097510741
 40
-2.444876729396952
 40
-2.444876729396952
 40
-2.08145838564839
 40
-2.08145838564839
 40
-1.720207435400531
 40
-1.720207435400531
 40
-1.630024975632513
 40
-1.630024975632513
 40
-1.630024975632513
 40
-1.630024975632513
 10
16482.93182417094
 20
5693.364824738451
 30
0.0
 41
1.0
 10
16482.93182417094
 20
5693.364824738451
 30
0.0
 41
1.0
 10
16482.9526217269
 20
5693.364329824749
 30
0.0
 41
1.0
 10
16483.18355450254
 20
5693.358784692213
 30
0.0
 41
1.0
 10
16483.82047005903
 20
5693.343667861712
 30
0.0
 41
1.0
 10
16485.69358367923
 20
5693.291300750934
 30
0.0
 41
1.0
 10
16486.92304929871
 20
5693.25345802154
 30
0.0
 41
1.0
 10
16489.376199891
 20
5693.167855642293
 30
0.0
 41
1.0
 10
16490.59022984659
 20
5693.120707397578
 30
0.0
 41
1.0
 10
16492.44868406994
 20
5693.044465500139
 30
0.0
 41
1.0
 10
16493.0895920586
 20
5693.016120581046
 30
0.0
 41
1.0
 10
16493.35172400314
 20
5693.004583364684
 30
0.0
 41
1.0
 10
16493.3771876661
 20
5693.003479916062
 30
0.0
 41
1.0
 10
16493.37648527301
 20
5693.003527574706
 30
0.0
 41
1.0
  0
LINE
  5
254
330
6C
100
AcDbEntity
  8
Visible (ISO)
100
AcDbLine
 10
16653.26673282634
 20
5543.473020825864
 30
0.0
 11
16153.26673282634
 21
5543.473020825864
 31
0.0
  0
SPLINE
  5
255
330
6C
100
AcDbEntity
  8
Visible (ISO)
100
AcDbSpline
210
0.0
220
0.0
230
1.0
 70
     8
 71
     3
 72
    16
 73
    12
 74
     0
 42
0.0000000001
 43
0.0000000001
 40
1.570796326794896
 40
1.570796326794896
 40
1.570796326794896
 40
1.570796326794896
 40
1.581611661120144
 40
1.581611661120144
 40
1.592426995445392
 40
1.592426995445392
 40
1.603242329770639
 40
1.603242329770639
 40
1.614057664095887
 40
1.614057664095887
 40
1.624872998421134
 40
1.624872998421134
 40
1.624872998421134
 40
1.624872998421134
 10
16333.26673282634
 20
5693.473020825863
 30
0.0
 10
16332.61781276682
 20
5693.473020825863
 30
0.0
 10
16331.96889270746
 20
5693.471558668404
 30
0.0
 10
16330.67112849281
 20
5693.465710209595
 30
0.0
 10
16330.02228433783
 20
5693.461323908246
 30
0.0
 10
16328.72474782746
 20
5693.449627674723
 30
0.0
 10
16328.07605547237
 20
5693.442317742551
 30
0.0
 10
16326.77889843953
 20
5693.424775102426
 30
0.0
 10
16326.13043376208
 20
5693.414542394478
 30
0.0
 10
16324.83380793564
 20
5693.391155399719
 30
0.0
 10
16324.18564678695
 20
5693.378001112916
 30
0.0
 10
16323.5376753103
 20
5693.363386806012
 30
0.0
  0
SPLINE
  5
256
330
6C
100
AcDbEntity
  8
Visible (ISO)
100
AcDbSpline
210
0.0
220
0.0
230
1.0
 70
     8
 71
     3
 72
    18
 73
    14
 74
     0
 42
0.0000000001
 43
0.0000000001
 40
1.682377054421391
 40
1.682377054421391
 40
1.682377054421391
 40
1.682377054421391
 40
1.974220174255071
 40
1.974220174255071
 40
2.266063294088751
 40
2.266063294088751
 40
2.557906413922432
 40
2.557906413922432
 40
2.849749533756112
 40
2.849749533756112
 40
3.035621581656529
 40
3.035621581656529
 40
3.141592653589793
 40
3.141592653589793
 40
3.141592653589793
 40
3.141592653589793
 10
16313.22385218525
 20
5693.006620323664
 30
0.0
 10
16295.82215761735
 20
5692.194206876894
 30
0.0
 10
16278.70907748255
 20
5690.316411105916
 30
0.0
 10
16246.49932282052
 20
5684.587973886148
 30
0.0
 10
16231.40652686776
 20
5680.738022233679
 30
0.0
 10
16204.51437249142
 20
5671.390426286464
 30
0.0
 10
16192.71825231737
 20
5665.893907593178
 30
0.0
 10
16173.41795675175
 20
5653.717675294452
 30
0.0
 10
16165.91610542735
 20
5647.039427903956
 30
0.0
 10
16157.66927323057
 20
5635.601550921266
 30
0.0
 10
16155.45608838089
 20
5631.026718179771
 30
0.0
 10
16153.60394378985
 20
5623.771568857169
 30
0.0
 10
16153.26673282634
 20
5621.122297624197
 30
0.0
 10
16153.26673282634
 20
5618.473020825864
 30
0.0
  0
SPLINE
  5
257
330
6C
100
AcDbEntity
  8
Visible (ISO)
100
AcDbSpline
210
0.0
220
0.0
230
1.0
 70
     8
 71
     3
 72
    16
 73
    12
 74
     0
 42
0.0000000001
 43
0.0000000001
 40
1.570796326794896
 40
1.570796326794896
 40
1.570796326794896
 40
1.570796326794896
 40
1.581540484233952
 40
1.581540484233952
 40
1.592284641673008
 40
1.592284641673008
 40
1.603028799112064
 40
1.603028799112064
 40
1.61377295655112
 40
1.61377295655112
 40
1.624517113990175
 40
1.624517113990175
 40
1.624517113990175
 40
1.624517113990175
 10
16473.26673282634
 20
5693.473020825864
 30
0.0
 10
16473.91138227269
 20
5693.473020825864
 30
0.0
 10
16474.55603171889
 20
5693.471577850495
 30
0.0
 10
16475.84525619594
 20
5693.465806115588
 30
0.0
 10
16476.48983122651
 20
5693.46147735605
 30
0.0
 10
16477.77883246527
 20
5693.449934552502
 30
0.0
 10
16478.42325867316
 20
5693.442720508492
 30
0.0
 10
16479.71188787672
 20
5693.425407968753
 30
0.0
 10
16480.3560908721
 20
5693.415309473029
 30
0.0
 10
16481.6441992865
 20
5693.392229195588
 30
0.0
 10
16482.28810470524
 20
5693.379247413878
 30
0.0
 10
16482.93182417094
 20
5693.364824738451
 30
0.0
  0
SPLINE
  5
258
330
6C
100
AcDbEntity
  8
Visible (ISO)
100
AcDbSpline
210
0.0
220
0.0
230
1.0
 70
     8
 71
     3
 72
    18
 73
    14
 74
     0
 42
0.0000000001
 43
0.0000000001
 40
1.682759995807404
 40
1.682759995807404
 40
1.682759995807404
 40
1.682759995807404
 40
1.974526527363882
 40
1.974526527363882
 40
2.26629305892036
 40
2.26629305892036
 40
2.558059590476837
 40
2.558059590476837
 40
2.849826122033315
 40
2.849826122033315
 40
3.035671384981435
 40
3.035671384981435
 40
3.141592653589793
 40
3.141592653589793
 40
3.141592653589793
 40
3.141592653589793
 10
16493.37811279592
 20
5693.003416838581
 30
0.0
 10
16510.77449290805
 20
5692.188440786006
 30
0.0
 10
16527.88143412332
 20
5690.308691411406
 30
0.0
 10
16560.07852376723
 20
5684.57764736829
 30
0.0
 10
16575.16479920646
 20
5680.727042087329
 30
0.0
 10
16602.04474233109
 20
5671.379325618719
 30
0.0
 10
16613.83517662686
 20
5665.883338868322
 30
0.0
 10
16633.1259318998
 20
5653.709070625957
 30
0.0
 10
16640.62393239109
 20
5647.032253577286
 30
0.0
 10
16648.86687806144
 20
5635.59658856681
 30
0.0
 10
16651.079047477
 20
5631.02236247604
 30
0.0
 10
16652.92983904238
 20
5623.769078703986
 30
0.0
 10
16653.26673282634
 20
5621.121052541074
 30
0.0
 10
16653.26673282634
 20
5618.473020825863
 30
0.0
  0
LINE
  5
259
330
6C
100
AcDbEntity
  8
Visible (ISO)
100
AcDbLine
 10
16153.26673282634
 20
5543.473020825864
 30
0.0
 11
16153.26673282634
 21
5618.473020825864
 31
0.0
  0
LINE
  5
25A
330
6C
100
AcDbEntity
  8
Visible (ISO)
100
AcDbLine
 10
16653.26673282634
 20
5543.473020825864
 30
0.0
 11
16653.26673282634
 21
5618.473020825863
 31
0.0
  0
SPLINE
  5
25B
330
6C
100
AcDbEntity
  8
Visible (ISO)
100
AcDbSpline
210
0.0
220
0.0
230
1.0
 70
    12
 71
     3
 72
    18
 73
    14
 74
     0
 42
0.0000000001
 43
0.0000000001
 40
-1.787238537295985
 40
-1.787238537295985
 40
-1.787238537295985
 40
-1.787238537295985
 40
-1.71006237069049
 40
-1.71006237069049
 40
-1.365041928613183
 40
-1.365041928613183
 40
-1.026945829947696
 40
-1.026945829947696
 40
-0.7193452366222881
 40
-0.7193452366222881
 40
-0.445031410475866
 40
-0.445031410475866
 40
-0.1776365713640136
 40
-0.1776365713640136
 40
-0.1776365713640136
 40
-0.1776365713640136
 10
18180.73615743515
 20
5693.363398201755
 30
0.0
 41
1.0
 10
18180.73547092132
 20
5693.363393000424
 30
0.0
 41
1.0
 10
18180.75428182116
 20
5693.362918656291
 30
0.0
 41
1.0
 10
18180.96697616351
 20
5693.357783798206
 30
0.0
 41
1.0
 10
18181.5398081272
 20
5693.344110125188
 30
0.0
 41
1.0
 10
18183.2221674889
 20
5693.297476297462
 30
0.0
 41
1.0
 10
18184.31523948482
 20
5693.264499320168
 30
0.0
 41
1.0
 10
18186.47264208514
 20
5693.191121375958
 30
0.0
 41
1.0
 10
18187.52582042223
 20
5693.151892591187
 30
0.0
 41
1.0
 10
18189.22592412682
 20
5693.084649759533
 30
0.0
 41
1.0
 10
18189.90266060323
 20
5693.0561533468
 30
0.0
 41
1.0
 10
18190.80908397745
 20
5693.017281342747
 30
0.0
 41
1.0
 10
18191.04829404528
 20
5693.006637456863
 30
0.0
 41
1.0
 10
18191.04854075565
 20
5693.006620938408
 30
0.0
 41
1.0
  0
SPLINE
  5
25C
330
6C
100
AcDbEntity
  8
Visible (ISO)
100
AcDbSpline
210
0.0
220
0.0
230
1.0
 70
    12
 71
     3
 72
    20
 73
    16
 74
     0
 42
0.0000000001
 43
0.0000000001
 40
-1.924807063187101
 40
-1.924807063187101
 40
-1.924807063187101
 40
-1.924807063187101
 40
-1.716674626548987
 40
-1.716674626548987
 40
-1.369693895492525
 40
-1.369693895492525
 40
-1.029645560627019
 40
-1.029645560627019
 40
-0.7215545337430558
 40
-0.7215545337430558
 40
-0.4440747845489095
 40
-0.4440747845489095
 40
-0.1707979940572603
 40
-0.1707979940572603
 40
-0.0133185709069665
 40
-0.0133185709069665
 40
-0.0133185709069665
 40
-0.0133185709069665
 10
18096.00867159755
 20
5693.257996423323
 30
0.0
 41
1.0
 10
18095.8190738683
 20
5693.236409561265
 30
0.0
 41
1.0
 10
18095.76174031952
 20
5693.212353029303
 30
0.0
 41
1.0
 10
18095.99447081818
 20
5693.145616725972
 30
0.0
 41
1.0
 10
18096.539656892
 20
5693.101765134837
 30
0.0
 41
1.0
 10
18098.18383775114
 20
5693.034654643049
 30
0.0
 41
1.0
 10
18099.26655238291
 20
5693.011617246265
 30
0.0
 41
1.0
 10
18101.42318831891
 20
5693.000414852931
 30
0.0
 41
1.0
 10
18102.48341760319
 20
5693.009148785499
 30
0.0
 41
1.0
 10
18104.22456360924
 20
5693.048195831935
 30
0.0
 41
1.0
 10
18104.9307271074
 20
5693.076013249176
 30
0.0
 41
1.0
 10
18105.90374651764
 20
5693.138697571492
 30
0.0
 41
1.0
 10
18106.17592897376
 20
5693.173218498395
 30
0.0
 41
1.0
 10
18106.21586978654
 20
5693.224006458156
 30
0.0
 41
1.0
 10
18106.14955384502
 20
5693.241825032799
 30
0.0
 41
1.0
 10
18106.00565625759
 20
5693.25813742696
 30
0.0
 41
1.0
  0
SPLINE
  5
25D
330
6C
100
AcDbEntity
  8
Visible (ISO)
100
AcDbSpline
210
0.0
220
0.0
230
1.0
 70
    12
 71
     3
 72
    18
 73
    14
 74
     0
 42
0.0000000001
 43
0.0000000001
 40
-1.630024975632831
 40
-1.630024975632831
 40
-1.630024975632831
 40
-1.630024975632831
 40
-1.371840256718823
 40
-1.371840256718823
 40
-1.030725615519345
 40
-1.030725615519345
 40
-0.7218612799002004
 40
-0.7218612799002004
 40
-0.4444969964659508
 40
-0.4444969964659508
 40
-0.1709603832561767
 40
-0.1709603832561767
 40
-0.0000000000000679
 40
-0.0000000000000679
 40
-0.0000000000000679
 40
-0.0000000000000679
 10
18010.89591684677
 20
5693.0035275747
 30
0.0
 41
1.0
 10
18010.89792773846
 20
5693.003664017346
 30
0.0
 41
1.0
 10
18011.11440301543
 20
5693.013235260252
 30
0.0
 41
1.0
 10
18012.07460536111
 20
5693.054616588565
 30
0.0
 41
1.0
 10
18012.96146146075
 20
5693.092075050022
 30
0.0
 41
1.0
 10
18014.95594813535
 20
5693.169479483461
 30
0.0
 41
1.0
 10
18016.02984125247
 20
5693.208426223601
 30
0.0
 41
1.0
 10
18017.96488552708
 20
5693.27241907035
 30
0.0
 41
1.0
 10
18018.83391667985
 20
5693.298464336856
 30
0.0
 41
1.0
 10
18020.23126739795
 20
5693.337466420562
 30
0.0
 41
1.0
 10
18020.76226245446
 20
5693.350737379776
 30
0.0
 41
1.0
 10
18021.24514021516
 20
5693.362575974799
 30
0.0
 41
1.0
 10
18021.34057794884
 20
5693.364824738445
 30
0.0
 41
1.0
 10
18021.34057794884
 20
5693.364824738445
 30
0.0
 41
1.0
  0
LINE
  5
25E
330
6C
100
AcDbEntity
  8
Visible (ISO)
100
AcDbLine
 10
18351.00566929344
 20
5543.473020825857
 30
0.0
 11
17851.00566929344
 21
5543.47302082586
 31
0.0
  0
SPLINE
  5
25F
330
6C
100
AcDbEntity
  8
Visible (ISO)
100
AcDbSpline
210
0.0
220
0.0
230
1.0
 70
     8
 71
     3
 72
    16
 73
    12
 74
     0
 42
0.0000000001
 43
0.0000000001
 40
1.570796326794896
 40
1.570796326794896
 40
1.570796326794896
 40
1.570796326794896
 40
1.581540484233952
 40
1.581540484233952
 40
1.592284641673008
 40
1.592284641673008
 40
1.603028799112064
 40
1.603028799112064
 40
1.61377295655112
 40
1.61377295655112
 40
1.624517113990175
 40
1.624517113990175
 40
1.624517113990175
 40
1.624517113990175
 10
18031.00566929344
 20
5693.473020825859
 30
0.0
 10
18030.3610198471
 20
5693.473020825859
 30
0.0
 10
18029.71637040089
 20
5693.471577850489
 30
0.0
 10
18028.42714592384
 20
5693.465806115583
 30
0.0
 10
18027.78257089327
 20
5693.461477356046
 30
0.0
 10
18026.49356965451
 20
5693.449934552497
 30
0.0
 10
18025.84914344661
 20
5693.442720508486
 30
0.0
 10
18024.56051424306
 20
5693.425407968748
 30
0.0
 10
18023.91631124769
 20
5693.415309473023
 30
0.0
 10
18022.62820283329
 20
5693.392229195583
 30
0.0
 10
18021.98429741454
 20
5693.379247413872
 30
0.0
 10
18021.34057794884
 20
5693.364824738445
 30
0.0
  0
SPLINE
  5
260
330
6C
100
AcDbEntity
  8
Visible (ISO)
100
AcDbSpline
210
0.0
220
0.0
230
1.0
 70
     8
 71
     3
 72
    18
 73
    14
 74
     0
 42
0.0000000001
 43
0.0000000001
 40
1.682759995807404
 40
1.682759995807404
 40
1.682759995807404
 40
1.682759995807404
 40
1.974526527363882
 40
1.974526527363882
 40
2.26629305892036
 40
2.26629305892036
 40
2.558059590476838
 40
2.558059590476838
 40
2.849826122033316
 40
2.849826122033316
 40
3.035671384981435
 40
3.035671384981435
 40
3.141592653589793
 40
3.141592653589793
 40
3.141592653589793
 40
3.141592653589793
 10
18010.89428932386
 20
5693.003416838576
 30
0.0
 10
17993.49790921173
 20
5692.188440786002
 30
0.0
 10
17976.39096799646
 20
5690.308691411402
 30
0.0
 10
17944.19387835255
 20
5684.577647368286
 30
0.0
 10
17929.10760291332
 20
5680.727042087323
 30
0.0
 10
17902.22765978869
 20
5671.379325618715
 30
0.0
 10
17890.43722549292
 20
5665.883338868319
 30
0.0
 10
17871.14647021999
 20
5653.709070625954
 30
0.0
 10
17863.64846972869
 20
5647.032253577283
 30
0.0
 10
17855.40552405834
 20
5635.596588566805
 30
0.0
 10
17853.19335464278
 20
5631.022362476035
 30
0.0
 10
17851.3425630774
 20
5623.769078703982
 30
0.0
 10
17851.00566929344
 20
5621.121052541069
 30
0.0
 10
17851.00566929344
 20
5618.473020825859
 30
0.0
  0
SPLINE
  5
261
330
6C
100
AcDbEntity
  8
Visible (ISO)
100
AcDbSpline
210
0.0
220
0.0
230
1.0
 70
     8
 71
     3
 72
    16
 73
    12
 74
     0
 42
0.0000000001
 43
0.0000000001
 40
1.570796326794896
 40
1.570796326794896
 40
1.570796326794896
 40
1.570796326794896
 40
1.581611661120144
 40
1.581611661120144
 40
1.592426995445391
 40
1.592426995445391
 40
1.603242329770639
 40
1.603242329770639
 40
1.614057664095886
 40
1.614057664095886
 40
1.624872998421134
 40
1.624872998421134
 40
1.624872998421134
 40
1.624872998421134
 10
18171.00566929344
 20
5693.473020825858
 30
0.0
 10
18171.65458935296
 20
5693.473020825858
 30
0.0
 10
18172.30350941232
 20
5693.4715586684
 30
0.0
 10
18173.60127362697
 20
5693.46571020959
 30
0.0
 10
18174.25011778195
 20
5693.461323908241
 30
0.0
 10
18175.54765429232
 20
5693.449627674716
 30
0.0
 10
18176.19634664741
 20
5693.442317742545
 30
0.0
 10
18177.49350368025
 20
5693.42477510242
 30
0.0
 10
18178.1419683577
 20
5693.414542394471
 30
0.0
 10
18179.43859418414
 20
5693.391155399714
 30
0.0
 10
18180.08675533283
 20
5693.37800111291
 30
0.0
 10
18180.73472680948
 20
5693.363386806007
 30
0.0
  0
SPLINE
  5
262
330
6C
100
AcDbEntity
  8
Visible (ISO)
100
AcDbSpline
210
0.0
220
0.0
230
1.0
 70
     8
 71
     3
 72
    18
 73
    14
 74
     0
 42
0.0000000001
 43
0.0000000001
 40
1.68237705442139
 40
1.68237705442139
 40
1.68237705442139
 40
1.68237705442139
 40
1.97422017425507
 40
1.97422017425507
 40
2.266063294088751
 40
2.266063294088751
 40
2.557906413922431
 40
2.557906413922431
 40
2.849749533756112
 40
2.849749533756112
 40
3.035621581656529
 40
3.035621581656529
 40
3.141592653589793
 40
3.141592653589793
 40
3.141592653589793
 40
3.141592653589793
 10
18191.04854993453
 20
5693.006620323657
 30
0.0
 10
18208.45024450243
 20
5692.194206876887
 30
0.0
 10
18225.56332463723
 20
5690.31641110591
 30
0.0
 10
18257.77307929926
 20
5684.587973886142
 30
0.0
 10
18272.86587525202
 20
5680.738022233672
 30
0.0
 10
18299.75802962836
 20
5671.390426286457
 30
0.0
 10
18311.55414980241
 20
5665.893907593172
 30
0.0
 10
18330.85444536803
 20
5653.717675294446
 30
0.0
 10
18338.35629669243
 20
5647.039427903948
 30
0.0
 10
18346.60312888921
 20
5635.601550921258
 30
0.0
 10
18348.81631373889
 20
5631.026718179764
 30
0.0
 10
18350.66845832993
 20
5623.771568857161
 30
0.0
 10
18351.00566929344
 20
5621.122297624189
 30
0.0
 10
18351.00566929344
 20
5618.473020825857
 30
0.0
  0
LINE
  5
263
330
6C
100
AcDbEntity
  8
Visible (ISO)
100
AcDbLine
 10
17851.00566929344
 20
5543.47302082586
 30
0.0
 11
17851.00566929344
 21
5618.473020825859
 31
0.0
  0
LINE
  5
264
330
6C
100
AcDbEntity
  8
Visible (ISO)
100
AcDbLine
 10
18351.00566929344
 20
5543.473020825857
 30
0.0
 11
18351.00566929344
 21
5618.473020825857
 31
0.0
  0
LINE
  5
265
330
6C
100
AcDbEntity
  8
Visible (ISO)
100
AcDbLine
 10
16408.26673282634
 20
5693.473020825862
 30
0.0
 11
16408.26673282634
 21
5693.156831920877
 31
0.0
  0
LINE
  5
266
330
6C
100
AcDbEntity
  8
Visible (ISO)
100
AcDbLine
 10
16398.26673282634
 20
5693.473020825862
 30
0.0
 11
16398.26673282634
 21
5693.156831920877
 31
0.0
  0
SPLINE
  5
267
330
6C
100
AcDbEntity
  8
Visible (ISO)
100
AcDbSpline
210
0.0
220
0.0
230
1.0
 70
    12
 71
     2
 72
     6
 73
     3
 74
     0
 42
0.0000000001
 43
0.0000000001
 40
0.0
 40
0.0
 40
0.0
 40
0.4978532609589533
 40
0.4978532609589533
 40
0.4978532609589533
 10
16496.61954656873
 20
5706.113931447307
 30
0.0
 41
1.0
 10
16494.34197843306
 20
5706.873120825862
 30
0.0
 41
1.037954849302054
 10
16492.36954656872
 20
5706.873120825862
 30
0.0
 41
1.0
  0
SPLINE
  5
268
330
6C
100
AcDbEntity
  8
Visible (ISO)
100
AcDbSpline
210
0.0
220
0.0
230
1.0
 70
    28
 71
     2
 72
     6
 73
     3
 74
     0
 42
0.0000000001
 43
0.0000000001
 40
0.4978532609589536
 40
0.4978532609589536
 40
0.4978532609589536
 40
0.9957065219179071
 40
0.9957065219179071
 40
0.9957065219179071
 10
16496.61954656873
 20
5706.873120825862
 30
0.0
 41
1.0
 10
16496.61954656873
 20
5706.873120825862
 30
0.0
 41
1.037954849302056
 10
16496.61954656873
 20
5706.113931447307
 30
0.0
 41
1.0
  0
LINE
  5
269
330
6C
100
AcDbEntity
  8
Visible (ISO)
100
AcDbLine
 10
16496.61954656873
 20
5706.873120825862
 30
0.0
 11
16492.36954656872
 21
5706.873120825862
 31
0.0
  0
SPLINE
  5
26A
330
6C
100
AcDbEntity
  8
Visible (ISO)
100
AcDbSpline
210
0.0
220
0.0
230
1.0
 70
    12
 71
     2
 72
     6
 73
     3
 74
     0
 42
0.0000000001
 43
0.0000000001
 40
0.0
 40
0.0
 40
0.0
 40
0.4978532609589534
 40
0.4978532609589534
 40
0.4978532609589534
 10
16488.11954656873
 20
5706.113931447307
 30
0.0
 41
1.0
 10
16485.84197843306
 20
5706.873120825862
 30
0.0
 41
1.037954849302042
 10
16483.86954656873
 20
5706.873120825862
 30
0.0
 41
1.0
  0
SPLINE
  5
26B
330
6C
100
AcDbEntity
  8
Visible (ISO)
100
AcDbSpline
210
0.0
220
0.0
230
1.0
 70
    12
 71
     2
 72
     6
 73
     3
 74
     0
 42
0.0000000001
 43
0.0000000001
 40
0.4978532609589533
 40
0.4978532609589533
 40
0.4978532609589533
 40
0.9957065219179067
 40
0.9957065219179067
 40
0.9957065219179067
 10
16492.36954656872
 20
5706.873120825862
 30
0.0
 41
1.0
 10
16490.39711470439
 20
5706.873120825862
 30
0.0
 41
1.037954849302048
 10
16488.11954656873
 20
5706.113931447307
 30
0.0
 41
1.0
  0
LINE
  5
26C
330
6C
100
AcDbEntity
  8
Visible (ISO)
100
AcDbLine
 10
16492.36954656872
 20
5706.873120825862
 30
0.0
 11
16483.86954656873
 21
5706.873120825862
 31
0.0
  0
SPLINE
  5
26D
330
6C
100
AcDbEntity
  8
Visible (ISO)
100
AcDbSpline
210
0.0
220
0.0
230
1.0
 70
    28
 71
     2
 72
     6
 73
     3
 74
     0
 42
0.0000000001
 43
0.0000000001
 40
0.0
 40
0.0
 40
0.0
 40
0.4978532609589534
 40
0.4978532609589534
 40
0.4978532609589534
 10
16479.61954656872
 20
5706.113931447307
 30
0.0
 41
1.0
 10
16479.61954656872
 20
5706.873120825862
 30
0.0
 41
1.037954849302043
 10
16479.61954656872
 20
5706.873120825862
 30
0.0
 41
1.0
  0
SPLINE
  5
26E
330
6C
100
AcDbEntity
  8
Visible (ISO)
100
AcDbSpline
210
0.0
220
0.0
230
1.0
 70
    12
 71
     2
 72
     6
 73
     3
 74
     0
 42
0.0000000001
 43
0.0000000001
 40
0.4978532609589534
 40
0.4978532609589534
 40
0.4978532609589534
 40
0.9957065219179067
 40
0.9957065219179067
 40
0.9957065219179067
 10
16483.86954656873
 20
5706.873120825862
 30
0.0
 41
1.0
 10
16481.89711470439
 20
5706.873120825862
 30
0.0
 41
1.037954849302043
 10
16479.61954656872
 20
5706.113931447307
 30
0.0
 41
1.0
  0
LINE
  5
26F
330
6C
100
AcDbEntity
  8
Visible (ISO)
100
AcDbLine
 10
16483.86954656873
 20
5706.873120825862
 30
0.0
 11
16479.61954656872
 21
5706.873120825862
 31
0.0
  0
LINE
  5
270
330
6C
100
AcDbEntity
  8
Visible (ISO)
100
AcDbLine
 10
16479.61954656872
 20
5701.073120825862
 30
0.0
 11
16479.61954656872
 21
5706.113931447307
 31
0.0
  0
LINE
  5
271
330
6C
100
AcDbEntity
  8
Visible (ISO)
100
AcDbLine
 10
16496.61954656873
 20
5701.073120825862
 30
0.0
 11
16488.11954656873
 21
5701.073120825862
 31
0.0
  0
LINE
  5
272
330
6C
100
AcDbEntity
  8
Visible (ISO)
100
AcDbLine
 10
16488.11954656873
 20
5701.073120825862
 30
0.0
 11
16479.61954656872
 21
5701.073120825862
 31
0.0
  0
LINE
  5
273
330
6C
100
AcDbEntity
  8
Visible (ISO)
100
AcDbLine
 10
16496.61954656873
 20
5701.073120825862
 30
0.0
 11
16496.61954656873
 21
5706.113931447307
 31
0.0
  0
LINE
  5
274
330
6C
100
AcDbEntity
  8
Visible (ISO)
100
AcDbLine
 10
16488.11954656873
 20
5701.073120825862
 30
0.0
 11
16488.11954656873
 21
5706.113931447307
 31
0.0
  0
LINE
  5
275
330
6C
100
AcDbEntity
  8
Visible (ISO)
100
AcDbLine
 10
16493.11954656873
 20
5693.473020825862
 30
0.0
 11
16493.11954656873
 21
5693.014775666295
 31
0.0
  0
LINE
  5
276
330
6C
100
AcDbEntity
  8
Visible (ISO)
100
AcDbLine
 10
16483.11954656873
 20
5693.473020825862
 30
0.0
 11
16483.11954656873
 21
5693.360303421896
 31
0.0
  0
LINE
  5
277
330
6C
100
AcDbEntity
  8
Visible (ISO)
100
AcDbLine
 10
16495.81954656873
 20
5701.073120825862
 30
0.0
 11
16495.81954656873
 21
5700.473020825863
 31
0.0
  0
LINE
  5
278
330
6C
100
AcDbEntity
  8
Visible (ISO)
100
AcDbLine
 10
16480.41954656873
 20
5701.073120825862
 30
0.0
 11
16480.41954656873
 21
5700.473020825863
 31
0.0
  0
SPLINE
  5
279
330
6C
100
AcDbEntity
  8
Visible (ISO)
100
AcDbSpline
210
0.0
220
0.0
230
1.0
 70
    12
 71
     2
 72
     6
 73
     3
 74
     0
 42
0.0000000001
 43
0.0000000001
 40
0.0
 40
0.0
 40
0.0
 40
0.4978532609589533
 40
0.4978532609589533
 40
0.4978532609589533
 10
16326.91391908396
 20
5706.113931447307
 30
0.0
 41
1.0
 10
16324.63635094829
 20
5706.873120825862
 30
0.0
 41
1.037954849302054
 10
16322.66391908396
 20
5706.873120825862
 30
0.0
 41
1.0
  0
SPLINE
  5
27A
330
6C
100
AcDbEntity
  8
Visible (ISO)
100
AcDbSpline
210
0.0
220
0.0
230
1.0
 70
    28
 71
     2
 72
     6
 73
     3
 74
     0
 42
0.0000000001
 43
0.0000000001
 40
0.4978532609589536
 40
0.4978532609589536
 40
0.4978532609589536
 40
0.9957065219179071
 40
0.9957065219179071
 40
0.9957065219179071
 10
16326.91391908396
 20
5706.873120825862
 30
0.0
 41
1.0
 10
16326.91391908396
 20
5706.873120825862
 30
0.0
 41
1.037954849302056
 10
16326.91391908396
 20
5706.113931447307
 30
0.0
 41
1.0
  0
LINE
  5
27B
330
6C
100
AcDbEntity
  8
Visible (ISO)
100
AcDbLine
 10
16326.91391908396
 20
5706.873120825862
 30
0.0
 11
16322.66391908396
 21
5706.873120825862
 31
0.0
  0
SPLINE
  5
27C
330
6C
100
AcDbEntity
  8
Visible (ISO)
100
AcDbSpline
210
0.0
220
0.0
230
1.0
 70
    12
 71
     2
 72
     6
 73
     3
 74
     0
 42
0.0000000001
 43
0.0000000001
 40
0.0
 40
0.0
 40
0.0
 40
0.4978532609589534
 40
0.4978532609589534
 40
0.4978532609589534
 10
16318.41391908396
 20
5706.113931447307
 30
0.0
 41
1.0
 10
16316.13635094829
 20
5706.873120825862
 30
0.0
 41
1.037954849302042
 10
16314.16391908396
 20
5706.873120825862
 30
0.0
 41
1.0
  0
SPLINE
  5
27D
330
6C
100
AcDbEntity
  8
Visible (ISO)
100
AcDbSpline
210
0.0
220
0.0
230
1.0
 70
    12
 71
     2
 72
     6
 73
     3
 74
     0
 42
0.0000000001
 43
0.0000000001
 40
0.4978532609589533
 40
0.4978532609589533
 40
0.4978532609589533
 40
0.9957065219179067
 40
0.9957065219179067
 40
0.9957065219179067
 10
16322.66391908396
 20
5706.873120825862
 30
0.0
 41
1.0
 10
16320.69148721962
 20
5706.873120825862
 30
0.0
 41
1.037954849302048
 10
16318.41391908396
 20
5706.113931447307
 30
0.0
 41
1.0
  0
LINE
  5
27E
330
6C
100
AcDbEntity
  8
Visible (ISO)
100
AcDbLine
 10
16322.66391908396
 20
5706.873120825862
 30
0.0
 11
16314.16391908396
 21
5706.873120825862
 31
0.0
  0
SPLINE
  5
27F
330
6C
100
AcDbEntity
  8
Visible (ISO)
100
AcDbSpline
210
0.0
220
0.0
230
1.0
 70
    28
 71
     2
 72
     6
 73
     3
 74
     0
 42
0.0000000001
 43
0.0000000001
 40
0.0
 40
0.0
 40
0.0
 40
0.4978532609589534
 40
0.4978532609589534
 40
0.4978532609589534
 10
16309.91391908396
 20
5706.113931447307
 30
0.0
 41
1.0
 10
16309.91391908396
 20
5706.873120825862
 30
0.0
 41
1.037954849302043
 10
16309.91391908396
 20
5706.873120825862
 30
0.0
 41
1.0
  0
SPLINE
  5
280
330
6C
100
AcDbEntity
  8
Visible (ISO)
100
AcDbSpline
210
0.0
220
0.0
230
1.0
 70
    12
 71
     2
 72
     6
 73
     3
 74
     0
 42
0.0000000001
 43
0.0000000001
 40
0.4978532609589534
 40
0.4978532609589534
 40
0.4978532609589534
 40
0.9957065219179067
 40
0.9957065219179067
 40
0.9957065219179067
 10
16314.16391908396
 20
5706.873120825862
 30
0.0
 41
1.0
 10
16312.19148721962
 20
5706.873120825862
 30
0.0
 41
1.037954849302043
 10
16309.91391908396
 20
5706.113931447307
 30
0.0
 41
1.0
  0
LINE
  5
281
330
6C
100
AcDbEntity
  8
Visible (ISO)
100
AcDbLine
 10
16314.16391908396
 20
5706.873120825862
 30
0.0
 11
16309.91391908396
 21
5706.873120825862
 31
0.0
  0
LINE
  5
282
330
6C
100
AcDbEntity
  8
Visible (ISO)
100
AcDbLine
 10
16309.91391908396
 20
5701.073120825862
 30
0.0
 11
16309.91391908396
 21
5706.113931447307
 31
0.0
  0
LINE
  5
283
330
6C
100
AcDbEntity
  8
Visible (ISO)
100
AcDbLine
 10
16326.91391908396
 20
5701.073120825862
 30
0.0
 11
16318.41391908396
 21
5701.073120825862
 31
0.0
  0
LINE
  5
284
330
6C
100
AcDbEntity
  8
Visible (ISO)
100
AcDbLine
 10
16318.41391908396
 20
5701.073120825862
 30
0.0
 11
16309.91391908396
 21
5701.073120825862
 31
0.0
  0
LINE
  5
285
330
6C
100
AcDbEntity
  8
Visible (ISO)
100
AcDbLine
 10
16326.91391908396
 20
5701.073120825862
 30
0.0
 11
16326.91391908396
 21
5706.113931447307
 31
0.0
  0
LINE
  5
286
330
6C
100
AcDbEntity
  8
Visible (ISO)
100
AcDbLine
 10
16318.41391908396
 20
5701.073120825862
 30
0.0
 11
16318.41391908396
 21
5706.113931447307
 31
0.0
  0
LINE
  5
287
330
6C
100
AcDbEntity
  8
Visible (ISO)
100
AcDbLine
 10
16323.41391908395
 20
5693.473020825862
 30
0.0
 11
16323.41391908395
 21
5693.360398111128
 31
0.0
  0
LINE
  5
288
330
6C
100
AcDbEntity
  8
Visible (ISO)
100
AcDbLine
 10
16313.41391908396
 20
5693.473020825862
 30
0.0
 11
16313.41391908396
 21
5693.01495766145
 31
0.0
  0
LINE
  5
289
330
6C
100
AcDbEntity
  8
Visible (ISO)
100
AcDbLine
 10
16326.11391908396
 20
5701.073120825862
 30
0.0
 11
16326.11391908396
 21
5700.473020825863
 31
0.0
  0
LINE
  5
28A
330
6C
100
AcDbEntity
  8
Visible (ISO)
100
AcDbLine
 10
16310.71391908396
 20
5701.073120825862
 30
0.0
 11
16310.71391908396
 21
5700.473020825863
 31
0.0
  0
SPLINE
  5
28B
330
6C
100
AcDbEntity
  8
Visible (ISO)
100
AcDbSpline
210
0.0
220
0.0
230
1.0
 70
    12
 71
     2
 72
     6
 73
     3
 74
     0
 42
0.0000000001
 43
0.0000000001
 40
0.4978532609589537
 40
0.4978532609589537
 40
0.4978532609589537
 40
0.9957065219179071
 40
0.9957065219179071
 40
0.9957065219179071
 10
18011.90285555105
 20
5706.87312082586
 30
0.0
 41
1.0
 10
18009.93042368672
 20
5706.87312082586
 30
0.0
 41
1.037954849302035
 10
18007.65285555105
 20
5706.113931447305
 30
0.0
 41
1.0
  0
LINE
  5
28C
330
6C
100
AcDbEntity
  8
Visible (ISO)
100
AcDbLine
 10
18011.90285555105
 20
5706.873120825859
 30
0.0
 11
18007.65285555105
 21
5706.873120825859
 31
0.0
  0
SPLINE
  5
28D
330
6C
100
AcDbEntity
  8
Visible (ISO)
100
AcDbSpline
210
0.0
220
0.0
230
1.0
 70
    28
 71
     2
 72
     6
 73
     3
 74
     0
 42
0.0000000001
 43
0.0000000001
 40
0.0
 40
0.0
 40
0.0
 40
0.4978532609589536
 40
0.4978532609589536
 40
0.4978532609589536
 10
18007.65285555105
 20
5706.113931447305
 30
0.0
 41
1.0
 10
18007.65285555105
 20
5706.87312082586
 30
0.0
 41
1.037954849302054
 10
18007.65285555105
 20
5706.87312082586
 30
0.0
 41
1.0
  0
SPLINE
  5
28E
330
6C
100
AcDbEntity
  8
Visible (ISO)
100
AcDbSpline
210
0.0
220
0.0
230
1.0
 70
    12
 71
     2
 72
     6
 73
     3
 74
     0
 42
0.0000000001
 43
0.0000000001
 40
0.4978532609589542
 40
0.4978532609589542
 40
0.4978532609589542
 40
0.9957065219179085
 40
0.9957065219179085
 40
0.9957065219179085
 10
18020.40285555105
 20
5706.873120825859
 30
0.0
 41
1.0
 10
18018.43042368672
 20
5706.873120825859
 30
0.0
 41
1.037954849302014
 10
18016.15285555105
 20
5706.113931447305
 30
0.0
 41
1.0
  0
LINE
  5
28F
330
6C
100
AcDbEntity
  8
Visible (ISO)
100
AcDbLine
 10
18020.40285555105
 20
5706.873120825859
 30
0.0
 11
18011.90285555105
 21
5706.873120825859
 31
0.0
  0
SPLINE
  5
290
330
6C
100
AcDbEntity
  8
Visible (ISO)
100
AcDbSpline
210
0.0
220
0.0
230
1.0
 70
    12
 71
     2
 72
     6
 73
     3
 74
     0
 42
0.0000000001
 43
0.0000000001
 40
0.0
 40
0.0
 40
0.0
 40
0.4978532609589537
 40
0.4978532609589537
 40
0.4978532609589537
 10
18016.15285555105
 20
5706.113931447305
 30
0.0
 41
1.0
 10
18013.87528741539
 20
5706.873120825859
 30
0.0
 41
1.037954849302049
 10
18011.90285555105
 20
5706.87312082586
 30
0.0
 41
1.0
  0
SPLINE
  5
291
330
6C
100
AcDbEntity
  8
Visible (ISO)
100
AcDbSpline
210
0.0
220
0.0
230
1.0
 70
    28
 71
     2
 72
     6
 73
     3
 74
     0
 42
0.0000000001
 43
0.0000000001
 40
0.4978532609589534
 40
0.4978532609589534
 40
0.4978532609589534
 40
0.9957065219179066
 40
0.9957065219179066
 40
0.9957065219179066
 10
18024.65285555106
 20
5706.873120825859
 30
0.0
 41
1.0
 10
18024.65285555106
 20
5706.873120825859
 30
0.0
 41
1.037954849302054
 10
18024.65285555106
 20
5706.113931447305
 30
0.0
 41
1.0
  0
LINE
  5
292
330
6C
100
AcDbEntity
  8
Visible (ISO)
100
AcDbLine
 10
18024.65285555106
 20
5706.873120825859
 30
0.0
 11
18020.40285555105
 21
5706.873120825859
 31
0.0
  0
SPLINE
  5
293
330
6C
100
AcDbEntity
  8
Visible (ISO)
100
AcDbSpline
210
0.0
220
0.0
230
1.0
 70
    12
 71
     2
 72
     6
 73
     3
 74
     0
 42
0.0000000001
 43
0.0000000001
 40
0.0
 40
0.0
 40
0.0
 40
0.4978532609589542
 40
0.4978532609589542
 40
0.4978532609589542
 10
18024.65285555106
 20
5706.113931447305
 30
0.0
 41
1.0
 10
18022.37528741539
 20
5706.873120825859
 30
0.0
 41
1.037954849302022
 10
18020.40285555105
 20
5706.873120825859
 30
0.0
 41
1.0
  0
LINE
  5
294
330
6C
100
AcDbEntity
  8
Visible (ISO)
100
AcDbLine
 10
18024.65285555106
 20
5701.073120825858
 30
0.0
 11
18024.65285555106
 21
5706.113931447305
 31
0.0
  0
LINE
  5
295
330
6C
100
AcDbEntity
  8
Visible (ISO)
100
AcDbLine
 10
18016.15285555105
 20
5701.073120825858
 30
0.0
 11
18016.15285555105
 21
5706.113931447305
 31
0.0
  0
LINE
  5
296
330
6C
100
AcDbEntity
  8
Visible (ISO)
100
AcDbLine
 10
18024.65285555106
 20
5701.073120825858
 30
0.0
 11
18016.15285555105
 21
5701.073120825858
 31
0.0
  0
LINE
  5
297
330
6C
100
AcDbEntity
  8
Visible (ISO)
100
AcDbLine
 10
18007.65285555105
 20
5701.073120825858
 30
0.0
 11
18007.65285555105
 21
5706.113931447305
 31
0.0
  0
LINE
  5
298
330
6C
100
AcDbEntity
  8
Visible (ISO)
100
AcDbLine
 10
18016.15285555105
 20
5701.073120825858
 30
0.0
 11
18007.65285555105
 21
5701.073120825858
 31
0.0
  0
LINE
  5
299
330
6C
100
AcDbEntity
  8
Visible (ISO)
100
AcDbLine
 10
18021.15285555105
 20
5693.473020825859
 30
0.0
 11
18021.15285555105
 21
5693.360303421893
 31
0.0
  0
LINE
  5
29A
330
6C
100
AcDbEntity
  8
Visible (ISO)
100
AcDbLine
 10
18011.15285555105
 20
5693.473020825859
 30
0.0
 11
18011.15285555105
 21
5693.014775666291
 31
0.0
  0
LINE
  5
29B
330
6C
100
AcDbEntity
  8
Visible (ISO)
100
AcDbLine
 10
18023.85285555105
 20
5701.073120825858
 30
0.0
 11
18023.85285555105
 21
5700.473020825859
 31
0.0
  0
LINE
  5
29C
330
6C
100
AcDbEntity
  8
Visible (ISO)
100
AcDbLine
 10
18008.45285555105
 20
5701.073120825858
 30
0.0
 11
18008.45285555105
 21
5700.473020825859
 31
0.0
  0
SPLINE
  5
29D
330
6C
100
AcDbEntity
  8
Visible (ISO)
100
AcDbSpline
210
0.0
220
0.0
230
1.0
 70
    12
 71
     2
 72
     6
 73
     3
 74
     0
 42
0.0000000001
 43
0.0000000001
 40
0.4978532609589537
 40
0.4978532609589537
 40
0.4978532609589537
 40
0.9957065219179071
 40
0.9957065219179071
 40
0.9957065219179071
 10
18181.60848303582
 20
5706.873120825859
 30
0.0
 41
1.0
 10
18179.63605117149
 20
5706.873120825859
 30
0.0
 41
1.037954849302035
 10
18177.35848303582
 20
5706.113931447304
 30
0.0
 41
1.0
  0
LINE
  5
29E
330
6C
100
AcDbEntity
  8
Visible (ISO)
100
AcDbLine
 10
18181.60848303582
 20
5706.873120825857
 30
0.0
 11
18177.35848303582
 21
5706.873120825857
 31
0.0
  0
SPLINE
  5
29F
330
6C
100
AcDbEntity
  8
Visible (ISO)
100
AcDbSpline
210
0.0
220
0.0
230
1.0
 70
    28
 71
     2
 72
     6
 73
     3
 74
     0
 42
0.0000000001
 43
0.0000000001
 40
0.0
 40
0.0
 40
0.0
 40
0.4978532609589536
 40
0.4978532609589536
 40
0.4978532609589536
 10
18177.35848303582
 20
5706.113931447304
 30
0.0
 41
1.0
 10
18177.35848303582
 20
5706.873120825859
 30
0.0
 41
1.037954849302054
 10
18177.35848303582
 20
5706.873120825859
 30
0.0
 41
1.0
  0
SPLINE
  5
2A0
330
6C
100
AcDbEntity
  8
Visible (ISO)
100
AcDbSpline
210
0.0
220
0.0
230
1.0
 70
    12
 71
     2
 72
     6
 73
     3
 74
     0
 42
0.0000000001
 43
0.0000000001
 40
0.4978532609589542
 40
0.4978532609589542
 40
0.4978532609589542
 40
0.9957065219179085
 40
0.9957065219179085
 40
0.9957065219179085
 10
18190.10848303582
 20
5706.873120825857
 30
0.0
 41
1.0
 10
18188.13605117149
 20
5706.873120825857
 30
0.0
 41
1.037954849302014
 10
18185.85848303582
 20
5706.113931447304
 30
0.0
 41
1.0
  0
LINE
  5
2A1
330
6C
100
AcDbEntity
  8
Visible (ISO)
100
AcDbLine
 10
18190.10848303582
 20
5706.873120825857
 30
0.0
 11
18181.60848303582
 21
5706.873120825857
 31
0.0
  0
SPLINE
  5
2A2
330
6C
100
AcDbEntity
  8
Visible (ISO)
100
AcDbSpline
210
0.0
220
0.0
230
1.0
 70
    12
 71
     2
 72
     6
 73
     3
 74
     0
 42
0.0000000001
 43
0.0000000001
 40
0.0
 40
0.0
 40
0.0
 40
0.4978532609589537
 40
0.4978532609589537
 40
0.4978532609589537
 10
18185.85848303582
 20
5706.113931447304
 30
0.0
 41
1.0
 10
18183.58091490016
 20
5706.873120825857
 30
0.0
 41
1.037954849302049
 10
18181.60848303582
 20
5706.873120825859
 30
0.0
 41
1.0
  0
SPLINE
  5
2A3
330
6C
100
AcDbEntity
  8
Visible (ISO)
100
AcDbSpline
210
0.0
220
0.0
230
1.0
 70
    28
 71
     2
 72
     6
 73
     3
 74
     0
 42
0.0000000001
 43
0.0000000001
 40
0.4978532609589534
 40
0.4978532609589534
 40
0.4978532609589534
 40
0.9957065219179066
 40
0.9957065219179066
 40
0.9957065219179066
 10
18194.35848303583
 20
5706.873120825857
 30
0.0
 41
1.0
 10
18194.35848303583
 20
5706.873120825857
 30
0.0
 41
1.037954849302054
 10
18194.35848303583
 20
5706.113931447304
 30
0.0
 41
1.0
  0
LINE
  5
2A4
330
6C
100
AcDbEntity
  8
Visible (ISO)
100
AcDbLine
 10
18194.35848303583
 20
5706.873120825857
 30
0.0
 11
18190.10848303582
 21
5706.873120825857
 31
0.0
  0
SPLINE
  5
2A5
330
6C
100
AcDbEntity
  8
Visible (ISO)
100
AcDbSpline
210
0.0
220
0.0
230
1.0
 70
    12
 71
     2
 72
     6
 73
     3
 74
     0
 42
0.0000000001
 43
0.0000000001
 40
0.0
 40
0.0
 40
0.0
 40
0.4978532609589542
 40
0.4978532609589542
 40
0.4978532609589542
 10
18194.35848303583
 20
5706.113931447304
 30
0.0
 41
1.0
 10
18192.08091490016
 20
5706.873120825857
 30
0.0
 41
1.037954849302022
 10
18190.10848303582
 20
5706.873120825857
 30
0.0
 41
1.0
  0
LINE
  5
2A6
330
6C
100
AcDbEntity
  8
Visible (ISO)
100
AcDbLine
 10
18194.35848303583
 20
5701.073120825857
 30
0.0
 11
18194.35848303583
 21
5706.113931447304
 31
0.0
  0
LINE
  5
2A7
330
6C
100
AcDbEntity
  8
Visible (ISO)
100
AcDbLine
 10
18185.85848303582
 20
5701.073120825857
 30
0.0
 11
18185.85848303582
 21
5706.113931447304
 31
0.0
  0
LINE
  5
2A8
330
6C
100
AcDbEntity
  8
Visible (ISO)
100
AcDbLine
 10
18194.35848303583
 20
5701.073120825857
 30
0.0
 11
18185.85848303582
 21
5701.073120825857
 31
0.0
  0
LINE
  5
2A9
330
6C
100
AcDbEntity
  8
Visible (ISO)
100
AcDbLine
 10
18177.35848303582
 20
5701.073120825857
 30
0.0
 11
18177.35848303582
 21
5706.113931447304
 31
0.0
  0
LINE
  5
2AA
330
6C
100
AcDbEntity
  8
Visible (ISO)
100
AcDbLine
 10
18185.85848303582
 20
5701.073120825857
 30
0.0
 11
18177.35848303582
 21
5701.073120825857
 31
0.0
  0
LINE
  5
2AB
330
6C
100
AcDbEntity
  8
Visible (ISO)
100
AcDbLine
 10
18190.85848303583
 20
5693.473020825858
 30
0.0
 11
18190.85848303583
 21
5693.014957661445
 31
0.0
  0
LINE
  5
2AC
330
6C
100
AcDbEntity
  8
Visible (ISO)
100
AcDbLine
 10
18180.85848303582
 20
5693.473020825858
 30
0.0
 11
18180.85848303582
 21
5693.360398111122
 31
0.0
  0
LINE
  5
2AD
330
6C
100
AcDbEntity
  8
Visible (ISO)
100
AcDbLine
 10
18193.55848303582
 20
5701.073120825857
 30
0.0
 11
18193.55848303582
 21
5700.473020825858
 31
0.0
  0
LINE
  5
2AE
330
6C
100
AcDbEntity
  8
Visible (ISO)
100
AcDbLine
 10
18178.15848303582
 20
5701.073120825857
 30
0.0
 11
18178.15848303582
 21
5700.473020825858
 31
0.0
  0
SPLINE
  5
2AF
330
6C
100
AcDbEntity
  8
Visible (ISO)
100
AcDbSpline
210
0.0
220
0.0
230
1.0
 70
    12
 71
     2
 72
     6
 73
     3
 74
     0
 42
0.0000000001
 43
0.0000000001
 40
0.4978532609589537
 40
0.4978532609589537
 40
0.4978532609589537
 40
0.9957065219179071
 40
0.9957065219179071
 40
0.9957065219179071
 10
18096.75566929344
 20
5706.87312082586
 30
0.0
 41
1.0
 10
18094.78323742911
 20
5706.87312082586
 30
0.0
 41
1.037954849302035
 10
18092.50566929344
 20
5706.113931447305
 30
0.0
 41
1.0
  0
LINE
  5
2B0
330
6C
100
AcDbEntity
  8
Visible (ISO)
100
AcDbLine
 10
18096.75566929344
 20
5706.873120825859
 30
0.0
 11
18092.50566929344
 21
5706.873120825859
 31
0.0
  0
SPLINE
  5
2B1
330
6C
100
AcDbEntity
  8
Visible (ISO)
100
AcDbSpline
210
0.0
220
0.0
230
1.0
 70
    28
 71
     2
 72
     6
 73
     3
 74
     0
 42
0.0000000001
 43
0.0000000001
 40
0.0
 40
0.0
 40
0.0
 40
0.4978532609589536
 40
0.4978532609589536
 40
0.4978532609589536
 10
18092.50566929344
 20
5706.113931447305
 30
0.0
 41
1.0
 10
18092.50566929344
 20
5706.87312082586
 30
0.0
 41
1.037954849302054
 10
18092.50566929344
 20
5706.87312082586
 30
0.0
 41
1.0
  0
SPLINE
  5
2B2
330
6C
100
AcDbEntity
  8
Visible (ISO)
100
AcDbSpline
210
0.0
220
0.0
230
1.0
 70
    12
 71
     2
 72
     6
 73
     3
 74
     0
 42
0.0000000001
 43
0.0000000001
 40
0.4978532609589542
 40
0.4978532609589542
 40
0.4978532609589542
 40
0.9957065219179085
 40
0.9957065219179085
 40
0.9957065219179085
 10
18105.25566929344
 20
5706.873120825859
 30
0.0
 41
1.0
 10
18103.2832374291
 20
5706.873120825859
 30
0.0
 41
1.037954849302014
 10
18101.00566929344
 20
5706.113931447305
 30
0.0
 41
1.0
  0
LINE
  5
2B3
330
6C
100
AcDbEntity
  8
Visible (ISO)
100
AcDbLine
 10
18105.25566929344
 20
5706.873120825859
 30
0.0
 11
18096.75566929344
 21
5706.873120825859
 31
0.0
  0
SPLINE
  5
2B4
330
6C
100
AcDbEntity
  8
Visible (ISO)
100
AcDbSpline
210
0.0
220
0.0
230
1.0
 70
    12
 71
     2
 72
     6
 73
     3
 74
     0
 42
0.0000000001
 43
0.0000000001
 40
0.0
 40
0.0
 40
0.0
 40
0.4978532609589537
 40
0.4978532609589537
 40
0.4978532609589537
 10
18101.00566929344
 20
5706.113931447305
 30
0.0
 41
1.0
 10
18098.72810115778
 20
5706.873120825859
 30
0.0
 41
1.037954849302049
 10
18096.75566929344
 20
5706.87312082586
 30
0.0
 41
1.0
  0
SPLINE
  5
2B5
330
6C
100
AcDbEntity
  8
Visible (ISO)
100
AcDbSpline
210
0.0
220
0.0
230
1.0
 70
    28
 71
     2
 72
     6
 73
     3
 74
     0
 42
0.0000000001
 43
0.0000000001
 40
0.4978532609589534
 40
0.4978532609589534
 40
0.4978532609589534
 40
0.9957065219179066
 40
0.9957065219179066
 40
0.9957065219179066
 10
18109.50566929344
 20
5706.873120825859
 30
0.0
 41
1.0
 10
18109.50566929344
 20
5706.873120825859
 30
0.0
 41
1.037954849302054
 10
18109.50566929344
 20
5706.113931447305
 30
0.0
 41
1.0
  0
LINE
  5
2B6
330
6C
100
AcDbEntity
  8
Visible (ISO)
100
AcDbLine
 10
18109.50566929344
 20
5706.873120825859
 30
0.0
 11
18105.25566929344
 21
5706.873120825859
 31
0.0
  0
SPLINE
  5
2B7
330
6C
100
AcDbEntity
  8
Visible (ISO)
100
AcDbSpline
210
0.0
220
0.0
230
1.0
 70
    12
 71
     2
 72
     6
 73
     3
 74
     0
 42
0.0000000001
 43
0.0000000001
 40
0.0
 40
0.0
 40
0.0
 40
0.4978532609589542
 40
0.4978532609589542
 40
0.4978532609589542
 10
18109.50566929344
 20
5706.113931447305
 30
0.0
 41
1.0
 10
18107.22810115778
 20
5706.873120825859
 30
0.0
 41
1.037954849302022
 10
18105.25566929344
 20
5706.873120825859
 30
0.0
 41
1.0
  0
LINE
  5
2B8
330
6C
100
AcDbEntity
  8
Visible (ISO)
100
AcDbLine
 10
18109.50566929344
 20
5701.073120825858
 30
0.0
 11
18109.50566929344
 21
5706.113931447305
 31
0.0
  0
LINE
  5
2B9
330
6C
100
AcDbEntity
  8
Visible (ISO)
100
AcDbLine
 10
18101.00566929344
 20
5701.073120825858
 30
0.0
 11
18101.00566929344
 21
5706.113931447305
 31
0.0
  0
LINE
  5
2BA
330
6C
100
AcDbEntity
  8
Visible (ISO)
100
AcDbLine
 10
18109.50566929344
 20
5701.073120825858
 30
0.0
 11
18101.00566929344
 21
5701.073120825858
 31
0.0
  0
LINE
  5
2BB
330
6C
100
AcDbEntity
  8
Visible (ISO)
100
AcDbLine
 10
18092.50566929344
 20
5701.073120825858
 30
0.0
 11
18092.50566929344
 21
5706.113931447305
 31
0.0
  0
LINE
  5
2BC
330
6C
100
AcDbEntity
  8
Visible (ISO)
100
AcDbLine
 10
18101.00566929344
 20
5701.073120825858
 30
0.0
 11
18092.50566929344
 21
5701.073120825858
 31
0.0
  0
LINE
  5
2BD
330
6C
100
AcDbEntity
  8
Visible (ISO)
100
AcDbLine
 10
18106.00566929344
 20
5693.473020825859
 30
0.0
 11
18106.00566929344
 21
5693.158958677931
 31
0.0
  0
LINE
  5
2BE
330
6C
100
AcDbEntity
  8
Visible (ISO)
100
AcDbLine
 10
18096.00566929344
 20
5693.473020825859
 30
0.0
 11
18096.00566929344
 21
5693.158958677931
 31
0.0
  0
LINE
  5
2BF
330
6C
100
AcDbEntity
  8
Visible (ISO)
100
AcDbLine
 10
18108.70566929344
 20
5701.073120825858
 30
0.0
 11
18108.70566929344
 21
5700.473020825859
 31
0.0
  0
LINE
  5
2C0
330
6C
100
AcDbEntity
  8
Visible (ISO)
100
AcDbLine
 10
18093.30566929344
 20
5701.073120825858
 30
0.0
 11
18093.30566929344
 21
5700.473020825859
 31
0.0
  0
LINE
  5
2C1
330
6C
100
AcDbEntity
  8
Visible (ISO)
100
AcDbLine
 10
16478.11954656873
 20
5700.473020825864
 30
0.0
 11
16498.11954656873
 21
5700.473020825864
 31
0.0
  0
LINE
  5
2C2
330
6C
100
AcDbEntity
  8
Visible (ISO)
100
AcDbLine
 10
16478.11954656873
 20
5698.473020825863
 30
0.0
 11
16478.11954656873
 21
5700.473020825864
 31
0.0
  0
LINE
  5
2C3
330
6C
100
AcDbEntity
  8
Visible (ISO)
100
AcDbLine
 10
16498.11954656873
 20
5698.473020825863
 30
0.0
 11
16498.11954656873
 21
5700.473020825864
 31
0.0
  0
LINE
  5
2C4
330
6C
100
AcDbEntity
  8
Visible (ISO)
100
AcDbLine
 10
16308.41391908396
 20
5700.473020825864
 30
0.0
 11
16328.41391908396
 21
5700.473020825864
 31
0.0
  0
LINE
  5
2C5
330
6C
100
AcDbEntity
  8
Visible (ISO)
100
AcDbLine
 10
16308.41391908396
 20
5698.473020825863
 30
0.0
 11
16308.41391908396
 21
5700.473020825864
 31
0.0
  0
LINE
  5
2C6
330
6C
100
AcDbEntity
  8
Visible (ISO)
100
AcDbLine
 10
16328.41391908396
 20
5698.473020825863
 30
0.0
 11
16328.41391908396
 21
5700.473020825864
 31
0.0
  0
LINE
  5
2C7
330
6C
100
AcDbEntity
  8
Visible (ISO)
100
AcDbLine
 10
18006.15285555105
 20
5700.473020825859
 30
0.0
 11
18026.15285555105
 21
5700.473020825859
 31
0.0
  0
LINE
  5
2C8
330
6C
100
AcDbEntity
  8
Visible (ISO)
100
AcDbLine
 10
18006.15285555105
 20
5698.473020825859
 30
0.0
 11
18006.15285555105
 21
5700.473020825859
 31
0.0
  0
LINE
  5
2C9
330
6C
100
AcDbEntity
  8
Visible (ISO)
100
AcDbLine
 10
18026.15285555105
 20
5698.473020825859
 30
0.0
 11
18026.15285555105
 21
5700.473020825859
 31
0.0
  0
LINE
  5
2CA
330
6C
100
AcDbEntity
  8
Visible (ISO)
100
AcDbLine
 10
18175.85848303582
 20
5700.473020825858
 30
0.0
 11
18195.85848303582
 21
5700.473020825858
 31
0.0
  0
LINE
  5
2CB
330
6C
100
AcDbEntity
  8
Visible (ISO)
100
AcDbLine
 10
18175.85848303582
 20
5698.473020825858
 30
0.0
 11
18175.85848303582
 21
5700.473020825858
 31
0.0
  0
LINE
  5
2CC
330
6C
100
AcDbEntity
  8
Visible (ISO)
100
AcDbLine
 10
18195.85848303582
 20
5698.473020825858
 30
0.0
 11
18195.85848303582
 21
5700.473020825858
 31
0.0
  0
LINE
  5
2CD
330
6C
100
AcDbEntity
  8
Visible (ISO)
100
AcDbLine
 10
18091.00566929344
 20
5700.473020825858
 30
0.0
 11
18111.00566929344
 21
5700.473020825858
 31
0.0
  0
LINE
  5
2CE
330
6C
100
AcDbEntity
  8
Visible (ISO)
100
AcDbLine
 10
18091.00566929344
 20
5698.473020825858
 30
0.0
 11
18091.00566929344
 21
5700.473020825858
 31
0.0
  0
LINE
  5
2CF
330
6C
100
AcDbEntity
  8
Visible (ISO)
100
AcDbLine
 10
18111.00566929344
 20
5698.473020825858
 30
0.0
 11
18111.00566929344
 21
5700.473020825858
 31
0.0
  0
INSERT
  5
33F
330
6C
100
AcDbEntity
  8
0
100
AcDbBlockReference
 66
     1
  2
Tabelki rysunkowe Rzut
 10
6011.159185140821
 20
-537.0652712302228
 30
0.0
 41
50.0
 42
50.0
 43
50.0
  0
ATTRIB
  5
342
102
{ACAD_XDICTIONARY
360
A81
102
}
330
33F
100
AcDbEntity
  8
Title (ISO)
100
AcDbText
 10
14937.57555410327
 20
369.2914716118351
 30
0.0
 40
125.0
  1
88100
  7
Note Text (ISO)
100
AcDbAttribute
  2
Numer_katalogowy_001
 70
     0
  0
ATTRIB
  5
343
102
{ACAD_XDICTIONARY
360
A84
102
}
330
33F
100
AcDbEntity
  8
Title (ISO)
100
AcDbText
 10
15531.69912698995
 20
19.79516536440525
 30
0.0
 40
125.0
  1
2017-06-14
  7
Note Text (ISO)
100
AcDbAttribute
  2
DATA_UTWORZENIA_001
 70
     0
  0
ATTRIB
  5
344
102
{ACAD_XDICTIONARY
360
A87
102
}
330
33F
100
AcDbEntity
  8
Title (ISO)
100
AcDbText
 10
14924.64741445396
 20
188.7508403335622
 30
0.0
 40
125.0
  1
Koła gimnastyczne
  7
Note Text (ISO)
100
AcDbAttribute
  2
Nazwa_001
 70
     0
  0
SEQEND
  5
341
330
33F
100
AcDbEntity
  8
0
  0
DIMENSION
  5
6DA
330
6C
100
AcDbEntity
  8
Dimension (ISO)
100
AcDbDimension
  2
*D6
 10
15472.91103990604
 20
5543.473020825864
 30
0.0
 11
15472.91103990603
 21
5897.473020825863
 31
0.0
 70
   160
  1
<>
 71
     2
 42
707.9999999999991
  3
Default (ISO)
100
AcDbAlignedDimension
 13
15377.13620105989
 23
6251.473020825862
 33
0.0
 14
16153.26673282634
 24
5543.473020825864
 34
0.0
 50
270.0
100
AcDbRotatedDimension
1001
ACAD
1000
DSTYLE
1002
{
1070
   172
1070
     0
1070
   289
1070
     1
1070
    74
1070
     0
1070
   271
1070
     2
1070
    75
1070
     1
1070
   272
1070
     2
1070
    48
1040
0.0
1070
    47
1040
0.0
1002
}
  0
DIMENSION
  5
7BF
330
6C
100
AcDbEntity
  8
Dimension (ISO)
100
AcDbDimension
  2
*D7
 10
18810.01210800173
 20
5693.473020825857
 30
0.0
 11
18810.01210800173
 21
5972.47302082586
 31
0.0
 70
   160
  1
<>
 71
     2
 42
558.0000000000054
  3
Default (ISO)
100
AcDbAlignedDimension
 13
18810.01210800173
 23
6251.473020825862
 33
0.0
 14
18200.00061865956
 24
5693.473020825858
 34
0.0
 50
270.0
100
AcDbRotatedDimension
1001
ACAD
1000
DSTYLE
1002
{
1070
   172
1070
     0
1070
   289
1070
     1
1070
    74
1070
     0
1070
   271
1070
     2
1070
    75
1070
     1
1070
   272
1070
     2
1070
    48
1040
0.0
1070
    47
1040
0.0
1002
}
  0
DIMENSION
  5
8A4
330
6C
100
AcDbEntity
  8
Dimension (ISO)
100
AcDbDimension
  2
*D8
 10
17832.71186930206
 20
6251.473020825862
 30
0.0
 11
17832.71186930206
 21
7369.726353595877
 31
0.0
 70
   160
  1
<>
 71
     2
 42
2236.506665540028
  3
Default (ISO)
100
AcDbAlignedDimension
 13
17484.6362010599
 23
8487.979686365891
 33
0.0
 14
17832.71186930206
 24
6251.473020825862
 34
0.0
 50
270.0
100
AcDbRotatedDimension
1001
ACAD
1000
DSTYLE
1002
{
1070
   172
1070
     0
1070
   289
1070
     1
1070
    74
1070
     0
1070
   271
1070
     0
1070
    76
1070
     1
1070
   272
1070
     2
1070
    48
1040
0.0
1070
    47
1040
0.0
1002
}
  0
DIMENSION
  5
989
330
6C
100
AcDbEntity
  8
Dimension (ISO)
100
AcDbDimension
  2
*D9
 10
18810.01210800173
 20
6251.473020825862
 30
0.0
 11
18810.01210800173
 21
8200.541909151429
 31
0.0
 70
   160
  1
<>
 71
     2
 42
3900.0
  3
Default (ISO)
100
AcDbAlignedDimension
 13
17604.6362010599
 23
10149.61079747699
 33
0.0
 14
18810.01210800173
 24
6251.473020825862
 34
0.0
 50
90.0
100
AcDbRotatedDimension
1001
ACAD
1000
DSTYLE
1002
{
1070
   172
1070
     0
1070
   289
1070
     1
1070
    74
1070
     0
1070
   271
1070
     0
1070
   144
1040
1.00047772127502
1070
    76
1070
     1
1070
   272
1070
     2
1070
    48
1040
0.0
1070
    47
1040
0.0
1002
}
  0
DIMENSION
  5
CA4
330
6C
100
AcDbEntity
  8
Dimension (ISO)
100
AcDbDimension
  2
*D16
 10
14341.89690069572
 20
2021.128065394952
 30
0.0
 11
14341.89690069572
 21
3571.128065394951
 31
0.0
 70
   160
  1
<>
 71
     2
 42
3100.000000000001
  3
Default (ISO)
100
AcDbAlignedDimension
 13
16402.13620105989
 23
5121.128065394952
 33
0.0
 14
16402.13620105989
 24
2021.128065394951
 34
0.0
 50
270.0
100
AcDbRotatedDimension
1001
ACAD
1000
DSTYLE
1002
{
1070
   172
1070
     0
1070
   289
1070
     1
1070
    74
1070
     0
1070
   271
1070
     2
1070
   272
1070
     2
1070
    48
1040
0.0
1070
    47
1040
0.0
1002
}
  0
DIMENSION
  5
CA5
330
6C
100
AcDbEntity
  8
Dimension (ISO)
100
AcDbDimension
  2
*D17
 10
19652.13620105989
 20
1528.76221316438
 30
0.0
 11
17252.13620105989
 21
1528.76221316438
 31
0.0
 70
   160
  1
<>
 71
     2
 42
4800.0
  3
Default (ISO)
100
AcDbAlignedDimension
 13
14852.1362010599
 23
3571.128065394951
 33
0.0
 14
19652.13620105989
 24
3571.128065394951
 34
0.0
 50
180.0
100
AcDbRotatedDimension
1001
ACAD
1000
DSTYLE
1002
{
1070
   172
1070
     0
1070
   289
1070
     1
1070
    74
1070
     0
1070
   271
1070
     2
1070
   272
1070
     2
1070
    48
1040
0.0
1070
    47
1040
0.0
1002
}
  0
DIMENSION
  5
CA6
330
6C
100
AcDbEntity
  8
Dimension (ISO)
100
AcDbDimension
  2
*D18
 10
18151.00566929345
 20
2503.966483660164
 30
0.0
 11
17252.13620105989
 21
2503.966483660164
 31
0.0
 70
   160
  1
<>
 71
     2
 42
1797.738936467118
  3
Default (ISO)
100
AcDbAlignedDimension
 13
16353.26673282633
 23
3526.12806539495
 33
0.0
 14
18151.00566929345
 24
3526.128065394953
 34
0.0
 50
180.0
100
AcDbRotatedDimension
1001
ACAD
1000
DSTYLE
1002
{
1070
   172
1070
     0
1070
   289
1070
     1
1070
    74
1070
     0
1070
   271
1070
     0
1070
   272
1070
     2
1070
    48
1040
0.0
1070
    47
1040
0.0
1002
}
  0
DIMENSION
  5
CA7
330
6C
100
AcDbEntity
  8
Dimension (ISO)
100
AcDbDimension
  2
*D19
 10
18660.44713218491
 20
4171.128065318348
 30
0.0
 11
18660.44713218491
 21
3571.12806539495
 31
0.0
 70
   160
  1
<>
 71
     2
 42
1199.999999846799
  3
Default (ISO)
100
AcDbAlignedDimension
 13
16432.26673282634
 23
2971.12806547155
 33
0.0
 14
18130.00566929345
 24
4171.128065318349
 34
0.0
 50
90.0
100
AcDbRotatedDimension
1001
ACAD
1000
DSTYLE
1002
{
1070
   172
1070
     0
1070
   289
1070
     1
1070
    74
1070
     0
1070
   271
1070
     2
1070
   272
1070
     2
1070
    48
1040
0.0
1070
    47
1040
0.0
1002
}
  0
INSERT
  5
D6F
330
6C
100
AcDbEntity
  8
0
100
AcDbBlockReference
  2
88100_Kola-gimanstyczne
 10
17252.13620105988
 20
3517.128065394951
 30
0.0
  0
ENDSEC
  0
SECTION
  2
OBJECTS
  0
DICTIONARY
  5
C
330
0
100
AcDbDictionary
281
     1
  3
ACAD_COLOR
350
63
  3
ACAD_GROUP
350
D
  3
ACAD_LAYOUT
350
62
  3
ACAD_MATERIAL
350
10
  3
ACAD_MLEADERSTYLE
350
66
  3
ACAD_MLINESTYLE
350
5F
  3
ACAD_PLOTSETTINGS
350
61
  3
ACAD_PLOTSTYLENAME
350
E
  3
ACAD_SCALELIST
350
42
  3
ACAD_TABLESTYLE
350
64
  3
ACAD_VISUALSTYLE
350
29
  3
ACDB_RECOMPOSE_DATA
350
D7E
  3
AcDbVariableDictionary
350
ACD
  3
DWGPROPS
350
D7F
  0
DICTIONARY
  5
A8C
330
8
100
AcDbDictionary
280
     1
281
     1
  0
DICTIONARY
  5
D04
330
6C
100
AcDbDictionary
280
     1
281
     1
  0
DICTIONARY
  5
A78
330
33B
100
AcDbDictionary
280
     1
281
     1
  3
ACAD_MLATT
360
D73
  3
ACAD_XREC_ROUNDTRIP
360
D72
  0
DICTIONARY
  5
A7B
330
33D
100
AcDbDictionary
280
     1
281
     1
  3
ACAD_MLATT
360
D75
  3
ACAD_XREC_ROUNDTRIP
360
D74
  0
DICTIONARY
  5
A7E
330
33E
100
AcDbDictionary
280
     1
281
     1
  3
ACAD_MLATT
360
D77
  3
ACAD_XREC_ROUNDTRIP
360
D76
  0
DICTIONARY
  5
A81
330
342
100
AcDbDictionary
280
     1
281
     1
  3
ACAD_MLATT
360
D79
  3
ACAD_XREC_ROUNDTRIP
360
D78
  0
DICTIONARY
  5
A84
330
343
100
AcDbDictionary
280
     1
281
     1
  3
ACAD_MLATT
360
D7B
  3
ACAD_XREC_ROUNDTRIP
360
D7A
  0
DICTIONARY
  5
A87
330
344
100
AcDbDictionary
280
     1
281
     1
  3
ACAD_MLATT
360
D7D
  3
ACAD_XREC_ROUNDTRIP
360
D7C
  0
DICTIONARY
  5
63
102
{ACAD_REACTORS
330
C
102
}
330
C
100
AcDbDictionary
281
     1
  0
DICTIONARY
  5
D
102
{ACAD_REACTORS
330
C
102
}
330
C
100
AcDbDictionary
281
     1
  0
DICTIONARY
  5
62
102
{ACAD_REACTORS
330
C
102
}
330
C
100
AcDbDictionary
281
     1
  3
Layout1
350
6B
  3
Layout2
350
73
  3
Model
350
6F
  0
DICTIONARY
  5
10
102
{ACAD_REACTORS
330
C
102
}
330
C
100
AcDbDictionary
281
     1
  3
ByBlock
350
19
  3
ByLayer
350
11
  3
Global
350
21
  0
DICTIONARY
  5
66
102
{ACAD_REACTORS
330
C
102
}
330
C
100
AcDbDictionary
281
     1
  3
Standard
350
67
  0
DICTIONARY
  5
5F
102
{ACAD_REACTORS
330
C
102
}
330
C
100
AcDbDictionary
281
     1
  3
Standard
350
60
  0
DICTIONARY
  5
61
102
{ACAD_REACTORS
330
C
102
}
330
C
100
AcDbDictionary
281
     1
  0
ACDBDICTIONARYWDFLT
  5
E
102
{ACAD_REACTORS
330
C
102
}
330
C
100
AcDbDictionary
281
     1
  3
Normal
350
F
100
AcDbDictionaryWithDefault
340
F
  0
DICTIONARY
  5
42
102
{ACAD_REACTORS
330
C
102
}
330
C
100
AcDbDictionary
281
     1
  3
A0
350
43
  3
A1
350
44
  3
A2
350
45
  3
A3
350
46
  3
A4
350
47
  3
A5
350
48
  3
A6
350
49
  3
A7
350
4A
  3
A8
350
4B
  3
A9
350
4C
  3
B0
350
4D
  3
B1
350
4E
  3
B2
350
4F
  3
B3
350
50
  3
B4
350
51
  3
B5
350
52
  3
B6
350
53
  0
DICTIONARY
  5
64
102
{ACAD_REACTORS
330
C
102
}
330
C
100
AcDbDictionary
281
     1
  3
Standard
350
65
  0
DICTIONARY
  5
29
102
{ACAD_REACTORS
330
C
102
}
330
C
100
AcDbDictionary
281
     1
  3
2dWireframe
350
2F
  3
Basic
350
2E
  3
Brighten
350
35
  3
ColorChange
350
39
  3
Conceptual
350
32
  3
Dim
350
34
  3
EdgeColorOff
350
41
  3
Facepattern
350
38
  3
Flat
350
2A
  3
FlatWithEdges
350
2B
  3
Gouraud
350
2C
  3
GouraudWithEdges
350
2D
  3
Hidden
350
31
  3
JitterOff
350
3F
  3
Linepattern
350
37
  3
OverhangOff
350
40
  3
Realistic
350
33
  3
Shaded
350
3E
  3
Shaded with edges
350
3D
  3
Shades of Gray
350
3A
  3
Sketchy
350
3B
  3
Thicken
350
36
  3
Wireframe
350
30
  3
X-Ray
350
3C
  0
XRECORD
  5
D7E
102
{ACAD_REACTORS
330
C
102
}
330
C
100
AcDbXrecord
280
     1
 90
        1
330
65
330
33B
330
33D
330
33E
330
342
330
343
330
344
  0
DICTIONARY
  5
ACD
102
{ACAD_REACTORS
330
C
102
}
330
C
100
AcDbDictionary
281
     1
  3
CANNOSCALE
350
AD1
  3
CMLEADERSTYLE
350
ACF
  3
CTABLESTYLE
350
ACE
  3
DIMASSOC
350
AD8
  3
HIDETEXT
350
AD7
  3
INDEXCTL
350
AD6
  3
LAYEREVAL
350
AD3
  3
LAYERNOTIFY
350
AD4
  3
LIGHTINGUNITS
350
AD2
  3
MSLTSCALE
350
AD0
  3
SORTENTS
350
AD5
  3
XCLIPFRAME
350
D70
  0
XRECORD
  5
D7F
102
{ACAD_REACTORS
330
C
102
}
330
C
100
AcDbXrecord
280
     1
  1
DWGPROPS COOKIE
  2

  3

  4
Maruszak Marcin
  6

  7

  8
Natalia
  9
v1
300
Menadżer=
301
Firma=Muller
302
Kategoria=
303
Numer części=
304
Opis=
305
Projekt=
306
Projektant=Maruszak Marcin
307
Inżynier=
308
Zatwierdził=
309
Centrum kosztów=
 40
0.0036486342592593
 41
2457919.359822512
 42
2458619.596521771
  1

 90
       18
300
Dostawca=
300
Stan użytkownika=
300
Stan projektu=PracaWToku
300
Sprawdził=
300
Zatwierdził konstrukcję=Muller
300
Zatwierdził do produkcji=
300
Kolor=Biały
300
Stanowisko=Giętarka
  0
XRECORD
  5
D73
102
{ACAD_REACTORS
330
A78
102
}
330
A78
100
AcDbXrecord
280
     1
 70
     4
 70
     0
 70
     0
 40
1.0
  2
Numer_katalogowy
  1
Embedded Object
 10
178.6525718386176
 20
20.68422014898354
 30
0.0
 40
2.5
 41
39.63119806127143
 46
0.0
 71
     1
 72
     5
  1
88100
  7
Note Text (ISO)
 73
     1
 44
1.0
  0
XRECORD
  5
D72
102
{ACAD_REACTORS
330
A78
102
}
330
A78
100
AcDbXrecord
280
     1
102
ACAD_MATT_HEIGHT
140
2.5
  0
XRECORD
  5
D75
102
{ACAD_REACTORS
330
A7B
102
}
330
A7B
100
AcDbXrecord
280
     1
 70
     4
 70
     0
 70
     0
 40
1.0
  2
DATA_UTWORZENIA
  1
Embedded Object
 10
190.5938075676742
 20
13.68925708649296
 30
0.0
 40
2.5
 41
40.52963831958745
 46
0.0
 71
     1
 72
     5
  1
2017-06-14
  7
Note Text (ISO)
 73
     1
 44
1.0
  0
XRECORD
  5
D74
102
{ACAD_REACTORS
330
A7B
102
}
330
A7B
100
AcDbXrecord
280
     1
102
ACAD_MATT_HEIGHT
140
2.5
  0
XRECORD
  5
D77
102
{ACAD_REACTORS
330
A7E
102
}
330
A7E
100
AcDbXrecord
280
     1
 70
     4
 70
     0
 70
     0
 40
1.0
  2
Nazwa
  1
Embedded Object
 10
178.5232904425422
 20
17.1288138363798
 30
0.0
 40
2.5
 41
38.632931107587
 46
0.0
 71
     1
 72
     5
  1
Koła gimnastyczne
  7
Note Text (ISO)
 73
     1
 44
1.0
  0
XRECORD
  5
D76
102
{ACAD_REACTORS
330
A7E
102
}
330
A7E
100
AcDbXrecord
280
     1
102
ACAD_MATT_HEIGHT
140
2.5
  0
XRECORD
  5
D79
102
{ACAD_REACTORS
330
A81
102
}
330
A81
100
AcDbXrecord
280
     1
 70
     2
 70
     0
 70
     0
 40
1.0
  2
Numer_katalogowy
  1
Embedded Object
 10
14943.7877770717
 20
497.1457362189539
 30
0.0
 40
125.0
 41
1981.559903063571
 46
0.0
 71
     1
 72
     5
  1
88100
  7
Note Text (ISO)
 73
     1
 44
1.0
  0
XRECORD
  5
D78
102
{ACAD_REACTORS
330
A81
102
}
330
A81
100
AcDbXrecord
280
     1
102
ACAD_MATT_HEIGHT
140
125.0
  0
XRECORD
  5
D7B
102
{ACAD_REACTORS
330
A84
102
}
330
A84
100
AcDbXrecord
280
     1
 70
     2
 70
     0
 70
     0
 40
1.0
  2
DATA_UTWORZENIA
  1
Embedded Object
 10
15540.84956352453
 20
147.3975830944254
 30
0.0
 40
125.0
 41
2026.481915979373
 46
0.0
 71
     1
 72
     5
  1
2017-06-14
  7
Note Text (ISO)
 73
     1
 44
1.0
  0
XRECORD
  5
D7A
102
{ACAD_REACTORS
330
A84
102
}
330
A84
100
AcDbXrecord
280
     1
102
ACAD_MATT_HEIGHT
140
125.0
  0
XRECORD
  5
D7D
102
{ACAD_REACTORS
330
A87
102
}
330
A87
100
AcDbXrecord
280
     1
 70
     2
 70
     0
 70
     0
 40
1.0
  2
Nazwa
  1
Embedded Object
 10
14937.32370726793
 20
319.3754205887671
 30
0.0
 40
125.0
 41
1931.64655537935
 46
0.0
 71
     1
 72
     5
  1
Koła gimnastyczne
  7
Note Text (ISO)
 73
     1
 44
1.0
  0
XRECORD
  5
D7C
102
{ACAD_REACTORS
330
A87
102
}
330
A87
100
AcDbXrecord
280
     1
102
ACAD_MATT_HEIGHT
140
125.0
  0
LAYOUT
  5
6B
102
{ACAD_XDICTIONARY
360
DB4
102
}
102
{ACAD_REACTORS
330
62
102
}
330
62
100
AcDbPlotSettings
  1

  2

  4

  6

 40
0.0
 41
0.0
 42
0.0
 43
0.0
 44
0.0
 45
0.0
 46
0.0
 47
0.0
 48
0.0
 49
0.0
140
0.0
141
0.0
142
1.0
143
1.0
 70
   688
 72
     0
 73
     0
 74
     5
  7

 75
    16
147
1.0
148
0.0
149
0.0
100
AcDbLayout
  1
Layout1
 70
     1
 71
     1
 10
0.0
 20
0.0
 11
14850.0
 21
10500.0
 12
0.0
 22
0.0
 32
0.0
 14
0.0
 24
0.0
 34
0.0
 15
14850.0
 25
10500.0
 35
0.0
146
0.0
 13
0.0
 23
0.0
 33
0.0
 16
1.0
 26
0.0
 36
0.0
 17
0.0
 27
1.0
 37
0.0
 76
     0
330
68
  0
LAYOUT
  5
73
102
{ACAD_XDICTIONARY
360
DB8
102
}
102
{ACAD_REACTORS
330
62
102
}
330
62
100
AcDbPlotSettings
  1

  2

  4

  6

 40
0.0
 41
0.0
 42
0.0
 43
0.0
 44
0.0
 45
0.0
 46
0.0
 47
0.0
 48
0.0
 49
0.0
140
0.0
141
0.0
142
1.0
143
1.0
 70
   688
 72
     0
 73
     0
 74
     5
  7

 75
    16
147
1.0
148
0.0
149
0.0
100
AcDbLayout
  1
Layout2
 70
     1
 71
     2
 10
0.0
 20
0.0
 11
12.0
 21
9.0
 12
0.0
 22
0.0
 32
0.0
 14
0.0
 24
0.0
 34
0.0
 15
0.0
 25
0.0
 35
0.0
146
0.0
 13
0.0
 23
0.0
 33
0.0
 16
1.0
 26
0.0
 36
0.0
 17
0.0
 27
1.0
 37
0.0
 76
     0
330
70
  0
LAYOUT
  5
6F
102
{ACAD_XDICTIONARY
360
DB6
102
}
102
{ACAD_REACTORS
330
62
102
}
330
62
100
AcDbPlotSettings
  1

  2

  4

  6

 40
0.0
 41
0.0
 42
0.0
 43
0.0
 44
0.0
 45
0.0
 46
0.0
 47
0.0
 48
0.0
 49
0.0
140
0.0
141
0.0
142
1.0
143
1.0
 70
  1712
 72
     0
 73
     0
 74
     0
  7

 75
     0
147
1.0
148
0.0
149
0.0
100
AcDbLayout
  1
Model
 70
     1
 71
     0
 10
0.0
 20
0.0
 11
12.0
 21
9.0
 12
0.0
 22
0.0
 32
0.0
 14
0.0
 24
0.0
 34
0.0
 15
0.0
 25
0.0
 35
0.0
146
0.0
 13
0.0
 23
0.0
 33
0.0
 16
1.0
 26
0.0
 36
0.0
 17
0.0
 27
1.0
 37
0.0
 76
     0
330
6C
331
57
  0
MATERIAL
  5
19
102
{ACAD_XDICTIONARY
360
1A
102
}
102
{ACAD_REACTORS
330
10
102
}
330
10
100
AcDbMaterial
  1
ByBlock
 72
     0
 43
0.0208333333333333
 43
0.0
 43
0.0
 43
0.0
 43
0.0
 43
0.0208333333333333
 43
0.0
 43
0.0
 43
0.0
 43
0.0
 43
1.0
 43
0.0
 43
0.0
 43
0.0
 43
0.0
 43
1.0
 77
     0
 47
0.0208333333333333
 47
0.0
 47
0.0
 47
0.0
 47
0.0
 47
0.0208333333333333
 47
0.0
 47
0.0
 47
0.0
 47
0.0
 47
1.0
 47
0.0
 47
0.0
 47
0.0
 47
0.0
 47
1.0
171
     0
 49
0.0208333333333333
 49
0.0
 49
0.0
 49
0.0
 49
0.0
 49
0.0208333333333333
 49
0.0
 49
0.0
 49
0.0
 49
0.0
 49
1.0
 49
0.0
 49
0.0
 49
0.0
 49
0.0
 49
1.0
175
     0
142
0.0208333333333333
142
0.0
142
0.0
142
0.0
142
0.0
142
0.0208333333333333
142
0.0
142
0.0
142
0.0
142
0.0
142
1.0
142
0.0
142
0.0
142
0.0
142
0.0
142
1.0
179
     0
144
0.0208333333333333
144
0.0
144
0.0
144
0.0
144
0.0
144
0.0208333333333333
144
0.0
144
0.0
144
0.0
144
0.0
144
1.0
144
0.0
144
0.0
144
0.0
144
0.0
144
1.0
147
0.0208333333333333
147
0.0
147
0.0
147
0.0
147
0.0
147
0.0208333333333333
147
0.0
147
0.0
147
0.0
147
0.0
147
1.0
147
0.0
147
0.0
147
0.0
147
0.0
147
1.0
  0
MATERIAL
  5
11
102
{ACAD_XDICTIONARY
360
12
102
}
102
{ACAD_REACTORS
330
10
102
}
330
10
100
AcDbMaterial
  1
ByLayer
 72
     0
 43
0.0208333333333333
 43
0.0
 43
0.0
 43
0.0
 43
0.0
 43
0.0208333333333333
 43
0.0
 43
0.0
 43
0.0
 43
0.0
 43
1.0
 43
0.0
 43
0.0
 43
0.0
 43
0.0
 43
1.0
 77
     0
 47
0.0208333333333333
 47
0.0
 47
0.0
 47
0.0
 47
0.0
 47
0.0208333333333333
 47
0.0
 47
0.0
 47
0.0
 47
0.0
 47
1.0
 47
0.0
 47
0.0
 47
0.0
 47
0.0
 47
1.0
171
     0
 49
0.0208333333333333
 49
0.0
 49
0.0
 49
0.0
 49
0.0
 49
0.0208333333333333
 49
0.0
 49
0.0
 49
0.0
 49
0.0
 49
1.0
 49
0.0
 49
0.0
 49
0.0
 49
0.0
 49
1.0
175
     0
142
0.0208333333333333
142
0.0
142
0.0
142
0.0
142
0.0
142
0.0208333333333333
142
0.0
142
0.0
142
0.0
142
0.0
142
1.0
142
0.0
142
0.0
142
0.0
142
0.0
142
1.0
179
     0
144
0.0208333333333333
144
0.0
144
0.0
144
0.0
144
0.0
144
0.0208333333333333
144
0.0
144
0.0
144
0.0
144
0.0
144
1.0
144
0.0
144
0.0
144
0.0
144
0.0
144
1.0
147
0.0208333333333333
147
0.0
147
0.0
147
0.0
147
0.0
147
0.0208333333333333
147
0.0
147
0.0
147
0.0
147
0.0
147
1.0
147
0.0
147
0.0
147
0.0
147
0.0
147
1.0
  0
MATERIAL
  5
21
102
{ACAD_XDICTIONARY
360
22
102
}
102
{ACAD_REACTORS
330
10
102
}
330
10
100
AcDbMaterial
  1
Global
 72
     0
 43
0.0208333333333333
 43
0.0
 43
0.0
 43
0.0
 43
0.0
 43
0.0208333333333333
 43
0.0
 43
0.0
 43
0.0
 43
0.0
 43
1.0
 43
0.0
 43
0.0
 43
0.0
 43
0.0
 43
1.0
 77
     0
 47
0.0208333333333333
 47
0.0
 47
0.0
 47
0.0
 47
0.0
 47
0.0208333333333333
 47
0.0
 47
0.0
 47
0.0
 47
0.0
 47
1.0
 47
0.0
 47
0.0
 47
0.0
 47
0.0
 47
1.0
171
     0
 49
0.0208333333333333
 49
0.0
 49
0.0
 49
0.0
 49
0.0
 49
0.0208333333333333
 49
0.0
 49
0.0
 49
0.0
 49
0.0
 49
1.0
 49
0.0
 49
0.0
 49
0.0
 49
0.0
 49
1.0
175
     0
142
0.0208333333333333
142
0.0
142
0.0
142
0.0
142
0.0
142
0.0208333333333333
142
0.0
142
0.0
142
0.0
142
0.0
142
1.0
142
0.0
142
0.0
142
0.0
142
0.0
142
1.0
179
     0
144
0.0208333333333333
144
0.0
144
0.0
144
0.0
144
0.0
144
0.0208333333333333
144
0.0
144
0.0
144
0.0
144
0.0
144
1.0
144
0.0
144
0.0
144
0.0
144
0.0
144
1.0
147
0.0208333333333333
147
0.0
147
0.0
147
0.0
147
0.0
147
0.0208333333333333
147
0.0
147
0.0
147
0.0
147
0.0
147
1.0
147
0.0
147
0.0
147
0.0
147
0.0
147
1.0
  0
MLEADERSTYLE
  5
67
102
{ACAD_REACTORS
330
66
102
}
330
66
100
AcDbMLeaderStyle
170
     2
171
     1
172
     0
 90
        2
 40
0.0
 41
0.0
173
     1
 91
-1056964608
340
5B
 92
       -2
290
     1
 42
0.09
291
     1
 43
0.36
  3
Standard
 44
0.18
300

342
55
174
     1
178
     6
175
     1
176
     0
 93
-1056964608
 45
0.18
292
     0
297
     0
 46
0.18
 94
-1056964608
 47
1.0
 49
1.0
140
1.0
293
     1
141
0.0
294
     1
177
     0
142
1.0
295
     0
296
     0
143
0.125
1001
ACAD_MLEADERVER
1070
     2
  0
MLINESTYLE
  5
60
102
{ACAD_REACTORS
330
5F
102
}
330
5F
100
AcDbMlineStyle
  2
STANDARD
 70
     0
  3

 62
   256
 51
90.0
 52
90.0
 71
     2
 49
0.5
 62
   256
  6
BYLAYER
 49
-0.5
 62
   256
  6
BYLAYER
  0
ACDBPLACEHOLDER
  5
F
102
{ACAD_REACTORS
330
E
102
}
330
E
  0
SCALE
  5
43
102
{ACAD_REACTORS
330
42
102
}
330
42
100
AcDbScale
 70
     0
300
1:1
140
1.0
141
1.0
290
     1
  0
SCALE
  5
44
102
{ACAD_REACTORS
330
42
102
}
330
42
100
AcDbScale
 70
     0
300
1/128" = 1'-0"
140
0.0078125
141
12.0
290
     0
  0
SCALE
  5
45
102
{ACAD_REACTORS
330
42
102
}
330
42
100
AcDbScale
 70
     0
300
1/64" = 1'-0"
140
0.015625
141
12.0
290
     0
  0
SCALE
  5
46
102
{ACAD_REACTORS
330
42
102
}
330
42
100
AcDbScale
 70
     0
300
1/32" = 1'-0"
140
0.03125
141
12.0
290
     0
  0
SCALE
  5
47
102
{ACAD_REACTORS
330
42
102
}
330
42
100
AcDbScale
 70
     0
300
1/16" = 1'-0"
140
0.0625
141
12.0
290
     0
  0
SCALE
  5
48
102
{ACAD_REACTORS
330
42
102
}
330
42
100
AcDbScale
 70
     0
300
3/32" = 1'-0"
140
0.09375
141
12.0
290
     0
  0
SCALE
  5
49
102
{ACAD_REACTORS
330
42
102
}
330
42
100
AcDbScale
 70
     0
300
1/8" = 1'-0"
140
0.125
141
12.0
290
     0
  0
SCALE
  5
4A
102
{ACAD_REACTORS
330
42
102
}
330
42
100
AcDbScale
 70
     0
300
3/16" = 1'-0"
140
0.1875
141
12.0
290
     0
  0
SCALE
  5
4B
102
{ACAD_REACTORS
330
42
102
}
330
42
100
AcDbScale
 70
     0
300
1/4" = 1'-0"
140
0.25
141
12.0
290
     0
  0
SCALE
  5
4C
102
{ACAD_REACTORS
330
42
102
}
330
42
100
AcDbScale
 70
     0
300
3/8" = 1'-0"
140
0.375
141
12.0
290
     0
  0
SCALE
  5
4D
102
{ACAD_REACTORS
330
42
102
}
330
42
100
AcDbScale
 70
     0
300
1/2" = 1'-0"
140
0.5
141
12.0
290
     0
  0
SCALE
  5
4E
102
{ACAD_REACTORS
330
42
102
}
330
42
100
AcDbScale
 70
     0
300
3/4" = 1'-0"
140
0.75
141
12.0
290
     0
  0
SCALE
  5
4F
102
{ACAD_REACTORS
330
42
102
}
330
42
100
AcDbScale
 70
     0
300
1" = 1'-0"
140
1.0
141
12.0
290
     0
  0
SCALE
  5
50
102
{ACAD_REACTORS
330
42
102
}
330
42
100
AcDbScale
 70
     0
300
1-1/2" = 1'-0"
140
1.5
141
12.0
290
     0
  0
SCALE
  5
51
102
{ACAD_REACTORS
330
42
102
}
330
42
100
AcDbScale
 70
     0
300
3" = 1'-0"
140
3.0
141
12.0
290
     0
  0
SCALE
  5
52
102
{ACAD_REACTORS
330
42
102
}
330
42
100
AcDbScale
 70
     0
300
6" = 1'-0"
140
6.0
141
12.0
290
     0
  0
SCALE
  5
53
102
{ACAD_REACTORS
330
42
102
}
330
42
100
AcDbScale
 70
     0
300
1'-0" = 1'-0"
140
12.0
141
12.0
290
     0
  0
TABLESTYLE
  5
65
102
{ACAD_XDICTIONARY
360
A76
102
}
102
{ACAD_REACTORS
330
64
102
}
330
64
100
AcDbTableStyle
  3
Standard
 70
     0
 71
     0
 40
0.06
 41
0.06
280
     0
281
     0
  7
Standard
140
0.18
170
     2
 62
     0
 63
     7
283
     0
274
    -2
284
     1
 64
     0
275
    -2
285
     1
 65
     0
276
    -2
286
     1
 66
     0
277
    -2
287
     1
 67
     0
278
    -2
288
     1
 68
     0
279
    -2
289
     1
 69
     0
  7
Standard
140
0.25
170
     5
 62
     0
 63
     7
283
     0
274
    -2
284
     1
 64
     0
275
    -2
285
     1
 65
     0
276
    -2
286
     1
 66
     0
277
    -2
287
     1
 67
     0
278
    -2
288
     1
 68
     0
279
    -2
289
     1
 69
     0
  7
Standard
140
0.18
170
     5
 62
     0
 63
     7
283
     0
274
    -2
284
     1
 64
     0
275
    -2
285
     1
 65
     0
276
    -2
286
     1
 66
     0
277
    -2
287
     1
 67
     0
278
    -2
288
     1
 68
     0
279
    -2
289
     1
 69
     0
  0
VISUALSTYLE
  5
2F
102
{ACAD_XDICTIONARY
360
D8D
102
}
102
{ACAD_REACTORS
330
29
102
}
330
29
100
AcDbVisualStyle
  2
2dWireframe
 70
     4
 71
     0
 72
     2
 73
     0
 90
        0
 40
-0.6
 41
-30.0
 62
     5
 63
     7
 74
     1
 91
        4
 64
     7
 65
   257
 75
     1
175
     1
 42
1.0
 92
        0
 66
   257
 43
1.0
 76
     1
 77
     6
 78
     2
 67
     7
 79
     5
170
     0
171
     0
290
     0
174
     0
 93
        1
 44
0.0
173
     0
291
     0
 45
0.0
1001
ACAD
1000
AcDbSavedByObjectVersion
1070
     0
  0
VISUALSTYLE
  5
2E
102
{ACAD_XDICTIONARY
360
D8B
102
}
102
{ACAD_REACTORS
330
29
102
}
330
29
100
AcDbVisualStyle
  2
Basic
 70
     7
 71
     1
 72
     0
 73
     1
 90
        0
 40
-0.6
 41
-30.0
 62
     5
 63
     7
 74
     0
 91
        4
 64
     7
 65
   257
 75
     1
175
     1
 42
1.0
 92
        8
 66
     7
 43
1.0
 76
     1
 77
     6
 78
     2
 67
     7
 79
     5
170
     0
171
     0
290
     0
174
     0
 93
        1
 44
0.0
173
     0
291
     1
 45
0.0
1001
ACAD
1000
AcDbSavedByObjectVersion
1070
     0
  0
VISUALSTYLE
  5
35
102
{ACAD_XDICTIONARY
360
D99
102
}
102
{ACAD_REACTORS
330
29
102
}
330
29
100
AcDbVisualStyle
  2
Brighten
 70
    12
 71
     2
 72
     2
 73
     0
 90
        0
 40
-0.6
 41
-30.0
 62
     5
 63
     7
 74
     1
 91
        4
 64
     7
 65
   257
 75
     1
175
     1
 42
1.0
 92
        8
 66
     7
 43
1.0
 76
     1
 77
     6
 78
     2
 67
     7
 79
     5
170
     0
171
     0
290
     0
174
     0
 93
        1
 44
50.0
173
     0
291
     1
 45
0.0
1001
ACAD
1000
AcDbSavedByObjectVersion
1070
     0
  0
VISUALSTYLE
  5
39
102
{ACAD_XDICTIONARY
360
DA1
102
}
102
{ACAD_REACTORS
330
29
102
}
330
29
100
AcDbVisualStyle
  2
ColorChange
 70
    16
 71
     2
 72
     2
 73
     3
 90
        0
 40
-0.6
 41
-30.0
 62
     5
 63
     8
 74
     1
 91
        4
 64
     7
 65
   257
 75
     1
175
     1
 42
1.0
 92
        8
 66
     8
 43
1.0
 76
     1
 77
     6
 78
     2
 67
     7
 79
     5
170
     0
171
     0
290
     0
174
     0
 93
        1
 44
0.0
173
     0
291
     1
 45
0.0
1001
ACAD
1000
AcDbSavedByObjectVersion
1070
     0
  0
VISUALSTYLE
  5
32
102
{ACAD_XDICTIONARY
360
D93
102
}
102
{ACAD_REACTORS
330
29
102
}
330
29
100
AcDbVisualStyle
  2
Conceptual
 70
     9
 71
     3
 72
     2
 73
     0
 90
        0
 40
-0.6
 41
-30.0
 62
     5
 63
     7
 74
     2
 91
        2
 64
     7
 65
   257
 75
     1
175
     1
 42
179.0
 92
        8
 66
     7
 43
1.0
 76
     1
 77
     6
 78
     2
 67
     7
 79
     3
170
     0
171
     0
290
     0
174
     0
 93
        1
 44
0.0
173
     0
291
     0
 45
0.0
1001
ACAD
1000
AcDbSavedByObjectVersion
1070
     0
  0
VISUALSTYLE
  5
34
102
{ACAD_XDICTIONARY
360
D97
102
}
102
{ACAD_REACTORS
330
29
102
}
330
29
100
AcDbVisualStyle
  2
Dim
 70
    11
 71
     2
 72
     2
 73
     0
 90
        0
 40
-0.6
 41
-30.0
 62
     5
 63
     7
 74
     1
 91
        4
 64
     7
 65
   257
 75
     1
175
     1
 42
1.0
 92
        8
 66
     7
 43
1.0
 76
     1
 77
     6
 78
     2
 67
     7
 79
     5
170
     0
171
     0
290
     0
174
     0
 93
        1
 44
-50.0
173
     0
291
     1
 45
0.0
1001
ACAD
1000
AcDbSavedByObjectVersion
1070
     0
  0
VISUALSTYLE
  5
41
102
{ACAD_XDICTIONARY
360
DB1
102
}
102
{ACAD_REACTORS
330
29
102
}
330
29
100
AcDbVisualStyle
  2
EdgeColorOff
 70
    22
 71
     2
 72
     2
 73
     0
 90
        0
 40
-0.6
 41
-30.0
 62
     5
 63
     7
 74
     1
 91
        4
 64
     7
 65
   257
 75
     1
175
     1
 42
1.0
 92
        8
 66
     7
 43
1.0
 76
     1
 77
     6
 78
     2
 67
     7
 79
     5
170
     0
171
     0
290
     0
174
     0
 93
        1
 44
0.0
173
     0
291
     1
 45
0.0
1001
ACAD
1000
AcDbSavedByObjectVersion
1070
     0
  0
VISUALSTYLE
  5
38
102
{ACAD_XDICTIONARY
360
D9F
102
}
102
{ACAD_REACTORS
330
29
102
}
330
29
100
AcDbVisualStyle
  2
Facepattern
 70
    15
 71
     2
 72
     2
 73
     0
 90
        0
 40
-0.6
 41
-30.0
 62
     5
 63
     7
 74
     1
 91
        4
 64
     7
 65
   257
 75
     1
175
     1
 42
1.0
 92
        8
 66
     7
 43
1.0
 76
     1
 77
     6
 78
     2
 67
     7
 79
     5
170
     0
171
     0
290
     0
174
     0
 93
        1
 44
0.0
173
     0
291
     1
 45
0.0
1001
ACAD
1000
AcDbSavedByObjectVersion
1070
     0
  0
VISUALSTYLE
  5
2A
102
{ACAD_XDICTIONARY
360
D83
102
}
102
{ACAD_REACTORS
330
29
102
}
330
29
100
AcDbVisualStyle
  2
Flat
 70
     0
 71
     2
 72
     1
 73
     1
 90
        2
 40
-0.6
 41
30.0
 62
     5
 63
     7
 74
     0
 91
        0
 64
     7
 65
   257
 75
     1
175
     1
 42
1.0
 92
        8
 66
     7
 43
1.0
 76
     1
 77
     6
 78
     2
 67
     7
 79
     5
170
     0
171
     0
290
     0
174
     0
 93
       13
 44
0.0
173
     0
291
     1
 45
0.0
1001
ACAD
1000
AcDbSavedByObjectVersion
1070
     0
  0
VISUALSTYLE
  5
2B
102
{ACAD_XDICTIONARY
360
D85
102
}
102
{ACAD_REACTORS
330
29
102
}
330
29
100
AcDbVisualStyle
  2
FlatWithEdges
 70
     1
 71
     2
 72
     1
 73
     1
 90
        2
 40
-0.6
 41
30.0
 62
     5
 63
     7
 74
     1
 91
        0
 64
     7
 65
   257
 75
     1
175
     1
 42
1.0
 92
        0
 66
   257
 43
1.0
 76
     1
 77
     6
 78
     2
 67
     7
 79
     5
170
     0
171
     0
290
     0
174
     0
 93
       13
 44
0.0
173
     0
291
     1
 45
0.0
1001
ACAD
1000
AcDbSavedByObjectVersion
1070
     0
  0
VISUALSTYLE
  5
2C
102
{ACAD_XDICTIONARY
360
D87
102
}
102
{ACAD_REACTORS
330
29
102
}
330
29
100
AcDbVisualStyle
  2
Gouraud
 70
     2
 71
     2
 72
     2
 73
     1
 90
        2
 40
-0.6
 41
30.0
 62
     5
 63
     7
 74
     0
 91
        0
 64
     7
 65
   257
 75
     1
175
     1
 42
1.0
 92
        0
 66
     7
 43
1.0
 76
     1
 77
     6
 78
     2
 67
     7
 79
     5
170
     0
171
     0
290
     0
174
     0
 93
       13
 44
0.0
173
     0
291
     1
 45
0.0
1001
ACAD
1000
AcDbSavedByObjectVersion
1070
     0
  0
VISUALSTYLE
  5
2D
102
{ACAD_XDICTIONARY
360
D89
102
}
102
{ACAD_REACTORS
330
29
102
}
330
29
100
AcDbVisualStyle
  2
GouraudWithEdges
 70
     3
 71
     2
 72
     2
 73
     1
 90
        2
 40
-0.6
 41
30.0
 62
     5
 63
     7
 74
     1
 91
        0
 64
     7
 65
   257
 75
     1
175
     1
 42
1.0
 92
        0
 66
   257
 43
1.0
 76
     1
 77
     6
 78
     2
 67
     7
 79
     5
170
     0
171
     0
290
     0
174
     0
 93
       13
 44
0.0
173
     0
291
     1
 45
0.0
1001
ACAD
1000
AcDbSavedByObjectVersion
1070
     0
  0
VISUALSTYLE
  5
31
102
{ACAD_XDICTIONARY
360
D91
102
}
102
{ACAD_REACTORS
330
29
102
}
330
29
100
AcDbVisualStyle
  2
Hidden
 70
     6
 71
     1
 72
     2
 73
     2
 90
        0
 40
-0.6
 41
-30.0
 62
     5
 63
     7
 74
     2
 91
        2
 64
     7
 65
   257
 75
     2
175
     1
 42
40.0
 92
        0
 66
   257
 43
1.0
 76
     1
 77
     6
 78
     2
 67
     7
 79
     3
170
     0
171
     0
290
     0
174
     0
 93
        1
 44
0.0
173
     0
291
     0
 45
0.0
1001
ACAD
1000
AcDbSavedByObjectVersion
1070
     0
  0
VISUALSTYLE
  5
3F
102
{ACAD_XDICTIONARY
360
DAD
102
}
102
{ACAD_REACTORS
330
29
102
}
330
29
100
AcDbVisualStyle
  2
JitterOff
 70
    20
 71
     2
 72
     2
 73
     0
 90
        0
 40
-0.6
 41
-30.0
 62
     5
 63
     7
 74
     1
 91
        4
 64
     7
 65
   257
 75
     1
175
     1
 42
1.0
 92
       10
 66
     7
 43
1.0
 76
     1
 77
     6
 78
     2
 67
     7
 79
     5
170
     0
171
     0
290
     0
174
     0
 93
        1
 44
0.0
173
     0
291
     1
 45
0.0
1001
ACAD
1000
AcDbSavedByObjectVersion
1070
     0
  0
VISUALSTYLE
  5
37
102
{ACAD_XDICTIONARY
360
D9D
102
}
102
{ACAD_REACTORS
330
29
102
}
330
29
100
AcDbVisualStyle
  2
Linepattern
 70
    14
 71
     2
 72
     2
 73
     0
 90
        0
 40
-0.6
 41
-30.0
 62
     5
 63
     7
 74
     1
 91
        4
 64
     7
 65
   257
 75
     7
175
     7
 42
1.0
 92
        8
 66
     7
 43
1.0
 76
     1
 77
     6
 78
     2
 67
     7
 79
     5
170
     0
171
     0
290
     0
174
     0
 93
        1
 44
0.0
173
     0
291
     1
 45
0.0
1001
ACAD
1000
AcDbSavedByObjectVersion
1070
     0
  0
VISUALSTYLE
  5
40
102
{ACAD_XDICTIONARY
360
DAF
102
}
102
{ACAD_REACTORS
330
29
102
}
330
29
100
AcDbVisualStyle
  2
OverhangOff
 70
    21
 71
     2
 72
     2
 73
     0
 90
        0
 40
-0.6
 41
-30.0
 62
     5
 63
     7
 74
     1
 91
        4
 64
     7
 65
   257
 75
     1
175
     1
 42
1.0
 92
        9
 66
     7
 43
1.0
 76
     1
 77
     6
 78
     2
 67
     7
 79
     5
170
     0
171
     0
290
     0
174
     0
 93
        1
 44
0.0
173
     0
291
     1
 45
0.0
1001
ACAD
1000
AcDbSavedByObjectVersion
1070
     0
  0
VISUALSTYLE
  5
33
102
{ACAD_XDICTIONARY
360
D95
102
}
102
{ACAD_REACTORS
330
29
102
}
330
29
100
AcDbVisualStyle
  2
Realistic
 70
     8
 71
     2
 72
     2
 73
     0
 90
        2
 40
-0.6
 41
30.0
 62
     5
 63
     7
 74
     0
 91
        0
 64
     7
 65
   257
 75
     1
175
     1
 42
1.0
 92
        8
 66
   257
 43
1.0
 76
     1
 77
     6
 78
     2
 67
     7
 79
     3
170
     0
171
     0
290
     0
174
     0
 93
       13
 44
0.0
173
     0
291
     0
 45
0.0
1001
ACAD
1000
AcDbSavedByObjectVersion
1070
     0
  0
VISUALSTYLE
  5
3E
102
{ACAD_XDICTIONARY
360
DAB
102
}
102
{ACAD_REACTORS
330
29
102
}
330
29
100
AcDbVisualStyle
  2
Shaded
 70
    27
 71
     2
 72
     2
 73
     1
 90
        2
 40
-0.6
 41
30.0
 62
     5
 63
     7
 74
     0
 91
        4
 64
     7
 65
   257
 75
     1
175
     1
 42
1.0
 92
        8
 66
   257
 43
1.0
 76
     1
 77
     6
 78
     2
 67
     8
 79
     3
170
     0
171
     0
290
     0
174
     0
 93
        5
 44
0.0
173
     0
291
     0
 45
0.0
1001
ACAD
1000
AcDbSavedByObjectVersion
1070
     0
  0
VISUALSTYLE
  5
3D
102
{ACAD_XDICTIONARY
360
DA9
102
}
102
{ACAD_REACTORS
330
29
102
}
330
29
100
AcDbVisualStyle
  2
Shaded with edges
 70
    26
 71
     2
 72
     2
 73
     1
 90
        2
 40
-0.6
 41
30.0
 62
     5
 63
     7
 74
     1
 91
       10
 64
     7
 65
   257
 75
     2
175
     1
 42
1.0
 92
        8
 66
   257
 43
1.0
 76
     1
 77
     6
 78
     2
 67
     7
 79
     3
170
     0
171
     0
290
     0
174
     0
 93
        5
 44
0.0
173
     0
291
     0
 45
0.0
1001
ACAD
1000
AcDbSavedByObjectVersion
1070
     0
  0
VISUALSTYLE
  5
3A
102
{ACAD_XDICTIONARY
360
DA3
102
}
102
{ACAD_REACTORS
330
29
102
}
330
29
100
AcDbVisualStyle
  2
Shades of Gray
 70
    23
 71
     2
 72
     2
 73
     3
 90
        0
 40
-0.6
 41
-30.0
 62
     5
 63
     7
 74
     2
 91
        2
 64
     7
 65
     7
 75
     1
175
     1
 42
40.0
 92
        8
 66
     7
 43
1.0
 76
     1
 77
     6
 78
     2
 67
     7
 79
     3
170
     0
171
     0
290
     0
174
     0
 93
        1
 44
0.0
173
     0
291
     0
 45
0.0
1001
ACAD
1000
AcDbSavedByObjectVersion
1070
     0
  0
VISUALSTYLE
  5
3B
102
{ACAD_XDICTIONARY
360
DA5
102
}
102
{ACAD_REACTORS
330
29
102
}
330
29
100
AcDbVisualStyle
  2
Sketchy
 70
    24
 71
     1
 72
     2
 73
     2
 90
        0
 40
-0.6
 41
-30.0
 62
     5
 63
     7
 74
     2
 91
        2
 64
     7
 65
     7
 75
     1
175
     1
 42
40.0
 92
       11
 66
     7
 43
1.0
 76
     1
 77
     6
 78
     2
 67
     7
 79
     6
170
     0
171
     0
290
     0
174
     0
 93
        1
 44
0.0
173
     0
291
     0
 45
0.0
1001
ACAD
1000
AcDbSavedByObjectVersion
1070
     0
  0
VISUALSTYLE
  5
36
102
{ACAD_XDICTIONARY
360
D9B
102
}
102
{ACAD_REACTORS
330
29
102
}
330
29
100
AcDbVisualStyle
  2
Thicken
 70
    13
 71
     2
 72
     2
 73
     0
 90
        0
 40
-0.6
 41
-30.0
 62
     5
 63
     7
 74
     1
 91
        4
 64
     7
 65
   257
 75
     1
175
     1
 42
1.0
 92
       12
 66
     7
 43
1.0
 76
     1
 77
     6
 78
     2
 67
     7
 79
     5
170
     0
171
     0
290
     0
174
     0
 93
        1
 44
0.0
173
     0
291
     1
 45
0.0
1001
ACAD
1000
AcDbSavedByObjectVersion
1070
     0
  0
VISUALSTYLE
  5
30
102
{ACAD_XDICTIONARY
360
D8F
102
}
102
{ACAD_REACTORS
330
29
102
}
330
29
100
AcDbVisualStyle
  2
Wireframe
 70
     5
 71
     0
 72
     2
 73
     0
 90
        0
 40
-0.6
 41
-30.0
 62
     5
 63
     7
 74
     1
 91
        4
 64
     7
 65
   257
 75
     1
175
     1
 42
1.0
 92
        0
 66
   257
 43
1.0
 76
     1
 77
     6
 78
     2
 67
     7
 79
     3
170
     0
171
     0
290
     0
174
     0
 93
        1
 44
0.0
173
     0
291
     0
 45
0.0
1001
ACAD
1000
AcDbSavedByObjectVersion
1070
     0
  0
VISUALSTYLE
  5
3C
102
{ACAD_XDICTIONARY
360
DA7
102
}
102
{ACAD_REACTORS
330
29
102
}
330
29
100
AcDbVisualStyle
  2
X-Ray
 70
    25
 71
     2
 72
     2
 73
     1
 90
        1
 40
0.5
 41
-30.0
 62
     5
 63
     7
 74
     1
 91
        0
 64
     7
 65
   257
 75
     1
175
     1
 42
1.0
 92
        8
 66
     7
 43
1.0
 76
     1
 77
     6
 78
     2
 67
     7
 79
     3
170
     0
171
     0
290
     0
174
     0
 93
       13
 44
0.0
173
     0
291
     0
 45
0.0
1001
ACAD
1000
AcDbSavedByObjectVersion
1070
     0
  0
DICTIONARYVAR
  5
AD1
102
{ACAD_REACTORS
330
ACD
102
}
330
ACD
100
DictionaryVariables
280
     0
  1
1:1
  0
DICTIONARYVAR
  5
ACF
102
{ACAD_REACTORS
330
ACD
102
}
330
ACD
100
DictionaryVariables
280
     0
  1
STANDARD
  0
DICTIONARYVAR
  5
ACE
102
{ACAD_REACTORS
330
ACD
102
}
330
ACD
100
DictionaryVariables
280
     0
  1
STANDARD
  0
DICTIONARYVAR
  5
AD8
102
{ACAD_REACTORS
330
ACD
102
}
330
ACD
100
DictionaryVariables
280
     0
  1
1
  0
DICTIONARYVAR
  5
AD7
102
{ACAD_REACTORS
330
ACD
102
}
330
ACD
100
DictionaryVariables
280
     0
  1
1
  0
DICTIONARYVAR
  5
AD6
102
{ACAD_REACTORS
330
ACD
102
}
330
ACD
100
DictionaryVariables
280
     0
  1
0
  0
DICTIONARYVAR
  5
AD3
102
{ACAD_REACTORS
330
ACD
102
}
330
ACD
100
DictionaryVariables
280
     0
  1
0
  0
DICTIONARYVAR
  5
AD4
102
{ACAD_REACTORS
330
ACD
102
}
330
ACD
100
DictionaryVariables
280
     0
  1
0
  0
DICTIONARYVAR
  5
AD2
102
{ACAD_REACTORS
330
ACD
102
}
330
ACD
100
DictionaryVariables
280
     0
  1
2
  0
DICTIONARYVAR
  5
AD0
102
{ACAD_REACTORS
330
ACD
102
}
330
ACD
100
DictionaryVariables
280
     0
  1
1
  0
DICTIONARYVAR
  5
AD5
102
{ACAD_REACTORS
330
ACD
102
}
330
ACD
100
DictionaryVariables
280
     0
  1
127
  0
DICTIONARYVAR
  5
D70
102
{ACAD_REACTORS
330
ACD
102
}
330
ACD
100
DictionaryVariables
280
     0
  1
2
  0
DICTIONARY
  5
DB4
330
6B
100
AcDbDictionary
280
     1
281
     1
  3
ACAD_XREC_ROUNDTRIP
360
DB5
  0
DICTIONARY
  5
DB8
330
73
100
AcDbDictionary
280
     1
281
     1
  3
ACAD_XREC_ROUNDTRIP
360
DB9
  0
DICTIONARY
  5
DB6
330
6F
100
AcDbDictionary
280
     1
281
     1
  3
ACAD_XREC_ROUNDTRIP
360
DB7
  0
DICTIONARY
  5
1A
330
19
100
AcDbDictionary
280
     1
281
     1
  3
ACAD_XREC_ROUNDTRIP
360
D81
  3
BUMPTILE
360
1C
  3
DIFFUSETILE
360
1B
  3
OPACITYTILE
360
1F
  3
REFLECTIONTILE
360
1E
  3
REFRACTIONTILE
360
20
  3
SPECULARTILE
360
1D
  0
DICTIONARY
  5
12
330
11
100
AcDbDictionary
280
     1
281
     1
  3
ACAD_XREC_ROUNDTRIP
360
D80
  3
BUMPTILE
360
14
  3
DIFFUSETILE
360
13
  3
OPACITYTILE
360
17
  3
REFLECTIONTILE
360
16
  3
REFRACTIONTILE
360
18
  3
SPECULARTILE
360
15
  0
DICTIONARY
  5
22
330
21
100
AcDbDictionary
280
     1
281
     1
  3
ACAD_XREC_ROUNDTRIP
360
D82
  3
BUMPTILE
360
24
  3
DIFFUSETILE
360
23
  3
OPACITYTILE
360
27
  3
REFLECTIONTILE
360
26
  3
REFRACTIONTILE
360
28
  3
SPECULARTILE
360
25
  0
DICTIONARY
  5
A76
330
65
100
AcDbDictionary
280
     1
281
     1
  3
ACAD_ROUNDTRIP_2008_TABLESTYLE_CELLSTYLEMAP
360
D71
  3
ACAD_XREC_ROUNDTRIP
360
DB3
  0
DICTIONARY
  5
D8D
330
2F
100
AcDbDictionary
280
     1
281
     1
  3
ACAD_XREC_ROUNDTRIP
360
D8E
  0
DICTIONARY
  5
D8B
330
2E
100
AcDbDictionary
280
     1
281
     1
  3
ACAD_XREC_ROUNDTRIP
360
D8C
  0
DICTIONARY
  5
D99
330
35
100
AcDbDictionary
280
     1
281
     1
  3
ACAD_XREC_ROUNDTRIP
360
D9A
  0
DICTIONARY
  5
DA1
330
39
100
AcDbDictionary
280
     1
281
     1
  3
ACAD_XREC_ROUNDTRIP
360
DA2
  0
DICTIONARY
  5
D93
330
32
100
AcDbDictionary
280
     1
281
     1
  3
ACAD_XREC_ROUNDTRIP
360
D94
  0
DICTIONARY
  5
D97
330
34
100
AcDbDictionary
280
     1
281
     1
  3
ACAD_XREC_ROUNDTRIP
360
D98
  0
DICTIONARY
  5
DB1
330
41
100
AcDbDictionary
280
     1
281
     1
  3
ACAD_XREC_ROUNDTRIP
360
DB2
  0
DICTIONARY
  5
D9F
330
38
100
AcDbDictionary
280
     1
281
     1
  3
ACAD_XREC_ROUNDTRIP
360
DA0
  0
DICTIONARY
  5
D83
330
2A
100
AcDbDictionary
280
     1
281
     1
  3
ACAD_XREC_ROUNDTRIP
360
D84
  0
DICTIONARY
  5
D85
330
2B
100
AcDbDictionary
280
     1
281
     1
  3
ACAD_XREC_ROUNDTRIP
360
D86
  0
DICTIONARY
  5
D87
330
2C
100
AcDbDictionary
280
     1
281
     1
  3
ACAD_XREC_ROUNDTRIP
360
D88
  0
DICTIONARY
  5
D89
330
2D
100
AcDbDictionary
280
     1
281
     1
  3
ACAD_XREC_ROUNDTRIP
360
D8A
  0
DICTIONARY
  5
D91
330
31
100
AcDbDictionary
280
     1
281
     1
  3
ACAD_XREC_ROUNDTRIP
360
D92
  0
DICTIONARY
  5
DAD
330
3F
100
AcDbDictionary
280
     1
281
     1
  3
ACAD_XREC_ROUNDTRIP
360
DAE
  0
DICTIONARY
  5
D9D
330
37
100
AcDbDictionary
280
     1
281
     1
  3
ACAD_XREC_ROUNDTRIP
360
D9E
  0
DICTIONARY
  5
DAF
330
40
100
AcDbDictionary
280
     1
281
     1
  3
ACAD_XREC_ROUNDTRIP
360
DB0
  0
DICTIONARY
  5
D95
330
33
100
AcDbDictionary
280
     1
281
     1
  3
ACAD_XREC_ROUNDTRIP
360
D96
  0
DICTIONARY
  5
DAB
330
3E
100
AcDbDictionary
280
     1
281
     1
  3
ACAD_XREC_ROUNDTRIP
360
DAC
  0
DICTIONARY
  5
DA9
330
3D
100
AcDbDictionary
280
     1
281
     1
  3
ACAD_XREC_ROUNDTRIP
360
DAA
  0
DICTIONARY
  5
DA3
330
3A
100
AcDbDictionary
280
     1
281
     1
  3
ACAD_XREC_ROUNDTRIP
360
DA4
  0
DICTIONARY
  5
DA5
330
3B
100
AcDbDictionary
280
     1
281
     1
  3
ACAD_XREC_ROUNDTRIP
360
DA6
  0
DICTIONARY
  5
D9B
330
36
100
AcDbDictionary
280
     1
281
     1
  3
ACAD_XREC_ROUNDTRIP
360
D9C
  0
DICTIONARY
  5
D8F
330
30
100
AcDbDictionary
280
     1
281
     1
  3
ACAD_XREC_ROUNDTRIP
360
D90
  0
DICTIONARY
  5
DA7
330
3C
100
AcDbDictionary
280
     1
281
     1
  3
ACAD_XREC_ROUNDTRIP
360
DA8
  0
XRECORD
  5
DB5
102
{ACAD_REACTORS
330
DB4
102
}
330
DB4
100
AcDbXrecord
280
     1
102
SHADEPLOT
 70
     0
102
SHADEPLOTRESLEVEL
 70
     2
102
SHADEPLOTCUSTOMDPI
 70
   300
  0
XRECORD
  5
DB9
102
{ACAD_REACTORS
330
DB8
102
}
330
DB8
100
AcDbXrecord
280
     1
102
SHADEPLOT
 70
     0
102
SHADEPLOTRESLEVEL
 70
     2
102
SHADEPLOTCUSTOMDPI
 70
   300
  0
XRECORD
  5
DB7
102
{ACAD_REACTORS
330
DB6
102
}
330
DB6
100
AcDbXrecord
280
     1
102
SHADEPLOT
 70
     0
102
SHADEPLOTRESLEVEL
 70
     2
102
SHADEPLOTCUSTOMDPI
 70
   300
  0
XRECORD
  5
D81
102
{ACAD_REACTORS
330
1A
102
}
330
1A
100
AcDbXrecord
280
     1
102
MATERIAL
148
0.0
149
0.0
149
0.0
 93
        0
 94
      127
282
     0
 72
     0
 77
     0
171
     0
175
     0
179
     0
273
     0
  0
XRECORD
  5
1C
102
{ACAD_REACTORS
330
1A
102
}
330
1A
100
AcDbXrecord
280
     1
270
     1
271
     1
  0
XRECORD
  5
1B
102
{ACAD_REACTORS
330
1A
102
}
330
1A
100
AcDbXrecord
280
     1
270
     1
271
     1
  0
XRECORD
  5
1F
102
{ACAD_REACTORS
330
1A
102
}
330
1A
100
AcDbXrecord
280
     1
270
     1
271
     1
  0
XRECORD
  5
1E
102
{ACAD_REACTORS
330
1A
102
}
330
1A
100
AcDbXrecord
280
     1
270
     1
271
     1
  0
XRECORD
  5
20
102
{ACAD_REACTORS
330
1A
102
}
330
1A
100
AcDbXrecord
280
     1
270
     1
271
     1
  0
XRECORD
  5
1D
102
{ACAD_REACTORS
330
1A
102
}
330
1A
100
AcDbXrecord
280
     1
270
     1
271
     1
  0
XRECORD
  5
D80
102
{ACAD_REACTORS
330
12
102
}
330
12
100
AcDbXrecord
280
     1
102
MATERIAL
148
0.0
149
0.0
149
0.0
 93
        0
 94
      127
282
     0
 72
     0
 77
     0
171
     0
175
     0
179
     0
273
     0
  0
XRECORD
  5
14
102
{ACAD_REACTORS
330
12
102
}
330
12
100
AcDbXrecord
280
     1
270
     1
271
     1
  0
XRECORD
  5
13
102
{ACAD_REACTORS
330
12
102
}
330
12
100
AcDbXrecord
280
     1
270
     1
271
     1
  0
XRECORD
  5
17
102
{ACAD_REACTORS
330
12
102
}
330
12
100
AcDbXrecord
280
     1
270
     1
271
     1
  0
XRECORD
  5
16
102
{ACAD_REACTORS
330
12
102
}
330
12
100
AcDbXrecord
280
     1
270
     1
271
     1
  0
XRECORD
  5
18
102
{ACAD_REACTORS
330
12
102
}
330
12
100
AcDbXrecord
280
     1
270
     1
271
     1
  0
XRECORD
  5
15
102
{ACAD_REACTORS
330
12
102
}
330
12
100
AcDbXrecord
280
     1
270
     1
271
     1
  0
XRECORD
  5
D82
102
{ACAD_REACTORS
330
22
102
}
330
22
100
AcDbXrecord
280
     1
102
MATERIAL
148
0.0
149
0.0
149
0.0
 93
        0
 94
      127
282
     0
 72
     0
 77
     0
171
     0
175
     0
179
     0
273
     0
  0
XRECORD
  5
24
102
{ACAD_REACTORS
330
22
102
}
330
22
100
AcDbXrecord
280
     1
270
     1
271
     1
  0
XRECORD
  5
23
102
{ACAD_REACTORS
330
22
102
}
330
22
100
AcDbXrecord
280
     1
270
     1
271
     1
  0
XRECORD
  5
27
102
{ACAD_REACTORS
330
22
102
}
330
22
100
AcDbXrecord
280
     1
270
     1
271
     1
  0
XRECORD
  5
26
102
{ACAD_REACTORS
330
22
102
}
330
22
100
AcDbXrecord
280
     1
270
     1
271
     1
  0
XRECORD
  5
28
102
{ACAD_REACTORS
330
22
102
}
330
22
100
AcDbXrecord
280
     1
270
     1
271
     1
  0
XRECORD
  5
25
102
{ACAD_REACTORS
330
22
102
}
330
22
100
AcDbXrecord
280
     1
270
     1
271
     1
  0
CELLSTYLEMAP
  5
D71
102
{ACAD_REACTORS
330
A76
102
}
330
A76
100
AcDbCellStyleMap
 90
        3
300
CELLSTYLE
  1
TABLEFORMAT_BEGIN
 90
        5
170
     1
 91
        0
 92
    32768
 62
   257
 93
        1
300
CONTENTFORMAT
  1
CONTENTFORMAT_BEGIN
 90
        0
 91
        0
 92
      512
 93
        0
300

 40
0.0
140
1.0
 94
        5
 62
     0
340
55
144
0.25
309
CONTENTFORMAT_END
171
     0
 94
        0
309
TABLEFORMAT_END
  1
CELLSTYLE_BEGIN
 90
        1
 91
        1
300
_TITLE
309
CELLSTYLE_END
300
CELLSTYLE
  1
TABLEFORMAT_BEGIN
 90
        5
170
     1
 91
        0
 92
        0
 62
   257
 93
        1
300
CONTENTFORMAT
  1
CONTENTFORMAT_BEGIN
 90
        0
 91
        0
 92
      512
 93
        0
300

 40
0.0
140
1.0
 94
        5
 62
     0
340
55
144
0.18
309
CONTENTFORMAT_END
171
     0
 94
        0
309
TABLEFORMAT_END
  1
CELLSTYLE_BEGIN
 90
        2
 91
        1
300
_HEADER
309
CELLSTYLE_END
300
CELLSTYLE
  1
TABLEFORMAT_BEGIN
 90
        5
170
     1
 91
        0
 92
        0
 62
   257
 93
        1
300
CONTENTFORMAT
  1
CONTENTFORMAT_BEGIN
 90
        0
 91
        0
 92
      512
 93
        0
300

 40
0.0
140
1.0
 94
        2
 62
     0
340
55
144
0.18
309
CONTENTFORMAT_END
171
     0
 94
        0
309
TABLEFORMAT_END
  1
CELLSTYLE_BEGIN
 90
        3
 91
        2
300
_DATA
309
CELLSTYLE_END
  0
XRECORD
  5
DB3
102
{ACAD_REACTORS
330
A76
102
}
330
A76
100
AcDbXrecord
280
     1
102
ACAD_ROUNDTRIP_PRE2007_TABLESTYLE
 90
      512
 91
        0
  1

 92
      512
 93
        0
  2

 94
      512
 95
        0
  3

  0
XRECORD
  5
D8E
102
{ACAD_REACTORS
330
D8D
102
}
330
D8D
100
AcDbXrecord
280
     1
102
RTVSPropertyOp0
 70
     1
102
RTVSPropertyOp1
 70
     1
102
RTVSPropertyOp2
 70
     1
102
RTVSPropertyOp3
 70
     1
102
RTVSPropertyOp4
 70
     1
102
RTVSPropertyOp5
 70
     1
102
RTVSPropertyOp6
 70
     1
102
RTVSPropertyOp7
 70
     1
102
RTVSPropertyOp8
 70
     1
102
RTVSPropertyOp9
 70
     1
102
RTVSPropertyOp10
 70
     1
102
RTVSPropertyOp11
 70
     1
102
RTVSPropertyOp12
 70
     1
102
RTVSPropertyOp13
 70
     1
102
RTVSPropertyOp14
 70
     1
102
RTVSPropertyOp15
 70
     1
102
RTVSPropertyOp16
 70
     1
102
RTVSPropertyOp17
 70
     1
102
RTVSPropertyOp18
 70
     1
102
RTVSPropertyOp19
 70
     1
102
RTVSPropertyOp20
 70
     1
102
RTVSPropertyOp21
 70
     1
102
RTVSPropertyOp22
 70
     1
102
RTVSPropertyOp23
 70
     1
102
RTVSPropertyOp24
 70
     1
102
RTVSPropertyOp25
 70
     1
102
RTVSPropertyOp26
 70
     1
102
RTVSPropertyOp27
 70
     1
102
RTVSPropertyOp28
 70
     1
102
RTVSPropertyOp29
 70
     1
102
RTVSPropertyOp30
 70
     1
102
RTVSPropertyOp31
 70
     1
102
RTVSPropertyOp32
 70
     1
  0
XRECORD
  5
D8C
102
{ACAD_REACTORS
330
D8B
102
}
330
D8B
100
AcDbXrecord
280
     1
102
RTVSPropertyOp0
 70
     1
102
RTVSPropertyOp1
 70
     1
102
RTVSPropertyOp2
 70
     1
102
RTVSPropertyOp3
 70
     1
102
RTVSPropertyOp4
 70
     1
102
RTVSPropertyOp5
 70
     1
102
RTVSPropertyOp6
 70
     1
102
RTVSPropertyOp7
 70
     1
102
RTVSPropertyOp8
 70
     1
102
RTVSPropertyOp9
 70
     1
102
RTVSPropertyOp10
 70
     1
102
RTVSPropertyOp11
 70
     1
102
RTVSPropertyOp12
 70
     1
102
RTVSPropertyOp13
 70
     1
102
RTVSPropertyOp14
 70
     1
102
RTVSPropertyOp15
 70
     1
102
RTVSPropertyOp16
 70
     1
102
RTVSPropertyOp17
 70
     1
102
RTVSPropertyOp18
 70
     1
102
RTVSPropertyOp19
 70
     1
102
RTVSPropertyOp20
 70
     1
102
RTVSPropertyOp21
 70
     1
102
RTVSPropertyOp22
 70
     1
102
RTVSPropertyOp23
 70
     1
102
RTVSPropertyOp24
 70
     1
102
RTVSPropertyOp25
 70
     1
102
RTVSPropertyOp26
 70
     1
102
RTVSPropertyOp27
 70
     1
102
RTVSPropertyOp28
 70
     1
102
RTVSPropertyOp29
 70
     1
102
RTVSPropertyOp30
 70
     1
102
RTVSPropertyOp31
 70
     1
102
RTVSPropertyOp32
 70
     1
  0
XRECORD
  5
D9A
102
{ACAD_REACTORS
330
D99
102
}
330
D99
100
AcDbXrecord
280
     1
102
RTVSPropertyOp0
 70
     1
102
RTVSPropertyOp1
 70
     1
102
RTVSPropertyOp2
 70
     1
102
RTVSPropertyOp3
 70
     1
102
RTVSPropertyOp4
 70
     1
102
RTVSPropertyOp5
 70
     1
102
RTVSPropertyOp6
 70
     1
102
RTVSPropertyOp7
 70
     1
102
RTVSPropertyOp8
 70
     1
102
RTVSPropertyOp9
 70
     1
102
RTVSPropertyOp10
 70
     1
102
RTVSPropertyOp11
 70
     1
102
RTVSPropertyOp12
 70
     1
102
RTVSPropertyOp13
 70
     1
102
RTVSPropertyOp14
 70
     1
102
RTVSPropertyOp15
 70
     1
102
RTVSPropertyOp16
 70
     1
102
RTVSPropertyOp17
 70
     1
102
RTVSPropertyOp18
 70
     1
102
RTVSPropertyOp19
 70
     1
102
RTVSPropertyOp20
 70
     1
102
RTVSPropertyOp21
 70
     1
102
RTVSPropertyOp22
 70
     1
102
RTVSPropertyOp23
 70
     1
102
RTVSPropertyOp24
 70
     1
102
RTVSPropertyOp25
 70
     1
102
RTVSPropertyOp26
 70
     1
102
RTVSPropertyOp27
 70
     1
102
RTVSPropertyOp28
 70
     1
102
RTVSPropertyOp29
 70
     1
102
RTVSPropertyOp30
 70
     1
102
RTVSPropertyOp31
 70
     1
102
RTVSPropertyOp32
 70
     1
  0
XRECORD
  5
DA2
102
{ACAD_REACTORS
330
DA1
102
}
330
DA1
100
AcDbXrecord
280
     1
102
RTVSPropertyOp0
 70
     1
102
RTVSPropertyOp1
 70
     1
102
RTVSPropertyOp2
 70
     1
102
RTVSPropertyOp3
 70
     1
102
RTVSPropertyOp4
 70
     1
102
RTVSPropertyOp5
 70
     1
102
RTVSPropertyOp6
 70
     1
102
RTVSPropertyOp7
 70
     1
102
RTVSPropertyOp8
 70
     1
102
RTVSPropertyOp9
 70
     1
102
RTVSPropertyOp10
 70
     1
102
RTVSPropertyOp11
 70
     1
102
RTVSPropertyOp12
 70
     1
102
RTVSPropertyOp13
 70
     1
102
RTVSPropertyOp14
 70
     1
102
RTVSPropertyOp15
 70
     1
102
RTVSPropertyOp16
 70
     1
102
RTVSPropertyOp17
 70
     1
102
RTVSPropertyOp18
 70
     1
102
RTVSPropertyOp19
 70
     1
102
RTVSPropertyOp20
 70
     1
102
RTVSPropertyOp21
 70
     1
102
RTVSPropertyOp22
 70
     1
102
RTVSPropertyOp23
 70
     1
102
RTVSPropertyOp24
 70
     1
102
RTVSPropertyOp25
 70
     1
102
RTVSPropertyOp26
 70
     1
102
RTVSPropertyOp27
 70
     1
102
RTVSPropertyOp28
 70
     1
102
RTVSPropertyOp29
 70
     1
102
RTVSPropertyOp30
 70
     1
102
RTVSPropertyOp31
 70
     1
102
RTVSPropertyOp32
 70
     1
  0
XRECORD
  5
D94
102
{ACAD_REACTORS
330
D93
102
}
330
D93
100
AcDbXrecord
280
     1
102
RTVSPropertyOp0
 70
     1
102
RTVSPropertyOp1
 70
     1
102
RTVSPropertyOp2
 70
     1
102
RTVSPropertyOp3
 70
     1
102
RTVSPropertyOp4
 70
     1
102
RTVSPropertyOp5
 70
     1
102
RTVSPropertyOp6
 70
     1
102
RTVSPropertyOp7
 70
     1
102
RTVSPropertyOp8
 70
     1
102
RTVSPropertyOp9
 70
     1
102
RTVSPropertyOp10
 70
     1
102
RTVSPropertyOp11
 70
     1
102
RTVSPropertyOp12
 70
     1
102
RTVSPropertyOp13
 70
     1
102
RTVSPropertyOp14
 70
     1
102
RTVSPropertyOp15
 70
     1
102
RTVSPropertyOp16
 70
     1
102
RTVSPropertyOp17
 70
     1
102
RTVSPropertyOp18
 70
     1
102
RTVSPropertyOp19
 70
     1
102
RTVSPropertyOp20
 70
     1
102
RTVSPropertyOp21
 70
     1
102
RTVSPropertyOp22
 70
     1
102
RTVSPropertyOp23
 70
     1
102
RTVSPropertyOp24
 70
     1
102
RTVSPropertyOp25
 70
     1
102
RTVSPropertyOp26
 70
     1
102
RTVSPropertyOp27
 70
     1
102
RTVSPropertyOp28
 70
     1
102
RTVSPropertyOp29
 70
     1
102
RTVSPropertyOp30
 70
     1
102
RTVSPropertyOp31
 70
     1
102
RTVSPropertyOp32
 70
     1
  0
XRECORD
  5
D98
102
{ACAD_REACTORS
330
D97
102
}
330
D97
100
AcDbXrecord
280
     1
102
RTVSPropertyOp0
 70
     1
102
RTVSPropertyOp1
 70
     1
102
RTVSPropertyOp2
 70
     1
102
RTVSPropertyOp3
 70
     1
102
RTVSPropertyOp4
 70
     1
102
RTVSPropertyOp5
 70
     1
102
RTVSPropertyOp6
 70
     1
102
RTVSPropertyOp7
 70
     1
102
RTVSPropertyOp8
 70
     1
102
RTVSPropertyOp9
 70
     1
102
RTVSPropertyOp10
 70
     1
102
RTVSPropertyOp11
 70
     1
102
RTVSPropertyOp12
 70
     1
102
RTVSPropertyOp13
 70
     1
102
RTVSPropertyOp14
 70
     1
102
RTVSPropertyOp15
 70
     1
102
RTVSPropertyOp16
 70
     1
102
RTVSPropertyOp17
 70
     1
102
RTVSPropertyOp18
 70
     1
102
RTVSPropertyOp19
 70
     1
102
RTVSPropertyOp20
 70
     1
102
RTVSPropertyOp21
 70
     1
102
RTVSPropertyOp22
 70
     1
102
RTVSPropertyOp23
 70
     1
102
RTVSPropertyOp24
 70
     1
102
RTVSPropertyOp25
 70
     1
102
RTVSPropertyOp26
 70
     1
102
RTVSPropertyOp27
 70
     1
102
RTVSPropertyOp28
 70
     1
102
RTVSPropertyOp29
 70
     1
102
RTVSPropertyOp30
 70
     1
102
RTVSPropertyOp31
 70
     1
102
RTVSPropertyOp32
 70
     1
  0
XRECORD
  5
DB2
102
{ACAD_REACTORS
330
DB1
102
}
330
DB1
100
AcDbXrecord
280
     1
102
RTVSPropertyOp0
 70
     0
102
RTVSPropertyOp1
 70
     0
102
RTVSPropertyOp2
 70
     0
102
RTVSPropertyOp3
 70
     0
102
RTVSPropertyOp4
 70
     0
102
RTVSPropertyOp5
 70
     0
102
RTVSPropertyOp6
 70
     0
102
RTVSPropertyOp7
 70
     0
102
RTVSPropertyOp8
 70
     0
102
RTVSPropertyOp9
 70
     0
102
RTVSPropertyOp10
 70
     0
102
RTVSPropertyOp11
 70
     0
102
RTVSPropertyOp12
 70
     0
102
RTVSPropertyOp13
 70
     0
102
RTVSPropertyOp14
 70
     2
102
RTVSPropertyOp15
 70
     0
102
RTVSPropertyOp16
 70
     0
102
RTVSPropertyOp17
 70
     0
102
RTVSPropertyOp18
 70
     0
102
RTVSPropertyOp19
 70
     0
102
RTVSPropertyOp20
 70
     0
102
RTVSPropertyOp21
 70
     0
102
RTVSPropertyOp22
 70
     0
102
RTVSPropertyOp23
 70
     0
102
RTVSPropertyOp24
 70
     0
102
RTVSPropertyOp25
 70
     0
102
RTVSPropertyOp26
 70
     0
102
RTVSPropertyOp27
 70
     0
102
RTVSPropertyOp28
 70
     0
102
RTVSPropertyOp29
 70
     0
102
RTVSPropertyOp30
 70
     0
102
RTVSPropertyOp31
 70
     0
102
RTVSPropertyOp32
 70
     0
  0
XRECORD
  5
DA0
102
{ACAD_REACTORS
330
D9F
102
}
330
D9F
100
AcDbXrecord
280
     1
102
RTVSPropertyOp0
 70
     1
102
RTVSPropertyOp1
 70
     1
102
RTVSPropertyOp2
 70
     1
102
RTVSPropertyOp3
 70
     1
102
RTVSPropertyOp4
 70
     1
102
RTVSPropertyOp5
 70
     1
102
RTVSPropertyOp6
 70
     1
102
RTVSPropertyOp7
 70
     1
102
RTVSPropertyOp8
 70
     1
102
RTVSPropertyOp9
 70
     1
102
RTVSPropertyOp10
 70
     1
102
RTVSPropertyOp11
 70
     1
102
RTVSPropertyOp12
 70
     1
102
RTVSPropertyOp13
 70
     1
102
RTVSPropertyOp14
 70
     1
102
RTVSPropertyOp15
 70
     1
102
RTVSPropertyOp16
 70
     1
102
RTVSPropertyOp17
 70
     1
102
RTVSPropertyOp18
 70
     1
102
RTVSPropertyOp19
 70
     1
102
RTVSPropertyOp20
 70
     1
102
RTVSPropertyOp21
 70
     1
102
RTVSPropertyOp22
 70
     1
102
RTVSPropertyOp23
 70
     1
102
RTVSPropertyOp24
 70
     1
102
RTVSPropertyOp25
 70
     1
102
RTVSPropertyOp26
 70
     1
102
RTVSPropertyOp27
 70
     1
102
RTVSPropertyOp28
 70
     1
102
RTVSPropertyOp29
 70
     1
102
RTVSPropertyOp30
 70
     1
102
RTVSPropertyOp31
 70
     1
102
RTVSPropertyOp32
 70
     1
  0
XRECORD
  5
D84
102
{ACAD_REACTORS
330
D83
102
}
330
D83
100
AcDbXrecord
280
     1
102
RTVSPropertyOp0
 70
     1
102
RTVSPropertyOp1
 70
     1
102
RTVSPropertyOp2
 70
     1
102
RTVSPropertyOp3
 70
     1
102
RTVSPropertyOp4
 70
     1
102
RTVSPropertyOp5
 70
     1
102
RTVSPropertyOp6
 70
     1
102
RTVSPropertyOp7
 70
     1
102
RTVSPropertyOp8
 70
     1
102
RTVSPropertyOp9
 70
     1
102
RTVSPropertyOp10
 70
     1
102
RTVSPropertyOp11
 70
     1
102
RTVSPropertyOp12
 70
     1
102
RTVSPropertyOp13
 70
     1
102
RTVSPropertyOp14
 70
     1
102
RTVSPropertyOp15
 70
     1
102
RTVSPropertyOp16
 70
     1
102
RTVSPropertyOp17
 70
     1
102
RTVSPropertyOp18
 70
     1
102
RTVSPropertyOp19
 70
     1
102
RTVSPropertyOp20
 70
     1
102
RTVSPropertyOp21
 70
     1
102
RTVSPropertyOp22
 70
     1
102
RTVSPropertyOp23
 70
     1
102
RTVSPropertyOp24
 70
     1
102
RTVSPropertyOp25
 70
     1
102
RTVSPropertyOp26
 70
     1
102
RTVSPropertyOp27
 70
     1
102
RTVSPropertyOp28
 70
     1
102
RTVSPropertyOp29
 70
     1
102
RTVSPropertyOp30
 70
     1
102
RTVSPropertyOp31
 70
     1
102
RTVSPropertyOp32
 70
     1
  0
XRECORD
  5
D86
102
{ACAD_REACTORS
330
D85
102
}
330
D85
100
AcDbXrecord
280
     1
102
RTVSPropertyOp0
 70
     1
102
RTVSPropertyOp1
 70
     1
102
RTVSPropertyOp2
 70
     1
102
RTVSPropertyOp3
 70
     1
102
RTVSPropertyOp4
 70
     1
102
RTVSPropertyOp5
 70
     1
102
RTVSPropertyOp6
 70
     1
102
RTVSPropertyOp7
 70
     1
102
RTVSPropertyOp8
 70
     1
102
RTVSPropertyOp9
 70
     1
102
RTVSPropertyOp10
 70
     1
102
RTVSPropertyOp11
 70
     1
102
RTVSPropertyOp12
 70
     1
102
RTVSPropertyOp13
 70
     1
102
RTVSPropertyOp14
 70
     1
102
RTVSPropertyOp15
 70
     1
102
RTVSPropertyOp16
 70
     1
102
RTVSPropertyOp17
 70
     1
102
RTVSPropertyOp18
 70
     1
102
RTVSPropertyOp19
 70
     1
102
RTVSPropertyOp20
 70
     1
102
RTVSPropertyOp21
 70
     1
102
RTVSPropertyOp22
 70
     1
102
RTVSPropertyOp23
 70
     1
102
RTVSPropertyOp24
 70
     1
102
RTVSPropertyOp25
 70
     1
102
RTVSPropertyOp26
 70
     1
102
RTVSPropertyOp27
 70
     1
102
RTVSPropertyOp28
 70
     1
102
RTVSPropertyOp29
 70
     1
102
RTVSPropertyOp30
 70
     1
102
RTVSPropertyOp31
 70
     1
102
RTVSPropertyOp32
 70
     1
  0
XRECORD
  5
D88
102
{ACAD_REACTORS
330
D87
102
}
330
D87
100
AcDbXrecord
280
     1
102
RTVSPropertyOp0
 70
     1
102
RTVSPropertyOp1
 70
     1
102
RTVSPropertyOp2
 70
     1
102
RTVSPropertyOp3
 70
     1
102
RTVSPropertyOp4
 70
     1
102
RTVSPropertyOp5
 70
     1
102
RTVSPropertyOp6
 70
     1
102
RTVSPropertyOp7
 70
     1
102
RTVSPropertyOp8
 70
     1
102
RTVSPropertyOp9
 70
     1
102
RTVSPropertyOp10
 70
     1
102
RTVSPropertyOp11
 70
     1
102
RTVSPropertyOp12
 70
     1
102
RTVSPropertyOp13
 70
     1
102
RTVSPropertyOp14
 70
     1
102
RTVSPropertyOp15
 70
     1
102
RTVSPropertyOp16
 70
     1
102
RTVSPropertyOp17
 70
     1
102
RTVSPropertyOp18
 70
     1
102
RTVSPropertyOp19
 70
     1
102
RTVSPropertyOp20
 70
     1
102
RTVSPropertyOp21
 70
     1
102
RTVSPropertyOp22
 70
     1
102
RTVSPropertyOp23
 70
     1
102
RTVSPropertyOp24
 70
     1
102
RTVSPropertyOp25
 70
     1
102
RTVSPropertyOp26
 70
     1
102
RTVSPropertyOp27
 70
     1
102
RTVSPropertyOp28
 70
     1
102
RTVSPropertyOp29
 70
     1
102
RTVSPropertyOp30
 70
     1
102
RTVSPropertyOp31
 70
     1
102
RTVSPropertyOp32
 70
     1
  0
XRECORD
  5
D8A
102
{ACAD_REACTORS
330
D89
102
}
330
D89
100
AcDbXrecord
280
     1
102
RTVSPropertyOp0
 70
     1
102
RTVSPropertyOp1
 70
     1
102
RTVSPropertyOp2
 70
     1
102
RTVSPropertyOp3
 70
     1
102
RTVSPropertyOp4
 70
     1
102
RTVSPropertyOp5
 70
     1
102
RTVSPropertyOp6
 70
     1
102
RTVSPropertyOp7
 70
     1
102
RTVSPropertyOp8
 70
     1
102
RTVSPropertyOp9
 70
     1
102
RTVSPropertyOp10
 70
     1
102
RTVSPropertyOp11
 70
     1
102
RTVSPropertyOp12
 70
     1
102
RTVSPropertyOp13
 70
     1
102
RTVSPropertyOp14
 70
     1
102
RTVSPropertyOp15
 70
     1
102
RTVSPropertyOp16
 70
     1
102
RTVSPropertyOp17
 70
     1
102
RTVSPropertyOp18
 70
     1
102
RTVSPropertyOp19
 70
     1
102
RTVSPropertyOp20
 70
     1
102
RTVSPropertyOp21
 70
     1
102
RTVSPropertyOp22
 70
     1
102
RTVSPropertyOp23
 70
     1
102
RTVSPropertyOp24
 70
     1
102
RTVSPropertyOp25
 70
     1
102
RTVSPropertyOp26
 70
     1
102
RTVSPropertyOp27
 70
     1
102
RTVSPropertyOp28
 70
     1
102
RTVSPropertyOp29
 70
     1
102
RTVSPropertyOp30
 70
     1
102
RTVSPropertyOp31
 70
     1
102
RTVSPropertyOp32
 70
     1
  0
XRECORD
  5
D92
102
{ACAD_REACTORS
330
D91
102
}
330
D91
100
AcDbXrecord
280
     1
102
RTVSPropertyOp0
 70
     1
102
RTVSPropertyOp1
 70
     1
102
RTVSPropertyOp2
 70
     1
102
RTVSPropertyOp3
 70
     1
102
RTVSPropertyOp4
 70
     1
102
RTVSPropertyOp5
 70
     1
102
RTVSPropertyOp6
 70
     1
102
RTVSPropertyOp7
 70
     1
102
RTVSPropertyOp8
 70
     1
102
RTVSPropertyOp9
 70
     1
102
RTVSPropertyOp10
 70
     1
102
RTVSPropertyOp11
 70
     1
102
RTVSPropertyOp12
 70
     1
102
RTVSPropertyOp13
 70
     1
102
RTVSPropertyOp14
 70
     1
102
RTVSPropertyOp15
 70
     1
102
RTVSPropertyOp16
 70
     1
102
RTVSPropertyOp17
 70
     1
102
RTVSPropertyOp18
 70
     1
102
RTVSPropertyOp19
 70
     1
102
RTVSPropertyOp20
 70
     1
102
RTVSPropertyOp21
 70
     1
102
RTVSPropertyOp22
 70
     1
102
RTVSPropertyOp23
 70
     1
102
RTVSPropertyOp24
 70
     1
102
RTVSPropertyOp25
 70
     1
102
RTVSPropertyOp26
 70
     1
102
RTVSPropertyOp27
 70
     1
102
RTVSPropertyOp28
 70
     1
102
RTVSPropertyOp29
 70
     1
102
RTVSPropertyOp30
 70
     1
102
RTVSPropertyOp31
 70
     1
102
RTVSPropertyOp32
 70
     1
  0
XRECORD
  5
DAE
102
{ACAD_REACTORS
330
DAD
102
}
330
DAD
100
AcDbXrecord
280
     1
102
RTVSPropertyOp0
 70
     0
102
RTVSPropertyOp1
 70
     0
102
RTVSPropertyOp2
 70
     0
102
RTVSPropertyOp3
 70
     0
102
RTVSPropertyOp4
 70
     0
102
RTVSPropertyOp5
 70
     0
102
RTVSPropertyOp6
 70
     0
102
RTVSPropertyOp7
 70
     0
102
RTVSPropertyOp8
 70
     0
102
RTVSPropertyOp9
 70
     0
102
RTVSPropertyOp10
 70
     0
102
RTVSPropertyOp11
 70
     0
102
RTVSPropertyOp12
 70
     0
102
RTVSPropertyOp13
 70
     0
102
RTVSPropertyOp14
 70
     2
102
RTVSPropertyOp15
 70
     0
102
RTVSPropertyOp16
 70
     0
102
RTVSPropertyOp17
 70
     0
102
RTVSPropertyOp18
 70
     0
102
RTVSPropertyOp19
 70
     0
102
RTVSPropertyOp20
 70
     0
102
RTVSPropertyOp21
 70
     0
102
RTVSPropertyOp22
 70
     0
102
RTVSPropertyOp23
 70
     0
102
RTVSPropertyOp24
 70
     0
102
RTVSPropertyOp25
 70
     0
102
RTVSPropertyOp26
 70
     0
102
RTVSPropertyOp27
 70
     0
102
RTVSPropertyOp28
 70
     0
102
RTVSPropertyOp29
 70
     0
102
RTVSPropertyOp30
 70
     0
102
RTVSPropertyOp31
 70
     0
102
RTVSPropertyOp32
 70
     0
  0
XRECORD
  5
D9E
102
{ACAD_REACTORS
330
D9D
102
}
330
D9D
100
AcDbXrecord
280
     1
102
RTVSPropertyOp0
 70
     1
102
RTVSPropertyOp1
 70
     1
102
RTVSPropertyOp2
 70
     1
102
RTVSPropertyOp3
 70
     1
102
RTVSPropertyOp4
 70
     1
102
RTVSPropertyOp5
 70
     1
102
RTVSPropertyOp6
 70
     1
102
RTVSPropertyOp7
 70
     1
102
RTVSPropertyOp8
 70
     1
102
RTVSPropertyOp9
 70
     1
102
RTVSPropertyOp10
 70
     1
102
RTVSPropertyOp11
 70
     1
102
RTVSPropertyOp12
 70
     1
102
RTVSPropertyOp13
 70
     1
102
RTVSPropertyOp14
 70
     1
102
RTVSPropertyOp15
 70
     1
102
RTVSPropertyOp16
 70
     1
102
RTVSPropertyOp17
 70
     1
102
RTVSPropertyOp18
 70
     1
102
RTVSPropertyOp19
 70
     1
102
RTVSPropertyOp20
 70
     1
102
RTVSPropertyOp21
 70
     1
102
RTVSPropertyOp22
 70
     1
102
RTVSPropertyOp23
 70
     1
102
RTVSPropertyOp24
 70
     1
102
RTVSPropertyOp25
 70
     1
102
RTVSPropertyOp26
 70
     1
102
RTVSPropertyOp27
 70
     1
102
RTVSPropertyOp28
 70
     1
102
RTVSPropertyOp29
 70
     1
102
RTVSPropertyOp30
 70
     1
102
RTVSPropertyOp31
 70
     1
102
RTVSPropertyOp32
 70
     1
  0
XRECORD
  5
DB0
102
{ACAD_REACTORS
330
DAF
102
}
330
DAF
100
AcDbXrecord
280
     1
102
RTVSPropertyOp0
 70
     0
102
RTVSPropertyOp1
 70
     0
102
RTVSPropertyOp2
 70
     0
102
RTVSPropertyOp3
 70
     0
102
RTVSPropertyOp4
 70
     0
102
RTVSPropertyOp5
 70
     0
102
RTVSPropertyOp6
 70
     0
102
RTVSPropertyOp7
 70
     0
102
RTVSPropertyOp8
 70
     0
102
RTVSPropertyOp9
 70
     0
102
RTVSPropertyOp10
 70
     0
102
RTVSPropertyOp11
 70
     0
102
RTVSPropertyOp12
 70
     0
102
RTVSPropertyOp13
 70
     0
102
RTVSPropertyOp14
 70
     2
102
RTVSPropertyOp15
 70
     0
102
RTVSPropertyOp16
 70
     0
102
RTVSPropertyOp17
 70
     0
102
RTVSPropertyOp18
 70
     0
102
RTVSPropertyOp19
 70
     0
102
RTVSPropertyOp20
 70
     0
102
RTVSPropertyOp21
 70
     0
102
RTVSPropertyOp22
 70
     0
102
RTVSPropertyOp23
 70
     0
102
RTVSPropertyOp24
 70
     0
102
RTVSPropertyOp25
 70
     0
102
RTVSPropertyOp26
 70
     0
102
RTVSPropertyOp27
 70
     0
102
RTVSPropertyOp28
 70
     0
102
RTVSPropertyOp29
 70
     0
102
RTVSPropertyOp30
 70
     0
102
RTVSPropertyOp31
 70
     0
102
RTVSPropertyOp32
 70
     0
  0
XRECORD
  5
D96
102
{ACAD_REACTORS
330
D95
102
}
330
D95
100
AcDbXrecord
280
     1
102
RTVSPropertyOp0
 70
     1
102
RTVSPropertyOp1
 70
     1
102
RTVSPropertyOp2
 70
     1
102
RTVSPropertyOp3
 70
     1
102
RTVSPropertyOp4
 70
     1
102
RTVSPropertyOp5
 70
     1
102
RTVSPropertyOp6
 70
     1
102
RTVSPropertyOp7
 70
     1
102
RTVSPropertyOp8
 70
     1
102
RTVSPropertyOp9
 70
     1
102
RTVSPropertyOp10
 70
     1
102
RTVSPropertyOp11
 70
     1
102
RTVSPropertyOp12
 70
     1
102
RTVSPropertyOp13
 70
     1
102
RTVSPropertyOp14
 70
     1
102
RTVSPropertyOp15
 70
     1
102
RTVSPropertyOp16
 70
     1
102
RTVSPropertyOp17
 70
     1
102
RTVSPropertyOp18
 70
     1
102
RTVSPropertyOp19
 70
     1
102
RTVSPropertyOp20
 70
     1
102
RTVSPropertyOp21
 70
     1
102
RTVSPropertyOp22
 70
     1
102
RTVSPropertyOp23
 70
     1
102
RTVSPropertyOp24
 70
     1
102
RTVSPropertyOp25
 70
     1
102
RTVSPropertyOp26
 70
     1
102
RTVSPropertyOp27
 70
     1
102
RTVSPropertyOp28
 70
     1
102
RTVSPropertyOp29
 70
     1
102
RTVSPropertyOp30
 70
     1
102
RTVSPropertyOp31
 70
     1
102
RTVSPropertyOp32
 70
     1
  0
XRECORD
  5
DAC
102
{ACAD_REACTORS
330
DAB
102
}
330
DAB
100
AcDbXrecord
280
     1
102
RTVSPropertyOp0
 70
     1
102
RTVSPropertyOp1
 70
     1
102
RTVSPropertyOp2
 70
     1
102
RTVSPropertyOp3
 70
     1
102
RTVSPropertyOp4
 70
     1
102
RTVSPropertyOp5
 70
     1
102
RTVSPropertyOp6
 70
     1
102
RTVSPropertyOp7
 70
     1
102
RTVSPropertyOp8
 70
     1
102
RTVSPropertyOp9
 70
     1
102
RTVSPropertyOp10
 70
     1
102
RTVSPropertyOp11
 70
     1
102
RTVSPropertyOp12
 70
     1
102
RTVSPropertyOp13
 70
     1
102
RTVSPropertyOp14
 70
     1
102
RTVSPropertyOp15
 70
     1
102
RTVSPropertyOp16
 70
     1
102
RTVSPropertyOp17
 70
     1
102
RTVSPropertyOp18
 70
     1
102
RTVSPropertyOp19
 70
     1
102
RTVSPropertyOp20
 70
     1
102
RTVSPropertyOp21
 70
     1
102
RTVSPropertyOp22
 70
     1
102
RTVSPropertyOp23
 70
     1
102
RTVSPropertyOp24
 70
     1
102
RTVSPropertyOp25
 70
     1
102
RTVSPropertyOp26
 70
     1
102
RTVSPropertyOp27
 70
     1
102
RTVSPropertyOp28
 70
     1
102
RTVSPropertyOp29
 70
     1
102
RTVSPropertyOp30
 70
     1
102
RTVSPropertyOp31
 70
     1
102
RTVSPropertyOp32
 70
     1
  0
XRECORD
  5
DAA
102
{ACAD_REACTORS
330
DA9
102
}
330
DA9
100
AcDbXrecord
280
     1
102
RTVSPropertyOp0
 70
     1
102
RTVSPropertyOp1
 70
     1
102
RTVSPropertyOp2
 70
     1
102
RTVSPropertyOp3
 70
     1
102
RTVSPropertyOp4
 70
     1
102
RTVSPropertyOp5
 70
     1
102
RTVSPropertyOp6
 70
     1
102
RTVSPropertyOp7
 70
     1
102
RTVSPropertyOp8
 70
     1
102
RTVSPropertyOp9
 70
     1
102
RTVSPropertyOp10
 70
     1
102
RTVSPropertyOp11
 70
     1
102
RTVSPropertyOp12
 70
     1
102
RTVSPropertyOp13
 70
     1
102
RTVSPropertyOp14
 70
     1
102
RTVSPropertyOp15
 70
     1
102
RTVSPropertyOp16
 70
     1
102
RTVSPropertyOp17
 70
     1
102
RTVSPropertyOp18
 70
     1
102
RTVSPropertyOp19
 70
     1
102
RTVSPropertyOp20
 70
     1
102
RTVSPropertyOp21
 70
     1
102
RTVSPropertyOp22
 70
     1
102
RTVSPropertyOp23
 70
     1
102
RTVSPropertyOp24
 70
     1
102
RTVSPropertyOp25
 70
     1
102
RTVSPropertyOp26
 70
     1
102
RTVSPropertyOp27
 70
     1
102
RTVSPropertyOp28
 70
     1
102
RTVSPropertyOp29
 70
     1
102
RTVSPropertyOp30
 70
     1
102
RTVSPropertyOp31
 70
     1
102
RTVSPropertyOp32
 70
     1
  0
XRECORD
  5
DA4
102
{ACAD_REACTORS
330
DA3
102
}
330
DA3
100
AcDbXrecord
280
     1
102
RTVSPropertyOp0
 70
     1
102
RTVSPropertyOp1
 70
     1
102
RTVSPropertyOp2
 70
     1
102
RTVSPropertyOp3
 70
     1
102
RTVSPropertyOp4
 70
     1
102
RTVSPropertyOp5
 70
     1
102
RTVSPropertyOp6
 70
     1
102
RTVSPropertyOp7
 70
     1
102
RTVSPropertyOp8
 70
     1
102
RTVSPropertyOp9
 70
     1
102
RTVSPropertyOp10
 70
     1
102
RTVSPropertyOp11
 70
     1
102
RTVSPropertyOp12
 70
     1
102
RTVSPropertyOp13
 70
     1
102
RTVSPropertyOp14
 70
     1
102
RTVSPropertyOp15
 70
     1
102
RTVSPropertyOp16
 70
     1
102
RTVSPropertyOp17
 70
     1
102
RTVSPropertyOp18
 70
     1
102
RTVSPropertyOp19
 70
     1
102
RTVSPropertyOp20
 70
     1
102
RTVSPropertyOp21
 70
     1
102
RTVSPropertyOp22
 70
     1
102
RTVSPropertyOp23
 70
     1
102
RTVSPropertyOp24
 70
     1
102
RTVSPropertyOp25
 70
     1
102
RTVSPropertyOp26
 70
     1
102
RTVSPropertyOp27
 70
     1
102
RTVSPropertyOp28
 70
     1
102
RTVSPropertyOp29
 70
     1
102
RTVSPropertyOp30
 70
     1
102
RTVSPropertyOp31
 70
     1
102
RTVSPropertyOp32
 70
     1
  0
XRECORD
  5
DA6
102
{ACAD_REACTORS
330
DA5
102
}
330
DA5
100
AcDbXrecord
280
     1
102
RTVSPropertyOp0
 70
     1
102
RTVSPropertyOp1
 70
     1
102
RTVSPropertyOp2
 70
     1
102
RTVSPropertyOp3
 70
     1
102
RTVSPropertyOp4
 70
     1
102
RTVSPropertyOp5
 70
     1
102
RTVSPropertyOp6
 70
     1
102
RTVSPropertyOp7
 70
     1
102
RTVSPropertyOp8
 70
     1
102
RTVSPropertyOp9
 70
     1
102
RTVSPropertyOp10
 70
     1
102
RTVSPropertyOp11
 70
     1
102
RTVSPropertyOp12
 70
     1
102
RTVSPropertyOp13
 70
     1
102
RTVSPropertyOp14
 70
     1
102
RTVSPropertyOp15
 70
     1
102
RTVSPropertyOp16
 70
     1
102
RTVSPropertyOp17
 70
     1
102
RTVSPropertyOp18
 70
     1
102
RTVSPropertyOp19
 70
     1
102
RTVSPropertyOp20
 70
     1
102
RTVSPropertyOp21
 70
     1
102
RTVSPropertyOp22
 70
     1
102
RTVSPropertyOp23
 70
     1
102
RTVSPropertyOp24
 70
     1
102
RTVSPropertyOp25
 70
     1
102
RTVSPropertyOp26
 70
     1
102
RTVSPropertyOp27
 70
     1
102
RTVSPropertyOp28
 70
     1
102
RTVSPropertyOp29
 70
     1
102
RTVSPropertyOp30
 70
     1
102
RTVSPropertyOp31
 70
     1
102
RTVSPropertyOp32
 70
     1
  0
XRECORD
  5
D9C
102
{ACAD_REACTORS
330
D9B
102
}
330
D9B
100
AcDbXrecord
280
     1
102
RTVSPropertyOp0
 70
     1
102
RTVSPropertyOp1
 70
     1
102
RTVSPropertyOp2
 70
     1
102
RTVSPropertyOp3
 70
     1
102
RTVSPropertyOp4
 70
     1
102
RTVSPropertyOp5
 70
     1
102
RTVSPropertyOp6
 70
     1
102
RTVSPropertyOp7
 70
     1
102
RTVSPropertyOp8
 70
     1
102
RTVSPropertyOp9
 70
     1
102
RTVSPropertyOp10
 70
     1
102
RTVSPropertyOp11
 70
     1
102
RTVSPropertyOp12
 70
     1
102
RTVSPropertyOp13
 70
     1
102
RTVSPropertyOp14
 70
     1
102
RTVSPropertyOp15
 70
     1
102
RTVSPropertyOp16
 70
     1
102
RTVSPropertyOp17
 70
     1
102
RTVSPropertyOp18
 70
     1
102
RTVSPropertyOp19
 70
     1
102
RTVSPropertyOp20
 70
     1
102
RTVSPropertyOp21
 70
     1
102
RTVSPropertyOp22
 70
     1
102
RTVSPropertyOp23
 70
     1
102
RTVSPropertyOp24
 70
     1
102
RTVSPropertyOp25
 70
     1
102
RTVSPropertyOp26
 70
     1
102
RTVSPropertyOp27
 70
     1
102
RTVSPropertyOp28
 70
     1
102
RTVSPropertyOp29
 70
     1
102
RTVSPropertyOp30
 70
     1
102
RTVSPropertyOp31
 70
     1
102
RTVSPropertyOp32
 70
     1
  0
XRECORD
  5
D90
102
{ACAD_REACTORS
330
D8F
102
}
330
D8F
100
AcDbXrecord
280
     1
102
RTVSPropertyOp0
 70
     1
102
RTVSPropertyOp1
 70
     1
102
RTVSPropertyOp2
 70
     1
102
RTVSPropertyOp3
 70
     1
102
RTVSPropertyOp4
 70
     1
102
RTVSPropertyOp5
 70
     1
102
RTVSPropertyOp6
 70
     1
102
RTVSPropertyOp7
 70
     1
102
RTVSPropertyOp8
 70
     1
102
RTVSPropertyOp9
 70
     1
102
RTVSPropertyOp10
 70
     1
102
RTVSPropertyOp11
 70
     1
102
RTVSPropertyOp12
 70
     1
102
RTVSPropertyOp13
 70
     1
102
RTVSPropertyOp14
 70
     1
102
RTVSPropertyOp15
 70
     1
102
RTVSPropertyOp16
 70
     1
102
RTVSPropertyOp17
 70
     1
102
RTVSPropertyOp18
 70
     1
102
RTVSPropertyOp19
 70
     1
102
RTVSPropertyOp20
 70
     1
102
RTVSPropertyOp21
 70
     1
102
RTVSPropertyOp22
 70
     1
102
RTVSPropertyOp23
 70
     1
102
RTVSPropertyOp24
 70
     1
102
RTVSPropertyOp25
 70
     1
102
RTVSPropertyOp26
 70
     1
102
RTVSPropertyOp27
 70
     1
102
RTVSPropertyOp28
 70
     1
102
RTVSPropertyOp29
 70
     1
102
RTVSPropertyOp30
 70
     1
102
RTVSPropertyOp31
 70
     1
102
RTVSPropertyOp32
 70
     1
  0
XRECORD
  5
DA8
102
{ACAD_REACTORS
330
DA7
102
}
330
DA7
100
AcDbXrecord
280
     1
102
RTVSPropertyOp0
 70
     1
102
RTVSPropertyOp1
 70
     1
102
RTVSPropertyOp2
 70
     1
102
RTVSPropertyOp3
 70
     1
102
RTVSPropertyOp4
 70
     1
102
RTVSPropertyOp5
 70
     1
102
RTVSPropertyOp6
 70
     1
102
RTVSPropertyOp7
 70
     1
102
RTVSPropertyOp8
 70
     1
102
RTVSPropertyOp9
 70
     1
102
RTVSPropertyOp10
 70
     1
102
RTVSPropertyOp11
 70
     1
102
RTVSPropertyOp12
 70
     1
102
RTVSPropertyOp13
 70
     1
102
RTVSPropertyOp14
 70
     1
102
RTVSPropertyOp15
 70
     1
102
RTVSPropertyOp16
 70
     1
102
RTVSPropertyOp17
 70
     1
102
RTVSPropertyOp18
 70
     1
102
RTVSPropertyOp19
 70
     1
102
RTVSPropertyOp20
 70
     1
102
RTVSPropertyOp21
 70
     1
102
RTVSPropertyOp22
 70
     1
102
RTVSPropertyOp23
 70
     1
102
RTVSPropertyOp24
 70
     1
102
RTVSPropertyOp25
 70
     1
102
RTVSPropertyOp26
 70
     1
102
RTVSPropertyOp27
 70
     1
102
RTVSPropertyOp28
 70
     1
102
RTVSPropertyOp29
 70
     1
102
RTVSPropertyOp30
 70
     1
102
RTVSPropertyOp31
 70
     1
102
RTVSPropertyOp32
 70
     1
  0
ENDSEC
  0
EOF
