  0
SECTION
  2
HEADER
  9
$ACADVER
  1
AC1015
  9
$ACADMAINTVER
 70
    20
  9
$DWGCODEPAGE
  3
ANSI_1250
  9
$INSBASE
 10
0.0
 20
0.0
 30
0.0
  9
$EXTMIN
 10
-15687.36095732111
 20
1763.168241752444
 30
0.0
  9
$EXTMAX
 10
14917.03575828544
 20
14845.30319424307
 30
0.0
  9
$LIMMIN
 10
0.0
 20
0.0
  9
$LIMMAX
 10
14850.0
 20
10500.0
  9
$ORTHOMODE
 70
     0
  9
$REGENMODE
 70
     1
  9
$FILLMODE
 70
     1
  9
$QTEXTMODE
 70
     0
  9
$MIRRTEXT
 70
     0
  9
$LTSCALE
 40
50.0
  9
$ATTMODE
 70
     1
  9
$TEXTSIZE
 40
0.2
  9
$TRACEWID
 40
0.05
  9
$TEXTSTYLE
  7
Standard
  9
$CLAYER
  8
0
  9
$CELTYPE
  6
ByLayer
  9
$CECOLOR
 62
   256
  9
$CELTSCALE
 40
1.0
  9
$DISPSILH
 70
     0
  9
$DIMSCALE
 40
1.0
  9
$DIMASZ
 40
1.799999999999999
  9
$DIMEXO
 40
0.0625
  9
$DIMDLI
 40
0.38
  9
$DIMRND
 40
0.0
  9
$DIMDLE
 40
0.0
  9
$DIMEXE
 40
0.18
  9
$DIMTP
 40
0.0
  9
$DIMTM
 40
0.0
  9
$DIMTXT
 40
0.25
  9
$DIMCEN
 40
0.09
  9
$DIMTSZ
 40
0.0
  9
$DIMTOL
 70
     0
  9
$DIMLIM
 70
     0
  9
$DIMTIH
 70
     1
  9
$DIMTOH
 70
     1
  9
$DIMSE1
 70
     0
  9
$DIMSE2
 70
     0
  9
$DIMTAD
 70
     0
  9
$DIMZIN
 70
     0
  9
$DIMBLK
  1

  9
$DIMASO
 70
     1
  9
$DIMSHO
 70
     1
  9
$DIMPOST
  1

  9
$DIMAPOST
  1

  9
$DIMALT
 70
     0
  9
$DIMALTD
 70
     2
  9
$DIMALTF
 40
25.4
  9
$DIMLFAC
 40
1.0
  9
$DIMTOFL
 70
     0
  9
$DIMTVP
 40
0.0
  9
$DIMTIX
 70
     0
  9
$DIMSOXD
 70
     0
  9
$DIMSAH
 70
     0
  9
$DIMBLK1
  1

  9
$DIMBLK2
  1

  9
$DIMSTYLE
  2
Standard
  9
$DIMCLRD
 70
     0
  9
$DIMCLRE
 70
     0
  9
$DIMCLRT
 70
     0
  9
$DIMTFAC
 40
1.0
  9
$DIMGAP
 40
0.09
  9
$DIMJUST
 70
     0
  9
$DIMSD1
 70
     0
  9
$DIMSD2
 70
     0
  9
$DIMTOLJ
 70
     1
  9
$DIMTZIN
 70
     0
  9
$DIMALTZ
 70
     0
  9
$DIMALTTZ
 70
     0
  9
$DIMUPT
 70
     0
  9
$DIMDEC
 70
     4
  9
$DIMTDEC
 70
     4
  9
$DIMALTU
 70
     2
  9
$DIMALTTD
 70
     2
  9
$DIMTXSTY
  7
Standard
  9
$DIMAUNIT
 70
     0
  9
$DIMADEC
 70
     0
  9
$DIMALTRND
 40
0.0
  9
$DIMAZIN
 70
     0
  9
$DIMDSEP
 70
    46
  9
$DIMATFIT
 70
     3
  9
$DIMFRAC
 70
     0
  9
$DIMLDRBLK
  1

  9
$DIMLUNIT
 70
     2
  9
$DIMLWD
 70
    -2
  9
$DIMLWE
 70
    -2
  9
$DIMTMOVE
 70
     0
  9
$LUNITS
 70
     2
  9
$LUPREC
 70
     4
  9
$SKETCHINC
 40
0.1
  9
$FILLETRAD
 40
0.0
  9
$AUNITS
 70
     0
  9
$AUPREC
 70
     0
  9
$MENU
  1
.
  9
$ELEVATION
 40
0.0
  9
$PELEVATION
 40
0.0
  9
$THICKNESS
 40
0.0
  9
$LIMCHECK
 70
     0
  9
$CHAMFERA
 40
0.0
  9
$CHAMFERB
 40
0.0
  9
$CHAMFERC
 40
0.0
  9
$CHAMFERD
 40
0.0
  9
$SKPOLY
 70
     0
  9
$TDCREATE
 40
2457239.469853472
  9
$TDUCREATE
 40
2457239.386520139
  9
$TDUPDATE
 40
2458619.606164768
  9
$TDUUPDATE
 40
2458619.522831436
  9
$TDINDWG
 40
0.0021943403
  9
$TDUSRTIMER
 40
0.0021943403
  9
$USRTIMER
 70
     1
  9
$ANGBASE
 50
0.0
  9
$ANGDIR
 70
     0
  9
$PDMODE
 70
     0
  9
$PDSIZE
 40
0.0
  9
$PLINEWID
 40
0.0
  9
$SPLFRAME
 70
     0
  9
$SPLINETYPE
 70
     6
  9
$SPLINESEGS
 70
     8
  9
$HANDSEED
  5
1075
  9
$SURFTAB1
 70
     6
  9
$SURFTAB2
 70
     6
  9
$SURFTYPE
 70
     6
  9
$SURFU
 70
     6
  9
$SURFV
 70
     6
  9
$UCSBASE
  2

  9
$UCSNAME
  2

  9
$UCSORG
 10
0.0
 20
0.0
 30
0.0
  9
$UCSXDIR
 10
1.0
 20
0.0
 30
0.0
  9
$UCSYDIR
 10
0.0
 20
1.0
 30
0.0
  9
$UCSORTHOREF
  2

  9
$UCSORTHOVIEW
 70
     0
  9
$UCSORGTOP
 10
0.0
 20
0.0
 30
0.0
  9
$UCSORGBOTTOM
 10
0.0
 20
0.0
 30
0.0
  9
$UCSORGLEFT
 10
0.0
 20
0.0
 30
0.0
  9
$UCSORGRIGHT
 10
0.0
 20
0.0
 30
0.0
  9
$UCSORGFRONT
 10
0.0
 20
0.0
 30
0.0
  9
$UCSORGBACK
 10
0.0
 20
0.0
 30
0.0
  9
$PUCSBASE
  2

  9
$PUCSNAME
  2

  9
$PUCSORG
 10
0.0
 20
0.0
 30
0.0
  9
$PUCSXDIR
 10
1.0
 20
0.0
 30
0.0
  9
$PUCSYDIR
 10
0.0
 20
1.0
 30
0.0
  9
$PUCSORTHOREF
  2

  9
$PUCSORTHOVIEW
 70
     0
  9
$PUCSORGTOP
 10
0.0
 20
0.0
 30
0.0
  9
$PUCSORGBOTTOM
 10
0.0
 20
0.0
 30
0.0
  9
$PUCSORGLEFT
 10
0.0
 20
0.0
 30
0.0
  9
$PUCSORGRIGHT
 10
0.0
 20
0.0
 30
0.0
  9
$PUCSORGFRONT
 10
0.0
 20
0.0
 30
0.0
  9
$PUCSORGBACK
 10
0.0
 20
0.0
 30
0.0
  9
$USERI1
 70
     0
  9
$USERI2
 70
     0
  9
$USERI3
 70
     0
  9
$USERI4
 70
     0
  9
$USERI5
 70
     0
  9
$USERR1
 40
0.0
  9
$USERR2
 40
0.0
  9
$USERR3
 40
0.0
  9
$USERR4
 40
0.0
  9
$USERR5
 40
0.0
  9
$WORLDVIEW
 70
     1
  9
$SHADEDGE
 70
     3
  9
$SHADEDIF
 70
    70
  9
$TILEMODE
 70
     1
  9
$MAXACTVP
 70
    64
  9
$PINSBASE
 10
0.0
 20
0.0
 30
0.0
  9
$PLIMCHECK
 70
     0
  9
$PEXTMIN
 10
0.0
 20
0.0
 30
0.0
  9
$PEXTMAX
 10
14850.0
 20
10500.0
 30
0.0
  9
$PLIMMIN
 10
0.0
 20
0.0
  9
$PLIMMAX
 10
14850.0
 20
10500.0
  9
$UNITMODE
 70
     0
  9
$VISRETAIN
 70
     1
  9
$PLINEGEN
 70
     0
  9
$PSLTSCALE
 70
     1
  9
$TREEDEPTH
 70
  3020
  9
$CMLSTYLE
  2
Standard
  9
$CMLJUST
 70
     0
  9
$CMLSCALE
 40
1.0
  9
$PROXYGRAPHICS
 70
     1
  9
$MEASUREMENT
 70
     1
  9
$CELWEIGHT
370
    -1
  9
$ENDCAPS
280
     0
  9
$JOINSTYLE
280
     0
  9
$LWDISPLAY
290
     0
  9
$INSUNITS
 70
     4
  9
$HYPERLINKBASE
  1

  9
$STYLESHEET
  1

  9
$XEDIT
290
     1
  9
$CEPSNTYPE
380
     0
  9
$PSTYLEMODE
290
     1
  9
$FINGERPRINTGUID
  2
{D439F782-8379-4817-8963-807A29376593}
  9
$VERSIONGUID
  2
{41652833-FDC0-42FE-9859-0D0DB597D6C9}
  9
$EXTNAMES
290
     1
  9
$PSVPSCALE
 40
0.0
  9
$OLESTARTUP
290
     0
  0
ENDSEC
  0
SECTION
  2
CLASSES
  0
CLASS
  1
ACDBDICTIONARYWDFLT
  2
AcDbDictionaryWithDefault
  3
ObjectDBX Classes
 90
        0
280
     0
281
     0
  0
CLASS
  1
MATERIAL
  2
AcDbMaterial
  3
ObjectDBX Classes
 90
     1153
280
     0
281
     0
  0
CLASS
  1
VISUALSTYLE
  2
AcDbVisualStyle
  3
ObjectDBX Classes
 90
     4095
280
     0
281
     0
  0
CLASS
  1
SCALE
  2
AcDbScale
  3
ObjectDBX Classes
 90
     1153
280
     0
281
     0
  0
CLASS
  1
TABLESTYLE
  2
AcDbTableStyle
  3
ObjectDBX Classes
 90
     4095
280
     0
281
     0
  0
CLASS
  1
MLEADERSTYLE
  2
AcDbMLeaderStyle
  3
ACDB_MLEADERSTYLE_CLASS
 90
     4095
280
     0
281
     0
  0
CLASS
  1
DICTIONARYVAR
  2
AcDbDictionaryVar
  3
ObjectDBX Classes
 90
        0
280
     0
281
     0
  0
CLASS
  1
EXACXREFPANELOBJECT
  2
ExAcXREFPanelObject
  3
EXAC_ESW
 90
     1025
280
     0
281
     0
  0
CLASS
  1
NPOCOLLECTION
  2
AcDbImpNonPersistentObjectsCollection
  3
ObjectDBX Classes
 90
     1153
280
     0
281
     0
  0
CLASS
  1
ACDBASSOCNETWORK
  2
AcDbAssocNetwork
  3
ObjectDBX Classes
 90
     1025
280
     0
281
     0
  0
CLASS
  1
ACDBASSOC2DCONSTRAINTGROUP
  2
AcDbAssoc2dConstraintGroup
  3
ObjectDBX Classes
 90
     1025
280
     0
281
     0
  0
CLASS
  1
ACDBASSOCGEOMDEPENDENCY
  2
AcDbAssocGeomDependency
  3
ObjectDBX Classes
 90
     1025
280
     0
281
     0
  0
CLASS
  1
CELLSTYLEMAP
  2
AcDbCellStyleMap
  3
ObjectDBX Classes
 90
     1152
280
     0
281
     0
  0
CLASS
  1
ACDBPLACEHOLDER
  2
AcDbPlaceHolder
  3
ObjectDBX Classes
 90
        0
280
     0
281
     0
  0
CLASS
  1
LAYOUT
  2
AcDbLayout
  3
ObjectDBX Classes
 90
        0
280
     0
281
     0
  0
ENDSEC
  0
SECTION
  2
TABLES
  0
TABLE
  2
VPORT
  5
8
330
0
100
AcDbSymbolTable
 70
     1
  0
VPORT
  5
57
330
8
100
AcDbSymbolTableRecord
100
AcDbViewportTableRecord
  2
*Active
 70
     0
 10
0.0
 20
0.0
 11
1.0
 21
1.0
 12
-10705.57252722099
 22
6304.431143747537
 13
0.0
 23
0.0
 14
1.0
 24
1.0
 15
0.0
 25
0.0
 16
0.0
 26
0.0
 36
1.0
 17
0.0
 27
0.0
 37
0.0
 40
11387.41967771631
 41
2.430203045685279
 42
50.0
 43
0.0
 44
0.0
 50
0.0
 51
0.0
 71
     0
 72
   100
 73
     1
 74
     1
 75
     0
 76
     0
 77
     0
 78
     0
281
     0
 65
     1
110
0.0
120
0.0
130
0.0
111
1.0
121
0.0
131
0.0
112
0.0
122
1.0
132
0.0
 79
     0
146
0.0
  0
ENDTAB
  0
TABLE
  2
LTYPE
  5
5
330
0
100
AcDbSymbolTable
 70
    60
  0
LTYPE
  5
5B
330
5
100
AcDbSymbolTableRecord
100
AcDbLinetypeTableRecord
  2
ByBlock
 70
     0
  3

 72
    65
 73
     0
 40
0.0
  0
LTYPE
  5
5C
330
5
100
AcDbSymbolTableRecord
100
AcDbLinetypeTableRecord
  2
ByLayer
 70
     0
  3

 72
    65
 73
     0
 40
0.0
  0
LTYPE
  5
5D
330
5
100
AcDbSymbolTableRecord
100
AcDbLinetypeTableRecord
  2
Continuous
 70
     0
  3
Solid line
 72
    65
 73
     0
 40
0.0
  0
ENDTAB
  0
TABLE
  2
LAYER
  5
2
102
{ACAD_XDICTIONARY
360
A59
102
}
330
0
100
AcDbSymbolTable
 70
     9
  0
LAYER
  5
54
330
2
100
AcDbSymbolTableRecord
100
AcDbLayerTableRecord
  2
0
 70
     0
 62
     7
  6
Continuous
370
    -3
390
F
  0
LAYER
  5
B9
330
2
100
AcDbSymbolTableRecord
100
AcDbLayerTableRecord
  2
Dimension (ISO)
 70
     0
 62
   161
  6
Continuous
370
    18
390
F
  0
LAYER
  5
C6
330
2
100
AcDbSymbolTableRecord
100
AcDbLayerTableRecord
  2
Visible (ISO)
 70
     0
 62
     7
  6
Continuous
370
    30
390
F
  0
LAYER
  5
C7
330
2
100
AcDbSymbolTableRecord
100
AcDbLayerTableRecord
  2
Visible Narrow (ISO)
 70
     0
 62
     7
  6
Continuous
370
    15
390
F
  0
LAYER
  5
39F
330
2
100
AcDbSymbolTableRecord
100
AcDbLayerTableRecord
  2
Defpoints
 70
     0
 62
     7
  6
Continuous
290
     0
370
    -3
390
F
  0
ENDTAB
  0
TABLE
  2
STYLE
  5
3
330
0
100
AcDbSymbolTable
 70
     7
  0
STYLE
  5
55
330
3
100
AcDbSymbolTableRecord
100
AcDbTextStyleTableRecord
  2
Standard
 70
     0
 40
0.0
 41
1.0
 50
0.0
 71
     0
 42
0.2
  3
tahoma.ttf
  4

1001
ACAD
1000
Tahoma
1071
      256
  0
STYLE
  5
CB
330
3
100
AcDbSymbolTableRecord
100
AcDbTextStyleTableRecord
  2
Label Text (ISO)
 70
     0
 40
0.0
 41
1.0
 50
0.0
 71
     0
 42
0.2
  3
tahoma.ttf
  4

1001
ACAD
1000
Tahoma
1071
      256
  0
ENDTAB
  0
TABLE
  2
VIEW
  5
6
330
0
100
AcDbSymbolTable
 70
     0
  0
ENDTAB
  0
TABLE
  2
UCS
  5
7
330
0
100
AcDbSymbolTable
 70
     0
  0
ENDTAB
  0
TABLE
  2
APPID
  5
9
330
0
100
AcDbSymbolTable
 70
     5
  0
APPID
  5
56
330
9
100
AcDbSymbolTableRecord
100
AcDbRegAppTableRecord
  2
ACAD
 70
     0
  0
APPID
  5
5E
330
9
100
AcDbSymbolTableRecord
100
AcDbRegAppTableRecord
  2
AcadAnnotative
 70
     0
  0
APPID
  5
14C
330
9
100
AcDbSymbolTableRecord
100
AcDbRegAppTableRecord
  2
AcadAnnoPO
 70
     0
  0
APPID
  5
A53
330
9
100
AcDbSymbolTableRecord
100
AcDbRegAppTableRecord
  2
ACAD_EXEMPT_FROM_CAD_STANDARDS
 70
     0
  0
APPID
  5
106D
330
9
100
AcDbSymbolTableRecord
100
AcDbRegAppTableRecord
  2
ACAD_MLEADERVER
 70
     0
  0
ENDTAB
  0
TABLE
  2
DIMSTYLE
  5
A
330
0
100
AcDbSymbolTable
 70
    13
100
AcDbDimStyleTable
 71
     2
340
58
340
D2
  0
DIMSTYLE
105
58
330
A
100
AcDbSymbolTableRecord
100
AcDbDimStyleTableRecord
  2
Standard
 70
     0
340
55
  0
DIMSTYLE
105
D2
102
{ACAD_REACTORS
330
735
330
81D
330
E97
330
E98
330
E99
330
E9A
102
}
330
A
100
AcDbSymbolTableRecord
100
AcDbDimStyleTableRecord
  2
Default (ISO)
 70
     0
 40
50.0
 41
2.5
 42
0.5
 43
5.999999999999999
 44
1.0
 45
0.00000001
 46
10.0
 73
     0
 77
     1
 78
     8
 79
     2
140
3.5
143
0.03937
146
0.7142857313156128
147
0.762
171
     3
172
     1
176
   256
177
   256
178
   256
271
     2
272
     3
274
     3
278
    44
340
CB
371
    -1
372
    -1
  0
ENDTAB
  0
TABLE
  2
BLOCK_RECORD
  5
1
330
0
100
AcDbSymbolTable
 70
    33
  0
BLOCK_RECORD
  5
6C
102
{ACAD_XDICTIONARY
360
F4E
102
}
330
1
100
AcDbSymbolTableRecord
100
AcDbBlockTableRecord
  2
*Model_Space
340
6F
  0
BLOCK_RECORD
  5
68
330
1
100
AcDbSymbolTableRecord
100
AcDbBlockTableRecord
  2
*Paper_Space
340
6B
  0
BLOCK_RECORD
  5
70
330
1
100
AcDbSymbolTableRecord
100
AcDbBlockTableRecord
  2
*Paper_Space0
340
73
  0
BLOCK_RECORD
  5
736
330
1
100
AcDbSymbolTableRecord
100
AcDbBlockTableRecord
  2
*D12
340
0
  0
BLOCK_RECORD
  5
81E
330
1
100
AcDbSymbolTableRecord
100
AcDbBlockTableRecord
  2
*D13
340
0
  0
BLOCK_RECORD
  5
96D
330
1
100
AcDbSymbolTableRecord
100
AcDbBlockTableRecord
  2
88140 Przejście strazackie
340
0
310
2800000020000000200000000100080000000000000400000000000000000000000000000000000000000000000080000080000000808000800000008000800080800000C0C0C000C0DCC000F0CAA6000020400000206000002080000020A0000020C0000020E00000400000004020000040400000406000004080000040A0
310
000040C0000040E00000600000006020000060400000606000006080000060A0000060C0000060E00000800000008020000080400000806000008080000080A0000080C0000080E00000A0000000A0200000A0400000A0600000A0800000A0A00000A0C00000A0E00000C0000000C0200000C0400000C0600000C0800000C0
310
A00000C0C00000C0E00000E0000000E0200000E0400000E0600000E0800000E0A00000E0C00000E0E00040000000400020004000400040006000400080004000A0004000C0004000E00040200000402020004020400040206000402080004020A0004020C0004020E000404000004040200040404000404060004040800040
310
40A0004040C0004040E00040600000406020004060400040606000406080004060A0004060C0004060E00040800000408020004080400040806000408080004080A0004080C0004080E00040A0000040A0200040A0400040A0600040A0800040A0A00040A0C00040A0E00040C0000040C0200040C0400040C0600040C08000
310
40C0A00040C0C00040C0E00040E0000040E0200040E0400040E0600040E0800040E0A00040E0C00040E0E00080000000800020008000400080006000800080008000A0008000C0008000E00080200000802020008020400080206000802080008020A0008020C0008020E00080400000804020008040400080406000804080
310
008040A0008040C0008040E00080600000806020008060400080606000806080008060A0008060C0008060E00080800000808020008080400080806000808080008080A0008080C0008080E00080A0000080A0200080A0400080A0600080A0800080A0A00080A0C00080A0E00080C0000080C0200080C0400080C0600080C0
310
800080C0A00080C0C00080C0E00080E0000080E0200080E0400080E0600080E0800080E0A00080E0C00080E0E000C0000000C0002000C0004000C0006000C0008000C000A000C000C000C000E000C0200000C0202000C0204000C0206000C0208000C020A000C020C000C020E000C0400000C0402000C0404000C0406000C0
310
408000C040A000C040C000C040E000C0600000C0602000C0604000C0606000C0608000C060A000C060C000C060E000C0800000C0802000C0804000C0806000C0808000C080A000C080C000C080E000C0A00000C0A02000C0A04000C0A06000C0A08000C0A0A000C0A0C000C0A0E000C0C00000C0C02000C0C04000C0C06000
310
C0C08000C0C0A000F0FBFF00A4A0A000808080000000FF0000FF000000FFFF00FF000000FF00FF00FFFF0000FFFFFF0049494949494949494949494949494949494949494949494949494949494949494949494949494949494949494949494949494949494949494949494949494949494949494949494949494949494949
310
494949494949494949494949494949494949494949494949494949494949494949494949494949494949494949494949494949494949494949494949494949494949494949494949494949494949494949494949494949494949494949494949494949494949494949494949494949494949494949494949FFFFFFFFFFFFFF
310
FFFFFFFFFFFFFFFFFFFFFF4949494949494949494949FFFFFF494949494949494949494949494949494949FFFFFF4949494949494949FF4949494949494949494949494949494949494949494949FF494949494949FF494949494949494949494949494949494949494949494949FF494949494949FF494949494949494949
310
494949494949494949494949494949FF4949494949FF4949494949494949494949494949494949494949494949494949FF49494949FF4949494949494949494949494949494949494949494949494949FF49494949FF494949494949494949494949494949494949494949494949494949FF4949FF49494949494949494949
310
49FFFFFFFFFFFF4949494949494949494949FF4949FF4949494949494949FFFFFFFFFFFFFFFFFFFFFFFF4949494949494949FF4949FF4949494949494949FFFFFFFFFFFFFFFFFFFFFFFF4949494949494949FF4949FF494949494949494949FFFFFF49FFFF49FFFFFF494949494949494949FF494949FF4949494949494949
310
49494949494949494949494949494949494949FF494949FF4949494949494949494949494949494949494949494949494949FF49494949FF4949494949494949494949494949494949494949494949494949FF4949494949FF494949494949494949494949494949494949494949494949FF494949494949FF494949494949
310
494949494949494949494949494949494949FF49494949494949FF4949494949494949494949494949494949494949494949FF49494949494949FFFFFF494949494949494949494949494949494949FFFFFF4949494949494949494949FFFFFFFFFFFFFFFFFFFFFFFFFFFFFFFFFFFF49494949494949494949494949494949
310
49494949494949494949494949494949494949494949494949494949494949494949494949494949494949494949494949494949494949494949494949494949494949494949494949494949494949494949494949494949494949494949494949494949494949494949494949494949494949494949494949494949494949
310
4949494949494949494949494949494949494949494949494949494949494949494949494949494949494949494949494949494949494949
102
{BLKREFS
331
102B
102
}
1001
ACAD
1000
DesignCenter Data
1002
{
1070
     1
1070
     4
1002
}
  0
BLOCK_RECORD
  5
E9F
330
1
100
AcDbSymbolTableRecord
100
AcDbBlockTableRecord
  2
*D24
340
0
  0
BLOCK_RECORD
  5
EAB
330
1
100
AcDbSymbolTableRecord
100
AcDbBlockTableRecord
  2
*D25
340
0
  0
BLOCK_RECORD
  5
EB7
330
1
100
AcDbSymbolTableRecord
100
AcDbBlockTableRecord
  2
*D26
340
0
  0
BLOCK_RECORD
  5
EC3
330
1
100
AcDbSymbolTableRecord
100
AcDbBlockTableRecord
  2
*D27
340
0
  0
ENDTAB
  0
ENDSEC
  0
SECTION
  2
BLOCKS
  0
BLOCK
  5
6D
330
6C
100
AcDbEntity
  8
0
100
AcDbBlockBegin
  2
*Model_Space
 70
     0
 10
0.0
 20
0.0
 30
0.0
  3
*Model_Space
  1

  0
ENDBLK
  5
6E
330
6C
100
AcDbEntity
  8
0
100
AcDbBlockEnd
  0
BLOCK
  5
69
330
68
100
AcDbEntity
 67
     1
  8
0
100
AcDbBlockBegin
  2
*Paper_Space
 70
     0
 10
0.0
 20
0.0
 30
0.0
  3
*Paper_Space
  1

  0
ENDBLK
  5
6A
330
68
100
AcDbEntity
 67
     1
  8
0
100
AcDbBlockEnd
  0
BLOCK
  5
71
330
70
100
AcDbEntity
 67
     1
  8
0
100
AcDbBlockBegin
  2
*Paper_Space0
 70
     0
 10
0.0
 20
0.0
 30
0.0
  3
*Paper_Space0
  1

  0
ENDBLK
  5
72
330
70
100
AcDbEntity
 67
     1
  8
0
100
AcDbBlockEnd
  0
BLOCK
  5
737
330
736
100
AcDbEntity
  8
0
100
AcDbBlockBegin
  2
*D12
 70
     1
 10
0.0
 20
0.0
 30
0.0
  3
*D12
  1

  0
LINE
  5
814
330
736
100
AcDbEntity
  8
Dimension (ISO)
100
AcDbLine
 10
-13662.60783816303
 20
11171.17424823158
 30
0.0
 11
-13965.15098282407
 21
11171.17424823158
 31
0.0
  0
LINE
  5
815
330
736
100
AcDbEntity
  8
Dimension (ISO)
100
AcDbLine
 10
-13665.60783816303
 20
8871.17424823158
 30
0.0
 11
-13965.15098282407
 21
8871.17424823158
 31
0.0
  0
LINE
  5
816
330
736
100
AcDbEntity
  8
Dimension (ISO)
100
AcDbLine
 10
-13915.15098282407
 20
11046.17424823158
 30
0.0
 11
-13915.15098282407
 21
8996.17424823158
 31
0.0
  0
SOLID
  5
817
330
736
100
AcDbEntity
  8
Dimension (ISO)
100
AcDbTrace
 10
-13935.9843161574
 20
11046.17424823158
 30
0.0
 11
-13894.31764949073
 21
11046.17424823158
 31
0.0
 12
-13915.15098282407
 22
11171.17424823158
 32
0.0
 13
-13915.15098282407
 23
11171.17424823158
 33
0.0
  0
SOLID
  5
818
330
736
100
AcDbEntity
  8
Dimension (ISO)
100
AcDbTrace
 10
-13935.9843161574
 20
8996.17424823158
 30
0.0
 11
-13894.31764949073
 21
8996.17424823158
 31
0.0
 12
-13915.15098282407
 22
8871.17424823158
 32
0.0
 13
-13915.15098282407
 23
8871.17424823158
 33
0.0
  0
MTEXT
  5
819
330
736
100
AcDbEntity
  8
Dimension (ISO)
100
AcDbMText
 10
-14135.53775129036
 20
10017.17424823158
 30
0.0
 40
175.0
 41
0.0
 71
     2
 72
     1
  1
\A1;2300
  7
Label Text (ISO)
 11
0.0000000000000001
 21
1.0
 31
0.0
 73
     1
 44
1.0
1001
ACAD
1000
MTEXTBEGIN
1070
    73
1070
     1
1070
    44
1040
1.0
1070
    74
1070
     0
1000
MTEXTEND
  0
POINT
  5
81A
330
736
100
AcDbEntity
  8
Defpoints
 62
     0
100
AcDbPoint
 10
-13637.60783816303
 20
11171.17424823158
 30
0.0
  0
POINT
  5
81B
330
736
100
AcDbEntity
  8
Defpoints
 62
     0
100
AcDbPoint
 10
-13640.60783816303
 20
8871.17424823158
 30
0.0
  0
POINT
  5
81C
330
736
100
AcDbEntity
  8
Defpoints
 62
     0
100
AcDbPoint
 10
-13915.15098282407
 20
8871.17424823158
 30
0.0
  0
ENDBLK
  5
738
330
736
100
AcDbEntity
  8
0
100
AcDbBlockEnd
  0
BLOCK
  5
81F
330
81E
100
AcDbEntity
  8
0
100
AcDbBlockBegin
  2
*D13
 70
     1
 10
0.0
 20
0.0
 30
0.0
  3
*D13
  1

  0
LINE
  5
A74
330
81E
100
AcDbEntity
  8
Dimension (ISO)
100
AcDbLine
 10
-13714.60278752915
 20
8313.174248231579
 30
0.0
 11
-13968.35957351213
 21
8313.174248231579
 31
0.0
  0
LINE
  5
A75
330
81E
100
AcDbEntity
  8
Dimension (ISO)
100
AcDbLine
 10
-13918.35957351214
 20
8746.174248231579
 30
0.0
 11
-13918.35957351214
 21
8438.174248231579
 31
0.0
  0
SOLID
  5
A76
330
81E
100
AcDbEntity
  8
Dimension (ISO)
100
AcDbTrace
 10
-13939.19290684547
 20
8746.174248231579
 30
0.0
 11
-13897.5262401788
 21
8746.174248231579
 31
0.0
 12
-13918.35957351214
 22
8871.174248231579
 32
0.0
 13
-13918.35957351214
 23
8871.174248231579
 33
0.0
  0
SOLID
  5
A77
330
81E
100
AcDbEntity
  8
Dimension (ISO)
100
AcDbTrace
 10
-13939.19290684547
 20
8438.174248231579
 30
0.0
 11
-13897.5262401788
 21
8438.174248231579
 31
0.0
 12
-13918.35957351214
 22
8313.174248231579
 32
0.0
 13
-13918.35957351214
 23
8313.174248231579
 33
0.0
  0
MTEXT
  5
A78
330
81E
100
AcDbEntity
  8
Dimension (ISO)
100
AcDbMText
 10
-14138.62881461355
 20
8596.174248231578
 30
0.0
 40
175.0
 41
0.0
 71
     2
 72
     1
  1
\A1;550
  7
Label Text (ISO)
 11
0.0000000000000001
 21
1.0
 31
0.0
 73
     1
 44
1.0
1001
ACAD
1000
MTEXTBEGIN
1070
    73
1070
     1
1070
    44
1040
1.0
1070
    74
1070
     0
1000
MTEXTEND
  0
POINT
  5
A79
330
81E
100
AcDbEntity
  8
Defpoints
 62
     0
100
AcDbPoint
 10
-13918.35957351214
 20
8871.174248231579
 30
0.0
  0
POINT
  5
A7A
330
81E
100
AcDbEntity
  8
Defpoints
 62
     0
100
AcDbPoint
 10
-13689.60278752914
 20
8313.174248231579
 30
0.0
  0
POINT
  5
A7B
330
81E
100
AcDbEntity
  8
Defpoints
 62
     0
100
AcDbPoint
 10
-13918.35957351214
 20
8313.174248231579
 30
0.0
  0
ENDBLK
  5
820
330
81E
100
AcDbEntity
  8
0
100
AcDbBlockEnd
  0
BLOCK
  5
96E
330
96D
100
AcDbEntity
  8
0
100
AcDbBlockBegin
  2
88140 Przejście strazackie
 70
     0
 10
0.0
 20
0.0
 30
0.0
  3
88140 Przejście strazackie
  1

  0
LINE
  5
F7D
330
96D
100
AcDbEntity
  8
Visible (ISO)
100
AcDbLine
 10
937.8000000000028
 20
0.0
 30
0.0
 11
502.5000000000018
 21
0.0
 31
0.0
  0
LINE
  5
F7E
330
96D
100
AcDbEntity
  8
Visible (ISO)
100
AcDbLine
 10
464.5000000000018
 20
0.0
 30
0.0
 11
180.5
 21
0.0
 31
0.0
  0
LINE
  5
F7F
330
96D
100
AcDbEntity
  8
Visible (ISO)
100
AcDbLine
 10
142.5000000000018
 20
0.0
 30
0.0
 11
-142.5
 21
0.0
 31
0.0
  0
LINE
  5
F80
330
96D
100
AcDbEntity
  8
Visible (ISO)
100
AcDbLine
 10
-180.5
 20
0.0
 30
0.0
 11
-464.5
 21
0.0
 31
0.0
  0
LINE
  5
F81
330
96D
100
AcDbEntity
  8
Visible (ISO)
100
AcDbLine
 10
-502.5
 20
0.0
 30
0.0
 11
-936.7999999999993
 21
0.0
 31
0.0
  0
LINE
  5
F82
330
96D
100
AcDbEntity
  8
Visible (ISO)
100
AcDbLine
 10
937.8000000000028
 20
42.39999999999963
 30
0.0
 11
825.5
 21
42.39999999999963
 31
0.0
  0
LINE
  5
F83
330
96D
100
AcDbEntity
  8
Visible (ISO)
100
AcDbLine
 10
787.5
 20
42.39999999999963
 30
0.0
 11
503.5
 21
42.39999999999963
 31
0.0
  0
LINE
  5
F84
330
96D
100
AcDbEntity
  8
Visible (ISO)
100
AcDbLine
 10
465.5
 20
42.39999999999963
 30
0.0
 11
180.5000000000018
 21
42.39999999999963
 31
0.0
  0
LINE
  5
F85
330
96D
100
AcDbEntity
  8
Visible (ISO)
100
AcDbLine
 10
142.5000000000018
 20
42.39999999999963
 30
0.0
 11
-141.4999999999982
 21
42.39999999999963
 31
0.0
  0
LINE
  5
F86
330
96D
100
AcDbEntity
  8
Visible (ISO)
100
AcDbLine
 10
-179.4999999999982
 20
42.39999999999963
 30
0.0
 11
-464.5
 21
42.39999999999963
 31
0.0
  0
LINE
  5
F87
330
96D
100
AcDbEntity
  8
Visible (ISO)
100
AcDbLine
 10
-502.5
 20
42.39999999999963
 30
0.0
 11
-786.5
 21
42.39999999999963
 31
0.0
  0
LINE
  5
F88
330
96D
100
AcDbEntity
  8
Visible (ISO)
100
AcDbLine
 10
-824.5
 20
42.39999999999963
 30
0.0
 11
-936.7999999999993
 21
42.39999999999963
 31
0.0
  0
SPLINE
  5
F89
330
96D
100
AcDbEntity
  8
Visible (ISO)
100
AcDbSpline
210
0.0
220
0.0
230
1.0
 70
     8
 71
     3
 72
    18
 73
    14
 74
     0
 42
0.0000000001
 43
0.0000000001
 40
7.471177412397388
 40
7.471177412397388
 40
7.471177412397388
 40
7.471177412397388
 40
7.6124859726356
 40
7.6124859726356
 40
8.025235030591156
 40
8.025235030591156
 40
8.409265822481714
 40
8.409265822481714
 40
8.793296614372273
 40
8.793296614372273
 40
9.177327406262833
 40
9.177327406262833
 40
9.561358198153392
 40
9.561358198153392
 40
9.561358198153747
 40
9.561358198153747
 10
-473.9062520358293
 20
34.63428449899766
 30
0.0
 10
-473.5460407427181
 20
34.89152010839826
 30
0.0
 10
-473.1932578306823
 20
35.15051764501004
 30
0.0
 10
-471.8424795195696
 20
36.16309494105371
 30
0.0
 10
-470.906783753524
 20
36.90974407207978
 30
0.0
 10
-469.2817302228941
 20
38.24105217226497
 30
0.0
 10
-468.5249137288792
 20
38.87963346033939
 30
0.0
 10
-467.1583121836501
 20
40.05118009815487
 30
0.0
 10
-466.5485676961907
 20
40.58387677257633
 30
0.0
 10
-465.5474964645691
 20
41.46514259826744
 30
0.0
 10
-465.1552576279263
 20
41.81445154644371
 30
0.0
 10
-464.6313925154718
 20
42.28199203750591
 30
0.0
 10
-464.5
 20
42.39999999999963
 30
0.0
 10
-464.5
 20
42.39999999999963
 30
0.0
  0
SPLINE
  5
F8A
330
96D
100
AcDbEntity
  8
Visible (ISO)
100
AcDbSpline
210
0.0
220
0.0
230
1.0
 70
     8
 71
     3
 72
    18
 73
    14
 74
     0
 42
0.0000000001
 43
0.0000000001
 40
9.561358198153392
 40
9.561358198153392
 40
9.561358198153774
 40
9.561358198153774
 40
9.945388990043952
 40
9.945388990043952
 40
10.32941978193451
 40
10.32941978193451
 40
10.71345057382507
 40
10.71345057382507
 40
11.09748136571563
 40
11.09748136571563
 40
11.51023042367118
 40
11.51023042367118
 40
11.65153898390941
 40
11.65153898390941
 40
11.65153898390941
 40
11.65153898390941
 10
-824.4999999999981
 20
42.39999999999963
 30
0.0
 10
-824.4999999999981
 20
42.39999999999963
 30
0.0
 10
-824.3686074845244
 20
42.28199203750591
 30
0.0
 10
-823.84474237207
 20
41.81445154644371
 30
0.0
 10
-823.4525035354272
 20
41.46514259826744
 30
0.0
 10
-822.4514323038055
 20
40.58387677257633
 30
0.0
 10
-821.8416878163461
 20
40.05118009815487
 30
0.0
 10
-820.475086271119
 20
38.87963346033939
 30
0.0
 10
-819.718269777104
 20
38.24105217226497
 30
0.0
 10
-818.0932162464724
 20
36.90974407207978
 30
0.0
 10
-817.1575204804266
 20
36.16309494105462
 30
0.0
 10
-815.8067421693139
 20
35.15051764501004
 30
0.0
 10
-815.4539592572801
 20
34.89152010839826
 30
0.0
 10
-815.0937479641671
 20
34.63428449899766
 30
0.0
  0
SPLINE
  5
F8B
330
96D
100
AcDbEntity
  8
Visible (ISO)
100
AcDbSpline
210
0.0
220
0.0
230
1.0
 70
     8
 71
     3
 72
    18
 73
    14
 74
     0
 42
0.0000000001
 43
0.0000000001
 40
3.187119399384464
 40
3.187119399384464
 40
3.187119399384805
 40
3.187119399384805
 40
3.571150191275022
 40
3.571150191275022
 40
3.955180983165581
 40
3.955180983165581
 40
4.33921177505614
 40
4.33921177505614
 40
4.723242566946699
 40
4.723242566946699
 40
5.135991624902256
 40
5.135991624902256
 40
5.277300185140471
 40
5.277300185140471
 40
5.277300185140471
 40
5.277300185140471
 10
-502.4999999999981
 20
42.39999999999963
 30
0.0
 10
-502.4999999999981
 20
42.39999999999963
 30
0.0
 10
-502.3686074845227
 20
42.28199203750591
 30
0.0
 10
-501.8447423720699
 20
41.81445154644371
 30
0.0
 10
-501.4525035354272
 20
41.46514259826744
 30
0.0
 10
-500.4514323038056
 20
40.58387677257633
 30
0.0
 10
-499.8416878163461
 20
40.05118009815487
 30
0.0
 10
-498.4750862711189
 20
38.87963346033939
 30
0.0
 10
-497.718269777104
 20
38.24105217226497
 30
0.0
 10
-496.0932162464724
 20
36.90974407207978
 30
0.0
 10
-495.1575204804266
 20
36.16309494105371
 30
0.0
 10
-493.806742169314
 20
35.15051764501004
 30
0.0
 10
-493.45395925728
 20
34.89152010839826
 30
0.0
 10
-493.093747964167
 20
34.63428449899766
 30
0.0
  0
SPLINE
  5
F8C
330
96D
100
AcDbEntity
  8
Visible (ISO)
100
AcDbSpline
210
0.0
220
0.0
230
1.0
 70
     8
 71
     3
 72
    18
 73
    14
 74
     0
 42
0.0000000001
 43
0.0000000001
 40
1.096938613628451
 40
1.096938613628451
 40
1.096938613628451
 40
1.096938613628451
 40
1.238247173866671
 40
1.238247173866671
 40
1.650996231822228
 40
1.650996231822228
 40
2.035027023712787
 40
2.035027023712787
 40
2.419057815603346
 40
2.419057815603346
 40
2.803088607493905
 40
2.803088607493905
 40
3.187119399384464
 40
3.187119399384464
 40
3.187119399384819
 40
3.187119399384819
 10
-795.9062520358293
 20
34.63428449899766
 30
0.0
 10
-795.5460407427181
 20
34.89152010839826
 30
0.0
 10
-795.1932578306823
 20
35.15051764501004
 30
0.0
 10
-793.8424795195697
 20
36.16309494105462
 30
0.0
 10
-792.906783753524
 20
36.90974407207978
 30
0.0
 10
-791.281730222894
 20
38.24105217226497
 30
0.0
 10
-790.5249137288792
 20
38.87963346033939
 30
0.0
 10
-789.1583121836502
 20
40.05118009815487
 30
0.0
 10
-788.5485676961907
 20
40.58387677257633
 30
0.0
 10
-787.547496464569
 20
41.46514259826744
 30
0.0
 10
-787.1552576279264
 20
41.81445154644371
 30
0.0
 10
-786.6313925154718
 20
42.28199203750591
 30
0.0
 10
-786.5
 20
42.39999999999963
 30
0.0
 10
-786.5
 20
42.39999999999963
 30
0.0
  0
LINE
  5
F8D
330
96D
100
AcDbEntity
  8
Visible (ISO)
100
AcDbLine
 10
-795.9062520358311
 20
34.63428449899766
 30
0.0
 11
-815.0937479641688
 21
34.63428449899766
 31
0.0
  0
LINE
  5
F8E
330
96D
100
AcDbEntity
  8
Visible (ISO)
100
AcDbLine
 10
-473.9062520358293
 20
34.63428449899766
 30
0.0
 11
-493.093747964167
 21
34.63428449899766
 31
0.0
  0
LINE
  5
F8F
330
96D
100
AcDbEntity
  8
Visible (ISO)
100
AcDbLine
 10
-786.5
 20
234.1342844989967
 30
0.0
 11
-786.5
 21
42.39999999999963
 31
0.0
  0
LINE
  5
F90
330
96D
100
AcDbEntity
  8
Visible (ISO)
100
AcDbLine
 10
-824.4999999999981
 20
234.1342844989967
 30
0.0
 11
-824.4999999999981
 21
42.39999999999963
 31
0.0
  0
LINE
  5
F91
330
96D
100
AcDbEntity
  8
Visible (ISO)
100
AcDbLine
 10
-502.4999999999981
 20
42.39999999999963
 30
0.0
 11
-502.4999999999981
 21
234.1342844989967
 31
0.0
  0
LINE
  5
F92
330
96D
100
AcDbEntity
  8
Visible (ISO)
100
AcDbLine
 10
-464.5
 20
42.39999999999963
 30
0.0
 11
-464.5
 21
234.1342844989967
 31
0.0
  0
ARC
  5
F93
330
96D
100
AcDbEntity
  8
Visible (ISO)
100
AcDbCircle
 10
-737.4999999999982
 20
234.1342844989967
 30
0.0
 40
86.99999999999999
100
AcDbArc
 50
90.0
 51
180.0
  0
ARC
  5
F94
330
96D
100
AcDbEntity
  8
Visible (ISO)
100
AcDbCircle
 10
-737.4999999999982
 20
234.1342844989967
 30
0.0
 40
48.99999999999996
100
AcDbArc
 50
90.0
 51
180.0
  0
LINE
  5
F95
330
96D
100
AcDbEntity
  8
Visible (ISO)
100
AcDbLine
 10
-551.4999999999981
 20
283.1342844989968
 30
0.0
 11
-737.4999999999982
 21
283.1342844989968
 31
0.0
  0
LINE
  5
F96
330
96D
100
AcDbEntity
  8
Visible (ISO)
100
AcDbLine
 10
-551.4999999999981
 20
321.1342844989967
 30
0.0
 11
-737.4999999999982
 21
321.1342844989967
 31
0.0
  0
ARC
  5
F97
330
96D
100
AcDbEntity
  8
Visible (ISO)
100
AcDbCircle
 10
-551.4999999999981
 20
234.1342844989967
 30
0.0
 40
87.00000000000001
100
AcDbArc
 50
0.0
 51
90.0
  0
ARC
  5
F98
330
96D
100
AcDbEntity
  8
Visible (ISO)
100
AcDbCircle
 10
-551.4999999999981
 20
234.1342844989967
 30
0.0
 40
49.0
100
AcDbArc
 50
0.0
 51
90.0
  0
SPLINE
  5
F99
330
96D
100
AcDbEntity
  8
Visible (ISO)
100
AcDbSpline
210
0.0
220
0.0
230
1.0
 70
     8
 71
     3
 72
    18
 73
    14
 74
     0
 42
0.0000000001
 43
0.0000000001
 40
7.471177412397388
 40
7.471177412397388
 40
7.471177412397388
 40
7.471177412397388
 40
7.6124859726356
 40
7.6124859726356
 40
8.025235030591156
 40
8.025235030591156
 40
8.409265822481714
 40
8.409265822481714
 40
8.793296614372273
 40
8.793296614372273
 40
9.177327406262833
 40
9.177327406262833
 40
9.561358198153392
 40
9.561358198153392
 40
9.561358198153747
 40
9.561358198153747
 10
171.0937479641688
 20
34.63428449899766
 30
0.0
 10
171.4539592572819
 20
34.89152010839826
 30
0.0
 10
171.8067421693158
 20
35.15051764500913
 30
0.0
 10
173.1575204804285
 20
36.16309494105371
 30
0.0
 10
174.0932162464742
 20
36.90974407207978
 30
0.0
 10
175.7182697771059
 20
38.24105217226497
 30
0.0
 10
176.4750862711207
 20
38.87963346033939
 30
0.0
 10
177.841687816348
 20
40.05118009815487
 30
0.0
 10
178.4514323038092
 20
40.58387677257633
 30
0.0
 10
179.4525035354308
 20
41.46514259826744
 30
0.0
 10
179.8447423720717
 20
41.81445154644371
 30
0.0
 10
180.3686074845282
 20
42.28199203750591
 30
0.0
 10
180.5
 20
42.39999999999963
 30
0.0
 10
180.5
 20
42.39999999999963
 30
0.0
  0
SPLINE
  5
F9A
330
96D
100
AcDbEntity
  8
Visible (ISO)
100
AcDbSpline
210
0.0
220
0.0
230
1.0
 70
     8
 71
     3
 72
    18
 73
    14
 74
     0
 42
0.0000000001
 43
0.0000000001
 40
9.561358198153392
 40
9.561358198153392
 40
9.561358198153774
 40
9.561358198153774
 40
9.945388990043952
 40
9.945388990043952
 40
10.32941978193451
 40
10.32941978193451
 40
10.71345057382507
 40
10.71345057382507
 40
11.09748136571563
 40
11.09748136571563
 40
11.51023042367118
 40
11.51023042367118
 40
11.65153898390941
 40
11.65153898390941
 40
11.65153898390941
 40
11.65153898390941
 10
-179.4999999999982
 20
42.39999999999963
 30
0.0
 10
-179.4999999999982
 20
42.39999999999963
 30
0.0
 10
-179.3686074845245
 20
42.28199203750591
 30
0.0
 10
-178.8447423720717
 20
41.81445154644371
 30
0.0
 10
-178.4525035354272
 20
41.46514259826744
 30
0.0
 10
-177.4514323038056
 20
40.58387677257633
 30
0.0
 10
-176.841687816348
 20
40.05118009815487
 30
0.0
 10
-175.4750862711189
 20
38.87963346033939
 30
0.0
 10
-174.718269777104
 20
38.24105217226497
 30
0.0
 10
-173.0932162464742
 20
36.90974407207978
 30
0.0
 10
-172.1575204804285
 20
36.16309494105371
 30
0.0
 10
-170.8067421693158
 20
35.15051764500913
 30
0.0
 10
-170.4539592572801
 20
34.89152010839826
 30
0.0
 10
-170.0937479641688
 20
34.63428449899766
 30
0.0
  0
SPLINE
  5
F9B
330
96D
100
AcDbEntity
  8
Visible (ISO)
100
AcDbSpline
210
0.0
220
0.0
230
1.0
 70
     8
 71
     3
 72
    18
 73
    14
 74
     0
 42
0.0000000001
 43
0.0000000001
 40
3.187119399384464
 40
3.187119399384464
 40
3.187119399384805
 40
3.187119399384805
 40
3.571150191275022
 40
3.571150191275022
 40
3.955180983165581
 40
3.955180983165581
 40
4.33921177505614
 40
4.33921177505614
 40
4.723242566946699
 40
4.723242566946699
 40
5.135991624902256
 40
5.135991624902256
 40
5.277300185140471
 40
5.277300185140471
 40
5.277300185140471
 40
5.277300185140471
 10
142.5000000000018
 20
42.39999999999963
 30
0.0
 10
142.5000000000018
 20
42.39999999999963
 30
0.0
 10
142.6313925154754
 20
42.28199203750591
 30
0.0
 10
143.1552576279282
 20
41.81445154644371
 30
0.0
 10
143.5474964645727
 20
41.46514259826744
 30
0.0
 10
144.5485676961943
 20
40.58387677257633
 30
0.0
 10
145.158312183652
 20
40.05118009815487
 30
0.0
 10
146.5249137288811
 20
38.87963346033939
 30
0.0
 10
147.2817302228959
 20
38.24105217226497
 30
0.0
 10
148.9067837535258
 20
36.90974407207978
 30
0.0
 10
149.8424795195715
 20
36.16309494105371
 30
0.0
 10
151.1932578306841
 20
35.15051764500913
 30
0.0
 10
151.5460407427199
 20
34.89152010839826
 30
0.0
 10
151.9062520358311
 20
34.63428449899766
 30
0.0
  0
SPLINE
  5
F9C
330
96D
100
AcDbEntity
  8
Visible (ISO)
100
AcDbSpline
210
0.0
220
0.0
230
1.0
 70
     8
 71
     3
 72
    18
 73
    14
 74
     0
 42
0.0000000001
 43
0.0000000001
 40
1.096938613628451
 40
1.096938613628451
 40
1.096938613628451
 40
1.096938613628451
 40
1.238247173866671
 40
1.238247173866671
 40
1.650996231822228
 40
1.650996231822228
 40
2.035027023712787
 40
2.035027023712787
 40
2.419057815603346
 40
2.419057815603346
 40
2.803088607493905
 40
2.803088607493905
 40
3.187119399384464
 40
3.187119399384464
 40
3.187119399384819
 40
3.187119399384819
 10
-150.9062520358311
 20
34.63428449899766
 30
0.0
 10
-150.5460407427181
 20
34.89152010839826
 30
0.0
 10
-150.1932578306841
 20
35.15051764500913
 30
0.0
 10
-148.8424795195715
 20
36.16309494105371
 30
0.0
 10
-147.9067837535258
 20
36.90974407207978
 30
0.0
 10
-146.2817302228941
 20
38.24105217226497
 30
0.0
 10
-145.5249137288792
 20
38.87963346033939
 30
0.0
 10
-144.158312183652
 20
40.05118009815487
 30
0.0
 10
-143.5485676961907
 20
40.58387677257633
 30
0.0
 10
-142.5474964645691
 20
41.46514259826744
 30
0.0
 10
-142.1552576279282
 20
41.81445154644371
 30
0.0
 10
-141.6313925154736
 20
42.28199203750591
 30
0.0
 10
-141.5
 20
42.39999999999963
 30
0.0
 10
-141.5
 20
42.39999999999963
 30
0.0
  0
LINE
  5
F9D
330
96D
100
AcDbEntity
  8
Visible (ISO)
100
AcDbLine
 10
-150.9062520358311
 20
34.63428449899766
 30
0.0
 11
-170.0937479641688
 21
34.63428449899766
 31
0.0
  0
LINE
  5
F9E
330
96D
100
AcDbEntity
  8
Visible (ISO)
100
AcDbLine
 10
171.0937479641688
 20
34.63428449899766
 30
0.0
 11
151.9062520358311
 21
34.63428449899766
 31
0.0
  0
LINE
  5
F9F
330
96D
100
AcDbEntity
  8
Visible (ISO)
100
AcDbLine
 10
-141.5
 20
234.1342844989967
 30
0.0
 11
-141.5
 21
42.39999999999963
 31
0.0
  0
LINE
  5
FA0
330
96D
100
AcDbEntity
  8
Visible (ISO)
100
AcDbLine
 10
-179.4999999999982
 20
234.1342844989967
 30
0.0
 11
-179.4999999999982
 21
42.39999999999963
 31
0.0
  0
LINE
  5
FA1
330
96D
100
AcDbEntity
  8
Visible (ISO)
100
AcDbLine
 10
142.5000000000018
 20
42.39999999999963
 30
0.0
 11
142.5000000000018
 21
234.1342844989967
 31
0.0
  0
LINE
  5
FA2
330
96D
100
AcDbEntity
  8
Visible (ISO)
100
AcDbLine
 10
180.5
 20
42.39999999999963
 30
0.0
 11
180.5
 21
234.1342844989967
 31
0.0
  0
ARC
  5
FA3
330
96D
100
AcDbEntity
  8
Visible (ISO)
100
AcDbCircle
 10
-92.5
 20
234.1342844989967
 30
0.0
 40
86.99999999999999
100
AcDbArc
 50
90.0
 51
180.0
  0
ARC
  5
FA4
330
96D
100
AcDbEntity
  8
Visible (ISO)
100
AcDbCircle
 10
-92.5
 20
234.1342844989967
 30
0.0
 40
48.99999999999996
100
AcDbArc
 50
90.0
 51
180.0
  0
LINE
  5
FA5
330
96D
100
AcDbEntity
  8
Visible (ISO)
100
AcDbLine
 10
93.49999999999999
 20
283.1342844989968
 30
0.0
 11
-92.5
 21
283.1342844989968
 31
0.0
  0
LINE
  5
FA6
330
96D
100
AcDbEntity
  8
Visible (ISO)
100
AcDbLine
 10
93.49999999999999
 20
321.1342844989967
 30
0.0
 11
-92.5
 21
321.1342844989967
 31
0.0
  0
ARC
  5
FA7
330
96D
100
AcDbEntity
  8
Visible (ISO)
100
AcDbCircle
 10
93.49999999999999
 20
234.1342844989967
 30
0.0
 40
87.00000000000001
100
AcDbArc
 50
0.0
 51
90.0
  0
ARC
  5
FA8
330
96D
100
AcDbEntity
  8
Visible (ISO)
100
AcDbCircle
 10
93.49999999999999
 20
234.1342844989967
 30
0.0
 40
49.0
100
AcDbArc
 50
0.0
 51
90.0
  0
SPLINE
  5
FA9
330
96D
100
AcDbEntity
  8
Visible (ISO)
100
AcDbSpline
210
0.0
220
0.0
230
1.0
 70
     8
 71
     3
 72
    18
 73
    14
 74
     0
 42
0.0000000001
 43
0.0000000001
 40
7.471177412397388
 40
7.471177412397388
 40
7.471177412397388
 40
7.471177412397388
 40
7.6124859726356
 40
7.6124859726356
 40
8.025235030591156
 40
8.025235030591156
 40
8.409265822481714
 40
8.409265822481714
 40
8.793296614372273
 40
8.793296614372273
 40
9.177327406262833
 40
9.177327406262833
 40
9.561358198153392
 40
9.561358198153392
 40
9.561358198153747
 40
9.561358198153747
 10
816.0937479641688
 20
34.63428449899766
 30
0.0
 10
816.4539592572801
 20
34.89152010839735
 30
0.0
 10
816.8067421693159
 20
35.15051764500913
 30
0.0
 10
818.1575204804286
 20
36.16309494105371
 30
0.0
 10
819.0932162464742
 20
36.90974407207978
 30
0.0
 10
820.7182697771058
 20
38.24105217226406
 30
0.0
 10
821.475086271119
 20
38.87963346033939
 30
0.0
 10
822.841687816348
 20
40.05118009815487
 30
0.0
 10
823.4514323038075
 20
40.58387677257633
 30
0.0
 10
824.4525035354309
 20
41.46514259826744
 30
0.0
 10
824.8447423720717
 20
41.81445154644371
 30
0.0
 10
825.3686074845264
 20
42.28199203750591
 30
0.0
 10
825.5
 20
42.39999999999963
 30
0.0
 10
825.5
 20
42.39999999999963
 30
0.0
  0
SPLINE
  5
FAA
330
96D
100
AcDbEntity
  8
Visible (ISO)
100
AcDbSpline
210
0.0
220
0.0
230
1.0
 70
     8
 71
     3
 72
    18
 73
    14
 74
     0
 42
0.0000000001
 43
0.0000000001
 40
9.561358198153392
 40
9.561358198153392
 40
9.561358198153774
 40
9.561358198153774
 40
9.945388990043952
 40
9.945388990043952
 40
10.32941978193451
 40
10.32941978193451
 40
10.71345057382507
 40
10.71345057382507
 40
11.09748136571563
 40
11.09748136571563
 40
11.51023042367118
 40
11.51023042367118
 40
11.65153898390941
 40
11.65153898390941
 40
11.65153898390941
 40
11.65153898390941
 10
465.5
 20
42.39999999999963
 30
0.0
 10
465.5
 20
42.39999999999963
 30
0.0
 10
465.6313925154754
 20
42.28199203750591
 30
0.0
 10
466.1552576279282
 20
41.81445154644371
 30
0.0
 10
466.5474964645727
 20
41.46514259826744
 30
0.0
 10
467.5485676961943
 20
40.58387677257633
 30
0.0
 10
468.158312183652
 20
40.05118009815487
 30
0.0
 10
469.524913728881
 20
38.87963346033939
 30
0.0
 10
470.2817302228941
 20
38.24105217226497
 30
0.0
 10
471.9067837535257
 20
36.90974407207978
 30
0.0
 10
472.8424795195715
 20
36.16309494105371
 30
0.0
 10
474.1932578306841
 20
35.15051764500913
 30
0.0
 10
474.5460407427199
 20
34.89152010839735
 30
0.0
 10
474.9062520358311
 20
34.63428449899766
 30
0.0
  0
SPLINE
  5
FAB
330
96D
100
AcDbEntity
  8
Visible (ISO)
100
AcDbSpline
210
0.0
220
0.0
230
1.0
 70
     8
 71
     3
 72
    18
 73
    14
 74
     0
 42
0.0000000001
 43
0.0000000001
 40
3.187119399384464
 40
3.187119399384464
 40
3.187119399384805
 40
3.187119399384805
 40
3.571150191275022
 40
3.571150191275022
 40
3.955180983165581
 40
3.955180983165581
 40
4.33921177505614
 40
4.33921177505614
 40
4.723242566946699
 40
4.723242566946699
 40
5.135991624902256
 40
5.135991624902256
 40
5.277300185140471
 40
5.277300185140471
 40
5.277300185140471
 40
5.277300185140471
 10
787.5
 20
42.39999999999963
 30
0.0
 10
787.5
 20
42.39999999999963
 30
0.0
 10
787.6313925154755
 20
42.28199203750591
 30
0.0
 10
788.1552576279282
 20
41.81445154644371
 30
0.0
 10
788.5474964645728
 20
41.46514259826744
 30
0.0
 10
789.5485676961944
 20
40.58387677257633
 30
0.0
 10
790.158312183652
 20
40.05118009815487
 30
0.0
 10
791.524913728881
 20
38.87963346033939
 30
0.0
 10
792.2817302228941
 20
38.24105217226406
 30
0.0
 10
793.9067837535258
 20
36.90974407207978
 30
0.0
 10
794.8424795195714
 20
36.16309494105371
 30
0.0
 10
796.1932578306841
 20
35.15051764500913
 30
0.0
 10
796.5460407427199
 20
34.89152010839735
 30
0.0
 10
796.9062520358311
 20
34.63428449899766
 30
0.0
  0
SPLINE
  5
FAC
330
96D
100
AcDbEntity
  8
Visible (ISO)
100
AcDbSpline
210
0.0
220
0.0
230
1.0
 70
     8
 71
     3
 72
    18
 73
    14
 74
     0
 42
0.0000000001
 43
0.0000000001
 40
1.096938613628451
 40
1.096938613628451
 40
1.096938613628451
 40
1.096938613628451
 40
1.238247173866671
 40
1.238247173866671
 40
1.650996231822228
 40
1.650996231822228
 40
2.035027023712787
 40
2.035027023712787
 40
2.419057815603346
 40
2.419057815603346
 40
2.803088607493905
 40
2.803088607493905
 40
3.187119399384464
 40
3.187119399384464
 40
3.187119399384819
 40
3.187119399384819
 10
494.0937479641688
 20
34.63428449899766
 30
0.0
 10
494.4539592572801
 20
34.89152010839735
 30
0.0
 10
494.8067421693158
 20
35.15051764500913
 30
0.0
 10
496.1575204804285
 20
36.16309494105371
 30
0.0
 10
497.0932162464741
 20
36.90974407207978
 30
0.0
 10
498.7182697771059
 20
38.24105217226497
 30
0.0
 10
499.4750862711189
 20
38.87963346033939
 30
0.0
 10
500.841687816348
 20
40.05118009815487
 30
0.0
 10
501.4514323038074
 20
40.58387677257633
 30
0.0
 10
502.4525035354308
 20
41.46514259826744
 30
0.0
 10
502.8447423720717
 20
41.81445154644371
 30
0.0
 10
503.3686074845263
 20
42.28199203750591
 30
0.0
 10
503.5
 20
42.39999999999963
 30
0.0
 10
503.5
 20
42.39999999999963
 30
0.0
  0
LINE
  5
FAD
330
96D
100
AcDbEntity
  8
Visible (ISO)
100
AcDbLine
 10
494.0937479641688
 20
34.63428449899766
 30
0.0
 11
474.9062520358311
 21
34.63428449899766
 31
0.0
  0
LINE
  5
FAE
330
96D
100
AcDbEntity
  8
Visible (ISO)
100
AcDbLine
 10
816.0937479641688
 20
34.63428449899766
 30
0.0
 11
796.9062520358311
 21
34.63428449899766
 31
0.0
  0
LINE
  5
FAF
330
96D
100
AcDbEntity
  8
Visible (ISO)
100
AcDbLine
 10
503.5
 20
234.1342844989967
 30
0.0
 11
503.5
 21
42.39999999999963
 31
0.0
  0
LINE
  5
FB0
330
96D
100
AcDbEntity
  8
Visible (ISO)
100
AcDbLine
 10
465.5
 20
234.1342844989967
 30
0.0
 11
465.5
 21
42.39999999999963
 31
0.0
  0
LINE
  5
FB1
330
96D
100
AcDbEntity
  8
Visible (ISO)
100
AcDbLine
 10
787.5
 20
42.39999999999963
 30
0.0
 11
787.5
 21
234.1342844989967
 31
0.0
  0
LINE
  5
FB2
330
96D
100
AcDbEntity
  8
Visible (ISO)
100
AcDbLine
 10
825.5
 20
42.39999999999963
 30
0.0
 11
825.5
 21
234.1342844989967
 31
0.0
  0
ARC
  5
FB3
330
96D
100
AcDbEntity
  8
Visible (ISO)
100
AcDbCircle
 10
552.5
 20
234.1342844989967
 30
0.0
 40
86.99999999999999
100
AcDbArc
 50
90.0
 51
180.0
  0
ARC
  5
FB4
330
96D
100
AcDbEntity
  8
Visible (ISO)
100
AcDbCircle
 10
552.5
 20
234.1342844989967
 30
0.0
 40
48.99999999999996
100
AcDbArc
 50
90.0
 51
180.0
  0
LINE
  5
FB5
330
96D
100
AcDbEntity
  8
Visible (ISO)
100
AcDbLine
 10
738.4999999999999
 20
283.1342844989968
 30
0.0
 11
552.5
 21
283.1342844989968
 31
0.0
  0
LINE
  5
FB6
330
96D
100
AcDbEntity
  8
Visible (ISO)
100
AcDbLine
 10
738.4999999999999
 20
321.1342844989967
 30
0.0
 11
552.5
 21
321.1342844989967
 31
0.0
  0
ARC
  5
FB7
330
96D
100
AcDbEntity
  8
Visible (ISO)
100
AcDbCircle
 10
738.4999999999999
 20
234.1342844989967
 30
0.0
 40
87.00000000000001
100
AcDbArc
 50
0.0
 51
90.0
  0
ARC
  5
FB8
330
96D
100
AcDbEntity
  8
Visible (ISO)
100
AcDbCircle
 10
738.4999999999999
 20
234.1342844989967
 30
0.0
 40
49.0
100
AcDbArc
 50
0.0
 51
90.0
  0
SPLINE
  5
FB9
330
96D
100
AcDbEntity
  8
Visible (ISO)
100
AcDbSpline
210
0.0
220
0.0
230
1.0
 70
     8
 71
     3
 72
    18
 73
    14
 74
     0
 42
0.0000000001
 43
0.0000000001
 40
9.561358198153392
 40
9.561358198153392
 40
9.561358198153738
 40
9.561358198153738
 40
9.945388990043952
 40
9.945388990043952
 40
10.32941978193451
 40
10.32941978193451
 40
10.71345057382507
 40
10.71345057382507
 40
11.09748136571563
 40
11.09748136571563
 40
11.51023042367118
 40
11.51023042367118
 40
11.6515389839094
 40
11.6515389839094
 40
11.6515389839094
 40
11.6515389839094
 10
-142.5
 20
0.0
 30
0.0
 10
-142.5
 20
0.0
 30
0.0
 10
-142.6313925154718
 20
0.1180079624946302
 30
0.0
 10
-143.1552576279264
 20
0.5855484535568394
 30
0.0
 10
-143.5474964645691
 20
0.9348574017330975
 30
0.0
 10
-144.5485676961907
 20
1.816123227424213
 30
0.0
 10
-145.1583121836502
 20
2.348819901845672
 30
0.0
 10
-146.5249137288792
 20
3.520366539660244
 30
0.0
 10
-147.2817302228923
 20
4.158947827735573
 30
0.0
 10
-148.906783753524
 20
5.49025592792077
 30
0.0
 10
-149.8424795195697
 20
6.236905058945922
 30
0.0
 10
-151.1932578306823
 20
7.249482354990504
 30
0.0
 10
-151.5460407427181
 20
7.508479891602291
 30
0.0
 10
-151.9062520358293
 20
7.765715501002887
 30
0.0
  0
SPLINE
  5
FBA
330
96D
100
AcDbEntity
  8
Visible (ISO)
100
AcDbSpline
210
0.0
220
0.0
230
1.0
 70
     8
 71
     3
 72
    18
 73
    14
 74
     0
 42
0.0000000001
 43
0.0000000001
 40
7.471177412397379
 40
7.471177412397379
 40
7.471177412397379
 40
7.471177412397379
 40
7.6124859726356
 40
7.6124859726356
 40
8.025235030591156
 40
8.025235030591156
 40
8.409265822481714
 40
8.409265822481714
 40
8.793296614372273
 40
8.793296614372273
 40
9.177327406262833
 40
9.177327406262833
 40
9.561358198153392
 40
9.561358198153392
 40
9.561358198153774
 40
9.561358198153774
 10
-493.093747964167
 20
7.765715501002887
 30
0.0
 10
-493.45395925728
 20
7.508479891603201
 30
0.0
 10
-493.806742169314
 20
7.249482354991414
 30
0.0
 10
-495.1575204804266
 20
6.236905058945922
 30
0.0
 10
-496.0932162464724
 20
5.49025592792077
 30
0.0
 10
-497.718269777104
 20
4.158947827735573
 30
0.0
 10
-498.4750862711189
 20
3.520366539660244
 30
0.0
 10
-499.8416878163461
 20
2.348819901845672
 30
0.0
 10
-500.4514323038056
 20
1.816123227424213
 30
0.0
 10
-501.4525035354272
 20
0.9348574017330975
 30
0.0
 10
-501.8447423720699
 20
0.5855484535568394
 30
0.0
 10
-502.3686074845245
 20
0.1180079624946302
 30
0.0
 10
-502.4999999999981
 20
0.0
 30
0.0
 10
-502.4999999999981
 20
0.0
 30
0.0
  0
SPLINE
  5
FBB
330
96D
100
AcDbEntity
  8
Visible (ISO)
100
AcDbSpline
210
0.0
220
0.0
230
1.0
 70
     8
 71
     3
 72
    18
 73
    14
 74
     0
 42
0.0000000001
 43
0.0000000001
 40
1.096938613628456
 40
1.096938613628456
 40
1.096938613628456
 40
1.096938613628456
 40
1.238247173866671
 40
1.238247173866671
 40
1.650996231822228
 40
1.650996231822228
 40
2.035027023712787
 40
2.035027023712787
 40
2.419057815603346
 40
2.419057815603346
 40
2.803088607493905
 40
2.803088607493905
 40
3.187119399384464
 40
3.187119399384464
 40
3.187119399384813
 40
3.187119399384813
 10
-171.093747964167
 20
7.765715501002887
 30
0.0
 10
-171.4539592572801
 20
7.508479891602291
 30
0.0
 10
-171.806742169314
 20
7.249482354990504
 30
0.0
 10
-173.1575204804267
 20
6.236905058945922
 30
0.0
 10
-174.0932162464723
 20
5.49025592792077
 30
0.0
 10
-175.7182697771041
 20
4.158947827735573
 30
0.0
 10
-176.4750862711189
 20
3.520366539660244
 30
0.0
 10
-177.8416878163461
 20
2.348819901845672
 30
0.0
 10
-178.4514323038056
 20
1.816123227424213
 30
0.0
 10
-179.4525035354272
 20
0.9348574017330975
 30
0.0
 10
-179.8447423720699
 20
0.5855484535568394
 30
0.0
 10
-180.3686074845245
 20
0.1180079624946302
 30
0.0
 10
-180.4999999999982
 20
0.0
 30
0.0
 10
-180.4999999999982
 20
0.0
 30
0.0
  0
SPLINE
  5
FBC
330
96D
100
AcDbEntity
  8
Visible (ISO)
100
AcDbSpline
210
0.0
220
0.0
230
1.0
 70
     8
 71
     3
 72
    18
 73
    14
 74
     0
 42
0.0000000001
 43
0.0000000001
 40
3.187119399384464
 40
3.187119399384464
 40
3.187119399384828
 40
3.187119399384828
 40
3.571150191275022
 40
3.571150191275022
 40
3.955180983165581
 40
3.955180983165581
 40
4.33921177505614
 40
4.33921177505614
 40
4.723242566946699
 40
4.723242566946699
 40
5.135991624902256
 40
5.135991624902256
 40
5.277300185140473
 40
5.277300185140473
 40
5.277300185140473
 40
5.277300185140473
 10
-464.5
 20
0.0
 30
0.0
 10
-464.5
 20
0.0
 30
0.0
 10
-464.6313925154736
 20
0.1180079624946302
 30
0.0
 10
-465.1552576279263
 20
0.5855484535568394
 30
0.0
 10
-465.5474964645691
 20
0.9348574017330975
 30
0.0
 10
-466.5485676961907
 20
1.816123227424213
 30
0.0
 10
-467.1583121836501
 20
2.348819901845672
 30
0.0
 10
-468.5249137288792
 20
3.520366539660244
 30
0.0
 10
-469.2817302228941
 20
4.158947827735573
 30
0.0
 10
-470.906783753524
 20
5.49025592792077
 30
0.0
 10
-471.8424795195696
 20
6.236905058945922
 30
0.0
 10
-473.1932578306841
 20
7.249482354991414
 30
0.0
 10
-473.5460407427181
 20
7.508479891603201
 30
0.0
 10
-473.9062520358293
 20
7.765715501002887
 30
0.0
  0
LINE
  5
FBD
330
96D
100
AcDbEntity
  8
Visible (ISO)
100
AcDbLine
 10
-493.093747964167
 20
7.765715501002887
 30
0.0
 11
-473.9062520358293
 21
7.765715501002887
 31
0.0
  0
LINE
  5
FBE
330
96D
100
AcDbEntity
  8
Visible (ISO)
100
AcDbLine
 10
-171.0937479641652
 20
7.765715501002887
 30
0.0
 11
-151.9062520358275
 21
7.765715501002887
 31
0.0
  0
LINE
  5
FBF
330
96D
100
AcDbEntity
  8
Visible (ISO)
100
AcDbLine
 10
-502.4999999999981
 20
-191.7342844989962
 30
0.0
 11
-502.4999999999981
 21
0.0
 31
0.0
  0
LINE
  5
FC0
330
96D
100
AcDbEntity
  8
Visible (ISO)
100
AcDbLine
 10
-464.5
 20
-191.7342844989962
 30
0.0
 11
-464.5
 21
0.0
 31
0.0
  0
LINE
  5
FC1
330
96D
100
AcDbEntity
  8
Visible (ISO)
100
AcDbLine
 10
-142.5
 20
0.0
 30
0.0
 11
-142.4999999999982
 21
-191.7342844989962
 31
0.0
  0
LINE
  5
FC2
330
96D
100
AcDbEntity
  8
Visible (ISO)
100
AcDbLine
 10
-180.4999999999982
 20
0.0
 30
0.0
 11
-180.4999999999982
 21
-191.7342844989962
 31
0.0
  0
ARC
  5
FC3
330
96D
100
AcDbEntity
  8
Visible (ISO)
100
AcDbCircle
 10
-415.4999999999981
 20
-191.7342844989962
 30
0.0
 40
86.99999999999997
100
AcDbArc
 50
180.0
 51
270.0
  0
ARC
  5
FC4
330
96D
100
AcDbEntity
  8
Visible (ISO)
100
AcDbCircle
 10
-415.4999999999981
 20
-191.7342844989962
 30
0.0
 40
48.99999999999996
100
AcDbArc
 50
180.0
 51
270.0
  0
LINE
  5
FC5
330
96D
100
AcDbEntity
  8
Visible (ISO)
100
AcDbLine
 10
-229.4999999999982
 20
-278.7342844989962
 30
0.0
 11
-415.4999999999981
 21
-278.7342844989962
 31
0.0
  0
LINE
  5
FC6
330
96D
100
AcDbEntity
  8
Visible (ISO)
100
AcDbLine
 10
-229.4999999999982
 20
-240.7342844989962
 30
0.0
 11
-415.4999999999981
 21
-240.7342844989962
 31
0.0
  0
ARC
  5
FC7
330
96D
100
AcDbEntity
  8
Visible (ISO)
100
AcDbCircle
 10
-229.4999999999982
 20
-191.7342844989962
 30
0.0
 40
87.00000000000001
100
AcDbArc
 50
270.0
 51
0.0
  0
ARC
  5
FC8
330
96D
100
AcDbEntity
  8
Visible (ISO)
100
AcDbCircle
 10
-229.4999999999982
 20
-191.7342844989962
 30
0.0
 40
49.0
100
AcDbArc
 50
270.0
 51
0.0
  0
SPLINE
  5
FC9
330
96D
100
AcDbEntity
  8
Visible (ISO)
100
AcDbSpline
210
0.0
220
0.0
230
1.0
 70
     8
 71
     3
 72
    18
 73
    14
 74
     0
 42
0.0000000001
 43
0.0000000001
 40
9.561358198153392
 40
9.561358198153392
 40
9.561358198153738
 40
9.561358198153738
 40
9.945388990043952
 40
9.945388990043952
 40
10.32941978193451
 40
10.32941978193451
 40
10.71345057382507
 40
10.71345057382507
 40
11.09748136571563
 40
11.09748136571563
 40
11.51023042367118
 40
11.51023042367118
 40
11.6515389839094
 40
11.6515389839094
 40
11.6515389839094
 40
11.6515389839094
 10
502.5
 20
0.0
 30
0.0
 10
502.5
 20
0.0
 30
0.0
 10
502.3686074845281
 20
0.1180079624946302
 30
0.0
 10
501.8447423720718
 20
0.5855484535568394
 30
0.0
 10
501.4525035354308
 20
0.9348574017330975
 30
0.0
 10
500.4514323038092
 20
1.816123227424213
 30
0.0
 10
499.841687816348
 20
2.348819901845672
 30
0.0
 10
498.4750862711207
 20
3.520366539660244
 30
0.0
 10
497.7182697771058
 20
4.158947827735573
 30
0.0
 10
496.093216246476
 20
5.49025592792077
 30
0.0
 10
495.1575204804284
 20
6.236905058945922
 30
0.0
 10
493.8067421693158
 20
7.249482354990504
 30
0.0
 10
493.4539592572819
 20
7.508479891602291
 30
0.0
 10
493.0937479641706
 20
7.765715501002887
 30
0.0
  0
SPLINE
  5
FCA
330
96D
100
AcDbEntity
  8
Visible (ISO)
100
AcDbSpline
210
0.0
220
0.0
230
1.0
 70
     8
 71
     3
 72
    18
 73
    14
 74
     0
 42
0.0000000001
 43
0.0000000001
 40
7.471177412397379
 40
7.471177412397379
 40
7.471177412397379
 40
7.471177412397379
 40
7.6124859726356
 40
7.6124859726356
 40
8.025235030591156
 40
8.025235030591156
 40
8.409265822481714
 40
8.409265822481714
 40
8.793296614372273
 40
8.793296614372273
 40
9.177327406262833
 40
9.177327406262833
 40
9.561358198153392
 40
9.561358198153392
 40
9.561358198153774
 40
9.561358198153774
 10
151.9062520358311
 20
7.765715501002887
 30
0.0
 10
151.5460407427199
 20
7.508479891602291
 30
0.0
 10
151.1932578306841
 20
7.249482354990504
 30
0.0
 10
149.8424795195715
 20
6.236905058945922
 30
0.0
 10
148.9067837535258
 20
5.49025592792077
 30
0.0
 10
147.2817302228959
 20
4.158947827735573
 30
0.0
 10
146.5249137288811
 20
3.520366539660244
 30
0.0
 10
145.158312183652
 20
2.348819901845672
 30
0.0
 10
144.5485676961943
 20
1.816123227424213
 30
0.0
 10
143.5474964645727
 20
0.9348574017330975
 30
0.0
 10
143.1552576279282
 20
0.5855484535568394
 30
0.0
 10
142.6313925154754
 20
0.1180079624937207
 30
0.0
 10
142.5000000000018
 20
0.0
 30
0.0
 10
142.5000000000018
 20
0.0
 30
0.0
  0
SPLINE
  5
FCB
330
96D
100
AcDbEntity
  8
Visible (ISO)
100
AcDbSpline
210
0.0
220
0.0
230
1.0
 70
     8
 71
     3
 72
    18
 73
    14
 74
     0
 42
0.0000000001
 43
0.0000000001
 40
1.096938613628456
 40
1.096938613628456
 40
1.096938613628456
 40
1.096938613628456
 40
1.238247173866671
 40
1.238247173866671
 40
1.650996231822228
 40
1.650996231822228
 40
2.035027023712787
 40
2.035027023712787
 40
2.419057815603346
 40
2.419057815603346
 40
2.803088607493905
 40
2.803088607493905
 40
3.187119399384464
 40
3.187119399384464
 40
3.187119399384813
 40
3.187119399384813
 10
473.9062520358311
 20
7.765715501002887
 30
0.0
 10
473.5460407427199
 20
7.508479891602291
 30
0.0
 10
473.1932578306859
 20
7.249482354990504
 30
0.0
 10
471.8424795195715
 20
6.236905058945922
 30
0.0
 10
470.9067837535258
 20
5.49025592792077
 30
0.0
 10
469.2817302228958
 20
4.158947827735573
 30
0.0
 10
468.5249137288811
 20
3.520366539660244
 30
0.0
 10
467.158312183652
 20
2.348819901845672
 30
0.0
 10
466.5485676961943
 20
1.816123227424213
 30
0.0
 10
465.5474964645727
 20
0.9348574017330975
 30
0.0
 10
465.1552576279282
 20
0.5855484535568394
 30
0.0
 10
464.6313925154754
 20
0.1180079624937207
 30
0.0
 10
464.5000000000018
 20
0.0
 30
0.0
 10
464.5000000000018
 20
0.0
 30
0.0
  0
SPLINE
  5
FCC
330
96D
100
AcDbEntity
  8
Visible (ISO)
100
AcDbSpline
210
0.0
220
0.0
230
1.0
 70
     8
 71
     3
 72
    18
 73
    14
 74
     0
 42
0.0000000001
 43
0.0000000001
 40
3.187119399384464
 40
3.187119399384464
 40
3.187119399384828
 40
3.187119399384828
 40
3.571150191275022
 40
3.571150191275022
 40
3.955180983165581
 40
3.955180983165581
 40
4.33921177505614
 40
4.33921177505614
 40
4.723242566946699
 40
4.723242566946699
 40
5.135991624902256
 40
5.135991624902256
 40
5.277300185140473
 40
5.277300185140473
 40
5.277300185140473
 40
5.277300185140473
 10
180.5
 20
0.0
 30
0.0
 10
180.5
 20
0.0
 30
0.0
 10
180.3686074845263
 20
0.1180079624946302
 30
0.0
 10
179.8447423720717
 20
0.5855484535568394
 30
0.0
 10
179.4525035354308
 20
0.9348574017330975
 30
0.0
 10
178.4514323038092
 20
1.816123227424213
 30
0.0
 10
177.841687816348
 20
2.348819901845672
 30
0.0
 10
176.4750862711207
 20
3.520366539660244
 30
0.0
 10
175.7182697771059
 20
4.158947827735573
 30
0.0
 10
174.0932162464742
 20
5.49025592792077
 30
0.0
 10
173.1575204804285
 20
6.236905058945922
 30
0.0
 10
171.8067421693158
 20
7.249482354990504
 30
0.0
 10
171.4539592572819
 20
7.508479891602291
 30
0.0
 10
171.0937479641688
 20
7.765715501002887
 30
0.0
  0
LINE
  5
FCD
330
96D
100
AcDbEntity
  8
Visible (ISO)
100
AcDbLine
 10
151.9062520358311
 20
7.765715501002887
 30
0.0
 11
171.0937479641688
 21
7.765715501002887
 31
0.0
  0
LINE
  5
FCE
330
96D
100
AcDbEntity
  8
Visible (ISO)
100
AcDbLine
 10
473.9062520358329
 20
7.765715501002887
 30
0.0
 11
493.0937479641706
 21
7.765715501002887
 31
0.0
  0
LINE
  5
FCF
330
96D
100
AcDbEntity
  8
Visible (ISO)
100
AcDbLine
 10
142.5000000000018
 20
-191.7342844989962
 30
0.0
 11
142.5000000000018
 21
0.0
 31
0.0
  0
LINE
  5
FD0
330
96D
100
AcDbEntity
  8
Visible (ISO)
100
AcDbLine
 10
180.5
 20
-191.7342844989962
 30
0.0
 11
180.5
 21
0.0
 31
0.0
  0
LINE
  5
FD1
330
96D
100
AcDbEntity
  8
Visible (ISO)
100
AcDbLine
 10
502.5000000000018
 20
0.0
 30
0.0
 11
502.5000000000018
 21
-191.7342844989962
 31
0.0
  0
LINE
  5
FD2
330
96D
100
AcDbEntity
  8
Visible (ISO)
100
AcDbLine
 10
464.5000000000018
 20
0.0
 30
0.0
 11
464.5000000000018
 21
-191.7342844989962
 31
0.0
  0
ARC
  5
FD3
330
96D
100
AcDbEntity
  8
Visible (ISO)
100
AcDbCircle
 10
229.5
 20
-191.7342844989962
 30
0.0
 40
86.99999999999997
100
AcDbArc
 50
180.0
 51
270.0
  0
ARC
  5
FD4
330
96D
100
AcDbEntity
  8
Visible (ISO)
100
AcDbCircle
 10
229.5
 20
-191.7342844989962
 30
0.0
 40
48.99999999999996
100
AcDbArc
 50
180.0
 51
270.0
  0
LINE
  5
FD5
330
96D
100
AcDbEntity
  8
Visible (ISO)
100
AcDbLine
 10
415.5
 20
-278.7342844989962
 30
0.0
 11
229.5
 21
-278.7342844989962
 31
0.0
  0
LINE
  5
FD6
330
96D
100
AcDbEntity
  8
Visible (ISO)
100
AcDbLine
 10
415.5
 20
-240.7342844989962
 30
0.0
 11
229.5
 21
-240.7342844989962
 31
0.0
  0
ARC
  5
FD7
330
96D
100
AcDbEntity
  8
Visible (ISO)
100
AcDbCircle
 10
415.5
 20
-191.7342844989962
 30
0.0
 40
87.00000000000001
100
AcDbArc
 50
270.0
 51
0.0
  0
ARC
  5
FD8
330
96D
100
AcDbEntity
  8
Visible (ISO)
100
AcDbCircle
 10
415.5
 20
-191.7342844989962
 30
0.0
 40
49.0
100
AcDbArc
 50
270.0
 51
0.0
  0
LINE
  5
FD9
330
96D
100
AcDbEntity
  8
Visible (ISO)
100
AcDbLine
 10
-949.5
 20
-16.30000000000018
 30
0.0
 11
-944.4999999999982
 21
-16.30000000000018
 31
0.0
  0
LINE
  5
FDA
330
96D
100
AcDbEntity
  8
Visible (ISO)
100
AcDbLine
 10
-944.4999999999982
 20
-6.300000000000181
 30
0.0
 11
-944.4999999999982
 21
-16.30000000000018
 31
0.0
  0
LINE
  5
FDB
330
96D
100
AcDbEntity
  8
Visible (ISO)
100
AcDbLine
 10
-944.4999999999982
 20
58.70000000000072
 30
0.0
 11
-944.4999999999982
 21
48.70000000000072
 31
0.0
  0
LINE
  5
FDC
330
96D
100
AcDbEntity
  8
Visible (ISO)
100
AcDbLine
 10
-944.4999999999982
 20
58.70000000000072
 30
0.0
 11
-949.5
 21
58.70000000000072
 31
0.0
  0
LINE
  5
FDD
330
96D
100
AcDbEntity
  8
Visible (ISO)
100
AcDbLine
 10
-944.4999999999982
 20
-6.300000000000181
 30
0.0
 11
-944.4999999999982
 21
48.70000000000072
 31
0.0
  0
LINE
  5
FDE
330
96D
100
AcDbEntity
  8
Visible (ISO)
100
AcDbLine
 10
950.5
 20
58.69999999999982
 30
0.0
 11
945.5
 21
58.69999999999982
 31
0.0
  0
LINE
  5
FDF
330
96D
100
AcDbEntity
  8
Visible (ISO)
100
AcDbLine
 10
945.5
 20
48.69999999999982
 30
0.0
 11
945.5
 21
58.69999999999982
 31
0.0
  0
LINE
  5
FE0
330
96D
100
AcDbEntity
  8
Visible (ISO)
100
AcDbLine
 10
945.5
 20
-16.30000000000018
 30
0.0
 11
945.5
 21
-6.300000000000181
 31
0.0
  0
LINE
  5
FE1
330
96D
100
AcDbEntity
  8
Visible (ISO)
100
AcDbLine
 10
945.5
 20
-16.30000000000018
 30
0.0
 11
950.5
 21
-16.30000000000018
 31
0.0
  0
LINE
  5
FE2
330
96D
100
AcDbEntity
  8
Visible (ISO)
100
AcDbLine
 10
945.5
 20
48.69999999999982
 30
0.0
 11
945.5
 21
-6.300000000000181
 31
0.0
  0
ARC
  5
FE3
330
96D
100
AcDbEntity
  8
Visible (ISO)
100
AcDbCircle
 10
-952.5
 20
68.19999999999982
 30
0.0
 40
3.000000000000007
100
AcDbArc
 50
0.0
 51
90.0
  0
ARC
  5
FE4
330
96D
100
AcDbEntity
  8
Visible (ISO)
100
AcDbCircle
 10
-952.5
 20
-25.80000000000018
 30
0.0
 40
3.000000000000007
100
AcDbArc
 50
270.0
 51
0.0
  0
LINE
  5
FE5
330
96D
100
AcDbEntity
  8
Visible (ISO)
100
AcDbLine
 10
-949.5
 20
-25.80000000000018
 30
0.0
 11
-949.5
 21
68.19999999999982
 31
0.0
  0
ARC
  5
FE6
330
96D
100
AcDbEntity
  8
Visible (ISO)
100
AcDbCircle
 10
-1046.499999999998
 20
68.19999999999982
 30
0.0
 40
2.999999999999989
100
AcDbArc
 50
90.0
 51
180.0
  0
ARC
  5
FE7
330
96D
100
AcDbEntity
  8
Visible (ISO)
100
AcDbCircle
 10
-1046.499999999998
 20
-25.80000000000018
 30
0.0
 40
3.000000000000007
100
AcDbArc
 50
180.0
 51
270.0
  0
LINE
  5
FE8
330
96D
100
AcDbEntity
  8
Visible (ISO)
100
AcDbLine
 10
-1046.499999999998
 20
-28.80000000000018
 30
0.0
 11
-952.5
 21
-28.80000000000018
 31
0.0
  0
LINE
  5
FE9
330
96D
100
AcDbEntity
  8
Visible (ISO)
100
AcDbLine
 10
-1049.5
 20
68.19999999999982
 30
0.0
 11
-1049.5
 21
-25.80000000000018
 31
0.0
  0
LINE
  5
FEA
330
96D
100
AcDbEntity
  8
Visible (ISO)
100
AcDbLine
 10
-952.5
 20
71.19999999999982
 30
0.0
 11
-1046.499999999998
 21
71.19999999999982
 31
0.0
  0
ARC
  5
FEB
330
96D
100
AcDbEntity
  8
Visible (ISO)
100
AcDbCircle
 10
953.5000000000017
 20
-25.79999999999927
 30
0.0
 40
3.000000000000007
100
AcDbArc
 50
180.0
 51
270.0
  0
ARC
  5
FEC
330
96D
100
AcDbEntity
  8
Visible (ISO)
100
AcDbCircle
 10
953.5000000000017
 20
68.20000000000073
 30
0.0
 40
3.000000000000007
100
AcDbArc
 50
90.0
 51
180.0
  0
LINE
  5
FED
330
96D
100
AcDbEntity
  8
Visible (ISO)
100
AcDbLine
 10
950.5
 20
68.20000000000073
 30
0.0
 11
950.5
 21
-25.79999999999927
 31
0.0
  0
ARC
  5
FEE
330
96D
100
AcDbEntity
  8
Visible (ISO)
100
AcDbCircle
 10
1047.5
 20
-25.79999999999927
 30
0.0
 40
2.999999999999989
100
AcDbArc
 50
270.0
 51
0.0
  0
ARC
  5
FEF
330
96D
100
AcDbEntity
  8
Visible (ISO)
100
AcDbCircle
 10
1047.5
 20
68.20000000000073
 30
0.0
 40
3.000000000000007
100
AcDbArc
 50
0.0
 51
90.0
  0
LINE
  5
FF0
330
96D
100
AcDbEntity
  8
Visible (ISO)
100
AcDbLine
 10
1047.5
 20
71.20000000000072
 30
0.0
 11
953.5000000000017
 21
71.20000000000072
 31
0.0
  0
LINE
  5
FF1
330
96D
100
AcDbEntity
  8
Visible (ISO)
100
AcDbLine
 10
1050.5
 20
-25.79999999999927
 30
0.0
 11
1050.5
 21
68.20000000000073
 31
0.0
  0
LINE
  5
FF2
330
96D
100
AcDbEntity
  8
Visible (ISO)
100
AcDbLine
 10
953.5000000000017
 20
-28.79999999999927
 30
0.0
 11
1047.5
 21
-28.79999999999927
 31
0.0
  0
ELLIPSE
  5
FF3
330
96D
100
AcDbEntity
  8
Visible (ISO)
100
AcDbEllipse
 10
-945.2621023553293
 20
46.20000000000072
 30
0.0
 11
-15.6750598084983
 21
0.0000000000000009
 31
0.0
210
0.0
220
0.0
230
1.0
 40
0.5773502691896273
 41
1.619434285796986
 42
1.760908579289863
  0
ELLIPSE
  5
FF4
330
96D
100
AcDbEntity
  8
Visible (ISO)
100
AcDbEllipse
 10
-943.7378976446689
 20
46.20000000000072
 30
0.0
 11
-15.67505980849832
 21
0.0000000000000009
 31
0.0
210
0.0
220
0.0
230
1.0
 40
0.5773502691896267
 41
1.522158367792806
 42
1.662657022136261
  0
LINE
  5
FF5
330
96D
100
AcDbEntity
  8
Visible (ISO)
100
AcDbLine
 10
-942.2999999999992
 20
37.31305358711324
 30
0.0
 11
-942.2999999999992
 21
37.18815685956452
 31
0.0
  0
LINE
  5
FF6
330
96D
100
AcDbEntity
  8
Visible (ISO)
100
AcDbLine
 10
-942.2999999999992
 20
55.25
 30
0.0
 11
-942.2999999999992
 21
37.31305358711324
 31
0.0
  0
LINE
  5
FF7
330
96D
100
AcDbEntity
  8
Visible (ISO)
100
AcDbLine
 10
-942.2999999999992
 20
37.18815685956452
 30
0.0
 11
-942.2999999999992
 21
37.14999999999964
 31
0.0
  0
LINE
  5
FF8
330
96D
100
AcDbEntity
  8
Visible (ISO)
100
AcDbLine
 10
-944.5
 20
55.25
 30
0.0
 11
-942.2999999999992
 21
55.25
 31
0.0
  0
LINE
  5
FF9
330
96D
100
AcDbEntity
  8
Visible (ISO)
100
AcDbLine
 10
-943.7378976446689
 20
37.14999999999964
 30
0.0
 11
-942.2999999999992
 21
37.14999999999964
 31
0.0
  0
ELLIPSE
  5
FFA
330
96D
100
AcDbEntity
  8
Visible (ISO)
100
AcDbEllipse
 10
-945.2621023553293
 20
-3.800000000000181
 30
0.0
 11
-15.6750598084983
 21
0.0000000000000009
 31
0.0
210
0.0
220
0.0
230
1.0
 40
0.5773502691896273
 41
1.619434285796986
 42
1.760908579289863
  0
ELLIPSE
  5
FFB
330
96D
100
AcDbEntity
  8
Visible (ISO)
100
AcDbEllipse
 10
-943.7378976446689
 20
-3.800000000000181
 30
0.0
 11
-15.67505980849832
 21
0.0000000000000009
 31
0.0
210
0.0
220
0.0
230
1.0
 40
0.5773502691896267
 41
1.522158367792806
 42
1.662657022136261
  0
LINE
  5
FFC
330
96D
100
AcDbEntity
  8
Visible (ISO)
100
AcDbLine
 10
-942.2999999999992
 20
-12.68694641288675
 30
0.0
 11
-942.2999999999992
 21
-12.81184314043548
 31
0.0
  0
LINE
  5
FFD
330
96D
100
AcDbEntity
  8
Visible (ISO)
100
AcDbLine
 10
-942.2999999999992
 20
5.25
 30
0.0
 11
-942.2999999999992
 21
-12.68694641288675
 31
0.0
  0
LINE
  5
FFE
330
96D
100
AcDbEntity
  8
Visible (ISO)
100
AcDbLine
 10
-942.2999999999992
 20
-12.81184314043548
 30
0.0
 11
-942.2999999999992
 21
-12.85000000000036
 31
0.0
  0
LINE
  5
FFF
330
96D
100
AcDbEntity
  8
Visible (ISO)
100
AcDbLine
 10
-944.5
 20
5.25
 30
0.0
 11
-942.2999999999992
 21
5.25
 31
0.0
  0
LINE
  5
1000
330
96D
100
AcDbEntity
  8
Visible (ISO)
100
AcDbLine
 10
-943.7378976446689
 20
-12.85000000000036
 30
0.0
 11
-942.2999999999992
 21
-12.85000000000036
 31
0.0
  0
ELLIPSE
  5
1001
330
96D
100
AcDbEntity
  8
Visible (ISO)
100
AcDbEllipse
 10
946.2621023553328
 20
46.19999999999982
 30
0.0
 11
15.6750598084983
 21
-0.0000000000000009
 31
0.0
210
0.0
220
0.0
230
1.0
 40
0.5773502691896273
 41
1.619434285796986
 42
1.760908579289863
  0
ELLIPSE
  5
1002
330
96D
100
AcDbEntity
  8
Visible (ISO)
100
AcDbEllipse
 10
944.7378976446707
 20
46.19999999999982
 30
0.0
 11
15.67505980849832
 21
-0.0000000000000009
 31
0.0
210
0.0
220
0.0
230
1.0
 40
0.5773502691896267
 41
1.522158367792806
 42
1.662657022136261
  0
LINE
  5
1003
330
96D
100
AcDbEntity
  8
Visible (ISO)
100
AcDbLine
 10
943.300000000001
 20
55.08694641288639
 30
0.0
 11
943.300000000001
 21
55.21184314043603
 31
0.0
  0
LINE
  5
1004
330
96D
100
AcDbEntity
  8
Visible (ISO)
100
AcDbLine
 10
943.300000000001
 20
37.14999999999964
 30
0.0
 11
943.300000000001
 21
55.08694641288639
 31
0.0
  0
LINE
  5
1005
330
96D
100
AcDbEntity
  8
Visible (ISO)
100
AcDbLine
 10
943.300000000001
 20
55.21184314043603
 30
0.0
 11
943.300000000001
 21
55.25
 31
0.0
  0
LINE
  5
1006
330
96D
100
AcDbEntity
  8
Visible (ISO)
100
AcDbLine
 10
945.5000000000017
 20
37.14999999999964
 30
0.0
 11
943.300000000001
 21
37.14999999999964
 31
0.0
  0
LINE
  5
1007
330
96D
100
AcDbEntity
  8
Visible (ISO)
100
AcDbLine
 10
944.7378976446707
 20
55.25
 30
0.0
 11
943.300000000001
 21
55.25
 31
0.0
  0
ELLIPSE
  5
1008
330
96D
100
AcDbEntity
  8
Visible (ISO)
100
AcDbEllipse
 10
946.2621023553328
 20
-3.800000000000181
 30
0.0
 11
15.6750598084983
 21
-0.0000000000000009
 31
0.0
210
0.0
220
0.0
230
1.0
 40
0.5773502691896273
 41
1.619434285796986
 42
1.760908579289863
  0
ELLIPSE
  5
1009
330
96D
100
AcDbEntity
  8
Visible (ISO)
100
AcDbEllipse
 10
944.7378976446707
 20
-3.800000000000181
 30
0.0
 11
15.67505980849832
 21
-0.0000000000000009
 31
0.0
210
0.0
220
0.0
230
1.0
 40
0.5773502691896267
 41
1.522158367792806
 42
1.662657022136261
  0
LINE
  5
100A
330
96D
100
AcDbEntity
  8
Visible (ISO)
100
AcDbLine
 10
943.300000000001
 20
5.086946412886391
 30
0.0
 11
943.300000000001
 21
5.21184314043603
 31
0.0
  0
LINE
  5
100B
330
96D
100
AcDbEntity
  8
Visible (ISO)
100
AcDbLine
 10
943.300000000001
 20
-12.85000000000036
 30
0.0
 11
943.300000000001
 21
5.086946412886391
 31
0.0
  0
LINE
  5
100C
330
96D
100
AcDbEntity
  8
Visible (ISO)
100
AcDbLine
 10
943.300000000001
 20
5.21184314043603
 30
0.0
 11
943.300000000001
 21
5.25
 31
0.0
  0
LINE
  5
100D
330
96D
100
AcDbEntity
  8
Visible (ISO)
100
AcDbLine
 10
945.5000000000017
 20
-12.85000000000036
 30
0.0
 11
943.300000000001
 21
-12.85000000000036
 31
0.0
  0
LINE
  5
100E
330
96D
100
AcDbEntity
  8
Visible (ISO)
100
AcDbLine
 10
944.7378976446707
 20
5.25
 30
0.0
 11
943.300000000001
 21
5.25
 31
0.0
  0
LINE
  5
100F
330
96D
100
AcDbEntity
  8
Visible (ISO)
100
AcDbLine
 10
-936.7999999999993
 20
50.89999999999964
 30
0.0
 11
-936.7999999999993
 21
41.5
 31
0.0
  0
ARC
  5
1010
330
96D
100
AcDbEntity
  8
Visible (ISO)
100
AcDbCircle
 10
-940.8499999999985
 20
50.89999999999964
 30
0.0
 40
4.05
100
AcDbArc
 50
0.0
 51
90.0
  0
ARC
  5
1011
330
96D
100
AcDbEntity
  8
Visible (ISO)
100
AcDbCircle
 10
-940.8499999999985
 20
41.5
 30
0.0
 40
4.05
100
AcDbArc
 50
270.0
 51
0.0
  0
LINE
  5
1012
330
96D
100
AcDbEntity
  8
Visible (ISO)
100
AcDbLine
 10
-940.8499999999985
 20
37.45000000000073
 30
0.0
 11
-942.2999999999992
 21
37.45000000000073
 31
0.0
  0
LINE
  5
1013
330
96D
100
AcDbEntity
  8
Visible (ISO)
100
AcDbLine
 10
-940.8499999999985
 20
54.95000000000072
 30
0.0
 11
-942.2999999999992
 21
54.95000000000072
 31
0.0
  0
LINE
  5
1014
330
96D
100
AcDbEntity
  8
Visible (ISO)
100
AcDbLine
 10
-936.7999999999993
 20
0.8999999999996362
 30
0.0
 11
-936.7999999999993
 21
-8.5
 31
0.0
  0
ARC
  5
1015
330
96D
100
AcDbEntity
  8
Visible (ISO)
100
AcDbCircle
 10
-940.8499999999985
 20
0.8999999999996362
 30
0.0
 40
4.05
100
AcDbArc
 50
0.0
 51
90.0
  0
ARC
  5
1016
330
96D
100
AcDbEntity
  8
Visible (ISO)
100
AcDbCircle
 10
-940.8499999999985
 20
-8.5
 30
0.0
 40
4.05
100
AcDbArc
 50
270.0
 51
0.0
  0
LINE
  5
1017
330
96D
100
AcDbEntity
  8
Visible (ISO)
100
AcDbLine
 10
-940.8499999999985
 20
-12.54999999999927
 30
0.0
 11
-942.2999999999992
 21
-12.54999999999927
 31
0.0
  0
LINE
  5
1018
330
96D
100
AcDbEntity
  8
Visible (ISO)
100
AcDbLine
 10
-940.8499999999985
 20
4.949999999999818
 30
0.0
 11
-942.2999999999992
 21
4.949999999999818
 31
0.0
  0
LINE
  5
1019
330
96D
100
AcDbEntity
  8
Visible (ISO)
100
AcDbLine
 10
937.8000000000028
 20
41.5
 30
0.0
 11
937.8000000000028
 21
50.89999999999964
 31
0.0
  0
ARC
  5
101A
330
96D
100
AcDbEntity
  8
Visible (ISO)
100
AcDbCircle
 10
941.8500000000021
 20
41.5
 30
0.0
 40
4.05
100
AcDbArc
 50
180.0
 51
270.0
  0
ARC
  5
101B
330
96D
100
AcDbEntity
  8
Visible (ISO)
100
AcDbCircle
 10
941.8500000000021
 20
50.89999999999964
 30
0.0
 40
4.05
100
AcDbArc
 50
90.0
 51
180.0
  0
LINE
  5
101C
330
96D
100
AcDbEntity
  8
Visible (ISO)
100
AcDbLine
 10
941.8500000000021
 20
54.94999999999982
 30
0.0
 11
943.300000000001
 21
54.94999999999982
 31
0.0
  0
LINE
  5
101D
330
96D
100
AcDbEntity
  8
Visible (ISO)
100
AcDbLine
 10
941.8500000000021
 20
37.44999999999982
 30
0.0
 11
943.300000000001
 21
37.44999999999982
 31
0.0
  0
LINE
  5
101E
330
96D
100
AcDbEntity
  8
Visible (ISO)
100
AcDbLine
 10
937.8000000000028
 20
-8.5
 30
0.0
 11
937.8000000000028
 21
0.8999999999996362
 31
0.0
  0
ARC
  5
101F
330
96D
100
AcDbEntity
  8
Visible (ISO)
100
AcDbCircle
 10
941.8500000000021
 20
-8.5
 30
0.0
 40
4.05
100
AcDbArc
 50
180.0
 51
270.0
  0
ARC
  5
1020
330
96D
100
AcDbEntity
  8
Visible (ISO)
100
AcDbCircle
 10
941.8500000000021
 20
0.8999999999996362
 30
0.0
 40
4.05
100
AcDbArc
 50
90.0
 51
180.0
  0
LINE
  5
1021
330
96D
100
AcDbEntity
  8
Visible (ISO)
100
AcDbLine
 10
941.8500000000021
 20
4.949999999999818
 30
0.0
 11
943.300000000001
 21
4.949999999999818
 31
0.0
  0
LINE
  5
1022
330
96D
100
AcDbEntity
  8
Visible (ISO)
100
AcDbLine
 10
941.8500000000021
 20
-12.55000000000018
 30
0.0
 11
943.300000000001
 21
-12.55000000000018
 31
0.0
  0
ARC
  5
1023
330
96D
100
AcDbEntity
  8
Visible (ISO)
100
AcDbCircle
 10
1050.5
 20
321.2000000000007
 30
0.0
 40
1500.0
100
AcDbArc
 50
0.0
 51
90.0
  0
ARC
  5
1024
330
96D
100
AcDbEntity
  8
Visible (ISO)
100
AcDbCircle
 10
-1049.5
 20
321.2000000000007
 30
0.0
 40
1500.0
100
AcDbArc
 50
90.0
 51
180.0
  0
ARC
  5
1025
330
96D
100
AcDbEntity
  8
Visible (ISO)
100
AcDbCircle
 10
-1049.5
 20
-278.7999999999993
 30
0.0
 40
1500.0
100
AcDbArc
 50
180.0
 51
270.0
  0
ARC
  5
1026
330
96D
100
AcDbEntity
  8
Visible (ISO)
100
AcDbCircle
 10
1050.5
 20
-278.7999999999993
 30
0.0
 40
1500.0
100
AcDbArc
 50
270.0
 51
0.0
  0
LINE
  5
1027
330
96D
100
AcDbEntity
  8
Visible (ISO)
100
AcDbLine
 10
2550.500000000002
 20
-278.7999999999993
 30
0.0
 11
2550.500000000002
 21
321.2000000000007
 31
0.0
  0
LINE
  5
1028
330
96D
100
AcDbEntity
  8
Visible (ISO)
100
AcDbLine
 10
1050.5
 20
1821.200000000001
 30
0.0
 11
-1049.5
 21
1821.2
 31
0.0
  0
LINE
  5
1029
330
96D
100
AcDbEntity
  8
Visible (ISO)
100
AcDbLine
 10
-2549.5
 20
321.1999999999998
 30
0.0
 11
-2549.5
 21
-278.8000000000002
 31
0.0
  0
LINE
  5
102A
330
96D
100
AcDbEntity
  8
Visible (ISO)
100
AcDbLine
 10
-1049.5
 20
-1778.8
 30
0.0
 11
1050.500000000002
 21
-1778.799999999999
 31
0.0
  0
ENDBLK
  5
96F
330
96D
100
AcDbEntity
  8
0
100
AcDbBlockEnd
  0
BLOCK
  5
EA0
330
E9F
100
AcDbEntity
  8
0
100
AcDbBlockBegin
  2
*D24
 70
     1
 10
0.0
 20
0.0
 30
0.0
  3
*D24
  1

  0
LINE
  5
F58
330
E9F
100
AcDbEntity
  8
Dimension (ISO)
100
AcDbLine
 10
-11515.60783816303
 20
7623.500400416313
 30
0.0
 11
-9397.777279632505
 21
7623.500400416311
 31
0.0
  0
LINE
  5
F59
330
E9F
100
AcDbEntity
  8
Dimension (ISO)
100
AcDbLine
 10
-11515.60783816303
 20
4023.500400416312
 30
0.0
 11
-9397.777279632506
 21
4023.500400416312
 31
0.0
  0
LINE
  5
F5A
330
E9F
100
AcDbEntity
  8
Dimension (ISO)
100
AcDbLine
 10
-9447.777279632504
 20
7498.500400416311
 30
0.0
 11
-9447.777279632504
 21
4148.500400416311
 31
0.0
  0
SOLID
  5
F5B
330
E9F
100
AcDbEntity
  8
Dimension (ISO)
100
AcDbTrace
 10
-9468.610612965838
 20
7498.500400416311
 30
0.0
 11
-9426.943946299171
 21
7498.500400416311
 31
0.0
 12
-9447.777279632504
 22
7623.500400416311
 32
0.0
 13
-9447.777279632504
 23
7623.500400416311
 33
0.0
  0
SOLID
  5
F5C
330
E9F
100
AcDbEntity
  8
Dimension (ISO)
100
AcDbTrace
 10
-9468.610612965838
 20
4148.500400416311
 30
0.0
 11
-9426.943946299171
 21
4148.500400416311
 31
0.0
 12
-9447.777279632507
 22
4023.500400416312
 32
0.0
 13
-9447.777279632507
 23
4023.500400416312
 33
0.0
  0
MTEXT
  5
F5D
330
E9F
100
AcDbEntity
  8
Dimension (ISO)
100
AcDbMText
 10
-9668.164049276562
 20
5823.500400416313
 30
0.0
 40
175.0
 41
0.0
 71
     2
 72
     1
  1
\A1;3600
  7
Label Text (ISO)
 11
0.0000000000000001
 21
1.0
 31
0.0
 73
     1
 44
1.0
1001
ACAD
1000
MTEXTBEGIN
1070
    73
1070
     1
1070
    44
1040
1.0
1070
    74
1070
     0
1000
MTEXTEND
  0
POINT
  5
F5E
330
E9F
100
AcDbEntity
  8
Defpoints
 62
     0
100
AcDbPoint
 10
-11540.60783816303
 20
7623.500400416313
 30
0.0
  0
POINT
  5
F5F
330
E9F
100
AcDbEntity
  8
Defpoints
 62
     0
100
AcDbPoint
 10
-11540.60783816303
 20
4023.500400416312
 30
0.0
  0
POINT
  5
F60
330
E9F
100
AcDbEntity
  8
Defpoints
 62
     0
100
AcDbPoint
 10
-9447.777279632507
 20
4023.500400416312
 30
0.0
  0
ENDBLK
  5
EA1
330
E9F
100
AcDbEntity
  8
0
100
AcDbBlockEnd
  0
BLOCK
  5
EAC
330
EAB
100
AcDbEntity
  8
0
100
AcDbBlockBegin
  2
*D25
 70
     1
 10
0.0
 20
0.0
 30
0.0
  3
*D25
  1

  0
LINE
  5
F61
330
EAB
100
AcDbEntity
  8
Dimension (ISO)
100
AcDbLine
 10
-15140.60783816303
 20
5498.500400416312
 30
0.0
 11
-15140.60783816303
 21
3469.738632321195
 31
0.0
  0
LINE
  5
F62
330
EAB
100
AcDbEntity
  8
Dimension (ISO)
100
AcDbLine
 10
-10040.60783816303
 20
5498.500400416313
 30
0.0
 11
-10040.60783816303
 21
3469.738632321195
 31
0.0
  0
LINE
  5
F63
330
EAB
100
AcDbEntity
  8
Dimension (ISO)
100
AcDbLine
 10
-15015.60783816303
 20
3519.738632321195
 30
0.0
 11
-10165.60783816303
 21
3519.738632321195
 31
0.0
  0
SOLID
  5
F64
330
EAB
100
AcDbEntity
  8
Dimension (ISO)
100
AcDbTrace
 10
-15015.60783816303
 20
3540.571965654529
 30
0.0
 11
-15015.60783816303
 21
3498.905298987862
 31
0.0
 12
-15140.60783816303
 22
3519.738632321195
 32
0.0
 13
-15140.60783816303
 23
3519.738632321195
 33
0.0
  0
SOLID
  5
F65
330
EAB
100
AcDbEntity
  8
Dimension (ISO)
100
AcDbTrace
 10
-10165.60783816303
 20
3540.571965654529
 30
0.0
 11
-10165.60783816303
 21
3498.905298987862
 31
0.0
 12
-10040.60783816303
 22
3519.738632321195
 32
0.0
 13
-10040.60783816303
 23
3519.738632321195
 33
0.0
  0
MTEXT
  5
F66
330
EAB
100
AcDbEntity
  8
Dimension (ISO)
100
AcDbMText
 10
-12590.60783816303
 20
3740.007873422606
 30
0.0
 40
175.0
 41
0.0
 71
     2
 72
     1
  1
\A1;5100
  7
Label Text (ISO)
 73
     1
 44
1.0
1001
ACAD
1000
MTEXTBEGIN
1070
    73
1070
     1
1070
    44
1040
1.0
1070
    74
1070
     0
1000
MTEXTEND
  0
POINT
  5
F67
330
EAB
100
AcDbEntity
  8
Defpoints
 62
     0
100
AcDbPoint
 10
-15140.60783816303
 20
5523.500400416312
 30
0.0
  0
POINT
  5
F68
330
EAB
100
AcDbEntity
  8
Defpoints
 62
     0
100
AcDbPoint
 10
-10040.60783816303
 20
5523.500400416313
 30
0.0
  0
POINT
  5
F69
330
EAB
100
AcDbEntity
  8
Defpoints
 62
     0
100
AcDbPoint
 10
-10040.60783816303
 20
3519.738632321195
 30
0.0
  0
ENDBLK
  5
EAD
330
EAB
100
AcDbEntity
  8
0
100
AcDbBlockEnd
  0
BLOCK
  5
EB8
330
EB7
100
AcDbEntity
  8
0
100
AcDbBlockBegin
  2
*D26
 70
     1
 10
0.0
 20
0.0
 30
0.0
  3
*D26
  1

  0
LINE
  5
F6A
330
EB7
100
AcDbEntity
  8
Dimension (ISO)
100
AcDbLine
 10
-11540.60783816303
 20
5751.500400416313
 30
0.0
 11
-11540.60783816303
 21
4905.32625730042
 31
0.0
  0
LINE
  5
F6B
330
EB7
100
AcDbEntity
  8
Dimension (ISO)
100
AcDbLine
 10
-13640.60783816303
 20
5751.500400416313
 30
0.0
 11
-13640.60783816303
 21
4905.32625730042
 31
0.0
  0
LINE
  5
F6C
330
EB7
100
AcDbEntity
  8
Dimension (ISO)
100
AcDbLine
 10
-11665.60783816303
 20
4955.32625730042
 30
0.0
 11
-13515.60783816303
 21
4955.32625730042
 31
0.0
  0
SOLID
  5
F6D
330
EB7
100
AcDbEntity
  8
Dimension (ISO)
100
AcDbTrace
 10
-11665.60783816303
 20
4976.159590633753
 30
0.0
 11
-11665.60783816303
 21
4934.492923967088
 31
0.0
 12
-11540.60783816303
 22
4955.32625730042
 32
0.0
 13
-11540.60783816303
 23
4955.32625730042
 33
0.0
  0
SOLID
  5
F6E
330
EB7
100
AcDbEntity
  8
Dimension (ISO)
100
AcDbTrace
 10
-13515.60783816303
 20
4976.159590633753
 30
0.0
 11
-13515.60783816303
 21
4934.492923967088
 31
0.0
 12
-13640.60783816303
 22
4955.32625730042
 32
0.0
 13
-13640.60783816303
 23
4955.32625730042
 33
0.0
  0
MTEXT
  5
F6F
330
EB7
100
AcDbEntity
  8
Dimension (ISO)
100
AcDbMText
 10
-12590.60783816303
 20
5175.713026944477
 30
0.0
 40
175.0
 41
0.0
 71
     2
 72
     1
  1
\A1;2100
  7
Label Text (ISO)
 73
     1
 44
1.0
1001
ACAD
1000
MTEXTBEGIN
1070
    73
1070
     1
1070
    44
1040
1.0
1070
    74
1070
     0
1000
MTEXTEND
  0
POINT
  5
F70
330
EB7
100
AcDbEntity
  8
Defpoints
 62
     0
100
AcDbPoint
 10
-11540.60783816303
 20
5776.500400416313
 30
0.0
  0
POINT
  5
F71
330
EB7
100
AcDbEntity
  8
Defpoints
 62
     0
100
AcDbPoint
 10
-13640.60783816303
 20
5776.500400416313
 30
0.0
  0
POINT
  5
F72
330
EB7
100
AcDbEntity
  8
Defpoints
 62
     0
100
AcDbPoint
 10
-13640.60783816303
 20
4955.32625730042
 30
0.0
  0
ENDBLK
  5
EB9
330
EB7
100
AcDbEntity
  8
0
100
AcDbBlockEnd
  0
BLOCK
  5
EC4
330
EC3
100
AcDbEntity
  8
0
100
AcDbBlockBegin
  2
*D27
 70
     1
 10
0.0
 20
0.0
 30
0.0
  3
*D27
  1

  0
LINE
  5
F73
330
EC3
100
AcDbEntity
  8
Dimension (ISO)
100
AcDbLine
 10
-12150.60783816303
 20
5523.566115917315
 30
0.0
 11
-10825.18073986825
 21
5523.566115917315
 31
0.0
  0
LINE
  5
F74
330
EC3
100
AcDbEntity
  8
Dimension (ISO)
100
AcDbLine
 10
-11827.60783816303
 20
6123.434684915309
 30
0.0
 11
-10825.18073986825
 21
6123.434684915309
 31
0.0
  0
LINE
  5
F75
330
EC3
100
AcDbEntity
  8
Dimension (ISO)
100
AcDbLine
 10
-10875.18073986825
 20
5648.566115917315
 30
0.0
 11
-10875.18073986825
 21
5998.434684915309
 31
0.0
  0
SOLID
  5
F76
330
EC3
100
AcDbEntity
  8
Dimension (ISO)
100
AcDbTrace
 10
-10896.01407320158
 20
5648.566115917315
 30
0.0
 11
-10854.34740653492
 21
5648.566115917315
 31
0.0
 12
-10875.18073986825
 22
5523.566115917315
 32
0.0
 13
-10875.18073986825
 23
5523.566115917315
 33
0.0
  0
SOLID
  5
F77
330
EC3
100
AcDbEntity
  8
Dimension (ISO)
100
AcDbTrace
 10
-10896.01407320158
 20
5998.434684915309
 30
0.0
 11
-10854.34740653492
 21
5998.434684915309
 31
0.0
 12
-10875.18073986825
 22
6123.434684915309
 32
0.0
 13
-10875.18073986825
 23
6123.434684915309
 33
0.0
  0
MTEXT
  5
F78
330
EC3
100
AcDbEntity
  8
Dimension (ISO)
100
AcDbMText
 10
-11095.44998096966
 20
5823.50040041631
 30
0.0
 40
175.0
 41
0.0
 71
     2
 72
     1
  1
\A1;600
  7
Label Text (ISO)
 11
0.0000000000000001
 21
1.0
 31
0.0
 73
     1
 44
1.0
1001
ACAD
1000
MTEXTBEGIN
1070
    73
1070
     1
1070
    44
1040
1.0
1070
    74
1070
     0
1000
MTEXTEND
  0
POINT
  5
F79
330
EC3
100
AcDbEntity
  8
Defpoints
 62
     0
100
AcDbPoint
 10
-12175.60783816303
 20
5523.566115917315
 30
0.0
  0
POINT
  5
F7A
330
EC3
100
AcDbEntity
  8
Defpoints
 62
     0
100
AcDbPoint
 10
-11852.60783816303
 20
6123.434684915309
 30
0.0
  0
POINT
  5
F7B
330
EC3
100
AcDbEntity
  8
Defpoints
 62
     0
100
AcDbPoint
 10
-10875.18073986825
 20
6123.434684915309
 30
0.0
  0
ENDBLK
  5
EC5
330
EC3
100
AcDbEntity
  8
0
100
AcDbBlockEnd
  0
ENDSEC
  0
SECTION
  2
ENTITIES
  0
LINE
  5
15E
330
6C
100
AcDbEntity
  8
Visible (ISO)
100
AcDbLine
 10
-11645.60783816303
 20
11084.97424823158
 30
0.0
 11
-13535.60783816303
 21
11084.97424823158
 31
0.0
  0
LINE
  5
15F
330
6C
100
AcDbEntity
  8
Visible (ISO)
100
AcDbLine
 10
-11645.60783816303
 20
11127.37424823158
 30
0.0
 11
-13535.60783816303
 21
11127.37424823158
 31
0.0
  0
ARC
  5
160
330
6C
100
AcDbEntity
  8
Visible (ISO)
100
AcDbCircle
 10
-13074.60783816303
 20
11106.17424823158
 30
0.0
 40
19.0
100
AcDbArc
 50
90.0
 51
270.0
  0
ARC
  5
161
330
6C
100
AcDbEntity
  8
Visible (ISO)
100
AcDbCircle
 10
-12752.60783816303
 20
11106.17424823158
 30
0.0
 40
19.0
100
AcDbArc
 50
270.0
 51
90.0
  0
LINE
  5
162
330
6C
100
AcDbEntity
  8
Visible Narrow (ISO)
100
AcDbLine
 10
-13006.60783816303
 20
11087.40816976027
 30
0.0
 11
-13006.60783816303
 21
11124.94032670289
 31
0.0
  0
LINE
  5
163
330
6C
100
AcDbEntity
  8
Visible Narrow (ISO)
100
AcDbLine
 10
-12820.60783816303
 20
11087.40816976027
 30
0.0
 11
-12820.60783816303
 21
11124.94032670289
 31
0.0
  0
LINE
  5
164
330
6C
100
AcDbEntity
  8
Visible (ISO)
100
AcDbLine
 10
-13074.60783816303
 20
11087.17424823158
 30
0.0
 11
-13006.60783816303
 21
11087.17424823158
 31
0.0
  0
LINE
  5
165
330
6C
100
AcDbEntity
  8
Visible (ISO)
100
AcDbLine
 10
-13006.60783816303
 20
11125.17424823158
 30
0.0
 11
-13074.60783816303
 21
11125.17424823158
 31
0.0
  0
LINE
  5
166
330
6C
100
AcDbEntity
  8
Visible (ISO)
100
AcDbLine
 10
-12820.60783816303
 20
11087.17424823158
 30
0.0
 11
-13006.60783816303
 21
11087.17424823158
 31
0.0
  0
LINE
  5
167
330
6C
100
AcDbEntity
  8
Visible (ISO)
100
AcDbLine
 10
-12820.60783816303
 20
11125.17424823158
 30
0.0
 11
-13006.60783816303
 21
11125.17424823158
 31
0.0
  0
LINE
  5
168
330
6C
100
AcDbEntity
  8
Visible (ISO)
100
AcDbLine
 10
-12820.60783816303
 20
11087.17424823158
 30
0.0
 11
-12752.60783816303
 21
11087.17424823158
 31
0.0
  0
LINE
  5
169
330
6C
100
AcDbEntity
  8
Visible (ISO)
100
AcDbLine
 10
-12752.60783816303
 20
11125.17424823158
 30
0.0
 11
-12820.60783816303
 21
11125.17424823158
 31
0.0
  0
ARC
  5
16A
330
6C
100
AcDbEntity
  8
Visible (ISO)
100
AcDbCircle
 10
-12429.60783816303
 20
11106.17424823158
 30
0.0
 40
19.0
100
AcDbArc
 50
90.0
 51
270.0
  0
ARC
  5
16B
330
6C
100
AcDbEntity
  8
Visible (ISO)
100
AcDbCircle
 10
-12107.60783816303
 20
11106.17424823158
 30
0.0
 40
19.0
100
AcDbArc
 50
270.0
 51
90.0
  0
LINE
  5
16C
330
6C
100
AcDbEntity
  8
Visible Narrow (ISO)
100
AcDbLine
 10
-12361.60783816303
 20
11087.40816976027
 30
0.0
 11
-12361.60783816303
 21
11124.94032670289
 31
0.0
  0
LINE
  5
16D
330
6C
100
AcDbEntity
  8
Visible Narrow (ISO)
100
AcDbLine
 10
-12175.60783816303
 20
11087.40816976027
 30
0.0
 11
-12175.60783816303
 21
11124.94032670289
 31
0.0
  0
LINE
  5
16E
330
6C
100
AcDbEntity
  8
Visible (ISO)
100
AcDbLine
 10
-12429.60783816303
 20
11087.17424823158
 30
0.0
 11
-12361.60783816303
 21
11087.17424823158
 31
0.0
  0
LINE
  5
16F
330
6C
100
AcDbEntity
  8
Visible (ISO)
100
AcDbLine
 10
-12361.60783816303
 20
11125.17424823158
 30
0.0
 11
-12429.60783816303
 21
11125.17424823158
 31
0.0
  0
LINE
  5
170
330
6C
100
AcDbEntity
  8
Visible (ISO)
100
AcDbLine
 10
-12175.60783816303
 20
11087.17424823158
 30
0.0
 11
-12361.60783816303
 21
11087.17424823158
 31
0.0
  0
LINE
  5
171
330
6C
100
AcDbEntity
  8
Visible (ISO)
100
AcDbLine
 10
-12175.60783816303
 20
11125.17424823158
 30
0.0
 11
-12361.60783816303
 21
11125.17424823158
 31
0.0
  0
LINE
  5
172
330
6C
100
AcDbEntity
  8
Visible (ISO)
100
AcDbLine
 10
-12175.60783816303
 20
11087.17424823158
 30
0.0
 11
-12107.60783816303
 21
11087.17424823158
 31
0.0
  0
LINE
  5
173
330
6C
100
AcDbEntity
  8
Visible (ISO)
100
AcDbLine
 10
-12107.60783816303
 20
11125.17424823158
 30
0.0
 11
-12175.60783816303
 21
11125.17424823158
 31
0.0
  0
LINE
  5
174
330
6C
100
AcDbEntity
  8
Visible Narrow (ISO)
100
AcDbLine
 10
-13540.35783816303
 20
11143.67424823158
 30
0.0
 11
-13535.85783816303
 21
11143.67424823158
 31
0.0
  0
LINE
  5
175
330
6C
100
AcDbEntity
  8
Visible (ISO)
100
AcDbLine
 10
-13535.60783816303
 20
11153.67424823158
 30
0.0
 11
-13535.60783816303
 21
11143.67424823158
 31
0.0
  0
LINE
  5
176
330
6C
100
AcDbEntity
  8
Visible (ISO)
100
AcDbLine
 10
-13535.60783816303
 20
11153.67424823158
 30
0.0
 11
-13540.60783816303
 21
11153.67424823158
 31
0.0
  0
LINE
  5
177
330
6C
100
AcDbEntity
  8
Visible (ISO)
100
AcDbLine
 10
-13540.60783816303
 20
11058.67424823158
 30
0.0
 11
-13535.60783816303
 21
11058.67424823158
 31
0.0
  0
LINE
  5
178
330
6C
100
AcDbEntity
  8
Visible (ISO)
100
AcDbLine
 10
-13535.60783816303
 20
11068.67424823158
 30
0.0
 11
-13535.60783816303
 21
11058.67424823158
 31
0.0
  0
LINE
  5
179
330
6C
100
AcDbEntity
  8
Visible Narrow (ISO)
100
AcDbLine
 10
-13535.85783816303
 20
11068.67424823158
 30
0.0
 11
-13540.35783816303
 21
11068.67424823158
 31
0.0
  0
LINE
  5
17A
330
6C
100
AcDbEntity
  8
Visible (ISO)
100
AcDbLine
 10
-13535.60783816303
 20
11068.67424823158
 30
0.0
 11
-13535.60783816303
 21
11143.67424823158
 31
0.0
  0
LINE
  5
17B
330
6C
100
AcDbEntity
  8
Visible (ISO)
100
AcDbLine
 10
-11640.60783816303
 20
11153.67424823158
 30
0.0
 11
-11645.60783816303
 21
11153.67424823158
 31
0.0
  0
LINE
  5
17C
330
6C
100
AcDbEntity
  8
Visible (ISO)
100
AcDbLine
 10
-11645.60783816303
 20
11143.67424823158
 30
0.0
 11
-11645.60783816303
 21
11153.67424823158
 31
0.0
  0
LINE
  5
17D
330
6C
100
AcDbEntity
  8
Visible Narrow (ISO)
100
AcDbLine
 10
-11645.35783816303
 20
11143.67424823158
 30
0.0
 11
-11640.85783816303
 21
11143.67424823158
 31
0.0
  0
LINE
  5
17E
330
6C
100
AcDbEntity
  8
Visible (ISO)
100
AcDbLine
 10
-11645.60783816303
 20
11058.67424823158
 30
0.0
 11
-11645.60783816303
 21
11068.67424823158
 31
0.0
  0
LINE
  5
17F
330
6C
100
AcDbEntity
  8
Visible (ISO)
100
AcDbLine
 10
-11645.60783816303
 20
11058.67424823158
 30
0.0
 11
-11640.60783816303
 21
11058.67424823158
 31
0.0
  0
LINE
  5
180
330
6C
100
AcDbEntity
  8
Visible Narrow (ISO)
100
AcDbLine
 10
-11640.85783816303
 20
11068.67424823158
 30
0.0
 11
-11645.35783816303
 21
11068.67424823158
 31
0.0
  0
LINE
  5
181
330
6C
100
AcDbEntity
  8
Visible (ISO)
100
AcDbLine
 10
-11645.60783816303
 20
11143.67424823158
 30
0.0
 11
-11645.60783816303
 21
11068.67424823158
 31
0.0
  0
LINE
  5
182
330
6C
100
AcDbEntity
  8
Visible (ISO)
100
AcDbLine
 10
-13640.60783816303
 20
11171.17424823158
 30
0.0
 11
-13640.60783816303
 21
8871.174248231579
 31
0.0
  0
LINE
  5
183
330
6C
100
AcDbEntity
  8
Visible (ISO)
100
AcDbLine
 10
-13640.60783816303
 20
8861.174248231579
 30
0.0
 11
-13640.60783816303
 21
8321.174248231578
 31
0.0
  0
LINE
  5
184
330
6C
100
AcDbEntity
  8
Visible Narrow (ISO)
100
AcDbLine
 10
-13635.60783816303
 20
8348.174248231581
 30
0.0
 11
-13635.60783816303
 21
8834.174248231581
 31
0.0
  0
LINE
  5
185
330
6C
100
AcDbEntity
  8
Visible Narrow (ISO)
100
AcDbLine
 10
-13635.60783816303
 20
8986.174248231579
 30
0.0
 11
-13635.60783816303
 21
11056.17424823158
 31
0.0
  0
LINE
  5
186
330
6C
100
AcDbEntity
  8
Visible (ISO)
100
AcDbLine
 10
-13540.60783816303
 20
8321.174248231578
 30
0.0
 11
-13540.60783816303
 21
8861.174248231579
 31
0.0
  0
LINE
  5
187
330
6C
100
AcDbEntity
  8
Visible (ISO)
100
AcDbLine
 10
-13540.60783816303
 20
8871.174248231579
 30
0.0
 11
-13540.60783816303
 21
11171.17424823158
 31
0.0
  0
LINE
  5
188
330
6C
100
AcDbEntity
  8
Visible Narrow (ISO)
100
AcDbLine
 10
-13545.60783816303
 20
11056.17424823158
 30
0.0
 11
-13545.60783816303
 21
8986.174248231579
 31
0.0
  0
LINE
  5
189
330
6C
100
AcDbEntity
  8
Visible Narrow (ISO)
100
AcDbLine
 10
-13545.60783816303
 20
8834.174248231578
 30
0.0
 11
-13545.60783816303
 21
8348.174248231581
 31
0.0
  0
LINE
  5
18A
330
6C
100
AcDbEntity
  8
Visible (ISO)
100
AcDbLine
 10
-13545.60783816303
 20
11171.17424823158
 30
0.0
 11
-13635.60783816303
 21
11171.17424823158
 31
0.0
  0
LINE
  5
18B
330
6C
100
AcDbEntity
  8
Visible (ISO)
100
AcDbLine
 10
-11540.60783816303
 20
8321.174248231578
 30
0.0
 11
-11540.60783816303
 21
8861.174248231579
 31
0.0
  0
LINE
  5
18C
330
6C
100
AcDbEntity
  8
Visible (ISO)
100
AcDbLine
 10
-11540.60783816303
 20
8871.174248231579
 30
0.0
 11
-11540.60783816303
 21
11171.17424823158
 31
0.0
  0
LINE
  5
18D
330
6C
100
AcDbEntity
  8
Visible Narrow (ISO)
100
AcDbLine
 10
-11545.60783816303
 20
11056.17424823158
 30
0.0
 11
-11545.60783816303
 21
8986.174248231579
 31
0.0
  0
LINE
  5
18E
330
6C
100
AcDbEntity
  8
Visible Narrow (ISO)
100
AcDbLine
 10
-11545.60783816303
 20
8834.174248231578
 30
0.0
 11
-11545.60783816303
 21
8348.174248231581
 31
0.0
  0
LINE
  5
18F
330
6C
100
AcDbEntity
  8
Visible (ISO)
100
AcDbLine
 10
-11640.60783816303
 20
11171.17424823158
 30
0.0
 11
-11640.60783816303
 21
8871.174248231579
 31
0.0
  0
LINE
  5
190
330
6C
100
AcDbEntity
  8
Visible (ISO)
100
AcDbLine
 10
-11640.60783816303
 20
8861.174248231579
 30
0.0
 11
-11640.60783816303
 21
8321.174248231578
 31
0.0
  0
LINE
  5
191
330
6C
100
AcDbEntity
  8
Visible Narrow (ISO)
100
AcDbLine
 10
-11635.60783816303
 20
8348.174248231581
 30
0.0
 11
-11635.60783816303
 21
8834.174248231581
 31
0.0
  0
LINE
  5
192
330
6C
100
AcDbEntity
  8
Visible Narrow (ISO)
100
AcDbLine
 10
-11635.60783816303
 20
8986.174248231579
 30
0.0
 11
-11635.60783816303
 21
11056.17424823158
 31
0.0
  0
LINE
  5
193
330
6C
100
AcDbEntity
  8
Visible (ISO)
100
AcDbLine
 10
-11545.60783816303
 20
11171.17424823158
 30
0.0
 11
-11635.60783816303
 21
11171.17424823158
 31
0.0
  0
LINE
  5
194
330
6C
100
AcDbEntity
  8
Visible (ISO)
100
AcDbLine
 10
-13689.60278752915
 20
8313.174248231581
 30
0.0
 11
-13692.53171971728
 21
8313.174248231581
 31
0.0
  0
LINE
  5
195
330
6C
100
AcDbEntity
  8
Visible Narrow (ISO)
100
AcDbLine
 10
-13689.60278752914
 20
8313.57424823158
 30
0.0
 11
-13689.60278752914
 21
8320.774248231581
 31
0.0
  0
LINE
  5
196
330
6C
100
AcDbEntity
  8
Visible (ISO)
100
AcDbLine
 10
-13692.53171971728
 20
8321.17424823158
 30
0.0
 11
-13689.60278752915
 21
8321.17424823158
 31
0.0
  0
LINE
  5
197
330
6C
100
AcDbEntity
  8
Visible (ISO)
100
AcDbLine
 10
-13597.67890597489
 20
8321.17424823158
 30
0.0
 11
-13583.53677035116
 21
8321.17424823158
 31
0.0
  0
LINE
  5
198
330
6C
100
AcDbEntity
  8
Visible (ISO)
100
AcDbLine
 10
-13491.61288879691
 20
8321.17424823158
 30
0.0
 11
-13488.68395660878
 21
8321.17424823158
 31
0.0
  0
LINE
  5
199
330
6C
100
AcDbEntity
  8
Visible Narrow (ISO)
100
AcDbLine
 10
-13597.67890597489
 20
8320.774248231581
 30
0.0
 11
-13597.67890597489
 21
8313.57424823158
 31
0.0
  0
LINE
  5
19A
330
6C
100
AcDbEntity
  8
Visible (ISO)
100
AcDbLine
 10
-13583.53677035116
 20
8313.174248231581
 30
0.0
 11
-13597.67890597489
 21
8313.174248231581
 31
0.0
  0
LINE
  5
19B
330
6C
100
AcDbEntity
  8
Visible Narrow (ISO)
100
AcDbLine
 10
-13583.53677035116
 20
8313.57424823158
 30
0.0
 11
-13583.53677035116
 21
8320.774248231581
 31
0.0
  0
LINE
  5
19C
330
6C
100
AcDbEntity
  8
Visible Narrow (ISO)
100
AcDbLine
 10
-13491.61288879691
 20
8320.774248231581
 30
0.0
 11
-13491.61288879691
 21
8313.57424823158
 31
0.0
  0
LINE
  5
19D
330
6C
100
AcDbEntity
  8
Visible (ISO)
100
AcDbLine
 10
-13488.68395660878
 20
8313.174248231581
 30
0.0
 11
-13491.61288879691
 21
8313.174248231581
 31
0.0
  0
LINE
  5
19E
330
6C
100
AcDbEntity
  8
Visible (ISO)
100
AcDbLine
 10
-13692.53171971728
 20
8321.17424823158
 30
0.0
 11
-13692.53171971728
 21
8313.174248231581
 31
0.0
  0
LINE
  5
19F
330
6C
100
AcDbEntity
  8
Visible (ISO)
100
AcDbLine
 10
-13488.68395660878
 20
8313.174248231581
 30
0.0
 11
-13488.68395660878
 21
8321.17424823158
 31
0.0
  0
LINE
  5
1A0
330
6C
100
AcDbEntity
  8
Visible (ISO)
100
AcDbLine
 10
-13597.67890597489
 20
8321.17424823158
 30
0.0
 11
-13689.60278752914
 21
8321.17424823158
 31
0.0
  0
LINE
  5
1A1
330
6C
100
AcDbEntity
  8
Visible (ISO)
100
AcDbLine
 10
-13491.61288879691
 20
8321.17424823158
 30
0.0
 11
-13583.53677035116
 21
8321.17424823158
 31
0.0
  0
LINE
  5
1A2
330
6C
100
AcDbEntity
  8
Visible (ISO)
100
AcDbLine
 10
-13583.53677035116
 20
8313.174248231581
 30
0.0
 11
-13491.61288879691
 21
8313.174248231581
 31
0.0
  0
LINE
  5
1A3
330
6C
100
AcDbEntity
  8
Visible (ISO)
100
AcDbLine
 10
-13689.60278752914
 20
8313.174248231581
 30
0.0
 11
-13597.67890597489
 21
8313.174248231581
 31
0.0
  0
LINE
  5
1A4
330
6C
100
AcDbEntity
  8
Visible (ISO)
100
AcDbLine
 10
-11488.68395660878
 20
8313.174248231581
 30
0.0
 11
-11491.61288879691
 21
8313.174248231581
 31
0.0
  0
LINE
  5
1A5
330
6C
100
AcDbEntity
  8
Visible (ISO)
100
AcDbLine
 10
-11491.61288879691
 20
8321.17424823158
 30
0.0
 11
-11488.68395660878
 21
8321.17424823158
 31
0.0
  0
LINE
  5
1A6
330
6C
100
AcDbEntity
  8
Visible Narrow (ISO)
100
AcDbLine
 10
-11491.61288879691
 20
8320.774248231581
 30
0.0
 11
-11491.61288879691
 21
8313.57424823158
 31
0.0
  0
LINE
  5
1A7
330
6C
100
AcDbEntity
  8
Visible Narrow (ISO)
100
AcDbLine
 10
-11583.53677035116
 20
8313.57424823158
 30
0.0
 11
-11583.53677035116
 21
8320.774248231581
 31
0.0
  0
LINE
  5
1A8
330
6C
100
AcDbEntity
  8
Visible (ISO)
100
AcDbLine
 10
-11692.53171971728
 20
8321.17424823158
 30
0.0
 11
-11689.60278752915
 21
8321.17424823158
 31
0.0
  0
LINE
  5
1A9
330
6C
100
AcDbEntity
  8
Visible (ISO)
100
AcDbLine
 10
-11597.67890597489
 20
8321.17424823158
 30
0.0
 11
-11583.53677035116
 21
8321.17424823158
 31
0.0
  0
LINE
  5
1AA
330
6C
100
AcDbEntity
  8
Visible Narrow (ISO)
100
AcDbLine
 10
-11597.67890597489
 20
8320.774248231581
 30
0.0
 11
-11597.67890597489
 21
8313.57424823158
 31
0.0
  0
LINE
  5
1AB
330
6C
100
AcDbEntity
  8
Visible (ISO)
100
AcDbLine
 10
-11583.53677035116
 20
8313.174248231581
 30
0.0
 11
-11597.67890597489
 21
8313.174248231581
 31
0.0
  0
LINE
  5
1AC
330
6C
100
AcDbEntity
  8
Visible Narrow (ISO)
100
AcDbLine
 10
-11689.60278752914
 20
8313.57424823158
 30
0.0
 11
-11689.60278752914
 21
8320.774248231581
 31
0.0
  0
LINE
  5
1AD
330
6C
100
AcDbEntity
  8
Visible (ISO)
100
AcDbLine
 10
-11689.60278752915
 20
8313.174248231581
 30
0.0
 11
-11692.53171971728
 21
8313.174248231581
 31
0.0
  0
LINE
  5
1AE
330
6C
100
AcDbEntity
  8
Visible (ISO)
100
AcDbLine
 10
-11488.68395660878
 20
8321.17424823158
 30
0.0
 11
-11488.68395660878
 21
8313.174248231581
 31
0.0
  0
LINE
  5
1AF
330
6C
100
AcDbEntity
  8
Visible (ISO)
100
AcDbLine
 10
-11692.53171971728
 20
8313.174248231581
 30
0.0
 11
-11692.53171971728
 21
8321.17424823158
 31
0.0
  0
LINE
  5
1B0
330
6C
100
AcDbEntity
  8
Visible (ISO)
100
AcDbLine
 10
-11491.61288879691
 20
8321.17424823158
 30
0.0
 11
-11583.53677035116
 21
8321.17424823158
 31
0.0
  0
LINE
  5
1B1
330
6C
100
AcDbEntity
  8
Visible (ISO)
100
AcDbLine
 10
-11583.53677035116
 20
8313.174248231581
 30
0.0
 11
-11491.61288879691
 21
8313.174248231581
 31
0.0
  0
LINE
  5
1B2
330
6C
100
AcDbEntity
  8
Visible (ISO)
100
AcDbLine
 10
-11597.67890597489
 20
8321.17424823158
 30
0.0
 11
-11689.60278752914
 21
8321.17424823158
 31
0.0
  0
LINE
  5
1B3
330
6C
100
AcDbEntity
  8
Visible (ISO)
100
AcDbLine
 10
-11689.60278752914
 20
8313.174248231581
 30
0.0
 11
-11597.67890597489
 21
8313.174248231581
 31
0.0
  0
LINE
  5
1B4
330
6C
100
AcDbEntity
  8
Visible (ISO)
100
AcDbLine
 10
-13690.60783816303
 20
8563.295568575139
 30
0.0
 11
-13690.60783816303
 21
8561.174248231578
 31
0.0
  0
LINE
  5
1B5
330
6C
100
AcDbEntity
  8
Visible (ISO)
100
AcDbLine
 10
-13690.60783816303
 20
8583.801665229549
 30
0.0
 11
-13690.60783816303
 21
8563.295568575139
 31
0.0
  0
LINE
  5
1B6
330
6C
100
AcDbEntity
  8
Visible (ISO)
100
AcDbLine
 10
-13690.60783816303
 20
8561.174248231578
 30
0.0
 11
-13640.60783816303
 21
8561.174248231578
 31
0.0
  0
LINE
  5
1B7
330
6C
100
AcDbEntity
  8
Visible (ISO)
100
AcDbLine
 10
-13690.60783816303
 20
8563.295568575139
 30
0.0
 11
-13640.60783816303
 21
8563.295568575139
 31
0.0
  0
LINE
  5
1B8
330
6C
100
AcDbEntity
  8
Visible Narrow (ISO)
100
AcDbLine
 10
-13643.10783816303
 20
8583.801665229549
 30
0.0
 11
-13688.10783816303
 21
8583.801665229549
 31
0.0
  0
LINE
  5
1B9
330
6C
100
AcDbEntity
  8
Visible (ISO)
100
AcDbLine
 10
-13690.60783816303
 20
8583.801665229549
 30
0.0
 11
-13690.60783816303
 21
8585.55902454243
 31
0.0
  0
LINE
  5
1BA
330
6C
100
AcDbEntity
  8
Visible (ISO)
100
AcDbLine
 10
-13690.60783816303
 20
8585.55902454243
 30
0.0
 11
-13640.60783816303
 21
8585.55902454243
 31
0.0
  0
LINE
  5
1BB
330
6C
100
AcDbEntity
  8
Visible Narrow (ISO)
100
AcDbLine
 10
-13538.10783816303
 20
8583.801665229549
 30
0.0
 11
-13493.10783816303
 21
8583.801665229549
 31
0.0
  0
LINE
  5
1BC
330
6C
100
AcDbEntity
  8
Visible (ISO)
100
AcDbLine
 10
-13490.60783816303
 20
8585.55902454243
 30
0.0
 11
-13490.60783816303
 21
8583.801665229549
 31
0.0
  0
LINE
  5
1BD
330
6C
100
AcDbEntity
  8
Visible (ISO)
100
AcDbLine
 10
-13490.60783816303
 20
8585.55902454243
 30
0.0
 11
-13540.60783816303
 21
8585.55902454243
 31
0.0
  0
LINE
  5
1BE
330
6C
100
AcDbEntity
  8
Visible (ISO)
100
AcDbLine
 10
-13540.60783816303
 20
8561.174248231578
 30
0.0
 11
-13490.60783816303
 21
8561.174248231578
 31
0.0
  0
LINE
  5
1BF
330
6C
100
AcDbEntity
  8
Visible (ISO)
100
AcDbLine
 10
-13490.60783816303
 20
8563.295568575139
 30
0.0
 11
-13490.60783816303
 21
8583.801665229549
 31
0.0
  0
LINE
  5
1C0
330
6C
100
AcDbEntity
  8
Visible (ISO)
100
AcDbLine
 10
-13490.60783816303
 20
8563.295568575139
 30
0.0
 11
-13490.60783816303
 21
8561.174248231578
 31
0.0
  0
LINE
  5
1C1
330
6C
100
AcDbEntity
  8
Visible (ISO)
100
AcDbLine
 10
-13490.60783816303
 20
8563.295568575139
 30
0.0
 11
-13540.60783816303
 21
8563.295568575139
 31
0.0
  0
LINE
  5
1C2
330
6C
100
AcDbEntity
  8
Visible Narrow (ISO)
100
AcDbLine
 10
-11538.10783816303
 20
8583.801665229549
 30
0.0
 11
-11493.10783816303
 21
8583.801665229549
 31
0.0
  0
LINE
  5
1C3
330
6C
100
AcDbEntity
  8
Visible (ISO)
100
AcDbLine
 10
-11490.60783816303
 20
8585.55902454243
 30
0.0
 11
-11490.60783816303
 21
8583.801665229549
 31
0.0
  0
LINE
  5
1C4
330
6C
100
AcDbEntity
  8
Visible (ISO)
100
AcDbLine
 10
-11490.60783816303
 20
8585.55902454243
 30
0.0
 11
-11540.60783816303
 21
8585.55902454243
 31
0.0
  0
LINE
  5
1C5
330
6C
100
AcDbEntity
  8
Visible (ISO)
100
AcDbLine
 10
-11540.60783816303
 20
8561.174248231578
 30
0.0
 11
-11490.60783816303
 21
8561.174248231578
 31
0.0
  0
LINE
  5
1C6
330
6C
100
AcDbEntity
  8
Visible (ISO)
100
AcDbLine
 10
-11490.60783816303
 20
8563.295568575139
 30
0.0
 11
-11490.60783816303
 21
8583.801665229549
 31
0.0
  0
LINE
  5
1C7
330
6C
100
AcDbEntity
  8
Visible (ISO)
100
AcDbLine
 10
-11490.60783816303
 20
8563.295568575139
 30
0.0
 11
-11490.60783816303
 21
8561.174248231578
 31
0.0
  0
LINE
  5
1C8
330
6C
100
AcDbEntity
  8
Visible (ISO)
100
AcDbLine
 10
-11490.60783816303
 20
8563.295568575139
 30
0.0
 11
-11540.60783816303
 21
8563.295568575139
 31
0.0
  0
LINE
  5
1C9
330
6C
100
AcDbEntity
  8
Visible (ISO)
100
AcDbLine
 10
-11690.60783816303
 20
8563.295568575139
 30
0.0
 11
-11690.60783816303
 21
8561.174248231578
 31
0.0
  0
LINE
  5
1CA
330
6C
100
AcDbEntity
  8
Visible (ISO)
100
AcDbLine
 10
-11690.60783816303
 20
8583.801665229549
 30
0.0
 11
-11690.60783816303
 21
8563.295568575139
 31
0.0
  0
LINE
  5
1CB
330
6C
100
AcDbEntity
  8
Visible (ISO)
100
AcDbLine
 10
-11690.60783816303
 20
8561.174248231578
 30
0.0
 11
-11640.60783816303
 21
8561.174248231578
 31
0.0
  0
LINE
  5
1CC
330
6C
100
AcDbEntity
  8
Visible (ISO)
100
AcDbLine
 10
-11690.60783816303
 20
8563.295568575139
 30
0.0
 11
-11640.60783816303
 21
8563.295568575139
 31
0.0
  0
LINE
  5
1CD
330
6C
100
AcDbEntity
  8
Visible Narrow (ISO)
100
AcDbLine
 10
-11643.10783816303
 20
8583.801665229549
 30
0.0
 11
-11688.10783816303
 21
8583.801665229549
 31
0.0
  0
LINE
  5
1CE
330
6C
100
AcDbEntity
  8
Visible (ISO)
100
AcDbLine
 10
-11690.60783816303
 20
8583.801665229549
 30
0.0
 11
-11690.60783816303
 21
8585.55902454243
 31
0.0
  0
LINE
  5
1CF
330
6C
100
AcDbEntity
  8
Visible (ISO)
100
AcDbLine
 10
-11690.60783816303
 20
8585.55902454243
 30
0.0
 11
-11640.60783816303
 21
8585.55902454243
 31
0.0
  0
LINE
  5
1D0
330
6C
100
AcDbEntity
  8
Visible (ISO)
100
AcDbLine
 10
-13540.60783816303
 20
11171.17424823158
 30
0.0
 11
-13543.60783816303
 21
11171.17424823158
 31
0.0
  0
LINE
  5
1D1
330
6C
100
AcDbEntity
  8
Visible (ISO)
100
AcDbLine
 10
-13637.60783816303
 20
11171.17424823158
 30
0.0
 11
-13640.60783816303
 21
11171.17424823158
 31
0.0
  0
LINE
  5
1D2
330
6C
100
AcDbEntity
  8
Visible Narrow (ISO)
100
AcDbLine
 10
-13543.60783816303
 20
11173.40962551876
 30
0.0
 11
-13543.60783816303
 21
11176.16500023278
 31
0.0
  0
LINE
  5
1D3
330
6C
100
AcDbEntity
  8
Visible Narrow (ISO)
100
AcDbLine
 10
-13540.61708616183
 20
11173.17424823158
 30
0.0
 11
-13543.37246087585
 21
11173.17424823158
 31
0.0
  0
ARC
  5
1D4
330
6C
100
AcDbEntity
  8
Visible (ISO)
100
AcDbCircle
 10
-13543.60783816303
 20
11173.17424823158
 30
0.0
 40
2.99999999999998
100
AcDbArc
 50
0.0
 51
90.0
  0
LINE
  5
1D5
330
6C
100
AcDbEntity
  8
Visible (ISO)
100
AcDbLine
 10
-13540.60783816303
 20
11171.17424823158
 30
0.0
 11
-13540.60783816303
 21
11173.17424823158
 31
0.0
  0
LINE
  5
1D6
330
6C
100
AcDbEntity
  8
Visible Narrow (ISO)
100
AcDbLine
 10
-13543.60783816303
 20
11173.07424823158
 30
0.0
 11
-13543.60783816303
 21
11171.27424823158
 31
0.0
  0
ARC
  5
1D7
330
6C
100
AcDbEntity
  8
Visible (ISO)
100
AcDbCircle
 10
-13637.60783816303
 20
11173.17424823158
 30
0.0
 40
3.000000000000008
100
AcDbArc
 50
90.0
 51
180.0
  0
LINE
  5
1D8
330
6C
100
AcDbEntity
  8
Visible Narrow (ISO)
100
AcDbLine
 10
-13637.84321545021
 20
11173.17424823158
 30
0.0
 11
-13640.59859016423
 21
11173.17424823158
 31
0.0
  0
LINE
  5
1D9
330
6C
100
AcDbEntity
  8
Visible Narrow (ISO)
100
AcDbLine
 10
-13637.60783816303
 20
11176.16500023278
 30
0.0
 11
-13637.60783816303
 21
11173.40962551876
 31
0.0
  0
LINE
  5
1DA
330
6C
100
AcDbEntity
  8
Visible Narrow (ISO)
100
AcDbLine
 10
-13637.60783816303
 20
11171.27424823158
 30
0.0
 11
-13637.60783816303
 21
11173.07424823158
 31
0.0
  0
LINE
  5
1DB
330
6C
100
AcDbEntity
  8
Visible (ISO)
100
AcDbLine
 10
-13640.60783816303
 20
11173.17424823158
 30
0.0
 11
-13640.60783816303
 21
11171.17424823158
 31
0.0
  0
LINE
  5
1DC
330
6C
100
AcDbEntity
  8
Visible Narrow (ISO)
100
AcDbLine
 10
-13632.90783816303
 20
11173.17424823158
 30
0.0
 11
-13548.30783816303
 21
11173.17424823158
 31
0.0
  0
LINE
  5
1DD
330
6C
100
AcDbEntity
  8
Visible (ISO)
100
AcDbLine
 10
-13543.60783816303
 20
11176.17424823158
 30
0.0
 11
-13637.60783816303
 21
11176.17424823158
 31
0.0
  0
LINE
  5
1DE
330
6C
100
AcDbEntity
  8
Visible (ISO)
100
AcDbLine
 10
-13543.60783816303
 20
11171.17424823158
 30
0.0
 11
-13637.60783816303
 21
11171.17424823158
 31
0.0
  0
LINE
  5
1DF
330
6C
100
AcDbEntity
  8
Visible (ISO)
100
AcDbLine
 10
-11637.60783816303
 20
11171.17424823158
 30
0.0
 11
-11640.60783816303
 21
11171.17424823158
 31
0.0
  0
LINE
  5
1E0
330
6C
100
AcDbEntity
  8
Visible (ISO)
100
AcDbLine
 10
-11540.60783816303
 20
11171.17424823158
 30
0.0
 11
-11543.60783816303
 21
11171.17424823158
 31
0.0
  0
ARC
  5
1E1
330
6C
100
AcDbEntity
  8
Visible (ISO)
100
AcDbCircle
 10
-11637.60783816303
 20
11173.17424823158
 30
0.0
 40
2.999999999999984
100
AcDbArc
 50
90.0
 51
180.0
  0
LINE
  5
1E2
330
6C
100
AcDbEntity
  8
Visible Narrow (ISO)
100
AcDbLine
 10
-11637.84321545021
 20
11173.17424823158
 30
0.0
 11
-11640.59859016423
 21
11173.17424823158
 31
0.0
  0
LINE
  5
1E3
330
6C
100
AcDbEntity
  8
Visible Narrow (ISO)
100
AcDbLine
 10
-11637.60783816303
 20
11176.16500023278
 30
0.0
 11
-11637.60783816303
 21
11173.40962551876
 31
0.0
  0
LINE
  5
1E4
330
6C
100
AcDbEntity
  8
Visible Narrow (ISO)
100
AcDbLine
 10
-11637.60783816303
 20
11171.27424823158
 30
0.0
 11
-11637.60783816303
 21
11173.07424823158
 31
0.0
  0
LINE
  5
1E5
330
6C
100
AcDbEntity
  8
Visible (ISO)
100
AcDbLine
 10
-11640.60783816303
 20
11173.17424823158
 30
0.0
 11
-11640.60783816303
 21
11171.17424823158
 31
0.0
  0
LINE
  5
1E6
330
6C
100
AcDbEntity
  8
Visible Narrow (ISO)
100
AcDbLine
 10
-11543.60783816303
 20
11173.40962551876
 30
0.0
 11
-11543.60783816303
 21
11176.16500023278
 31
0.0
  0
LINE
  5
1E7
330
6C
100
AcDbEntity
  8
Visible Narrow (ISO)
100
AcDbLine
 10
-11540.61708616183
 20
11173.17424823158
 30
0.0
 11
-11543.37246087584
 21
11173.17424823158
 31
0.0
  0
ARC
  5
1E8
330
6C
100
AcDbEntity
  8
Visible (ISO)
100
AcDbCircle
 10
-11543.60783816303
 20
11173.17424823158
 30
0.0
 40
2.99999999999998
100
AcDbArc
 50
0.0
 51
90.0
  0
LINE
  5
1E9
330
6C
100
AcDbEntity
  8
Visible (ISO)
100
AcDbLine
 10
-11540.60783816303
 20
11171.17424823158
 30
0.0
 11
-11540.60783816303
 21
11173.17424823158
 31
0.0
  0
LINE
  5
1EA
330
6C
100
AcDbEntity
  8
Visible Narrow (ISO)
100
AcDbLine
 10
-11543.60783816303
 20
11173.07424823158
 30
0.0
 11
-11543.60783816303
 21
11171.27424823158
 31
0.0
  0
LINE
  5
1EB
330
6C
100
AcDbEntity
  8
Visible Narrow (ISO)
100
AcDbLine
 10
-11632.90783816303
 20
11173.17424823158
 30
0.0
 11
-11548.30783816303
 21
11173.17424823158
 31
0.0
  0
LINE
  5
1EC
330
6C
100
AcDbEntity
  8
Visible (ISO)
100
AcDbLine
 10
-11543.60783816303
 20
11176.17424823158
 30
0.0
 11
-11637.60783816303
 21
11176.17424823158
 31
0.0
  0
LINE
  5
1ED
330
6C
100
AcDbEntity
  8
Visible (ISO)
100
AcDbLine
 10
-11543.60783816303
 20
11171.17424823158
 30
0.0
 11
-11637.60783816303
 21
11171.17424823158
 31
0.0
  0
LINE
  5
1EE
330
6C
100
AcDbEntity
  8
Visible (ISO)
100
AcDbLine
 10
-13533.40783816303
 20
11072.88441882379
 30
0.0
 11
-13535.60783816303
 21
11071.61424823158
 31
0.0
  0
LINE
  5
1EF
330
6C
100
AcDbEntity
  8
Visible (ISO)
100
AcDbLine
 10
-13535.60783816303
 20
11070.73424823158
 30
0.0
 11
-13533.40783816303
 21
11072.00441882379
 31
0.0
  0
LINE
  5
1F0
330
6C
100
AcDbEntity
  8
Visible (ISO)
100
AcDbLine
 10
-13533.40783816303
 20
11080.22424823158
 30
0.0
 11
-13533.40783816303
 21
11072.88441882379
 31
0.0
  0
LINE
  5
1F1
330
6C
100
AcDbEntity
  8
Visible (ISO)
100
AcDbLine
 10
-13533.40783816303
 20
11072.00441882379
 30
0.0
 11
-13533.40783816303
 21
11062.12424823158
 31
0.0
  0
LINE
  5
1F2
330
6C
100
AcDbEntity
  8
Visible (ISO)
100
AcDbLine
 10
-13535.60783816303
 20
11080.22424823158
 30
0.0
 11
-13533.40783816303
 21
11080.22424823158
 31
0.0
  0
LINE
  5
1F3
330
6C
100
AcDbEntity
  8
Visible (ISO)
100
AcDbLine
 10
-13535.60783816303
 20
11062.12424823158
 30
0.0
 11
-13533.40783816303
 21
11062.12424823158
 31
0.0
  0
LINE
  5
1F4
330
6C
100
AcDbEntity
  8
Visible (ISO)
100
AcDbLine
 10
-13533.40783816303
 20
11142.8844188238
 30
0.0
 11
-13535.60783816303
 21
11141.61424823158
 31
0.0
  0
LINE
  5
1F5
330
6C
100
AcDbEntity
  8
Visible (ISO)
100
AcDbLine
 10
-13535.60783816303
 20
11140.73424823158
 30
0.0
 11
-13533.40783816303
 21
11142.00441882379
 31
0.0
  0
LINE
  5
1F6
330
6C
100
AcDbEntity
  8
Visible (ISO)
100
AcDbLine
 10
-13533.40783816303
 20
11150.22424823158
 30
0.0
 11
-13533.40783816303
 21
11142.8844188238
 31
0.0
  0
LINE
  5
1F7
330
6C
100
AcDbEntity
  8
Visible (ISO)
100
AcDbLine
 10
-13533.40783816303
 20
11142.00441882379
 30
0.0
 11
-13533.40783816303
 21
11132.12424823158
 31
0.0
  0
LINE
  5
1F8
330
6C
100
AcDbEntity
  8
Visible (ISO)
100
AcDbLine
 10
-13535.60783816303
 20
11150.22424823158
 30
0.0
 11
-13533.40783816303
 21
11150.22424823158
 31
0.0
  0
LINE
  5
1F9
330
6C
100
AcDbEntity
  8
Visible (ISO)
100
AcDbLine
 10
-13535.60783816303
 20
11132.12424823158
 30
0.0
 11
-13533.40783816303
 21
11132.12424823158
 31
0.0
  0
LINE
  5
1FA
330
6C
100
AcDbEntity
  8
Visible (ISO)
100
AcDbLine
 10
-11647.80783816303
 20
11062.12424823158
 30
0.0
 11
-11647.80783816303
 21
11080.22424823158
 31
0.0
  0
LINE
  5
1FB
330
6C
100
AcDbEntity
  8
Visible (ISO)
100
AcDbLine
 10
-11645.60783816303
 20
11062.12424823158
 30
0.0
 11
-11647.80783816303
 21
11062.12424823158
 31
0.0
  0
LINE
  5
1FC
330
6C
100
AcDbEntity
  8
Visible (ISO)
100
AcDbLine
 10
-11645.60783816303
 20
11080.22424823158
 30
0.0
 11
-11647.80783816303
 21
11080.22424823158
 31
0.0
  0
LINE
  5
1FD
330
6C
100
AcDbEntity
  8
Visible (ISO)
100
AcDbLine
 10
-11647.80783816303
 20
11132.12424823158
 30
0.0
 11
-11647.80783816303
 21
11150.22424823158
 31
0.0
  0
LINE
  5
1FE
330
6C
100
AcDbEntity
  8
Visible (ISO)
100
AcDbLine
 10
-11645.60783816303
 20
11132.12424823158
 30
0.0
 11
-11647.80783816303
 21
11132.12424823158
 31
0.0
  0
LINE
  5
1FF
330
6C
100
AcDbEntity
  8
Visible (ISO)
100
AcDbLine
 10
-11645.60783816303
 20
11150.22424823158
 30
0.0
 11
-11647.80783816303
 21
11150.22424823158
 31
0.0
  0
LINE
  5
200
330
6C
100
AcDbEntity
  8
Visible Narrow (ISO)
100
AcDbLine
 10
-13533.80783816303
 20
11071.81818064751
 30
0.0
 11
-13533.80783816303
 21
11072.6103843874
 31
0.0
  0
LINE
  5
201
330
6C
100
AcDbEntity
  8
Visible (ISO)
100
AcDbLine
 10
-13533.40783816303
 20
11072.88441882379
 30
0.0
 11
-13533.40783816303
 21
11072.00441882379
 31
0.0
  0
LINE
  5
202
330
6C
100
AcDbEntity
  8
Visible (ISO)
100
AcDbLine
 10
-13531.95783816303
 20
11062.42424823158
 30
0.0
 11
-13533.40783816303
 21
11062.42424823158
 31
0.0
  0
LINE
  5
203
330
6C
100
AcDbEntity
  8
Visible (ISO)
100
AcDbLine
 10
-13531.95783816303
 20
11079.92424823158
 30
0.0
 11
-13533.40783816303
 21
11079.92424823158
 31
0.0
  0
LINE
  5
204
330
6C
100
AcDbEntity
  8
Visible (ISO)
100
AcDbLine
 10
-13527.90783816303
 20
11075.87424823158
 30
0.0
 11
-13527.90783816303
 21
11066.47424823158
 31
0.0
  0
LINE
  5
205
330
6C
100
AcDbEntity
  8
Visible Narrow (ISO)
100
AcDbLine
 10
-13531.95783816303
 20
11062.53197525137
 30
0.0
 11
-13531.95783816303
 21
11079.81652121178
 31
0.0
  0
ARC
  5
206
330
6C
100
AcDbEntity
  8
Visible (ISO)
100
AcDbCircle
 10
-13531.95783816303
 20
11075.87424823158
 30
0.0
 40
4.05
100
AcDbArc
 50
0.0
 51
90.0
  0
ARC
  5
207
330
6C
100
AcDbEntity
  8
Visible (ISO)
100
AcDbCircle
 10
-13531.95783816303
 20
11066.47424823158
 30
0.0
 40
4.05
100
AcDbArc
 50
270.0
 51
0.0
  0
LINE
  5
208
330
6C
100
AcDbEntity
  8
Visible Narrow (ISO)
100
AcDbLine
 10
-13533.80783816303
 20
11141.81818064751
 30
0.0
 11
-13533.80783816303
 21
11142.6103843874
 31
0.0
  0
LINE
  5
209
330
6C
100
AcDbEntity
  8
Visible (ISO)
100
AcDbLine
 10
-13533.40783816303
 20
11142.8844188238
 30
0.0
 11
-13533.40783816303
 21
11142.00441882379
 31
0.0
  0
LINE
  5
20A
330
6C
100
AcDbEntity
  8
Visible (ISO)
100
AcDbLine
 10
-13531.95783816303
 20
11132.42424823158
 30
0.0
 11
-13533.40783816303
 21
11132.42424823158
 31
0.0
  0
LINE
  5
20B
330
6C
100
AcDbEntity
  8
Visible (ISO)
100
AcDbLine
 10
-13531.95783816303
 20
11149.92424823158
 30
0.0
 11
-13533.40783816303
 21
11149.92424823158
 31
0.0
  0
LINE
  5
20C
330
6C
100
AcDbEntity
  8
Visible (ISO)
100
AcDbLine
 10
-13527.90783816303
 20
11145.87424823158
 30
0.0
 11
-13527.90783816303
 21
11136.47424823158
 31
0.0
  0
LINE
  5
20D
330
6C
100
AcDbEntity
  8
Visible Narrow (ISO)
100
AcDbLine
 10
-13531.95783816303
 20
11132.53197525137
 30
0.0
 11
-13531.95783816303
 21
11149.81652121179
 31
0.0
  0
ARC
  5
20E
330
6C
100
AcDbEntity
  8
Visible (ISO)
100
AcDbCircle
 10
-13531.95783816303
 20
11145.87424823158
 30
0.0
 40
4.05
100
AcDbArc
 50
0.0
 51
90.0
  0
ARC
  5
20F
330
6C
100
AcDbEntity
  8
Visible (ISO)
100
AcDbCircle
 10
-13531.95783816303
 20
11136.47424823158
 30
0.0
 40
4.05
100
AcDbArc
 50
270.0
 51
0.0
  0
LINE
  5
210
330
6C
100
AcDbEntity
  8
Visible (ISO)
100
AcDbLine
 10
-11653.30783816303
 20
11066.47424823158
 30
0.0
 11
-11653.30783816303
 21
11075.87424823158
 31
0.0
  0
LINE
  5
211
330
6C
100
AcDbEntity
  8
Visible Narrow (ISO)
100
AcDbLine
 10
-11649.25783816303
 20
11079.81652121178
 30
0.0
 11
-11649.25783816303
 21
11062.53197525137
 31
0.0
  0
ARC
  5
212
330
6C
100
AcDbEntity
  8
Visible (ISO)
100
AcDbCircle
 10
-11649.25783816303
 20
11066.47424823158
 30
0.0
 40
4.05
100
AcDbArc
 50
180.0
 51
270.0
  0
ARC
  5
213
330
6C
100
AcDbEntity
  8
Visible (ISO)
100
AcDbCircle
 10
-11649.25783816303
 20
11075.87424823158
 30
0.0
 40
4.05
100
AcDbArc
 50
90.0
 51
180.0
  0
LINE
  5
214
330
6C
100
AcDbEntity
  8
Visible (ISO)
100
AcDbLine
 10
-11649.25783816303
 20
11079.92424823158
 30
0.0
 11
-11647.80783816303
 21
11079.92424823158
 31
0.0
  0
LINE
  5
215
330
6C
100
AcDbEntity
  8
Visible (ISO)
100
AcDbLine
 10
-11649.25783816303
 20
11062.42424823158
 30
0.0
 11
-11647.80783816303
 21
11062.42424823158
 31
0.0
  0
LINE
  5
216
330
6C
100
AcDbEntity
  8
Visible (ISO)
100
AcDbLine
 10
-11653.30783816303
 20
11136.47424823158
 30
0.0
 11
-11653.30783816303
 21
11145.87424823158
 31
0.0
  0
LINE
  5
217
330
6C
100
AcDbEntity
  8
Visible Narrow (ISO)
100
AcDbLine
 10
-11649.25783816303
 20
11149.81652121179
 30
0.0
 11
-11649.25783816303
 21
11132.53197525137
 31
0.0
  0
ARC
  5
218
330
6C
100
AcDbEntity
  8
Visible (ISO)
100
AcDbCircle
 10
-11649.25783816303
 20
11136.47424823158
 30
0.0
 40
4.05
100
AcDbArc
 50
180.0
 51
270.0
  0
ARC
  5
219
330
6C
100
AcDbEntity
  8
Visible (ISO)
100
AcDbCircle
 10
-11649.25783816303
 20
11145.87424823158
 30
0.0
 40
4.05
100
AcDbArc
 50
90.0
 51
180.0
  0
LINE
  5
21A
330
6C
100
AcDbEntity
  8
Visible (ISO)
100
AcDbLine
 10
-11649.25783816303
 20
11149.92424823158
 30
0.0
 11
-11647.80783816303
 21
11149.92424823158
 31
0.0
  0
LINE
  5
21B
330
6C
100
AcDbEntity
  8
Visible (ISO)
100
AcDbLine
 10
-11649.25783816303
 20
11132.42424823158
 30
0.0
 11
-11647.80783816303
 21
11132.42424823158
 31
0.0
  0
LINE
  5
21C
330
6C
100
AcDbEntity
  8
Visible (ISO)
100
AcDbLine
 10
-9505.60783816303
 20
8861.174248231579
 30
0.0
 11
-9505.60783816303
 21
8871.174248231579
 31
0.0
  0
LINE
  5
21D
330
6C
100
AcDbEntity
  8
Visible (ISO)
100
AcDbLine
 10
-15675.60783816303
 20
8871.174248231579
 30
0.0
 11
-13640.60783816303
 21
8871.174248231579
 31
0.0
  0
LINE
  5
21E
330
6C
100
AcDbEntity
  8
Visible (ISO)
100
AcDbLine
 10
-11540.60783816303
 20
8871.174248231579
 30
0.0
 11
-9505.60783816303
 21
8871.174248231579
 31
0.0
  0
LINE
  5
21F
330
6C
100
AcDbEntity
  8
Visible (ISO)
100
AcDbLine
 10
-9505.607838163033
 20
8861.174248231579
 30
0.0
 11
-11540.60783816303
 21
8861.174248231579
 31
0.0
  0
LINE
  5
220
330
6C
100
AcDbEntity
  8
Visible Narrow (ISO)
100
AcDbLine
 10
-11540.60783816303
 20
8870.674248231578
 30
0.0
 11
-11540.60783816303
 21
8861.67424823158
 31
0.0
  0
LINE
  5
221
330
6C
100
AcDbEntity
  8
Visible Narrow (ISO)
100
AcDbLine
 10
-13640.60783816303
 20
8861.67424823158
 30
0.0
 11
-13640.60783816303
 21
8870.674248231578
 31
0.0
  0
LINE
  5
222
330
6C
100
AcDbEntity
  8
Visible (ISO)
100
AcDbLine
 10
-13640.60783816303
 20
8861.174248231579
 30
0.0
 11
-15675.60783816303
 21
8861.174248231579
 31
0.0
  0
LINE
  5
223
330
6C
100
AcDbEntity
  8
Visible (ISO)
100
AcDbLine
 10
-15675.60783816303
 20
8871.174248231579
 30
0.0
 11
-15675.60783816303
 21
8861.174248231579
 31
0.0
  0
LINE
  5
224
330
6C
100
AcDbEntity
  8
Visible (ISO)
100
AcDbLine
 10
-13640.60783816303
 20
8871.174248231579
 30
0.0
 11
-11540.60783816303
 21
8871.174248231579
 31
0.0
  0
LINE
  5
225
330
6C
100
AcDbEntity
  8
Visible (ISO)
100
AcDbLine
 10
-13640.60783816303
 20
8861.174248231579
 30
0.0
 11
-11540.60783816303
 21
8861.174248231579
 31
0.0
  0
SPLINE
  5
226
330
6C
100
AcDbEntity
  8
Visible (ISO)
100
AcDbSpline
210
0.0
220
0.0
230
1.0
 70
    12
 71
     3
 72
    18
 73
    14
 74
     0
 42
0.0000000001
 43
0.0000000001
 40
-1.787238537295985
 40
-1.787238537295985
 40
-1.787238537295985
 40
-1.787238537295985
 40
-1.71006237069049
 40
-1.71006237069049
 40
-1.365041928613183
 40
-1.365041928613183
 40
-1.026945829947696
 40
-1.026945829947696
 40
-0.7193452366222881
 40
-0.7193452366222881
 40
-0.445031410475866
 40
-0.445031410475866
 40
-0.1776365713640136
 40
-0.1776365713640136
 40
-0.1776365713640136
 40
-0.1776365713640136
 10
-13510.87735002132
 20
8313.064625607477
 30
0.0
 41
1.0
 10
-13510.87803653515
 20
8313.064620406144
 30
0.0
 41
1.0
 10
-13510.85922563531
 20
8313.064146062012
 30
0.0
 41
1.0
 10
-13510.64653129296
 20
8313.059011203929
 30
0.0
 41
1.0
 10
-13510.07369932926
 20
8313.045337530908
 30
0.0
 41
1.0
 10
-13508.39133996757
 20
8312.998703703183
 30
0.0
 41
1.0
 10
-13507.29826797165
 20
8312.965726725888
 30
0.0
 41
1.0
 10
-13505.14086537134
 20
8312.892348781678
 30
0.0
 41
1.0
 10
-13504.08768703424
 20
8312.853119996907
 30
0.0
 41
1.0
 10
-13502.38758332965
 20
8312.785877165254
 30
0.0
 41
1.0
 10
-13501.71084685324
 20
8312.75738075252
 30
0.0
 41
1.0
 10
-13500.80442347902
 20
8312.718508748469
 30
0.0
 41
1.0
 10
-13500.56521341119
 20
8312.707864862582
 30
0.0
 41
1.0
 10
-13500.56496670082
 20
8312.70784834413
 30
0.0
 41
1.0
  0
SPLINE
  5
227
330
6C
100
AcDbEntity
  8
Visible (ISO)
100
AcDbSpline
210
0.0
220
0.0
230
1.0
 70
    12
 71
     3
 72
    20
 73
    16
 74
     0
 42
0.0000000001
 43
0.0000000001
 40
-1.924807063187094
 40
-1.924807063187094
 40
-1.924807063187094
 40
-1.924807063187094
 40
-1.716674626548987
 40
-1.716674626548987
 40
-1.369693895492525
 40
-1.369693895492525
 40
-1.029645560627019
 40
-1.029645560627019
 40
-0.7215545337430558
 40
-0.7215545337430558
 40
-0.4440747845489095
 40
-0.4440747845489095
 40
-0.1707979940572603
 40
-0.1707979940572603
 40
-0.0133185709069297
 40
-0.0133185709069297
 40
-0.0133185709069297
 40
-0.0133185709069297
 10
-13595.60483585892
 20
8312.959223829045
 30
0.0
 41
1.0
 10
-13595.79443358817
 20
8312.937636966987
 30
0.0
 41
1.0
 10
-13595.85176713695
 20
8312.913580435022
 30
0.0
 41
1.0
 10
-13595.6190366383
 20
8312.846844131691
 30
0.0
 41
1.0
 10
-13595.07385056446
 20
8312.802992540557
 30
0.0
 41
1.0
 10
-13593.42966970533
 20
8312.735882048768
 30
0.0
 41
1.0
 10
-13592.34695507356
 20
8312.712844651986
 30
0.0
 41
1.0
 10
-13590.19031913756
 20
8312.70164225865
 30
0.0
 41
1.0
 10
-13589.13008985328
 20
8312.710376191221
 30
0.0
 41
1.0
 10
-13587.38894384723
 20
8312.749423237656
 30
0.0
 41
1.0
 10
-13586.68278034907
 20
8312.777240654895
 30
0.0
 41
1.0
 10
-13585.70976093883
 20
8312.839924977215
 30
0.0
 41
1.0
 10
-13585.43757848271
 20
8312.874445904116
 30
0.0
 41
1.0
 10
-13585.39763766993
 20
8312.925233863877
 30
0.0
 41
1.0
 10
-13585.46395361146
 20
8312.943052438521
 30
0.0
 41
1.0
 10
-13585.60785119887
 20
8312.95936483268
 30
0.0
 41
1.0
  0
SPLINE
  5
228
330
6C
100
AcDbEntity
  8
Visible (ISO)
100
AcDbSpline
210
0.0
220
0.0
230
1.0
 70
    12
 71
     3
 72
    18
 73
    14
 74
     0
 42
0.0000000001
 43
0.0000000001
 40
-1.630024975632529
 40
-1.630024975632529
 40
-1.630024975632529
 40
-1.630024975632529
 40
-1.371840256718823
 40
-1.371840256718823
 40
-1.030725615519345
 40
-1.030725615519345
 40
-0.7218612799002004
 40
-0.7218612799002004
 40
-0.4444969964659508
 40
-0.4444969964659508
 40
-0.1709603832561767
 40
-0.1709603832561767
 40
-0.0000000000000679
 40
-0.0000000000000679
 40
-0.0000000000000679
 40
-0.0000000000000679
 10
-13680.71759060971
 20
8312.704754980419
 30
0.0
 41
1.0
 10
-13680.71557971801
 20
8312.704891423065
 30
0.0
 41
1.0
 10
-13680.49910444103
 20
8312.714462665971
 30
0.0
 41
1.0
 10
-13679.53890209536
 20
8312.755843994285
 30
0.0
 41
1.0
 10
-13678.65204599572
 20
8312.793302455741
 30
0.0
 41
1.0
 10
-13676.65755932113
 20
8312.87070688918
 30
0.0
 41
1.0
 10
-13675.583666204
 20
8312.90965362932
 30
0.0
 41
1.0
 10
-13673.64862192939
 20
8312.97364647607
 30
0.0
 41
1.0
 10
-13672.77959077663
 20
8312.999691742575
 30
0.0
 41
1.0
 10
-13671.38224005852
 20
8313.03869382628
 30
0.0
 41
1.0
 10
-13670.85124500201
 20
8313.051964785497
 30
0.0
 41
1.0
 10
-13670.36836724131
 20
8313.06380338052
 30
0.0
 41
1.0
 10
-13670.27292950763
 20
8313.066052144165
 30
0.0
 41
1.0
 10
-13670.27292950763
 20
8313.066052144165
 30
0.0
 41
1.0
  0
LINE
  5
229
330
6C
100
AcDbEntity
  8
Visible Narrow (ISO)
100
AcDbLine
 10
-13343.68575246062
 20
8238.174248231578
 30
0.0
 11
-13837.52992328267
 21
8238.174248231578
 31
0.0
  0
LINE
  5
22A
330
6C
100
AcDbEntity
  8
Visible (ISO)
100
AcDbLine
 10
-13340.60783816303
 20
8163.17424823158
 30
0.0
 11
-13840.60783816303
 21
8163.17424823158
 31
0.0
  0
SPLINE
  5
22B
330
6C
100
AcDbEntity
  8
Visible (ISO)
100
AcDbSpline
210
0.0
220
0.0
230
1.0
 70
     8
 71
     3
 72
    16
 73
    12
 74
     0
 42
0.0000000001
 43
0.0000000001
 40
1.570796326794896
 40
1.570796326794896
 40
1.570796326794896
 40
1.570796326794896
 40
1.581540484233952
 40
1.581540484233952
 40
1.592284641673008
 40
1.592284641673008
 40
1.603028799112064
 40
1.603028799112064
 40
1.61377295655112
 40
1.61377295655112
 40
1.624517113990175
 40
1.624517113990175
 40
1.624517113990175
 40
1.624517113990175
 10
-13660.60783816303
 20
8313.174248231579
 30
0.0
 10
-13661.25248760937
 20
8313.174248231579
 30
0.0
 10
-13661.89713705557
 20
8313.172805256211
 30
0.0
 10
-13663.18636153263
 20
8313.167033521304
 30
0.0
 10
-13663.8309365632
 20
8313.162704761765
 30
0.0
 10
-13665.11993780195
 20
8313.151161958215
 30
0.0
 10
-13665.76436400986
 20
8313.143947914205
 30
0.0
 10
-13667.05299321341
 20
8313.126635374469
 30
0.0
 10
-13667.69719620878
 20
8313.116536878743
 30
0.0
 10
-13668.98530462318
 20
8313.093456601302
 30
0.0
 10
-13669.62921004193
 20
8313.080474819591
 30
0.0
 10
-13670.27292950763
 20
8313.066052144165
 30
0.0
  0
SPLINE
  5
22C
330
6C
100
AcDbEntity
  8
Visible (ISO)
100
AcDbSpline
210
0.0
220
0.0
230
1.0
 70
     8
 71
     3
 72
    18
 73
    14
 74
     0
 42
0.0000000001
 43
0.0000000001
 40
1.682759995807404
 40
1.682759995807404
 40
1.682759995807404
 40
1.682759995807404
 40
1.974526527363882
 40
1.974526527363882
 40
2.26629305892036
 40
2.26629305892036
 40
2.558059590476838
 40
2.558059590476838
 40
2.849826122033316
 40
2.849826122033316
 40
3.035671384981435
 40
3.035671384981435
 40
3.141592653589793
 40
3.141592653589793
 40
3.141592653589793
 40
3.141592653589793
 10
-13680.71921813261
 20
8312.704644244297
 30
0.0
 10
-13698.11559824474
 20
8311.889668191723
 30
0.0
 10
-13715.22253946001
 20
8310.009918817121
 30
0.0
 10
-13747.41962910392
 20
8304.278874774004
 30
0.0
 10
-13762.50590454315
 20
8300.428269493043
 30
0.0
 10
-13789.38584766778
 20
8291.080553024434
 30
0.0
 10
-13801.17628196356
 20
8285.584566274037
 30
0.0
 10
-13820.46703723649
 20
8273.410298031674
 30
0.0
 10
-13827.96503772778
 20
8266.733480983001
 30
0.0
 10
-13836.20798339813
 20
8255.297815972523
 30
0.0
 10
-13838.42015281369
 20
8250.723589881754
 30
0.0
 10
-13840.27094437908
 20
8243.470306109701
 30
0.0
 10
-13840.60783816303
 20
8240.822279946788
 30
0.0
 10
-13840.60783816303
 20
8238.174248231578
 30
0.0
  0
SPLINE
  5
22D
330
6C
100
AcDbEntity
  8
Visible (ISO)
100
AcDbSpline
210
0.0
220
0.0
230
1.0
 70
     8
 71
     3
 72
    16
 73
    12
 74
     0
 42
0.0000000001
 43
0.0000000001
 40
1.570796326794896
 40
1.570796326794896
 40
1.570796326794896
 40
1.570796326794896
 40
1.581611661120144
 40
1.581611661120144
 40
1.592426995445392
 40
1.592426995445392
 40
1.603242329770639
 40
1.603242329770639
 40
1.614057664095887
 40
1.614057664095887
 40
1.624872998421134
 40
1.624872998421134
 40
1.624872998421134
 40
1.624872998421134
 10
-13520.60783816303
 20
8313.174248231579
 30
0.0
 10
-13519.95891810351
 20
8313.174248231579
 30
0.0
 10
-13519.30999804415
 20
8313.172786074119
 30
0.0
 10
-13518.0122338295
 20
8313.166937615312
 30
0.0
 10
-13517.36338967452
 20
8313.162551313963
 30
0.0
 10
-13516.06585316415
 20
8313.150855080436
 30
0.0
 10
-13515.41716080906
 20
8313.143545148268
 30
0.0
 10
-13514.12000377622
 20
8313.126002508141
 30
0.0
 10
-13513.47153909877
 20
8313.115769800191
 30
0.0
 10
-13512.17491327233
 20
8313.092382805434
 30
0.0
 10
-13511.52675212364
 20
8313.079228518629
 30
0.0
 10
-13510.87878064699
 20
8313.064614211727
 30
0.0
  0
SPLINE
  5
22E
330
6C
100
AcDbEntity
  8
Visible (ISO)
100
AcDbSpline
210
0.0
220
0.0
230
1.0
 70
     8
 71
     3
 72
    18
 73
    14
 74
     0
 42
0.0000000001
 43
0.0000000001
 40
1.682377054421391
 40
1.682377054421391
 40
1.682377054421391
 40
1.682377054421391
 40
1.974220174255071
 40
1.974220174255071
 40
2.266063294088751
 40
2.266063294088751
 40
2.557906413922432
 40
2.557906413922432
 40
2.849749533756112
 40
2.849749533756112
 40
3.035621581656529
 40
3.035621581656529
 40
3.141592653589793
 40
3.141592653589793
 40
3.141592653589793
 40
3.141592653589793
 10
-13500.56495752194
 20
8312.707847729381
 30
0.0
 10
-13483.16326295404
 20
8311.895434282607
 30
0.0
 10
-13466.05018281924
 20
8310.017638511633
 30
0.0
 10
-13433.84042815721
 20
8304.289201291862
 30
0.0
 10
-13418.74763220445
 20
8300.439249639394
 30
0.0
 10
-13391.85547782811
 20
8291.091653692181
 30
0.0
 10
-13380.05935765406
 20
8285.595134998894
 30
0.0
 10
-13360.75906208844
 20
8273.41890270017
 30
0.0
 10
-13353.25721076404
 20
8266.74065530967
 30
0.0
 10
-13345.01037856726
 20
8255.302778326981
 30
0.0
 10
-13342.79719371758
 20
8250.727945585486
 30
0.0
 10
-13340.94504912654
 20
8243.472796262883
 30
0.0
 10
-13340.60783816303
 20
8240.82352502991
 30
0.0
 10
-13340.60783816303
 20
8238.174248231578
 30
0.0
  0
LINE
  5
22F
330
6C
100
AcDbEntity
  8
Visible (ISO)
100
AcDbLine
 10
-13840.60783816303
 20
8163.17424823158
 30
0.0
 11
-13840.60783816303
 21
8238.174248231578
 31
0.0
  0
LINE
  5
230
330
6C
100
AcDbEntity
  8
Visible (ISO)
100
AcDbLine
 10
-13340.60783816303
 20
8163.17424823158
 30
0.0
 11
-13340.60783816303
 21
8238.174248231578
 31
0.0
  0
SPLINE
  5
231
330
6C
100
AcDbEntity
  8
Visible (ISO)
100
AcDbSpline
210
0.0
220
0.0
230
1.0
 70
    12
 71
     3
 72
    16
 73
    12
 74
     0
 42
0.0000000001
 43
0.0000000001
 40
-3.21920367780631
 40
-3.21920367780631
 40
-3.21920367780631
 40
-3.21920367780631
 40
-3.144907213975396
 40
-3.144907213975396
 40
-2.787539367331071
 40
-2.787539367331071
 40
-2.424347457857939
 40
-2.424347457857939
 40
-2.066653533424752
 40
-2.066653533424752
 40
-1.787238537295985
 40
-1.787238537295985
 40
-1.787238537295985
 40
-1.787238537295985
 10
-11680.34366415502
 20
8312.721287214609
 30
0.0
 41
1.0
 10
-11680.25892027856
 20
8312.724974940076
 30
0.0
 41
1.0
 10
-11680.15714456666
 20
8312.729386574766
 30
0.0
 41
1.0
 10
-11679.47305709215
 20
8312.758809975198
 30
0.0
 41
1.0
 10
-11678.52639347098
 20
8312.798694779122
 30
0.0
 41
1.0
 10
-11676.28337422275
 20
8312.884952239926
 30
0.0
 41
1.0
 10
-11674.99057071144
 20
8312.930559514185
 30
0.0
 41
1.0
 10
-11672.70055005589
 20
8313.002924774739
 30
0.0
 41
1.0
 10
-11671.70816886585
 20
8313.029988259145
 30
0.0
 41
1.0
 10
-11670.59886741553
 20
8313.058513794688
 30
0.0
 41
1.0
 10
-11670.34081181636
 20
8313.064644438812
 30
0.0
 41
1.0
 10
-11670.33832630474
 20
8313.064625607477
 30
0.0
 41
1.0
  0
SPLINE
  5
232
330
6C
100
AcDbEntity
  8
Visible (ISO)
100
AcDbSpline
210
0.0
220
0.0
230
1.0
 70
    12
 71
     3
 72
    10
 73
     6
 74
     0
 42
0.0000000001
 43
0.0000000001
 40
-0.177636571364018
 40
-0.177636571364018
 40
-0.177636571364018
 40
-0.177636571364018
 40
-0.1711659271061255
 40
-0.1711659271061255
 40
-0.0000000000000377
 40
-0.0000000000000377
 40
-0.0000000000000377
 40
-0.0000000000000377
 10
-11680.65070962524
 20
8312.70784834413
 30
0.0
 41
1.0
 10
-11680.65071559534
 20
8312.7078479444
 30
0.0
 41
1.0
 10
-11680.65058163239
 20
8312.707853767888
 30
0.0
 41
1.0
 10
-11680.64305048862
 20
8312.708185292679
 30
0.0
 41
1.0
 10
-11680.53889907513
 20
8312.712791346617
 30
0.0
 41
1.0
 10
-11680.34366415502
 20
8312.721287214609
 30
0.0
 41
1.0
  0
SPLINE
  5
233
330
6C
100
AcDbEntity
  8
Visible (ISO)
100
AcDbSpline
210
0.0
220
0.0
230
1.0
 70
    12
 71
     3
 72
    20
 73
    16
 74
     0
 42
0.0000000001
 43
0.0000000001
 40
-2.593825353815813
 40
-2.593825353815813
 40
-2.593825353815813
 40
-2.593825353815813
 40
-2.444876729396556
 40
-2.444876729396556
 40
-2.081458385646629
 40
-2.081458385646629
 40
-1.720207435399889
 40
-1.720207435399889
 40
-1.371840256717066
 40
-1.371840256717066
 40
-1.030725615518616
 40
-1.030725615518616
 40
-0.7218612798990212
 40
-0.7218612798990212
 40
-0.6662270921109644
 40
-0.6662270921109644
 40
-0.6662270921109644
 40
-0.6662270921109644
 10
-11595.60487053689
 20
8312.960932689348
 30
0.0
 41
1.0
 10
-11595.74653381925
 20
8312.945635111338
 30
0.0
 41
1.0
 10
-11595.82080732386
 20
8312.92905625934
 30
0.0
 41
1.0
 10
-11595.82038942619
 20
8312.869083048008
 30
0.0
 41
1.0
 10
-11595.37763306055
 20
8312.821934803293
 30
0.0
 41
1.0
 10
-11593.81348975755
 20
8312.745692905854
 30
0.0
 41
1.0
 10
-11592.70186629979
 20
8312.717347986762
 30
0.0
 41
1.0
 10
-11590.36024044728
 20
8312.699212382026
 30
0.0
 41
1.0
 10
-11589.14388764804
 20
8312.70823561114
 30
0.0
 41
1.0
 10
-11587.11469795148
 20
8312.755843994285
 30
0.0
 41
1.0
 10
-11586.29963273138
 20
8312.793302455741
 30
0.0
 41
1.0
 10
-11585.42119279571
 20
8312.870706889182
 30
0.0
 41
1.0
 10
-11585.29411770201
 20
8312.909653629322
 30
0.0
 41
1.0
 10
-11585.51206211573
 20
8312.949442369399
 30
0.0
 41
1.0
 10
-11585.55536772449
 20
8312.955345148486
 30
0.0
 41
1.0
 10
-11585.60825654043
 20
8312.96106009913
 30
0.0
 41
1.0
  0
SPLINE
  5
234
330
6C
100
AcDbEntity
  8
Visible (ISO)
100
AcDbSpline
210
0.0
220
0.0
230
1.0
 70
    12
 71
     3
 72
    18
 73
    14
 74
     0
 42
0.0000000001
 43
0.0000000001
 40
-3.260051491272619
 40
-3.260051491272619
 40
-3.260051491272619
 40
-3.260051491272619
 40
-3.179955838887736
 40
-3.179955838887736
 40
-2.812782097510741
 40
-2.812782097510741
 40
-2.444876729396952
 40
-2.444876729396952
 40
-2.08145838564839
 40
-2.08145838564839
 40
-1.720207435400531
 40
-1.720207435400531
 40
-1.630024975632544
 40
-1.630024975632544
 40
-1.630024975632544
 40
-1.630024975632544
 10
-11510.94274681842
 20
8313.066052144165
 30
0.0
 41
1.0
 10
-11510.94274681842
 20
8313.066052144165
 30
0.0
 41
1.0
 10
-11510.92194926246
 20
8313.065557230464
 30
0.0
 41
1.0
 10
-11510.69101648684
 20
8313.060012097929
 30
0.0
 41
1.0
 10
-11510.05410093033
 20
8313.044895267429
 30
0.0
 41
1.0
 10
-11508.18098731014
 20
8312.992528156648
 30
0.0
 41
1.0
 10
-11506.95152169066
 20
8312.954685427255
 30
0.0
 41
1.0
 10
-11504.49837109837
 20
8312.869083048008
 30
0.0
 41
1.0
 10
-11503.28434114277
 20
8312.821934803293
 30
0.0
 41
1.0
 10
-11501.42588691943
 20
8312.745692905854
 30
0.0
 41
1.0
 10
-11500.78497893078
 20
8312.717347986762
 30
0.0
 41
1.0
 10
-11500.52284698622
 20
8312.705810770401
 30
0.0
 41
1.0
 10
-11500.49738332327
 20
8312.704707321776
 30
0.0
 41
1.0
 10
-11500.49808571635
 20
8312.704754980419
 30
0.0
 41
1.0
  0
ELLIPSE
  5
235
330
6C
100
AcDbEntity
  8
Visible Narrow (ISO)
100
AcDbEllipse
 10
-11640.10531284609
 20
8238.174248231578
 30
0.0
 11
127.2792206135785
 21
0.0000000000001143
 31
0.0
210
0.0
220
0.0
230
1.0
 40
0.5892556509887889
 41
1.649336143134644
 42
3.063052837250051
  0
LINE
  5
236
330
6C
100
AcDbEntity
  8
Visible Narrow (ISO)
100
AcDbLine
 10
-11343.68575301424
 20
8238.174248231578
 30
0.0
 11
-11837.52992331181
 21
8238.174248231578
 31
0.0
  0
LINE
  5
237
330
6C
100
AcDbEntity
  8
Visible (ISO)
100
AcDbLine
 10
-11340.60783816303
 20
8163.17424823158
 30
0.0
 11
-11840.60783816303
 21
8163.17424823158
 31
0.0
  0
SPLINE
  5
238
330
6C
100
AcDbEntity
  8
Visible (ISO)
100
AcDbSpline
210
0.0
220
0.0
230
1.0
 70
     8
 71
     3
 72
    16
 73
    12
 74
     0
 42
0.0000000001
 43
0.0000000001
 40
1.570796326794896
 40
1.570796326794896
 40
1.570796326794896
 40
1.570796326794896
 40
1.581611661120144
 40
1.581611661120144
 40
1.592426995445392
 40
1.592426995445392
 40
1.603242329770639
 40
1.603242329770639
 40
1.614057664095887
 40
1.614057664095887
 40
1.624872998421134
 40
1.624872998421134
 40
1.624872998421134
 40
1.624872998421134
 10
-11660.60783816303
 20
8313.174248231579
 30
0.0
 10
-11661.25675822254
 20
8313.174248231579
 30
0.0
 10
-11661.90567828191
 20
8313.172786074119
 30
0.0
 10
-11663.20344249656
 20
8313.166937615312
 30
0.0
 10
-11663.85228665154
 20
8313.162551313963
 30
0.0
 10
-11665.14982316191
 20
8313.150855080436
 30
0.0
 10
-11665.798515517
 20
8313.143545148268
 30
0.0
 10
-11667.09567254984
 20
8313.126002508141
 30
0.0
 10
-11667.74413722729
 20
8313.115769800194
 30
0.0
 10
-11669.04076305373
 20
8313.092382805434
 30
0.0
 10
-11669.68892420242
 20
8313.079228518629
 30
0.0
 10
-11670.33689567907
 20
8313.064614211727
 30
0.0
  0
SPLINE
  5
239
330
6C
100
AcDbEntity
  8
Visible (ISO)
100
AcDbSpline
210
0.0
220
0.0
230
1.0
 70
     8
 71
     3
 72
    18
 73
    14
 74
     0
 42
0.0000000001
 43
0.0000000001
 40
1.682377054421392
 40
1.682377054421392
 40
1.682377054421392
 40
1.682377054421392
 40
1.974220174255072
 40
1.974220174255072
 40
2.266063294088752
 40
2.266063294088752
 40
2.557906413922432
 40
2.557906413922432
 40
2.849749533756113
 40
2.849749533756113
 40
3.03562158165653
 40
3.03562158165653
 40
3.141592653589793
 40
3.141592653589793
 40
3.141592653589793
 40
3.141592653589793
 10
-11680.65071880412
 20
8312.707847729381
 30
0.0
 10
-11698.05241337201
 20
8311.895434282607
 30
0.0
 10
-11715.16549350682
 20
8310.017638511633
 30
0.0
 10
-11747.37524816884
 20
8304.289201291862
 30
0.0
 10
-11762.46804412161
 20
8300.439249639394
 30
0.0
 10
-11789.36019849795
 20
8291.091653692181
 30
0.0
 10
-11801.156318672
 20
8285.595134998894
 30
0.0
 10
-11820.45661423762
 20
8273.41890270017
 30
0.0
 10
-11827.95846556202
 20
8266.74065530967
 30
0.0
 10
-11836.2052977588
 20
8255.302778326981
 30
0.0
 10
-11838.41848260848
 20
8250.727945585486
 30
0.0
 10
-11840.27062719952
 20
8243.472796262883
 30
0.0
 10
-11840.60783816303
 20
8240.82352502991
 30
0.0
 10
-11840.60783816303
 20
8238.174248231578
 30
0.0
  0
SPLINE
  5
23A
330
6C
100
AcDbEntity
  8
Visible (ISO)
100
AcDbSpline
210
0.0
220
0.0
230
1.0
 70
     8
 71
     3
 72
    16
 73
    12
 74
     0
 42
0.0000000001
 43
0.0000000001
 40
1.570796326794896
 40
1.570796326794896
 40
1.570796326794896
 40
1.570796326794896
 40
1.581540484233952
 40
1.581540484233952
 40
1.592284641673008
 40
1.592284641673008
 40
1.603028799112064
 40
1.603028799112064
 40
1.61377295655112
 40
1.61377295655112
 40
1.624517113990175
 40
1.624517113990175
 40
1.624517113990175
 40
1.624517113990175
 10
-11520.60783816303
 20
8313.174248231579
 30
0.0
 10
-11519.96318871668
 20
8313.174248231579
 30
0.0
 10
-11519.31853927048
 20
8313.172805256211
 30
0.0
 10
-11518.02931479343
 20
8313.167033521304
 30
0.0
 10
-11517.38473976286
 20
8313.162704761765
 30
0.0
 10
-11516.0957385241
 20
8313.151161958215
 30
0.0
 10
-11515.4513123162
 20
8313.143947914205
 30
0.0
 10
-11514.16268311265
 20
8313.126635374469
 30
0.0
 10
-11513.51848011727
 20
8313.116536878743
 30
0.0
 10
-11512.23037170287
 20
8313.093456601302
 30
0.0
 10
-11511.58646628413
 20
8313.080474819591
 30
0.0
 10
-11510.94274681842
 20
8313.066052144165
 30
0.0
  0
SPLINE
  5
23B
330
6C
100
AcDbEntity
  8
Visible (ISO)
100
AcDbSpline
210
0.0
220
0.0
230
1.0
 70
     8
 71
     3
 72
    18
 73
    14
 74
     0
 42
0.0000000001
 43
0.0000000001
 40
1.682759995807404
 40
1.682759995807404
 40
1.682759995807404
 40
1.682759995807404
 40
1.974526527363882
 40
1.974526527363882
 40
2.266293058920359
 40
2.266293058920359
 40
2.558059590476837
 40
2.558059590476837
 40
2.849826122033315
 40
2.849826122033315
 40
3.035671384981435
 40
3.035671384981435
 40
3.141592653589793
 40
3.141592653589793
 40
3.141592653589793
 40
3.141592653589793
 10
-11500.49645819345
 20
8312.704644244297
 30
0.0
 10
-11483.10007808132
 20
8311.889668191723
 30
0.0
 10
-11465.99313686605
 20
8310.009918817121
 30
0.0
 10
-11433.79604722214
 20
8304.278874774004
 30
0.0
 10
-11418.70977178291
 20
8300.428269493043
 30
0.0
 10
-11391.82982865828
 20
8291.080553024434
 30
0.0
 10
-11380.0393943625
 20
8285.584566274037
 30
0.0
 10
-11360.74863908957
 20
8273.410298031674
 30
0.0
 10
-11353.25063859828
 20
8266.733480983001
 30
0.0
 10
-11345.00769292793
 20
8255.297815972523
 30
0.0
 10
-11342.79552351237
 20
8250.723589881754
 30
0.0
 10
-11340.94473194698
 20
8243.470306109701
 30
0.0
 10
-11340.60783816303
 20
8240.822279946788
 30
0.0
 10
-11340.60783816303
 20
8238.174248231578
 30
0.0
  0
LINE
  5
23C
330
6C
100
AcDbEntity
  8
Visible (ISO)
100
AcDbLine
 10
-11840.60783816303
 20
8163.17424823158
 30
0.0
 11
-11840.60783816303
 21
8238.174248231578
 31
0.0
  0
LINE
  5
23D
330
6C
100
AcDbEntity
  8
Visible (ISO)
100
AcDbLine
 10
-11340.60783816303
 20
8163.17424823158
 30
0.0
 11
-11340.60783816303
 21
8238.174248231578
 31
0.0
  0
SPLINE
  5
23E
330
6C
100
AcDbEntity
  8
Visible (ISO)
100
AcDbSpline
210
0.0
220
0.0
230
1.0
 70
    12
 71
     2
 72
     6
 73
     3
 74
     0
 42
0.0000000001
 43
0.0000000001
 40
0.4978532609589537
 40
0.4978532609589537
 40
0.4978532609589537
 40
0.9957065219179071
 40
0.9957065219179071
 40
0.9957065219179071
 10
-13594.85783816303
 20
8329.574348231579
 30
0.0
 41
1.0
 10
-13596.83027002736
 20
8329.574348231579
 30
0.0
 41
1.037954849302035
 10
-13599.10783816303
 20
8328.815158853023
 30
0.0
 41
1.0
  0
LINE
  5
23F
330
6C
100
AcDbEntity
  8
Visible (ISO)
100
AcDbLine
 10
-13594.85783816303
 20
8329.574348231579
 30
0.0
 11
-13599.10783816303
 21
8329.574348231579
 31
0.0
  0
SPLINE
  5
240
330
6C
100
AcDbEntity
  8
Visible (ISO)
100
AcDbSpline
210
0.0
220
0.0
230
1.0
 70
    28
 71
     2
 72
     6
 73
     3
 74
     0
 42
0.0000000001
 43
0.0000000001
 40
0.0
 40
0.0
 40
0.0
 40
0.4978532609589536
 40
0.4978532609589536
 40
0.4978532609589536
 10
-13599.10783816303
 20
8328.815158853023
 30
0.0
 41
1.0
 10
-13599.10783816303
 20
8329.574348231579
 30
0.0
 41
1.037954849302054
 10
-13599.10783816303
 20
8329.574348231579
 30
0.0
 41
1.0
  0
SPLINE
  5
241
330
6C
100
AcDbEntity
  8
Visible (ISO)
100
AcDbSpline
210
0.0
220
0.0
230
1.0
 70
    12
 71
     2
 72
     6
 73
     3
 74
     0
 42
0.0000000001
 43
0.0000000001
 40
0.4978532609589542
 40
0.4978532609589542
 40
0.4978532609589542
 40
0.9957065219179085
 40
0.9957065219179085
 40
0.9957065219179085
 10
-13586.35783816303
 20
8329.574348231579
 30
0.0
 41
1.0
 10
-13588.33027002736
 20
8329.574348231579
 30
0.0
 41
1.037954849302014
 10
-13590.60783816303
 20
8328.815158853023
 30
0.0
 41
1.0
  0
LINE
  5
242
330
6C
100
AcDbEntity
  8
Visible (ISO)
100
AcDbLine
 10
-13586.35783816303
 20
8329.574348231579
 30
0.0
 11
-13594.85783816303
 21
8329.574348231579
 31
0.0
  0
SPLINE
  5
243
330
6C
100
AcDbEntity
  8
Visible (ISO)
100
AcDbSpline
210
0.0
220
0.0
230
1.0
 70
    12
 71
     2
 72
     6
 73
     3
 74
     0
 42
0.0000000001
 43
0.0000000001
 40
0.0
 40
0.0
 40
0.0
 40
0.4978532609589537
 40
0.4978532609589537
 40
0.4978532609589537
 10
-13590.60783816303
 20
8328.815158853023
 30
0.0
 41
1.0
 10
-13592.88540629869
 20
8329.574348231579
 30
0.0
 41
1.037954849302049
 10
-13594.85783816303
 20
8329.574348231579
 30
0.0
 41
1.0
  0
SPLINE
  5
244
330
6C
100
AcDbEntity
  8
Visible (ISO)
100
AcDbSpline
210
0.0
220
0.0
230
1.0
 70
    28
 71
     2
 72
     6
 73
     3
 74
     0
 42
0.0000000001
 43
0.0000000001
 40
0.4978532609589534
 40
0.4978532609589534
 40
0.4978532609589534
 40
0.9957065219179066
 40
0.9957065219179066
 40
0.9957065219179066
 10
-13582.10783816303
 20
8329.574348231579
 30
0.0
 41
1.0
 10
-13582.10783816303
 20
8329.574348231579
 30
0.0
 41
1.037954849302054
 10
-13582.10783816303
 20
8328.815158853023
 30
0.0
 41
1.0
  0
LINE
  5
245
330
6C
100
AcDbEntity
  8
Visible (ISO)
100
AcDbLine
 10
-13582.10783816303
 20
8329.574348231579
 30
0.0
 11
-13586.35783816303
 21
8329.574348231579
 31
0.0
  0
SPLINE
  5
246
330
6C
100
AcDbEntity
  8
Visible (ISO)
100
AcDbSpline
210
0.0
220
0.0
230
1.0
 70
    12
 71
     2
 72
     6
 73
     3
 74
     0
 42
0.0000000001
 43
0.0000000001
 40
0.0
 40
0.0
 40
0.0
 40
0.4978532609589542
 40
0.4978532609589542
 40
0.4978532609589542
 10
-13582.10783816303
 20
8328.815158853023
 30
0.0
 41
1.0
 10
-13584.38540629869
 20
8329.574348231579
 30
0.0
 41
1.037954849302022
 10
-13586.35783816303
 20
8329.574348231579
 30
0.0
 41
1.0
  0
LINE
  5
247
330
6C
100
AcDbEntity
  8
Visible (ISO)
100
AcDbLine
 10
-13582.10783816303
 20
8323.774348231578
 30
0.0
 11
-13582.10783816303
 21
8328.815158853023
 31
0.0
  0
LINE
  5
248
330
6C
100
AcDbEntity
  8
Visible (ISO)
100
AcDbLine
 10
-13590.60783816303
 20
8323.774348231578
 30
0.0
 11
-13590.60783816303
 21
8328.815158853023
 31
0.0
  0
LINE
  5
249
330
6C
100
AcDbEntity
  8
Visible (ISO)
100
AcDbLine
 10
-13582.10783816303
 20
8323.774348231578
 30
0.0
 11
-13590.60783816303
 21
8323.774348231578
 31
0.0
  0
LINE
  5
24A
330
6C
100
AcDbEntity
  8
Visible (ISO)
100
AcDbLine
 10
-13599.10783816303
 20
8323.774348231578
 30
0.0
 11
-13599.10783816303
 21
8328.815158853023
 31
0.0
  0
LINE
  5
24B
330
6C
100
AcDbEntity
  8
Visible (ISO)
100
AcDbLine
 10
-13590.60783816303
 20
8323.774348231578
 30
0.0
 11
-13599.10783816303
 21
8323.774348231578
 31
0.0
  0
LINE
  5
24C
330
6C
100
AcDbEntity
  8
Visible (ISO)
100
AcDbLine
 10
-13585.60783816303
 20
8313.174248231579
 30
0.0
 11
-13585.60783816303
 21
8312.860186083652
 31
0.0
  0
LINE
  5
24D
330
6C
100
AcDbEntity
  8
Visible (ISO)
100
AcDbLine
 10
-13595.60783816303
 20
8313.174248231579
 30
0.0
 11
-13595.60783816303
 21
8312.860186083652
 31
0.0
  0
LINE
  5
24E
330
6C
100
AcDbEntity
  8
Visible (ISO)
100
AcDbLine
 10
-13582.90783816303
 20
8323.774348231578
 30
0.0
 11
-13582.90783816303
 21
8323.174248231579
 31
0.0
  0
LINE
  5
24F
330
6C
100
AcDbEntity
  8
Visible (ISO)
100
AcDbLine
 10
-13598.30783816303
 20
8323.774348231578
 30
0.0
 11
-13598.30783816303
 21
8323.174248231579
 31
0.0
  0
SPLINE
  5
250
330
6C
100
AcDbEntity
  8
Visible (ISO)
100
AcDbSpline
210
0.0
220
0.0
230
1.0
 70
    12
 71
     2
 72
     6
 73
     3
 74
     0
 42
0.0000000001
 43
0.0000000001
 40
0.4978532609589537
 40
0.4978532609589537
 40
0.4978532609589537
 40
0.9957065219179071
 40
0.9957065219179071
 40
0.9957065219179071
 10
-13510.00502442065
 20
8329.574348231579
 30
0.0
 41
1.0
 10
-13511.97745628498
 20
8329.574348231579
 30
0.0
 41
1.037954849302035
 10
-13514.25502442064
 20
8328.815158853023
 30
0.0
 41
1.0
  0
LINE
  5
251
330
6C
100
AcDbEntity
  8
Visible (ISO)
100
AcDbLine
 10
-13510.00502442065
 20
8329.574348231579
 30
0.0
 11
-13514.25502442064
 21
8329.574348231579
 31
0.0
  0
SPLINE
  5
252
330
6C
100
AcDbEntity
  8
Visible (ISO)
100
AcDbSpline
210
0.0
220
0.0
230
1.0
 70
    28
 71
     2
 72
     6
 73
     3
 74
     0
 42
0.0000000001
 43
0.0000000001
 40
0.0
 40
0.0
 40
0.0
 40
0.4978532609589536
 40
0.4978532609589536
 40
0.4978532609589536
 10
-13514.25502442064
 20
8328.815158853023
 30
0.0
 41
1.0
 10
-13514.25502442064
 20
8329.574348231579
 30
0.0
 41
1.037954849302054
 10
-13514.25502442064
 20
8329.574348231579
 30
0.0
 41
1.0
  0
SPLINE
  5
253
330
6C
100
AcDbEntity
  8
Visible (ISO)
100
AcDbSpline
210
0.0
220
0.0
230
1.0
 70
    12
 71
     2
 72
     6
 73
     3
 74
     0
 42
0.0000000001
 43
0.0000000001
 40
0.4978532609589542
 40
0.4978532609589542
 40
0.4978532609589542
 40
0.9957065219179085
 40
0.9957065219179085
 40
0.9957065219179085
 10
-13501.50502442064
 20
8329.574348231579
 30
0.0
 41
1.0
 10
-13503.47745628498
 20
8329.574348231579
 30
0.0
 41
1.037954849302014
 10
-13505.75502442064
 20
8328.815158853023
 30
0.0
 41
1.0
  0
LINE
  5
254
330
6C
100
AcDbEntity
  8
Visible (ISO)
100
AcDbLine
 10
-13501.50502442064
 20
8329.574348231579
 30
0.0
 11
-13510.00502442065
 21
8329.574348231579
 31
0.0
  0
SPLINE
  5
255
330
6C
100
AcDbEntity
  8
Visible (ISO)
100
AcDbSpline
210
0.0
220
0.0
230
1.0
 70
    12
 71
     2
 72
     6
 73
     3
 74
     0
 42
0.0000000001
 43
0.0000000001
 40
0.0
 40
0.0
 40
0.0
 40
0.4978532609589537
 40
0.4978532609589537
 40
0.4978532609589537
 10
-13505.75502442064
 20
8328.815158853023
 30
0.0
 41
1.0
 10
-13508.03259255631
 20
8329.574348231579
 30
0.0
 41
1.037954849302049
 10
-13510.00502442065
 20
8329.574348231579
 30
0.0
 41
1.0
  0
SPLINE
  5
256
330
6C
100
AcDbEntity
  8
Visible (ISO)
100
AcDbSpline
210
0.0
220
0.0
230
1.0
 70
    28
 71
     2
 72
     6
 73
     3
 74
     0
 42
0.0000000001
 43
0.0000000001
 40
0.4978532609589534
 40
0.4978532609589534
 40
0.4978532609589534
 40
0.9957065219179066
 40
0.9957065219179066
 40
0.9957065219179066
 10
-13497.25502442064
 20
8329.574348231579
 30
0.0
 41
1.0
 10
-13497.25502442064
 20
8329.574348231579
 30
0.0
 41
1.037954849302054
 10
-13497.25502442064
 20
8328.815158853023
 30
0.0
 41
1.0
  0
LINE
  5
257
330
6C
100
AcDbEntity
  8
Visible (ISO)
100
AcDbLine
 10
-13497.25502442064
 20
8329.574348231579
 30
0.0
 11
-13501.50502442064
 21
8329.574348231579
 31
0.0
  0
SPLINE
  5
258
330
6C
100
AcDbEntity
  8
Visible (ISO)
100
AcDbSpline
210
0.0
220
0.0
230
1.0
 70
    12
 71
     2
 72
     6
 73
     3
 74
     0
 42
0.0000000001
 43
0.0000000001
 40
0.0
 40
0.0
 40
0.0
 40
0.4978532609589542
 40
0.4978532609589542
 40
0.4978532609589542
 10
-13497.25502442064
 20
8328.815158853023
 30
0.0
 41
1.0
 10
-13499.53259255631
 20
8329.574348231579
 30
0.0
 41
1.037954849302022
 10
-13501.50502442064
 20
8329.574348231579
 30
0.0
 41
1.0
  0
LINE
  5
259
330
6C
100
AcDbEntity
  8
Visible (ISO)
100
AcDbLine
 10
-13497.25502442064
 20
8323.774348231578
 30
0.0
 11
-13497.25502442064
 21
8328.815158853023
 31
0.0
  0
LINE
  5
25A
330
6C
100
AcDbEntity
  8
Visible (ISO)
100
AcDbLine
 10
-13505.75502442064
 20
8323.774348231578
 30
0.0
 11
-13505.75502442064
 21
8328.815158853023
 31
0.0
  0
LINE
  5
25B
330
6C
100
AcDbEntity
  8
Visible (ISO)
100
AcDbLine
 10
-13497.25502442064
 20
8323.774348231578
 30
0.0
 11
-13505.75502442064
 21
8323.774348231578
 31
0.0
  0
LINE
  5
25C
330
6C
100
AcDbEntity
  8
Visible (ISO)
100
AcDbLine
 10
-13514.25502442064
 20
8323.774348231578
 30
0.0
 11
-13514.25502442064
 21
8328.815158853023
 31
0.0
  0
LINE
  5
25D
330
6C
100
AcDbEntity
  8
Visible (ISO)
100
AcDbLine
 10
-13505.75502442064
 20
8323.774348231578
 30
0.0
 11
-13514.25502442064
 21
8323.774348231578
 31
0.0
  0
LINE
  5
25E
330
6C
100
AcDbEntity
  8
Visible (ISO)
100
AcDbLine
 10
-13500.75502442064
 20
8313.174248231579
 30
0.0
 11
-13500.75502442064
 21
8312.716185067165
 31
0.0
  0
LINE
  5
25F
330
6C
100
AcDbEntity
  8
Visible (ISO)
100
AcDbLine
 10
-13510.75502442064
 20
8313.174248231579
 30
0.0
 11
-13510.75502442064
 21
8313.061625516844
 31
0.0
  0
LINE
  5
260
330
6C
100
AcDbEntity
  8
Visible (ISO)
100
AcDbLine
 10
-13498.05502442064
 20
8323.774348231578
 30
0.0
 11
-13498.05502442064
 21
8323.174248231579
 31
0.0
  0
LINE
  5
261
330
6C
100
AcDbEntity
  8
Visible (ISO)
100
AcDbLine
 10
-13513.45502442064
 20
8323.774348231578
 30
0.0
 11
-13513.45502442064
 21
8323.174248231579
 31
0.0
  0
SPLINE
  5
262
330
6C
100
AcDbEntity
  8
Visible (ISO)
100
AcDbSpline
210
0.0
220
0.0
230
1.0
 70
    12
 71
     2
 72
     6
 73
     3
 74
     0
 42
0.0000000001
 43
0.0000000001
 40
0.4978532609589537
 40
0.4978532609589537
 40
0.4978532609589537
 40
0.9957065219179071
 40
0.9957065219179071
 40
0.9957065219179071
 10
-13679.71065190541
 20
8329.574348231579
 30
0.0
 41
1.0
 10
-13681.68308376975
 20
8329.574348231579
 30
0.0
 41
1.037954849302035
 10
-13683.96065190541
 20
8328.815158853023
 30
0.0
 41
1.0
  0
LINE
  5
263
330
6C
100
AcDbEntity
  8
Visible (ISO)
100
AcDbLine
 10
-13679.71065190541
 20
8329.574348231579
 30
0.0
 11
-13683.96065190541
 21
8329.574348231579
 31
0.0
  0
SPLINE
  5
264
330
6C
100
AcDbEntity
  8
Visible (ISO)
100
AcDbSpline
210
0.0
220
0.0
230
1.0
 70
    28
 71
     2
 72
     6
 73
     3
 74
     0
 42
0.0000000001
 43
0.0000000001
 40
0.0
 40
0.0
 40
0.0
 40
0.4978532609589536
 40
0.4978532609589536
 40
0.4978532609589536
 10
-13683.96065190541
 20
8328.815158853023
 30
0.0
 41
1.0
 10
-13683.96065190541
 20
8329.574348231579
 30
0.0
 41
1.037954849302054
 10
-13683.96065190541
 20
8329.574348231579
 30
0.0
 41
1.0
  0
SPLINE
  5
265
330
6C
100
AcDbEntity
  8
Visible (ISO)
100
AcDbSpline
210
0.0
220
0.0
230
1.0
 70
    12
 71
     2
 72
     6
 73
     3
 74
     0
 42
0.0000000001
 43
0.0000000001
 40
0.4978532609589542
 40
0.4978532609589542
 40
0.4978532609589542
 40
0.9957065219179085
 40
0.9957065219179085
 40
0.9957065219179085
 10
-13671.21065190541
 20
8329.574348231579
 30
0.0
 41
1.0
 10
-13673.18308376975
 20
8329.574348231579
 30
0.0
 41
1.037954849302014
 10
-13675.46065190541
 20
8328.815158853023
 30
0.0
 41
1.0
  0
LINE
  5
266
330
6C
100
AcDbEntity
  8
Visible (ISO)
100
AcDbLine
 10
-13671.21065190541
 20
8329.574348231579
 30
0.0
 11
-13679.71065190541
 21
8329.574348231579
 31
0.0
  0
SPLINE
  5
267
330
6C
100
AcDbEntity
  8
Visible (ISO)
100
AcDbSpline
210
0.0
220
0.0
230
1.0
 70
    12
 71
     2
 72
     6
 73
     3
 74
     0
 42
0.0000000001
 43
0.0000000001
 40
0.0
 40
0.0
 40
0.0
 40
0.4978532609589537
 40
0.4978532609589537
 40
0.4978532609589537
 10
-13675.46065190541
 20
8328.815158853023
 30
0.0
 41
1.0
 10
-13677.73822004108
 20
8329.574348231579
 30
0.0
 41
1.037954849302049
 10
-13679.71065190541
 20
8329.574348231579
 30
0.0
 41
1.0
  0
SPLINE
  5
268
330
6C
100
AcDbEntity
  8
Visible (ISO)
100
AcDbSpline
210
0.0
220
0.0
230
1.0
 70
    28
 71
     2
 72
     6
 73
     3
 74
     0
 42
0.0000000001
 43
0.0000000001
 40
0.4978532609589534
 40
0.4978532609589534
 40
0.4978532609589534
 40
0.9957065219179066
 40
0.9957065219179066
 40
0.9957065219179066
 10
-13666.96065190541
 20
8329.574348231579
 30
0.0
 41
1.0
 10
-13666.96065190541
 20
8329.574348231579
 30
0.0
 41
1.037954849302054
 10
-13666.96065190541
 20
8328.815158853023
 30
0.0
 41
1.0
  0
LINE
  5
269
330
6C
100
AcDbEntity
  8
Visible (ISO)
100
AcDbLine
 10
-13666.96065190541
 20
8329.574348231579
 30
0.0
 11
-13671.21065190541
 21
8329.574348231579
 31
0.0
  0
SPLINE
  5
26A
330
6C
100
AcDbEntity
  8
Visible (ISO)
100
AcDbSpline
210
0.0
220
0.0
230
1.0
 70
    12
 71
     2
 72
     6
 73
     3
 74
     0
 42
0.0000000001
 43
0.0000000001
 40
0.0
 40
0.0
 40
0.0
 40
0.4978532609589542
 40
0.4978532609589542
 40
0.4978532609589542
 10
-13666.96065190541
 20
8328.815158853023
 30
0.0
 41
1.0
 10
-13669.23822004108
 20
8329.574348231579
 30
0.0
 41
1.037954849302022
 10
-13671.21065190541
 20
8329.574348231579
 30
0.0
 41
1.0
  0
LINE
  5
26B
330
6C
100
AcDbEntity
  8
Visible (ISO)
100
AcDbLine
 10
-13666.96065190541
 20
8323.774348231578
 30
0.0
 11
-13666.96065190541
 21
8328.815158853023
 31
0.0
  0
LINE
  5
26C
330
6C
100
AcDbEntity
  8
Visible (ISO)
100
AcDbLine
 10
-13675.46065190541
 20
8323.774348231578
 30
0.0
 11
-13675.46065190541
 21
8328.815158853023
 31
0.0
  0
LINE
  5
26D
330
6C
100
AcDbEntity
  8
Visible (ISO)
100
AcDbLine
 10
-13666.96065190541
 20
8323.774348231578
 30
0.0
 11
-13675.46065190541
 21
8323.774348231578
 31
0.0
  0
LINE
  5
26E
330
6C
100
AcDbEntity
  8
Visible (ISO)
100
AcDbLine
 10
-13683.96065190541
 20
8323.774348231578
 30
0.0
 11
-13683.96065190541
 21
8328.815158853023
 31
0.0
  0
LINE
  5
26F
330
6C
100
AcDbEntity
  8
Visible (ISO)
100
AcDbLine
 10
-13675.46065190541
 20
8323.774348231578
 30
0.0
 11
-13683.96065190541
 21
8323.774348231578
 31
0.0
  0
LINE
  5
270
330
6C
100
AcDbEntity
  8
Visible (ISO)
100
AcDbLine
 10
-13670.46065190541
 20
8313.174248231579
 30
0.0
 11
-13670.46065190541
 21
8313.061530827612
 31
0.0
  0
LINE
  5
271
330
6C
100
AcDbEntity
  8
Visible (ISO)
100
AcDbLine
 10
-13680.46065190541
 20
8313.174248231579
 30
0.0
 11
-13680.46065190541
 21
8312.716003072011
 31
0.0
  0
LINE
  5
272
330
6C
100
AcDbEntity
  8
Visible (ISO)
100
AcDbLine
 10
-13667.76065190542
 20
8323.774348231578
 30
0.0
 11
-13667.76065190542
 21
8323.174248231579
 31
0.0
  0
LINE
  5
273
330
6C
100
AcDbEntity
  8
Visible (ISO)
100
AcDbLine
 10
-13683.16065190541
 20
8323.774348231578
 30
0.0
 11
-13683.16065190541
 21
8323.174248231579
 31
0.0
  0
SPLINE
  5
274
330
6C
100
AcDbEntity
  8
Visible (ISO)
100
AcDbSpline
210
0.0
220
0.0
230
1.0
 70
    12
 71
     2
 72
     6
 73
     3
 74
     0
 42
0.0000000001
 43
0.0000000001
 40
0.0
 40
0.0
 40
0.0
 40
0.4978532609589533
 40
0.4978532609589533
 40
0.4978532609589533
 10
-11666.96065190541
 20
8328.815158853023
 30
0.0
 41
1.0
 10
-11669.23822004108
 20
8329.574348231579
 30
0.0
 41
1.037954849302054
 10
-11671.21065190541
 20
8329.574348231579
 30
0.0
 41
1.0
  0
SPLINE
  5
275
330
6C
100
AcDbEntity
  8
Visible (ISO)
100
AcDbSpline
210
0.0
220
0.0
230
1.0
 70
    28
 71
     2
 72
     6
 73
     3
 74
     0
 42
0.0000000001
 43
0.0000000001
 40
0.4978532609589536
 40
0.4978532609589536
 40
0.4978532609589536
 40
0.9957065219179071
 40
0.9957065219179071
 40
0.9957065219179071
 10
-11666.96065190541
 20
8329.574348231579
 30
0.0
 41
1.0
 10
-11666.96065190541
 20
8329.574348231579
 30
0.0
 41
1.037954849302056
 10
-11666.96065190541
 20
8328.815158853023
 30
0.0
 41
1.0
  0
LINE
  5
276
330
6C
100
AcDbEntity
  8
Visible (ISO)
100
AcDbLine
 10
-11666.96065190541
 20
8329.574348231579
 30
0.0
 11
-11671.21065190541
 21
8329.574348231579
 31
0.0
  0
SPLINE
  5
277
330
6C
100
AcDbEntity
  8
Visible (ISO)
100
AcDbSpline
210
0.0
220
0.0
230
1.0
 70
    12
 71
     2
 72
     6
 73
     3
 74
     0
 42
0.0000000001
 43
0.0000000001
 40
0.0
 40
0.0
 40
0.0
 40
0.4978532609589534
 40
0.4978532609589534
 40
0.4978532609589534
 10
-11675.46065190541
 20
8328.815158853023
 30
0.0
 41
1.0
 10
-11677.73822004108
 20
8329.574348231579
 30
0.0
 41
1.037954849302042
 10
-11679.71065190541
 20
8329.574348231579
 30
0.0
 41
1.0
  0
SPLINE
  5
278
330
6C
100
AcDbEntity
  8
Visible (ISO)
100
AcDbSpline
210
0.0
220
0.0
230
1.0
 70
    12
 71
     2
 72
     6
 73
     3
 74
     0
 42
0.0000000001
 43
0.0000000001
 40
0.4978532609589533
 40
0.4978532609589533
 40
0.4978532609589533
 40
0.9957065219179067
 40
0.9957065219179067
 40
0.9957065219179067
 10
-11671.21065190541
 20
8329.574348231579
 30
0.0
 41
1.0
 10
-11673.18308376975
 20
8329.574348231579
 30
0.0
 41
1.037954849302048
 10
-11675.46065190541
 20
8328.815158853023
 30
0.0
 41
1.0
  0
LINE
  5
279
330
6C
100
AcDbEntity
  8
Visible (ISO)
100
AcDbLine
 10
-11671.21065190541
 20
8329.574348231579
 30
0.0
 11
-11679.71065190541
 21
8329.574348231579
 31
0.0
  0
SPLINE
  5
27A
330
6C
100
AcDbEntity
  8
Visible (ISO)
100
AcDbSpline
210
0.0
220
0.0
230
1.0
 70
    28
 71
     2
 72
     6
 73
     3
 74
     0
 42
0.0000000001
 43
0.0000000001
 40
0.0
 40
0.0
 40
0.0
 40
0.4978532609589534
 40
0.4978532609589534
 40
0.4978532609589534
 10
-11683.96065190541
 20
8328.815158853023
 30
0.0
 41
1.0
 10
-11683.96065190541
 20
8329.574348231579
 30
0.0
 41
1.037954849302043
 10
-11683.96065190541
 20
8329.574348231579
 30
0.0
 41
1.0
  0
SPLINE
  5
27B
330
6C
100
AcDbEntity
  8
Visible (ISO)
100
AcDbSpline
210
0.0
220
0.0
230
1.0
 70
    12
 71
     2
 72
     6
 73
     3
 74
     0
 42
0.0000000001
 43
0.0000000001
 40
0.4978532609589534
 40
0.4978532609589534
 40
0.4978532609589534
 40
0.9957065219179067
 40
0.9957065219179067
 40
0.9957065219179067
 10
-11679.71065190541
 20
8329.574348231579
 30
0.0
 41
1.0
 10
-11681.68308376975
 20
8329.574348231579
 30
0.0
 41
1.037954849302043
 10
-11683.96065190541
 20
8328.815158853023
 30
0.0
 41
1.0
  0
LINE
  5
27C
330
6C
100
AcDbEntity
  8
Visible (ISO)
100
AcDbLine
 10
-11679.71065190541
 20
8329.574348231579
 30
0.0
 11
-11683.96065190541
 21
8329.574348231579
 31
0.0
  0
LINE
  5
27D
330
6C
100
AcDbEntity
  8
Visible (ISO)
100
AcDbLine
 10
-11683.96065190541
 20
8323.774348231578
 30
0.0
 11
-11683.96065190541
 21
8328.815158853023
 31
0.0
  0
LINE
  5
27E
330
6C
100
AcDbEntity
  8
Visible (ISO)
100
AcDbLine
 10
-11666.96065190541
 20
8323.774348231578
 30
0.0
 11
-11675.46065190541
 21
8323.774348231578
 31
0.0
  0
LINE
  5
27F
330
6C
100
AcDbEntity
  8
Visible (ISO)
100
AcDbLine
 10
-11675.46065190541
 20
8323.774348231578
 30
0.0
 11
-11683.96065190541
 21
8323.774348231578
 31
0.0
  0
LINE
  5
280
330
6C
100
AcDbEntity
  8
Visible (ISO)
100
AcDbLine
 10
-11666.96065190541
 20
8323.774348231578
 30
0.0
 11
-11666.96065190541
 21
8328.815158853023
 31
0.0
  0
LINE
  5
281
330
6C
100
AcDbEntity
  8
Visible (ISO)
100
AcDbLine
 10
-11675.46065190541
 20
8323.774348231578
 30
0.0
 11
-11675.46065190541
 21
8328.815158853023
 31
0.0
  0
LINE
  5
282
330
6C
100
AcDbEntity
  8
Visible (ISO)
100
AcDbLine
 10
-11670.46065190541
 20
8313.174248231579
 30
0.0
 11
-11670.46065190541
 21
8313.061625516844
 31
0.0
  0
LINE
  5
283
330
6C
100
AcDbEntity
  8
Visible (ISO)
100
AcDbLine
 10
-11680.46065190541
 20
8313.174248231579
 30
0.0
 11
-11680.46065190541
 21
8312.716185067165
 31
0.0
  0
LINE
  5
284
330
6C
100
AcDbEntity
  8
Visible (ISO)
100
AcDbLine
 10
-11667.76065190541
 20
8323.774348231578
 30
0.0
 11
-11667.76065190541
 21
8323.174248231579
 31
0.0
  0
LINE
  5
285
330
6C
100
AcDbEntity
  8
Visible (ISO)
100
AcDbLine
 10
-11683.16065190541
 20
8323.774348231578
 30
0.0
 11
-11683.16065190541
 21
8323.174248231579
 31
0.0
  0
SPLINE
  5
286
330
6C
100
AcDbEntity
  8
Visible (ISO)
100
AcDbSpline
210
0.0
220
0.0
230
1.0
 70
    12
 71
     2
 72
     6
 73
     3
 74
     0
 42
0.0000000001
 43
0.0000000001
 40
0.0
 40
0.0
 40
0.0
 40
0.4978532609589533
 40
0.4978532609589533
 40
0.4978532609589533
 10
-11497.25502442064
 20
8328.815158853023
 30
0.0
 41
1.0
 10
-11499.53259255631
 20
8329.574348231579
 30
0.0
 41
1.037954849302054
 10
-11501.50502442064
 20
8329.574348231579
 30
0.0
 41
1.0
  0
SPLINE
  5
287
330
6C
100
AcDbEntity
  8
Visible (ISO)
100
AcDbSpline
210
0.0
220
0.0
230
1.0
 70
    28
 71
     2
 72
     6
 73
     3
 74
     0
 42
0.0000000001
 43
0.0000000001
 40
0.4978532609589536
 40
0.4978532609589536
 40
0.4978532609589536
 40
0.9957065219179071
 40
0.9957065219179071
 40
0.9957065219179071
 10
-11497.25502442064
 20
8329.574348231579
 30
0.0
 41
1.0
 10
-11497.25502442064
 20
8329.574348231579
 30
0.0
 41
1.037954849302056
 10
-11497.25502442064
 20
8328.815158853023
 30
0.0
 41
1.0
  0
LINE
  5
288
330
6C
100
AcDbEntity
  8
Visible (ISO)
100
AcDbLine
 10
-11497.25502442064
 20
8329.574348231579
 30
0.0
 11
-11501.50502442064
 21
8329.574348231579
 31
0.0
  0
SPLINE
  5
289
330
6C
100
AcDbEntity
  8
Visible (ISO)
100
AcDbSpline
210
0.0
220
0.0
230
1.0
 70
    12
 71
     2
 72
     6
 73
     3
 74
     0
 42
0.0000000001
 43
0.0000000001
 40
0.0
 40
0.0
 40
0.0
 40
0.4978532609589534
 40
0.4978532609589534
 40
0.4978532609589534
 10
-11505.75502442064
 20
8328.815158853023
 30
0.0
 41
1.0
 10
-11508.03259255631
 20
8329.574348231579
 30
0.0
 41
1.037954849302042
 10
-11510.00502442064
 20
8329.574348231579
 30
0.0
 41
1.0
  0
SPLINE
  5
28A
330
6C
100
AcDbEntity
  8
Visible (ISO)
100
AcDbSpline
210
0.0
220
0.0
230
1.0
 70
    12
 71
     2
 72
     6
 73
     3
 74
     0
 42
0.0000000001
 43
0.0000000001
 40
0.4978532609589533
 40
0.4978532609589533
 40
0.4978532609589533
 40
0.9957065219179067
 40
0.9957065219179067
 40
0.9957065219179067
 10
-11501.50502442064
 20
8329.574348231579
 30
0.0
 41
1.0
 10
-11503.47745628498
 20
8329.574348231579
 30
0.0
 41
1.037954849302048
 10
-11505.75502442064
 20
8328.815158853023
 30
0.0
 41
1.0
  0
LINE
  5
28B
330
6C
100
AcDbEntity
  8
Visible (ISO)
100
AcDbLine
 10
-11501.50502442064
 20
8329.574348231579
 30
0.0
 11
-11510.00502442064
 21
8329.574348231579
 31
0.0
  0
SPLINE
  5
28C
330
6C
100
AcDbEntity
  8
Visible (ISO)
100
AcDbSpline
210
0.0
220
0.0
230
1.0
 70
    28
 71
     2
 72
     6
 73
     3
 74
     0
 42
0.0000000001
 43
0.0000000001
 40
0.0
 40
0.0
 40
0.0
 40
0.4978532609589534
 40
0.4978532609589534
 40
0.4978532609589534
 10
-11514.25502442064
 20
8328.815158853023
 30
0.0
 41
1.0
 10
-11514.25502442064
 20
8329.574348231579
 30
0.0
 41
1.037954849302043
 10
-11514.25502442064
 20
8329.574348231579
 30
0.0
 41
1.0
  0
SPLINE
  5
28D
330
6C
100
AcDbEntity
  8
Visible (ISO)
100
AcDbSpline
210
0.0
220
0.0
230
1.0
 70
    12
 71
     2
 72
     6
 73
     3
 74
     0
 42
0.0000000001
 43
0.0000000001
 40
0.4978532609589534
 40
0.4978532609589534
 40
0.4978532609589534
 40
0.9957065219179067
 40
0.9957065219179067
 40
0.9957065219179067
 10
-11510.00502442064
 20
8329.574348231579
 30
0.0
 41
1.0
 10
-11511.97745628498
 20
8329.574348231579
 30
0.0
 41
1.037954849302043
 10
-11514.25502442064
 20
8328.815158853023
 30
0.0
 41
1.0
  0
LINE
  5
28E
330
6C
100
AcDbEntity
  8
Visible (ISO)
100
AcDbLine
 10
-11510.00502442064
 20
8329.574348231579
 30
0.0
 11
-11514.25502442064
 21
8329.574348231579
 31
0.0
  0
LINE
  5
28F
330
6C
100
AcDbEntity
  8
Visible (ISO)
100
AcDbLine
 10
-11514.25502442064
 20
8323.774348231578
 30
0.0
 11
-11514.25502442064
 21
8328.815158853023
 31
0.0
  0
LINE
  5
290
330
6C
100
AcDbEntity
  8
Visible (ISO)
100
AcDbLine
 10
-11497.25502442064
 20
8323.774348231578
 30
0.0
 11
-11505.75502442064
 21
8323.774348231578
 31
0.0
  0
LINE
  5
291
330
6C
100
AcDbEntity
  8
Visible (ISO)
100
AcDbLine
 10
-11505.75502442064
 20
8323.774348231578
 30
0.0
 11
-11514.25502442064
 21
8323.774348231578
 31
0.0
  0
LINE
  5
292
330
6C
100
AcDbEntity
  8
Visible (ISO)
100
AcDbLine
 10
-11497.25502442064
 20
8323.774348231578
 30
0.0
 11
-11497.25502442064
 21
8328.815158853023
 31
0.0
  0
LINE
  5
293
330
6C
100
AcDbEntity
  8
Visible (ISO)
100
AcDbLine
 10
-11505.75502442064
 20
8323.774348231578
 30
0.0
 11
-11505.75502442064
 21
8328.815158853023
 31
0.0
  0
LINE
  5
294
330
6C
100
AcDbEntity
  8
Visible (ISO)
100
AcDbLine
 10
-11500.75502442064
 20
8313.174248231579
 30
0.0
 11
-11500.75502442064
 21
8312.716003072011
 31
0.0
  0
LINE
  5
295
330
6C
100
AcDbEntity
  8
Visible (ISO)
100
AcDbLine
 10
-11510.75502442064
 20
8313.174248231579
 30
0.0
 11
-11510.75502442064
 21
8313.061530827612
 31
0.0
  0
LINE
  5
296
330
6C
100
AcDbEntity
  8
Visible (ISO)
100
AcDbLine
 10
-11498.05502442064
 20
8323.774348231578
 30
0.0
 11
-11498.05502442064
 21
8323.174248231579
 31
0.0
  0
LINE
  5
297
330
6C
100
AcDbEntity
  8
Visible (ISO)
100
AcDbLine
 10
-11513.45502442064
 20
8323.774348231578
 30
0.0
 11
-11513.45502442064
 21
8323.174248231579
 31
0.0
  0
SPLINE
  5
298
330
6C
100
AcDbEntity
  8
Visible (ISO)
100
AcDbSpline
210
0.0
220
0.0
230
1.0
 70
    12
 71
     2
 72
     6
 73
     3
 74
     0
 42
0.0000000001
 43
0.0000000001
 40
0.0
 40
0.0
 40
0.0
 40
0.4978532609589533
 40
0.4978532609589533
 40
0.4978532609589533
 10
-11582.10783816303
 20
8328.815158853023
 30
0.0
 41
1.0
 10
-11584.38540629869
 20
8329.574348231579
 30
0.0
 41
1.037954849302054
 10
-11586.35783816303
 20
8329.574348231579
 30
0.0
 41
1.0
  0
SPLINE
  5
299
330
6C
100
AcDbEntity
  8
Visible (ISO)
100
AcDbSpline
210
0.0
220
0.0
230
1.0
 70
    28
 71
     2
 72
     6
 73
     3
 74
     0
 42
0.0000000001
 43
0.0000000001
 40
0.4978532609589536
 40
0.4978532609589536
 40
0.4978532609589536
 40
0.9957065219179071
 40
0.9957065219179071
 40
0.9957065219179071
 10
-11582.10783816303
 20
8329.574348231579
 30
0.0
 41
1.0
 10
-11582.10783816303
 20
8329.574348231579
 30
0.0
 41
1.037954849302056
 10
-11582.10783816303
 20
8328.815158853023
 30
0.0
 41
1.0
  0
LINE
  5
29A
330
6C
100
AcDbEntity
  8
Visible (ISO)
100
AcDbLine
 10
-11582.10783816303
 20
8329.574348231579
 30
0.0
 11
-11586.35783816303
 21
8329.574348231579
 31
0.0
  0
SPLINE
  5
29B
330
6C
100
AcDbEntity
  8
Visible (ISO)
100
AcDbSpline
210
0.0
220
0.0
230
1.0
 70
    12
 71
     2
 72
     6
 73
     3
 74
     0
 42
0.0000000001
 43
0.0000000001
 40
0.0
 40
0.0
 40
0.0
 40
0.4978532609589534
 40
0.4978532609589534
 40
0.4978532609589534
 10
-11590.60783816303
 20
8328.815158853023
 30
0.0
 41
1.0
 10
-11592.88540629869
 20
8329.574348231579
 30
0.0
 41
1.037954849302042
 10
-11594.85783816303
 20
8329.574348231579
 30
0.0
 41
1.0
  0
SPLINE
  5
29C
330
6C
100
AcDbEntity
  8
Visible (ISO)
100
AcDbSpline
210
0.0
220
0.0
230
1.0
 70
    12
 71
     2
 72
     6
 73
     3
 74
     0
 42
0.0000000001
 43
0.0000000001
 40
0.4978532609589533
 40
0.4978532609589533
 40
0.4978532609589533
 40
0.9957065219179067
 40
0.9957065219179067
 40
0.9957065219179067
 10
-11586.35783816303
 20
8329.574348231579
 30
0.0
 41
1.0
 10
-11588.33027002736
 20
8329.574348231579
 30
0.0
 41
1.037954849302048
 10
-11590.60783816303
 20
8328.815158853023
 30
0.0
 41
1.0
  0
LINE
  5
29D
330
6C
100
AcDbEntity
  8
Visible (ISO)
100
AcDbLine
 10
-11586.35783816303
 20
8329.574348231579
 30
0.0
 11
-11594.85783816303
 21
8329.574348231579
 31
0.0
  0
SPLINE
  5
29E
330
6C
100
AcDbEntity
  8
Visible (ISO)
100
AcDbSpline
210
0.0
220
0.0
230
1.0
 70
    28
 71
     2
 72
     6
 73
     3
 74
     0
 42
0.0000000001
 43
0.0000000001
 40
0.0
 40
0.0
 40
0.0
 40
0.4978532609589534
 40
0.4978532609589534
 40
0.4978532609589534
 10
-11599.10783816303
 20
8328.815158853023
 30
0.0
 41
1.0
 10
-11599.10783816303
 20
8329.574348231579
 30
0.0
 41
1.037954849302043
 10
-11599.10783816303
 20
8329.574348231579
 30
0.0
 41
1.0
  0
SPLINE
  5
29F
330
6C
100
AcDbEntity
  8
Visible (ISO)
100
AcDbSpline
210
0.0
220
0.0
230
1.0
 70
    12
 71
     2
 72
     6
 73
     3
 74
     0
 42
0.0000000001
 43
0.0000000001
 40
0.4978532609589534
 40
0.4978532609589534
 40
0.4978532609589534
 40
0.9957065219179067
 40
0.9957065219179067
 40
0.9957065219179067
 10
-11594.85783816303
 20
8329.574348231579
 30
0.0
 41
1.0
 10
-11596.83027002736
 20
8329.574348231579
 30
0.0
 41
1.037954849302043
 10
-11599.10783816303
 20
8328.815158853023
 30
0.0
 41
1.0
  0
LINE
  5
2A0
330
6C
100
AcDbEntity
  8
Visible (ISO)
100
AcDbLine
 10
-11594.85783816303
 20
8329.574348231579
 30
0.0
 11
-11599.10783816303
 21
8329.574348231579
 31
0.0
  0
LINE
  5
2A1
330
6C
100
AcDbEntity
  8
Visible (ISO)
100
AcDbLine
 10
-11599.10783816303
 20
8323.774348231578
 30
0.0
 11
-11599.10783816303
 21
8328.815158853023
 31
0.0
  0
LINE
  5
2A2
330
6C
100
AcDbEntity
  8
Visible (ISO)
100
AcDbLine
 10
-11582.10783816303
 20
8323.774348231578
 30
0.0
 11
-11590.60783816303
 21
8323.774348231578
 31
0.0
  0
LINE
  5
2A3
330
6C
100
AcDbEntity
  8
Visible (ISO)
100
AcDbLine
 10
-11590.60783816303
 20
8323.774348231578
 30
0.0
 11
-11599.10783816303
 21
8323.774348231578
 31
0.0
  0
LINE
  5
2A4
330
6C
100
AcDbEntity
  8
Visible (ISO)
100
AcDbLine
 10
-11582.10783816303
 20
8323.774348231578
 30
0.0
 11
-11582.10783816303
 21
8328.815158853023
 31
0.0
  0
LINE
  5
2A5
330
6C
100
AcDbEntity
  8
Visible (ISO)
100
AcDbLine
 10
-11590.60783816303
 20
8323.774348231578
 30
0.0
 11
-11590.60783816303
 21
8328.815158853023
 31
0.0
  0
LINE
  5
2A6
330
6C
100
AcDbEntity
  8
Visible (ISO)
100
AcDbLine
 10
-11585.60783816303
 20
8313.174248231579
 30
0.0
 11
-11585.60783816303
 21
8312.858059326591
 31
0.0
  0
LINE
  5
2A7
330
6C
100
AcDbEntity
  8
Visible (ISO)
100
AcDbLine
 10
-11595.60783816303
 20
8313.174248231579
 30
0.0
 11
-11595.60783816303
 21
8312.858059326591
 31
0.0
  0
LINE
  5
2A8
330
6C
100
AcDbEntity
  8
Visible (ISO)
100
AcDbLine
 10
-11582.90783816303
 20
8323.774348231578
 30
0.0
 11
-11582.90783816303
 21
8323.174248231579
 31
0.0
  0
LINE
  5
2A9
330
6C
100
AcDbEntity
  8
Visible (ISO)
100
AcDbLine
 10
-11598.30783816303
 20
8323.774348231578
 30
0.0
 11
-11598.30783816303
 21
8323.174248231579
 31
0.0
  0
LINE
  5
2AA
330
6C
100
AcDbEntity
  8
Visible (ISO)
100
AcDbLine
 10
-13600.60783816303
 20
8323.17424823158
 30
0.0
 11
-13580.60783816303
 21
8323.17424823158
 31
0.0
  0
LINE
  5
2AB
330
6C
100
AcDbEntity
  8
Visible (ISO)
100
AcDbLine
 10
-13600.60783816303
 20
8321.17424823158
 30
0.0
 11
-13600.60783816303
 21
8323.17424823158
 31
0.0
  0
LINE
  5
2AC
330
6C
100
AcDbEntity
  8
Visible (ISO)
100
AcDbLine
 10
-13580.60783816303
 20
8321.17424823158
 30
0.0
 11
-13580.60783816303
 21
8323.17424823158
 31
0.0
  0
LINE
  5
2AD
330
6C
100
AcDbEntity
  8
Visible (ISO)
100
AcDbLine
 10
-13515.75502442064
 20
8323.17424823158
 30
0.0
 11
-13495.75502442065
 21
8323.17424823158
 31
0.0
  0
LINE
  5
2AE
330
6C
100
AcDbEntity
  8
Visible (ISO)
100
AcDbLine
 10
-13515.75502442064
 20
8321.17424823158
 30
0.0
 11
-13515.75502442064
 21
8323.17424823158
 31
0.0
  0
LINE
  5
2AF
330
6C
100
AcDbEntity
  8
Visible (ISO)
100
AcDbLine
 10
-13495.75502442065
 20
8321.17424823158
 30
0.0
 11
-13495.75502442065
 21
8323.17424823158
 31
0.0
  0
LINE
  5
2B0
330
6C
100
AcDbEntity
  8
Visible (ISO)
100
AcDbLine
 10
-13685.46065190541
 20
8323.17424823158
 30
0.0
 11
-13665.46065190541
 21
8323.17424823158
 31
0.0
  0
LINE
  5
2B1
330
6C
100
AcDbEntity
  8
Visible (ISO)
100
AcDbLine
 10
-13685.46065190541
 20
8321.17424823158
 30
0.0
 11
-13685.46065190541
 21
8323.17424823158
 31
0.0
  0
LINE
  5
2B2
330
6C
100
AcDbEntity
  8
Visible (ISO)
100
AcDbLine
 10
-13665.46065190541
 20
8321.17424823158
 30
0.0
 11
-13665.46065190541
 21
8323.17424823158
 31
0.0
  0
LINE
  5
2B3
330
6C
100
AcDbEntity
  8
Visible (ISO)
100
AcDbLine
 10
-11685.46065190541
 20
8323.17424823158
 30
0.0
 11
-11665.46065190541
 21
8323.17424823158
 31
0.0
  0
LINE
  5
2B4
330
6C
100
AcDbEntity
  8
Visible (ISO)
100
AcDbLine
 10
-11685.46065190541
 20
8321.17424823158
 30
0.0
 11
-11685.46065190541
 21
8323.17424823158
 31
0.0
  0
LINE
  5
2B5
330
6C
100
AcDbEntity
  8
Visible (ISO)
100
AcDbLine
 10
-11665.46065190541
 20
8321.17424823158
 30
0.0
 11
-11665.46065190541
 21
8323.17424823158
 31
0.0
  0
LINE
  5
2B6
330
6C
100
AcDbEntity
  8
Visible (ISO)
100
AcDbLine
 10
-11515.75502442064
 20
8323.17424823158
 30
0.0
 11
-11495.75502442064
 21
8323.17424823158
 31
0.0
  0
LINE
  5
2B7
330
6C
100
AcDbEntity
  8
Visible (ISO)
100
AcDbLine
 10
-11515.75502442064
 20
8321.17424823158
 30
0.0
 11
-11515.75502442064
 21
8323.17424823158
 31
0.0
  0
LINE
  5
2B8
330
6C
100
AcDbEntity
  8
Visible (ISO)
100
AcDbLine
 10
-11495.75502442064
 20
8321.17424823158
 30
0.0
 11
-11495.75502442064
 21
8323.17424823158
 31
0.0
  0
LINE
  5
2B9
330
6C
100
AcDbEntity
  8
Visible (ISO)
100
AcDbLine
 10
-11600.60783816303
 20
8323.17424823158
 30
0.0
 11
-11580.60783816303
 21
8323.17424823158
 31
0.0
  0
LINE
  5
2BA
330
6C
100
AcDbEntity
  8
Visible (ISO)
100
AcDbLine
 10
-11600.60783816303
 20
8321.17424823158
 30
0.0
 11
-11600.60783816303
 21
8323.17424823158
 31
0.0
  0
LINE
  5
2BB
330
6C
100
AcDbEntity
  8
Visible (ISO)
100
AcDbLine
 10
-11580.60783816303
 20
8321.17424823158
 30
0.0
 11
-11580.60783816303
 21
8323.17424823158
 31
0.0
  0
DIMENSION
  5
735
330
6C
100
AcDbEntity
  8
Dimension (ISO)
100
AcDbDimension
  2
*D12
 10
-13915.15098282407
 20
8871.17424823158
 30
0.0
 11
-13915.15098282407
 21
10017.17424823158
 31
0.0
 70
   160
  1
<>
 71
     2
 42
2300.0
  3
Default (ISO)
100
AcDbAlignedDimension
 13
-13637.60783816303
 23
11171.17424823158
 33
0.0
 14
-13640.60783816303
 24
8871.17424823158
 34
0.0
 50
90.0
100
AcDbRotatedDimension
1001
ACAD
1000
DSTYLE
1002
{
1070
   172
1070
     0
1070
   289
1070
     1
1070
    74
1070
     0
1070
   271
1070
     2
1070
   272
1070
     3
1070
    48
1040
0.0
1070
    47
1040
0.0
1002
}
  0
DIMENSION
  5
81D
330
6C
100
AcDbEntity
  8
Dimension (ISO)
100
AcDbDimension
  2
*D13
 10
-13918.35957351214
 20
8313.174248231579
 30
0.0
 11
-13918.35957351214
 21
8596.174248231578
 31
0.0
 70
   160
  1
550
 71
     2
 42
558.0
  3
Default (ISO)
100
AcDbAlignedDimension
 13
-13918.35957351214
 23
8871.174248231579
 33
0.0
 14
-13689.60278752914
 24
8313.174248231579
 34
0.0
 50
90.0
100
AcDbRotatedDimension
1001
ACAD
1000
DSTYLE
1002
{
1070
   172
1070
     0
1070
   289
1070
     1
1070
    74
1070
     0
1070
   271
1070
     2
1070
    75
1070
     1
1070
   272
1070
     3
1070
    48
1040
0.0
1070
    47
1040
0.0
1002
}
  0
MTEXT
  5
A55
102
{ACAD_XDICTIONARY
360
1073
102
}
330
6C
100
AcDbEntity
  8
0
100
AcDbMText
 10
-15672.14940594434
 20
2488.117872377025
 30
0.0
 40
150.0
 41
6629.011853778731
 71
     1
 72
     5
  1
Nr kat.: 88140\PNazwa: Przej\U+015Bcie stra\U+017Cackie\PObowi\U+0105zuje od: 04-08-2015
 73
     1
 44
1.0
1001
ACAD
1000
ACAD_MTEXT_COLUMN_INFO_BEGIN
1070
    75
1070
     2
1070
    79
1070
     0
1070
    76
1070
     1
1070
    78
1070
     0
1070
    48
1040
6629.011853778731
1070
    49
1040
1.0
1070
    50
1070
     1
1040
0.0
1000
ACAD_MTEXT_COLUMN_INFO_END
1000
MTEXTBEGIN
1070
    73
1070
     1
1070
    44
1040
1.0
1070
    74
1070
     0
1000
MTEXTEND
  0
DIMENSION
  5
E97
330
6C
100
AcDbEntity
  8
Dimension (ISO)
100
AcDbDimension
  2
*D24
 10
-9447.777279632507
 20
4023.500400416312
 30
0.0
 11
-9447.777279632507
 21
5823.500400416313
 31
0.0
 70
   160
  1
<>
 71
     2
 42
3600.000000000001
  3
Default (ISO)
100
AcDbAlignedDimension
 13
-11540.60783816303
 23
7623.500400416313
 33
0.0
 14
-11540.60783816303
 24
4023.500400416312
 34
0.0
 50
270.0
100
AcDbRotatedDimension
1001
ACAD
1000
DSTYLE
1002
{
1070
   172
1070
     0
1070
   289
1070
     1
1070
    74
1070
     0
1070
   271
1070
     2
1070
   272
1070
     2
1070
    48
1040
0.0
1070
    47
1040
0.0
1002
}
  0
DIMENSION
  5
E98
330
6C
100
AcDbEntity
  8
Dimension (ISO)
100
AcDbDimension
  2
*D25
 10
-10040.60783816303
 20
3519.738632321195
 30
0.0
 11
-12590.60783816303
 21
3519.738632321195
 31
0.0
 70
   160
  1
<>
 71
     2
 42
5100.000000000002
  3
Default (ISO)
100
AcDbAlignedDimension
 13
-15140.60783816303
 23
5523.500400416312
 33
0.0
 14
-10040.60783816303
 24
5523.500400416313
 34
0.0
 50
180.0
100
AcDbRotatedDimension
1001
ACAD
1000
DSTYLE
1002
{
1070
   172
1070
     0
1070
   289
1070
     1
1070
    74
1070
     0
1070
   271
1070
     2
1070
   272
1070
     2
1070
    48
1040
0.0
1070
    47
1040
0.0
1002
}
  0
DIMENSION
  5
E99
330
6C
100
AcDbEntity
  8
Dimension (ISO)
100
AcDbDimension
  2
*D26
 10
-13640.60783816303
 20
4955.32625730042
 30
0.0
 11
-12590.60783816303
 21
4955.32625730042
 31
0.0
 70
   160
  1
<>
 71
     2
 42
2100.0
  3
Default (ISO)
100
AcDbAlignedDimension
 13
-11540.60783816303
 23
5776.500400416313
 33
0.0
 14
-13640.60783816303
 24
5776.500400416313
 34
0.0
 50
180.0
100
AcDbRotatedDimension
1001
ACAD
1000
DSTYLE
1002
{
1070
   172
1070
     0
1070
   289
1070
     1
1070
    74
1070
     0
1070
   271
1070
     2
1070
   272
1070
     2
1070
    48
1040
0.0
1070
    47
1040
0.0
1002
}
  0
DIMENSION
  5
E9A
330
6C
100
AcDbEntity
  8
Dimension (ISO)
100
AcDbDimension
  2
*D27
 10
-10875.18073986825
 20
6123.434684915309
 30
0.0
 11
-10875.18073986825
 21
5823.50040041631
 31
0.0
 70
   160
  1
<>
 71
     2
 42
599.8685689979947
  3
Default (ISO)
100
AcDbAlignedDimension
 13
-12175.60783816303
 23
5523.566115917315
 33
0.0
 14
-11852.60783816303
 24
6123.434684915309
 34
0.0
 50
90.0
100
AcDbRotatedDimension
1001
ACAD
1000
DSTYLE
1002
{
1070
   172
1070
     0
1070
   289
1070
     1
1070
    74
1070
     0
1070
   271
1070
     0
1070
   272
1070
     2
1070
    48
1040
0.0
1070
    47
1040
0.0
1002
}
  0
INSERT
  5
102B
330
6C
100
AcDbEntity
  8
0
100
AcDbBlockReference
  2
88140 Przejście strazackie
 10
-12591.10783816303
 20
5802.300400416312
 30
0.0
  0
ENDSEC
  0
SECTION
  2
OBJECTS
  0
DICTIONARY
  5
C
330
0
100
AcDbDictionary
281
     1
  3
ACAD_COLOR
350
63
  3
ACAD_GROUP
350
D
  3
ACAD_LAYOUT
350
62
  3
ACAD_MATERIAL
350
10
  3
ACAD_MLEADERSTYLE
350
66
  3
ACAD_MLINESTYLE
350
5F
  3
ACAD_PLOTSETTINGS
350
61
  3
ACAD_PLOTSTYLENAME
350
E
  3
ACAD_SCALELIST
350
42
  3
ACAD_TABLESTYLE
350
64
  3
ACAD_VISUALSTYLE
350
29
  3
ACDB_RECOMPOSE_DATA
350
1037
  3
AcDbVariableDictionary
350
937
  3
DWGPROPS
350
1038
  0
DICTIONARY
  5
A59
330
2
100
AcDbDictionary
280
     1
281
     1
  3
ACAD_LAYERSTATES
360
A5A
  0
DICTIONARY
  5
F4E
330
6C
100
AcDbDictionary
280
     1
281
     1
  0
DICTIONARY
  5
1073
330
A55
100
AcDbDictionary
280
     1
281
     1
  3
ACAD_MTEXT_RT
360
1074
  0
DICTIONARY
  5
63
102
{ACAD_REACTORS
330
C
102
}
330
C
100
AcDbDictionary
281
     1
  0
DICTIONARY
  5
D
102
{ACAD_REACTORS
330
C
102
}
330
C
100
AcDbDictionary
281
     1
  0
DICTIONARY
  5
62
102
{ACAD_REACTORS
330
C
102
}
330
C
100
AcDbDictionary
281
     1
  3
Layout1
350
6B
  3
Layout2
350
73
  3
Model
350
6F
  0
DICTIONARY
  5
10
102
{ACAD_REACTORS
330
C
102
}
330
C
100
AcDbDictionary
281
     1
  3
ByBlock
350
19
  3
ByLayer
350
11
  3
Global
350
21
  0
DICTIONARY
  5
66
102
{ACAD_REACTORS
330
C
102
}
330
C
100
AcDbDictionary
281
     1
  3
Standard
350
67
  0
DICTIONARY
  5
5F
102
{ACAD_REACTORS
330
C
102
}
330
C
100
AcDbDictionary
281
     1
  3
Standard
350
60
  0
DICTIONARY
  5
61
102
{ACAD_REACTORS
330
C
102
}
330
C
100
AcDbDictionary
281
     1
  0
ACDBDICTIONARYWDFLT
  5
E
102
{ACAD_REACTORS
330
C
102
}
330
C
100
AcDbDictionary
281
     1
  3
Normal
350
F
100
AcDbDictionaryWithDefault
340
F
  0
DICTIONARY
  5
42
102
{ACAD_REACTORS
330
C
102
}
330
C
100
AcDbDictionary
281
     1
  3
A0
350
43
  3
A1
350
44
  3
A2
350
45
  3
A3
350
46
  3
A4
350
47
  3
A5
350
48
  3
A6
350
49
  3
A7
350
4A
  3
A8
350
4B
  3
A9
350
4C
  3
B0
350
4D
  3
B1
350
4E
  3
B2
350
4F
  3
B3
350
50
  3
B4
350
51
  3
B5
350
52
  3
B6
350
53
  0
DICTIONARY
  5
64
102
{ACAD_REACTORS
330
C
102
}
330
C
100
AcDbDictionary
281
     1
  3
Standard
350
65
  0
DICTIONARY
  5
29
102
{ACAD_REACTORS
330
C
102
}
330
C
100
AcDbDictionary
281
     1
  3
2dWireframe
350
2F
  3
Basic
350
2E
  3
Brighten
350
35
  3
ColorChange
350
39
  3
Conceptual
350
32
  3
Dim
350
34
  3
EdgeColorOff
350
41
  3
Facepattern
350
38
  3
Flat
350
2A
  3
FlatWithEdges
350
2B
  3
Gouraud
350
2C
  3
GouraudWithEdges
350
2D
  3
Hidden
350
31
  3
JitterOff
350
3F
  3
Linepattern
350
37
  3
OverhangOff
350
40
  3
Realistic
350
33
  3
Shaded
350
3E
  3
Shaded with edges
350
3D
  3
Shades of Gray
350
3A
  3
Sketchy
350
3B
  3
Thicken
350
36
  3
Wireframe
350
30
  3
X-Ray
350
3C
  0
XRECORD
  5
1037
102
{ACAD_REACTORS
330
C
102
}
330
C
100
AcDbXrecord
280
     1
 90
        1
330
65
330
A55
  0
DICTIONARY
  5
937
102
{ACAD_REACTORS
330
C
102
}
330
C
100
AcDbDictionary
281
     1
  3
CANNOSCALE
350
93A
  3
CMLEADERSTYLE
350
939
  3
CTABLESTYLE
350
938
  3
DIMASSOC
350
1033
  3
HIDETEXT
350
1032
  3
INDEXCTL
350
1031
  3
LAYEREVAL
350
102E
  3
LAYERNOTIFY
350
102F
  3
LIGHTINGUNITS
350
102D
  3
MSLTSCALE
350
102C
  3
SORTENTS
350
1030
  3
XCLIPFRAME
350
1034
  0
XRECORD
  5
1038
102
{ACAD_REACTORS
330
C
102
}
330
C
100
AcDbXrecord
280
     1
  1
DWGPROPS COOKIE
  2

  3

  4
Maruszak Marcin
  6

  7

  8
Natalia
  9
1
300
Menadżer=
301
Firma=Muller
302
Kategoria=
303
Numer części=
304
Opis=
305
Projekt=
306
Projektant=Maruszak Marcin
307
Inżynier=
308
Zatwierdził=
309
Centrum kosztów=
 40
0.002194224537037
 41
2457239.469853472
 42
2458619.606164768
  1

 90
       16
300
Dostawca=
300
Stan użytkownika=
300
Stan projektu=PracaWToku
300
Sprawdził=
300
Zatwierdził konstrukcję=Muller
300
Zatwierdził do produkcji=
  0
DICTIONARY
  5
A5A
102
{ACAD_REACTORS
330
A59
102
}
330
A59
100
AcDbDictionary
281
     1
  0
XRECORD
  5
1074
102
{ACAD_REACTORS
330
1073
102
}
330
1073
100
AcDbXrecord
280
     1
 40
292755.0
  1
Nr kat.: 88140\PNazwa: Przejście strażackie\PObowiązuje od: 04-08-2015
  0
LAYOUT
  5
6B
102
{ACAD_XDICTIONARY
360
106E
102
}
102
{ACAD_REACTORS
330
62
102
}
330
62
100
AcDbPlotSettings
  1

  2

  4

  6

 40
0.0
 41
0.0
 42
0.0
 43
0.0
 44
0.0
 45
0.0
 46
0.0
 47
0.0
 48
0.0
 49
0.0
140
0.0
141
0.0
142
1.0
143
1.0
 70
   688
 72
     0
 73
     0
 74
     5
  7

 75
    16
147
1.0
148
0.0
149
0.0
100
AcDbLayout
  1
Layout1
 70
     1
 71
     1
 10
0.0
 20
0.0
 11
14850.0
 21
10500.0
 12
0.0
 22
0.0
 32
0.0
 14
0.0
 24
0.0
 34
0.0
 15
14850.0
 25
10500.0
 35
0.0
146
0.0
 13
0.0
 23
0.0
 33
0.0
 16
1.0
 26
0.0
 36
0.0
 17
0.0
 27
1.0
 37
0.0
 76
     0
330
68
  0
LAYOUT
  5
73
102
{ACAD_XDICTIONARY
360
1071
102
}
102
{ACAD_REACTORS
330
62
102
}
330
62
100
AcDbPlotSettings
  1

  2

  4

  6

 40
0.0
 41
0.0
 42
0.0
 43
0.0
 44
0.0
 45
0.0
 46
0.0
 47
0.0
 48
0.0
 49
0.0
140
0.0
141
0.0
142
1.0
143
1.0
 70
   688
 72
     0
 73
     0
 74
     5
  7

 75
    16
147
1.0
148
0.0
149
0.0
100
AcDbLayout
  1
Layout2
 70
     1
 71
     2
 10
0.0
 20
0.0
 11
12.0
 21
9.0
 12
0.0
 22
0.0
 32
0.0
 14
0.0
 24
0.0
 34
0.0
 15
0.0
 25
0.0
 35
0.0
146
0.0
 13
0.0
 23
0.0
 33
0.0
 16
1.0
 26
0.0
 36
0.0
 17
0.0
 27
1.0
 37
0.0
 76
     0
330
70
  0
LAYOUT
  5
6F
102
{ACAD_XDICTIONARY
360
A5F
102
}
102
{ACAD_REACTORS
330
62
102
}
330
62
100
AcDbPlotSettings
  1

  2

  4

  6

 40
0.0
 41
0.0
 42
0.0
 43
0.0
 44
0.0
 45
0.0
 46
0.0
 47
0.0
 48
0.0
 49
0.0
140
0.0
141
0.0
142
1.0
143
1.0
 70
  1712
 72
     0
 73
     0
 74
     0
  7

 75
     0
147
1.0
148
0.0
149
0.0
100
AcDbLayout
  1
Model
 70
     1
 71
     0
 10
0.0
 20
0.0
 11
12.0
 21
9.0
 12
0.0
 22
0.0
 32
0.0
 14
0.0
 24
0.0
 34
0.0
 15
0.0
 25
0.0
 35
0.0
146
0.0
 13
0.0
 23
0.0
 33
0.0
 16
1.0
 26
0.0
 36
0.0
 17
0.0
 27
1.0
 37
0.0
 76
     0
330
6C
331
57
  0
MATERIAL
  5
19
102
{ACAD_XDICTIONARY
360
1A
102
}
102
{ACAD_REACTORS
330
10
102
}
330
10
100
AcDbMaterial
  1
ByBlock
 72
     0
 43
0.0208333333333333
 43
0.0
 43
0.0
 43
0.0
 43
0.0
 43
0.0208333333333333
 43
0.0
 43
0.0
 43
0.0
 43
0.0
 43
1.0
 43
0.0
 43
0.0
 43
0.0
 43
0.0
 43
1.0
 77
     0
 47
0.0208333333333333
 47
0.0
 47
0.0
 47
0.0
 47
0.0
 47
0.0208333333333333
 47
0.0
 47
0.0
 47
0.0
 47
0.0
 47
1.0
 47
0.0
 47
0.0
 47
0.0
 47
0.0
 47
1.0
171
     0
 49
0.0208333333333333
 49
0.0
 49
0.0
 49
0.0
 49
0.0
 49
0.0208333333333333
 49
0.0
 49
0.0
 49
0.0
 49
0.0
 49
1.0
 49
0.0
 49
0.0
 49
0.0
 49
0.0
 49
1.0
175
     0
142
0.0208333333333333
142
0.0
142
0.0
142
0.0
142
0.0
142
0.0208333333333333
142
0.0
142
0.0
142
0.0
142
0.0
142
1.0
142
0.0
142
0.0
142
0.0
142
0.0
142
1.0
179
     0
144
0.0208333333333333
144
0.0
144
0.0
144
0.0
144
0.0
144
0.0208333333333333
144
0.0
144
0.0
144
0.0
144
0.0
144
1.0
144
0.0
144
0.0
144
0.0
144
0.0
144
1.0
147
0.0208333333333333
147
0.0
147
0.0
147
0.0
147
0.0
147
0.0208333333333333
147
0.0
147
0.0
147
0.0
147
0.0
147
1.0
147
0.0
147
0.0
147
0.0
147
0.0
147
1.0
  0
MATERIAL
  5
11
102
{ACAD_XDICTIONARY
360
12
102
}
102
{ACAD_REACTORS
330
10
102
}
330
10
100
AcDbMaterial
  1
ByLayer
 72
     0
 43
0.0208333333333333
 43
0.0
 43
0.0
 43
0.0
 43
0.0
 43
0.0208333333333333
 43
0.0
 43
0.0
 43
0.0
 43
0.0
 43
1.0
 43
0.0
 43
0.0
 43
0.0
 43
0.0
 43
1.0
 77
     0
 47
0.0208333333333333
 47
0.0
 47
0.0
 47
0.0
 47
0.0
 47
0.0208333333333333
 47
0.0
 47
0.0
 47
0.0
 47
0.0
 47
1.0
 47
0.0
 47
0.0
 47
0.0
 47
0.0
 47
1.0
171
     0
 49
0.0208333333333333
 49
0.0
 49
0.0
 49
0.0
 49
0.0
 49
0.0208333333333333
 49
0.0
 49
0.0
 49
0.0
 49
0.0
 49
1.0
 49
0.0
 49
0.0
 49
0.0
 49
0.0
 49
1.0
175
     0
142
0.0208333333333333
142
0.0
142
0.0
142
0.0
142
0.0
142
0.0208333333333333
142
0.0
142
0.0
142
0.0
142
0.0
142
1.0
142
0.0
142
0.0
142
0.0
142
0.0
142
1.0
179
     0
144
0.0208333333333333
144
0.0
144
0.0
144
0.0
144
0.0
144
0.0208333333333333
144
0.0
144
0.0
144
0.0
144
0.0
144
1.0
144
0.0
144
0.0
144
0.0
144
0.0
144
1.0
147
0.0208333333333333
147
0.0
147
0.0
147
0.0
147
0.0
147
0.0208333333333333
147
0.0
147
0.0
147
0.0
147
0.0
147
1.0
147
0.0
147
0.0
147
0.0
147
0.0
147
1.0
  0
MATERIAL
  5
21
102
{ACAD_XDICTIONARY
360
22
102
}
102
{ACAD_REACTORS
330
10
102
}
330
10
100
AcDbMaterial
  1
Global
 72
     0
 43
0.0208333333333333
 43
0.0
 43
0.0
 43
0.0
 43
0.0
 43
0.0208333333333333
 43
0.0
 43
0.0
 43
0.0
 43
0.0
 43
1.0
 43
0.0
 43
0.0
 43
0.0
 43
0.0
 43
1.0
 77
     0
 47
0.0208333333333333
 47
0.0
 47
0.0
 47
0.0
 47
0.0
 47
0.0208333333333333
 47
0.0
 47
0.0
 47
0.0
 47
0.0
 47
1.0
 47
0.0
 47
0.0
 47
0.0
 47
0.0
 47
1.0
171
     0
 49
0.0208333333333333
 49
0.0
 49
0.0
 49
0.0
 49
0.0
 49
0.0208333333333333
 49
0.0
 49
0.0
 49
0.0
 49
0.0
 49
1.0
 49
0.0
 49
0.0
 49
0.0
 49
0.0
 49
1.0
175
     0
142
0.0208333333333333
142
0.0
142
0.0
142
0.0
142
0.0
142
0.0208333333333333
142
0.0
142
0.0
142
0.0
142
0.0
142
1.0
142
0.0
142
0.0
142
0.0
142
0.0
142
1.0
179
     0
144
0.0208333333333333
144
0.0
144
0.0
144
0.0
144
0.0
144
0.0208333333333333
144
0.0
144
0.0
144
0.0
144
0.0
144
1.0
144
0.0
144
0.0
144
0.0
144
0.0
144
1.0
147
0.0208333333333333
147
0.0
147
0.0
147
0.0
147
0.0
147
0.0208333333333333
147
0.0
147
0.0
147
0.0
147
0.0
147
1.0
147
0.0
147
0.0
147
0.0
147
0.0
147
1.0
  0
MLEADERSTYLE
  5
67
102
{ACAD_REACTORS
330
66
102
}
330
66
100
AcDbMLeaderStyle
170
     2
171
     1
172
     0
 90
        2
 40
0.0
 41
0.0
173
     1
 91
-1056964608
340
5B
 92
       -2
290
     1
 42
0.09
291
     1
 43
0.36
  3
Standard
 44
0.18
300

342
55
174
     1
178
     6
175
     1
176
     0
 93
-1056964608
 45
0.18
292
     0
297
     0
 46
0.18
 94
-1056964608
 47
1.0
 49
1.0
140
1.0
293
     1
141
0.0
294
     1
177
     0
142
1.0
295
     0
296
     0
143
0.125
1001
ACAD_MLEADERVER
1070
     2
  0
MLINESTYLE
  5
60
102
{ACAD_REACTORS
330
5F
102
}
330
5F
100
AcDbMlineStyle
  2
STANDARD
 70
     0
  3

 62
   256
 51
90.0
 52
90.0
 71
     2
 49
0.5
 62
   256
  6
BYLAYER
 49
-0.5
 62
   256
  6
BYLAYER
  0
ACDBPLACEHOLDER
  5
F
102
{ACAD_REACTORS
330
E
102
}
330
E
  0
SCALE
  5
43
102
{ACAD_REACTORS
330
42
102
}
330
42
100
AcDbScale
 70
     0
300
1:1
140
1.0
141
1.0
290
     1
  0
SCALE
  5
44
102
{ACAD_REACTORS
330
42
102
}
330
42
100
AcDbScale
 70
     0
300
1/128" = 1'-0"
140
0.0078125
141
12.0
290
     0
  0
SCALE
  5
45
102
{ACAD_REACTORS
330
42
102
}
330
42
100
AcDbScale
 70
     0
300
1/64" = 1'-0"
140
0.015625
141
12.0
290
     0
  0
SCALE
  5
46
102
{ACAD_REACTORS
330
42
102
}
330
42
100
AcDbScale
 70
     0
300
1/32" = 1'-0"
140
0.03125
141
12.0
290
     0
  0
SCALE
  5
47
102
{ACAD_REACTORS
330
42
102
}
330
42
100
AcDbScale
 70
     0
300
1/16" = 1'-0"
140
0.0625
141
12.0
290
     0
  0
SCALE
  5
48
102
{ACAD_REACTORS
330
42
102
}
330
42
100
AcDbScale
 70
     0
300
3/32" = 1'-0"
140
0.09375
141
12.0
290
     0
  0
SCALE
  5
49
102
{ACAD_REACTORS
330
42
102
}
330
42
100
AcDbScale
 70
     0
300
1/8" = 1'-0"
140
0.125
141
12.0
290
     0
  0
SCALE
  5
4A
102
{ACAD_REACTORS
330
42
102
}
330
42
100
AcDbScale
 70
     0
300
3/16" = 1'-0"
140
0.1875
141
12.0
290
     0
  0
SCALE
  5
4B
102
{ACAD_REACTORS
330
42
102
}
330
42
100
AcDbScale
 70
     0
300
1/4" = 1'-0"
140
0.25
141
12.0
290
     0
  0
SCALE
  5
4C
102
{ACAD_REACTORS
330
42
102
}
330
42
100
AcDbScale
 70
     0
300
3/8" = 1'-0"
140
0.375
141
12.0
290
     0
  0
SCALE
  5
4D
102
{ACAD_REACTORS
330
42
102
}
330
42
100
AcDbScale
 70
     0
300
1/2" = 1'-0"
140
0.5
141
12.0
290
     0
  0
SCALE
  5
4E
102
{ACAD_REACTORS
330
42
102
}
330
42
100
AcDbScale
 70
     0
300
3/4" = 1'-0"
140
0.75
141
12.0
290
     0
  0
SCALE
  5
4F
102
{ACAD_REACTORS
330
42
102
}
330
42
100
AcDbScale
 70
     0
300
1" = 1'-0"
140
1.0
141
12.0
290
     0
  0
SCALE
  5
50
102
{ACAD_REACTORS
330
42
102
}
330
42
100
AcDbScale
 70
     0
300
1-1/2" = 1'-0"
140
1.5
141
12.0
290
     0
  0
SCALE
  5
51
102
{ACAD_REACTORS
330
42
102
}
330
42
100
AcDbScale
 70
     0
300
3" = 1'-0"
140
3.0
141
12.0
290
     0
  0
SCALE
  5
52
102
{ACAD_REACTORS
330
42
102
}
330
42
100
AcDbScale
 70
     0
300
6" = 1'-0"
140
6.0
141
12.0
290
     0
  0
SCALE
  5
53
102
{ACAD_REACTORS
330
42
102
}
330
42
100
AcDbScale
 70
     0
300
1'-0" = 1'-0"
140
12.0
141
12.0
290
     0
  0
TABLESTYLE
  5
65
102
{ACAD_XDICTIONARY
360
1035
102
}
102
{ACAD_REACTORS
330
64
102
}
330
64
100
AcDbTableStyle
  3
Standard
 70
     0
 71
     0
 40
0.06
 41
0.06
280
     0
281
     0
  7
Standard
140
0.18
170
     2
 62
     0
 63
     7
283
     0
274
    -2
284
     1
 64
     0
275
    -2
285
     1
 65
     0
276
    -2
286
     1
 66
     0
277
    -2
287
     1
 67
     0
278
    -2
288
     1
 68
     0
279
    -2
289
     1
 69
     0
  7
Standard
140
0.25
170
     5
 62
     0
 63
     7
283
     0
274
    -2
284
     1
 64
     0
275
    -2
285
     1
 65
     0
276
    -2
286
     1
 66
     0
277
    -2
287
     1
 67
     0
278
    -2
288
     1
 68
     0
279
    -2
289
     1
 69
     0
  7
Standard
140
0.18
170
     5
 62
     0
 63
     7
283
     0
274
    -2
284
     1
 64
     0
275
    -2
285
     1
 65
     0
276
    -2
286
     1
 66
     0
277
    -2
287
     1
 67
     0
278
    -2
288
     1
 68
     0
279
    -2
289
     1
 69
     0
  0
VISUALSTYLE
  5
2F
102
{ACAD_XDICTIONARY
360
1046
102
}
102
{ACAD_REACTORS
330
29
102
}
330
29
100
AcDbVisualStyle
  2
2dWireframe
 70
     4
 71
     0
 72
     2
 73
     0
 90
        0
 40
-0.6
 41
-30.0
 62
     5
 63
     7
 74
     1
 91
        4
 64
     7
 65
   257
 75
     1
175
     1
 42
1.0
 92
        0
 66
   257
 43
1.0
 76
     1
 77
     6
 78
     2
 67
     7
 79
     5
170
     0
171
     0
290
     0
174
     0
 93
        1
 44
0.0
173
     0
291
     0
 45
0.0
1001
ACAD
1000
AcDbSavedByObjectVersion
1070
     0
  0
VISUALSTYLE
  5
2E
102
{ACAD_XDICTIONARY
360
1044
102
}
102
{ACAD_REACTORS
330
29
102
}
330
29
100
AcDbVisualStyle
  2
Basic
 70
     7
 71
     1
 72
     0
 73
     1
 90
        0
 40
-0.6
 41
-30.0
 62
     5
 63
     7
 74
     0
 91
        4
 64
     7
 65
   257
 75
     1
175
     1
 42
1.0
 92
        8
 66
     7
 43
1.0
 76
     1
 77
     6
 78
     2
 67
     7
 79
     5
170
     0
171
     0
290
     0
174
     0
 93
        1
 44
0.0
173
     0
291
     1
 45
0.0
1001
ACAD
1000
AcDbSavedByObjectVersion
1070
     0
  0
VISUALSTYLE
  5
35
102
{ACAD_XDICTIONARY
360
1052
102
}
102
{ACAD_REACTORS
330
29
102
}
330
29
100
AcDbVisualStyle
  2
Brighten
 70
    12
 71
     2
 72
     2
 73
     0
 90
        0
 40
-0.6
 41
-30.0
 62
     5
 63
     7
 74
     1
 91
        4
 64
     7
 65
   257
 75
     1
175
     1
 42
1.0
 92
        8
 66
     7
 43
1.0
 76
     1
 77
     6
 78
     2
 67
     7
 79
     5
170
     0
171
     0
290
     0
174
     0
 93
        1
 44
50.0
173
     0
291
     1
 45
0.0
1001
ACAD
1000
AcDbSavedByObjectVersion
1070
     0
  0
VISUALSTYLE
  5
39
102
{ACAD_XDICTIONARY
360
105A
102
}
102
{ACAD_REACTORS
330
29
102
}
330
29
100
AcDbVisualStyle
  2
ColorChange
 70
    16
 71
     2
 72
     2
 73
     3
 90
        0
 40
-0.6
 41
-30.0
 62
     5
 63
     8
 74
     1
 91
        4
 64
     7
 65
   257
 75
     1
175
     1
 42
1.0
 92
        8
 66
     8
 43
1.0
 76
     1
 77
     6
 78
     2
 67
     7
 79
     5
170
     0
171
     0
290
     0
174
     0
 93
        1
 44
0.0
173
     0
291
     1
 45
0.0
1001
ACAD
1000
AcDbSavedByObjectVersion
1070
     0
  0
VISUALSTYLE
  5
32
102
{ACAD_XDICTIONARY
360
104C
102
}
102
{ACAD_REACTORS
330
29
102
}
330
29
100
AcDbVisualStyle
  2
Conceptual
 70
     9
 71
     3
 72
     2
 73
     0
 90
        0
 40
-0.6
 41
-30.0
 62
     5
 63
     7
 74
     2
 91
        2
 64
     7
 65
   257
 75
     1
175
     1
 42
179.0
 92
        8
 66
     7
 43
1.0
 76
     1
 77
     6
 78
     2
 67
     7
 79
     3
170
     0
171
     0
290
     0
174
     0
 93
        1
 44
0.0
173
     0
291
     0
 45
0.0
1001
ACAD
1000
AcDbSavedByObjectVersion
1070
     0
  0
VISUALSTYLE
  5
34
102
{ACAD_XDICTIONARY
360
1050
102
}
102
{ACAD_REACTORS
330
29
102
}
330
29
100
AcDbVisualStyle
  2
Dim
 70
    11
 71
     2
 72
     2
 73
     0
 90
        0
 40
-0.6
 41
-30.0
 62
     5
 63
     7
 74
     1
 91
        4
 64
     7
 65
   257
 75
     1
175
     1
 42
1.0
 92
        8
 66
     7
 43
1.0
 76
     1
 77
     6
 78
     2
 67
     7
 79
     5
170
     0
171
     0
290
     0
174
     0
 93
        1
 44
-50.0
173
     0
291
     1
 45
0.0
1001
ACAD
1000
AcDbSavedByObjectVersion
1070
     0
  0
VISUALSTYLE
  5
41
102
{ACAD_XDICTIONARY
360
106A
102
}
102
{ACAD_REACTORS
330
29
102
}
330
29
100
AcDbVisualStyle
  2
EdgeColorOff
 70
    22
 71
     2
 72
     2
 73
     0
 90
        0
 40
-0.6
 41
-30.0
 62
     5
 63
     7
 74
     1
 91
        4
 64
     7
 65
   257
 75
     1
175
     1
 42
1.0
 92
        8
 66
     7
 43
1.0
 76
     1
 77
     6
 78
     2
 67
     7
 79
     5
170
     0
171
     0
290
     0
174
     0
 93
        1
 44
0.0
173
     0
291
     1
 45
0.0
1001
ACAD
1000
AcDbSavedByObjectVersion
1070
     0
  0
VISUALSTYLE
  5
38
102
{ACAD_XDICTIONARY
360
1058
102
}
102
{ACAD_REACTORS
330
29
102
}
330
29
100
AcDbVisualStyle
  2
Facepattern
 70
    15
 71
     2
 72
     2
 73
     0
 90
        0
 40
-0.6
 41
-30.0
 62
     5
 63
     7
 74
     1
 91
        4
 64
     7
 65
   257
 75
     1
175
     1
 42
1.0
 92
        8
 66
     7
 43
1.0
 76
     1
 77
     6
 78
     2
 67
     7
 79
     5
170
     0
171
     0
290
     0
174
     0
 93
        1
 44
0.0
173
     0
291
     1
 45
0.0
1001
ACAD
1000
AcDbSavedByObjectVersion
1070
     0
  0
VISUALSTYLE
  5
2A
102
{ACAD_XDICTIONARY
360
103C
102
}
102
{ACAD_REACTORS
330
29
102
}
330
29
100
AcDbVisualStyle
  2
Flat
 70
     0
 71
     2
 72
     1
 73
     1
 90
        2
 40
-0.6
 41
30.0
 62
     5
 63
     7
 74
     0
 91
        0
 64
     7
 65
   257
 75
     1
175
     1
 42
1.0
 92
        8
 66
     7
 43
1.0
 76
     1
 77
     6
 78
     2
 67
     7
 79
     5
170
     0
171
     0
290
     0
174
     0
 93
       13
 44
0.0
173
     0
291
     1
 45
0.0
1001
ACAD
1000
AcDbSavedByObjectVersion
1070
     0
  0
VISUALSTYLE
  5
2B
102
{ACAD_XDICTIONARY
360
103E
102
}
102
{ACAD_REACTORS
330
29
102
}
330
29
100
AcDbVisualStyle
  2
FlatWithEdges
 70
     1
 71
     2
 72
     1
 73
     1
 90
        2
 40
-0.6
 41
30.0
 62
     5
 63
     7
 74
     1
 91
        0
 64
     7
 65
   257
 75
     1
175
     1
 42
1.0
 92
        0
 66
   257
 43
1.0
 76
     1
 77
     6
 78
     2
 67
     7
 79
     5
170
     0
171
     0
290
     0
174
     0
 93
       13
 44
0.0
173
     0
291
     1
 45
0.0
1001
ACAD
1000
AcDbSavedByObjectVersion
1070
     0
  0
VISUALSTYLE
  5
2C
102
{ACAD_XDICTIONARY
360
1040
102
}
102
{ACAD_REACTORS
330
29
102
}
330
29
100
AcDbVisualStyle
  2
Gouraud
 70
     2
 71
     2
 72
     2
 73
     1
 90
        2
 40
-0.6
 41
30.0
 62
     5
 63
     7
 74
     0
 91
        0
 64
     7
 65
   257
 75
     1
175
     1
 42
1.0
 92
        0
 66
     7
 43
1.0
 76
     1
 77
     6
 78
     2
 67
     7
 79
     5
170
     0
171
     0
290
     0
174
     0
 93
       13
 44
0.0
173
     0
291
     1
 45
0.0
1001
ACAD
1000
AcDbSavedByObjectVersion
1070
     0
  0
VISUALSTYLE
  5
2D
102
{ACAD_XDICTIONARY
360
1042
102
}
102
{ACAD_REACTORS
330
29
102
}
330
29
100
AcDbVisualStyle
  2
GouraudWithEdges
 70
     3
 71
     2
 72
     2
 73
     1
 90
        2
 40
-0.6
 41
30.0
 62
     5
 63
     7
 74
     1
 91
        0
 64
     7
 65
   257
 75
     1
175
     1
 42
1.0
 92
        0
 66
   257
 43
1.0
 76
     1
 77
     6
 78
     2
 67
     7
 79
     5
170
     0
171
     0
290
     0
174
     0
 93
       13
 44
0.0
173
     0
291
     1
 45
0.0
1001
ACAD
1000
AcDbSavedByObjectVersion
1070
     0
  0
VISUALSTYLE
  5
31
102
{ACAD_XDICTIONARY
360
104A
102
}
102
{ACAD_REACTORS
330
29
102
}
330
29
100
AcDbVisualStyle
  2
Hidden
 70
     6
 71
     1
 72
     2
 73
     2
 90
        0
 40
-0.6
 41
-30.0
 62
     5
 63
     7
 74
     2
 91
        2
 64
     7
 65
   257
 75
     2
175
     1
 42
40.0
 92
        0
 66
   257
 43
1.0
 76
     1
 77
     6
 78
     2
 67
     7
 79
     3
170
     0
171
     0
290
     0
174
     0
 93
        1
 44
0.0
173
     0
291
     0
 45
0.0
1001
ACAD
1000
AcDbSavedByObjectVersion
1070
     0
  0
VISUALSTYLE
  5
3F
102
{ACAD_XDICTIONARY
360
1066
102
}
102
{ACAD_REACTORS
330
29
102
}
330
29
100
AcDbVisualStyle
  2
JitterOff
 70
    20
 71
     2
 72
     2
 73
     0
 90
        0
 40
-0.6
 41
-30.0
 62
     5
 63
     7
 74
     1
 91
        4
 64
     7
 65
   257
 75
     1
175
     1
 42
1.0
 92
       10
 66
     7
 43
1.0
 76
     1
 77
     6
 78
     2
 67
     7
 79
     5
170
     0
171
     0
290
     0
174
     0
 93
        1
 44
0.0
173
     0
291
     1
 45
0.0
1001
ACAD
1000
AcDbSavedByObjectVersion
1070
     0
  0
VISUALSTYLE
  5
37
102
{ACAD_XDICTIONARY
360
1056
102
}
102
{ACAD_REACTORS
330
29
102
}
330
29
100
AcDbVisualStyle
  2
Linepattern
 70
    14
 71
     2
 72
     2
 73
     0
 90
        0
 40
-0.6
 41
-30.0
 62
     5
 63
     7
 74
     1
 91
        4
 64
     7
 65
   257
 75
     7
175
     7
 42
1.0
 92
        8
 66
     7
 43
1.0
 76
     1
 77
     6
 78
     2
 67
     7
 79
     5
170
     0
171
     0
290
     0
174
     0
 93
        1
 44
0.0
173
     0
291
     1
 45
0.0
1001
ACAD
1000
AcDbSavedByObjectVersion
1070
     0
  0
VISUALSTYLE
  5
40
102
{ACAD_XDICTIONARY
360
1068
102
}
102
{ACAD_REACTORS
330
29
102
}
330
29
100
AcDbVisualStyle
  2
OverhangOff
 70
    21
 71
     2
 72
     2
 73
     0
 90
        0
 40
-0.6
 41
-30.0
 62
     5
 63
     7
 74
     1
 91
        4
 64
     7
 65
   257
 75
     1
175
     1
 42
1.0
 92
        9
 66
     7
 43
1.0
 76
     1
 77
     6
 78
     2
 67
     7
 79
     5
170
     0
171
     0
290
     0
174
     0
 93
        1
 44
0.0
173
     0
291
     1
 45
0.0
1001
ACAD
1000
AcDbSavedByObjectVersion
1070
     0
  0
VISUALSTYLE
  5
33
102
{ACAD_XDICTIONARY
360
104E
102
}
102
{ACAD_REACTORS
330
29
102
}
330
29
100
AcDbVisualStyle
  2
Realistic
 70
     8
 71
     2
 72
     3
 73
     0
 90
        2
 40
-0.6
 41
30.0
 62
     5
 63
     7
 74
     0
 91
        0
 64
     7
 65
   257
 75
     1
175
     1
 42
1.0
 92
        8
 66
   257
 43
1.0
 76
     1
 77
     6
 78
     2
 67
     7
 79
     3
170
     0
171
     0
290
     0
174
     0
 93
       13
 44
0.0
173
     0
291
     0
 45
0.0
1001
ACAD
1000
AcDbSavedByObjectVersion
1070
     0
  0
VISUALSTYLE
  5
3E
102
{ACAD_XDICTIONARY
360
1064
102
}
102
{ACAD_REACTORS
330
29
102
}
330
29
100
AcDbVisualStyle
  2
Shaded
 70
    27
 71
     2
 72
     2
 73
     1
 90
        2
 40
-0.6
 41
30.0
 62
     5
 63
     7
 74
     0
 91
        4
 64
     7
 65
   257
 75
     1
175
     1
 42
1.0
 92
        8
 66
   257
 43
1.0
 76
     1
 77
     6
 78
     2
 67
     8
 79
     3
170
     0
171
     0
290
     0
174
     0
 93
        5
 44
0.0
173
     0
291
     0
 45
0.0
1001
ACAD
1000
AcDbSavedByObjectVersion
1070
     0
  0
VISUALSTYLE
  5
3D
102
{ACAD_XDICTIONARY
360
1062
102
}
102
{ACAD_REACTORS
330
29
102
}
330
29
100
AcDbVisualStyle
  2
Shaded with edges
 70
    26
 71
     2
 72
     2
 73
     1
 90
        2
 40
-0.6
 41
30.0
 62
     5
 63
     7
 74
     1
 91
       10
 64
     7
 65
   257
 75
     2
175
     1
 42
1.0
 92
        8
 66
   257
 43
1.0
 76
     1
 77
     6
 78
     2
 67
     7
 79
     3
170
     0
171
     0
290
     0
174
     0
 93
        5
 44
0.0
173
     0
291
     0
 45
0.0
1001
ACAD
1000
AcDbSavedByObjectVersion
1070
     0
  0
VISUALSTYLE
  5
3A
102
{ACAD_XDICTIONARY
360
105C
102
}
102
{ACAD_REACTORS
330
29
102
}
330
29
100
AcDbVisualStyle
  2
Shades of Gray
 70
    23
 71
     2
 72
     2
 73
     3
 90
        0
 40
-0.6
 41
-30.0
 62
     5
 63
     7
 74
     2
 91
        2
 64
     7
 65
     7
 75
     1
175
     1
 42
40.0
 92
        8
 66
     7
 43
1.0
 76
     1
 77
     6
 78
     2
 67
     7
 79
     3
170
     0
171
     0
290
     0
174
     0
 93
        1
 44
0.0
173
     0
291
     0
 45
0.0
1001
ACAD
1000
AcDbSavedByObjectVersion
1070
     0
  0
VISUALSTYLE
  5
3B
102
{ACAD_XDICTIONARY
360
105E
102
}
102
{ACAD_REACTORS
330
29
102
}
330
29
100
AcDbVisualStyle
  2
Sketchy
 70
    24
 71
     1
 72
     2
 73
     2
 90
        0
 40
-0.6
 41
-30.0
 62
     5
 63
     7
 74
     2
 91
        2
 64
     7
 65
     7
 75
     1
175
     1
 42
40.0
 92
       11
 66
     7
 43
1.0
 76
     1
 77
     6
 78
     2
 67
     7
 79
     6
170
     0
171
     0
290
     0
174
     0
 93
        1
 44
0.0
173
     0
291
     0
 45
0.0
1001
ACAD
1000
AcDbSavedByObjectVersion
1070
     0
  0
VISUALSTYLE
  5
36
102
{ACAD_XDICTIONARY
360
1054
102
}
102
{ACAD_REACTORS
330
29
102
}
330
29
100
AcDbVisualStyle
  2
Thicken
 70
    13
 71
     2
 72
     2
 73
     0
 90
        0
 40
-0.6
 41
-30.0
 62
     5
 63
     7
 74
     1
 91
        4
 64
     7
 65
   257
 75
     1
175
     1
 42
1.0
 92
       12
 66
     7
 43
1.0
 76
     1
 77
     6
 78
     2
 67
     7
 79
     5
170
     0
171
     0
290
     0
174
     0
 93
        1
 44
0.0
173
     0
291
     1
 45
0.0
1001
ACAD
1000
AcDbSavedByObjectVersion
1070
     0
  0
VISUALSTYLE
  5
30
102
{ACAD_XDICTIONARY
360
1048
102
}
102
{ACAD_REACTORS
330
29
102
}
330
29
100
AcDbVisualStyle
  2
Wireframe
 70
     5
 71
     0
 72
     2
 73
     0
 90
        0
 40
-0.6
 41
-30.0
 62
     5
 63
     7
 74
     1
 91
        4
 64
     7
 65
   257
 75
     1
175
     1
 42
1.0
 92
        0
 66
   257
 43
1.0
 76
     1
 77
     6
 78
     2
 67
     7
 79
     3
170
     0
171
     0
290
     0
174
     0
 93
        1
 44
0.0
173
     0
291
     0
 45
0.0
1001
ACAD
1000
AcDbSavedByObjectVersion
1070
     0
  0
VISUALSTYLE
  5
3C
102
{ACAD_XDICTIONARY
360
1060
102
}
102
{ACAD_REACTORS
330
29
102
}
330
29
100
AcDbVisualStyle
  2
X-Ray
 70
    25
 71
     2
 72
     2
 73
     1
 90
        1
 40
0.5
 41
-30.0
 62
     5
 63
     7
 74
     1
 91
        0
 64
     7
 65
   257
 75
     1
175
     1
 42
1.0
 92
        8
 66
     7
 43
1.0
 76
     1
 77
     6
 78
     2
 67
     7
 79
     3
170
     0
171
     0
290
     0
174
     0
 93
       13
 44
0.0
173
     0
291
     0
 45
0.0
1001
ACAD
1000
AcDbSavedByObjectVersion
1070
     0
  0
DICTIONARYVAR
  5
93A
102
{ACAD_REACTORS
330
937
102
}
330
937
100
DictionaryVariables
280
     0
  1
1:1
  0
DICTIONARYVAR
  5
939
102
{ACAD_REACTORS
330
937
102
}
330
937
100
DictionaryVariables
280
     0
  1
STANDARD
  0
DICTIONARYVAR
  5
938
102
{ACAD_REACTORS
330
937
102
}
330
937
100
DictionaryVariables
280
     0
  1
STANDARD
  0
DICTIONARYVAR
  5
1033
102
{ACAD_REACTORS
330
937
102
}
330
937
100
DictionaryVariables
280
     0
  1
1
  0
DICTIONARYVAR
  5
1032
102
{ACAD_REACTORS
330
937
102
}
330
937
100
DictionaryVariables
280
     0
  1
1
  0
DICTIONARYVAR
  5
1031
102
{ACAD_REACTORS
330
937
102
}
330
937
100
DictionaryVariables
280
     0
  1
0
  0
DICTIONARYVAR
  5
102E
102
{ACAD_REACTORS
330
937
102
}
330
937
100
DictionaryVariables
280
     0
  1
0
  0
DICTIONARYVAR
  5
102F
102
{ACAD_REACTORS
330
937
102
}
330
937
100
DictionaryVariables
280
     0
  1
0
  0
DICTIONARYVAR
  5
102D
102
{ACAD_REACTORS
330
937
102
}
330
937
100
DictionaryVariables
280
     0
  1
2
  0
DICTIONARYVAR
  5
102C
102
{ACAD_REACTORS
330
937
102
}
330
937
100
DictionaryVariables
280
     0
  1
1
  0
DICTIONARYVAR
  5
1030
102
{ACAD_REACTORS
330
937
102
}
330
937
100
DictionaryVariables
280
     0
  1
127
  0
DICTIONARYVAR
  5
1034
102
{ACAD_REACTORS
330
937
102
}
330
937
100
DictionaryVariables
280
     0
  1
2
  0
DICTIONARY
  5
106E
330
6B
100
AcDbDictionary
280
     1
281
     1
  3
ACAD_XREC_ROUNDTRIP
360
106F
  0
DICTIONARY
  5
1071
330
73
100
AcDbDictionary
280
     1
281
     1
  3
ACAD_XREC_ROUNDTRIP
360
1072
  0
DICTIONARY
  5
A5F
330
6F
100
AcDbDictionary
280
     1
281
     1
  3
ACAD_XREC_ROUNDTRIP
360
1070
  3
ADSK_XREC_LAYOUTTHUMBNAIL
360
A60
  0
DICTIONARY
  5
1A
330
19
100
AcDbDictionary
280
     1
281
     1
  3
ACAD_XREC_ROUNDTRIP
360
103A
  3
BUMPTILE
360
1C
  3
DIFFUSETILE
360
1B
  3
OPACITYTILE
360
1F
  3
REFLECTIONTILE
360
1E
  3
REFRACTIONTILE
360
20
  3
SPECULARTILE
360
1D
  0
DICTIONARY
  5
12
330
11
100
AcDbDictionary
280
     1
281
     1
  3
ACAD_XREC_ROUNDTRIP
360
1039
  3
BUMPTILE
360
14
  3
DIFFUSETILE
360
13
  3
OPACITYTILE
360
17
  3
REFLECTIONTILE
360
16
  3
REFRACTIONTILE
360
18
  3
SPECULARTILE
360
15
  0
DICTIONARY
  5
22
330
21
100
AcDbDictionary
280
     1
281
     1
  3
ACAD_XREC_ROUNDTRIP
360
103B
  3
BUMPTILE
360
24
  3
DIFFUSETILE
360
23
  3
OPACITYTILE
360
27
  3
REFLECTIONTILE
360
26
  3
REFRACTIONTILE
360
28
  3
SPECULARTILE
360
25
  0
DICTIONARY
  5
1035
330
65
100
AcDbDictionary
280
     1
281
     1
  3
ACAD_ROUNDTRIP_2008_TABLESTYLE_CELLSTYLEMAP
360
1036
  3
ACAD_XREC_ROUNDTRIP
360
106C
  0
DICTIONARY
  5
1046
330
2F
100
AcDbDictionary
280
     1
281
     1
  3
ACAD_XREC_ROUNDTRIP
360
1047
  0
DICTIONARY
  5
1044
330
2E
100
AcDbDictionary
280
     1
281
     1
  3
ACAD_XREC_ROUNDTRIP
360
1045
  0
DICTIONARY
  5
1052
330
35
100
AcDbDictionary
280
     1
281
     1
  3
ACAD_XREC_ROUNDTRIP
360
1053
  0
DICTIONARY
  5
105A
330
39
100
AcDbDictionary
280
     1
281
     1
  3
ACAD_XREC_ROUNDTRIP
360
105B
  0
DICTIONARY
  5
104C
330
32
100
AcDbDictionary
280
     1
281
     1
  3
ACAD_XREC_ROUNDTRIP
360
104D
  0
DICTIONARY
  5
1050
330
34
100
AcDbDictionary
280
     1
281
     1
  3
ACAD_XREC_ROUNDTRIP
360
1051
  0
DICTIONARY
  5
106A
330
41
100
AcDbDictionary
280
     1
281
     1
  3
ACAD_XREC_ROUNDTRIP
360
106B
  0
DICTIONARY
  5
1058
330
38
100
AcDbDictionary
280
     1
281
     1
  3
ACAD_XREC_ROUNDTRIP
360
1059
  0
DICTIONARY
  5
103C
330
2A
100
AcDbDictionary
280
     1
281
     1
  3
ACAD_XREC_ROUNDTRIP
360
103D
  0
DICTIONARY
  5
103E
330
2B
100
AcDbDictionary
280
     1
281
     1
  3
ACAD_XREC_ROUNDTRIP
360
103F
  0
DICTIONARY
  5
1040
330
2C
100
AcDbDictionary
280
     1
281
     1
  3
ACAD_XREC_ROUNDTRIP
360
1041
  0
DICTIONARY
  5
1042
330
2D
100
AcDbDictionary
280
     1
281
     1
  3
ACAD_XREC_ROUNDTRIP
360
1043
  0
DICTIONARY
  5
104A
330
31
100
AcDbDictionary
280
     1
281
     1
  3
ACAD_XREC_ROUNDTRIP
360
104B
  0
DICTIONARY
  5
1066
330
3F
100
AcDbDictionary
280
     1
281
     1
  3
ACAD_XREC_ROUNDTRIP
360
1067
  0
DICTIONARY
  5
1056
330
37
100
AcDbDictionary
280
     1
281
     1
  3
ACAD_XREC_ROUNDTRIP
360
1057
  0
DICTIONARY
  5
1068
330
40
100
AcDbDictionary
280
     1
281
     1
  3
ACAD_XREC_ROUNDTRIP
360
1069
  0
DICTIONARY
  5
104E
330
33
100
AcDbDictionary
280
     1
281
     1
  3
ACAD_XREC_ROUNDTRIP
360
104F
  0
DICTIONARY
  5
1064
330
3E
100
AcDbDictionary
280
     1
281
     1
  3
ACAD_XREC_ROUNDTRIP
360
1065
  0
DICTIONARY
  5
1062
330
3D
100
AcDbDictionary
280
     1
281
     1
  3
ACAD_XREC_ROUNDTRIP
360
1063
  0
DICTIONARY
  5
105C
330
3A
100
AcDbDictionary
280
     1
281
     1
  3
ACAD_XREC_ROUNDTRIP
360
105D
  0
DICTIONARY
  5
105E
330
3B
100
AcDbDictionary
280
     1
281
     1
  3
ACAD_XREC_ROUNDTRIP
360
105F
  0
DICTIONARY
  5
1054
330
36
100
AcDbDictionary
280
     1
281
     1
  3
ACAD_XREC_ROUNDTRIP
360
1055
  0
DICTIONARY
  5
1048
330
30
100
AcDbDictionary
280
     1
281
     1
  3
ACAD_XREC_ROUNDTRIP
360
1049
  0
DICTIONARY
  5
1060
330
3C
100
AcDbDictionary
280
     1
281
     1
  3
ACAD_XREC_ROUNDTRIP
360
1061
  0
XRECORD
  5
106F
102
{ACAD_REACTORS
330
106E
102
}
330
106E
100
AcDbXrecord
280
     1
102
SHADEPLOT
 70
     0
102
SHADEPLOTRESLEVEL
 70
     2
102
SHADEPLOTCUSTOMDPI
 70
   300
  0
XRECORD
  5
1072
102
{ACAD_REACTORS
330
1071
102
}
330
1071
100
AcDbXrecord
280
     1
102
SHADEPLOT
 70
     0
102
SHADEPLOTRESLEVEL
 70
     2
102
SHADEPLOTCUSTOMDPI
 70
   300
  0
XRECORD
  5
1070
102
{ACAD_REACTORS
330
A5F
102
}
330
A5F
100
AcDbXrecord
280
     1
102
SHADEPLOT
 70
     0
102
SHADEPLOTRESLEVEL
 70
     2
102
SHADEPLOTCUSTOMDPI
 70
   300
  0
XRECORD
  5
A60
102
{ACAD_REACTORS
330
A5F
102
}
330
A5F
100
AcDbXrecord
280
     1
310
280000000001000075000000010008000000000000750000000000000000000000010000000000003028210000000000FFFFFF000000000000000000000000000000000000000000000000000000000000000000330000006600000099000000CC000000FF00000000330000333300006633000099330000CC330000FF3300
310
0000660000336600006666000099660000CC660000FF66000000990000339900006699000099990000CC990000FF99000000CC000033CC000066CC000099CC0000CCCC0000FFCC000000FF000033FF000066FF000099FF0000CCFF0000FFFF000000003300330033006600330099003300CC003300FF003300003333003333
310
33006633330099333300CC333300FF33330000663300336633006666330099663300CC663300FF66330000993300339933006699330099993300CC993300FF99330000CC330033CC330066CC330099CC3300CCCC3300FFCC330000FF330033FF330066FF330099FF3300CCFF3300FFFF330000006600330066006600660099
310
006600CC006600FF00660000336600333366006633660099336600CC336600FF33660000666600336666006666660099666600CC666600FF66660000996600339966006699660099996600CC996600FF99660000CC660033CC660066CC660099CC6600CCCC6600FFCC660000FF660033FF660066FF660099FF6600CCFF6600
310
FFFF660000009900330099006600990099009900CC009900FF00990000339900333399006633990099339900CC339900FF33990000669900336699006666990099669900CC669900FF66990000999900339999006699990099999900CC999900FF99990000CC990033CC990066CC990099CC9900CCCC9900FFCC990000FF99
310
0033FF990066FF990099FF9900CCFF9900FFFF99000000CC003300CC006600CC009900CC00CC00CC00FF00CC000033CC003333CC006633CC009933CC00CC33CC00FF33CC000066CC003366CC006666CC009966CC00CC66CC00FF66CC000099CC003399CC006699CC009999CC00CC99CC00FF99CC0000CCCC0033CCCC0066CC
310
CC0099CCCC00CCCCCC00FFCCCC0000FFCC0033FFCC0066FFCC0099FFCC00CCFFCC00FFFFCC000000FF003300FF006600FF009900FF00CC00FF00FF00FF000033FF003333FF006633FF009933FF00CC33FF00FF33FF000066FF003366FF006666FF009966FF00CC66FF00FF66FF000099FF003399FF006699FF009999FF00CC
310
99FF00FF99FF0000CCFF0033CCFF0066CCFF0099CCFF00CCCCFF00FFCCFF0000FFFF0033FFFF0066FFFF0099FFFF00CCFFFF00FFFFFF00000000000D0D0D001A1A1A00282828003535350043434300505050005D5D5D006B6B6B00787878008686860093939300A1A1A100AEAEAE00BBBBBB00C9C9C900D6D6D600E4E4E400
310
F1F1F100FFFFFF000000000000000000000000000000000000000000000000000000000000000000000000000000000000000000000000000000000000000000000000000000000000000000000000000000000000000000000000000000000000000000000000000000000000000000000000000000000000000000000000
310
00000000000000000000000000000000000000000000000000000000000000000000000000000000000000000000000000000000000000000000000000000000000000000000000000000000000000000000000000000000000000000000000000000000000000000000000000000000000000000000000000000000000000
310
00000000000000000000000000000000000000000000000000000000000000000000000000000000000000000000000000000000000000000000000000000000000000000000000000000000000000000000000000000000000000000000000000000000000000000000000000000000000000000000000000000000000000
310
00000000000000000000000000000000000000000000000000000000000000000000000000000000000000000000000000000000000000000000000000000000000000000000000000000000000000000000000000000000000000000000000000000000000000000000000000000000000000000000000000000000000000
310
00000000000000000000000000000000000000000000000000000000000000000000000000000000000000000000000000000000000000000000000000000000000000000000000000000000000000000000000000000000000000000000000000000000000000000000000000000000000000000000000000000000000000
310
00000000000000000000000000000000000000000000000000000000000000000000000000000000000000000000000000000000000000000000000000000000000000000000000000000000000000000000000000000000000000000000000000000000000000000000000000000000000000000000000000000000000000
310
00000000000000000000000000000000000000000000000000000000000000000000000000000000000000000000000000000000000000000000000000000000000000000000000000000000000000000000000000000000000000000000000000000000000000000000000000000000000000000000000000000000000000
310
00000000000000000000000000000000000000000000000000000000000000000000000000000000000000000000000000000000000000000000000000000000000000000000000000000000000000000000000000000000000000000000000000000000000000000000000000000000000000000000000000000000000000
310
00000000000000000000000000000000000000000000000000000000000000000000000000000000000000000000000000000000000000000000000000000000000000000000000000000000000000000000000000000000000000000000000000000000000000000000000000000000000000000000000000000000000000
310
00000000000000000000000000000000000000000000000000000000000000000000000000000000000000000000000000000000000000000000000000000000000000000000000000000000000000000000000000000000000000000000000000000000000000000000000000000000000000000000000000000000000000
310
00000000000000000000000000000000000000000000000000000000000000000000000000000000000000000000000000000000000000000000000000000000000000000000000000000000000000000000000000000000000000000000000000000000000000000000000000000000000000000000000000000000000000
310
00000000000000000000000000000000000000000000000000000000000000000000000000000000000000000000000000000000000000000000000000000000000000000000000000000000000000000000000000000000000000000000000000000000000000000000000000000000000000000000000000000000000000
310
00000000000000000000000000000000000000000000000000000000000000000000000000000000000000000000000000000000000000000000000000000000000000000000000000000000000000000000000000000000000000000000000000000000000000000000000000000000000000000000000000000000000000
310
00000000000000000000000000000000000000000000000000000000000000000000000000000000000000000000000000000000000000000000000000000000000000000000000000000000000000000000000000000000000000000000000000000000000000000000000000000000000000000000000000000000000000
310
00000000000000000000000000000000000000000000000000000000000000000000000000000000000000000000000000000000000000000000000000000000000000000000000000000000000000000000000000000000000000000000000000000000000000000000000000000000000000000000000000000000000000
310
00000000000000000000000000000000000000000000000000000000000000000000000000000000000000000000000000000000000000000000000000000000000000000000000000000000000000000000000000000000000000000000000000000000000000000000000000000000000000000000000000000000000000
310
00000000000000000000000000000000000000000000000000000000000000000000000000000000000000000000000000000000000000000000000000000000000000000000000000000000000000000000000000000000000000000000000000000000000000000000000000000000000000000000000000000000000000
310
00000000000000000000000000000000000000000000000000000000000000000000000000000000000000000000000000000000000000000000000000000000000000000000000000000000000000000000000000000000000000000000000000000000000000000000000000000000000000000000000000000000000000
310
00000000000000000000000000000000000000000000000000000000000000000000000000000000000000000000000000000000000000000000000000000000000000000000000000000000000000000000000000000000000000000000000000000000000000000000000000000000000000000000000000000000000000
310
00000000000000000000000000000000000000000000000000000000000000000000000000000000000000000000000000000000000000000000000000000000000000000000000000000000000000000000000000000000000000000000000000000000000000000000000000000000000000000000000000000000000000
310
00000000000000000000000000000000000000000000000000000000000000000000000000000000000000000000000000000000000000000000000000000000000000000000000000000000000000000000000000000000000000000000000000000000000000000000000000000000000000000000000000000000000000
310
00000000000000000000000000000000000000000000000000000000000000000000000000000000000000000000000000000000000000000000000000000000000000000000000000000000000000000000000000000000000000000000000000000000000000000000000000000000000000000000000000000000000000
310
00000000000000000000000000000000000000000000000000000000000000000000000000000000000000000000000000000000000000000000000000000000000000000000000000000000000000000000000000000000000000000000000000000000000000000000000000000000000000000000000000000000000000
310
00000000000000000000000000000000000000000000000000000000000000000000000000000000000000000000000000000000000000000000000000000000000000000000000000000000000000000000000000000000000000000000000000000000000000000000000000000000000000000000000000000000000000
310
00000000000000000000000000000000000000000000000000000000000000000000000000000000000000000000000000000000000000000000000000000000000000000000000000000000000000000000000000000000000000000000000000000000000000000000000000000000000000000000000000000000000000
310
00000000000000000000000000000000000000000000000000000000000000000000000000000000000000000000000000000000000000000000000000000000000000000000000000000000000000000000000000000000000000000000000000000000000000000000000000000000000000000000000000000000000000
310
00000000000000000000000000000000000000000000000000000000000000000000000000000000000000000000000000000000000000000000000000000000000000000000000000000000000000000000000000000000000000000000000000000000000000000000000000000000000000000000000000000000000000
310
00000000000000000000000000000000000000000000000000000000000000000000000000000000000000000000000000000000000000000000000000000000000000000000000000000000000000000000000000000000000000000000000000000000000000000000000000000000000000000000000000000000000000
310
00000000000000000000000000000000000000000000000000000000000000000000000000000000000000000000000000000000000000000000000000000000000000000000000000000000000000000000000000000000000000000000000000000000000000000000000000000000000000000000000000000000000000
310
00000000000000000000000000000000000000000000000000000000000000000000000000000000000000000000000000000000000000000000000000000000000000000000000000000000000000000000000000000000000000000000000000000000000000000000000000000000000000000000000000000000000000
310
00000000000000000000000000000000000000000000000000000000000000000000000000000000000000000000000000000000000000000000000000000000000000000000000000000000000000000000000000000000000000000000000000000000000000000000000000000000000000000000000000000000000000
310
00000000000000000000000000000000000000000000000000000000000000000000000000000000000000000000000000000000000000000000000000000000000000000000000000000000000000000000000000000000000000000000000000000000000000000000000000000000000000000000000000000000000000
310
00000000000000000000000000000000000000000000000000000000000000000000000000000000000000000000000000000000000000000000000000000000000000000000000000000000000000000000000000000000000000000000000000000000000000000000000000000000000000000000000000000000000000
310
00000000000000000000000000000000000000000000000000000000000000000000000000000000000000000000000000000000000000000000000000000000000000000000000000000000000000000000000000000000000000000000000000000000000000000000000000000000000000000000000000000000000000
310
00000000000000000000000000000000000000000000000000000000000000000000000000000000000000000000000000000000000000000000000000000000000000000000000000000000000000000000000000000000000000000000000000000000000000000000000000000000000000000000000000000000000000
310
0000000000000000000000000000000000000000000000000000000000000000000000000000F5F5F5F5F5F5F5F5F5F5F5F5F5F5F5F5F5F5F5F5F5F5F5F5F500000000000000000000000000000000000000000000000000000000000000000000000000000000000000000000000000000000000000000000000000000000
310
00000000000000000000000000000000000000000000000000000000000000000000000000000000000000000000000000000000000000000000000000000000000000000000000000000000000000000000000000000000000000000000000000000000000000000000000000000000000000000000000000000000000000
310
00000000000000000000000000000000000000000000000000000000000000000000000000000000F5F5F5F5F5F5F5F5F5F5F5F5F5F5F5F5F5F5F5F5F5F5F5F5F50000000000000000000000000000000000000000000000000000000000000000000000000000000000000000000000000000000000000000000000000000
310
00000000000000000000000000000000000000000000000000000000000000000000000000000000000000000000000000000000000000000000000000000000000000000000000000000000000000000000000000000000000000000000000000000000000000000000000000000000000000000000000000000000000000
310
000000000000000000000000000000000000000000000000000000000000000000000000000000000000F5F5F5F5F5F5F5F5F5F5F5F5F5F5F5F5F5F5F5F5F5F5F5F5F5000000000000000000000000000000000000000000000000000000000000000000000000000000000000000000000000000000000000000000000000
310
00000000000000000000000000000000000000000000000000000000000000000000000000000000000000000000000000000000000000000000000000000000000000000000000000000000000000000000000000000000000000000000000000000000000000000000000000000000000000000000000000000000000000
310
0000000000000000000000000000000000000000000000000000000000000000000000000000000000000000F5F5F5F5F5F5F5F5F5F5F5F5F5F5F5F5F5F5F5F5F5F5F5F5F500000000000000000000000000000000000000000000000000000000000000000000000000000000000000000000000000000000000000000000
310
00000000000000000000000000000000000000000000000000000000000000000000000000000000000000000000000000000000000000000000000000000000000000000000000000000000000000000000000000000000000000000000000000000000000000000000000000000000000000000000000000000000000000
310
00000000000000000000000000000000000000000000000000000000000000000000000000000000000000000000F5F5F5F5F5F5F5F5F5F5F5F5F5F5F5F5F5F5F5F5F5F5F5F5F50000000000000000000000000000000000000000000000000000000000000000000000000000000000000000000000000000000000000000
310
00000000000000000000000000000000000000000000000000000000000000000000000000000000000000000000000000000000000000000000000000000000000000000000000000000000000000000000000000000000000000000000000000000000000000000000000000000000000000000000000000000000000000
310
000000000000000000000000000000000000000000000000000000000000000000000000000000000000000000000000F5F5F5F5F5F5F5F5F5F5F5F5F5000000000000000000000000000000000000000000000000000000000000000000000000000000000000000000000000000000000000000000000000000000000000
310
00000000000000000000000000000000000000000000000000000000000000000000000000000000000000000000000000000000000000000000000000000000000000000000000000000000000000000000000000000000000000000000000000000000000000000000000000000000000000000000000000000000000000
310
0000000000000000000000000000000000000000000000000000000000000000000000000000000000000000000000000000F5F5F5F5F5F5F5F5F5F5F5F5F500000000000000000000000000000000000000000000000000000000000000000000000000000000000000000000000000000000000000000000000000000000
310
00000000000000000000000000000000000000000000000000000000000000000000000000000000000000000000000000000000000000000000000000000000000000000000000000000000000000000000000000000000000000000000000000000000000000000000000000000000000000000000000000000000000000
310
00000000000000000000000000000000000000000000000000000000000000000000000000000000000000000000000000000000F5F5F5F5F5F5F5F5F5F5F5F5F50000000000000000000000000000000000000000000000000000000000000000000000000000000000000000000000000000000000000000000000000000
310
00000000000000000000000000000000000000000000000000000000000000000000000000000000000000000000000000000000000000000000000000000000000000000000000000000000000000000000000000000000000000000000000000000000000000000000000000000000000000000000000000000000000000
310
00000000000000000000000000000000000000000000000000000000000000000000000000000000000000000000000000000000000000000000000000000000000000000000000000000000000000000000000000000000000000000000000000000000000000000000000000000000000000000000000000000000000000
310
00000000000000000000000000000000000000000000000000000000000000000000000000000000000000000000000000000000000000000000000000000000000000000000000000000000000000000000000000000000000000000000000000000000000000000000000000000000000000000000000000000000000000
310
00000000000000000000000000000000000000000000000000000000000000000000000000000000000000000000000000000000000000000000000000000000000000000000000000000000000000000000000000000000000000000000000000000000000000000000000000000000000000000000000000000000000000
310
00000000000000000000000000000000000000000000000000000000000000000000000000000000000000000000000000000000000000000000000000000000000000000000000000000000000000000000000000000000000000000000000000000000000000000000000000000000000000000000000000000000000000
310
00000000000000000000000000000000000000000000000000000000000000000000000000000000000000000000000000000000000000000000450000000000000000000000000000000000000000000000000000000000000000000000000000000000000000000000000000000000000000000000004500000000000000
310
00000000000000000000000000000000000000000000000000000000000000000000000000000000000000000000000000000000000000000000000000000000000000000000000000000000000000000000000000000000000000000000000000000000000000000000000000000000000000000000000000000000000000
310
00000000000000000000000000000000000000000000000000000000000000000000000000000000000000000000000000000000000000000000000045454545454545454545454545454545454545454545454545454545454545454545454545454545454545454545454545454545454545454545454545450000000000
310
00000000000000000000000000000000000000000000000000000000000000000000000000000000000000000000000000000000000000000000000000000000000000000000000000000000000000000000000000000000000000000000000000000000000000000000000000000000000000000000000000000000000000
310
00000000000000000000000000000000000000000000000000000000000000000000000000000000000000000000000000000000000000000000000000004500000000000000000000000000000000000000000000000000000045454545450000000000000000000000000000000000000000000000000000000045000000
310
00000000000000000000000000000000000000000000000000000000000000000000000000000000000000000000000000000000000000000000000000000000000000000000000000000000000000000000000000000000000000000000000000000000000000000000000000000000000000000000000000000000000000
310
00000000000000000000000000000000000000000000000000000000000000000000000000000000000000000000000000000000000000000000000000000000450000000000000000000000000000000000000000000000000000004545454545000000000000000000000000000000000000000000000000000000004500
310
00000000000000000000000000000000000000000000000000000000000000000000000000000000000000000000000000000000000000000000000000000000000000000000000000000000000000000000000000000000000000000000000000000000000000000000000000000000000000000000000000000000000000
310
00000000000000000000000000000000000000000000000000000000000000000000000000000000000000000000000000000000000000000000000000000000000045000000000000000000000000000000000000000000000000000000000000000000000000000000000000000000000000000000000000000000000000
310
45000000000000000000000000000000000000000000000000000000000000000000000000000000000000000000000000000000000000000000000000000000000000000000000000000000000000000000000000000000000000000000000000000000000000000000000000000000000000000000000000000000000000
310
000000000000000000000000000000000000000000000000000000000000000000000000000000000000000000000000000000000000000000000000000000000000000045000000000000000000000000000000F5F5F5F5F5F5F5F5F5F5F5F5F5F5F5F5F5F5F5F5F5F5F5F5F5F5F5F5F5F545454545454545454545454545
310
45454545454545454500000000000000000000000000000000000000000000000000000000000000000000000000000000000000000000000000000000000000000000000000000000000000000000000000000000000000000000000000000000000000000000000000000000000000000000000000000000000000000000
310
0000000000000000000000000000000000000000000000000000000000000000000000000000000000000000000000000000000000000000000000000000000000000000000045000000000000000000000000F5F5F5000000000000000000000000000000000000000000000000000000000000F5F5F50000000000000000
310
00000000450000000045000000000000000000000000000000000000000000000000000000000000000000000000000000000000000000000000000000000000000000000000000000000000000000000000000000000000000000000000000000000000000000000000000000000000000000000000000000000000000000
310
0000000000000000000000000000000000000000000000000000000000000000000000000000000000000000000000000000000000000000000000000000000000000000000000004500000000000000000000F5F5000000000000000000000000000000000000000000000000000000000000000000000000F5F500000000
310
00000000000045000000004500000000000000000000000000000000000000000000000000000000000000000000000000000000000000000000000000000000000000000000000000000000000000000000000000000000000000000000000000000000000000000000000000000000000000000000000000000000000000
310
0000000000000000000000000000000000000000000000000000000000000000000000000000000000000000000000000000000000000000000000000000000000000000000000000000450000000000000000F5F500000000000000000000000000000000000000000000000000000000000000000000000000000000F5F5
310
00000000000000004500000000450000000000000000000000000000000000000000000000000000000000000000000000000000000000000000000000000000000000000000000000000000000000000000000000000000000000000000000000000000000000000000000000000000000000000000000000000000000000
310
000000000000000000000000000000000000000000000000000000000000000000000000000000000000000000000000000000000000000000000000000000000000000000000000000000004500000000000000F5000000000000000000000000000000000000000000000000000000000000000000000000000000000000
310
0000F500000000000000450000000045000000000000000000000000000000000000000000000000000000000000000000000000000000000000000000000000000000000000000000000000000000000000000000000000000000000000000000000000000000000000000000000000000000000000000000000000000000
310
00000000000000000000000000000000000000000000000000000000000000000000000000000000000000000000000000000000000000000000000000000000000000000000000000000000000045000000000000F50000000000000000000000000000000000000000000000000000000000000000000000000000000000
310
0000000000F5F5000000000045000000004500000000000000000000000000000000000000000000000000000000000000000000000000000000000000000000000000000000000000000000000000000000000000000000000000000000000000000000000000000000000000000000000000000000000000000000000000
310
0000000000000000000000000000000000000000000000000000000000000000000000000000000000000000000000000000000000000000000000000000000000000000000000000000000000000000450000000000F500000000000000000000000000000000000000000000000000000000000000000000000000000000
310
000000000000000000F5000000004500000000450000000000000000000000000000000000000000000000000000000000000000000000000000000000000000000000000000000000000000000000000000000000000000000000000000000000000000000000000000000000000000000000000000000000000000000000
310
000000000000000000000000000000000000000000000000000000000000000000000000000000000000000000000000000000000000000000000000000000000000000000000000000000000000000000004500000000F5000000000000000000000000000000000000000000000000000000000000000000000000000000
310
000000000000000000000000F5000000450000000045000000000000000000000000000000000000000000000000000000000000000000000000000000000000000000000000000000000000000000000000000000000000000000000000000000000000000000000000000000000000000000000000000000000000000000
310
00000000000000000000000000000000000000000000000000000000000000000000000000000000000000000000000000000000000000000000000000000000000000000000000000000000000000000000000045000000F50000000000000000000000000000000000000000000000000000000000000000000000000000
310
000000000000000000000000000000F5000045000000004500000000000000000000000000000000000000000000000000000000000000000000000000000000000000000000000000000000000000000000000000000000000000000000000000000000000000000000000000000000000000000000000000000000000000
310
0000000000000000000000000000000000000000000000000000000000000000000000000000000000000000000000000000000000000000000000000000000000000000000000000000000000000000000000000000450000F500000000000000000000000000000000000000000000000000000000000000000000000000
310
0000000000000000000000000000000000F500004500000000450000000000000000000000000000000000000000000000000000000000000000000000000000000000000000000000000000000000000000000000000000000000000000000000000000000000000000000000000000000000000000000000000000000000
310
00000000000000000000000000000000000000000000000000000000000000000000000000000000000000000000000000000000000000000000000000000000000000000000000000000000000000000000000000000000450000F50000000000000000000000000000000000000000000000000000000000000000000000
310
0000000000000000000000000000000000000000F500450000000045000000000000000000000000000000000000000000000000000000000000000000000000000000000000000000000000000000000000000000000000000000000000000000000000000000000000000000000000000000000000000000000000000000
310
0000000000000000000000000000000000000000000000000000000000000000000000000000000000000000000000000000000000000000000000000000000000000000000000000000000000000000000000000000000000004500F500000000000000000000000000000000000000000000000000000000000000000000
310
00000000000000000000000000000000000000000000F50045000000004500000000000000000000000000000000000000000000000000000000000000000000000000000000000000000000000000000000000000000000000000000000000000000000000000000000000000000000000000000000000000000000000000
310
00000000000000000000000000000000000000000000000000000000000000000000000000000000000000000000000000000000000000000000000000000000000000000000000000000000000000000000000000000000000000004500F50000000000000000000000000000000000450045000000000045454545450000
310
00000000004545000000000000000000000000000000000000F54500000000450000000000000000000000000000000000000000000000000000000000000000000000000000000000000000000000000000000000000000000000000000000000000000000000000000000000000000000000000000000000000000000000
310
0000000000000000000000000000000000000000000000000000000000000000000000000000000000000000000000000000000000000000000000000000000000000000000000000000000000000000000000000000000000000000000045F500000000000000000000000000000000000045454545454545454545454545
310
454545454545454545000000000000000000000000000000000000F5450000000045000000000000000000000000000000000000000000000000000000000000000000000000000000000000000000000000000000000000000000000000000000000000000000000000000000000000000000000000000000000000000000
310
00000000000000000000000000000000000000000000000000000000000000000000000000000000000000000000000000000000000000000000000000000000000000000000000000000000000000000000000000000000000000000000000045F50000000000000000000000000000000000004500000000000000454545
310
454500000000000000004500000000000000000000000000000000000000F5000000004500000000000000000000000000000000000000000000000000000000000000000000000000000000000000000000000000000000000000000000000000000000000000000000000000000000000000000000000000000000000000
310
000000000000000000000000000000000000000000000000000000000000000000000000000000000000000000000000000000000000000000000000000000000000000000000000000000000000000000000000000000000000000000000000000045F5000000000000000000000000000000000000450000000000000000
310
0000000000000000000000004500000000000000000000000000000000000000F500000000450000000000000000000000000000000000000000000000000000000000000000000000000000000000000000000000000000000000000000000000000000000000000000000000000000000000000000000000000000000000
310
00000000000000000000000000000000000000000000000000000000000000000000000000000000000000000000000000000000000000000000000000000000000000000000000000000000000000000000000000000000000000000000000000000000F50000000000000000000000000000000000000045000000000000
310
00000000000000000000000000004500000000000000000000000000000000000000F50000000045000000000000000000000000000000000000000000000000000000000000000000000000000000000000000000000000000000000000000000000000000000000000000000000000000000000000000000000000000000
310
000000000000000000000000000000000000000000000000000000000000000000000000000000000000000000000000000000000000000000000000000000000000000000000000000000000000000000000000000000000000000000000000000000000000F5000000000000000000000000000000000000004500000000
310
000000000000000000000000000000004500000000000000000000000000000000000000F5000000004500000000000000000000000000000000000000000000000000000000000000000000000000000000000000000000000000000000000000000000000000000000000000000000000000000000000000000000000000
310
0000000000000000000000000000000000000000000000000000000000000000000000000000000000000000000000000000000000000000000000000000000000000000000000000000000000000000000000000000000000000000000000000000000000000000F500000000000000000000000000000000000000450000
310
0000000000000000000000000000000000004500000000000000000000000000000000000000F500000000450000000000000000000000000000000000000000000000000000000000000000000000000000000000000000000000000000000000000000000000000000000000000000000000000000000000000000000000
310
00000000000000000000000000000000000000000000000000000000000000000000000000000000000000000000000000000000000000000000000000000000000000000000000000000000000000000000000000000000000000000000000000000000000000000000F50000000000000000000000000000000000000045
310
0000000000F5F5F5F50000F5F5F5F5F5454545454545454545454500000000000000000000000000F50045454545000000000000000000000000000000000000000000000000000000000000000000000000000000000000000000000000000000000000000000000000000000000000000000000000000000000000000000
310
000000000000000000000000000000000000000000000000000000000000000000000000000000000000000000000000000000000000000000000000000000000000000000000000000000000000000000000000000000000000000000000000000000000000000000000000F5000000000000000000000000000000000000
310
00450000000000F50000F50000F5F500F5F5000000004500454545450000000000000000000000000000F5004545454500000000000000000000000000000000000000000000000000000000000000000000000000000000000000000000000000000000000000000000000000000000000000000000000000000000000000
310
0000000000000000000000000000000000000000000000000000000000000000000000000000000000000000000000000000000000000000000000000000000000000000000000000000000000000000000000000000000000000000000000000000000000000000000000000000F500000000000000000000000000000000
310
000000F5F500000000F50000F50000F5F500F5F5000000F5F500454545450000000000000000000000000000F500454545450000000000000000000000000000000000000000000000000000000000000000000000000000000000000000000000000000000000000000000000000000000000000000000000000000000000
310
00000000000000000000000000000000000000000000000000000000000000000000000000000000000000000000000000000000000000000000000000000000000000000000000000000000000000000000000000000000000000000000000000000000000000000000000000000000F50000000000000000000000000000
310
0000000000F5F5F5F5F5F5F5F5F5F5F5F5F5F5F5F5F5F5F5F5F5F500454545450000000000000000000000000000F50045454545000000000000000000000000000000000000000000000000000000000000000000000000000000000000000000000000000000000000000000000000000000000000000000000000000000
310
000000000000000000000000000000000000000000000000000000000000000000000000000000000000000000000000000000000000000000000000000000000000000000000000000000000000000000000000000000000000000000000000000000000000000000000000000000000000F5000000000000000000000000
310
00000000000000000000F50000F50000F50000F5F500F5F50000F5000000454545450000000000000000000000000000F5004545454500000000000000000000000000000000000000000000000000000000000000000000000000000000000000000000000000000000000000000000000000000000000000000000000000
310
0000000000000000000000000000000000000000000000000000000000000000000000000000000000000000000000000000000000000000000000000000000000000000000000000000000000000000000000000000000000000000000000000000000000000000000000000000000000000000F500000000000000000000
310
000000000000000000000000F5F5F5F50000F5F5F5F5F500F5F5F5F5F5000000000000450000000000000000000000000000F500000000450000000000000000000000000000000000000000000000000000000000000000000000000000000000000000000000000000000000000000000000000000000000000000000000
310
00000000000000000000000000000000000000000000000000000000000000000000000000000000000000000000000000000000000000000000000000000000000000000000000000000000000000000000000000000000000000000000000000000000000000000000000000000000000000000000F50000000000000000
310
0000000000000000000000000000F5F5F5F50000F5F5F5F5000000F5F5F5F5454545454545454500000000000000000000000000F50000000045000000000000000000000000000000000000000000000000000000000000000000000000000000000000000000000000000000000000000000000000000000000000000000
310
000000000000000000000000000000000000000000000000000000000000000000000000000000000000000000000000000000000000000000000000000000000000000000000000000000000000000000000000000000000000000000000000000000000000000000000000000000000000000000000000F5000000000000
310
000000000000000000000000000000000000000000000000000000000000000000000000000000000000000000000000000000000000F5000000004500000000000000000000000000000000000000000000000000000000000000000000000000000000000000000000000000000000000000000000000000000000000000
310
0000000000000000000000000000000000000000000000000000000000000000000000000000000000000000000000000000000000000000000000000000000000000000000000000000000000000000000000000000000000000000000000000000000000000000000000000000000000000000000000000000F500000000
310
0000000000000000000000000000000000000000000000000000000000000000000000000000000000000000000000000000000000000000F500000000450000000000000000000000000000000000000000000000000000000000000000000000000000000000000000000000000000000000000000000000000000000000
310
00000000000000000000000000000000000000000000000000000000000000000000000000000000000000000000000000000000000000000000000000000000000000000000000000000000000000000000000000000000000000000000000000000000000000000000000000000000000000000000000000000000F50000
310
00000000000000000000000000000000000000000000000000000000000000000000000000000000000000000000000000000000000000000000F50000000045000000000000000000000000000000000000000000000000000000000000000000000000000000000000000000000000000000000000000000000000000000
310
00000000000000000000000000000000000000000000000000000000000000000000000000000000000000000000000000000000000000000000000000000000000000000000000000000000000000000000000000000000000000000000000000000000000000000000000000000000000000000000000000000000000000
310
F50000000000000000000000000000000000000000000000000000000000000000000000000000000000000000000000000000000000000000000000F5000000004500000000000000000000000000000000000000000000000000000000000000000000000000000000000000000000000000000000000000000000000000
310
00000000000000000000000000000000000000000000000000000000000000000000000000000000000000000000000000000000000000000000000000000000000000000000000000000000000000000000000000000000000000000000000000000000000000000000000000000000000000000000000000000000000000
310
0000F50000000000000000000000000000000000000000000000000000000000000000000000000000000000000000000000000000000000000000000000F500000000450000000000000000000000000000000000000000000000000000000000000000000000000000000000000000000000000000000000000000000000
310
00000000000000000000000000000000000000000000000000000000000000000000000000000000000000000000000000000000000000000000000000000000000000000000000000000000000000000000000000000000000000000000000000000000000000000000000000000000000000000000000000000000000000
310
00000000F500000000000000000000000000000000000000000000000000000000000000000000000000000000000000000000000000000000000000000000F5000000000045000000000000000000000000000000000000000000000000000000000000000000000000000000000000000000000000000000000000000000
310
00000000000000000000000000000000000000000000000000000000000000000000000000000000000000000000000000000000000000000000000000000000000000000000000000000000000000000000000000000000000000000000000000000000000000000000000000000000000000000000000000000000000000
310
00000000000000F5000000000000000000000000000000000000000000000000000000000000000000000000000000000000000000000000000000000000000000F500000000004500000000000000000000000000000000000000000000000000000000000000000000000000000000000000000000000000000000000000
310
00000000000000000000000000000000000000000000000000000000000000000000000000000000000000000000000000000000000000000000000000000000000000000000000000000000000000000000000000000000000000000000000000000000000000000000000000000000000000000000000000000000000000
310
000000000000000000F50000000000000000000000000000000000000000000000000000000000000000000000000000000000000000000000000000000000000000F5000000000000450000000000000000000000000000000000000000000000000000000000000000000000000000000000000000000000000000000000
310
00000000000000000000000000000000000000000000000000000000000000000000000000000000000000000000000000000000000000000000000000000000000000000000000000000000000000000000000000000000000000000000000000000000000000000000000000000000000000000000000000000000000000
310
000000000000000000000000F500000000000000000000000000000000000000000000000000000000000000000000000000000000000000000000000000000000000000F500000000000045000000000000000000000000000000000000000000000000000000000000000000000000000000000000000000000000000000
310
00000000000000000000000000000000000000000000000000000000000000000000000000000000000000000000000000000000000000000000000000000000000000000000000000000000000000000000000000000000000000000000000000000000000000000000000000000000000000000000000000000000000000
310
000000000000000000000000000000F50000000000000000000000000000000000000000000000000000000000000000000000000000000000000000000000000000000000F5000000000000004500000000000000000000000000000000000000000000000000000000000000000000000000000000000000000000000000
310
00000000000000000000000000000000000000000000000000000000000000000000000000000000000000000000000000000000000000000000000000000000000000000000000000000000000000000000000000000000000000000000000000000000000000000000000000000000000000000000000000000000000000
310
000000000000000000000000000000000000F5000000000000000000000000000000000000000000000000000000000000000000000000000000000000000000000000000000F50000000000000000450000000000000000000000000000000000000000000000000000000000000000000000000000000000000000000000
310
00000000000000000000000000000000000000000000000000000000000000000000000000000000000000000000000000000000000000000000000000000000000000000000000000000000000000000000000000000000000000000000000000000000000000000000000000000000000000000000000000000000000000
310
0000000000000000000000000000000000000000F5000000000000000000000000000000000000000000000000000000000000000000000000000000000000000000000000000000F5000000000000000045000000000000000000000000000000000000000000000000000000000000000000000000000000000000000000
310
00000000000000000000000000000000000000000000000000000000000000000000000000000000000000000000000000000000000000000000000000000000000000000000000000000000000000000000000000000000000000000000000000000000000000000000000000000000000000000000000000000000000000
310
0000000000000000000000000000000000000000000000F500000000000000000000000000000000000000000000000000000000000000000000000000000000000000000000000000F50000000000000000004500000000000000000000000000000000000000000000000000000000000000000000000000000000000000
310
00000000000000000000000000000000000000000000000000000000000000000000000000000000000000000000000000000000000000000000000000000000000000000000000000000000000000000000000000000000000000000000000000000000000000000000000000000000000000000000000000000000000000
310
0000000000000000000000000000000000000000000000000000F500000000000000000000000000000000000000000000000000000000000000000000000000000000000000000000F5F500000000000000000000450000000000000000000000000000000000000000000000000000000000000000000000000000000000
310
00000000000000000000000000000000000000000000000000000000000000000000000000000000000000000000000000000000000000000000000000000000000000000000000000000000000000000000000000000000000000000000000000000000000000000000000000000000000000000000000000000000000000
310
0000000000000000000000000000000000000000000000000000000000F5F5000000000000000000000000000000000000000000000000000000000000000000000000000000000000F5F500000000000000000000000045000000000000000000000000000000000000000000000000000000000000000000000000000000
310
00000000000000000000000000000000000000000000000000000000000000000000000000000000000000000000000000000000000000000000000000000000000000000000000000000000000000000000000000000000000000000000000000000000000000000000000000000000000000000000000000000000000000
310
000000000000000000000000000000000000000000000000000000000000000000F5F50000000000000000000000000000000000000000000000000000000000000000000000000000F5F500000000000000000000000000004500000000000000000000000000000000000000000000000000000000000000000000000000
310
00000000000000000000000000000000000000000000000000000000000000000000000000000000000000000000000000000000000000000000000000000000000000000000000000000000000000000000000000000000000000000000000000000000000000000000000000000000000000000000000000000000000000
310
00000000000000000000000000000000000000000000000000000000000000000000000000F5F500000000000000000000000000000000000000000000000000000000000000000000F5F500000000000000000000000000000000450000000000000000000000000000000000000000000000000000000000000000000000
310
00000000000000000000000000000000000000000000000000000000000000000000000000000000000000000000000000000000000000000000000000000000000000000000000000000000000000000000000000000000000000000000000000000000000000000000000000000000000000000000000000000000000000
310
0000000000000000000000000000000000000000000000000000000000000000000000000000000000F5F5F5F5F5000000000000000000000000000000000000000000000000F5F5F5F5F500000000000000000000000000000000000045000000000000000000000000000000000000000000000000000000000000000000
310
00000000000000000000000000000000000000000000000000000000000000000000000000000000000000000000000000000000000000000000000000000000000000000000000000000000000000000000000000000000000000000000000000000000000000000000000000000000000000000000000000000000000000
310
000000000000000000000000000000000000000000000000000000000000000000000000000000000000000000000000F5F5F5F5F5F5F5F5F5F5F5F5F5F5F5F5F5F5F5F5F5F5F5F545454545454545454545454545454545454545454545454545000000000000000000000000000000000000000000000000000000000000
310
00000000000000000000000000000000000000000000000000000000000000000000000000000000000000000000000000000000000000000000000000000000000000000000000000000000000000000000000000000000000000000000000000000000000000000000000000000000000000000000000000000000000000
310
00000000000000000000000000000000000000000000000000000000000000000000000000000000000000000000000000000000000000000000000000000000000000000000000000000000000000000000000000000000000000000000000000000000000000000000000000000000000000000000000000000000000000
310
00000000000000000000000000000000000000000000000000000000000000000000000000000000000000000000000000000000000000000000000000000000000000000000000000000000000000000000000000000000000000000000000000000000000000000000000000000000000000000000000000000000000000
310
00000000000000000000000000000000000000000000000000000000000000000000000000000000000000000000000000000000000000000000000000000000000000000000000000000000000000000000000000000000000000000000000000000000000000000000000000000000000000000000000000000000000000
310
00000000000000000000000000000000000000000000000000000000000000000000000000000000000000000000000000000000000000000000000000000000000000000000000000000000000000000000000000000000000000000000000000000000000000000000000000000000000000000000000000000000000000
310
00000000000000000000000000000000000000000000000000000000000000000000000000000000000000000000000000000000000000000000000000000000000000000000000000000000000000000000000000000000000000000000000000000000000000000000000000000000000000000000000000000000000000
310
00000000000000000000000000000000000000000000000000000000000000000000000000000000000000000000000000000000000000000000000000000000000000000000000000000000000000000000000000000000000000000000000000000000000000000000000000000000000000000000000000000000000000
310
00000000000000000000000000000000000000000000000000000000000000000000000000000000000000000000000000000000000000000000000000000000000000000000000000000000000000000000000000000000000000000000000000000000000000000000000000000000000000000000000000000000000000
310
00000000000000000000000000000000000000000000000000000000000000000000000000000000000000000000000000000000000000000000000000000000000000000000000000000000000000000000000000000000000000000000000000000000000000000000000000000000000000000000000000000000000000
310
000000000000000000000000000000000000000000000000000000000000000000000000000000000000000000000000000000000000000000F5F5F5F5F5F50000000000000000000000000000F5F5F5F5F5F50000000000000000000000000000000000000000000000000000000000000000000000000000000000000000
310
00000000000000000000000000000000000000000000000000000000000000000000000000000000000000000000000000000000000000000000000000000000000000000000000000000000000000000000000000000000000000000000000000000000000000000000000000000000000000000000000000000000000000
310
0000000000000000000000000000000000000000000000000000000000000000000000000000000000000000000000000000000000000000000045454545F5F5F50000000000000000000000000000F5F5F5F5F5F5000000000000000000000000000000000000000000000000000000000000000000000000000000000000
310
00000000000000000000000000000000000000000000000000000000000000000000000000000000000000000000000000000000000000000000000000000000000000000000000000000000000000000000000000000000000000000000000000000000000000000000000000000000000000000000000000000000000000
310
000000000000000000000000000000000000000000000000000000000000000000000000000000000000000000000000000000000000000000004545454500F5F5000000000000000000000000000000000000F5F5000000000000000000000000000000000000000000000000000000000000000000000000000000000000
310
00000000000000000000000000000000000000000000000000000000000000000000000000000000000000000000000000000000000000000000000000000000000000000000000000000000000000000000000000000000000000000000000000000000000000000000000000000000000000000000000000000000000000
310
0000000000000000000000000000000000000000000000000000000000000000000000000000000000000000000000000000000000000000000000004545454500F5F5F50000000000000000000000000000000000F5F5F5000000000000000000000000000000000000000000000000000000000000000000000000000000
310
00000000000000000000000000000000000000000000000000000000000000000000000000000000000000000000000000000000000000000000000000000000000000000000000000000000000000000000000000000000000000000000000000000000000000000000000000000000000000000000000000000000000000
310
00000000000000000000000000000000000000000000000000000000000000000000000000000000000000000000000000000000000000000000000000004545454500F5F5F50000000000000000000000000000000000F5F5F500000000000000000000000000000000000000000000000000000000000000000000000000
310
00000000000000000000000000000000000000000000000000000000000000000000000000000000000000000000000000000000000000000000000000000000000000000000000000000000000000000000000000000000000000000000000000000000000000000000000000000000000000000000000000000000000000
310
000000000000000000000000000000000000000000000000000000000000000000000000000000000000000000000000000000000000000000000000000000004545454500F5F5000000000000000000000000000000000000F5F5000000000000000000000000000000000000000000000000000000000000000000000000
310
00000000000000000000000000000000000000000000000000000000000000000000000000000000000000000000000000000000000000000000000000000000000000000000000000000000000000000000000000000000000000000000000000000000000000000000000000000000000000000000000000000000000000
310
000000000000000000000000000000000000000000000000000000000000000000000000000000000000000000000000000000F5F5F5F5F5F5F5F5F5F5F5F5F5F5F5F5F5F545F5F5F5F5F5F5F5F5F5F5F5F5F5F5F5F5F5F5F5F5F5F5F5F5F5F5F5F5F5F5F5F5F5F5F5F5F5F5F5F5F5F5F50000000000000000000000000000
310
00000000000000000000000000000000000000000000000000000000000000000000000000000000000000000000000000000000000000000000000000000000000000000000000000000000000000000000000000000000000000000000000000000000000000000000000000000000000000000000000000000000000000
310
0000000000000000000000000000000000000000000000000000000000000000000000000000000000000000000000000000000000F5F5F5F5F5F5F5F5F5F5F5F5F5F5F5F5F545454545F5F5F5F5F5F5F5F5F5F5F5F5F5F5F5F5F5F5F5F5F5F5F5F5F5F5F5F5F5F5F5F5F5F5F5F5F5F5F5F5F5000000000000000000000000
310
00000000000000000000000000000000000000000000000000000000000000000000000000000000000000000000000000000000000000000000000000000000000000000000000000000000000000000000000000000000000000000000000000000000000000000000000000000000000000000000000000000000000000
310
000000000000000000000000000000000000000000000000000000000000000000000000000000000000000000000000000000000000000000000000000000000000000000000000454500F5F5000000000000000000000000000000000000F5F5000000000000000000000000000000000000000000000000000000000000
310
00000000000000000000000000000000000000000000000000000000000000000000000000000000000000000000000000000000000000000000000000000000000000000000000000000000000000000000000000000000000000000000000000000000000000000000000000000000000000000000000000000000000000
310
0000000000000000000000000000000000000000000000000000000000000000000000000000000000000000000000000000000000000000000000000000000000000000000000000000004500F5F5000000000000000000000000000000000000F5F500000000000000000000000000000000000000000000000000000000
310
00000000000000000000000000000000000000000000000000000000000000000000000000000000000000000000000000000000000000000000000000000000000000000000000000000000000000000000000000000000000000000000000000000000000000000000000000000000000000000000000000000000000000
310
00000000000000000000000000000000000000000000000000000000000000000000000000000000000000000000000000000000000000000000000000000000000000000000000000000000004500F5F5000000000000000000000000000000000000F5F50000000000000000000000000000000000000000000000000000
310
00000000000000000000000000000000000000000000000000000000000000000000000000000000000000000000000000000000000000000000000000000000000000000000000000000000000000000000000000000000000000000000000000000000000000000000000000000000000000000000000000000000000000
310
000000000000000000000000000000000000000000000000000000000000000000000000000000000000000000000000000000000000000000000000000000000000000000000000000000000000004500F5F5000000000000000000000000000000000000F5F5000000000000000000000000000000000000000000000000
310
00000000000000000000000000000000000000000000000000000000000000000000000000000000000000000000000000000000000000000000000000000000000000000000000000000000000000000000000000000000000000000000000000000000000000000000000000000000000000000000000000000000000000
310
0000000000000000000000000000000000000000000000000000000000000000000000000000000000000000000000000000000000000000000000000000000000000000000000000000000000000000004500F5F5000000000000000000000000000000000000F5F500000000000000000000000000000000000000000000
310
00000000000000000000000000000000000000000000000000000000000000000000000000000000000000000000000000000000000000000000000000000000000000000000000000000000000000000000000000000000000000000000000000000000000000000000000000000000000000000000000000000000000000
310
00000000000000000000000000000000000000000000000000000000000000000000000000000000000000000000000000000000000000000000000000000000000000000000000000000000000000000000004500F5F5000000000000000000000000000000000000F5F50000000000000000000000000000000000000000
310
00000000000000000000000000000000000000000000000000000000000000000000000000000000000000000000000000000000000000000000000000000000000000000000000000000000000000000000000000000000000000000000000000000000000000000000000000000000000000000000000000000000000000
310
000000000000000000000000000000000000000000000000000000000000000000000000000000000000000000000000000000000000000000000000000000000000000000000000000000000000000000000000004500F5F5000000000000000000000000000000000000F5F5000000000000000000000000000000000000
310
00000000000000000000000000000000000000000000000000000000000000000000000000000000000000000000000000000000000000000000000000000000000000000000000000000000000000000000000000000000000000000000000000000000000000000000000000000000000000000000000000000000000000
310
0000000000000000000000000000000000000000000000000000000000000000000000000000000000000000000000000000000000000000000000000000000000000000000000000000000000000000000000004545454500F5F5000000000000000000000000000000000000F5F500000000000000000000000000000000
310
00000000000000000000000000000000000000000000000000000000000000000000000000000000000000000000000000000000000000000000000000000000000000000000000000000000000000000000000000000000000000000000000000000000000000000000000000000000000000000000000000000000000000
310
00000000000000000000000000000000000000000000000000000000000000000000000000000000000000000000000000000000000000000000000000000000000000000000000000000000000000000000000000004545454500F5F5000000000000000000000000000000000000F5F50000000000000000000000000000
310
00000000000000000000000000000000000000000000000000000000000000000000000000000000000000000000000000000000000000000000000000000000000000000000000000000000000000000000000000000000000000000000000000000000000000000000000000000000000000000000000000000000000000
310
000000000000000000000000000000000000000000000000000000000000000000000000000000000000000000000000000000000000000000000000000000000000000000000000000000000000000000000000000000004545454500F5F5000000000000000000000000000000000000F5F5000000000000000000000000
310
00000000000000000000000000000000000000000000000000000000000000000000000000000000000000000000000000000000000000000000000000000000000000000000000000000000000000000000000000000000000000000000000000000000000000000000000000000000000000000000000000000000000000
310
0000000000000000000000000000000000000000000000000000000000000000000000000000000000000000000000000000000000000000000000000000000000000000000000000000000000000000000000000000000000004545454500F5F5000000000000000000000000000000000000F5F500000000000000000000
310
00000000000000000000000000000000000000000000000000000000000000000000000000000000000000000000000000000000000000000000000000000000000000000000000000000000000000000000000000000000000000000000000000000000000000000000000000000000000000000000000000000000000000
310
00000000000000000000000000000000000000000000000000000000000000000000000000000000000000000000000000000000000000000000000000000000000000000000000000000000000000000000000000000000000000004545454500F5F5000000000000000000000000000000000000F5F50000000000000000
310
00000000000000000000000000000000000000000000000000000000000000000000000000000000000000000000000000000000000000000000000000000000000000000000000000000000000000000000000000000000000000000000000000000000000000000000000000000000000000000000000000000000000000
310
000000000000000000000000000000000000000000000000000000000000000000000000000000000000000000000000000000000000000000000000000000000000000000000000000000000000000000000000000000000000000000000000004500F5F5000000000000000000000000000000000000F5F5000000000000
310
00000000000000000000000000000000000000000000000000000000000000000000000000000000000000000000000000000000000000000000000000000000000000000000000000000000000000000000000000000000000000000000000000000000000000000000000000000000000000000000000000000000000000
310
0000000000000000000000000000000000000000000000000000000000000000000000000000000000000000000000000000000000000000000000000000000000000000000000000000000000000000000000000000000000000000000000000000004500F5F5000000000000000000000000000000000000F5F500000000
310
00000000000000000000000000000000000000000000000000000000000000000000000000000000000000000000000000000000000000000000000000000000000000000000000000000000000000000000000000000000000000000000000000000000000000000000000000000000000000000000000000000000000000
310
00000000000000000000000000000000000000000000000000000000000000000000000000000000000000000000000000000000000000000000000000000000000000000000000000000000000000000000000000000000000000000000000000000000004500F5F5000000000000000000000000000000000000F5F50000
310
00000000000000000000000000000000000000000000000000000000000000000000000000000000000000000000000000000000000000000000000000000000000000000000000000000000000000000000000000000000000000000000000000000000000000000000000000000000000000000000000000000000000000
310
000000000000000000000000000000000000000000000000000000000000000000000000000000000000000000000000000000000000000000000000000000000000000000000000000000000000000000000000000000000000000000000000000000000000004500F5F5000000000000000000000000000000000000F5F5
310
00000000000000000000000000000000000000000000000000000000000000000000000000000000000000000000000000000000000000000000000000000000000000000000000000000000000000000000000000000000000000000000000000000000000000000000000000000000000000000000000000000000000000
310
0000000000000000000000000000000000000000000000000000000000000000000000000000000000000000000000000000000000000000000000000000000000000000000000000000000000000000000000000000000000000000000000000000000000000000004500F5F5000000000000000000000000000000000000
310
F5F50000000000000000000000000000000000000000000000000000000000000000000000000000000000000000000000000000000000000000000000000000000000000000000000000000000000000000000000000000000000000000000000000000000000000000000000000000000000000000000000000000000000
310
00000000000000000000000000000000000000000000000000000000000000000000000000000000000000000000000000000000000000000000000000000000000000000000000000000000000000000000000000000000000000000000000000000000000000000000004500F5F500000000000000000000000000000000
310
0000F5F5000000000000000000000000000000000000000000000000000000000000000000000000000000000000000000000000000000000000000000000000000000000000000000000000000000000000000000000000000000000000000000000000000000000000000000000000000000000000000000000000000000
310
000000000000000000000000000000000000000000000000000000000000000000000000000000000000000000000000000000000000000000000000000000000000000000000000000000000000000000000000000000000000000000000000000000000000000000000000004500F5F50000000000000000000000000000
310
00000000F5F500000000000000000000000000000000000000000000000000000000000000000000000000000000000000000000000000000000000000000000000000000000000000000000000000000000000000000000000000000000000000000000000000000000000000000000000000000000000000000000000000
310
0000000000000000000000000000000000000000000000000000000000000000000000000000000000000000000000000000000000000000000000000000000000000000000000000000000000000000000000000000000000000000000000000000000000000000000000000000004500F5F5000000000000000000000000
310
000000000000F5F50000000000000000000000000000000000000000000000000000000000000000000000000000000000000000000000000000000000000000000000000000000000000000000000000000000000000000000000000000000000000000000000000000000000000000000000000000000000000000000000
310
00000000000000000000000000000000000000000000000000000000000000000000000000000000000000000000000000000000000000000000000000000000000000000000000000000000000000000000000000000000000000000000000000000000000000000000000000000000454500F5F5F5F5F5F5F5F5F5F5F5F5
310
F5F5F5F5F5F5F5F5F5F5000000000000000000000000000000000000000000000000000000000000000000000000000000000000000000000000000000000000000000000000000000000000000000000000000000000000000000000000000000000000000000000000000000000000000000000000000000000000000000
310
00000000000000000000000000000000000000000000000000000000000000000000000000000000000000000000000000000000000000000000000000000000000000000000000000000000000000000000000000000000000000000000000000000000000000000000000000000000000045454545F5F5F5F5F5F5F5F5F5
310
F5F5F5F5F5F5F5F5F5F5F5F500000000000000000000000000000000000000000000000000000000000000000000000000000000000000000000000000000000000000000000000000000000000000000000000000000000000000000000000000000000000000000000000000000000000000000000000000000000000000
310
00000000000000000000000000000000000000000000000000000000000000000000000000000000000000000000000000000000000000000000000000000000000000000000000000000000000000000000000000000000000000000000000000000000000000000000000000000000000000000000000000000000000000
310
00000000000000000000000000000000000000000000000000000000000000000000000000000000000000000000000000000000000000000000000000000000000000000000000000000000000000000000000000000000000000000000000000000000000000000000000000000000000000000000000000000000000000
310
00000000000000000000000000000000000000000000000000000000000000000000000000000000000000000000000000000000000000000000000000000000000000000000000000000000000000000000000000000000000000000000000000000000000000000000000000000000000000000000000000000000000000
310
00000000000000000000000000000000000000000000000000000000000000000000000000000000000000000000000000000000000000000000000000000000000000000000000000000000000000000000000000000000000000000000000000000000000000000000000000000000000000000000000000000000000000
310
00000000000000000000000000000000000000000000000000000000000000000000000000000000000000000000000000000000000000000000000000000000000000000000000000000000000000000000000000000000000000000000000000000000000000000000000000000000000000000000000000000000000000
310
00000000000000000000000000000000000000000000000000000000000000000000000000000000000000000000000000000000000000000000000000000000000000000000000000000000000000000000000000000000000000000000000000000000000000000000000000000000000000000000000000000000000000
310
00000000000000000000000000000000000000000000000000000000000000000000000000000000000000000000000000000000000000000000000000000000000000000000000000000000000000000000000000000000000000000000000000000000000000000000000000000000000000000000000000000000000000
310
00000000000000000000000000000000000000000000000000000000000000000000000000000000000000000000000000000000000000000000000000000000000000000000000000000000000000000000000000000000000000000000000000000000000000000000000000000000000000000000000000000000000000
310
00000000000000000000000000000000000000000000000000000000000000000000000000000000000000000000000000000000000000000000000000000000000000000000000000000000000000000000000000000000000000000000000000000000000000000000000000000000000000000000000000000000000000
310
00000000000000000000000000000000000000000000000000000000000000000000000000000000000000000000000000000000000000000000000000000000000000000000000000000000000000000000000000000000000000000000000000000000000000000000000000000000000000000000000000000000000000
310
00000000000000000000000000000000000000000000000000000000000000000000000000000000000000000000000000000000000000000000000000000000000000000000000000000000000000000000000000000000000000000000000000000000000000000000000000000000000000000000000000000000000000
310
00000000000000000000000000000000000000000000000000000000000000000000000000000000000000000000000000000000000000000000000000000000000000000000000000000000000000000000000000000000000000000000000000000000000000000000000000000000000000000000000000000000000000
310
00000000000000000000000000000000000000000000000000000000
  0
XRECORD
  5
103A
102
{ACAD_REACTORS
330
1A
102
}
330
1A
100
AcDbXrecord
280
     1
102
MATERIAL
148
0.0
149
0.0
149
0.0
 93
        0
 94
      127
282
     0
 72
     0
 77
     0
171
     0
175
     0
179
     0
273
     0
  0
XRECORD
  5
1C
102
{ACAD_REACTORS
330
1A
102
}
330
1A
100
AcDbXrecord
280
     1
270
     1
271
     1
  0
XRECORD
  5
1B
102
{ACAD_REACTORS
330
1A
102
}
330
1A
100
AcDbXrecord
280
     1
270
     1
271
     1
  0
XRECORD
  5
1F
102
{ACAD_REACTORS
330
1A
102
}
330
1A
100
AcDbXrecord
280
     1
270
     1
271
     1
  0
XRECORD
  5
1E
102
{ACAD_REACTORS
330
1A
102
}
330
1A
100
AcDbXrecord
280
     1
270
     1
271
     1
  0
XRECORD
  5
20
102
{ACAD_REACTORS
330
1A
102
}
330
1A
100
AcDbXrecord
280
     1
270
     1
271
     1
  0
XRECORD
  5
1D
102
{ACAD_REACTORS
330
1A
102
}
330
1A
100
AcDbXrecord
280
     1
270
     1
271
     1
  0
XRECORD
  5
1039
102
{ACAD_REACTORS
330
12
102
}
330
12
100
AcDbXrecord
280
     1
102
MATERIAL
148
0.0
149
0.0
149
0.0
 93
        0
 94
      127
282
     0
 72
     0
 77
     0
171
     0
175
     0
179
     0
273
     0
  0
XRECORD
  5
14
102
{ACAD_REACTORS
330
12
102
}
330
12
100
AcDbXrecord
280
     1
270
     1
271
     1
  0
XRECORD
  5
13
102
{ACAD_REACTORS
330
12
102
}
330
12
100
AcDbXrecord
280
     1
270
     1
271
     1
  0
XRECORD
  5
17
102
{ACAD_REACTORS
330
12
102
}
330
12
100
AcDbXrecord
280
     1
270
     1
271
     1
  0
XRECORD
  5
16
102
{ACAD_REACTORS
330
12
102
}
330
12
100
AcDbXrecord
280
     1
270
     1
271
     1
  0
XRECORD
  5
18
102
{ACAD_REACTORS
330
12
102
}
330
12
100
AcDbXrecord
280
     1
270
     1
271
     1
  0
XRECORD
  5
15
102
{ACAD_REACTORS
330
12
102
}
330
12
100
AcDbXrecord
280
     1
270
     1
271
     1
  0
XRECORD
  5
103B
102
{ACAD_REACTORS
330
22
102
}
330
22
100
AcDbXrecord
280
     1
102
MATERIAL
148
0.0
149
0.0
149
0.0
 93
        0
 94
      127
282
     0
 72
     0
 77
     0
171
     0
175
     0
179
     0
273
     0
  0
XRECORD
  5
24
102
{ACAD_REACTORS
330
22
102
}
330
22
100
AcDbXrecord
280
     1
270
     1
271
     1
  0
XRECORD
  5
23
102
{ACAD_REACTORS
330
22
102
}
330
22
100
AcDbXrecord
280
     1
270
     1
271
     1
  0
XRECORD
  5
27
102
{ACAD_REACTORS
330
22
102
}
330
22
100
AcDbXrecord
280
     1
270
     1
271
     1
  0
XRECORD
  5
26
102
{ACAD_REACTORS
330
22
102
}
330
22
100
AcDbXrecord
280
     1
270
     1
271
     1
  0
XRECORD
  5
28
102
{ACAD_REACTORS
330
22
102
}
330
22
100
AcDbXrecord
280
     1
270
     1
271
     1
  0
XRECORD
  5
25
102
{ACAD_REACTORS
330
22
102
}
330
22
100
AcDbXrecord
280
     1
270
     1
271
     1
  0
CELLSTYLEMAP
  5
1036
102
{ACAD_REACTORS
330
1035
102
}
330
1035
100
AcDbCellStyleMap
 90
        3
300
CELLSTYLE
  1
TABLEFORMAT_BEGIN
 90
        5
170
     1
 91
        0
 92
    32768
 62
   257
 93
        1
300
CONTENTFORMAT
  1
CONTENTFORMAT_BEGIN
 90
        0
 91
        0
 92
      512
 93
        0
300

 40
0.0
140
1.0
 94
        5
 62
     0
340
55
144
0.25
309
CONTENTFORMAT_END
171
     0
 94
        0
309
TABLEFORMAT_END
  1
CELLSTYLE_BEGIN
 90
        1
 91
        1
300
_TITLE
309
CELLSTYLE_END
300
CELLSTYLE
  1
TABLEFORMAT_BEGIN
 90
        5
170
     1
 91
        0
 92
        0
 62
   257
 93
        1
300
CONTENTFORMAT
  1
CONTENTFORMAT_BEGIN
 90
        0
 91
        0
 92
      512
 93
        0
300

 40
0.0
140
1.0
 94
        5
 62
     0
340
55
144
0.18
309
CONTENTFORMAT_END
171
     0
 94
        0
309
TABLEFORMAT_END
  1
CELLSTYLE_BEGIN
 90
        2
 91
        1
300
_HEADER
309
CELLSTYLE_END
300
CELLSTYLE
  1
TABLEFORMAT_BEGIN
 90
        5
170
     1
 91
        0
 92
        0
 62
   257
 93
        1
300
CONTENTFORMAT
  1
CONTENTFORMAT_BEGIN
 90
        0
 91
        0
 92
      512
 93
        0
300

 40
0.0
140
1.0
 94
        2
 62
     0
340
55
144
0.18
309
CONTENTFORMAT_END
171
     0
 94
        0
309
TABLEFORMAT_END
  1
CELLSTYLE_BEGIN
 90
        3
 91
        2
300
_DATA
309
CELLSTYLE_END
  0
XRECORD
  5
106C
102
{ACAD_REACTORS
330
1035
102
}
330
1035
100
AcDbXrecord
280
     1
102
ACAD_ROUNDTRIP_PRE2007_TABLESTYLE
 90
      512
 91
        0
  1

 92
      512
 93
        0
  2

 94
      512
 95
        0
  3

  0
XRECORD
  5
1047
102
{ACAD_REACTORS
330
1046
102
}
330
1046
100
AcDbXrecord
280
     1
102
RTVSPropertyOp0
 70
     1
102
RTVSPropertyOp1
 70
     1
102
RTVSPropertyOp2
 70
     1
102
RTVSPropertyOp3
 70
     1
102
RTVSPropertyOp4
 70
     1
102
RTVSPropertyOp5
 70
     1
102
RTVSPropertyOp6
 70
     1
102
RTVSPropertyOp7
 70
     1
102
RTVSPropertyOp8
 70
     1
102
RTVSPropertyOp9
 70
     1
102
RTVSPropertyOp10
 70
     1
102
RTVSPropertyOp11
 70
     1
102
RTVSPropertyOp12
 70
     1
102
RTVSPropertyOp13
 70
     1
102
RTVSPropertyOp14
 70
     1
102
RTVSPropertyOp15
 70
     1
102
RTVSPropertyOp16
 70
     1
102
RTVSPropertyOp17
 70
     1
102
RTVSPropertyOp18
 70
     1
102
RTVSPropertyOp19
 70
     1
102
RTVSPropertyOp20
 70
     1
102
RTVSPropertyOp21
 70
     1
102
RTVSPropertyOp22
 70
     1
102
RTVSPropertyOp23
 70
     1
102
RTVSPropertyOp24
 70
     1
102
RTVSPropertyOp25
 70
     1
102
RTVSPropertyOp26
 70
     1
102
RTVSPropertyOp27
 70
     1
102
RTVSPropertyOp28
 70
     1
102
RTVSPropertyOp29
 70
     1
102
RTVSPropertyOp30
 70
     1
102
RTVSPropertyOp31
 70
     1
102
RTVSPropertyOp32
 70
     1
  0
XRECORD
  5
1045
102
{ACAD_REACTORS
330
1044
102
}
330
1044
100
AcDbXrecord
280
     1
102
RTVSPropertyOp0
 70
     1
102
RTVSPropertyOp1
 70
     1
102
RTVSPropertyOp2
 70
     1
102
RTVSPropertyOp3
 70
     1
102
RTVSPropertyOp4
 70
     1
102
RTVSPropertyOp5
 70
     1
102
RTVSPropertyOp6
 70
     1
102
RTVSPropertyOp7
 70
     1
102
RTVSPropertyOp8
 70
     1
102
RTVSPropertyOp9
 70
     1
102
RTVSPropertyOp10
 70
     1
102
RTVSPropertyOp11
 70
     1
102
RTVSPropertyOp12
 70
     1
102
RTVSPropertyOp13
 70
     1
102
RTVSPropertyOp14
 70
     1
102
RTVSPropertyOp15
 70
     1
102
RTVSPropertyOp16
 70
     1
102
RTVSPropertyOp17
 70
     1
102
RTVSPropertyOp18
 70
     1
102
RTVSPropertyOp19
 70
     1
102
RTVSPropertyOp20
 70
     1
102
RTVSPropertyOp21
 70
     1
102
RTVSPropertyOp22
 70
     1
102
RTVSPropertyOp23
 70
     1
102
RTVSPropertyOp24
 70
     1
102
RTVSPropertyOp25
 70
     1
102
RTVSPropertyOp26
 70
     1
102
RTVSPropertyOp27
 70
     1
102
RTVSPropertyOp28
 70
     1
102
RTVSPropertyOp29
 70
     1
102
RTVSPropertyOp30
 70
     1
102
RTVSPropertyOp31
 70
     1
102
RTVSPropertyOp32
 70
     1
  0
XRECORD
  5
1053
102
{ACAD_REACTORS
330
1052
102
}
330
1052
100
AcDbXrecord
280
     1
102
RTVSPropertyOp0
 70
     1
102
RTVSPropertyOp1
 70
     1
102
RTVSPropertyOp2
 70
     1
102
RTVSPropertyOp3
 70
     1
102
RTVSPropertyOp4
 70
     1
102
RTVSPropertyOp5
 70
     1
102
RTVSPropertyOp6
 70
     1
102
RTVSPropertyOp7
 70
     1
102
RTVSPropertyOp8
 70
     1
102
RTVSPropertyOp9
 70
     1
102
RTVSPropertyOp10
 70
     1
102
RTVSPropertyOp11
 70
     1
102
RTVSPropertyOp12
 70
     1
102
RTVSPropertyOp13
 70
     1
102
RTVSPropertyOp14
 70
     1
102
RTVSPropertyOp15
 70
     1
102
RTVSPropertyOp16
 70
     1
102
RTVSPropertyOp17
 70
     1
102
RTVSPropertyOp18
 70
     1
102
RTVSPropertyOp19
 70
     1
102
RTVSPropertyOp20
 70
     1
102
RTVSPropertyOp21
 70
     1
102
RTVSPropertyOp22
 70
     1
102
RTVSPropertyOp23
 70
     1
102
RTVSPropertyOp24
 70
     1
102
RTVSPropertyOp25
 70
     1
102
RTVSPropertyOp26
 70
     1
102
RTVSPropertyOp27
 70
     1
102
RTVSPropertyOp28
 70
     1
102
RTVSPropertyOp29
 70
     1
102
RTVSPropertyOp30
 70
     1
102
RTVSPropertyOp31
 70
     1
102
RTVSPropertyOp32
 70
     1
  0
XRECORD
  5
105B
102
{ACAD_REACTORS
330
105A
102
}
330
105A
100
AcDbXrecord
280
     1
102
RTVSPropertyOp0
 70
     1
102
RTVSPropertyOp1
 70
     1
102
RTVSPropertyOp2
 70
     1
102
RTVSPropertyOp3
 70
     1
102
RTVSPropertyOp4
 70
     1
102
RTVSPropertyOp5
 70
     1
102
RTVSPropertyOp6
 70
     1
102
RTVSPropertyOp7
 70
     1
102
RTVSPropertyOp8
 70
     1
102
RTVSPropertyOp9
 70
     1
102
RTVSPropertyOp10
 70
     1
102
RTVSPropertyOp11
 70
     1
102
RTVSPropertyOp12
 70
     1
102
RTVSPropertyOp13
 70
     1
102
RTVSPropertyOp14
 70
     1
102
RTVSPropertyOp15
 70
     1
102
RTVSPropertyOp16
 70
     1
102
RTVSPropertyOp17
 70
     1
102
RTVSPropertyOp18
 70
     1
102
RTVSPropertyOp19
 70
     1
102
RTVSPropertyOp20
 70
     1
102
RTVSPropertyOp21
 70
     1
102
RTVSPropertyOp22
 70
     1
102
RTVSPropertyOp23
 70
     1
102
RTVSPropertyOp24
 70
     1
102
RTVSPropertyOp25
 70
     1
102
RTVSPropertyOp26
 70
     1
102
RTVSPropertyOp27
 70
     1
102
RTVSPropertyOp28
 70
     1
102
RTVSPropertyOp29
 70
     1
102
RTVSPropertyOp30
 70
     1
102
RTVSPropertyOp31
 70
     1
102
RTVSPropertyOp32
 70
     1
  0
XRECORD
  5
104D
102
{ACAD_REACTORS
330
104C
102
}
330
104C
100
AcDbXrecord
280
     1
102
RTVSPropertyOp0
 70
     1
102
RTVSPropertyOp1
 70
     1
102
RTVSPropertyOp2
 70
     1
102
RTVSPropertyOp3
 70
     1
102
RTVSPropertyOp4
 70
     1
102
RTVSPropertyOp5
 70
     1
102
RTVSPropertyOp6
 70
     1
102
RTVSPropertyOp7
 70
     1
102
RTVSPropertyOp8
 70
     1
102
RTVSPropertyOp9
 70
     1
102
RTVSPropertyOp10
 70
     1
102
RTVSPropertyOp11
 70
     1
102
RTVSPropertyOp12
 70
     1
102
RTVSPropertyOp13
 70
     1
102
RTVSPropertyOp14
 70
     1
102
RTVSPropertyOp15
 70
     1
102
RTVSPropertyOp16
 70
     1
102
RTVSPropertyOp17
 70
     1
102
RTVSPropertyOp18
 70
     1
102
RTVSPropertyOp19
 70
     1
102
RTVSPropertyOp20
 70
     1
102
RTVSPropertyOp21
 70
     1
102
RTVSPropertyOp22
 70
     1
102
RTVSPropertyOp23
 70
     1
102
RTVSPropertyOp24
 70
     1
102
RTVSPropertyOp25
 70
     1
102
RTVSPropertyOp26
 70
     1
102
RTVSPropertyOp27
 70
     1
102
RTVSPropertyOp28
 70
     1
102
RTVSPropertyOp29
 70
     1
102
RTVSPropertyOp30
 70
     1
102
RTVSPropertyOp31
 70
     1
102
RTVSPropertyOp32
 70
     1
  0
XRECORD
  5
1051
102
{ACAD_REACTORS
330
1050
102
}
330
1050
100
AcDbXrecord
280
     1
102
RTVSPropertyOp0
 70
     1
102
RTVSPropertyOp1
 70
     1
102
RTVSPropertyOp2
 70
     1
102
RTVSPropertyOp3
 70
     1
102
RTVSPropertyOp4
 70
     1
102
RTVSPropertyOp5
 70
     1
102
RTVSPropertyOp6
 70
     1
102
RTVSPropertyOp7
 70
     1
102
RTVSPropertyOp8
 70
     1
102
RTVSPropertyOp9
 70
     1
102
RTVSPropertyOp10
 70
     1
102
RTVSPropertyOp11
 70
     1
102
RTVSPropertyOp12
 70
     1
102
RTVSPropertyOp13
 70
     1
102
RTVSPropertyOp14
 70
     1
102
RTVSPropertyOp15
 70
     1
102
RTVSPropertyOp16
 70
     1
102
RTVSPropertyOp17
 70
     1
102
RTVSPropertyOp18
 70
     1
102
RTVSPropertyOp19
 70
     1
102
RTVSPropertyOp20
 70
     1
102
RTVSPropertyOp21
 70
     1
102
RTVSPropertyOp22
 70
     1
102
RTVSPropertyOp23
 70
     1
102
RTVSPropertyOp24
 70
     1
102
RTVSPropertyOp25
 70
     1
102
RTVSPropertyOp26
 70
     1
102
RTVSPropertyOp27
 70
     1
102
RTVSPropertyOp28
 70
     1
102
RTVSPropertyOp29
 70
     1
102
RTVSPropertyOp30
 70
     1
102
RTVSPropertyOp31
 70
     1
102
RTVSPropertyOp32
 70
     1
  0
XRECORD
  5
106B
102
{ACAD_REACTORS
330
106A
102
}
330
106A
100
AcDbXrecord
280
     1
102
RTVSPropertyOp0
 70
     0
102
RTVSPropertyOp1
 70
     0
102
RTVSPropertyOp2
 70
     0
102
RTVSPropertyOp3
 70
     0
102
RTVSPropertyOp4
 70
     0
102
RTVSPropertyOp5
 70
     0
102
RTVSPropertyOp6
 70
     0
102
RTVSPropertyOp7
 70
     0
102
RTVSPropertyOp8
 70
     0
102
RTVSPropertyOp9
 70
     0
102
RTVSPropertyOp10
 70
     0
102
RTVSPropertyOp11
 70
     0
102
RTVSPropertyOp12
 70
     0
102
RTVSPropertyOp13
 70
     0
102
RTVSPropertyOp14
 70
     2
102
RTVSPropertyOp15
 70
     0
102
RTVSPropertyOp16
 70
     0
102
RTVSPropertyOp17
 70
     0
102
RTVSPropertyOp18
 70
     0
102
RTVSPropertyOp19
 70
     0
102
RTVSPropertyOp20
 70
     0
102
RTVSPropertyOp21
 70
     0
102
RTVSPropertyOp22
 70
     0
102
RTVSPropertyOp23
 70
     0
102
RTVSPropertyOp24
 70
     0
102
RTVSPropertyOp25
 70
     0
102
RTVSPropertyOp26
 70
     0
102
RTVSPropertyOp27
 70
     0
102
RTVSPropertyOp28
 70
     1
102
RTVSPropertyOp29
 70
     1
102
RTVSPropertyOp30
 70
     1
102
RTVSPropertyOp31
 70
     1
102
RTVSPropertyOp32
 70
     1
  0
XRECORD
  5
1059
102
{ACAD_REACTORS
330
1058
102
}
330
1058
100
AcDbXrecord
280
     1
102
RTVSPropertyOp0
 70
     1
102
RTVSPropertyOp1
 70
     1
102
RTVSPropertyOp2
 70
     1
102
RTVSPropertyOp3
 70
     1
102
RTVSPropertyOp4
 70
     1
102
RTVSPropertyOp5
 70
     1
102
RTVSPropertyOp6
 70
     1
102
RTVSPropertyOp7
 70
     1
102
RTVSPropertyOp8
 70
     1
102
RTVSPropertyOp9
 70
     1
102
RTVSPropertyOp10
 70
     1
102
RTVSPropertyOp11
 70
     1
102
RTVSPropertyOp12
 70
     1
102
RTVSPropertyOp13
 70
     1
102
RTVSPropertyOp14
 70
     1
102
RTVSPropertyOp15
 70
     1
102
RTVSPropertyOp16
 70
     1
102
RTVSPropertyOp17
 70
     1
102
RTVSPropertyOp18
 70
     1
102
RTVSPropertyOp19
 70
     1
102
RTVSPropertyOp20
 70
     1
102
RTVSPropertyOp21
 70
     1
102
RTVSPropertyOp22
 70
     1
102
RTVSPropertyOp23
 70
     1
102
RTVSPropertyOp24
 70
     1
102
RTVSPropertyOp25
 70
     1
102
RTVSPropertyOp26
 70
     1
102
RTVSPropertyOp27
 70
     1
102
RTVSPropertyOp28
 70
     1
102
RTVSPropertyOp29
 70
     1
102
RTVSPropertyOp30
 70
     1
102
RTVSPropertyOp31
 70
     1
102
RTVSPropertyOp32
 70
     1
  0
XRECORD
  5
103D
102
{ACAD_REACTORS
330
103C
102
}
330
103C
100
AcDbXrecord
280
     1
102
RTVSPropertyOp0
 70
     1
102
RTVSPropertyOp1
 70
     1
102
RTVSPropertyOp2
 70
     1
102
RTVSPropertyOp3
 70
     1
102
RTVSPropertyOp4
 70
     1
102
RTVSPropertyOp5
 70
     1
102
RTVSPropertyOp6
 70
     1
102
RTVSPropertyOp7
 70
     1
102
RTVSPropertyOp8
 70
     1
102
RTVSPropertyOp9
 70
     1
102
RTVSPropertyOp10
 70
     1
102
RTVSPropertyOp11
 70
     1
102
RTVSPropertyOp12
 70
     1
102
RTVSPropertyOp13
 70
     1
102
RTVSPropertyOp14
 70
     1
102
RTVSPropertyOp15
 70
     1
102
RTVSPropertyOp16
 70
     1
102
RTVSPropertyOp17
 70
     1
102
RTVSPropertyOp18
 70
     1
102
RTVSPropertyOp19
 70
     1
102
RTVSPropertyOp20
 70
     1
102
RTVSPropertyOp21
 70
     1
102
RTVSPropertyOp22
 70
     1
102
RTVSPropertyOp23
 70
     1
102
RTVSPropertyOp24
 70
     1
102
RTVSPropertyOp25
 70
     1
102
RTVSPropertyOp26
 70
     1
102
RTVSPropertyOp27
 70
     1
102
RTVSPropertyOp28
 70
     1
102
RTVSPropertyOp29
 70
     1
102
RTVSPropertyOp30
 70
     1
102
RTVSPropertyOp31
 70
     1
102
RTVSPropertyOp32
 70
     1
  0
XRECORD
  5
103F
102
{ACAD_REACTORS
330
103E
102
}
330
103E
100
AcDbXrecord
280
     1
102
RTVSPropertyOp0
 70
     1
102
RTVSPropertyOp1
 70
     1
102
RTVSPropertyOp2
 70
     1
102
RTVSPropertyOp3
 70
     1
102
RTVSPropertyOp4
 70
     1
102
RTVSPropertyOp5
 70
     1
102
RTVSPropertyOp6
 70
     1
102
RTVSPropertyOp7
 70
     1
102
RTVSPropertyOp8
 70
     1
102
RTVSPropertyOp9
 70
     1
102
RTVSPropertyOp10
 70
     1
102
RTVSPropertyOp11
 70
     1
102
RTVSPropertyOp12
 70
     1
102
RTVSPropertyOp13
 70
     1
102
RTVSPropertyOp14
 70
     1
102
RTVSPropertyOp15
 70
     1
102
RTVSPropertyOp16
 70
     1
102
RTVSPropertyOp17
 70
     1
102
RTVSPropertyOp18
 70
     1
102
RTVSPropertyOp19
 70
     1
102
RTVSPropertyOp20
 70
     1
102
RTVSPropertyOp21
 70
     1
102
RTVSPropertyOp22
 70
     1
102
RTVSPropertyOp23
 70
     1
102
RTVSPropertyOp24
 70
     1
102
RTVSPropertyOp25
 70
     1
102
RTVSPropertyOp26
 70
     1
102
RTVSPropertyOp27
 70
     1
102
RTVSPropertyOp28
 70
     1
102
RTVSPropertyOp29
 70
     1
102
RTVSPropertyOp30
 70
     1
102
RTVSPropertyOp31
 70
     1
102
RTVSPropertyOp32
 70
     1
  0
XRECORD
  5
1041
102
{ACAD_REACTORS
330
1040
102
}
330
1040
100
AcDbXrecord
280
     1
102
RTVSPropertyOp0
 70
     1
102
RTVSPropertyOp1
 70
     1
102
RTVSPropertyOp2
 70
     1
102
RTVSPropertyOp3
 70
     1
102
RTVSPropertyOp4
 70
     1
102
RTVSPropertyOp5
 70
     1
102
RTVSPropertyOp6
 70
     1
102
RTVSPropertyOp7
 70
     1
102
RTVSPropertyOp8
 70
     1
102
RTVSPropertyOp9
 70
     1
102
RTVSPropertyOp10
 70
     1
102
RTVSPropertyOp11
 70
     1
102
RTVSPropertyOp12
 70
     1
102
RTVSPropertyOp13
 70
     1
102
RTVSPropertyOp14
 70
     1
102
RTVSPropertyOp15
 70
     1
102
RTVSPropertyOp16
 70
     1
102
RTVSPropertyOp17
 70
     1
102
RTVSPropertyOp18
 70
     1
102
RTVSPropertyOp19
 70
     1
102
RTVSPropertyOp20
 70
     1
102
RTVSPropertyOp21
 70
     1
102
RTVSPropertyOp22
 70
     1
102
RTVSPropertyOp23
 70
     1
102
RTVSPropertyOp24
 70
     1
102
RTVSPropertyOp25
 70
     1
102
RTVSPropertyOp26
 70
     1
102
RTVSPropertyOp27
 70
     1
102
RTVSPropertyOp28
 70
     1
102
RTVSPropertyOp29
 70
     1
102
RTVSPropertyOp30
 70
     1
102
RTVSPropertyOp31
 70
     1
102
RTVSPropertyOp32
 70
     1
  0
XRECORD
  5
1043
102
{ACAD_REACTORS
330
1042
102
}
330
1042
100
AcDbXrecord
280
     1
102
RTVSPropertyOp0
 70
     1
102
RTVSPropertyOp1
 70
     1
102
RTVSPropertyOp2
 70
     1
102
RTVSPropertyOp3
 70
     1
102
RTVSPropertyOp4
 70
     1
102
RTVSPropertyOp5
 70
     1
102
RTVSPropertyOp6
 70
     1
102
RTVSPropertyOp7
 70
     1
102
RTVSPropertyOp8
 70
     1
102
RTVSPropertyOp9
 70
     1
102
RTVSPropertyOp10
 70
     1
102
RTVSPropertyOp11
 70
     1
102
RTVSPropertyOp12
 70
     1
102
RTVSPropertyOp13
 70
     1
102
RTVSPropertyOp14
 70
     1
102
RTVSPropertyOp15
 70
     1
102
RTVSPropertyOp16
 70
     1
102
RTVSPropertyOp17
 70
     1
102
RTVSPropertyOp18
 70
     1
102
RTVSPropertyOp19
 70
     1
102
RTVSPropertyOp20
 70
     1
102
RTVSPropertyOp21
 70
     1
102
RTVSPropertyOp22
 70
     1
102
RTVSPropertyOp23
 70
     1
102
RTVSPropertyOp24
 70
     1
102
RTVSPropertyOp25
 70
     1
102
RTVSPropertyOp26
 70
     1
102
RTVSPropertyOp27
 70
     1
102
RTVSPropertyOp28
 70
     1
102
RTVSPropertyOp29
 70
     1
102
RTVSPropertyOp30
 70
     1
102
RTVSPropertyOp31
 70
     1
102
RTVSPropertyOp32
 70
     1
  0
XRECORD
  5
104B
102
{ACAD_REACTORS
330
104A
102
}
330
104A
100
AcDbXrecord
280
     1
102
RTVSPropertyOp0
 70
     1
102
RTVSPropertyOp1
 70
     1
102
RTVSPropertyOp2
 70
     1
102
RTVSPropertyOp3
 70
     1
102
RTVSPropertyOp4
 70
     1
102
RTVSPropertyOp5
 70
     1
102
RTVSPropertyOp6
 70
     1
102
RTVSPropertyOp7
 70
     1
102
RTVSPropertyOp8
 70
     1
102
RTVSPropertyOp9
 70
     1
102
RTVSPropertyOp10
 70
     1
102
RTVSPropertyOp11
 70
     1
102
RTVSPropertyOp12
 70
     1
102
RTVSPropertyOp13
 70
     1
102
RTVSPropertyOp14
 70
     1
102
RTVSPropertyOp15
 70
     1
102
RTVSPropertyOp16
 70
     1
102
RTVSPropertyOp17
 70
     1
102
RTVSPropertyOp18
 70
     1
102
RTVSPropertyOp19
 70
     1
102
RTVSPropertyOp20
 70
     1
102
RTVSPropertyOp21
 70
     1
102
RTVSPropertyOp22
 70
     1
102
RTVSPropertyOp23
 70
     1
102
RTVSPropertyOp24
 70
     1
102
RTVSPropertyOp25
 70
     1
102
RTVSPropertyOp26
 70
     1
102
RTVSPropertyOp27
 70
     1
102
RTVSPropertyOp28
 70
     1
102
RTVSPropertyOp29
 70
     1
102
RTVSPropertyOp30
 70
     1
102
RTVSPropertyOp31
 70
     1
102
RTVSPropertyOp32
 70
     1
  0
XRECORD
  5
1067
102
{ACAD_REACTORS
330
1066
102
}
330
1066
100
AcDbXrecord
280
     1
102
RTVSPropertyOp0
 70
     0
102
RTVSPropertyOp1
 70
     0
102
RTVSPropertyOp2
 70
     0
102
RTVSPropertyOp3
 70
     0
102
RTVSPropertyOp4
 70
     0
102
RTVSPropertyOp5
 70
     0
102
RTVSPropertyOp6
 70
     0
102
RTVSPropertyOp7
 70
     0
102
RTVSPropertyOp8
 70
     0
102
RTVSPropertyOp9
 70
     0
102
RTVSPropertyOp10
 70
     0
102
RTVSPropertyOp11
 70
     0
102
RTVSPropertyOp12
 70
     0
102
RTVSPropertyOp13
 70
     0
102
RTVSPropertyOp14
 70
     2
102
RTVSPropertyOp15
 70
     0
102
RTVSPropertyOp16
 70
     0
102
RTVSPropertyOp17
 70
     0
102
RTVSPropertyOp18
 70
     0
102
RTVSPropertyOp19
 70
     0
102
RTVSPropertyOp20
 70
     0
102
RTVSPropertyOp21
 70
     0
102
RTVSPropertyOp22
 70
     0
102
RTVSPropertyOp23
 70
     0
102
RTVSPropertyOp24
 70
     0
102
RTVSPropertyOp25
 70
     0
102
RTVSPropertyOp26
 70
     0
102
RTVSPropertyOp27
 70
     0
102
RTVSPropertyOp28
 70
     1
102
RTVSPropertyOp29
 70
     1
102
RTVSPropertyOp30
 70
     1
102
RTVSPropertyOp31
 70
     1
102
RTVSPropertyOp32
 70
     1
  0
XRECORD
  5
1057
102
{ACAD_REACTORS
330
1056
102
}
330
1056
100
AcDbXrecord
280
     1
102
RTVSPropertyOp0
 70
     1
102
RTVSPropertyOp1
 70
     1
102
RTVSPropertyOp2
 70
     1
102
RTVSPropertyOp3
 70
     1
102
RTVSPropertyOp4
 70
     1
102
RTVSPropertyOp5
 70
     1
102
RTVSPropertyOp6
 70
     1
102
RTVSPropertyOp7
 70
     1
102
RTVSPropertyOp8
 70
     1
102
RTVSPropertyOp9
 70
     1
102
RTVSPropertyOp10
 70
     1
102
RTVSPropertyOp11
 70
     1
102
RTVSPropertyOp12
 70
     1
102
RTVSPropertyOp13
 70
     1
102
RTVSPropertyOp14
 70
     1
102
RTVSPropertyOp15
 70
     1
102
RTVSPropertyOp16
 70
     1
102
RTVSPropertyOp17
 70
     1
102
RTVSPropertyOp18
 70
     1
102
RTVSPropertyOp19
 70
     1
102
RTVSPropertyOp20
 70
     1
102
RTVSPropertyOp21
 70
     1
102
RTVSPropertyOp22
 70
     1
102
RTVSPropertyOp23
 70
     1
102
RTVSPropertyOp24
 70
     1
102
RTVSPropertyOp25
 70
     1
102
RTVSPropertyOp26
 70
     1
102
RTVSPropertyOp27
 70
     1
102
RTVSPropertyOp28
 70
     1
102
RTVSPropertyOp29
 70
     1
102
RTVSPropertyOp30
 70
     1
102
RTVSPropertyOp31
 70
     1
102
RTVSPropertyOp32
 70
     1
  0
XRECORD
  5
1069
102
{ACAD_REACTORS
330
1068
102
}
330
1068
100
AcDbXrecord
280
     1
102
RTVSPropertyOp0
 70
     0
102
RTVSPropertyOp1
 70
     0
102
RTVSPropertyOp2
 70
     0
102
RTVSPropertyOp3
 70
     0
102
RTVSPropertyOp4
 70
     0
102
RTVSPropertyOp5
 70
     0
102
RTVSPropertyOp6
 70
     0
102
RTVSPropertyOp7
 70
     0
102
RTVSPropertyOp8
 70
     0
102
RTVSPropertyOp9
 70
     0
102
RTVSPropertyOp10
 70
     0
102
RTVSPropertyOp11
 70
     0
102
RTVSPropertyOp12
 70
     0
102
RTVSPropertyOp13
 70
     0
102
RTVSPropertyOp14
 70
     2
102
RTVSPropertyOp15
 70
     0
102
RTVSPropertyOp16
 70
     0
102
RTVSPropertyOp17
 70
     0
102
RTVSPropertyOp18
 70
     0
102
RTVSPropertyOp19
 70
     0
102
RTVSPropertyOp20
 70
     0
102
RTVSPropertyOp21
 70
     0
102
RTVSPropertyOp22
 70
     0
102
RTVSPropertyOp23
 70
     0
102
RTVSPropertyOp24
 70
     0
102
RTVSPropertyOp25
 70
     0
102
RTVSPropertyOp26
 70
     0
102
RTVSPropertyOp27
 70
     0
102
RTVSPropertyOp28
 70
     1
102
RTVSPropertyOp29
 70
     1
102
RTVSPropertyOp30
 70
     1
102
RTVSPropertyOp31
 70
     1
102
RTVSPropertyOp32
 70
     1
  0
XRECORD
  5
104F
102
{ACAD_REACTORS
330
104E
102
}
330
104E
100
AcDbXrecord
280
     1
102
RTVSPropertyOp0
 70
     1
102
RTVSPropertyOp1
 70
     1
102
RTVSPropertyOp2
 70
     1
102
RTVSPropertyOp3
 70
     1
102
RTVSPropertyOp4
 70
     1
102
RTVSPropertyOp5
 70
     1
102
RTVSPropertyOp6
 70
     1
102
RTVSPropertyOp7
 70
     1
102
RTVSPropertyOp8
 70
     1
102
RTVSPropertyOp9
 70
     1
102
RTVSPropertyOp10
 70
     1
102
RTVSPropertyOp11
 70
     1
102
RTVSPropertyOp12
 70
     1
102
RTVSPropertyOp13
 70
     1
102
RTVSPropertyOp14
 70
     1
102
RTVSPropertyOp15
 70
     1
102
RTVSPropertyOp16
 70
     1
102
RTVSPropertyOp17
 70
     1
102
RTVSPropertyOp18
 70
     1
102
RTVSPropertyOp19
 70
     1
102
RTVSPropertyOp20
 70
     1
102
RTVSPropertyOp21
 70
     1
102
RTVSPropertyOp22
 70
     1
102
RTVSPropertyOp23
 70
     1
102
RTVSPropertyOp24
 70
     1
102
RTVSPropertyOp25
 70
     1
102
RTVSPropertyOp26
 70
     1
102
RTVSPropertyOp27
 70
     1
102
RTVSPropertyOp28
 70
     1
102
RTVSPropertyOp29
 70
     1
102
RTVSPropertyOp30
 70
     1
102
RTVSPropertyOp31
 70
     1
102
RTVSPropertyOp32
 70
     1
  0
XRECORD
  5
1065
102
{ACAD_REACTORS
330
1064
102
}
330
1064
100
AcDbXrecord
280
     1
102
RTVSPropertyOp0
 70
     1
102
RTVSPropertyOp1
 70
     1
102
RTVSPropertyOp2
 70
     1
102
RTVSPropertyOp3
 70
     1
102
RTVSPropertyOp4
 70
     1
102
RTVSPropertyOp5
 70
     1
102
RTVSPropertyOp6
 70
     1
102
RTVSPropertyOp7
 70
     1
102
RTVSPropertyOp8
 70
     1
102
RTVSPropertyOp9
 70
     1
102
RTVSPropertyOp10
 70
     1
102
RTVSPropertyOp11
 70
     1
102
RTVSPropertyOp12
 70
     1
102
RTVSPropertyOp13
 70
     1
102
RTVSPropertyOp14
 70
     1
102
RTVSPropertyOp15
 70
     1
102
RTVSPropertyOp16
 70
     1
102
RTVSPropertyOp17
 70
     1
102
RTVSPropertyOp18
 70
     1
102
RTVSPropertyOp19
 70
     1
102
RTVSPropertyOp20
 70
     1
102
RTVSPropertyOp21
 70
     1
102
RTVSPropertyOp22
 70
     1
102
RTVSPropertyOp23
 70
     1
102
RTVSPropertyOp24
 70
     1
102
RTVSPropertyOp25
 70
     1
102
RTVSPropertyOp26
 70
     1
102
RTVSPropertyOp27
 70
     1
102
RTVSPropertyOp28
 70
     1
102
RTVSPropertyOp29
 70
     1
102
RTVSPropertyOp30
 70
     1
102
RTVSPropertyOp31
 70
     1
102
RTVSPropertyOp32
 70
     1
  0
XRECORD
  5
1063
102
{ACAD_REACTORS
330
1062
102
}
330
1062
100
AcDbXrecord
280
     1
102
RTVSPropertyOp0
 70
     1
102
RTVSPropertyOp1
 70
     1
102
RTVSPropertyOp2
 70
     1
102
RTVSPropertyOp3
 70
     1
102
RTVSPropertyOp4
 70
     1
102
RTVSPropertyOp5
 70
     1
102
RTVSPropertyOp6
 70
     1
102
RTVSPropertyOp7
 70
     1
102
RTVSPropertyOp8
 70
     1
102
RTVSPropertyOp9
 70
     1
102
RTVSPropertyOp10
 70
     1
102
RTVSPropertyOp11
 70
     1
102
RTVSPropertyOp12
 70
     1
102
RTVSPropertyOp13
 70
     1
102
RTVSPropertyOp14
 70
     1
102
RTVSPropertyOp15
 70
     1
102
RTVSPropertyOp16
 70
     1
102
RTVSPropertyOp17
 70
     1
102
RTVSPropertyOp18
 70
     1
102
RTVSPropertyOp19
 70
     1
102
RTVSPropertyOp20
 70
     1
102
RTVSPropertyOp21
 70
     1
102
RTVSPropertyOp22
 70
     1
102
RTVSPropertyOp23
 70
     1
102
RTVSPropertyOp24
 70
     1
102
RTVSPropertyOp25
 70
     1
102
RTVSPropertyOp26
 70
     1
102
RTVSPropertyOp27
 70
     1
102
RTVSPropertyOp28
 70
     1
102
RTVSPropertyOp29
 70
     1
102
RTVSPropertyOp30
 70
     1
102
RTVSPropertyOp31
 70
     1
102
RTVSPropertyOp32
 70
     1
  0
XRECORD
  5
105D
102
{ACAD_REACTORS
330
105C
102
}
330
105C
100
AcDbXrecord
280
     1
102
RTVSPropertyOp0
 70
     1
102
RTVSPropertyOp1
 70
     1
102
RTVSPropertyOp2
 70
     1
102
RTVSPropertyOp3
 70
     1
102
RTVSPropertyOp4
 70
     1
102
RTVSPropertyOp5
 70
     1
102
RTVSPropertyOp6
 70
     1
102
RTVSPropertyOp7
 70
     1
102
RTVSPropertyOp8
 70
     1
102
RTVSPropertyOp9
 70
     1
102
RTVSPropertyOp10
 70
     1
102
RTVSPropertyOp11
 70
     1
102
RTVSPropertyOp12
 70
     1
102
RTVSPropertyOp13
 70
     1
102
RTVSPropertyOp14
 70
     1
102
RTVSPropertyOp15
 70
     1
102
RTVSPropertyOp16
 70
     1
102
RTVSPropertyOp17
 70
     1
102
RTVSPropertyOp18
 70
     1
102
RTVSPropertyOp19
 70
     1
102
RTVSPropertyOp20
 70
     1
102
RTVSPropertyOp21
 70
     1
102
RTVSPropertyOp22
 70
     1
102
RTVSPropertyOp23
 70
     1
102
RTVSPropertyOp24
 70
     1
102
RTVSPropertyOp25
 70
     1
102
RTVSPropertyOp26
 70
     1
102
RTVSPropertyOp27
 70
     1
102
RTVSPropertyOp28
 70
     1
102
RTVSPropertyOp29
 70
     1
102
RTVSPropertyOp30
 70
     1
102
RTVSPropertyOp31
 70
     1
102
RTVSPropertyOp32
 70
     1
  0
XRECORD
  5
105F
102
{ACAD_REACTORS
330
105E
102
}
330
105E
100
AcDbXrecord
280
     1
102
RTVSPropertyOp0
 70
     1
102
RTVSPropertyOp1
 70
     1
102
RTVSPropertyOp2
 70
     1
102
RTVSPropertyOp3
 70
     1
102
RTVSPropertyOp4
 70
     1
102
RTVSPropertyOp5
 70
     1
102
RTVSPropertyOp6
 70
     1
102
RTVSPropertyOp7
 70
     1
102
RTVSPropertyOp8
 70
     1
102
RTVSPropertyOp9
 70
     1
102
RTVSPropertyOp10
 70
     1
102
RTVSPropertyOp11
 70
     1
102
RTVSPropertyOp12
 70
     1
102
RTVSPropertyOp13
 70
     1
102
RTVSPropertyOp14
 70
     1
102
RTVSPropertyOp15
 70
     1
102
RTVSPropertyOp16
 70
     1
102
RTVSPropertyOp17
 70
     1
102
RTVSPropertyOp18
 70
     1
102
RTVSPropertyOp19
 70
     1
102
RTVSPropertyOp20
 70
     1
102
RTVSPropertyOp21
 70
     1
102
RTVSPropertyOp22
 70
     1
102
RTVSPropertyOp23
 70
     1
102
RTVSPropertyOp24
 70
     1
102
RTVSPropertyOp25
 70
     1
102
RTVSPropertyOp26
 70
     1
102
RTVSPropertyOp27
 70
     1
102
RTVSPropertyOp28
 70
     1
102
RTVSPropertyOp29
 70
     1
102
RTVSPropertyOp30
 70
     1
102
RTVSPropertyOp31
 70
     1
102
RTVSPropertyOp32
 70
     1
  0
XRECORD
  5
1055
102
{ACAD_REACTORS
330
1054
102
}
330
1054
100
AcDbXrecord
280
     1
102
RTVSPropertyOp0
 70
     1
102
RTVSPropertyOp1
 70
     1
102
RTVSPropertyOp2
 70
     1
102
RTVSPropertyOp3
 70
     1
102
RTVSPropertyOp4
 70
     1
102
RTVSPropertyOp5
 70
     1
102
RTVSPropertyOp6
 70
     1
102
RTVSPropertyOp7
 70
     1
102
RTVSPropertyOp8
 70
     1
102
RTVSPropertyOp9
 70
     1
102
RTVSPropertyOp10
 70
     1
102
RTVSPropertyOp11
 70
     1
102
RTVSPropertyOp12
 70
     1
102
RTVSPropertyOp13
 70
     1
102
RTVSPropertyOp14
 70
     1
102
RTVSPropertyOp15
 70
     1
102
RTVSPropertyOp16
 70
     1
102
RTVSPropertyOp17
 70
     1
102
RTVSPropertyOp18
 70
     1
102
RTVSPropertyOp19
 70
     1
102
RTVSPropertyOp20
 70
     1
102
RTVSPropertyOp21
 70
     1
102
RTVSPropertyOp22
 70
     1
102
RTVSPropertyOp23
 70
     1
102
RTVSPropertyOp24
 70
     1
102
RTVSPropertyOp25
 70
     1
102
RTVSPropertyOp26
 70
     1
102
RTVSPropertyOp27
 70
     1
102
RTVSPropertyOp28
 70
     1
102
RTVSPropertyOp29
 70
     1
102
RTVSPropertyOp30
 70
     1
102
RTVSPropertyOp31
 70
     1
102
RTVSPropertyOp32
 70
     1
  0
XRECORD
  5
1049
102
{ACAD_REACTORS
330
1048
102
}
330
1048
100
AcDbXrecord
280
     1
102
RTVSPropertyOp0
 70
     1
102
RTVSPropertyOp1
 70
     1
102
RTVSPropertyOp2
 70
     1
102
RTVSPropertyOp3
 70
     1
102
RTVSPropertyOp4
 70
     1
102
RTVSPropertyOp5
 70
     1
102
RTVSPropertyOp6
 70
     1
102
RTVSPropertyOp7
 70
     1
102
RTVSPropertyOp8
 70
     1
102
RTVSPropertyOp9
 70
     1
102
RTVSPropertyOp10
 70
     1
102
RTVSPropertyOp11
 70
     1
102
RTVSPropertyOp12
 70
     1
102
RTVSPropertyOp13
 70
     1
102
RTVSPropertyOp14
 70
     1
102
RTVSPropertyOp15
 70
     1
102
RTVSPropertyOp16
 70
     1
102
RTVSPropertyOp17
 70
     1
102
RTVSPropertyOp18
 70
     1
102
RTVSPropertyOp19
 70
     1
102
RTVSPropertyOp20
 70
     1
102
RTVSPropertyOp21
 70
     1
102
RTVSPropertyOp22
 70
     1
102
RTVSPropertyOp23
 70
     1
102
RTVSPropertyOp24
 70
     1
102
RTVSPropertyOp25
 70
     1
102
RTVSPropertyOp26
 70
     1
102
RTVSPropertyOp27
 70
     1
102
RTVSPropertyOp28
 70
     1
102
RTVSPropertyOp29
 70
     1
102
RTVSPropertyOp30
 70
     1
102
RTVSPropertyOp31
 70
     1
102
RTVSPropertyOp32
 70
     1
  0
XRECORD
  5
1061
102
{ACAD_REACTORS
330
1060
102
}
330
1060
100
AcDbXrecord
280
     1
102
RTVSPropertyOp0
 70
     1
102
RTVSPropertyOp1
 70
     1
102
RTVSPropertyOp2
 70
     1
102
RTVSPropertyOp3
 70
     1
102
RTVSPropertyOp4
 70
     1
102
RTVSPropertyOp5
 70
     1
102
RTVSPropertyOp6
 70
     1
102
RTVSPropertyOp7
 70
     1
102
RTVSPropertyOp8
 70
     1
102
RTVSPropertyOp9
 70
     1
102
RTVSPropertyOp10
 70
     1
102
RTVSPropertyOp11
 70
     1
102
RTVSPropertyOp12
 70
     1
102
RTVSPropertyOp13
 70
     1
102
RTVSPropertyOp14
 70
     1
102
RTVSPropertyOp15
 70
     1
102
RTVSPropertyOp16
 70
     1
102
RTVSPropertyOp17
 70
     1
102
RTVSPropertyOp18
 70
     1
102
RTVSPropertyOp19
 70
     1
102
RTVSPropertyOp20
 70
     1
102
RTVSPropertyOp21
 70
     1
102
RTVSPropertyOp22
 70
     1
102
RTVSPropertyOp23
 70
     1
102
RTVSPropertyOp24
 70
     1
102
RTVSPropertyOp25
 70
     1
102
RTVSPropertyOp26
 70
     1
102
RTVSPropertyOp27
 70
     1
102
RTVSPropertyOp28
 70
     1
102
RTVSPropertyOp29
 70
     1
102
RTVSPropertyOp30
 70
     1
102
RTVSPropertyOp31
 70
     1
102
RTVSPropertyOp32
 70
     1
  0
ENDSEC
  0
EOF
