  0
SECTION
  2
HEADER
  9
$ACADVER
  1
AC1015
  9
$ACADMAINTVER
 70
    20
  9
$DWGCODEPAGE
  3
ANSI_1250
  9
$INSBASE
 10
0.0
 20
0.0
 30
0.0
  9
$EXTMIN
 10
14288.31631494459
 20
-16.21893805908513
 30
0.0
  9
$EXTMAX
 10
21157.30242838193
 20
10102.82959497763
 30
0.0
  9
$LIMMIN
 10
0.0
 20
0.0
  9
$LIMMAX
 10
14850.0
 20
10500.0
  9
$ORTHOMODE
 70
     0
  9
$REGENMODE
 70
     1
  9
$FILLMODE
 70
     1
  9
$QTEXTMODE
 70
     0
  9
$MIRRTEXT
 70
     0
  9
$LTSCALE
 40
50.0
  9
$ATTMODE
 70
     1
  9
$TEXTSIZE
 40
0.2
  9
$TRACEWID
 40
0.05
  9
$TEXTSTYLE
  7
Standard
  9
$CLAYER
  8
0
  9
$CELTYPE
  6
ByLayer
  9
$CECOLOR
 62
   256
  9
$CELTSCALE
 40
1.0
  9
$DISPSILH
 70
     0
  9
$DIMSCALE
 40
1.0
  9
$DIMASZ
 40
1.799999999999999
  9
$DIMEXO
 40
0.0625
  9
$DIMDLI
 40
0.38
  9
$DIMRND
 40
0.0
  9
$DIMDLE
 40
0.0
  9
$DIMEXE
 40
0.18
  9
$DIMTP
 40
0.0
  9
$DIMTM
 40
0.0
  9
$DIMTXT
 40
0.25
  9
$DIMCEN
 40
0.09
  9
$DIMTSZ
 40
0.0
  9
$DIMTOL
 70
     0
  9
$DIMLIM
 70
     0
  9
$DIMTIH
 70
     1
  9
$DIMTOH
 70
     1
  9
$DIMSE1
 70
     0
  9
$DIMSE2
 70
     0
  9
$DIMTAD
 70
     0
  9
$DIMZIN
 70
     0
  9
$DIMBLK
  1

  9
$DIMASO
 70
     1
  9
$DIMSHO
 70
     1
  9
$DIMPOST
  1

  9
$DIMAPOST
  1

  9
$DIMALT
 70
     0
  9
$DIMALTD
 70
     2
  9
$DIMALTF
 40
25.4
  9
$DIMLFAC
 40
1.0
  9
$DIMTOFL
 70
     0
  9
$DIMTVP
 40
0.0
  9
$DIMTIX
 70
     0
  9
$DIMSOXD
 70
     0
  9
$DIMSAH
 70
     0
  9
$DIMBLK1
  1

  9
$DIMBLK2
  1

  9
$DIMSTYLE
  2
Standard
  9
$DIMCLRD
 70
     0
  9
$DIMCLRE
 70
     0
  9
$DIMCLRT
 70
     0
  9
$DIMTFAC
 40
1.0
  9
$DIMGAP
 40
0.09
  9
$DIMJUST
 70
     0
  9
$DIMSD1
 70
     0
  9
$DIMSD2
 70
     0
  9
$DIMTOLJ
 70
     1
  9
$DIMTZIN
 70
     0
  9
$DIMALTZ
 70
     0
  9
$DIMALTTZ
 70
     0
  9
$DIMUPT
 70
     0
  9
$DIMDEC
 70
     4
  9
$DIMTDEC
 70
     4
  9
$DIMALTU
 70
     2
  9
$DIMALTTD
 70
     2
  9
$DIMTXSTY
  7
Standard
  9
$DIMAUNIT
 70
     0
  9
$DIMADEC
 70
     0
  9
$DIMALTRND
 40
0.0
  9
$DIMAZIN
 70
     0
  9
$DIMDSEP
 70
    46
  9
$DIMATFIT
 70
     3
  9
$DIMFRAC
 70
     0
  9
$DIMLDRBLK
  1

  9
$DIMLUNIT
 70
     2
  9
$DIMLWD
 70
    -2
  9
$DIMLWE
 70
    -2
  9
$DIMTMOVE
 70
     0
  9
$LUNITS
 70
     2
  9
$LUPREC
 70
     4
  9
$SKETCHINC
 40
0.1
  9
$FILLETRAD
 40
0.0
  9
$AUNITS
 70
     0
  9
$AUPREC
 70
     0
  9
$MENU
  1
.
  9
$ELEVATION
 40
0.0
  9
$PELEVATION
 40
0.0
  9
$THICKNESS
 40
0.0
  9
$LIMCHECK
 70
     0
  9
$CHAMFERA
 40
0.0
  9
$CHAMFERB
 40
0.0
  9
$CHAMFERC
 40
0.0
  9
$CHAMFERD
 40
0.0
  9
$SKPOLY
 70
     0
  9
$TDCREATE
 40
2457242.482183715
  9
$TDUCREATE
 40
2457242.398850382
  9
$TDUPDATE
 40
2458619.617264237
  9
$TDUUPDATE
 40
2458619.533930903
  9
$TDINDWG
 40
0.0008426620
  9
$TDUSRTIMER
 40
0.0008424884
  9
$USRTIMER
 70
     1
  9
$ANGBASE
 50
0.0
  9
$ANGDIR
 70
     0
  9
$PDMODE
 70
     0
  9
$PDSIZE
 40
0.0
  9
$PLINEWID
 40
0.0
  9
$SPLFRAME
 70
     0
  9
$SPLINETYPE
 70
     6
  9
$SPLINESEGS
 70
     8
  9
$HANDSEED
  5
F17
  9
$SURFTAB1
 70
     6
  9
$SURFTAB2
 70
     6
  9
$SURFTYPE
 70
     6
  9
$SURFU
 70
     6
  9
$SURFV
 70
     6
  9
$UCSBASE
  2

  9
$UCSNAME
  2

  9
$UCSORG
 10
0.0
 20
0.0
 30
0.0
  9
$UCSXDIR
 10
1.0
 20
0.0
 30
0.0
  9
$UCSYDIR
 10
0.0
 20
1.0
 30
0.0
  9
$UCSORTHOREF
  2

  9
$UCSORTHOVIEW
 70
     0
  9
$UCSORGTOP
 10
0.0
 20
0.0
 30
0.0
  9
$UCSORGBOTTOM
 10
0.0
 20
0.0
 30
0.0
  9
$UCSORGLEFT
 10
0.0
 20
0.0
 30
0.0
  9
$UCSORGRIGHT
 10
0.0
 20
0.0
 30
0.0
  9
$UCSORGFRONT
 10
0.0
 20
0.0
 30
0.0
  9
$UCSORGBACK
 10
0.0
 20
0.0
 30
0.0
  9
$PUCSBASE
  2

  9
$PUCSNAME
  2

  9
$PUCSORG
 10
0.0
 20
0.0
 30
0.0
  9
$PUCSXDIR
 10
1.0
 20
0.0
 30
0.0
  9
$PUCSYDIR
 10
0.0
 20
1.0
 30
0.0
  9
$PUCSORTHOREF
  2

  9
$PUCSORTHOVIEW
 70
     0
  9
$PUCSORGTOP
 10
0.0
 20
0.0
 30
0.0
  9
$PUCSORGBOTTOM
 10
0.0
 20
0.0
 30
0.0
  9
$PUCSORGLEFT
 10
0.0
 20
0.0
 30
0.0
  9
$PUCSORGRIGHT
 10
0.0
 20
0.0
 30
0.0
  9
$PUCSORGFRONT
 10
0.0
 20
0.0
 30
0.0
  9
$PUCSORGBACK
 10
0.0
 20
0.0
 30
0.0
  9
$USERI1
 70
     0
  9
$USERI2
 70
     0
  9
$USERI3
 70
     0
  9
$USERI4
 70
     0
  9
$USERI5
 70
     0
  9
$USERR1
 40
0.0
  9
$USERR2
 40
0.0
  9
$USERR3
 40
0.0
  9
$USERR4
 40
0.0
  9
$USERR5
 40
0.0
  9
$WORLDVIEW
 70
     1
  9
$SHADEDGE
 70
     3
  9
$SHADEDIF
 70
    70
  9
$TILEMODE
 70
     1
  9
$MAXACTVP
 70
    64
  9
$PINSBASE
 10
0.0
 20
0.0
 30
0.0
  9
$PLIMCHECK
 70
     0
  9
$PEXTMIN
 10
0.0
 20
0.0
 30
0.0
  9
$PEXTMAX
 10
14850.0
 20
10500.0
 30
0.0
  9
$PLIMMIN
 10
0.0
 20
0.0
  9
$PLIMMAX
 10
14850.0
 20
10500.0
  9
$UNITMODE
 70
     0
  9
$VISRETAIN
 70
     1
  9
$PLINEGEN
 70
     0
  9
$PSLTSCALE
 70
     1
  9
$TREEDEPTH
 70
  3020
  9
$CMLSTYLE
  2
Standard
  9
$CMLJUST
 70
     0
  9
$CMLSCALE
 40
1.0
  9
$PROXYGRAPHICS
 70
     1
  9
$MEASUREMENT
 70
     1
  9
$CELWEIGHT
370
    -1
  9
$ENDCAPS
280
     0
  9
$JOINSTYLE
280
     0
  9
$LWDISPLAY
290
     0
  9
$INSUNITS
 70
     4
  9
$HYPERLINKBASE
  1

  9
$STYLESHEET
  1

  9
$XEDIT
290
     1
  9
$CEPSNTYPE
380
     0
  9
$PSTYLEMODE
290
     1
  9
$FINGERPRINTGUID
  2
{21F79FB4-E0A0-4293-A1E2-72CCAF754432}
  9
$VERSIONGUID
  2
{C7446294-3E43-4CE3-AE32-A0476AC02200}
  9
$EXTNAMES
290
     1
  9
$PSVPSCALE
 40
0.0
  9
$OLESTARTUP
290
     0
  0
ENDSEC
  0
SECTION
  2
CLASSES
  0
CLASS
  1
ACDBDICTIONARYWDFLT
  2
AcDbDictionaryWithDefault
  3
ObjectDBX Classes
 90
        0
280
     0
281
     0
  0
CLASS
  1
MATERIAL
  2
AcDbMaterial
  3
ObjectDBX Classes
 90
     1153
280
     0
281
     0
  0
CLASS
  1
VISUALSTYLE
  2
AcDbVisualStyle
  3
ObjectDBX Classes
 90
     4095
280
     0
281
     0
  0
CLASS
  1
SCALE
  2
AcDbScale
  3
ObjectDBX Classes
 90
     1153
280
     0
281
     0
  0
CLASS
  1
TABLESTYLE
  2
AcDbTableStyle
  3
ObjectDBX Classes
 90
     4095
280
     0
281
     0
  0
CLASS
  1
MLEADERSTYLE
  2
AcDbMLeaderStyle
  3
ACDB_MLEADERSTYLE_CLASS
 90
     4095
280
     0
281
     0
  0
CLASS
  1
DICTIONARYVAR
  2
AcDbDictionaryVar
  3
ObjectDBX Classes
 90
        0
280
     0
281
     0
  0
CLASS
  1
EXACXREFPANELOBJECT
  2
ExAcXREFPanelObject
  3
EXAC_ESW
 90
     1025
280
     0
281
     0
  0
CLASS
  1
NPOCOLLECTION
  2
AcDbImpNonPersistentObjectsCollection
  3
ObjectDBX Classes
 90
     1153
280
     0
281
     0
  0
CLASS
  1
ACDBASSOCNETWORK
  2
AcDbAssocNetwork
  3
ObjectDBX Classes
 90
    33793
280
     0
281
     0
  0
CLASS
  1
ACDBASSOC2DCONSTRAINTGROUP
  2
AcDbAssoc2dConstraintGroup
  3
ObjectDBX Classes
 90
    33793
280
     0
281
     0
  0
CLASS
  1
ACDBASSOCGEOMDEPENDENCY
  2
AcDbAssocGeomDependency
  3
ObjectDBX Classes
 90
    33793
280
     0
281
     0
  0
CLASS
  1
CELLSTYLEMAP
  2
AcDbCellStyleMap
  3
ObjectDBX Classes
 90
     1152
280
     0
281
     0
  0
CLASS
  1
ACDBPLACEHOLDER
  2
AcDbPlaceHolder
  3
ObjectDBX Classes
 90
        0
280
     0
281
     0
  0
CLASS
  1
LAYOUT
  2
AcDbLayout
  3
ObjectDBX Classes
 90
        0
280
     0
281
     0
  0
ENDSEC
  0
SECTION
  2
TABLES
  0
TABLE
  2
VPORT
  5
8
330
0
100
AcDbSymbolTable
 70
     1
  0
VPORT
  5
57
330
8
100
AcDbSymbolTableRecord
100
AcDbViewportTableRecord
  2
*Active
 70
     0
 10
0.0
 20
0.0
 11
1.0
 21
1.0
 12
16346.36429697749
 22
5435.836576087055
 13
0.0
 23
0.0
 14
1.0
 24
1.0
 15
0.0
 25
0.0
 16
0.0
 26
0.0
 36
1.0
 17
0.0
 27
0.0
 37
0.0
 40
13167.35212614004
 41
2.430203045685279
 42
50.0
 43
0.0
 44
0.0
 50
0.0
 51
0.0
 71
     0
 72
   100
 73
     1
 74
     1
 75
     0
 76
     0
 77
     0
 78
     0
281
     0
 65
     1
110
0.0
120
0.0
130
0.0
111
1.0
121
0.0
131
0.0
112
0.0
122
1.0
132
0.0
 79
     0
146
0.0
  0
ENDTAB
  0
TABLE
  2
LTYPE
  5
5
330
0
100
AcDbSymbolTable
 70
     1
  0
LTYPE
  5
5B
330
5
100
AcDbSymbolTableRecord
100
AcDbLinetypeTableRecord
  2
ByBlock
 70
     0
  3

 72
    65
 73
     0
 40
0.0
  0
LTYPE
  5
5C
330
5
100
AcDbSymbolTableRecord
100
AcDbLinetypeTableRecord
  2
ByLayer
 70
     0
  3

 72
    65
 73
     0
 40
0.0
  0
LTYPE
  5
5D
330
5
100
AcDbSymbolTableRecord
100
AcDbLinetypeTableRecord
  2
Continuous
 70
     0
  3
Solid line
 72
    65
 73
     0
 40
0.0
  0
ENDTAB
  0
TABLE
  2
LAYER
  5
2
330
0
100
AcDbSymbolTable
 70
     6
  0
LAYER
  5
54
330
2
100
AcDbSymbolTableRecord
100
AcDbLayerTableRecord
  2
0
 70
     0
 62
     7
  6
Continuous
370
    -3
390
F
  0
LAYER
  5
B9
330
2
100
AcDbSymbolTableRecord
100
AcDbLayerTableRecord
  2
Dimension (ISO)
 70
     0
 62
   161
  6
Continuous
370
    18
390
F
  0
LAYER
  5
C4
330
2
100
AcDbSymbolTableRecord
100
AcDbLayerTableRecord
  2
Title (ISO)
 70
     0
 62
     7
  6
Continuous
370
    30
390
F
  0
LAYER
  5
C6
330
2
100
AcDbSymbolTableRecord
100
AcDbLayerTableRecord
  2
Visible (ISO)
 70
     0
 62
     7
  6
Continuous
370
    30
390
F
  0
LAYER
  5
C7
330
2
100
AcDbSymbolTableRecord
100
AcDbLayerTableRecord
  2
Visible Narrow (ISO)
 70
     0
 62
     7
  6
Continuous
370
    15
390
F
  0
LAYER
  5
441
330
2
100
AcDbSymbolTableRecord
100
AcDbLayerTableRecord
  2
Defpoints
 70
     0
 62
     7
  6
Continuous
290
     0
370
    -3
390
F
  0
ENDTAB
  0
TABLE
  2
STYLE
  5
3
330
0
100
AcDbSymbolTable
 70
     3
  0
STYLE
  5
55
330
3
100
AcDbSymbolTableRecord
100
AcDbTextStyleTableRecord
  2
Standard
 70
     0
 40
0.0
 41
1.0
 50
0.0
 71
     0
 42
0.2
  3
tahoma.ttf
  4

1001
ACAD
1000
Tahoma
1071
      256
  0
STYLE
  5
CB
330
3
100
AcDbSymbolTableRecord
100
AcDbTextStyleTableRecord
  2
Label Text (ISO)
 70
     0
 40
0.0
 41
1.0
 50
0.0
 71
     0
 42
0.2
  3
tahoma.ttf
  4

1001
ACAD
1000
Tahoma
1071
      256
  0
STYLE
  5
CC
330
3
100
AcDbSymbolTableRecord
100
AcDbTextStyleTableRecord
  2
Note Text (ISO)
 70
     0
 40
0.0
 41
1.0
 50
0.0
 71
     0
 42
0.2
  3
tahoma.ttf
  4

1001
ACAD
1000
Tahoma
1071
      256
  0
ENDTAB
  0
TABLE
  2
VIEW
  5
6
330
0
100
AcDbSymbolTable
 70
     0
  0
ENDTAB
  0
TABLE
  2
UCS
  5
7
330
0
100
AcDbSymbolTable
 70
     0
  0
ENDTAB
  0
TABLE
  2
APPID
  5
9
330
0
100
AcDbSymbolTable
 70
     5
  0
APPID
  5
56
330
9
100
AcDbSymbolTableRecord
100
AcDbRegAppTableRecord
  2
ACAD
 70
     0
  0
APPID
  5
5E
330
9
100
AcDbSymbolTableRecord
100
AcDbRegAppTableRecord
  2
AcadAnnotative
 70
     0
  0
APPID
  5
27F
330
9
100
AcDbSymbolTableRecord
100
AcDbRegAppTableRecord
  2
AcadAnnoPO
 70
     0
  0
APPID
  5
CF3
330
9
100
AcDbSymbolTableRecord
100
AcDbRegAppTableRecord
  2
ACAD_EXEMPT_FROM_CAD_STANDARDS
 70
     0
  0
APPID
  5
EC2
330
9
100
AcDbSymbolTableRecord
100
AcDbRegAppTableRecord
  2
ACAD_MLEADERVER
 70
     0
  0
ENDTAB
  0
TABLE
  2
DIMSTYLE
  5
A
330
0
100
AcDbSymbolTable
 70
     2
100
AcDbDimStyleTable
 71
     2
340
58
340
D2
  0
DIMSTYLE
105
58
330
A
100
AcDbSymbolTableRecord
100
AcDbDimStyleTableRecord
  2
Standard
 70
     0
340
55
  0
DIMSTYLE
105
D2
102
{ACAD_REACTORS
330
7D5
330
8BA
330
C9B
330
C9C
330
C9D
330
C9E
102
}
330
A
100
AcDbSymbolTableRecord
100
AcDbDimStyleTableRecord
  2
Default (ISO)
 70
     0
 40
50.0
 41
2.5
 42
0.5
 43
5.999999999999999
 44
1.0
 45
0.00000001
 46
10.0
 73
     0
 77
     1
 78
     8
 79
     2
140
3.5
143
0.03937
146
0.7142857313156128
147
0.762
171
     3
172
     1
176
   256
177
   256
178
   256
271
     2
272
     3
274
     3
278
    44
340
CB
371
    -1
372
    -1
  0
ENDTAB
  0
TABLE
  2
BLOCK_RECORD
  5
1
330
0
100
AcDbSymbolTable
 70
     9
  0
BLOCK_RECORD
  5
6C
102
{ACAD_XDICTIONARY
360
CFB
102
}
330
1
100
AcDbSymbolTableRecord
100
AcDbBlockTableRecord
  2
*Model_Space
340
6F
  0
BLOCK_RECORD
  5
68
330
1
100
AcDbSymbolTableRecord
100
AcDbBlockTableRecord
  2
*Paper_Space
340
6B
  0
BLOCK_RECORD
  5
70
330
1
100
AcDbSymbolTableRecord
100
AcDbBlockTableRecord
  2
*Paper_Space0
340
73
  0
BLOCK_RECORD
  5
277
330
1
100
AcDbSymbolTableRecord
100
AcDbBlockTableRecord
  2
Tabelki rysunkowe Rzut
340
0
102
{BLKREFS
331
282
102
}
  0
BLOCK_RECORD
  5
7D6
330
1
100
AcDbSymbolTableRecord
100
AcDbBlockTableRecord
  2
*D2
340
0
  0
BLOCK_RECORD
  5
8BB
330
1
100
AcDbSymbolTableRecord
100
AcDbBlockTableRecord
  2
*D3
340
0
  0
BLOCK_RECORD
  5
C9F
330
1
100
AcDbSymbolTableRecord
100
AcDbBlockTableRecord
  2
*D4
340
0
  0
BLOCK_RECORD
  5
CAB
330
1
100
AcDbSymbolTableRecord
100
AcDbBlockTableRecord
  2
*D5
340
0
  0
BLOCK_RECORD
  5
CB7
330
1
100
AcDbSymbolTableRecord
100
AcDbBlockTableRecord
  2
*D6
340
0
  0
BLOCK_RECORD
  5
CC3
330
1
100
AcDbSymbolTableRecord
100
AcDbBlockTableRecord
  2
*D7
340
0
  0
BLOCK_RECORD
  5
D29
330
1
100
AcDbSymbolTableRecord
100
AcDbBlockTableRecord
  2
88200_Drabinka-pozioma
340
0
310
2800000020000000200000000100080000000000000400000000000000000000000000000000000000000000000080000080000000808000800000008000800080800000C0C0C000C0DCC000F0CAA6000020400000206000002080000020A0000020C0000020E00000400000004020000040400000406000004080000040A0
310
000040C0000040E00000600000006020000060400000606000006080000060A0000060C0000060E00000800000008020000080400000806000008080000080A0000080C0000080E00000A0000000A0200000A0400000A0600000A0800000A0A00000A0C00000A0E00000C0000000C0200000C0400000C0600000C0800000C0
310
A00000C0C00000C0E00000E0000000E0200000E0400000E0600000E0800000E0A00000E0C00000E0E00040000000400020004000400040006000400080004000A0004000C0004000E00040200000402020004020400040206000402080004020A0004020C0004020E000404000004040200040404000404060004040800040
310
40A0004040C0004040E00040600000406020004060400040606000406080004060A0004060C0004060E00040800000408020004080400040806000408080004080A0004080C0004080E00040A0000040A0200040A0400040A0600040A0800040A0A00040A0C00040A0E00040C0000040C0200040C0400040C0600040C08000
310
40C0A00040C0C00040C0E00040E0000040E0200040E0400040E0600040E0800040E0A00040E0C00040E0E00080000000800020008000400080006000800080008000A0008000C0008000E00080200000802020008020400080206000802080008020A0008020C0008020E00080400000804020008040400080406000804080
310
008040A0008040C0008040E00080600000806020008060400080606000806080008060A0008060C0008060E00080800000808020008080400080806000808080008080A0008080C0008080E00080A0000080A0200080A0400080A0600080A0800080A0A00080A0C00080A0E00080C0000080C0200080C0400080C0600080C0
310
800080C0A00080C0C00080C0E00080E0000080E0200080E0400080E0600080E0800080E0A00080E0C00080E0E000C0000000C0002000C0004000C0006000C0008000C000A000C000C000C000E000C0200000C0202000C0204000C0206000C0208000C020A000C020C000C020E000C0400000C0402000C0404000C0406000C0
310
408000C040A000C040C000C040E000C0600000C0602000C0604000C0606000C0608000C060A000C060C000C060E000C0800000C0802000C0804000C0806000C0808000C080A000C080C000C080E000C0A00000C0A02000C0A04000C0A06000C0A08000C0A0A000C0A0C000C0A0E000C0C00000C0C02000C0C04000C0C06000
310
C0C08000C0C0A000F0FBFF00A4A0A000808080000000FF0000FF000000FFFF00FF000000FF00FF00FFFF0000FFFFFF0049494949494949494949494949494949494949494949494949494949494949494949494949494949494949494949494949494949494949494949494949494949494949494949494949494949494949
310
49494949494949494949494949494949494949494949494949494949494949494949494949494949494949494949494949494949494949494949FFFFFFFFFFFFFFFFFFFFFFFFFFFF4949494949494949494949494949FFFFFFFF4949494949494949494949494949FFFFFFFF494949494949494949FF494949494949494949
310
49494949494949494949494949FF49494949494949FF494949494949494949494949494949494949494949494949FF4949494949FF4949494949494949494949494949494949494949494949494949FF49494949FF4949494949494949494949494949494949494949494949494949FF49494949FF49494949494949494949
310
49494949494949494949494949494949FF49494949FF4949494949494949494949494949494949494949494949494949FF494949FF49494949494949FFFFFFFFFFFFFFFFFFFFFFFFFFFF49494949494949FF4949FF49494949494949FFFFFFFFFF49FFFF49FFFFFFFFFF49494949494949FF4949FF49494949494949FFFFFF
310
FFFF49FFFF49FFFFFFFFFF49494949494949FF4949FF49494949494949FFFFFFFFFF49FFFF49FFFFFFFFFF49494949494949FF4949FF49494949494949FFFFFFFFFF49FFFF49FFFFFFFFFF49494949494949FF4949FF49494949494949FFFFFFFFFF49FFFF49FFFFFFFFFF49494949494949FF4949FF49494949494949FFFF
310
FFFFFF49FFFF49FFFFFFFFFF49494949494949FF4949FF49494949494949FFFFFFFFFFFFFFFFFFFFFFFFFFFF49494949494949FF494949FF4949494949494949494949494949494949494949494949494949FF49494949FF4949494949494949494949494949494949494949494949494949FF49494949FF49494949494949
310
49494949494949494949494949494949494949FF49494949FF4949494949494949494949494949494949494949494949494949FF4949494949FF494949494949494949494949494949494949494949494949FF49494949494949FF49494949494949494949494949494949494949494949FF494949494949494949FFFFFFFF
310
4949494949494949494949494949FFFFFFFF4949494949494949494949494949FFFFFFFFFFFFFFFFFFFFFFFFFFFF494949494949494949494949494949494949494949494949494949494949494949494949494949494949494949494949494949494949494949494949494949494949494949494949494949494949494949
310
4949494949494949494949494949494949494949494949494949494949494949494949494949494949494949494949494949494949494949
102
{BLKREFS
331
E74
102
}
1001
ACAD
1000
DesignCenter Data
1002
{
1070
     1
1070
     4
1002
}
  0
ENDTAB
  0
ENDSEC
  0
SECTION
  2
BLOCKS
  0
BLOCK
  5
6D
330
6C
100
AcDbEntity
  8
0
100
AcDbBlockBegin
  2
*Model_Space
 70
     0
 10
0.0
 20
0.0
 30
0.0
  3
*Model_Space
  1

  0
ENDBLK
  5
6E
330
6C
100
AcDbEntity
  8
0
100
AcDbBlockEnd
  0
BLOCK
  5
69
330
68
100
AcDbEntity
 67
     1
  8
0
100
AcDbBlockBegin
  2
*Paper_Space
 70
     0
 10
0.0
 20
0.0
 30
0.0
  3
*Paper_Space
  1

  0
ENDBLK
  5
6A
330
68
100
AcDbEntity
 67
     1
  8
0
100
AcDbBlockEnd
  0
BLOCK
  5
71
330
70
100
AcDbEntity
 67
     1
  8
0
100
AcDbBlockBegin
  2
*Paper_Space0
 70
     0
 10
0.0
 20
0.0
 30
0.0
  3
*Paper_Space0
  1

  0
ENDBLK
  5
72
330
70
100
AcDbEntity
 67
     1
  8
0
100
AcDbBlockEnd
  0
BLOCK
  5
278
330
277
100
AcDbEntity
  8
0
100
AcDbBlockBegin
  2
Tabelki rysunkowe Rzut
 70
     2
 10
0.0
 20
0.0
 30
0.0
  3
Tabelki rysunkowe Rzut
  1

  0
TEXT
  5
27A
330
277
100
AcDbEntity
  8
Title (ISO)
100
AcDbText
 10
166.7768162971836
 20
11.24130542460445
 30
0.0
 40
2.5
  1
Obowiązuje od:
  7
Note Text (ISO)
 11
166.7768162971836
 21
13.74130542460445
 31
0.0
100
AcDbText
 73
     3
  0
TEXT
  5
27C
330
277
100
AcDbEntity
  8
Title (ISO)
100
AcDbText
 10
166.7768162971836
 20
18.24130542460446
 30
0.0
 40
2.5
  1
Nr kat.:
  7
Note Text (ISO)
 11
166.7768162971836
 21
20.74130542460446
 31
0.0
100
AcDbText
 73
     3
  0
TEXT
  5
27D
330
277
100
AcDbEntity
  8
Title (ISO)
100
AcDbText
 10
166.7768162971836
 20
14.74130542460445
 30
0.0
 40
2.5
  1
Nazwa:
  7
Note Text (ISO)
 11
166.7768162971836
 21
17.24130542460445
 31
0.0
100
AcDbText
 73
     3
  0
ATTDEF
  5
27E
102
{ACAD_XDICTIONARY
360
9A2
102
}
330
277
100
AcDbEntity
  8
Title (ISO)
100
AcDbText
 10
178.5283273792489
 20
18.12713485684116
 30
0.0
 40
2.5
  1
88200
  7
Note Text (ISO)
100
AcDbAttributeDefinition
  3
Numer katalogowy
  2
Numer_katalogowy_001
 70
     0
  0
ATTDEF
  5
280
102
{ACAD_XDICTIONARY
360
9A5
102
}
330
277
100
AcDbEntity
  8
Title (ISO)
100
AcDbText
 10
190.4107988369824
 20
11.12713485684115
 30
0.0
 40
2.5
  1
2015-08-07
  7
Note Text (ISO)
100
AcDbAttributeDefinition
  3
DATA UTWORZENIA
  2
DATA_UTWORZENIA_001
 70
     0
  0
ATTDEF
  5
281
102
{ACAD_XDICTIONARY
360
9A8
102
}
330
277
100
AcDbEntity
  8
Title (ISO)
100
AcDbText
 10
178.2697645862628
 20
14.5163222312757
 30
0.0
 40
2.5
  1
Drabinka pozioma
  7
Note Text (ISO)
100
AcDbAttributeDefinition
  3
Nazwa
  2
Nazwa_001
 70
     0
  0
ENDBLK
  5
279
330
277
100
AcDbEntity
  8
0
100
AcDbBlockEnd
  0
BLOCK
  5
7D7
330
7D6
100
AcDbEntity
  8
0
100
AcDbBlockBegin
  2
*D2
 70
     1
 10
0.0
 20
0.0
 30
0.0
  3
*D2
  1

  0
LINE
  5
8B2
330
7D6
100
AcDbEntity
  8
Dimension (ISO)
100
AcDbLine
 10
16303.3163149446
 20
7247.829594977632
 30
0.0
 11
15800.5941655289
 21
7247.829594977632
 31
0.0
  0
LINE
  5
8B3
330
7D6
100
AcDbEntity
  8
Dimension (ISO)
100
AcDbLine
 10
15850.5941655289
 20
7672.829594977632
 30
0.0
 11
15850.5941655289
 21
7372.829594977632
 31
0.0
  0
SOLID
  5
8B4
330
7D6
100
AcDbEntity
  8
Dimension (ISO)
100
AcDbTrace
 10
15829.76083219557
 20
7672.829594977632
 30
0.0
 11
15871.42749886224
 21
7672.829594977632
 31
0.0
 12
15850.5941655289
 22
7797.829594977632
 32
0.0
 13
15850.5941655289
 23
7797.829594977632
 33
0.0
  0
SOLID
  5
8B5
330
7D6
100
AcDbEntity
  8
Dimension (ISO)
100
AcDbTrace
 10
15829.76083219557
 20
7372.829594977632
 30
0.0
 11
15871.42749886224
 21
7372.829594977632
 31
0.0
 12
15850.5941655289
 22
7247.829594977632
 32
0.0
 13
15850.5941655289
 23
7247.829594977632
 33
0.0
  0
MTEXT
  5
8B6
330
7D6
100
AcDbEntity
  8
Dimension (ISO)
100
AcDbMText
 10
15630.32492560449
 20
7522.829594977633
 30
0.0
 40
175.0
 41
0.0
 71
     2
 72
     1
  1
\A1;550
  7
Label Text (ISO)
 11
0.0000000000000001
 21
1.0
 31
0.0
 73
     1
 44
1.0
1001
ACAD
1000
MTEXTBEGIN
1070
    73
1070
     1
1070
    44
1040
1.0
1070
    74
1070
     0
1000
MTEXTEND
  0
POINT
  5
8B7
330
7D6
100
AcDbEntity
  8
Defpoints
 62
     0
100
AcDbPoint
 10
15850.5941655289
 20
7797.829594977632
 30
0.0
  0
POINT
  5
8B8
330
7D6
100
AcDbEntity
  8
Defpoints
 62
     0
100
AcDbPoint
 10
16328.31631494459
 20
7247.829594977632
 30
0.0
  0
POINT
  5
8B9
330
7D6
100
AcDbEntity
  8
Defpoints
 62
     0
100
AcDbPoint
 10
15850.5941655289
 20
7247.829594977632
 30
0.0
  0
ENDBLK
  5
7D8
330
7D6
100
AcDbEntity
  8
0
100
AcDbBlockEnd
  0
BLOCK
  5
8BC
330
8BB
100
AcDbEntity
  8
0
100
AcDbBlockBegin
  2
*D3
 70
     1
 10
0.0
 20
0.0
 30
0.0
  3
*D3
  1

  0
LINE
  5
999
330
8BB
100
AcDbEntity
  8
Dimension (ISO)
100
AcDbLine
 10
16301.31631494459
 20
10097.82959497763
 30
0.0
 11
15800.5941655289
 21
10097.82959497763
 31
0.0
  0
LINE
  5
99A
330
8BB
100
AcDbEntity
  8
Dimension (ISO)
100
AcDbLine
 10
16298.31631494459
 20
7797.829594977632
 30
0.0
 11
15800.5941655289
 21
7797.829594977632
 31
0.0
  0
LINE
  5
99B
330
8BB
100
AcDbEntity
  8
Dimension (ISO)
100
AcDbLine
 10
15850.5941655289
 20
9972.829594977635
 30
0.0
 11
15850.5941655289
 21
7922.829594977632
 31
0.0
  0
SOLID
  5
99C
330
8BB
100
AcDbEntity
  8
Dimension (ISO)
100
AcDbTrace
 10
15829.76083219556
 20
9972.829594977635
 30
0.0
 11
15871.42749886223
 21
9972.829594977635
 31
0.0
 12
15850.5941655289
 22
10097.82959497763
 32
0.0
 13
15850.5941655289
 23
10097.82959497763
 33
0.0
  0
SOLID
  5
99D
330
8BB
100
AcDbEntity
  8
Dimension (ISO)
100
AcDbTrace
 10
15829.76083219556
 20
7922.829594977632
 30
0.0
 11
15871.42749886223
 21
7922.829594977632
 31
0.0
 12
15850.5941655289
 22
7797.829594977632
 32
0.0
 13
15850.5941655289
 23
7797.829594977632
 33
0.0
  0
MTEXT
  5
99E
330
8BB
100
AcDbEntity
  8
Dimension (ISO)
100
AcDbMText
 10
15630.2073970626
 20
8947.829594977632
 30
0.0
 40
175.0
 41
0.0
 71
     2
 72
     1
  1
\A1;2300
  7
Label Text (ISO)
 11
0.0000000000000001
 21
1.0
 31
0.0
 73
     1
 44
1.0
1001
ACAD
1000
MTEXTBEGIN
1070
    73
1070
     1
1070
    44
1040
1.0
1070
    74
1070
     0
1000
MTEXTEND
  0
POINT
  5
99F
330
8BB
100
AcDbEntity
  8
Defpoints
 62
     0
100
AcDbPoint
 10
16326.31631494459
 20
10097.82959497763
 30
0.0
  0
POINT
  5
9A0
330
8BB
100
AcDbEntity
  8
Defpoints
 62
     0
100
AcDbPoint
 10
16323.31631494459
 20
7797.829594977632
 30
0.0
  0
POINT
  5
9A1
330
8BB
100
AcDbEntity
  8
Defpoints
 62
     0
100
AcDbPoint
 10
15850.5941655289
 20
7797.829594977632
 30
0.0
  0
ENDBLK
  5
8BD
330
8BB
100
AcDbEntity
  8
0
100
AcDbBlockEnd
  0
BLOCK
  5
CA0
330
C9F
100
AcDbEntity
  8
0
100
AcDbBlockBegin
  2
*D4
 70
     1
 10
0.0
 20
0.0
 30
0.0
  3
*D4
  1

  0
LINE
  5
D04
330
C9F
100
AcDbEntity
  8
Dimension (ISO)
100
AcDbLine
 10
14823.3163149446
 20
3613.594724157461
 30
0.0
 11
14823.3163149446
 21
1588.594724157459
 31
0.0
  0
LINE
  5
D05
330
C9F
100
AcDbEntity
  8
Dimension (ISO)
100
AcDbLine
 10
20523.31631494462
 20
3613.594724157461
 30
0.0
 11
20523.31631494462
 21
1588.594724157459
 31
0.0
  0
LINE
  5
D06
330
C9F
100
AcDbEntity
  8
Dimension (ISO)
100
AcDbLine
 10
14948.3163149446
 20
1638.594724157459
 30
0.0
 11
20398.31631494462
 21
1638.594724157459
 31
0.0
  0
SOLID
  5
D07
330
C9F
100
AcDbEntity
  8
Dimension (ISO)
100
AcDbTrace
 10
14948.3163149446
 20
1659.428057490792
 30
0.0
 11
14948.3163149446
 21
1617.761390824126
 31
0.0
 12
14823.3163149446
 22
1638.594724157459
 32
0.0
 13
14823.3163149446
 23
1638.594724157459
 33
0.0
  0
SOLID
  5
D08
330
C9F
100
AcDbEntity
  8
Dimension (ISO)
100
AcDbTrace
 10
20398.31631494462
 20
1659.428057490792
 30
0.0
 11
20398.31631494462
 21
1617.761390824126
 31
0.0
 12
20523.31631494462
 22
1638.594724157459
 32
0.0
 13
20523.31631494462
 23
1638.594724157459
 33
0.0
  0
MTEXT
  5
D09
330
C9F
100
AcDbEntity
  8
Dimension (ISO)
100
AcDbMText
 10
17673.31631494461
 20
1858.86396525887
 30
0.0
 40
175.0
 41
0.0
 71
     2
 72
     1
  1
\A1;5700
  7
Label Text (ISO)
 73
     1
 44
1.0
1001
ACAD
1000
MTEXTBEGIN
1070
    73
1070
     1
1070
    44
1040
1.0
1070
    74
1070
     0
1000
MTEXTEND
  0
POINT
  5
D0A
330
C9F
100
AcDbEntity
  8
Defpoints
 62
     0
100
AcDbPoint
 10
14823.3163149446
 20
3638.594724157461
 30
0.0
  0
POINT
  5
D0B
330
C9F
100
AcDbEntity
  8
Defpoints
 62
     0
100
AcDbPoint
 10
20523.31631494462
 20
3638.59472415746
 30
0.0
  0
POINT
  5
D0C
330
C9F
100
AcDbEntity
  8
Defpoints
 62
     0
100
AcDbPoint
 10
20523.31631494462
 20
1638.594724157459
 30
0.0
  0
ENDBLK
  5
CA1
330
C9F
100
AcDbEntity
  8
0
100
AcDbBlockEnd
  0
BLOCK
  5
CAC
330
CAB
100
AcDbEntity
  8
0
100
AcDbBlockBegin
  2
*D5
 70
     1
 10
0.0
 20
0.0
 30
0.0
  3
*D5
  1

  0
LINE
  5
D0D
330
CAB
100
AcDbEntity
  8
Dimension (ISO)
100
AcDbLine
 10
19048.31631494462
 20
6588.594724157454
 30
0.0
 11
21157.30242838193
 21
6588.594724157454
 31
0.0
  0
LINE
  5
D0E
330
CAB
100
AcDbEntity
  8
Dimension (ISO)
100
AcDbLine
 10
19048.31631494462
 20
2138.59472415746
 30
0.0
 11
21157.30242838193
 21
2138.59472415746
 31
0.0
  0
LINE
  5
D0F
330
CAB
100
AcDbEntity
  8
Dimension (ISO)
100
AcDbLine
 10
21107.30242838192
 20
6463.594724157454
 30
0.0
 11
21107.30242838192
 21
2263.59472415746
 31
0.0
  0
SOLID
  5
D10
330
CAB
100
AcDbEntity
  8
Dimension (ISO)
100
AcDbTrace
 10
21086.46909504859
 20
6463.594724157454
 30
0.0
 11
21128.13576171526
 21
6463.594724157454
 31
0.0
 12
21107.30242838192
 22
6588.594724157454
 32
0.0
 13
21107.30242838192
 23
6588.594724157454
 33
0.0
  0
SOLID
  5
D11
330
CAB
100
AcDbEntity
  8
Dimension (ISO)
100
AcDbTrace
 10
21086.46909504859
 20
2263.59472415746
 30
0.0
 11
21128.13576171526
 21
2263.59472415746
 31
0.0
 12
21107.30242838192
 22
2138.59472415746
 32
0.0
 13
21107.30242838192
 23
2138.59472415746
 33
0.0
  0
MTEXT
  5
D12
330
CAB
100
AcDbEntity
  8
Dimension (ISO)
100
AcDbMText
 10
20887.03318728052
 20
4363.594724157457
 30
0.0
 40
175.0
 41
0.0
 71
     2
 72
     1
  1
\A1;4450
  7
Label Text (ISO)
 11
0.0000000000000001
 21
1.0
 31
0.0
 73
     1
 44
1.0
1001
ACAD
1000
MTEXTBEGIN
1070
    73
1070
     1
1070
    44
1040
1.0
1070
    74
1070
     0
1000
MTEXTEND
  0
POINT
  5
D13
330
CAB
100
AcDbEntity
  8
Defpoints
 62
     0
100
AcDbPoint
 10
19023.31631494462
 20
6588.594724157454
 30
0.0
  0
POINT
  5
D14
330
CAB
100
AcDbEntity
  8
Defpoints
 62
     0
100
AcDbPoint
 10
19023.31631494462
 20
2138.59472415746
 30
0.0
  0
POINT
  5
D15
330
CAB
100
AcDbEntity
  8
Defpoints
 62
     0
100
AcDbPoint
 10
21107.30242838192
 20
2138.59472415746
 30
0.0
  0
ENDBLK
  5
CAD
330
CAB
100
AcDbEntity
  8
0
100
AcDbBlockEnd
  0
BLOCK
  5
CB8
330
CB7
100
AcDbEntity
  8
0
100
AcDbBlockBegin
  2
*D6
 70
     1
 10
0.0
 20
0.0
 30
0.0
  3
*D6
  1

  0
LINE
  5
D16
330
CB7
100
AcDbEntity
  8
Dimension (ISO)
100
AcDbLine
 10
16323.3163149446
 20
3616.594724157478
 30
0.0
 11
16323.3163149446
 21
3091.594724157455
 31
0.0
  0
LINE
  5
D17
330
CB7
100
AcDbEntity
  8
Dimension (ISO)
100
AcDbLine
 10
19023.31631494462
 20
3616.594724157455
 30
0.0
 11
19023.31631494462
 21
3091.594724157455
 31
0.0
  0
LINE
  5
D18
330
CB7
100
AcDbEntity
  8
Dimension (ISO)
100
AcDbLine
 10
16448.3163149446
 20
3141.594724157455
 30
0.0
 11
18898.31631494462
 21
3141.594724157455
 31
0.0
  0
SOLID
  5
D19
330
CB7
100
AcDbEntity
  8
Dimension (ISO)
100
AcDbTrace
 10
16448.3163149446
 20
3162.428057490789
 30
0.0
 11
16448.3163149446
 21
3120.761390824121
 31
0.0
 12
16323.3163149446
 22
3141.594724157455
 32
0.0
 13
16323.3163149446
 23
3141.594724157455
 33
0.0
  0
SOLID
  5
D1A
330
CB7
100
AcDbEntity
  8
Dimension (ISO)
100
AcDbTrace
 10
18898.31631494462
 20
3162.428057490789
 30
0.0
 11
18898.31631494462
 21
3120.761390824121
 31
0.0
 12
19023.31631494462
 22
3141.594724157455
 32
0.0
 13
19023.31631494462
 23
3141.594724157455
 33
0.0
  0
MTEXT
  5
D1B
330
CB7
100
AcDbEntity
  8
Dimension (ISO)
100
AcDbMText
 10
17673.31631494461
 20
3361.981493801511
 30
0.0
 40
175.0
 41
0.0
 71
     2
 72
     1
  1
\A1;2700
  7
Label Text (ISO)
 73
     1
 44
1.0
1001
ACAD
1000
MTEXTBEGIN
1070
    73
1070
     1
1070
    44
1040
1.0
1070
    74
1070
     0
1000
MTEXTEND
  0
POINT
  5
D1C
330
CB7
100
AcDbEntity
  8
Defpoints
 62
     0
100
AcDbPoint
 10
16323.3163149446
 20
3641.594724157478
 30
0.0
  0
POINT
  5
D1D
330
CB7
100
AcDbEntity
  8
Defpoints
 62
     0
100
AcDbPoint
 10
19023.31631494462
 20
3641.594724157455
 30
0.0
  0
POINT
  5
D1E
330
CB7
100
AcDbEntity
  8
Defpoints
 62
     0
100
AcDbPoint
 10
19023.31631494462
 20
3141.594724157455
 30
0.0
  0
ENDBLK
  5
CB9
330
CB7
100
AcDbEntity
  8
0
100
AcDbBlockEnd
  0
BLOCK
  5
CC4
330
CC3
100
AcDbEntity
  8
0
100
AcDbBlockBegin
  2
*D7
 70
     1
 10
0.0
 20
0.0
 30
0.0
  3
*D7
  1

  0
LINE
  5
D1F
330
CC3
100
AcDbEntity
  8
Dimension (ISO)
100
AcDbLine
 10
19045.31631494462
 20
3638.594724157455
 30
0.0
 11
19570.31631494462
 21
3638.594724157455
 31
0.0
  0
LINE
  5
D20
330
CC3
100
AcDbEntity
  8
Dimension (ISO)
100
AcDbLine
 10
19045.31631494462
 20
5088.594724157454
 30
0.0
 11
19570.31631494462
 21
5088.594724157454
 31
0.0
  0
LINE
  5
D21
330
CC3
100
AcDbEntity
  8
Dimension (ISO)
100
AcDbLine
 10
19520.31631494462
 20
3763.594724157455
 30
0.0
 11
19520.31631494462
 21
4963.594724157454
 31
0.0
  0
SOLID
  5
D22
330
CC3
100
AcDbEntity
  8
Dimension (ISO)
100
AcDbTrace
 10
19499.48298161129
 20
3763.594724157455
 30
0.0
 11
19541.14964827796
 21
3763.594724157455
 31
0.0
 12
19520.31631494462
 22
3638.594724157455
 32
0.0
 13
19520.31631494462
 23
3638.594724157455
 33
0.0
  0
SOLID
  5
D23
330
CC3
100
AcDbEntity
  8
Dimension (ISO)
100
AcDbTrace
 10
19499.48298161129
 20
4963.594724157454
 30
0.0
 11
19541.14964827796
 21
4963.594724157454
 31
0.0
 12
19520.31631494462
 22
5088.594724157454
 32
0.0
 13
19520.31631494462
 23
5088.594724157454
 33
0.0
  0
MTEXT
  5
D24
330
CC3
100
AcDbEntity
  8
Dimension (ISO)
100
AcDbMText
 10
19300.04707384321
 20
4363.594724157453
 30
0.0
 40
175.0
 41
0.0
 71
     2
 72
     1
  1
\A1;1450
  7
Label Text (ISO)
 11
0.0000000000000001
 21
1.0
 31
0.0
 73
     1
 44
1.0
1001
ACAD
1000
MTEXTBEGIN
1070
    73
1070
     1
1070
    44
1040
1.0
1070
    74
1070
     0
1000
MTEXTEND
  0
POINT
  5
D25
330
CC3
100
AcDbEntity
  8
Defpoints
 62
     0
100
AcDbPoint
 10
19020.31631494462
 20
3638.594724157455
 30
0.0
  0
POINT
  5
D26
330
CC3
100
AcDbEntity
  8
Defpoints
 62
     0
100
AcDbPoint
 10
19020.31631494462
 20
5088.594724157454
 30
0.0
  0
POINT
  5
D27
330
CC3
100
AcDbEntity
  8
Defpoints
 62
     0
100
AcDbPoint
 10
19520.31631494462
 20
5088.594724157454
 30
0.0
  0
ENDBLK
  5
CC5
330
CC3
100
AcDbEntity
  8
0
100
AcDbBlockEnd
  0
BLOCK
  5
D2A
330
D29
100
AcDbEntity
  8
0
100
AcDbBlockBegin
  2
88200_Drabinka-pozioma
 70
     0
 10
0.0
 20
0.0
 30
0.0
  3
88200_Drabinka-pozioma
  1

  0
LINE
  5
D2C
330
D29
100
AcDbEntity
  8
Visible (ISO)
100
AcDbLine
 10
1078.164312317211
 20
-694.0000000000098
 30
0.0
 11
-1396.864312317233
 21
-694.0000000000098
 31
0.0
  0
LINE
  5
D2D
330
D29
100
AcDbEntity
  8
Visible (ISO)
100
AcDbLine
 10
1078.164312317211
 20
-656.0000000000099
 30
0.0
 11
855.0000000000109
 21
-656.0000000000099
 31
0.0
  0
LINE
  5
D2E
330
D29
100
AcDbEntity
  8
Visible (ISO)
100
AcDbLine
 10
821.3000000000102
 20
-656.0000000000099
 30
0.0
 11
570.0000000000073
 21
-656.0000000000099
 31
0.0
  0
LINE
  5
D2F
330
D29
100
AcDbEntity
  8
Visible (ISO)
100
AcDbLine
 10
536.3000000000064
 20
-656.0000000000099
 30
0.0
 11
285.0000000000036
 21
-656.0000000000099
 31
0.0
  0
LINE
  5
D30
330
D29
100
AcDbEntity
  8
Visible (ISO)
100
AcDbLine
 10
251.3000000000029
 20
-656.0000000000099
 30
0.0
 11
0.0
 21
-656.0000000000099
 31
0.0
  0
LINE
  5
D31
330
D29
100
AcDbEntity
  8
Visible (ISO)
100
AcDbLine
 10
-33.69999999999709
 20
-656.0000000000099
 30
0.0
 11
-285.0
 21
-656.0000000000099
 31
0.0
  0
LINE
  5
D32
330
D29
100
AcDbEntity
  8
Visible (ISO)
100
AcDbLine
 10
-318.7000000000007
 20
-656.0000000000099
 30
0.0
 11
-570.0000000000036
 21
-656.0000000000099
 31
0.0
  0
LINE
  5
D33
330
D29
100
AcDbEntity
  8
Visible (ISO)
100
AcDbLine
 10
-603.7000000000042
 20
-656.0000000000099
 30
0.0
 11
-855.0000000000073
 21
-656.0000000000099
 31
0.0
  0
LINE
  5
D34
330
D29
100
AcDbEntity
  8
Visible (ISO)
100
AcDbLine
 10
-888.7000000000078
 20
-656.0000000000099
 30
0.0
 11
-1140.000000000011
 21
-656.0000000000099
 31
0.0
  0
LINE
  5
D35
330
D29
100
AcDbEntity
  8
Visible (ISO)
100
AcDbLine
 10
-1173.700000000011
 20
-656.0000000000099
 30
0.0
 11
-1396.864312317237
 21
-656.0000000000099
 31
0.0
  0
LINE
  5
D36
330
D29
100
AcDbEntity
  8
Visible (ISO)
100
AcDbLine
 10
-1409.350000000024
 20
-712.5000000000108
 30
0.0
 11
-1404.350000000024
 21
-712.5000000000108
 31
0.0
  0
LINE
  5
D37
330
D29
100
AcDbEntity
  8
Visible (ISO)
100
AcDbLine
 10
-1404.350000000024
 20
-702.5000000000098
 30
0.0
 11
-1404.350000000024
 21
-712.5000000000099
 31
0.0
  0
LINE
  5
D38
330
D29
100
AcDbEntity
  8
Visible (ISO)
100
AcDbLine
 10
-1404.350000000024
 20
-637.50000000001
 30
0.0
 11
-1404.350000000024
 21
-647.50000000001
 31
0.0
  0
LINE
  5
D39
330
D29
100
AcDbEntity
  8
Visible (ISO)
100
AcDbLine
 10
-1404.350000000024
 20
-637.50000000001
 30
0.0
 11
-1409.350000000024
 21
-637.50000000001
 31
0.0
  0
LINE
  5
D3A
330
D29
100
AcDbEntity
  8
Visible (ISO)
100
AcDbLine
 10
-1404.350000000024
 20
-702.5000000000098
 30
0.0
 11
-1404.350000000024
 21
-647.50000000001
 31
0.0
  0
LINE
  5
D3B
330
D29
100
AcDbEntity
  8
Visible (ISO)
100
AcDbLine
 10
1085.650000000001
 20
-647.50000000001
 30
0.0
 11
1085.650000000001
 21
-637.50000000001
 31
0.0
  0
LINE
  5
D3C
330
D29
100
AcDbEntity
  8
Visible (ISO)
100
AcDbLine
 10
1090.650000000001
 20
-637.50000000001
 30
0.0
 11
1085.650000000001
 21
-637.50000000001
 31
0.0
  0
LINE
  5
D3D
330
D29
100
AcDbEntity
  8
Visible (ISO)
100
AcDbLine
 10
1085.650000000001
 20
-712.5000000000099
 30
0.0
 11
1085.650000000001
 21
-702.5000000000098
 31
0.0
  0
LINE
  5
D3E
330
D29
100
AcDbEntity
  8
Visible (ISO)
100
AcDbLine
 10
1085.650000000001
 20
-712.5000000000108
 30
0.0
 11
1090.650000000001
 21
-712.5000000000108
 31
0.0
  0
LINE
  5
D3F
330
D29
100
AcDbEntity
  8
Visible (ISO)
100
AcDbLine
 10
1085.650000000001
 20
-647.50000000001
 30
0.0
 11
1085.650000000001
 21
-702.5000000000098
 31
0.0
  0
LINE
  5
D40
330
D29
100
AcDbEntity
  8
Visible (ISO)
100
AcDbLine
 10
-1404.349999999998
 20
647.499999999988
 30
0.0
 11
-1404.349999999998
 21
637.499999999988
 31
0.0
  0
LINE
  5
D41
330
D29
100
AcDbEntity
  8
Visible (ISO)
100
AcDbLine
 10
-1409.349999999998
 20
637.499999999988
 30
0.0
 11
-1404.349999999998
 21
637.499999999988
 31
0.0
  0
LINE
  5
D42
330
D29
100
AcDbEntity
  8
Visible (ISO)
100
AcDbLine
 10
-1404.349999999998
 20
712.499999999988
 30
0.0
 11
-1404.349999999998
 21
702.4999999999883
 31
0.0
  0
LINE
  5
D43
330
D29
100
AcDbEntity
  8
Visible (ISO)
100
AcDbLine
 10
-1404.349999999998
 20
712.499999999988
 30
0.0
 11
-1409.349999999998
 21
712.499999999988
 31
0.0
  0
LINE
  5
D44
330
D29
100
AcDbEntity
  8
Visible (ISO)
100
AcDbLine
 10
-1404.349999999998
 20
647.499999999988
 30
0.0
 11
-1404.349999999998
 21
702.4999999999883
 31
0.0
  0
LINE
  5
D45
330
D29
100
AcDbEntity
  8
Visible (ISO)
100
AcDbLine
 10
1085.650000000001
 20
702.4999999999883
 30
0.0
 11
1085.650000000001
 21
712.499999999988
 31
0.0
  0
LINE
  5
D46
330
D29
100
AcDbEntity
  8
Visible (ISO)
100
AcDbLine
 10
1090.650000000001
 20
712.499999999988
 30
0.0
 11
1085.650000000001
 21
712.499999999988
 31
0.0
  0
LINE
  5
D47
330
D29
100
AcDbEntity
  8
Visible (ISO)
100
AcDbLine
 10
1085.650000000001
 20
637.499999999988
 30
0.0
 11
1085.650000000001
 21
647.499999999988
 31
0.0
  0
LINE
  5
D48
330
D29
100
AcDbEntity
  8
Visible (ISO)
100
AcDbLine
 10
1085.650000000001
 20
637.499999999988
 30
0.0
 11
1090.650000000001
 21
637.499999999988
 31
0.0
  0
LINE
  5
D49
330
D29
100
AcDbEntity
  8
Visible (ISO)
100
AcDbLine
 10
1085.650000000001
 20
702.4999999999883
 30
0.0
 11
1085.650000000001
 21
647.499999999988
 31
0.0
  0
LINE
  5
D4A
330
D29
100
AcDbEntity
  8
Visible (ISO)
100
AcDbLine
 10
855.0
 20
-656.0000000000099
 30
0.0
 11
821.2999999999992
 21
-656.0000000000099
 31
0.0
  0
LINE
  5
D4B
330
D29
100
AcDbEntity
  8
Visible (ISO)
100
AcDbLine
 10
821.2999999999992
 20
656.0000000000099
 30
0.0
 11
855.0
 21
656.0000000000099
 31
0.0
  0
LINE
  5
D4C
330
D29
100
AcDbEntity
  8
Visible (ISO)
100
AcDbLine
 10
821.2999999999992
 20
-656.0000000000099
 30
0.0
 11
821.2999999999992
 21
656.0000000000099
 31
0.0
  0
LINE
  5
D4D
330
D29
100
AcDbEntity
  8
Visible (ISO)
100
AcDbLine
 10
855.0
 20
-656.0000000000099
 30
0.0
 11
855.0
 21
656.0000000000099
 31
0.0
  0
LINE
  5
D4E
330
D29
100
AcDbEntity
  8
Visible (ISO)
100
AcDbLine
 10
570.0
 20
-656.0000000000099
 30
0.0
 11
536.2999999999991
 21
-656.0000000000099
 31
0.0
  0
LINE
  5
D4F
330
D29
100
AcDbEntity
  8
Visible (ISO)
100
AcDbLine
 10
536.2999999999991
 20
656.0000000000099
 30
0.0
 11
570.0
 21
656.0000000000099
 31
0.0
  0
LINE
  5
D50
330
D29
100
AcDbEntity
  8
Visible (ISO)
100
AcDbLine
 10
536.2999999999991
 20
-656.0000000000099
 30
0.0
 11
536.2999999999991
 21
656.0000000000099
 31
0.0
  0
LINE
  5
D51
330
D29
100
AcDbEntity
  8
Visible (ISO)
100
AcDbLine
 10
570.0
 20
-656.0000000000099
 30
0.0
 11
570.0
 21
656.0000000000099
 31
0.0
  0
LINE
  5
D52
330
D29
100
AcDbEntity
  8
Visible (ISO)
100
AcDbLine
 10
285.0
 20
-656.0000000000099
 30
0.0
 11
251.2999999999993
 21
-656.0000000000099
 31
0.0
  0
LINE
  5
D53
330
D29
100
AcDbEntity
  8
Visible (ISO)
100
AcDbLine
 10
251.2999999999993
 20
656.0000000000099
 30
0.0
 11
285.0
 21
656.0000000000099
 31
0.0
  0
LINE
  5
D54
330
D29
100
AcDbEntity
  8
Visible (ISO)
100
AcDbLine
 10
251.2999999999993
 20
-656.0000000000099
 30
0.0
 11
251.2999999999993
 21
656.0000000000099
 31
0.0
  0
LINE
  5
D55
330
D29
100
AcDbEntity
  8
Visible (ISO)
100
AcDbLine
 10
285.0
 20
-656.0000000000099
 30
0.0
 11
285.0
 21
656.0000000000099
 31
0.0
  0
LINE
  5
D56
330
D29
100
AcDbEntity
  8
Visible (ISO)
100
AcDbLine
 10
0.0
 20
-656.0000000000099
 30
0.0
 11
-33.70000000000073
 21
-656.0000000000099
 31
0.0
  0
LINE
  5
D57
330
D29
100
AcDbEntity
  8
Visible (ISO)
100
AcDbLine
 10
-33.70000000000073
 20
656.0000000000099
 30
0.0
 11
0.0
 21
656.0000000000099
 31
0.0
  0
LINE
  5
D58
330
D29
100
AcDbEntity
  8
Visible (ISO)
100
AcDbLine
 10
-33.70000000000073
 20
-656.0000000000099
 30
0.0
 11
-33.70000000000073
 21
656.0000000000099
 31
0.0
  0
LINE
  5
D59
330
D29
100
AcDbEntity
  8
Visible (ISO)
100
AcDbLine
 10
0.0
 20
-656.0000000000099
 30
0.0
 11
0.0
 21
656.0000000000099
 31
0.0
  0
LINE
  5
D5A
330
D29
100
AcDbEntity
  8
Visible (ISO)
100
AcDbLine
 10
-285.0
 20
-656.0000000000099
 30
0.0
 11
-318.7000000000007
 21
-656.0000000000099
 31
0.0
  0
LINE
  5
D5B
330
D29
100
AcDbEntity
  8
Visible (ISO)
100
AcDbLine
 10
-318.7000000000007
 20
656.0000000000099
 30
0.0
 11
-285.0
 21
656.0000000000099
 31
0.0
  0
LINE
  5
D5C
330
D29
100
AcDbEntity
  8
Visible (ISO)
100
AcDbLine
 10
-318.7000000000007
 20
-656.0000000000099
 30
0.0
 11
-318.7000000000007
 21
656.0000000000099
 31
0.0
  0
LINE
  5
D5D
330
D29
100
AcDbEntity
  8
Visible (ISO)
100
AcDbLine
 10
-285.0
 20
-656.0000000000099
 30
0.0
 11
-285.0
 21
656.0000000000099
 31
0.0
  0
LINE
  5
D5E
330
D29
100
AcDbEntity
  8
Visible (ISO)
100
AcDbLine
 10
-570.0
 20
-656.0000000000099
 30
0.0
 11
-603.7000000000007
 21
-656.0000000000099
 31
0.0
  0
LINE
  5
D5F
330
D29
100
AcDbEntity
  8
Visible (ISO)
100
AcDbLine
 10
-603.7000000000007
 20
656.0000000000099
 30
0.0
 11
-570.0
 21
656.0000000000099
 31
0.0
  0
LINE
  5
D60
330
D29
100
AcDbEntity
  8
Visible (ISO)
100
AcDbLine
 10
-603.7000000000007
 20
-656.0000000000099
 30
0.0
 11
-603.7000000000007
 21
656.0000000000099
 31
0.0
  0
LINE
  5
D61
330
D29
100
AcDbEntity
  8
Visible (ISO)
100
AcDbLine
 10
-570.0
 20
-656.0000000000099
 30
0.0
 11
-570.0
 21
656.0000000000099
 31
0.0
  0
LINE
  5
D62
330
D29
100
AcDbEntity
  8
Visible (ISO)
100
AcDbLine
 10
-855.0
 20
-656.0000000000099
 30
0.0
 11
-888.7000000000007
 21
-656.0000000000099
 31
0.0
  0
LINE
  5
D63
330
D29
100
AcDbEntity
  8
Visible (ISO)
100
AcDbLine
 10
-888.7000000000007
 20
656.0000000000099
 30
0.0
 11
-855.0
 21
656.0000000000099
 31
0.0
  0
LINE
  5
D64
330
D29
100
AcDbEntity
  8
Visible (ISO)
100
AcDbLine
 10
-888.7000000000007
 20
-656.0000000000099
 30
0.0
 11
-888.7000000000007
 21
656.0000000000099
 31
0.0
  0
LINE
  5
D65
330
D29
100
AcDbEntity
  8
Visible (ISO)
100
AcDbLine
 10
-855.0
 20
-656.0000000000099
 30
0.0
 11
-855.0
 21
656.0000000000099
 31
0.0
  0
LINE
  5
D66
330
D29
100
AcDbEntity
  8
Visible (ISO)
100
AcDbLine
 10
-1140.0
 20
-656.0000000000099
 30
0.0
 11
-1173.700000000001
 21
-656.0000000000099
 31
0.0
  0
LINE
  5
D67
330
D29
100
AcDbEntity
  8
Visible (ISO)
100
AcDbLine
 10
-1173.700000000001
 20
656.0000000000099
 30
0.0
 11
-1140.0
 21
656.0000000000099
 31
0.0
  0
LINE
  5
D68
330
D29
100
AcDbEntity
  8
Visible (ISO)
100
AcDbLine
 10
-1173.700000000001
 20
-656.0000000000099
 30
0.0
 11
-1173.700000000001
 21
656.0000000000099
 31
0.0
  0
LINE
  5
D69
330
D29
100
AcDbEntity
  8
Visible (ISO)
100
AcDbLine
 10
-1140.0
 20
-656.0000000000099
 30
0.0
 11
-1140.0
 21
656.0000000000099
 31
0.0
  0
LINE
  5
D6A
330
D29
100
AcDbEntity
  8
Visible (ISO)
100
AcDbLine
 10
1078.164312317196
 20
655.999999999988
 30
0.0
 11
855.0
 21
655.999999999988
 31
0.0
  0
LINE
  5
D6B
330
D29
100
AcDbEntity
  8
Visible (ISO)
100
AcDbLine
 10
821.2999999999992
 20
655.999999999988
 30
0.0
 11
570.0
 21
655.999999999988
 31
0.0
  0
LINE
  5
D6C
330
D29
100
AcDbEntity
  8
Visible (ISO)
100
AcDbLine
 10
536.2999999999991
 20
655.999999999988
 30
0.0
 11
285.0
 21
655.999999999988
 31
0.0
  0
LINE
  5
D6D
330
D29
100
AcDbEntity
  8
Visible (ISO)
100
AcDbLine
 10
251.2999999999993
 20
655.999999999988
 30
0.0
 11
0.0
 21
655.999999999988
 31
0.0
  0
LINE
  5
D6E
330
D29
100
AcDbEntity
  8
Visible (ISO)
100
AcDbLine
 10
-33.70000000000073
 20
655.999999999988
 30
0.0
 11
-285.0
 21
655.999999999988
 31
0.0
  0
LINE
  5
D6F
330
D29
100
AcDbEntity
  8
Visible (ISO)
100
AcDbLine
 10
-318.7000000000007
 20
655.999999999988
 30
0.0
 11
-570.0
 21
655.999999999988
 31
0.0
  0
LINE
  5
D70
330
D29
100
AcDbEntity
  8
Visible (ISO)
100
AcDbLine
 10
-603.7000000000007
 20
655.999999999988
 30
0.0
 11
-855.0
 21
655.999999999988
 31
0.0
  0
LINE
  5
D71
330
D29
100
AcDbEntity
  8
Visible (ISO)
100
AcDbLine
 10
-888.7000000000007
 20
655.999999999988
 30
0.0
 11
-1140.0
 21
655.999999999988
 31
0.0
  0
LINE
  5
D72
330
D29
100
AcDbEntity
  8
Visible (ISO)
100
AcDbLine
 10
-1173.700000000001
 20
655.999999999988
 30
0.0
 11
-1396.864312317197
 21
655.999999999988
 31
0.0
  0
LINE
  5
D73
330
D29
100
AcDbEntity
  8
Visible (ISO)
100
AcDbLine
 10
1078.164312317196
 20
693.9999999999892
 30
0.0
 11
-1396.864312317197
 21
693.9999999999892
 31
0.0
  0
ARC
  5
D74
330
D29
100
AcDbEntity
  8
Visible (ISO)
100
AcDbCircle
 10
1093.650000000001
 20
721.999999999988
 30
0.0
 40
3.000000000000006
100
AcDbArc
 50
90.0
 51
180.0
  0
ARC
  5
D75
330
D29
100
AcDbEntity
  8
Visible (ISO)
100
AcDbCircle
 10
1187.650000000001
 20
721.999999999988
 30
0.0
 40
3.000000000000006
100
AcDbArc
 50
0.0
 51
90.0
  0
LINE
  5
D76
330
D29
100
AcDbEntity
  8
Visible (ISO)
100
AcDbLine
 10
1187.650000000001
 20
724.999999999988
 30
0.0
 11
1093.650000000001
 21
724.999999999988
 31
0.0
  0
ARC
  5
D77
330
D29
100
AcDbEntity
  8
Visible (ISO)
100
AcDbCircle
 10
1093.650000000001
 20
627.9999999999883
 30
0.0
 40
2.999999999999988
100
AcDbArc
 50
180.0
 51
270.0
  0
ARC
  5
D78
330
D29
100
AcDbEntity
  8
Visible (ISO)
100
AcDbCircle
 10
1187.650000000001
 20
627.9999999999883
 30
0.0
 40
3.000000000000006
100
AcDbArc
 50
270.0
 51
0.0
  0
LINE
  5
D79
330
D29
100
AcDbEntity
  8
Visible (ISO)
100
AcDbLine
 10
1190.650000000001
 20
627.9999999999883
 30
0.0
 11
1190.650000000001
 21
721.999999999988
 31
0.0
  0
LINE
  5
D7A
330
D29
100
AcDbEntity
  8
Visible (ISO)
100
AcDbLine
 10
1093.650000000001
 20
624.999999999988
 30
0.0
 11
1187.650000000001
 21
624.999999999988
 31
0.0
  0
LINE
  5
D7B
330
D29
100
AcDbEntity
  8
Visible (ISO)
100
AcDbLine
 10
1090.650000000001
 20
721.999999999988
 30
0.0
 11
1090.650000000001
 21
627.9999999999883
 31
0.0
  0
ARC
  5
D7C
330
D29
100
AcDbEntity
  8
Visible (ISO)
100
AcDbCircle
 10
1093.650000000001
 20
-628.0000000000109
 30
0.0
 40
3.000000000000006
100
AcDbArc
 50
90.0
 51
180.0
  0
ARC
  5
D7D
330
D29
100
AcDbEntity
  8
Visible (ISO)
100
AcDbCircle
 10
1187.650000000001
 20
-628.0000000000109
 30
0.0
 40
3.000000000000006
100
AcDbArc
 50
0.0
 51
90.0
  0
LINE
  5
D7E
330
D29
100
AcDbEntity
  8
Visible (ISO)
100
AcDbLine
 10
1187.650000000001
 20
-625.0000000000109
 30
0.0
 11
1093.650000000001
 21
-625.0000000000109
 31
0.0
  0
ARC
  5
D7F
330
D29
100
AcDbEntity
  8
Visible (ISO)
100
AcDbCircle
 10
1093.650000000001
 20
-722.0000000000107
 30
0.0
 40
2.999999999999988
100
AcDbArc
 50
180.0
 51
270.0
  0
ARC
  5
D80
330
D29
100
AcDbEntity
  8
Visible (ISO)
100
AcDbCircle
 10
1187.650000000001
 20
-722.0000000000107
 30
0.0
 40
3.000000000000006
100
AcDbArc
 50
270.0
 51
0.0
  0
LINE
  5
D81
330
D29
100
AcDbEntity
  8
Visible (ISO)
100
AcDbLine
 10
1190.650000000001
 20
-722.0000000000107
 30
0.0
 11
1190.650000000001
 21
-628.0000000000109
 31
0.0
  0
LINE
  5
D82
330
D29
100
AcDbEntity
  8
Visible (ISO)
100
AcDbLine
 10
1093.650000000001
 20
-725.0000000000108
 30
0.0
 11
1187.650000000001
 21
-725.0000000000108
 31
0.0
  0
LINE
  5
D83
330
D29
100
AcDbEntity
  8
Visible (ISO)
100
AcDbLine
 10
1090.650000000001
 20
-628.0000000000109
 30
0.0
 11
1090.650000000001
 21
-722.0000000000107
 31
0.0
  0
ARC
  5
D84
330
D29
100
AcDbEntity
  8
Visible (ISO)
100
AcDbCircle
 10
-1412.350000000024
 20
-721.999999999988
 30
0.0
 40
3.000000000000006
100
AcDbArc
 50
270.0
 51
0.0
  0
ARC
  5
D85
330
D29
100
AcDbEntity
  8
Visible (ISO)
100
AcDbCircle
 10
-1506.350000000024
 20
-721.999999999988
 30
0.0
 40
3.000000000000006
100
AcDbArc
 50
180.0
 51
270.0
  0
LINE
  5
D86
330
D29
100
AcDbEntity
  8
Visible (ISO)
100
AcDbLine
 10
-1506.350000000024
 20
-724.999999999988
 30
0.0
 11
-1412.350000000024
 21
-724.999999999988
 31
0.0
  0
ARC
  5
D87
330
D29
100
AcDbEntity
  8
Visible (ISO)
100
AcDbCircle
 10
-1412.350000000024
 20
-627.9999999999891
 30
0.0
 40
2.999999999999988
100
AcDbArc
 50
0.0
 51
90.0
  0
ARC
  5
D88
330
D29
100
AcDbEntity
  8
Visible (ISO)
100
AcDbCircle
 10
-1506.350000000024
 20
-627.9999999999891
 30
0.0
 40
3.000000000000006
100
AcDbArc
 50
90.0
 51
180.0
  0
LINE
  5
D89
330
D29
100
AcDbEntity
  8
Visible (ISO)
100
AcDbLine
 10
-1509.350000000024
 20
-627.9999999999891
 30
0.0
 11
-1509.350000000024
 21
-721.999999999988
 31
0.0
  0
LINE
  5
D8A
330
D29
100
AcDbEntity
  8
Visible (ISO)
100
AcDbLine
 10
-1412.350000000024
 20
-624.9999999999889
 30
0.0
 11
-1506.350000000024
 21
-624.9999999999889
 31
0.0
  0
LINE
  5
D8B
330
D29
100
AcDbEntity
  8
Visible (ISO)
100
AcDbLine
 10
-1409.350000000027
 20
-721.999999999988
 30
0.0
 11
-1409.350000000027
 21
-627.9999999999891
 31
0.0
  0
ARC
  5
D8C
330
D29
100
AcDbEntity
  8
Visible (ISO)
100
AcDbCircle
 10
-1412.350000000024
 20
628.0000000000117
 30
0.0
 40
3.000000000000006
100
AcDbArc
 50
270.0
 51
0.0
  0
ARC
  5
D8D
330
D29
100
AcDbEntity
  8
Visible (ISO)
100
AcDbCircle
 10
-1506.350000000024
 20
628.0000000000117
 30
0.0
 40
3.000000000000006
100
AcDbArc
 50
180.0
 51
270.0
  0
LINE
  5
D8E
330
D29
100
AcDbEntity
  8
Visible (ISO)
100
AcDbLine
 10
-1506.350000000024
 20
625.0000000000117
 30
0.0
 11
-1412.350000000024
 21
625.0000000000117
 31
0.0
  0
ARC
  5
D8F
330
D29
100
AcDbEntity
  8
Visible (ISO)
100
AcDbCircle
 10
-1412.350000000024
 20
722.0000000000116
 30
0.0
 40
2.999999999999988
100
AcDbArc
 50
0.0
 51
90.0
  0
ARC
  5
D90
330
D29
100
AcDbEntity
  8
Visible (ISO)
100
AcDbCircle
 10
-1506.350000000024
 20
722.0000000000116
 30
0.0
 40
3.000000000000006
100
AcDbArc
 50
90.0
 51
180.0
  0
LINE
  5
D91
330
D29
100
AcDbEntity
  8
Visible (ISO)
100
AcDbLine
 10
-1509.350000000024
 20
722.0000000000107
 30
0.0
 11
-1509.350000000024
 21
628.0000000000117
 31
0.0
  0
LINE
  5
D92
330
D29
100
AcDbEntity
  8
Visible (ISO)
100
AcDbLine
 10
-1412.350000000024
 20
725.0000000000117
 30
0.0
 11
-1506.350000000024
 21
725.0000000000117
 31
0.0
  0
LINE
  5
D93
330
D29
100
AcDbEntity
  8
Visible (ISO)
100
AcDbLine
 10
-1409.350000000027
 20
628.0000000000117
 30
0.0
 11
-1409.350000000027
 21
722.0000000000107
 31
0.0
  0
LINE
  5
D94
330
D29
100
AcDbEntity
  8
Visible (ISO)
100
AcDbLine
 10
1123.799999999999
 20
-614.2286796564502
 30
0.0
 11
1123.799999999999
 21
614.2286796564285
 31
0.0
  0
LINE
  5
D95
330
D29
100
AcDbEntity
  8
Visible (ISO)
100
AcDbLine
 10
1157.5
 20
-614.2286796564502
 30
0.0
 11
1157.5
 21
614.2286796564285
 31
0.0
  0
LINE
  5
D96
330
D29
100
AcDbEntity
  8
Visible (ISO)
100
AcDbLine
 10
-1442.500000000025
 20
614.2286796564512
 30
0.0
 11
-1442.500000000025
 21
-614.2286796564267
 31
0.0
  0
LINE
  5
D97
330
D29
100
AcDbEntity
  8
Visible (ISO)
100
AcDbLine
 10
-1476.200000000026
 20
614.2286796564512
 30
0.0
 11
-1476.200000000026
 21
-614.2286796564267
 31
0.0
  0
LINE
  5
D98
330
D29
100
AcDbEntity
  8
Visible (ISO)
100
AcDbLine
 10
1113.150000000001
 20
619.9999999999882
 30
0.0
 11
1103.150000000001
 21
619.9999999999882
 31
0.0
  0
LINE
  5
D99
330
D29
100
AcDbEntity
  8
Visible (ISO)
100
AcDbLine
 10
1103.150000000001
 20
624.999999999988
 30
0.0
 11
1103.150000000001
 21
619.9999999999882
 31
0.0
  0
LINE
  5
D9A
330
D29
100
AcDbEntity
  8
Visible (ISO)
100
AcDbLine
 10
1178.150000000001
 20
619.9999999999882
 30
0.0
 11
1168.150000000001
 21
619.9999999999882
 31
0.0
  0
LINE
  5
D9B
330
D29
100
AcDbEntity
  8
Visible (ISO)
100
AcDbLine
 10
1178.150000000001
 20
619.9999999999882
 30
0.0
 11
1178.150000000001
 21
624.999999999988
 31
0.0
  0
LINE
  5
D9C
330
D29
100
AcDbEntity
  8
Visible (ISO)
100
AcDbLine
 10
1113.150000000001
 20
619.9999999999882
 30
0.0
 11
1168.150000000001
 21
619.9999999999882
 31
0.0
  0
LINE
  5
D9D
330
D29
100
AcDbEntity
  8
Visible (ISO)
100
AcDbLine
 10
1178.150000000001
 20
-625.0000000000109
 30
0.0
 11
1178.150000000001
 21
-620.00000000001
 31
0.0
  0
LINE
  5
D9E
330
D29
100
AcDbEntity
  8
Visible (ISO)
100
AcDbLine
 10
1168.150000000001
 20
-620.00000000001
 30
0.0
 11
1178.150000000001
 21
-620.00000000001
 31
0.0
  0
LINE
  5
D9F
330
D29
100
AcDbEntity
  8
Visible (ISO)
100
AcDbLine
 10
1103.150000000001
 20
-620.00000000001
 30
0.0
 11
1113.150000000001
 21
-620.00000000001
 31
0.0
  0
LINE
  5
DA0
330
D29
100
AcDbEntity
  8
Visible (ISO)
100
AcDbLine
 10
1103.150000000001
 20
-620.00000000001
 30
0.0
 11
1103.150000000001
 21
-625.0000000000109
 31
0.0
  0
LINE
  5
DA1
330
D29
100
AcDbEntity
  8
Visible (ISO)
100
AcDbLine
 10
1168.150000000001
 20
-620.00000000001
 30
0.0
 11
1113.150000000001
 21
-620.00000000001
 31
0.0
  0
LINE
  5
DA2
330
D29
100
AcDbEntity
  8
Visible (ISO)
100
AcDbLine
 10
-1431.850000000024
 20
-619.9999999999873
 30
0.0
 11
-1421.850000000024
 21
-619.9999999999873
 31
0.0
  0
LINE
  5
DA3
330
D29
100
AcDbEntity
  8
Visible (ISO)
100
AcDbLine
 10
-1421.850000000024
 20
-624.9999999999872
 30
0.0
 11
-1421.850000000024
 21
-619.9999999999873
 31
0.0
  0
LINE
  5
DA4
330
D29
100
AcDbEntity
  8
Visible (ISO)
100
AcDbLine
 10
-1496.850000000024
 20
-619.9999999999873
 30
0.0
 11
-1486.850000000024
 21
-619.9999999999873
 31
0.0
  0
LINE
  5
DA5
330
D29
100
AcDbEntity
  8
Visible (ISO)
100
AcDbLine
 10
-1496.850000000024
 20
-619.9999999999873
 30
0.0
 11
-1496.850000000024
 21
-624.9999999999872
 31
0.0
  0
LINE
  5
DA6
330
D29
100
AcDbEntity
  8
Visible (ISO)
100
AcDbLine
 10
-1431.850000000024
 20
-619.9999999999873
 30
0.0
 11
-1486.850000000024
 21
-619.9999999999873
 31
0.0
  0
LINE
  5
DA7
330
D29
100
AcDbEntity
  8
Visible (ISO)
100
AcDbLine
 10
-1496.850000000024
 20
625.0000000000117
 30
0.0
 11
-1496.850000000024
 21
620.0000000000117
 31
0.0
  0
LINE
  5
DA8
330
D29
100
AcDbEntity
  8
Visible (ISO)
100
AcDbLine
 10
-1486.850000000024
 20
620.0000000000117
 30
0.0
 11
-1496.850000000024
 21
620.0000000000117
 31
0.0
  0
LINE
  5
DA9
330
D29
100
AcDbEntity
  8
Visible (ISO)
100
AcDbLine
 10
-1421.850000000024
 20
620.0000000000117
 30
0.0
 11
-1431.850000000024
 21
620.0000000000117
 31
0.0
  0
LINE
  5
DAA
330
D29
100
AcDbEntity
  8
Visible (ISO)
100
AcDbLine
 10
-1421.850000000024
 20
620.0000000000117
 30
0.0
 11
-1421.850000000024
 21
625.0000000000117
 31
0.0
  0
LINE
  5
DAB
330
D29
100
AcDbEntity
  8
Visible (ISO)
100
AcDbLine
 10
-1486.850000000024
 20
620.0000000000117
 30
0.0
 11
-1431.850000000024
 21
620.0000000000117
 31
0.0
  0
ELLIPSE
  5
DAC
330
D29
100
AcDbEntity
  8
Visible (ISO)
100
AcDbEllipse
 10
1086.412102355331
 20
-700.0000000000099
 30
0.0
 11
15.6750598084983
 21
0.0
 31
0.0
210
0.0
220
0.0
230
1.0
 40
0.5773502691896273
 41
1.619434285796985
 42
1.76090857928984
  0
ELLIPSE
  5
DAD
330
D29
100
AcDbEntity
  8
Visible (ISO)
100
AcDbEllipse
 10
1084.887897644668
 20
-700.0000000000099
 30
0.0
 11
15.67505980849832
 21
0.0
 31
0.0
210
0.0
220
0.0
230
1.0
 40
0.5773502691896267
 41
1.522158367792808
 42
1.66265702213626
  0
LINE
  5
DAE
330
D29
100
AcDbEntity
  8
Visible (ISO)
100
AcDbLine
 10
1083.45
 20
-691.1130535871242
 30
0.0
 11
1083.45
 21
-690.9881568595745
 31
0.0
  0
LINE
  5
DAF
330
D29
100
AcDbEntity
  8
Visible (ISO)
100
AcDbLine
 10
1083.45
 20
-709.05000000001
 30
0.0
 11
1083.45
 21
-691.1130535871242
 31
0.0
  0
LINE
  5
DB0
330
D29
100
AcDbEntity
  8
Visible (ISO)
100
AcDbLine
 10
1083.45
 20
-690.9881568595745
 30
0.0
 11
1083.45
 21
-690.9500000000097
 31
0.0
  0
LINE
  5
DB1
330
D29
100
AcDbEntity
  8
Visible (ISO)
100
AcDbLine
 10
1085.650000000001
 20
-709.05000000001
 30
0.0
 11
1083.45
 21
-709.05000000001
 31
0.0
  0
LINE
  5
DB2
330
D29
100
AcDbEntity
  8
Visible (ISO)
100
AcDbLine
 10
1084.887897644668
 20
-690.9500000000097
 30
0.0
 11
1083.45
 21
-690.9500000000097
 31
0.0
  0
ELLIPSE
  5
DB3
330
D29
100
AcDbEntity
  8
Visible (ISO)
100
AcDbEllipse
 10
1086.412102355331
 20
-650.0000000000109
 30
0.0
 11
15.6750598084983
 21
0.0
 31
0.0
210
0.0
220
0.0
230
1.0
 40
0.5773502691896273
 41
1.619434285796985
 42
1.76090857928984
  0
ELLIPSE
  5
DB4
330
D29
100
AcDbEntity
  8
Visible (ISO)
100
AcDbEllipse
 10
1084.887897644668
 20
-650.0000000000109
 30
0.0
 11
15.67505980849832
 21
0.0
 31
0.0
210
0.0
220
0.0
230
1.0
 40
0.5773502691896267
 41
1.522158367792808
 42
1.66265702213626
  0
LINE
  5
DB5
330
D29
100
AcDbEntity
  8
Visible (ISO)
100
AcDbLine
 10
1083.45
 20
-641.1130535871242
 30
0.0
 11
1083.45
 21
-640.9881568595746
 31
0.0
  0
LINE
  5
DB6
330
D29
100
AcDbEntity
  8
Visible (ISO)
100
AcDbLine
 10
1083.45
 20
-659.0500000000111
 30
0.0
 11
1083.45
 21
-641.1130535871242
 31
0.0
  0
LINE
  5
DB7
330
D29
100
AcDbEntity
  8
Visible (ISO)
100
AcDbLine
 10
1083.45
 20
-640.9881568595746
 30
0.0
 11
1083.45
 21
-640.9500000000107
 31
0.0
  0
LINE
  5
DB8
330
D29
100
AcDbEntity
  8
Visible (ISO)
100
AcDbLine
 10
1085.650000000001
 20
-659.0500000000111
 30
0.0
 11
1083.45
 21
-659.0500000000111
 31
0.0
  0
LINE
  5
DB9
330
D29
100
AcDbEntity
  8
Visible (ISO)
100
AcDbLine
 10
1084.887897644668
 20
-640.9500000000107
 30
0.0
 11
1083.45
 21
-640.9500000000107
 31
0.0
  0
ELLIPSE
  5
DBA
330
D29
100
AcDbEntity
  8
Visible (ISO)
100
AcDbEllipse
 10
1086.412102355331
 20
649.999999999988
 30
0.0
 11
15.6750598084983
 21
0.0
 31
0.0
210
0.0
220
0.0
230
1.0
 40
0.5773502691896273
 41
1.619434285796985
 42
1.76090857928983
  0
ELLIPSE
  5
DBB
330
D29
100
AcDbEntity
  8
Visible (ISO)
100
AcDbEllipse
 10
1084.887897644668
 20
649.999999999988
 30
0.0
 11
15.67505980849832
 21
0.0
 31
0.0
210
0.0
220
0.0
230
1.0
 40
0.5773502691896267
 41
1.522158367792808
 42
1.66265702213626
  0
LINE
  5
DBC
330
D29
100
AcDbEntity
  8
Visible (ISO)
100
AcDbLine
 10
1083.45
 20
658.8869464128747
 30
0.0
 11
1083.45
 21
659.0118431404235
 31
0.0
  0
LINE
  5
DBD
330
D29
100
AcDbEntity
  8
Visible (ISO)
100
AcDbLine
 10
1083.45
 20
640.949999999987
 30
0.0
 11
1083.45
 21
658.8869464128747
 31
0.0
  0
LINE
  5
DBE
330
D29
100
AcDbEntity
  8
Visible (ISO)
100
AcDbLine
 10
1083.45
 20
659.0118431404235
 30
0.0
 11
1083.45
 21
659.0499999999884
 31
0.0
  0
LINE
  5
DBF
330
D29
100
AcDbEntity
  8
Visible (ISO)
100
AcDbLine
 10
1085.650000000001
 20
640.949999999987
 30
0.0
 11
1083.45
 21
640.949999999987
 31
0.0
  0
LINE
  5
DC0
330
D29
100
AcDbEntity
  8
Visible (ISO)
100
AcDbLine
 10
1084.887897644668
 20
659.0499999999884
 30
0.0
 11
1083.45
 21
659.0499999999884
 31
0.0
  0
ELLIPSE
  5
DC1
330
D29
100
AcDbEntity
  8
Visible (ISO)
100
AcDbEllipse
 10
1086.412102355331
 20
699.999999999988
 30
0.0
 11
15.6750598084983
 21
0.0
 31
0.0
210
0.0
220
0.0
230
1.0
 40
0.5773502691896273
 41
1.619434285796985
 42
1.76090857928983
  0
ELLIPSE
  5
DC2
330
D29
100
AcDbEntity
  8
Visible (ISO)
100
AcDbEllipse
 10
1084.887897644668
 20
699.999999999988
 30
0.0
 11
15.67505980849832
 21
0.0
 31
0.0
210
0.0
220
0.0
230
1.0
 40
0.5773502691896267
 41
1.522158367792808
 42
1.66265702213626
  0
LINE
  5
DC3
330
D29
100
AcDbEntity
  8
Visible (ISO)
100
AcDbLine
 10
1083.45
 20
708.8869464128747
 30
0.0
 11
1083.45
 21
709.0118431404235
 31
0.0
  0
LINE
  5
DC4
330
D29
100
AcDbEntity
  8
Visible (ISO)
100
AcDbLine
 10
1083.45
 20
690.949999999988
 30
0.0
 11
1083.45
 21
708.8869464128747
 31
0.0
  0
LINE
  5
DC5
330
D29
100
AcDbEntity
  8
Visible (ISO)
100
AcDbLine
 10
1083.45
 20
709.0118431404235
 30
0.0
 11
1083.45
 21
709.0499999999884
 31
0.0
  0
LINE
  5
DC6
330
D29
100
AcDbEntity
  8
Visible (ISO)
100
AcDbLine
 10
1085.650000000001
 20
690.949999999988
 30
0.0
 11
1083.45
 21
690.949999999988
 31
0.0
  0
LINE
  5
DC7
330
D29
100
AcDbEntity
  8
Visible (ISO)
100
AcDbLine
 10
1084.887897644668
 20
709.0499999999884
 30
0.0
 11
1083.45
 21
709.0499999999884
 31
0.0
  0
ELLIPSE
  5
DC8
330
D29
100
AcDbEntity
  8
Visible (ISO)
100
AcDbEllipse
 10
-1405.112102355357
 20
-650.0000000000109
 30
0.0
 11
-15.6750598084983
 21
0.0
 31
0.0
210
0.0
220
0.0
230
1.0
 40
0.5773502691896273
 41
1.61943428579698
 42
1.76090857928985
  0
ELLIPSE
  5
DC9
330
D29
100
AcDbEntity
  8
Visible (ISO)
100
AcDbEllipse
 10
-1403.587897644695
 20
-650.0000000000109
 30
0.0
 11
-15.67505980849832
 21
0.0
 31
0.0
210
0.0
220
0.0
230
1.0
 40
0.5773502691896267
 41
1.52215836779281
 42
1.662657022136252
  0
LINE
  5
DCA
330
D29
100
AcDbEntity
  8
Visible (ISO)
100
AcDbLine
 10
-1402.150000000023
 20
-658.8869464128967
 30
0.0
 11
-1402.150000000023
 21
-659.0118431404462
 31
0.0
  0
LINE
  5
DCB
330
D29
100
AcDbEntity
  8
Visible (ISO)
100
AcDbLine
 10
-1402.150000000023
 20
-640.9500000000107
 30
0.0
 11
-1402.150000000023
 21
-658.8869464128967
 31
0.0
  0
LINE
  5
DCC
330
D29
100
AcDbEntity
  8
Visible (ISO)
100
AcDbLine
 10
-1402.150000000023
 20
-659.0118431404462
 30
0.0
 11
-1402.150000000023
 21
-659.0500000000111
 31
0.0
  0
LINE
  5
DCD
330
D29
100
AcDbEntity
  8
Visible (ISO)
100
AcDbLine
 10
-1404.350000000024
 20
-640.9500000000107
 30
0.0
 11
-1402.150000000023
 21
-640.9500000000107
 31
0.0
  0
LINE
  5
DCE
330
D29
100
AcDbEntity
  8
Visible (ISO)
100
AcDbLine
 10
-1403.587897644695
 20
-659.0500000000111
 30
0.0
 11
-1402.150000000023
 21
-659.0500000000111
 31
0.0
  0
ELLIPSE
  5
DCF
330
D29
100
AcDbEntity
  8
Visible (ISO)
100
AcDbEllipse
 10
-1405.112102355357
 20
-700.0000000000099
 30
0.0
 11
-15.6750598084983
 21
0.0
 31
0.0
210
0.0
220
0.0
230
1.0
 40
0.5773502691896273
 41
1.61943428579698
 42
1.76090857928985
  0
ELLIPSE
  5
DD0
330
D29
100
AcDbEntity
  8
Visible (ISO)
100
AcDbEllipse
 10
-1403.587897644695
 20
-700.0000000000099
 30
0.0
 11
-15.67505980849832
 21
0.0
 31
0.0
210
0.0
220
0.0
230
1.0
 40
0.5773502691896267
 41
1.52215836779281
 42
1.662657022136252
  0
LINE
  5
DD1
330
D29
100
AcDbEntity
  8
Visible (ISO)
100
AcDbLine
 10
-1402.150000000023
 20
-708.8869464128966
 30
0.0
 11
-1402.150000000023
 21
-709.0118431404463
 31
0.0
  0
LINE
  5
DD2
330
D29
100
AcDbEntity
  8
Visible (ISO)
100
AcDbLine
 10
-1402.150000000023
 20
-690.9500000000097
 30
0.0
 11
-1402.150000000023
 21
-708.8869464128966
 31
0.0
  0
LINE
  5
DD3
330
D29
100
AcDbEntity
  8
Visible (ISO)
100
AcDbLine
 10
-1402.150000000023
 20
-709.0118431404463
 30
0.0
 11
-1402.150000000023
 21
-709.05000000001
 31
0.0
  0
LINE
  5
DD4
330
D29
100
AcDbEntity
  8
Visible (ISO)
100
AcDbLine
 10
-1404.350000000024
 20
-690.9500000000097
 30
0.0
 11
-1402.150000000023
 21
-690.9500000000097
 31
0.0
  0
LINE
  5
DD5
330
D29
100
AcDbEntity
  8
Visible (ISO)
100
AcDbLine
 10
-1403.587897644695
 20
-709.05000000001
 30
0.0
 11
-1402.150000000023
 21
-709.05000000001
 31
0.0
  0
ELLIPSE
  5
DD6
330
D29
100
AcDbEntity
  8
Visible (ISO)
100
AcDbEllipse
 10
-1405.112102355331
 20
699.999999999988
 30
0.0
 11
-15.6750598084983
 21
0.0000000000000001
 31
0.0
210
0.0
220
0.0
230
1.0
 40
0.5773502691896273
 41
1.61943428579698
 42
1.760908579289841
  0
ELLIPSE
  5
DD7
330
D29
100
AcDbEntity
  8
Visible (ISO)
100
AcDbEllipse
 10
-1403.587897644669
 20
699.999999999988
 30
0.0
 11
-15.67505980849832
 21
0.0000000000000001
 31
0.0
210
0.0
220
0.0
230
1.0
 40
0.5773502691896267
 41
1.52215836779281
 42
1.662657022136252
  0
LINE
  5
DD8
330
D29
100
AcDbEntity
  8
Visible (ISO)
100
AcDbLine
 10
-1402.150000000001
 20
691.1130535871016
 30
0.0
 11
-1402.150000000001
 21
690.9881568595529
 31
0.0
  0
LINE
  5
DD9
330
D29
100
AcDbEntity
  8
Visible (ISO)
100
AcDbLine
 10
-1402.150000000001
 20
709.0499999999884
 30
0.0
 11
-1402.150000000001
 21
691.1130535871016
 31
0.0
  0
LINE
  5
DDA
330
D29
100
AcDbEntity
  8
Visible (ISO)
100
AcDbLine
 10
-1402.150000000001
 20
690.9881568595529
 30
0.0
 11
-1402.150000000001
 21
690.949999999988
 31
0.0
  0
LINE
  5
DDB
330
D29
100
AcDbEntity
  8
Visible (ISO)
100
AcDbLine
 10
-1404.349999999998
 20
709.0499999999884
 30
0.0
 11
-1402.150000000001
 21
709.0499999999884
 31
0.0
  0
LINE
  5
DDC
330
D29
100
AcDbEntity
  8
Visible (ISO)
100
AcDbLine
 10
-1403.587897644669
 20
690.949999999988
 30
0.0
 11
-1402.150000000001
 21
690.949999999988
 31
0.0
  0
ELLIPSE
  5
DDD
330
D29
100
AcDbEntity
  8
Visible (ISO)
100
AcDbEllipse
 10
-1405.112102355331
 20
649.999999999988
 30
0.0
 11
-15.6750598084983
 21
0.0000000000000001
 31
0.0
210
0.0
220
0.0
230
1.0
 40
0.5773502691896273
 41
1.61943428579698
 42
1.760908579289841
  0
ELLIPSE
  5
DDE
330
D29
100
AcDbEntity
  8
Visible (ISO)
100
AcDbEllipse
 10
-1403.587897644669
 20
649.999999999988
 30
0.0
 11
-15.67505980849832
 21
0.0000000000000001
 31
0.0
210
0.0
220
0.0
230
1.0
 40
0.5773502691896267
 41
1.52215836779281
 42
1.662657022136252
  0
LINE
  5
DDF
330
D29
100
AcDbEntity
  8
Visible (ISO)
100
AcDbLine
 10
-1402.150000000001
 20
641.1130535871008
 30
0.0
 11
-1402.150000000001
 21
640.9881568595518
 31
0.0
  0
LINE
  5
DE0
330
D29
100
AcDbEntity
  8
Visible (ISO)
100
AcDbLine
 10
-1402.150000000001
 20
659.0499999999884
 30
0.0
 11
-1402.150000000001
 21
641.1130535871008
 31
0.0
  0
LINE
  5
DE1
330
D29
100
AcDbEntity
  8
Visible (ISO)
100
AcDbLine
 10
-1402.150000000001
 20
640.9881568595518
 30
0.0
 11
-1402.150000000001
 21
640.949999999987
 31
0.0
  0
LINE
  5
DE2
330
D29
100
AcDbEntity
  8
Visible (ISO)
100
AcDbLine
 10
-1404.349999999998
 20
659.0499999999884
 30
0.0
 11
-1402.150000000001
 21
659.0499999999884
 31
0.0
  0
LINE
  5
DE3
330
D29
100
AcDbEntity
  8
Visible (ISO)
100
AcDbLine
 10
-1403.587897644669
 20
640.949999999987
 30
0.0
 11
-1402.150000000001
 21
640.949999999987
 31
0.0
  0
ELLIPSE
  5
DE4
330
D29
100
AcDbEntity
  8
Visible (ISO)
100
AcDbEllipse
 10
1115.650000000001
 20
-620.7621023553411
 30
0.0
 11
-0.0000000000000028
 21
-15.6750598084983
 31
0.0
210
0.0
220
0.0
230
1.0
 40
0.5773502691896273
 41
1.619434285796985
 42
1.760908579289859
  0
ELLIPSE
  5
DE5
330
D29
100
AcDbEntity
  8
Visible (ISO)
100
AcDbEllipse
 10
1115.650000000001
 20
-619.2378976446796
 30
0.0
 11
-0.0000000000000028
 21
-15.67505980849832
 31
0.0
210
0.0
220
0.0
230
1.0
 40
0.5773502691896267
 41
1.522158367792808
 42
1.66265702213626
  0
LINE
  5
DE6
330
D29
100
AcDbEntity
  8
Visible (ISO)
100
AcDbLine
 10
1124.536946412885
 20
-617.8000000000102
 30
0.0
 11
1124.661843140435
 21
-617.8000000000102
 31
0.0
  0
LINE
  5
DE7
330
D29
100
AcDbEntity
  8
Visible (ISO)
100
AcDbLine
 10
1106.599999999998
 20
-617.8000000000102
 30
0.0
 11
1124.536946412885
 21
-617.8000000000102
 31
0.0
  0
LINE
  5
DE8
330
D29
100
AcDbEntity
  8
Visible (ISO)
100
AcDbLine
 10
1124.661843140435
 20
-617.8000000000102
 30
0.0
 11
1124.7
 21
-617.8000000000102
 31
0.0
  0
LINE
  5
DE9
330
D29
100
AcDbEntity
  8
Visible (ISO)
100
AcDbLine
 10
1106.599999999998
 20
-620.00000000001
 30
0.0
 11
1106.599999999998
 21
-617.8000000000102
 31
0.0
  0
LINE
  5
DEA
330
D29
100
AcDbEntity
  8
Visible (ISO)
100
AcDbLine
 10
1124.7
 20
-619.2378976446796
 30
0.0
 11
1124.7
 21
-617.8000000000102
 31
0.0
  0
ELLIPSE
  5
DEB
330
D29
100
AcDbEntity
  8
Visible (ISO)
100
AcDbEllipse
 10
1165.650000000001
 20
-620.7621023553411
 30
0.0
 11
-0.0000000000000028
 21
-15.6750598084983
 31
0.0
210
0.0
220
0.0
230
1.0
 40
0.5773502691896273
 41
1.619434285796985
 42
1.760908579289859
  0
ELLIPSE
  5
DEC
330
D29
100
AcDbEntity
  8
Visible (ISO)
100
AcDbEllipse
 10
1165.650000000001
 20
-619.2378976446796
 30
0.0
 11
-0.0000000000000028
 21
-15.67505980849832
 31
0.0
210
0.0
220
0.0
230
1.0
 40
0.5773502691896267
 41
1.522158367792808
 42
1.66265702213626
  0
LINE
  5
DED
330
D29
100
AcDbEntity
  8
Visible (ISO)
100
AcDbLine
 10
1174.536946412889
 20
-617.8000000000102
 30
0.0
 11
1174.661843140435
 21
-617.8000000000102
 31
0.0
  0
LINE
  5
DEE
330
D29
100
AcDbEntity
  8
Visible (ISO)
100
AcDbLine
 10
1156.599999999998
 20
-617.8000000000102
 30
0.0
 11
1174.536946412889
 21
-617.8000000000102
 31
0.0
  0
LINE
  5
DEF
330
D29
100
AcDbEntity
  8
Visible (ISO)
100
AcDbLine
 10
1174.661843140435
 20
-617.8000000000102
 30
0.0
 11
1174.7
 21
-617.8000000000102
 31
0.0
  0
LINE
  5
DF0
330
D29
100
AcDbEntity
  8
Visible (ISO)
100
AcDbLine
 10
1156.599999999998
 20
-620.00000000001
 30
0.0
 11
1156.599999999998
 21
-617.8000000000102
 31
0.0
  0
LINE
  5
DF1
330
D29
100
AcDbEntity
  8
Visible (ISO)
100
AcDbLine
 10
1174.7
 20
-619.2378976446796
 30
0.0
 11
1174.7
 21
-617.8000000000102
 31
0.0
  0
ELLIPSE
  5
DF2
330
D29
100
AcDbEntity
  8
Visible (ISO)
100
AcDbEllipse
 10
1165.650000000001
 20
620.7621023553182
 30
0.0
 11
0.0000000000000028
 21
15.6750598084983
 31
0.0
210
0.0
220
0.0
230
1.0
 40
0.5773502691896273
 41
1.619434285796985
 42
1.76090857928983
  0
ELLIPSE
  5
DF3
330
D29
100
AcDbEntity
  8
Visible (ISO)
100
AcDbEllipse
 10
1165.650000000001
 20
619.237897644658
 30
0.0
 11
0.0000000000000028
 21
15.67505980849832
 31
0.0
210
0.0
220
0.0
230
1.0
 40
0.5773502691896267
 41
1.522158367792808
 42
1.66265702213626
  0
LINE
  5
DF4
330
D29
100
AcDbEntity
  8
Visible (ISO)
100
AcDbLine
 10
1156.763053587114
 20
617.7999999999874
 30
0.0
 11
1156.638156859564
 21
617.7999999999874
 31
0.0
  0
LINE
  5
DF5
330
D29
100
AcDbEntity
  8
Visible (ISO)
100
AcDbLine
 10
1174.7
 20
617.7999999999874
 30
0.0
 11
1156.763053587114
 21
617.7999999999874
 31
0.0
  0
LINE
  5
DF6
330
D29
100
AcDbEntity
  8
Visible (ISO)
100
AcDbLine
 10
1156.638156859564
 20
617.7999999999874
 30
0.0
 11
1156.599999999998
 21
617.7999999999874
 31
0.0
  0
LINE
  5
DF7
330
D29
100
AcDbEntity
  8
Visible (ISO)
100
AcDbLine
 10
1174.7
 20
619.9999999999882
 30
0.0
 11
1174.7
 21
617.7999999999874
 31
0.0
  0
LINE
  5
DF8
330
D29
100
AcDbEntity
  8
Visible (ISO)
100
AcDbLine
 10
1156.599999999998
 20
619.237897644658
 30
0.0
 11
1156.599999999998
 21
617.7999999999874
 31
0.0
  0
ELLIPSE
  5
DF9
330
D29
100
AcDbEntity
  8
Visible (ISO)
100
AcDbEllipse
 10
1115.650000000001
 20
620.7621023553182
 30
0.0
 11
0.0000000000000028
 21
15.6750598084983
 31
0.0
210
0.0
220
0.0
230
1.0
 40
0.5773502691896273
 41
1.619434285796985
 42
1.76090857928983
  0
ELLIPSE
  5
DFA
330
D29
100
AcDbEntity
  8
Visible (ISO)
100
AcDbEllipse
 10
1115.650000000001
 20
619.237897644658
 30
0.0
 11
0.0000000000000028
 21
15.67505980849832
 31
0.0
210
0.0
220
0.0
230
1.0
 40
0.5773502691896267
 41
1.522158367792808
 42
1.66265702213626
  0
LINE
  5
DFB
330
D29
100
AcDbEntity
  8
Visible (ISO)
100
AcDbLine
 10
1106.763053587114
 20
617.7999999999874
 30
0.0
 11
1106.638156859564
 21
617.7999999999874
 31
0.0
  0
LINE
  5
DFC
330
D29
100
AcDbEntity
  8
Visible (ISO)
100
AcDbLine
 10
1124.7
 20
617.7999999999874
 30
0.0
 11
1106.763053587114
 21
617.7999999999874
 31
0.0
  0
LINE
  5
DFD
330
D29
100
AcDbEntity
  8
Visible (ISO)
100
AcDbLine
 10
1106.638156859564
 20
617.7999999999874
 30
0.0
 11
1106.599999999998
 21
617.7999999999874
 31
0.0
  0
LINE
  5
DFE
330
D29
100
AcDbEntity
  8
Visible (ISO)
100
AcDbLine
 10
1124.7
 20
619.9999999999882
 30
0.0
 11
1124.7
 21
617.7999999999874
 31
0.0
  0
LINE
  5
DFF
330
D29
100
AcDbEntity
  8
Visible (ISO)
100
AcDbLine
 10
1106.599999999998
 20
619.237897644658
 30
0.0
 11
1106.599999999998
 21
617.7999999999874
 31
0.0
  0
ELLIPSE
  5
E00
330
D29
100
AcDbEntity
  8
Visible (ISO)
100
AcDbEllipse
 10
-1434.350000000024
 20
620.7621023553429
 30
0.0
 11
-0.0000000000001239
 21
15.67505980849843
 31
0.0
210
0.0
220
0.0
230
0.9999999999999998
 40
0.5773502691896227
 41
1.619434285796979
 42
1.760908579289858
  0
ELLIPSE
  5
E01
330
D29
100
AcDbEntity
  8
Visible (ISO)
100
AcDbEllipse
 10
-1434.350000000024
 20
619.2378976446816
 30
0.0
 11
-0.0000000000001239
 21
15.67505980849845
 31
0.0
210
0.0
220
0.0
230
1.0
 40
0.5773502691896219
 41
1.52215836779283
 42
1.662657022136255
  0
LINE
  5
E02
330
D29
100
AcDbEntity
  8
Visible (ISO)
100
AcDbLine
 10
-1443.236946412911
 20
617.8000000000118
 30
0.0
 11
-1443.361843140461
 21
617.8000000000118
 31
0.0
  0
LINE
  5
E03
330
D29
100
AcDbEntity
  8
Visible (ISO)
100
AcDbLine
 10
-1425.300000000025
 20
617.8000000000118
 30
0.0
 11
-1443.236946412911
 21
617.8000000000118
 31
0.0
  0
LINE
  5
E04
330
D29
100
AcDbEntity
  8
Visible (ISO)
100
AcDbLine
 10
-1443.361843140461
 20
617.8000000000118
 30
0.0
 11
-1443.400000000023
 21
617.8000000000118
 31
0.0
  0
LINE
  5
E05
330
D29
100
AcDbEntity
  8
Visible (ISO)
100
AcDbLine
 10
-1425.300000000025
 20
620.0000000000117
 30
0.0
 11
-1425.300000000025
 21
617.800000000011
 31
0.0
  0
LINE
  5
E06
330
D29
100
AcDbEntity
  8
Visible (ISO)
100
AcDbLine
 10
-1443.400000000023
 20
619.2378976446816
 30
0.0
 11
-1443.400000000023
 21
617.800000000011
 31
0.0
  0
ELLIPSE
  5
E07
330
D29
100
AcDbEntity
  8
Visible (ISO)
100
AcDbEllipse
 10
-1484.350000000024
 20
620.7621023553429
 30
0.0
 11
-0.0000000000001239
 21
15.67505980849843
 31
0.0
210
0.0
220
0.0
230
0.9999999999999998
 40
0.5773502691896227
 41
1.619434285796979
 42
1.760908579289858
  0
ELLIPSE
  5
E08
330
D29
100
AcDbEntity
  8
Visible (ISO)
100
AcDbEllipse
 10
-1484.350000000024
 20
619.2378976446816
 30
0.0
 11
-0.0000000000001239
 21
15.67505980849845
 31
0.0
210
0.0
220
0.0
230
1.0
 40
0.5773502691896219
 41
1.52215836779283
 42
1.662657022136255
  0
LINE
  5
E09
330
D29
100
AcDbEntity
  8
Visible (ISO)
100
AcDbLine
 10
-1493.236946412911
 20
617.8000000000118
 30
0.0
 11
-1493.361843140461
 21
617.8000000000118
 31
0.0
  0
LINE
  5
E0A
330
D29
100
AcDbEntity
  8
Visible (ISO)
100
AcDbLine
 10
-1475.300000000024
 20
617.8000000000118
 30
0.0
 11
-1493.236946412911
 21
617.8000000000118
 31
0.0
  0
LINE
  5
E0B
330
D29
100
AcDbEntity
  8
Visible (ISO)
100
AcDbLine
 10
-1493.361843140461
 20
617.8000000000118
 30
0.0
 11
-1493.400000000023
 21
617.8000000000118
 31
0.0
  0
LINE
  5
E0C
330
D29
100
AcDbEntity
  8
Visible (ISO)
100
AcDbLine
 10
-1475.300000000024
 20
620.0000000000117
 30
0.0
 11
-1475.300000000024
 21
617.800000000011
 31
0.0
  0
LINE
  5
E0D
330
D29
100
AcDbEntity
  8
Visible (ISO)
100
AcDbLine
 10
-1493.400000000023
 20
619.2378976446816
 30
0.0
 11
-1493.400000000023
 21
617.800000000011
 31
0.0
  0
ELLIPSE
  5
E0E
330
D29
100
AcDbEntity
  8
Visible (ISO)
100
AcDbEllipse
 10
-1484.350000000024
 20
-620.7621023553174
 30
0.0
 11
0.0000000000001239
 21
-15.67505980849817
 31
0.0
210
0.0
220
0.0
230
0.9999999999999998
 40
0.5773502691896321
 41
1.61943428579698
 42
1.76090857928986
  0
ELLIPSE
  5
E0F
330
D29
100
AcDbEntity
  8
Visible (ISO)
100
AcDbEllipse
 10
-1484.350000000024
 20
-619.2378976446571
 30
0.0
 11
0.0000000000001239
 21
-15.67505980849819
 31
0.0
210
0.0
220
0.0
230
1.0
 40
0.5773502691896315
 41
1.5221583677928
 42
1.662657022136258
  0
LINE
  5
E10
330
D29
100
AcDbEntity
  8
Visible (ISO)
100
AcDbLine
 10
-1475.463053587136
 20
-617.7999999999865
 30
0.0
 11
-1475.338156859587
 21
-617.7999999999865
 31
0.0
  0
LINE
  5
E11
330
D29
100
AcDbEntity
  8
Visible (ISO)
100
AcDbLine
 10
-1493.400000000023
 20
-617.7999999999865
 30
0.0
 11
-1475.46305358714
 21
-617.7999999999865
 31
0.0
  0
LINE
  5
E12
330
D29
100
AcDbEntity
  8
Visible (ISO)
100
AcDbLine
 10
-1475.33815685959
 20
-617.7999999999865
 30
0.0
 11
-1475.300000000024
 21
-617.7999999999865
 31
0.0
  0
LINE
  5
E13
330
D29
100
AcDbEntity
  8
Visible (ISO)
100
AcDbLine
 10
-1493.400000000023
 20
-619.9999999999873
 30
0.0
 11
-1493.400000000023
 21
-617.7999999999865
 31
0.0
  0
LINE
  5
E14
330
D29
100
AcDbEntity
  8
Visible (ISO)
100
AcDbLine
 10
-1475.300000000024
 20
-619.2378976446571
 30
0.0
 11
-1475.300000000024
 21
-617.7999999999865
 31
0.0
  0
ELLIPSE
  5
E15
330
D29
100
AcDbEntity
  8
Visible (ISO)
100
AcDbEllipse
 10
-1434.350000000024
 20
-620.7621023553174
 30
0.0
 11
0.0000000000001239
 21
-15.67505980849817
 31
0.0
210
0.0
220
0.0
230
0.9999999999999998
 40
0.5773502691896321
 41
1.61943428579698
 42
1.76090857928986
  0
ELLIPSE
  5
E16
330
D29
100
AcDbEntity
  8
Visible (ISO)
100
AcDbEllipse
 10
-1434.350000000024
 20
-619.2378976446571
 30
0.0
 11
0.0000000000001239
 21
-15.67505980849819
 31
0.0
210
0.0
220
0.0
230
1.0
 40
0.5773502691896315
 41
1.5221583677928
 42
1.662657022136258
  0
LINE
  5
E17
330
D29
100
AcDbEntity
  8
Visible (ISO)
100
AcDbLine
 10
-1425.463053587136
 20
-617.7999999999865
 30
0.0
 11
-1425.338156859587
 21
-617.7999999999865
 31
0.0
  0
LINE
  5
E18
330
D29
100
AcDbEntity
  8
Visible (ISO)
100
AcDbLine
 10
-1443.400000000023
 20
-617.7999999999865
 30
0.0
 11
-1425.46305358714
 21
-617.7999999999865
 31
0.0
  0
LINE
  5
E19
330
D29
100
AcDbEntity
  8
Visible (ISO)
100
AcDbLine
 10
-1425.33815685959
 20
-617.7999999999865
 30
0.0
 11
-1425.300000000025
 21
-617.7999999999865
 31
0.0
  0
LINE
  5
E1A
330
D29
100
AcDbEntity
  8
Visible (ISO)
100
AcDbLine
 10
-1443.400000000023
 20
-619.9999999999873
 30
0.0
 11
-1443.400000000023
 21
-617.7999999999865
 31
0.0
  0
LINE
  5
E1B
330
D29
100
AcDbEntity
  8
Visible (ISO)
100
AcDbLine
 10
-1425.300000000025
 20
-619.2378976446571
 30
0.0
 11
-1425.300000000025
 21
-617.7999999999865
 31
0.0
  0
LINE
  5
E1C
330
D29
100
AcDbEntity
  8
Visible (ISO)
100
AcDbLine
 10
1077.950000000001
 20
-704.7000000000097
 30
0.0
 11
1077.950000000001
 21
-695.3000000000111
 31
0.0
  0
ARC
  5
E1D
330
D29
100
AcDbEntity
  8
Visible (ISO)
100
AcDbCircle
 10
1082.0
 20
-704.7000000000097
 30
0.0
 40
4.049999999999999
100
AcDbArc
 50
180.0
 51
270.0
  0
ARC
  5
E1E
330
D29
100
AcDbEntity
  8
Visible (ISO)
100
AcDbCircle
 10
1082.0
 20
-695.3000000000111
 30
0.0
 40
4.049999999999999
100
AcDbArc
 50
90.0
 51
180.0
  0
LINE
  5
E1F
330
D29
100
AcDbEntity
  8
Visible (ISO)
100
AcDbLine
 10
1082.0
 20
-691.2500000000099
 30
0.0
 11
1083.45
 21
-691.2500000000099
 31
0.0
  0
LINE
  5
E20
330
D29
100
AcDbEntity
  8
Visible (ISO)
100
AcDbLine
 10
1082.0
 20
-708.7500000000098
 30
0.0
 11
1083.45
 21
-708.7500000000098
 31
0.0
  0
LINE
  5
E21
330
D29
100
AcDbEntity
  8
Visible (ISO)
100
AcDbLine
 10
1077.950000000001
 20
-654.7000000000097
 30
0.0
 11
1077.950000000001
 21
-645.3000000000111
 31
0.0
  0
ARC
  5
E22
330
D29
100
AcDbEntity
  8
Visible (ISO)
100
AcDbCircle
 10
1082.0
 20
-654.7000000000097
 30
0.0
 40
4.049999999999999
100
AcDbArc
 50
180.0
 51
270.0
  0
ARC
  5
E23
330
D29
100
AcDbEntity
  8
Visible (ISO)
100
AcDbCircle
 10
1082.0
 20
-645.3000000000111
 30
0.0
 40
4.049999999999999
100
AcDbArc
 50
90.0
 51
180.0
  0
LINE
  5
E24
330
D29
100
AcDbEntity
  8
Visible (ISO)
100
AcDbLine
 10
1082.0
 20
-641.2500000000108
 30
0.0
 11
1083.45
 21
-641.2500000000108
 31
0.0
  0
LINE
  5
E25
330
D29
100
AcDbEntity
  8
Visible (ISO)
100
AcDbLine
 10
1082.0
 20
-658.7500000000109
 30
0.0
 11
1083.45
 21
-658.7500000000109
 31
0.0
  0
LINE
  5
E26
330
D29
100
AcDbEntity
  8
Visible (ISO)
100
AcDbLine
 10
1077.950000000001
 20
645.2999999999875
 30
0.0
 11
1077.950000000001
 21
654.6999999999878
 31
0.0
  0
ARC
  5
E27
330
D29
100
AcDbEntity
  8
Visible (ISO)
100
AcDbCircle
 10
1082.0
 20
645.2999999999875
 30
0.0
 40
4.049999999999999
100
AcDbArc
 50
180.0
 51
270.0
  0
ARC
  5
E28
330
D29
100
AcDbEntity
  8
Visible (ISO)
100
AcDbCircle
 10
1082.0
 20
654.6999999999878
 30
0.0
 40
4.049999999999999
100
AcDbArc
 50
90.0
 51
180.0
  0
LINE
  5
E29
330
D29
100
AcDbEntity
  8
Visible (ISO)
100
AcDbLine
 10
1082.0
 20
658.7499999999883
 30
0.0
 11
1083.45
 21
658.7499999999883
 31
0.0
  0
LINE
  5
E2A
330
D29
100
AcDbEntity
  8
Visible (ISO)
100
AcDbLine
 10
1082.0
 20
641.249999999988
 30
0.0
 11
1083.45
 21
641.249999999988
 31
0.0
  0
LINE
  5
E2B
330
D29
100
AcDbEntity
  8
Visible (ISO)
100
AcDbLine
 10
1077.950000000001
 20
695.2999999999875
 30
0.0
 11
1077.950000000001
 21
704.6999999999889
 31
0.0
  0
ARC
  5
E2C
330
D29
100
AcDbEntity
  8
Visible (ISO)
100
AcDbCircle
 10
1082.0
 20
695.2999999999875
 30
0.0
 40
4.049999999999999
100
AcDbArc
 50
180.0
 51
270.0
  0
ARC
  5
E2D
330
D29
100
AcDbEntity
  8
Visible (ISO)
100
AcDbCircle
 10
1082.0
 20
704.6999999999889
 30
0.0
 40
4.049999999999999
100
AcDbArc
 50
90.0
 51
180.0
  0
LINE
  5
E2E
330
D29
100
AcDbEntity
  8
Visible (ISO)
100
AcDbLine
 10
1082.0
 20
708.7499999999883
 30
0.0
 11
1083.45
 21
708.7499999999883
 31
0.0
  0
LINE
  5
E2F
330
D29
100
AcDbEntity
  8
Visible (ISO)
100
AcDbLine
 10
1082.0
 20
691.249999999988
 30
0.0
 11
1083.45
 21
691.249999999988
 31
0.0
  0
LINE
  5
E30
330
D29
100
AcDbEntity
  8
Visible (ISO)
100
AcDbLine
 10
-1396.650000000023
 20
-645.3000000000111
 30
0.0
 11
-1396.650000000023
 21
-654.7000000000097
 31
0.0
  0
ARC
  5
E31
330
D29
100
AcDbEntity
  8
Visible (ISO)
100
AcDbCircle
 10
-1400.700000000026
 20
-645.3000000000111
 30
0.0
 40
4.049999999999999
100
AcDbArc
 50
0.0
 51
90.0
  0
ARC
  5
E32
330
D29
100
AcDbEntity
  8
Visible (ISO)
100
AcDbCircle
 10
-1400.700000000026
 20
-654.7000000000097
 30
0.0
 40
4.049999999999999
100
AcDbArc
 50
270.0
 51
0.0
  0
LINE
  5
E33
330
D29
100
AcDbEntity
  8
Visible (ISO)
100
AcDbLine
 10
-1400.700000000026
 20
-658.7500000000109
 30
0.0
 11
-1402.150000000023
 21
-658.7500000000109
 31
0.0
  0
LINE
  5
E34
330
D29
100
AcDbEntity
  8
Visible (ISO)
100
AcDbLine
 10
-1400.700000000026
 20
-641.2500000000108
 30
0.0
 11
-1402.150000000023
 21
-641.2500000000108
 31
0.0
  0
LINE
  5
E35
330
D29
100
AcDbEntity
  8
Visible (ISO)
100
AcDbLine
 10
-1396.650000000023
 20
-695.3000000000111
 30
0.0
 11
-1396.650000000023
 21
-704.7000000000097
 31
0.0
  0
ARC
  5
E36
330
D29
100
AcDbEntity
  8
Visible (ISO)
100
AcDbCircle
 10
-1400.700000000026
 20
-695.3000000000111
 30
0.0
 40
4.049999999999999
100
AcDbArc
 50
0.0
 51
90.0
  0
ARC
  5
E37
330
D29
100
AcDbEntity
  8
Visible (ISO)
100
AcDbCircle
 10
-1400.700000000026
 20
-704.7000000000097
 30
0.0
 40
4.049999999999999
100
AcDbArc
 50
270.0
 51
0.0
  0
LINE
  5
E38
330
D29
100
AcDbEntity
  8
Visible (ISO)
100
AcDbLine
 10
-1400.700000000026
 20
-708.7500000000098
 30
0.0
 11
-1402.150000000023
 21
-708.7500000000098
 31
0.0
  0
LINE
  5
E39
330
D29
100
AcDbEntity
  8
Visible (ISO)
100
AcDbLine
 10
-1400.700000000026
 20
-691.2500000000099
 30
0.0
 11
-1402.150000000023
 21
-691.2500000000099
 31
0.0
  0
LINE
  5
E3A
330
D29
100
AcDbEntity
  8
Visible (ISO)
100
AcDbLine
 10
-1396.650000000001
 20
704.6999999999889
 30
0.0
 11
-1396.650000000001
 21
695.2999999999875
 31
0.0
  0
ARC
  5
E3B
330
D29
100
AcDbEntity
  8
Visible (ISO)
100
AcDbCircle
 10
-1400.7
 20
704.6999999999889
 30
0.0
 40
4.049999999999999
100
AcDbArc
 50
0.0
 51
90.0
  0
ARC
  5
E3C
330
D29
100
AcDbEntity
  8
Visible (ISO)
100
AcDbCircle
 10
-1400.7
 20
695.2999999999875
 30
0.0
 40
4.049999999999999
100
AcDbArc
 50
270.0
 51
0.0
  0
LINE
  5
E3D
330
D29
100
AcDbEntity
  8
Visible (ISO)
100
AcDbLine
 10
-1400.7
 20
691.249999999988
 30
0.0
 11
-1402.150000000001
 21
691.249999999988
 31
0.0
  0
LINE
  5
E3E
330
D29
100
AcDbEntity
  8
Visible (ISO)
100
AcDbLine
 10
-1400.7
 20
708.7499999999883
 30
0.0
 11
-1402.150000000001
 21
708.7499999999883
 31
0.0
  0
LINE
  5
E3F
330
D29
100
AcDbEntity
  8
Visible (ISO)
100
AcDbLine
 10
-1396.650000000001
 20
654.6999999999878
 30
0.0
 11
-1396.650000000001
 21
645.2999999999875
 31
0.0
  0
ARC
  5
E40
330
D29
100
AcDbEntity
  8
Visible (ISO)
100
AcDbCircle
 10
-1400.7
 20
654.6999999999878
 30
0.0
 40
4.049999999999999
100
AcDbArc
 50
0.0
 51
90.0
  0
ARC
  5
E41
330
D29
100
AcDbEntity
  8
Visible (ISO)
100
AcDbCircle
 10
-1400.7
 20
645.2999999999875
 30
0.0
 40
4.049999999999999
100
AcDbArc
 50
270.0
 51
0.0
  0
LINE
  5
E42
330
D29
100
AcDbEntity
  8
Visible (ISO)
100
AcDbLine
 10
-1400.7
 20
641.249999999988
 30
0.0
 11
-1402.150000000001
 21
641.249999999988
 31
0.0
  0
LINE
  5
E43
330
D29
100
AcDbEntity
  8
Visible (ISO)
100
AcDbLine
 10
-1400.7
 20
658.7499999999883
 30
0.0
 11
-1402.150000000001
 21
658.7499999999883
 31
0.0
  0
LINE
  5
E44
330
D29
100
AcDbEntity
  8
Visible (ISO)
100
AcDbLine
 10
1110.95
 20
-612.3000000000111
 30
0.0
 11
1120.349999999998
 21
-612.3000000000111
 31
0.0
  0
ARC
  5
E45
330
D29
100
AcDbEntity
  8
Visible (ISO)
100
AcDbCircle
 10
1110.95
 20
-616.3500000000103
 30
0.0
 40
4.049999999999999
100
AcDbArc
 50
90.0
 51
180.0
  0
ARC
  5
E46
330
D29
100
AcDbEntity
  8
Visible (ISO)
100
AcDbCircle
 10
1120.349999999998
 20
-616.3500000000103
 30
0.0
 40
4.049999999999999
100
AcDbArc
 50
0.0
 51
90.0
  0
LINE
  5
E47
330
D29
100
AcDbEntity
  8
Visible (ISO)
100
AcDbLine
 10
1124.400000000001
 20
-616.3500000000103
 30
0.0
 11
1124.400000000001
 21
-617.800000000011
 31
0.0
  0
LINE
  5
E48
330
D29
100
AcDbEntity
  8
Visible (ISO)
100
AcDbLine
 10
1106.900000000001
 20
-616.3500000000103
 30
0.0
 11
1106.900000000001
 21
-617.800000000011
 31
0.0
  0
LINE
  5
E49
330
D29
100
AcDbEntity
  8
Visible (ISO)
100
AcDbLine
 10
1160.950000000001
 20
-612.3000000000111
 30
0.0
 11
1170.349999999998
 21
-612.3000000000111
 31
0.0
  0
ARC
  5
E4A
330
D29
100
AcDbEntity
  8
Visible (ISO)
100
AcDbCircle
 10
1160.950000000001
 20
-616.3500000000103
 30
0.0
 40
4.049999999999999
100
AcDbArc
 50
90.0
 51
180.0
  0
ARC
  5
E4B
330
D29
100
AcDbEntity
  8
Visible (ISO)
100
AcDbCircle
 10
1170.349999999998
 20
-616.3500000000103
 30
0.0
 40
4.049999999999999
100
AcDbArc
 50
0.0
 51
90.0
  0
LINE
  5
E4C
330
D29
100
AcDbEntity
  8
Visible (ISO)
100
AcDbLine
 10
1174.400000000001
 20
-616.3500000000103
 30
0.0
 11
1174.400000000001
 21
-617.800000000011
 31
0.0
  0
LINE
  5
E4D
330
D29
100
AcDbEntity
  8
Visible (ISO)
100
AcDbLine
 10
1156.900000000001
 20
-616.3500000000103
 30
0.0
 11
1156.900000000001
 21
-617.800000000011
 31
0.0
  0
LINE
  5
E4E
330
D29
100
AcDbEntity
  8
Visible (ISO)
100
AcDbLine
 10
1170.349999999998
 20
612.2999999999882
 30
0.0
 11
1160.950000000001
 21
612.2999999999882
 31
0.0
  0
ARC
  5
E4F
330
D29
100
AcDbEntity
  8
Visible (ISO)
100
AcDbCircle
 10
1170.349999999998
 20
616.3499999999884
 30
0.0
 40
4.049999999999999
100
AcDbArc
 50
270.0
 51
0.0
  0
ARC
  5
E50
330
D29
100
AcDbEntity
  8
Visible (ISO)
100
AcDbCircle
 10
1160.950000000001
 20
616.3499999999884
 30
0.0
 40
4.049999999999999
100
AcDbArc
 50
180.0
 51
270.0
  0
LINE
  5
E51
330
D29
100
AcDbEntity
  8
Visible (ISO)
100
AcDbLine
 10
1156.900000000001
 20
616.3499999999884
 30
0.0
 11
1156.900000000001
 21
617.7999999999874
 31
0.0
  0
LINE
  5
E52
330
D29
100
AcDbEntity
  8
Visible (ISO)
100
AcDbLine
 10
1174.400000000001
 20
616.3499999999884
 30
0.0
 11
1174.400000000001
 21
617.7999999999874
 31
0.0
  0
LINE
  5
E53
330
D29
100
AcDbEntity
  8
Visible (ISO)
100
AcDbLine
 10
1120.349999999998
 20
612.2999999999882
 30
0.0
 11
1110.95
 21
612.2999999999882
 31
0.0
  0
ARC
  5
E54
330
D29
100
AcDbEntity
  8
Visible (ISO)
100
AcDbCircle
 10
1120.349999999998
 20
616.3499999999884
 30
0.0
 40
4.049999999999999
100
AcDbArc
 50
270.0
 51
0.0
  0
ARC
  5
E55
330
D29
100
AcDbEntity
  8
Visible (ISO)
100
AcDbCircle
 10
1110.95
 20
616.3499999999884
 30
0.0
 40
4.049999999999999
100
AcDbArc
 50
180.0
 51
270.0
  0
LINE
  5
E56
330
D29
100
AcDbEntity
  8
Visible (ISO)
100
AcDbLine
 10
1106.900000000001
 20
616.3499999999884
 30
0.0
 11
1106.900000000001
 21
617.7999999999874
 31
0.0
  0
LINE
  5
E57
330
D29
100
AcDbEntity
  8
Visible (ISO)
100
AcDbLine
 10
1124.400000000001
 20
616.3499999999884
 30
0.0
 11
1124.400000000001
 21
617.7999999999874
 31
0.0
  0
LINE
  5
E58
330
D29
100
AcDbEntity
  8
Visible (ISO)
100
AcDbLine
 10
-1429.650000000023
 20
612.300000000012
 30
0.0
 11
-1439.050000000024
 21
612.300000000012
 31
0.0
  0
ARC
  5
E59
330
D29
100
AcDbEntity
  8
Visible (ISO)
100
AcDbCircle
 10
-1429.650000000023
 20
616.3500000000121
 30
0.0
 40
4.049999999999999
100
AcDbArc
 50
270.0
 51
0.0
  0
ARC
  5
E5A
330
D29
100
AcDbEntity
  8
Visible (ISO)
100
AcDbCircle
 10
-1439.050000000024
 20
616.3500000000121
 30
0.0
 40
4.049999999999999
100
AcDbArc
 50
180.0
 51
270.0
  0
LINE
  5
E5B
330
D29
100
AcDbEntity
  8
Visible (ISO)
100
AcDbLine
 10
-1443.100000000024
 20
616.3500000000121
 30
0.0
 11
-1443.100000000024
 21
617.8000000000118
 31
0.0
  0
LINE
  5
E5C
330
D29
100
AcDbEntity
  8
Visible (ISO)
100
AcDbLine
 10
-1425.600000000024
 20
616.3500000000121
 30
0.0
 11
-1425.600000000024
 21
617.8000000000118
 31
0.0
  0
LINE
  5
E5D
330
D29
100
AcDbEntity
  8
Visible (ISO)
100
AcDbLine
 10
-1479.650000000023
 20
612.300000000012
 30
0.0
 11
-1489.050000000025
 21
612.300000000012
 31
0.0
  0
ARC
  5
E5E
330
D29
100
AcDbEntity
  8
Visible (ISO)
100
AcDbCircle
 10
-1479.650000000023
 20
616.3500000000121
 30
0.0
 40
4.049999999999999
100
AcDbArc
 50
270.0
 51
0.0
  0
ARC
  5
E5F
330
D29
100
AcDbEntity
  8
Visible (ISO)
100
AcDbCircle
 10
-1489.050000000025
 20
616.3500000000121
 30
0.0
 40
4.049999999999999
100
AcDbArc
 50
180.0
 51
270.0
  0
LINE
  5
E60
330
D29
100
AcDbEntity
  8
Visible (ISO)
100
AcDbLine
 10
-1493.100000000024
 20
616.3500000000121
 30
0.0
 11
-1493.100000000024
 21
617.8000000000118
 31
0.0
  0
LINE
  5
E61
330
D29
100
AcDbEntity
  8
Visible (ISO)
100
AcDbLine
 10
-1475.600000000024
 20
616.3500000000121
 30
0.0
 11
-1475.600000000024
 21
617.8000000000118
 31
0.0
  0
LINE
  5
E62
330
D29
100
AcDbEntity
  8
Visible (ISO)
100
AcDbLine
 10
-1489.050000000025
 20
-612.2999999999874
 30
0.0
 11
-1479.650000000023
 21
-612.2999999999874
 31
0.0
  0
ARC
  5
E63
330
D29
100
AcDbEntity
  8
Visible (ISO)
100
AcDbCircle
 10
-1489.050000000025
 20
-616.3499999999867
 30
0.0
 40
4.049999999999999
100
AcDbArc
 50
90.0
 51
180.0
  0
ARC
  5
E64
330
D29
100
AcDbEntity
  8
Visible (ISO)
100
AcDbCircle
 10
-1479.650000000023
 20
-616.3499999999867
 30
0.0
 40
4.049999999999999
100
AcDbArc
 50
0.0
 51
90.0
  0
LINE
  5
E65
330
D29
100
AcDbEntity
  8
Visible (ISO)
100
AcDbLine
 10
-1475.600000000024
 20
-616.3499999999867
 30
0.0
 11
-1475.600000000024
 21
-617.7999999999865
 31
0.0
  0
LINE
  5
E66
330
D29
100
AcDbEntity
  8
Visible (ISO)
100
AcDbLine
 10
-1493.100000000024
 20
-616.3499999999867
 30
0.0
 11
-1493.100000000024
 21
-617.7999999999865
 31
0.0
  0
LINE
  5
E67
330
D29
100
AcDbEntity
  8
Visible (ISO)
100
AcDbLine
 10
-1439.050000000024
 20
-612.2999999999874
 30
0.0
 11
-1429.650000000023
 21
-612.2999999999874
 31
0.0
  0
ARC
  5
E68
330
D29
100
AcDbEntity
  8
Visible (ISO)
100
AcDbCircle
 10
-1439.050000000024
 20
-616.3499999999867
 30
0.0
 40
4.049999999999999
100
AcDbArc
 50
90.0
 51
180.0
  0
ARC
  5
E69
330
D29
100
AcDbEntity
  8
Visible (ISO)
100
AcDbCircle
 10
-1429.650000000023
 20
-616.3499999999867
 30
0.0
 40
4.049999999999999
100
AcDbArc
 50
0.0
 51
90.0
  0
LINE
  5
E6A
330
D29
100
AcDbEntity
  8
Visible (ISO)
100
AcDbLine
 10
-1425.600000000024
 20
-616.3499999999867
 30
0.0
 11
-1425.600000000024
 21
-617.7999999999865
 31
0.0
  0
LINE
  5
E6B
330
D29
100
AcDbEntity
  8
Visible (ISO)
100
AcDbLine
 10
-1443.100000000024
 20
-616.3499999999867
 30
0.0
 11
-1443.100000000024
 21
-617.7999999999865
 31
0.0
  0
ARC
  5
E6C
330
D29
100
AcDbEntity
  8
Visible (ISO)
100
AcDbCircle
 10
1190.649999999994
 20
724.999999999988
 30
0.0
 40
1500.0
100
AcDbArc
 50
0.0
 51
90.0
  0
ARC
  5
E6D
330
D29
100
AcDbEntity
  8
Visible (ISO)
100
AcDbCircle
 10
-1509.350000000027
 20
724.999999999988
 30
0.0
 40
1500.000000000001
100
AcDbArc
 50
90.0
 51
180.0
  0
ARC
  5
E6E
330
D29
100
AcDbEntity
  8
Visible (ISO)
100
AcDbCircle
 10
-1509.350000000027
 20
-725.0000000000055
 30
0.0
 40
1500.000000000001
100
AcDbArc
 50
180.0
 51
270.0
  0
ARC
  5
E6F
330
D29
100
AcDbEntity
  8
Visible (ISO)
100
AcDbCircle
 10
1190.649999999994
 20
-725.0000000000055
 30
0.0
 40
1500.0
100
AcDbArc
 50
270.0
 51
0.0
  0
LINE
  5
E70
330
D29
100
AcDbEntity
  8
Visible (ISO)
100
AcDbLine
 10
2690.649999999994
 20
724.999999999988
 30
0.0
 11
2690.649999999994
 21
-725.0000000000063
 31
0.0
  0
LINE
  5
E71
330
D29
100
AcDbEntity
  8
Visible (ISO)
100
AcDbLine
 10
-1509.350000000027
 20
2224.999999999988
 30
0.0
 11
1190.649999999994
 21
2224.999999999988
 31
0.0
  0
LINE
  5
E72
330
D29
100
AcDbEntity
  8
Visible (ISO)
100
AcDbLine
 10
-3009.350000000028
 20
-725.0000000000044
 30
0.0
 11
-3009.350000000028
 21
724.9999999999901
 31
0.0
  0
LINE
  5
E73
330
D29
100
AcDbEntity
  8
Visible (ISO)
100
AcDbLine
 10
1190.649999999994
 20
-2225.000000000006
 30
0.0
 11
-1509.350000000031
 21
-2225.000000000005
 31
0.0
  0
ENDBLK
  5
D2B
330
D29
100
AcDbEntity
  8
0
100
AcDbBlockEnd
  0
ENDSEC
  0
SECTION
  2
ENTITIES
  0
LINE
  5
107
330
6C
100
AcDbEntity
  8
Visible (ISO)
100
AcDbLine
 10
18918.31631494464
 20
10013.82959497763
 30
0.0
 11
16428.31631494458
 21
10013.82959497763
 31
0.0
  0
LINE
  5
108
330
6C
100
AcDbEntity
  8
Visible (ISO)
100
AcDbLine
 10
18918.31631494464
 20
10051.82959497763
 30
0.0
 11
16428.31631494458
 21
10051.82959497763
 31
0.0
  0
LINE
  5
109
330
6C
100
AcDbEntity
  8
Visible Narrow (ISO)
100
AcDbLine
 10
16423.56631494459
 20
10070.32959497763
 30
0.0
 11
16428.0663149446
 21
10070.32959497763
 31
0.0
  0
LINE
  5
10A
330
6C
100
AcDbEntity
  8
Visible (ISO)
100
AcDbLine
 10
16428.31631494459
 20
10080.32959497763
 30
0.0
 11
16428.31631494459
 21
10070.32959497763
 31
0.0
  0
LINE
  5
10B
330
6C
100
AcDbEntity
  8
Visible (ISO)
100
AcDbLine
 10
16428.31631494459
 20
10080.32959497763
 30
0.0
 11
16423.31631494459
 21
10080.32959497763
 31
0.0
  0
LINE
  5
10C
330
6C
100
AcDbEntity
  8
Visible (ISO)
100
AcDbLine
 10
16423.31631494459
 20
9985.329594977635
 30
0.0
 11
16428.31631494459
 21
9985.329594977635
 31
0.0
  0
LINE
  5
10D
330
6C
100
AcDbEntity
  8
Visible (ISO)
100
AcDbLine
 10
16428.31631494459
 20
9995.329594977635
 30
0.0
 11
16428.31631494459
 21
9985.329594977635
 31
0.0
  0
LINE
  5
10E
330
6C
100
AcDbEntity
  8
Visible Narrow (ISO)
100
AcDbLine
 10
16428.0663149446
 20
9995.329594977635
 30
0.0
 11
16423.56631494459
 21
9995.329594977635
 31
0.0
  0
LINE
  5
10F
330
6C
100
AcDbEntity
  8
Visible (ISO)
100
AcDbLine
 10
16428.31631494459
 20
9995.329594977635
 30
0.0
 11
16428.31631494459
 21
10070.32959497763
 31
0.0
  0
LINE
  5
110
330
6C
100
AcDbEntity
  8
Visible Narrow (ISO)
100
AcDbLine
 10
18923.06631494462
 20
9995.329594977635
 30
0.0
 11
18918.56631494462
 21
9995.329594977635
 31
0.0
  0
LINE
  5
111
330
6C
100
AcDbEntity
  8
Visible (ISO)
100
AcDbLine
 10
18918.31631494462
 20
9985.329594977635
 30
0.0
 11
18918.31631494462
 21
9995.329594977635
 31
0.0
  0
LINE
  5
112
330
6C
100
AcDbEntity
  8
Visible (ISO)
100
AcDbLine
 10
18918.31631494462
 20
9985.329594977635
 30
0.0
 11
18923.31631494462
 21
9985.329594977635
 31
0.0
  0
LINE
  5
113
330
6C
100
AcDbEntity
  8
Visible (ISO)
100
AcDbLine
 10
18923.31631494462
 20
10080.32959497763
 30
0.0
 11
18918.31631494462
 21
10080.32959497763
 31
0.0
  0
LINE
  5
114
330
6C
100
AcDbEntity
  8
Visible (ISO)
100
AcDbLine
 10
18918.31631494462
 20
10070.32959497763
 30
0.0
 11
18918.31631494462
 21
10080.32959497763
 31
0.0
  0
LINE
  5
115
330
6C
100
AcDbEntity
  8
Visible Narrow (ISO)
100
AcDbLine
 10
18918.56631494462
 20
10070.32959497763
 30
0.0
 11
18923.06631494462
 21
10070.32959497763
 31
0.0
  0
LINE
  5
116
330
6C
100
AcDbEntity
  8
Visible (ISO)
100
AcDbLine
 10
18918.31631494462
 20
10070.32959497763
 30
0.0
 11
18918.31631494462
 21
9995.329594977635
 31
0.0
  0
LINE
  5
117
330
6C
100
AcDbEntity
  8
Visible Narrow (ISO)
100
AcDbLine
 10
19018.31631494462
 20
9982.829594977635
 30
0.0
 11
19018.31631494462
 21
7912.829594977634
 31
0.0
  0
LINE
  5
118
330
6C
100
AcDbEntity
  8
Visible Narrow (ISO)
100
AcDbLine
 10
19018.31631494462
 20
7760.829594977633
 30
0.0
 11
19018.31631494462
 21
7274.829594977633
 31
0.0
  0
LINE
  5
119
330
6C
100
AcDbEntity
  8
Visible Narrow (ISO)
100
AcDbLine
 10
18928.31631494462
 20
7274.829594977633
 30
0.0
 11
18928.31631494462
 21
7760.829594977633
 31
0.0
  0
LINE
  5
11A
330
6C
100
AcDbEntity
  8
Visible Narrow (ISO)
100
AcDbLine
 10
18928.31631494462
 20
7912.829594977634
 30
0.0
 11
18928.31631494462
 21
9982.829594977635
 31
0.0
  0
LINE
  5
11B
330
6C
100
AcDbEntity
  8
Visible (ISO)
100
AcDbLine
 10
19023.31631494462
 20
7247.829594977634
 30
0.0
 11
19023.31631494462
 21
7787.829594977634
 31
0.0
  0
LINE
  5
11C
330
6C
100
AcDbEntity
  8
Visible (ISO)
100
AcDbLine
 10
19023.31631494462
 20
7797.829594977634
 30
0.0
 11
19023.31631494462
 21
10097.82959497763
 31
0.0
  0
LINE
  5
11D
330
6C
100
AcDbEntity
  8
Visible (ISO)
100
AcDbLine
 10
18923.31631494462
 20
10097.82959497763
 30
0.0
 11
18923.31631494462
 21
7797.829594977634
 31
0.0
  0
LINE
  5
11E
330
6C
100
AcDbEntity
  8
Visible (ISO)
100
AcDbLine
 10
18923.31631494462
 20
7787.829594977634
 30
0.0
 11
18923.31631494462
 21
7247.829594977634
 31
0.0
  0
LINE
  5
11F
330
6C
100
AcDbEntity
  8
Visible (ISO)
100
AcDbLine
 10
19018.31631494462
 20
10097.82959497763
 30
0.0
 11
18928.31631494462
 21
10097.82959497763
 31
0.0
  0
LINE
  5
120
330
6C
100
AcDbEntity
  8
Visible (ISO)
100
AcDbLine
 10
16323.31631494459
 20
10097.82959497763
 30
0.0
 11
16323.31631494459
 21
7797.829594977632
 31
0.0
  0
LINE
  5
121
330
6C
100
AcDbEntity
  8
Visible (ISO)
100
AcDbLine
 10
16323.31631494459
 20
7787.829594977633
 30
0.0
 11
16323.31631494459
 21
7247.829594977632
 31
0.0
  0
LINE
  5
122
330
6C
100
AcDbEntity
  8
Visible Narrow (ISO)
100
AcDbLine
 10
16328.31631494459
 20
7274.829594977632
 30
0.0
 11
16328.31631494459
 21
7760.829594977633
 31
0.0
  0
LINE
  5
123
330
6C
100
AcDbEntity
  8
Visible Narrow (ISO)
100
AcDbLine
 10
16328.31631494459
 20
7912.829594977633
 30
0.0
 11
16328.31631494459
 21
9982.829594977635
 31
0.0
  0
LINE
  5
124
330
6C
100
AcDbEntity
  8
Visible (ISO)
100
AcDbLine
 10
16423.31631494459
 20
7247.829594977632
 30
0.0
 11
16423.31631494459
 21
7787.829594977633
 31
0.0
  0
LINE
  5
125
330
6C
100
AcDbEntity
  8
Visible (ISO)
100
AcDbLine
 10
16423.31631494459
 20
7797.829594977632
 30
0.0
 11
16423.31631494459
 21
10097.82959497763
 31
0.0
  0
LINE
  5
126
330
6C
100
AcDbEntity
  8
Visible Narrow (ISO)
100
AcDbLine
 10
16418.31631494459
 20
9982.829594977635
 30
0.0
 11
16418.3163149446
 21
7912.829594977633
 31
0.0
  0
LINE
  5
127
330
6C
100
AcDbEntity
  8
Visible Narrow (ISO)
100
AcDbLine
 10
16418.3163149446
 20
7760.829594977633
 30
0.0
 11
16418.3163149446
 21
7274.829594977633
 31
0.0
  0
LINE
  5
128
330
6C
100
AcDbEntity
  8
Visible (ISO)
100
AcDbLine
 10
16418.31631494459
 20
10097.82959497763
 30
0.0
 11
16328.31631494459
 21
10097.82959497763
 31
0.0
  0
LINE
  5
129
330
6C
100
AcDbEntity
  8
Visible (ISO)
100
AcDbLine
 10
18980.38738275648
 20
7239.829594977634
 30
0.0
 11
18966.24524713276
 21
7239.829594977634
 31
0.0
  0
LINE
  5
12A
330
6C
100
AcDbEntity
  8
Visible Narrow (ISO)
100
AcDbLine
 10
18980.38738275648
 20
7240.229594977633
 30
0.0
 11
18980.38738275648
 21
7247.429594977631
 31
0.0
  0
LINE
  5
12B
330
6C
100
AcDbEntity
  8
Visible (ISO)
100
AcDbLine
 10
18966.24524713276
 20
7247.829594977632
 30
0.0
 11
18980.38738275648
 21
7247.829594977632
 31
0.0
  0
LINE
  5
12C
330
6C
100
AcDbEntity
  8
Visible Narrow (ISO)
100
AcDbLine
 10
18966.24524713276
 20
7247.429594977631
 30
0.0
 11
18966.24524713276
 21
7240.229594977633
 31
0.0
  0
LINE
  5
12D
330
6C
100
AcDbEntity
  8
Visible Narrow (ISO)
100
AcDbLine
 10
18874.3213655785
 20
7240.229594977633
 30
0.0
 11
18874.3213655785
 21
7247.429594977631
 31
0.0
  0
LINE
  5
12E
330
6C
100
AcDbEntity
  8
Visible (ISO)
100
AcDbLine
 10
19072.31126431074
 20
7247.829594977632
 30
0.0
 11
19075.24019649887
 21
7247.829594977632
 31
0.0
  0
LINE
  5
12F
330
6C
100
AcDbEntity
  8
Visible (ISO)
100
AcDbLine
 10
18871.39243339037
 20
7247.829594977632
 30
0.0
 11
18874.3213655785
 21
7247.829594977632
 31
0.0
  0
LINE
  5
130
330
6C
100
AcDbEntity
  8
Visible (ISO)
100
AcDbLine
 10
18874.3213655785
 20
7239.829594977634
 30
0.0
 11
18871.39243339037
 21
7239.829594977634
 31
0.0
  0
LINE
  5
131
330
6C
100
AcDbEntity
  8
Visible Narrow (ISO)
100
AcDbLine
 10
19072.31126431074
 20
7247.429594977631
 30
0.0
 11
19072.31126431074
 21
7240.229594977633
 31
0.0
  0
LINE
  5
132
330
6C
100
AcDbEntity
  8
Visible (ISO)
100
AcDbLine
 10
19075.24019649887
 20
7239.829594977634
 30
0.0
 11
19072.31126431074
 21
7239.829594977634
 31
0.0
  0
LINE
  5
133
330
6C
100
AcDbEntity
  8
Visible (ISO)
100
AcDbLine
 10
18871.39243339037
 20
7239.829594977634
 30
0.0
 11
18871.39243339037
 21
7247.829594977632
 31
0.0
  0
LINE
  5
134
330
6C
100
AcDbEntity
  8
Visible (ISO)
100
AcDbLine
 10
19075.24019649887
 20
7239.829594977634
 30
0.0
 11
19075.24019649887
 21
7247.829594977632
 31
0.0
  0
LINE
  5
135
330
6C
100
AcDbEntity
  8
Visible (ISO)
100
AcDbLine
 10
18966.24524713276
 20
7247.829594977632
 30
0.0
 11
18874.3213655785
 21
7247.829594977632
 31
0.0
  0
LINE
  5
136
330
6C
100
AcDbEntity
  8
Visible (ISO)
100
AcDbLine
 10
18874.3213655785
 20
7239.829594977634
 30
0.0
 11
18966.24524713276
 21
7239.829594977634
 31
0.0
  0
LINE
  5
137
330
6C
100
AcDbEntity
  8
Visible (ISO)
100
AcDbLine
 10
19072.31126431074
 20
7247.829594977632
 30
0.0
 11
18980.38738275648
 21
7247.829594977632
 31
0.0
  0
LINE
  5
138
330
6C
100
AcDbEntity
  8
Visible (ISO)
100
AcDbLine
 10
18980.38738275648
 20
7239.829594977634
 30
0.0
 11
19072.31126431074
 21
7239.829594977634
 31
0.0
  0
LINE
  5
139
330
6C
100
AcDbEntity
  8
Visible (ISO)
100
AcDbLine
 10
16274.32136557848
 20
7239.829594977632
 30
0.0
 11
16271.39243339034
 21
7239.829594977632
 31
0.0
  0
LINE
  5
13A
330
6C
100
AcDbEntity
  8
Visible Narrow (ISO)
100
AcDbLine
 10
16274.32136557848
 20
7240.229594977633
 30
0.0
 11
16274.32136557848
 21
7247.429594977631
 31
0.0
  0
LINE
  5
13B
330
6C
100
AcDbEntity
  8
Visible (ISO)
100
AcDbLine
 10
16271.39243339034
 20
7247.829594977632
 30
0.0
 11
16274.32136557848
 21
7247.829594977632
 31
0.0
  0
LINE
  5
13C
330
6C
100
AcDbEntity
  8
Visible (ISO)
100
AcDbLine
 10
16366.24524713273
 20
7247.829594977632
 30
0.0
 11
16380.38738275646
 21
7247.829594977632
 31
0.0
  0
LINE
  5
13D
330
6C
100
AcDbEntity
  8
Visible (ISO)
100
AcDbLine
 10
16472.31126431071
 20
7247.829594977634
 30
0.0
 11
16475.24019649885
 21
7247.829594977634
 31
0.0
  0
LINE
  5
13E
330
6C
100
AcDbEntity
  8
Visible Narrow (ISO)
100
AcDbLine
 10
16366.24524713273
 20
7247.429594977631
 30
0.0
 11
16366.24524713273
 21
7240.22959497763
 31
0.0
  0
LINE
  5
13F
330
6C
100
AcDbEntity
  8
Visible (ISO)
100
AcDbLine
 10
16380.38738275646
 20
7239.829594977632
 30
0.0
 11
16366.24524713273
 21
7239.829594977632
 31
0.0
  0
LINE
  5
140
330
6C
100
AcDbEntity
  8
Visible Narrow (ISO)
100
AcDbLine
 10
16380.38738275646
 20
7240.22959497763
 30
0.0
 11
16380.38738275646
 21
7247.429594977631
 31
0.0
  0
LINE
  5
141
330
6C
100
AcDbEntity
  8
Visible Narrow (ISO)
100
AcDbLine
 10
16472.31126431071
 20
7247.429594977631
 30
0.0
 11
16472.31126431071
 21
7240.229594977633
 31
0.0
  0
LINE
  5
142
330
6C
100
AcDbEntity
  8
Visible (ISO)
100
AcDbLine
 10
16475.24019649885
 20
7239.829594977634
 30
0.0
 11
16472.31126431071
 21
7239.829594977634
 31
0.0
  0
LINE
  5
143
330
6C
100
AcDbEntity
  8
Visible (ISO)
100
AcDbLine
 10
16271.39243339034
 20
7247.829594977632
 30
0.0
 11
16271.39243339034
 21
7239.829594977632
 31
0.0
  0
LINE
  5
144
330
6C
100
AcDbEntity
  8
Visible (ISO)
100
AcDbLine
 10
16475.24019649884
 20
7239.829594977634
 30
0.0
 11
16475.24019649884
 21
7247.829594977634
 31
0.0
  0
LINE
  5
145
330
6C
100
AcDbEntity
  8
Visible (ISO)
100
AcDbLine
 10
16366.24524713273
 20
7247.829594977632
 30
0.0
 11
16274.32136557848
 21
7247.829594977632
 31
0.0
  0
LINE
  5
146
330
6C
100
AcDbEntity
  8
Visible (ISO)
100
AcDbLine
 10
16472.31126431071
 20
7247.829594977632
 30
0.0
 11
16380.38738275646
 21
7247.829594977632
 31
0.0
  0
LINE
  5
147
330
6C
100
AcDbEntity
  8
Visible (ISO)
100
AcDbLine
 10
16380.38738275646
 20
7239.829594977632
 30
0.0
 11
16472.31126431071
 21
7239.829594977632
 31
0.0
  0
LINE
  5
148
330
6C
100
AcDbEntity
  8
Visible (ISO)
100
AcDbLine
 10
16274.32136557848
 20
7239.829594977632
 30
0.0
 11
16366.24524713273
 21
7239.829594977632
 31
0.0
  0
LINE
  5
149
330
6C
100
AcDbEntity
  8
Visible Narrow (ISO)
100
AcDbLine
 10
18977.45288961456
 20
7510.350945958427
 30
0.0
 11
18975.54370130536
 21
7508.441757649221
 31
0.0
  0
LINE
  5
14A
330
6C
100
AcDbEntity
  8
Visible (ISO)
100
AcDbLine
 10
18975.43763528818
 20
7508.335691632044
 30
0.0
 11
18995.94373194259
 21
7487.829594977634
 31
0.0
  0
LINE
  5
14B
330
6C
100
AcDbEntity
  8
Visible (ISO)
100
AcDbLine
 10
18998.06505228615
 20
7489.950915321194
 30
0.0
 11
18995.94373194259
 21
7487.829594977634
 31
0.0
  0
LINE
  5
14C
330
6C
100
AcDbEntity
  8
Visible (ISO)
100
AcDbLine
 10
18977.55895563174
 20
7510.457011975603
 30
0.0
 11
18998.06505228615
 21
7489.950915321194
 31
0.0
  0
LINE
  5
14D
330
6C
100
AcDbEntity
  8
Visible (ISO)
100
AcDbLine
 10
18950.68889794665
 20
7487.829594977634
 30
0.0
 11
18971.19499460106
 21
7508.335691632044
 31
0.0
  0
LINE
  5
14E
330
6C
100
AcDbEntity
  8
Visible Narrow (ISO)
100
AcDbLine
 10
18969.17974027468
 20
7510.350945958427
 30
0.0
 11
18971.08892858388
 21
7508.441757649221
 31
0.0
  0
LINE
  5
14F
330
6C
100
AcDbEntity
  8
Visible (ISO)
100
AcDbLine
 10
18948.56757760309
 20
7489.950915321194
 30
0.0
 11
18969.0736742575
 21
7510.457011975603
 31
0.0
  0
LINE
  5
150
330
6C
100
AcDbEntity
  8
Visible (ISO)
100
AcDbLine
 10
18948.56757760309
 20
7489.950915321194
 30
0.0
 11
18950.68889794665
 21
7487.829594977634
 31
0.0
  0
ARC
  5
151
330
6C
100
AcDbEntity
  8
Visible (ISO)
100
AcDbCircle
 10
18973.31631494462
 20
7506.214371288483
 30
0.0
 40
6.0
100
AcDbArc
 50
44.99999999999401
 51
135.000000000018
  0
ARC
  5
152
330
6C
100
AcDbEntity
  8
Visible (ISO)
100
AcDbCircle
 10
18973.31631494462
 20
7506.214371288483
 30
0.0
 40
3.000000000000001
100
AcDbArc
 50
45.00000000001199
 51
134.999999999988
  0
LINE
  5
153
330
6C
100
AcDbEntity
  8
Visible Narrow (ISO)
100
AcDbLine
 10
19025.81631494462
 20
7510.457011975613
 30
0.0
 11
19070.81631494462
 21
7510.457011975613
 31
0.0
  0
LINE
  5
154
330
6C
100
AcDbEntity
  8
Visible (ISO)
100
AcDbLine
 10
19073.31631494462
 20
7512.214371288493
 30
0.0
 11
19073.31631494462
 21
7510.457011975612
 31
0.0
  0
LINE
  5
155
330
6C
100
AcDbEntity
  8
Visible (ISO)
100
AcDbLine
 10
19073.31631494462
 20
7512.214371288493
 30
0.0
 11
19023.31631494462
 21
7512.214371288493
 31
0.0
  0
LINE
  5
156
330
6C
100
AcDbEntity
  8
Visible (ISO)
100
AcDbLine
 10
19023.31631494462
 20
7487.829594977643
 30
0.0
 11
19073.31631494462
 21
7487.829594977643
 31
0.0
  0
LINE
  5
157
330
6C
100
AcDbEntity
  8
Visible (ISO)
100
AcDbLine
 10
19073.31631494462
 20
7489.950915321202
 30
0.0
 11
19073.31631494462
 21
7510.457011975613
 31
0.0
  0
LINE
  5
158
330
6C
100
AcDbEntity
  8
Visible (ISO)
100
AcDbLine
 10
19073.31631494462
 20
7489.950915321202
 30
0.0
 11
19073.31631494462
 21
7487.829594977643
 31
0.0
  0
LINE
  5
159
330
6C
100
AcDbEntity
  8
Visible (ISO)
100
AcDbLine
 10
19073.31631494462
 20
7489.950915321202
 30
0.0
 11
19023.31631494462
 21
7489.950915321202
 31
0.0
  0
LINE
  5
15A
330
6C
100
AcDbEntity
  8
Visible (ISO)
100
AcDbLine
 10
18873.31631494462
 20
7489.950915321202
 30
0.0
 11
18873.31631494462
 21
7487.829594977643
 31
0.0
  0
LINE
  5
15B
330
6C
100
AcDbEntity
  8
Visible (ISO)
100
AcDbLine
 10
18873.31631494462
 20
7510.457011975613
 30
0.0
 11
18873.31631494462
 21
7489.950915321202
 31
0.0
  0
LINE
  5
15C
330
6C
100
AcDbEntity
  8
Visible (ISO)
100
AcDbLine
 10
18873.31631494462
 20
7487.829594977643
 30
0.0
 11
18923.31631494462
 21
7487.829594977643
 31
0.0
  0
LINE
  5
15D
330
6C
100
AcDbEntity
  8
Visible (ISO)
100
AcDbLine
 10
18873.31631494462
 20
7489.950915321202
 30
0.0
 11
18923.31631494462
 21
7489.950915321202
 31
0.0
  0
LINE
  5
15E
330
6C
100
AcDbEntity
  8
Visible Narrow (ISO)
100
AcDbLine
 10
18920.81631494462
 20
7510.457011975613
 30
0.0
 11
18875.81631494462
 21
7510.457011975613
 31
0.0
  0
LINE
  5
15F
330
6C
100
AcDbEntity
  8
Visible (ISO)
100
AcDbLine
 10
18873.31631494462
 20
7510.457011975612
 30
0.0
 11
18873.31631494462
 21
7512.214371288493
 31
0.0
  0
LINE
  5
160
330
6C
100
AcDbEntity
  8
Visible (ISO)
100
AcDbLine
 10
18873.31631494462
 20
7512.214371288493
 30
0.0
 11
18923.31631494462
 21
7512.214371288493
 31
0.0
  0
LINE
  5
161
330
6C
100
AcDbEntity
  8
Visible (ISO)
100
AcDbLine
 10
16273.31631494459
 20
7489.950915321194
 30
0.0
 11
16273.31631494459
 21
7487.829594977633
 31
0.0
  0
LINE
  5
162
330
6C
100
AcDbEntity
  8
Visible (ISO)
100
AcDbLine
 10
16273.31631494459
 20
7510.457011975603
 30
0.0
 11
16273.31631494459
 21
7489.950915321194
 31
0.0
  0
LINE
  5
163
330
6C
100
AcDbEntity
  8
Visible (ISO)
100
AcDbLine
 10
16273.31631494459
 20
7487.829594977633
 30
0.0
 11
16323.31631494459
 21
7487.829594977633
 31
0.0
  0
LINE
  5
164
330
6C
100
AcDbEntity
  8
Visible (ISO)
100
AcDbLine
 10
16273.31631494459
 20
7489.950915321194
 30
0.0
 11
16323.31631494459
 21
7489.950915321194
 31
0.0
  0
LINE
  5
165
330
6C
100
AcDbEntity
  8
Visible Narrow (ISO)
100
AcDbLine
 10
16320.81631494459
 20
7510.457011975603
 30
0.0
 11
16275.81631494459
 21
7510.457011975603
 31
0.0
  0
LINE
  5
166
330
6C
100
AcDbEntity
  8
Visible (ISO)
100
AcDbLine
 10
16273.31631494459
 20
7510.457011975603
 30
0.0
 11
16273.31631494459
 21
7512.214371288483
 31
0.0
  0
LINE
  5
167
330
6C
100
AcDbEntity
  8
Visible (ISO)
100
AcDbLine
 10
16273.31631494459
 20
7512.214371288483
 30
0.0
 11
16323.31631494459
 21
7512.214371288483
 31
0.0
  0
LINE
  5
168
330
6C
100
AcDbEntity
  8
Visible Narrow (ISO)
100
AcDbLine
 10
16425.8163149446
 20
7510.457011975603
 30
0.0
 11
16470.8163149446
 21
7510.457011975603
 31
0.0
  0
LINE
  5
169
330
6C
100
AcDbEntity
  8
Visible (ISO)
100
AcDbLine
 10
16473.31631494459
 20
7512.214371288483
 30
0.0
 11
16473.31631494459
 21
7510.457011975603
 31
0.0
  0
LINE
  5
16A
330
6C
100
AcDbEntity
  8
Visible (ISO)
100
AcDbLine
 10
16473.31631494459
 20
7512.214371288483
 30
0.0
 11
16423.3163149446
 21
7512.214371288483
 31
0.0
  0
LINE
  5
16B
330
6C
100
AcDbEntity
  8
Visible (ISO)
100
AcDbLine
 10
16423.3163149446
 20
7487.829594977633
 30
0.0
 11
16473.31631494459
 21
7487.829594977633
 31
0.0
  0
LINE
  5
16C
330
6C
100
AcDbEntity
  8
Visible (ISO)
100
AcDbLine
 10
16473.31631494459
 20
7489.950915321194
 30
0.0
 11
16473.31631494459
 21
7510.457011975603
 31
0.0
  0
LINE
  5
16D
330
6C
100
AcDbEntity
  8
Visible (ISO)
100
AcDbLine
 10
16473.31631494459
 20
7489.950915321194
 30
0.0
 11
16473.31631494459
 21
7487.829594977633
 31
0.0
  0
LINE
  5
16E
330
6C
100
AcDbEntity
  8
Visible (ISO)
100
AcDbLine
 10
16473.31631494459
 20
7489.950915321194
 30
0.0
 11
16423.3163149446
 21
7489.950915321194
 31
0.0
  0
LINE
  5
16F
330
6C
100
AcDbEntity
  8
Visible (ISO)
100
AcDbLine
 10
19023.31631494462
 20
10097.82959497763
 30
0.0
 11
19020.31631494462
 21
10097.82959497763
 31
0.0
  0
LINE
  5
170
330
6C
100
AcDbEntity
  8
Visible (ISO)
100
AcDbLine
 10
18926.31631494462
 20
10097.82959497763
 30
0.0
 11
18923.31631494462
 21
10097.82959497763
 31
0.0
  0
ARC
  5
171
330
6C
100
AcDbEntity
  8
Visible (ISO)
100
AcDbCircle
 10
18926.31631494462
 20
10099.82959497763
 30
0.0
 40
3.000000000000001
100
AcDbArc
 50
90.0
 51
180.0
  0
LINE
  5
172
330
6C
100
AcDbEntity
  8
Visible Narrow (ISO)
100
AcDbLine
 10
18926.08093765744
 20
10099.82959497763
 30
0.0
 11
18923.32556294342
 21
10099.82959497763
 31
0.0
  0
LINE
  5
173
330
6C
100
AcDbEntity
  8
Visible Narrow (ISO)
100
AcDbLine
 10
18926.31631494462
 20
10102.82034697883
 30
0.0
 11
18926.31631494462
 21
10100.06497226481
 31
0.0
  0
LINE
  5
174
330
6C
100
AcDbEntity
  8
Visible Narrow (ISO)
100
AcDbLine
 10
18926.31631494462
 20
10097.92959497763
 30
0.0
 11
18926.31631494462
 21
10099.72959497763
 31
0.0
  0
LINE
  5
175
330
6C
100
AcDbEntity
  8
Visible (ISO)
100
AcDbLine
 10
18923.31631494462
 20
10099.82959497763
 30
0.0
 11
18923.31631494462
 21
10097.82959497763
 31
0.0
  0
LINE
  5
176
330
6C
100
AcDbEntity
  8
Visible Narrow (ISO)
100
AcDbLine
 10
19020.31631494462
 20
10100.06497226481
 30
0.0
 11
19020.31631494462
 21
10102.82034697883
 31
0.0
  0
LINE
  5
177
330
6C
100
AcDbEntity
  8
Visible Narrow (ISO)
100
AcDbLine
 10
19023.30706694582
 20
10099.82959497763
 30
0.0
 11
19020.5516922318
 21
10099.82959497763
 31
0.0
  0
ARC
  5
178
330
6C
100
AcDbEntity
  8
Visible (ISO)
100
AcDbCircle
 10
19020.31631494462
 20
10099.82959497763
 30
0.0
 40
3.000000000000006
100
AcDbArc
 50
0.0
 51
90.0
  0
LINE
  5
179
330
6C
100
AcDbEntity
  8
Visible (ISO)
100
AcDbLine
 10
19023.31631494462
 20
10097.82959497763
 30
0.0
 11
19023.31631494462
 21
10099.82959497763
 31
0.0
  0
LINE
  5
17A
330
6C
100
AcDbEntity
  8
Visible Narrow (ISO)
100
AcDbLine
 10
19020.31631494462
 20
10099.72959497763
 30
0.0
 11
19020.31631494462
 21
10097.92959497763
 31
0.0
  0
LINE
  5
17B
330
6C
100
AcDbEntity
  8
Visible Narrow (ISO)
100
AcDbLine
 10
18931.01631494462
 20
10099.82959497763
 30
0.0
 11
19015.61631494462
 21
10099.82959497763
 31
0.0
  0
LINE
  5
17C
330
6C
100
AcDbEntity
  8
Visible (ISO)
100
AcDbLine
 10
19020.31631494462
 20
10102.82959497763
 30
0.0
 11
18926.31631494462
 21
10102.82959497763
 31
0.0
  0
LINE
  5
17D
330
6C
100
AcDbEntity
  8
Visible (ISO)
100
AcDbLine
 10
19020.31631494462
 20
10097.82959497763
 30
0.0
 11
18926.31631494462
 21
10097.82959497763
 31
0.0
  0
LINE
  5
17E
330
6C
100
AcDbEntity
  8
Visible (ISO)
100
AcDbLine
 10
16423.31631494459
 20
10097.82959497763
 30
0.0
 11
16420.3163149446
 21
10097.82959497763
 31
0.0
  0
LINE
  5
17F
330
6C
100
AcDbEntity
  8
Visible (ISO)
100
AcDbLine
 10
16326.31631494459
 20
10097.82959497763
 30
0.0
 11
16323.31631494459
 21
10097.82959497763
 31
0.0
  0
LINE
  5
180
330
6C
100
AcDbEntity
  8
Visible Narrow (ISO)
100
AcDbLine
 10
16420.3163149446
 20
10100.06497226481
 30
0.0
 11
16420.3163149446
 21
10102.82034697883
 31
0.0
  0
LINE
  5
181
330
6C
100
AcDbEntity
  8
Visible Narrow (ISO)
100
AcDbLine
 10
16423.30706694579
 20
10099.82959497763
 30
0.0
 11
16420.55169223178
 21
10099.82959497763
 31
0.0
  0
ARC
  5
182
330
6C
100
AcDbEntity
  8
Visible (ISO)
100
AcDbCircle
 10
16420.3163149446
 20
10099.82959497763
 30
0.0
 40
2.999999999999979
100
AcDbArc
 50
0.0
 51
90.0
  0
LINE
  5
183
330
6C
100
AcDbEntity
  8
Visible (ISO)
100
AcDbLine
 10
16423.31631494459
 20
10097.82959497763
 30
0.0
 11
16423.31631494459
 21
10099.82959497763
 31
0.0
  0
LINE
  5
184
330
6C
100
AcDbEntity
  8
Visible Narrow (ISO)
100
AcDbLine
 10
16420.3163149446
 20
10099.72959497763
 30
0.0
 11
16420.3163149446
 21
10097.92959497763
 31
0.0
  0
ARC
  5
185
330
6C
100
AcDbEntity
  8
Visible (ISO)
100
AcDbCircle
 10
16326.31631494459
 20
10099.82959497763
 30
0.0
 40
3.000000000000006
100
AcDbArc
 50
90.0
 51
180.0
  0
LINE
  5
186
330
6C
100
AcDbEntity
  8
Visible Narrow (ISO)
100
AcDbLine
 10
16326.08093765741
 20
10099.82959497763
 30
0.0
 11
16323.32556294339
 21
10099.82959497763
 31
0.0
  0
LINE
  5
187
330
6C
100
AcDbEntity
  8
Visible Narrow (ISO)
100
AcDbLine
 10
16326.31631494459
 20
10102.82034697883
 30
0.0
 11
16326.31631494459
 21
10100.06497226481
 31
0.0
  0
LINE
  5
188
330
6C
100
AcDbEntity
  8
Visible Narrow (ISO)
100
AcDbLine
 10
16326.31631494459
 20
10097.92959497763
 30
0.0
 11
16326.31631494459
 21
10099.72959497763
 31
0.0
  0
LINE
  5
189
330
6C
100
AcDbEntity
  8
Visible (ISO)
100
AcDbLine
 10
16323.31631494459
 20
10099.82959497763
 30
0.0
 11
16323.31631494459
 21
10097.82959497763
 31
0.0
  0
LINE
  5
18A
330
6C
100
AcDbEntity
  8
Visible Narrow (ISO)
100
AcDbLine
 10
16331.01631494459
 20
10099.82959497763
 30
0.0
 11
16415.61631494459
 21
10099.82959497763
 31
0.0
  0
LINE
  5
18B
330
6C
100
AcDbEntity
  8
Visible (ISO)
100
AcDbLine
 10
16420.3163149446
 20
10102.82959497763
 30
0.0
 11
16326.31631494459
 21
10102.82959497763
 31
0.0
  0
LINE
  5
18C
330
6C
100
AcDbEntity
  8
Visible (ISO)
100
AcDbLine
 10
16420.3163149446
 20
10097.82959497763
 30
0.0
 11
16326.31631494459
 21
10097.82959497763
 31
0.0
  0
LINE
  5
18D
330
6C
100
AcDbEntity
  8
Visible (ISO)
100
AcDbLine
 10
18916.11631494462
 20
9988.779594977632
 30
0.0
 11
18916.11631494462
 21
10006.87959497763
 31
0.0
  0
LINE
  5
18E
330
6C
100
AcDbEntity
  8
Visible (ISO)
100
AcDbLine
 10
18918.31631494462
 20
9988.779594977632
 30
0.0
 11
18916.11631494462
 21
9988.779594977632
 31
0.0
  0
LINE
  5
18F
330
6C
100
AcDbEntity
  8
Visible (ISO)
100
AcDbLine
 10
18918.31631494462
 20
10006.87959497763
 30
0.0
 11
18916.11631494462
 21
10006.87959497763
 31
0.0
  0
LINE
  5
190
330
6C
100
AcDbEntity
  8
Visible (ISO)
100
AcDbLine
 10
18916.11631494462
 20
10058.77959497763
 30
0.0
 11
18916.11631494462
 21
10076.87959497763
 31
0.0
  0
LINE
  5
191
330
6C
100
AcDbEntity
  8
Visible (ISO)
100
AcDbLine
 10
18918.31631494462
 20
10058.77959497763
 30
0.0
 11
18916.11631494462
 21
10058.77959497763
 31
0.0
  0
LINE
  5
192
330
6C
100
AcDbEntity
  8
Visible (ISO)
100
AcDbLine
 10
18918.31631494462
 20
10076.87959497763
 30
0.0
 11
18916.11631494462
 21
10076.87959497763
 31
0.0
  0
LINE
  5
193
330
6C
100
AcDbEntity
  8
Visible (ISO)
100
AcDbLine
 10
16430.51631494459
 20
10069.53976556985
 30
0.0
 11
16428.31631494459
 21
10068.26959497763
 31
0.0
  0
LINE
  5
194
330
6C
100
AcDbEntity
  8
Visible (ISO)
100
AcDbLine
 10
16428.31631494459
 20
10067.38959497763
 30
0.0
 11
16430.5163149446
 21
10068.65976556985
 31
0.0
  0
LINE
  5
195
330
6C
100
AcDbEntity
  8
Visible (ISO)
100
AcDbLine
 10
16430.51631494459
 20
10076.87959497763
 30
0.0
 11
16430.51631494459
 21
10069.53976556985
 31
0.0
  0
LINE
  5
196
330
6C
100
AcDbEntity
  8
Visible (ISO)
100
AcDbLine
 10
16430.51631494459
 20
10068.65976556985
 30
0.0
 11
16430.51631494459
 21
10058.77959497763
 31
0.0
  0
LINE
  5
197
330
6C
100
AcDbEntity
  8
Visible (ISO)
100
AcDbLine
 10
16428.31631494459
 20
10076.87959497763
 30
0.0
 11
16430.5163149446
 21
10076.87959497763
 31
0.0
  0
LINE
  5
198
330
6C
100
AcDbEntity
  8
Visible (ISO)
100
AcDbLine
 10
16428.31631494459
 20
10058.77959497763
 30
0.0
 11
16430.5163149446
 21
10058.77959497763
 31
0.0
  0
LINE
  5
199
330
6C
100
AcDbEntity
  8
Visible (ISO)
100
AcDbLine
 10
16430.51631494459
 20
9999.539765569847
 30
0.0
 11
16428.31631494459
 21
9998.269594977632
 31
0.0
  0
LINE
  5
19A
330
6C
100
AcDbEntity
  8
Visible (ISO)
100
AcDbLine
 10
16428.31631494459
 20
9997.389594977637
 30
0.0
 11
16430.5163149446
 21
9998.659765569852
 31
0.0
  0
LINE
  5
19B
330
6C
100
AcDbEntity
  8
Visible (ISO)
100
AcDbLine
 10
16430.51631494459
 20
10006.87959497763
 30
0.0
 11
16430.51631494459
 21
9999.539765569847
 31
0.0
  0
LINE
  5
19C
330
6C
100
AcDbEntity
  8
Visible (ISO)
100
AcDbLine
 10
16430.51631494459
 20
9998.659765569852
 30
0.0
 11
16430.51631494459
 21
9988.779594977632
 31
0.0
  0
LINE
  5
19D
330
6C
100
AcDbEntity
  8
Visible (ISO)
100
AcDbLine
 10
16428.31631494459
 20
10006.87959497763
 30
0.0
 11
16430.5163149446
 21
10006.87959497763
 31
0.0
  0
LINE
  5
19E
330
6C
100
AcDbEntity
  8
Visible (ISO)
100
AcDbLine
 10
16428.31631494459
 20
9988.779594977632
 30
0.0
 11
16430.5163149446
 21
9988.779594977632
 31
0.0
  0
LINE
  5
19F
330
6C
100
AcDbEntity
  8
Visible (ISO)
100
AcDbLine
 10
18910.61631494462
 20
9993.129594977633
 30
0.0
 11
18910.61631494462
 21
10002.52959497763
 31
0.0
  0
LINE
  5
1A0
330
6C
100
AcDbEntity
  8
Visible Narrow (ISO)
100
AcDbLine
 10
18914.66631494462
 20
10006.47186795784
 30
0.0
 11
18914.66631494462
 21
9989.187321997428
 31
0.0
  0
ARC
  5
1A1
330
6C
100
AcDbEntity
  8
Visible (ISO)
100
AcDbCircle
 10
18914.66631494462
 20
9993.129594977633
 30
0.0
 40
4.049999999999999
100
AcDbArc
 50
180.0
 51
270.0
  0
ARC
  5
1A2
330
6C
100
AcDbEntity
  8
Visible (ISO)
100
AcDbCircle
 10
18914.66631494462
 20
10002.52959497763
 30
0.0
 40
4.049999999999999
100
AcDbArc
 50
90.0
 51
180.0
  0
LINE
  5
1A3
330
6C
100
AcDbEntity
  8
Visible (ISO)
100
AcDbLine
 10
18914.66631494462
 20
10006.57959497763
 30
0.0
 11
18916.11631494462
 21
10006.57959497763
 31
0.0
  0
LINE
  5
1A4
330
6C
100
AcDbEntity
  8
Visible (ISO)
100
AcDbLine
 10
18914.66631494462
 20
9989.079594977631
 30
0.0
 11
18916.11631494462
 21
9989.079594977631
 31
0.0
  0
LINE
  5
1A5
330
6C
100
AcDbEntity
  8
Visible (ISO)
100
AcDbLine
 10
18910.61631494462
 20
10063.12959497763
 30
0.0
 11
18910.61631494462
 21
10072.52959497763
 31
0.0
  0
LINE
  5
1A6
330
6C
100
AcDbEntity
  8
Visible Narrow (ISO)
100
AcDbLine
 10
18914.66631494462
 20
10076.47186795784
 30
0.0
 11
18914.66631494462
 21
10059.18732199742
 31
0.0
  0
ARC
  5
1A7
330
6C
100
AcDbEntity
  8
Visible (ISO)
100
AcDbCircle
 10
18914.66631494462
 20
10063.12959497763
 30
0.0
 40
4.049999999999999
100
AcDbArc
 50
180.0
 51
270.0
  0
ARC
  5
1A8
330
6C
100
AcDbEntity
  8
Visible (ISO)
100
AcDbCircle
 10
18914.66631494462
 20
10072.52959497763
 30
0.0
 40
4.049999999999999
100
AcDbArc
 50
90.0
 51
180.0
  0
LINE
  5
1A9
330
6C
100
AcDbEntity
  8
Visible (ISO)
100
AcDbLine
 10
18914.66631494462
 20
10076.57959497763
 30
0.0
 11
18916.11631494462
 21
10076.57959497763
 31
0.0
  0
LINE
  5
1AA
330
6C
100
AcDbEntity
  8
Visible (ISO)
100
AcDbLine
 10
18914.66631494462
 20
10059.07959497763
 30
0.0
 11
18916.11631494462
 21
10059.07959497763
 31
0.0
  0
LINE
  5
1AB
330
6C
100
AcDbEntity
  8
Visible Narrow (ISO)
100
AcDbLine
 10
16430.1163149446
 20
10068.47352739356
 30
0.0
 11
16430.1163149446
 21
10069.26573113345
 31
0.0
  0
LINE
  5
1AC
330
6C
100
AcDbEntity
  8
Visible (ISO)
100
AcDbLine
 10
16430.5163149446
 20
10069.53976556985
 30
0.0
 11
16430.5163149446
 21
10068.65976556985
 31
0.0
  0
LINE
  5
1AD
330
6C
100
AcDbEntity
  8
Visible (ISO)
100
AcDbLine
 10
16431.96631494459
 20
10059.07959497763
 30
0.0
 11
16430.5163149446
 21
10059.07959497763
 31
0.0
  0
LINE
  5
1AE
330
6C
100
AcDbEntity
  8
Visible (ISO)
100
AcDbLine
 10
16431.96631494459
 20
10076.57959497763
 30
0.0
 11
16430.5163149446
 21
10076.57959497763
 31
0.0
  0
LINE
  5
1AF
330
6C
100
AcDbEntity
  8
Visible (ISO)
100
AcDbLine
 10
16436.0163149446
 20
10072.52959497763
 30
0.0
 11
16436.0163149446
 21
10063.12959497763
 31
0.0
  0
LINE
  5
1B0
330
6C
100
AcDbEntity
  8
Visible Narrow (ISO)
100
AcDbLine
 10
16431.96631494459
 20
10059.18732199742
 30
0.0
 11
16431.96631494459
 21
10076.47186795784
 31
0.0
  0
ARC
  5
1B1
330
6C
100
AcDbEntity
  8
Visible (ISO)
100
AcDbCircle
 10
16431.96631494459
 20
10072.52959497763
 30
0.0
 40
4.049999999999999
100
AcDbArc
 50
0.0
 51
90.0
  0
ARC
  5
1B2
330
6C
100
AcDbEntity
  8
Visible (ISO)
100
AcDbCircle
 10
16431.96631494459
 20
10063.12959497763
 30
0.0
 40
4.049999999999999
100
AcDbArc
 50
270.0
 51
0.0
  0
LINE
  5
1B3
330
6C
100
AcDbEntity
  8
Visible Narrow (ISO)
100
AcDbLine
 10
16430.1163149446
 20
9998.473527393564
 30
0.0
 11
16430.1163149446
 21
9999.265731133455
 31
0.0
  0
LINE
  5
1B4
330
6C
100
AcDbEntity
  8
Visible (ISO)
100
AcDbLine
 10
16430.5163149446
 20
9999.539765569847
 30
0.0
 11
16430.5163149446
 21
9998.659765569852
 31
0.0
  0
LINE
  5
1B5
330
6C
100
AcDbEntity
  8
Visible (ISO)
100
AcDbLine
 10
16431.96631494459
 20
9989.079594977631
 30
0.0
 11
16430.5163149446
 21
9989.079594977631
 31
0.0
  0
LINE
  5
1B6
330
6C
100
AcDbEntity
  8
Visible (ISO)
100
AcDbLine
 10
16431.96631494459
 20
10006.57959497763
 30
0.0
 11
16430.5163149446
 21
10006.57959497763
 31
0.0
  0
LINE
  5
1B7
330
6C
100
AcDbEntity
  8
Visible (ISO)
100
AcDbLine
 10
16436.0163149446
 20
10002.52959497763
 30
0.0
 11
16436.0163149446
 21
9993.129594977633
 31
0.0
  0
LINE
  5
1B8
330
6C
100
AcDbEntity
  8
Visible Narrow (ISO)
100
AcDbLine
 10
16431.96631494459
 20
9989.187321997428
 30
0.0
 11
16431.96631494459
 21
10006.47186795784
 31
0.0
  0
ARC
  5
1B9
330
6C
100
AcDbEntity
  8
Visible (ISO)
100
AcDbCircle
 10
16431.96631494459
 20
10002.52959497763
 30
0.0
 40
4.049999999999999
100
AcDbArc
 50
0.0
 51
90.0
  0
ARC
  5
1BA
330
6C
100
AcDbEntity
  8
Visible (ISO)
100
AcDbCircle
 10
16431.96631494459
 20
9993.129594977633
 30
0.0
 40
4.049999999999999
100
AcDbArc
 50
270.0
 51
0.0
  0
SPLINE
  5
1BB
330
6C
100
AcDbEntity
  8
Visible (ISO)
100
AcDbSpline
210
0.0
220
0.0
230
1.0
 70
    12
 71
     3
 72
    18
 73
    14
 74
     0
 42
0.0000000001
 43
0.0000000001
 40
-2.594328800678394
 40
-2.594328800678394
 40
-2.594328800678394
 40
-2.594328800678394
 40
-2.441745828813961
 40
-2.441745828813961
 40
-2.078685157093557
 40
-2.078685157093557
 40
-1.716674626548986
 40
-1.716674626548986
 40
-1.369693895492524
 40
-1.369693895492524
 40
-1.029645560627019
 40
-1.029645560627019
 40
-0.9690571664186078
 40
-0.9690571664186078
 40
-0.9690571664186078
 40
-0.9690571664186078
 10
16452.99948444502
 20
7239.721098810547
 30
0.0
 41
1.0
 10
16452.9988832813
 20
7239.721092810153
 30
0.0
 41
1.0
 10
16453.07239531901
 20
7239.719265071399
 30
0.0
 41
1.0
 10
16453.57564927504
 20
7239.706975700626
 30
0.0
 41
1.0
 10
16454.35382758888
 20
7239.687643289683
 30
0.0
 41
1.0
 10
16456.39690733182
 20
7239.628027359391
 30
0.0
 41
1.0
 10
16457.65248576543
 20
7239.58742657138
 30
0.0
 41
1.0
 10
16460.01164102706
 20
7239.502190877747
 30
0.0
 41
1.0
 10
16461.11192719845
 20
7239.458339286612
 30
0.0
 41
1.0
 10
16462.72396507537
 20
7239.391228794821
 30
0.0
 41
1.0
 10
16463.24258674757
 20
7239.36819139804
 30
0.0
 41
1.0
 10
16463.39976603528
 20
7239.361266822111
 30
0.0
 41
1.0
 10
16463.41135544142
 20
7239.360763334893
 30
0.0
 41
1.0
 10
16463.41101443574
 20
7239.360786462803
 30
0.0
 41
1.0
  0
SPLINE
  5
1BC
330
6C
100
AcDbEntity
  8
Visible (ISO)
100
AcDbSpline
210
0.0
220
0.0
230
1.0
 70
    12
 71
     3
 72
    18
 73
    14
 74
     0
 42
0.0000000001
 43
0.0000000001
 40
-1.630024975635233
 40
-1.630024975635233
 40
-1.630024975635233
 40
-1.630024975635233
 40
-1.371840256717065
 40
-1.371840256717065
 40
-1.030725615518615
 40
-1.030725615518615
 40
-0.7218612798990212
 40
-0.7218612798990212
 40
-0.4444969964651603
 40
-0.4444969964651603
 40
-0.1709603832558746
 40
-0.1709603832558746
 40
-0.0000000000000711
 40
-0.0000000000000711
 40
-0.0000000000000711
 40
-0.0000000000000711
 10
16283.20656249792
 20
7239.360101726474
 30
0.0
 41
1.0
 10
16283.20857338961
 20
7239.360238169121
 30
0.0
 41
1.0
 10
16283.42504866659
 20
7239.369809412025
 30
0.0
 41
1.0
 10
16284.38525101227
 20
7239.411190740338
 30
0.0
 41
1.0
 10
16285.27210711191
 20
7239.448649201796
 30
0.0
 41
1.0
 10
16287.26659378651
 20
7239.526053635235
 30
0.0
 41
1.0
 10
16288.34048690364
 20
7239.565000375375
 30
0.0
 41
1.0
 10
16290.27553117824
 20
7239.628993222125
 30
0.0
 41
1.0
 10
16291.14456233101
 20
7239.655038488631
 30
0.0
 41
1.0
 10
16292.54191304911
 20
7239.694040572337
 30
0.0
 41
1.0
 10
16293.07290810562
 20
7239.70731153155
 30
0.0
 41
1.0
 10
16293.55578586631
 20
7239.719150126572
 30
0.0
 41
1.0
 10
16293.65122359999
 20
7239.721398890218
 30
0.0
 41
1.0
 10
16293.65122359999
 20
7239.721398890218
 30
0.0
 41
1.0
  0
SPLINE
  5
1BD
330
6C
100
AcDbEntity
  8
Visible (ISO)
100
AcDbSpline
210
0.0
220
0.0
230
1.0
 70
    12
 71
     3
 72
    20
 73
    16
 74
     0
 42
0.0000000001
 43
0.0000000001
 40
-2.593825353815818
 40
-2.593825353815818
 40
-2.593825353815818
 40
-2.593825353815818
 40
-2.444876729396951
 40
-2.444876729396951
 40
-2.081458385648389
 40
-2.081458385648389
 40
-1.720207435400531
 40
-1.720207435400531
 40
-1.371840256718823
 40
-1.371840256718823
 40
-1.030725615519344
 40
-1.030725615519344
 40
-0.7218612799002005
 40
-0.7218612799002005
 40
-0.666227092110856
 40
-0.666227092110856
 40
-0.666227092110856
 40
-0.666227092110856
 10
16368.31928257073
 20
7239.616279435401
 30
0.0
 41
1.0
 10
16368.17761928837
 20
7239.60098185739
 30
0.0
 41
1.0
 10
16368.10334578376
 20
7239.584403005391
 30
0.0
 41
1.0
 10
16368.10376368143
 20
7239.524429794062
 30
0.0
 41
1.0
 10
16368.54652004706
 20
7239.477281549344
 30
0.0
 41
1.0
 10
16370.11066335006
 20
7239.401039651905
 30
0.0
 41
1.0
 10
16371.22228680782
 20
7239.372694732814
 30
0.0
 41
1.0
 10
16373.56391266033
 20
7239.35455912808
 30
0.0
 41
1.0
 10
16374.78026545957
 20
7239.363582357192
 30
0.0
 41
1.0
 10
16376.80945515613
 20
7239.411190740337
 30
0.0
 41
1.0
 10
16377.62452037623
 20
7239.448649201794
 30
0.0
 41
1.0
 10
16378.50296031191
 20
7239.526053635234
 30
0.0
 41
1.0
 10
16378.63003540561
 20
7239.565000375375
 30
0.0
 41
1.0
 10
16378.41209099189
 20
7239.604789115451
 30
0.0
 41
1.0
 10
16378.36878538313
 20
7239.610691894537
 30
0.0
 41
1.0
 10
16378.31589656719
 20
7239.616406845184
 30
0.0
 41
1.0
  0
LINE
  5
1BE
330
6C
100
AcDbEntity
  8
Visible Narrow (ISO)
100
AcDbLine
 10
16620.23840009338
 20
7164.829594977632
 30
0.0
 11
16126.39422979581
 21
7164.829594977632
 31
0.0
  0
LINE
  5
1BF
330
6C
100
AcDbEntity
  8
Visible (ISO)
100
AcDbLine
 10
16623.3163149446
 20
7089.829594977633
 30
0.0
 11
16123.31631494459
 21
7089.829594977633
 31
0.0
  0
SPLINE
  5
1C0
330
6C
100
AcDbEntity
  8
Visible (ISO)
100
AcDbSpline
210
0.0
220
0.0
230
1.0
 70
     8
 71
     3
 72
    16
 73
    12
 74
     0
 42
0.0000000001
 43
0.0000000001
 40
1.570796326794896
 40
1.570796326794896
 40
1.570796326794896
 40
1.570796326794896
 40
1.581540484233951
 40
1.581540484233951
 40
1.592284641673008
 40
1.592284641673008
 40
1.603028799112063
 40
1.603028799112063
 40
1.61377295655112
 40
1.61377295655112
 40
1.624517113990175
 40
1.624517113990175
 40
1.624517113990175
 40
1.624517113990175
 10
16303.31631494459
 20
7239.829594977634
 30
0.0
 10
16302.67166549825
 20
7239.829594977634
 30
0.0
 10
16302.02701605205
 20
7239.828152002265
 30
0.0
 10
16300.73779157499
 20
7239.822380267357
 30
0.0
 10
16300.09321654442
 20
7239.818051507821
 30
0.0
 10
16298.80421530567
 20
7239.806508704271
 30
0.0
 10
16298.15978909777
 20
7239.799294660262
 30
0.0
 10
16296.87115989421
 20
7239.781982120522
 30
0.0
 10
16296.22695689884
 20
7239.771883624799
 30
0.0
 10
16294.93884848444
 20
7239.748803347358
 30
0.0
 10
16294.29494306569
 20
7239.735821565647
 30
0.0
 10
16293.65122359999
 20
7239.721398890218
 30
0.0
  0
SPLINE
  5
1C1
330
6C
100
AcDbEntity
  8
Visible (ISO)
100
AcDbSpline
210
0.0
220
0.0
230
1.0
 70
     8
 71
     3
 72
    18
 73
    14
 74
     0
 42
0.0000000001
 43
0.0000000001
 40
1.682759995807403
 40
1.682759995807403
 40
1.682759995807403
 40
1.682759995807403
 40
1.974526527363881
 40
1.974526527363881
 40
2.266293058920359
 40
2.266293058920359
 40
2.558059590476837
 40
2.558059590476837
 40
2.849826122033316
 40
2.849826122033316
 40
3.035671384981434
 40
3.035671384981434
 40
3.141592653589792
 40
3.141592653589792
 40
3.141592653589792
 40
3.141592653589792
 10
16283.20493497501
 20
7239.35999099035
 30
0.0
 10
16265.80855486288
 20
7238.545014937774
 30
0.0
 10
16248.70161364762
 20
7236.665265563175
 30
0.0
 10
16216.5045240037
 20
7230.934221520058
 30
0.0
 10
16201.41824856446
 20
7227.083616239098
 30
0.0
 10
16174.53830543985
 20
7217.735899770488
 30
0.0
 10
16162.74787114407
 20
7212.239913020091
 30
0.0
 10
16143.45711587114
 20
7200.065644777726
 30
0.0
 10
16135.95911537984
 20
7193.388827729055
 30
0.0
 10
16127.7161697095
 20
7181.953162718579
 30
0.0
 10
16125.50400029394
 20
7177.378936627808
 30
0.0
 10
16123.65320872855
 20
7170.125652855756
 30
0.0
 10
16123.31631494459
 20
7167.477626692842
 30
0.0
 10
16123.31631494459
 20
7164.829594977634
 30
0.0
  0
SPLINE
  5
1C2
330
6C
100
AcDbEntity
  8
Visible (ISO)
100
AcDbSpline
210
0.0
220
0.0
230
1.0
 70
     8
 71
     3
 72
    16
 73
    12
 74
     0
 42
0.0000000001
 43
0.0000000001
 40
1.570796326794896
 40
1.570796326794896
 40
1.570796326794896
 40
1.570796326794896
 40
1.581557053784455
 40
1.581557053784455
 40
1.592317780774014
 40
1.592317780774014
 40
1.603078507763571
 40
1.603078507763571
 40
1.613839234753131
 40
1.613839234753131
 40
1.624599961742689
 40
1.624599961742689
 40
1.624599961742689
 40
1.624599961742689
 10
16443.3163149446
 20
7239.829594977634
 30
0.0
 10
16443.96195856397
 20
7239.829594977634
 30
0.0
 10
16444.6076021832
 20
7239.828147548101
 30
0.0
 10
16445.8988146615
 20
7239.822357997566
 30
0.0
 10
16446.54438352027
 20
7239.818015876567
 30
0.0
 10
16447.83537172588
 20
7239.806437445884
 30
0.0
 10
16448.48079107243
 20
7239.7992011362
 30
0.0
 10
16449.77140551907
 20
7239.78183516606
 30
0.0
 10
16450.41660061889
 20
7239.771705505603
 30
0.0
 10
16451.70669186359
 20
7239.748554006848
 30
0.0
 10
16452.35158800817
 20
7239.735532168551
 30
0.0
 10
16452.99629733834
 20
7239.721064995244
 30
0.0
  0
SPLINE
  5
1C3
330
6C
100
AcDbEntity
  8
Visible (ISO)
100
AcDbSpline
210
0.0
220
0.0
230
1.0
 70
     8
 71
     3
 72
    18
 73
    14
 74
     0
 42
0.0000000001
 43
0.0000000001
 40
1.682670543297434
 40
1.682670543297434
 40
1.682670543297434
 40
1.682670543297434
 40
1.974454965355905
 40
1.974454965355905
 40
2.266239387414378
 40
2.266239387414378
 40
2.558023809472849
 40
2.558023809472849
 40
2.849808231531321
 40
2.849808231531321
 40
3.035659750706421
 40
3.035659750706421
 40
3.141592653589792
 40
3.141592653589792
 40
3.141592653589792
 40
3.141592653589792
 10
16463.41169419935
 20
7239.360740281084
 30
0.0
 10
16480.80931592553
 20
7238.54636269471
 30
0.0
 10
16497.9176912515
 20
7236.667069531542
 30
0.0
 10
16530.1177394303
 20
7230.936634183386
 30
0.0
 10
16545.20553798964
 20
7227.086181481478
 30
0.0
 10
16572.08833346467
 20
7217.738493000734
 30
0.0
 10
16583.88009585601
 20
7212.242381931038
 30
0.0
 10
16603.1730795068
 20
7200.067654814995
 30
0.0
 10
16610.67197944423
 20
7193.390503625646
 30
0.0
 10
16618.91583289406
 20
7181.954321910584
 30
0.0
 10
16621.12823948715
 20
7177.37995412145
 30
0.0
 10
16622.9793470795
 20
7170.126234566456
 30
0.0
 10
16623.3163149446
 20
7167.477917549716
 30
0.0
 10
16623.3163149446
 20
7164.829594977634
 30
0.0
  0
LINE
  5
1C4
330
6C
100
AcDbEntity
  8
Visible (ISO)
100
AcDbLine
 10
16123.31631494459
 20
7089.829594977633
 30
0.0
 11
16123.31631494459
 21
7164.829594977634
 31
0.0
  0
LINE
  5
1C5
330
6C
100
AcDbEntity
  8
Visible (ISO)
100
AcDbLine
 10
16623.3163149446
 20
7089.829594977633
 30
0.0
 11
16623.3163149446
 21
7164.829594977634
 31
0.0
  0
SPLINE
  5
1C6
330
6C
100
AcDbEntity
  8
Visible (ISO)
100
AcDbSpline
210
0.0
220
0.0
230
1.0
 70
    12
 71
     3
 72
    18
 73
    14
 74
     0
 42
0.0000000001
 43
0.0000000001
 40
-2.594328800678448
 40
-2.594328800678448
 40
-2.594328800678448
 40
-2.594328800678448
 40
-2.441745828813961
 40
-2.441745828813961
 40
-2.078685157093557
 40
-2.078685157093557
 40
-1.716674626548986
 40
-1.716674626548986
 40
-1.369693895492524
 40
-1.369693895492524
 40
-1.029645560627019
 40
-1.029645560627019
 40
-0.9690571664185462
 40
-0.9690571664185462
 40
-0.9690571664185462
 40
-0.9690571664185462
 10
19052.99948444502
 20
7239.721098810547
 30
0.0
 41
1.0
 10
19052.9988832813
 20
7239.721092810153
 30
0.0
 41
1.0
 10
19053.07239531901
 20
7239.719265071399
 30
0.0
 41
1.0
 10
19053.57564927505
 20
7239.706975700626
 30
0.0
 41
1.0
 10
19054.35382758888
 20
7239.687643289683
 30
0.0
 41
1.0
 10
19056.39690733183
 20
7239.628027359391
 30
0.0
 41
1.0
 10
19057.65248576543
 20
7239.58742657138
 30
0.0
 41
1.0
 10
19060.01164102706
 20
7239.502190877747
 30
0.0
 41
1.0
 10
19061.11192719846
 20
7239.458339286612
 30
0.0
 41
1.0
 10
19062.72396507537
 20
7239.391228794821
 30
0.0
 41
1.0
 10
19063.24258674757
 20
7239.36819139804
 30
0.0
 41
1.0
 10
19063.39976603528
 20
7239.361266822111
 30
0.0
 41
1.0
 10
19063.41135544142
 20
7239.360763334893
 30
0.0
 41
1.0
 10
19063.41101443574
 20
7239.360786462803
 30
0.0
 41
1.0
  0
SPLINE
  5
1C7
330
6C
100
AcDbEntity
  8
Visible (ISO)
100
AcDbSpline
210
0.0
220
0.0
230
1.0
 70
    12
 71
     3
 72
    18
 73
    14
 74
     0
 42
0.0000000001
 43
0.0000000001
 40
-1.630024975635173
 40
-1.630024975635173
 40
-1.630024975635173
 40
-1.630024975635173
 40
-1.371840256717065
 40
-1.371840256717065
 40
-1.030725615518615
 40
-1.030725615518615
 40
-0.7218612798990212
 40
-0.7218612798990212
 40
-0.4444969964651603
 40
-0.4444969964651603
 40
-0.1709603832558746
 40
-0.1709603832558746
 40
-0.0000000000000711
 40
-0.0000000000000711
 40
-0.0000000000000711
 40
-0.0000000000000711
 10
18883.20656249792
 20
7239.360101726474
 30
0.0
 41
1.0
 10
18883.20857338961
 20
7239.360238169121
 30
0.0
 41
1.0
 10
18883.42504866659
 20
7239.369809412025
 30
0.0
 41
1.0
 10
18884.38525101227
 20
7239.411190740338
 30
0.0
 41
1.0
 10
18885.27210711191
 20
7239.448649201796
 30
0.0
 41
1.0
 10
18887.26659378651
 20
7239.526053635235
 30
0.0
 41
1.0
 10
18888.34048690364
 20
7239.565000375375
 30
0.0
 41
1.0
 10
18890.27553117824
 20
7239.628993222125
 30
0.0
 41
1.0
 10
18891.14456233101
 20
7239.655038488631
 30
0.0
 41
1.0
 10
18892.5419130491
 20
7239.694040572337
 30
0.0
 41
1.0
 10
18893.07290810561
 20
7239.70731153155
 30
0.0
 41
1.0
 10
18893.55578586631
 20
7239.719150126572
 30
0.0
 41
1.0
 10
18893.65122359999
 20
7239.721398890218
 30
0.0
 41
1.0
 10
18893.65122359999
 20
7239.721398890218
 30
0.0
 41
1.0
  0
SPLINE
  5
1C8
330
6C
100
AcDbEntity
  8
Visible (ISO)
100
AcDbSpline
210
0.0
220
0.0
230
1.0
 70
    12
 71
     3
 72
    20
 73
    16
 74
     0
 42
0.0000000001
 43
0.0000000001
 40
-2.59382535381611
 40
-2.59382535381611
 40
-2.59382535381611
 40
-2.59382535381611
 40
-2.444876729396951
 40
-2.444876729396951
 40
-2.081458385648389
 40
-2.081458385648389
 40
-1.720207435400531
 40
-1.720207435400531
 40
-1.371840256718823
 40
-1.371840256718823
 40
-1.030725615519344
 40
-1.030725615519344
 40
-0.7218612799002005
 40
-0.7218612799002005
 40
-0.6662270921112211
 40
-0.6662270921112211
 40
-0.6662270921112211
 40
-0.6662270921112211
 10
18968.31928257074
 20
7239.616279435401
 30
0.0
 41
1.0
 10
18968.17761928837
 20
7239.60098185739
 30
0.0
 41
1.0
 10
18968.10334578376
 20
7239.584403005391
 30
0.0
 41
1.0
 10
18968.10376368143
 20
7239.524429794062
 30
0.0
 41
1.0
 10
18968.54652004706
 20
7239.477281549344
 30
0.0
 41
1.0
 10
18970.11066335006
 20
7239.401039651905
 30
0.0
 41
1.0
 10
18971.22228680783
 20
7239.372694732814
 30
0.0
 41
1.0
 10
18973.56391266033
 20
7239.35455912808
 30
0.0
 41
1.0
 10
18974.78026545957
 20
7239.363582357192
 30
0.0
 41
1.0
 10
18976.80945515613
 20
7239.411190740337
 30
0.0
 41
1.0
 10
18977.62452037623
 20
7239.448649201794
 30
0.0
 41
1.0
 10
18978.50296031191
 20
7239.526053635234
 30
0.0
 41
1.0
 10
18978.63003540561
 20
7239.565000375375
 30
0.0
 41
1.0
 10
18978.4120909919
 20
7239.604789115451
 30
0.0
 41
1.0
 10
18978.36878538313
 20
7239.610691894537
 30
0.0
 41
1.0
 10
18978.31589656719
 20
7239.616406845184
 30
0.0
 41
1.0
  0
LINE
  5
1C9
330
6C
100
AcDbEntity
  8
Visible Narrow (ISO)
100
AcDbLine
 10
19220.23840009338
 20
7164.829594977632
 30
0.0
 11
18726.39422979581
 21
7164.829594977632
 31
0.0
  0
LINE
  5
1CA
330
6C
100
AcDbEntity
  8
Visible (ISO)
100
AcDbLine
 10
19223.3163149446
 20
7089.829594977633
 30
0.0
 11
18723.3163149446
 21
7089.829594977633
 31
0.0
  0
SPLINE
  5
1CB
330
6C
100
AcDbEntity
  8
Visible (ISO)
100
AcDbSpline
210
0.0
220
0.0
230
1.0
 70
     8
 71
     3
 72
    16
 73
    12
 74
     0
 42
0.0000000001
 43
0.0000000001
 40
1.570796326794896
 40
1.570796326794896
 40
1.570796326794896
 40
1.570796326794896
 40
1.581540484233951
 40
1.581540484233951
 40
1.592284641673008
 40
1.592284641673008
 40
1.603028799112063
 40
1.603028799112063
 40
1.61377295655112
 40
1.61377295655112
 40
1.624517113990175
 40
1.624517113990175
 40
1.624517113990175
 40
1.624517113990175
 10
18903.3163149446
 20
7239.829594977634
 30
0.0
 10
18902.67166549825
 20
7239.829594977634
 30
0.0
 10
18902.02701605205
 20
7239.828152002265
 30
0.0
 10
18900.737791575
 20
7239.822380267357
 30
0.0
 10
18900.09321654443
 20
7239.818051507821
 30
0.0
 10
18898.80421530567
 20
7239.806508704271
 30
0.0
 10
18898.15978909776
 20
7239.799294660262
 30
0.0
 10
18896.87115989421
 20
7239.781982120522
 30
0.0
 10
18896.22695689884
 20
7239.771883624799
 30
0.0
 10
18894.93884848444
 20
7239.748803347358
 30
0.0
 10
18894.29494306569
 20
7239.735821565647
 30
0.0
 10
18893.65122359999
 20
7239.721398890218
 30
0.0
  0
SPLINE
  5
1CC
330
6C
100
AcDbEntity
  8
Visible (ISO)
100
AcDbSpline
210
0.0
220
0.0
230
1.0
 70
     8
 71
     3
 72
    18
 73
    14
 74
     0
 42
0.0000000001
 43
0.0000000001
 40
1.682759995807405
 40
1.682759995807405
 40
1.682759995807405
 40
1.682759995807405
 40
1.974526527363881
 40
1.974526527363881
 40
2.266293058920359
 40
2.266293058920359
 40
2.558059590476836
 40
2.558059590476836
 40
2.849826122033314
 40
2.849826122033314
 40
3.035671384981434
 40
3.035671384981434
 40
3.141592653589792
 40
3.141592653589792
 40
3.141592653589792
 40
3.141592653589792
 10
18883.20493497501
 20
7239.35999099035
 30
0.0
 10
18865.80855486289
 20
7238.545014937774
 30
0.0
 10
18848.70161364762
 20
7236.665265563175
 30
0.0
 10
18816.5045240037
 20
7230.934221520058
 30
0.0
 10
18801.41824856447
 20
7227.083616239098
 30
0.0
 10
18774.53830543985
 20
7217.735899770488
 30
0.0
 10
18762.74787114407
 20
7212.239913020093
 30
0.0
 10
18743.45711587114
 20
7200.065644777726
 30
0.0
 10
18735.95911537984
 20
7193.388827729055
 30
0.0
 10
18727.7161697095
 20
7181.953162718579
 30
0.0
 10
18725.50400029394
 20
7177.378936627808
 30
0.0
 10
18723.65320872855
 20
7170.125652855756
 30
0.0
 10
18723.3163149446
 20
7167.477626692842
 30
0.0
 10
18723.3163149446
 20
7164.829594977634
 30
0.0
  0
SPLINE
  5
1CD
330
6C
100
AcDbEntity
  8
Visible (ISO)
100
AcDbSpline
210
0.0
220
0.0
230
1.0
 70
     8
 71
     3
 72
    16
 73
    12
 74
     0
 42
0.0000000001
 43
0.0000000001
 40
1.570796326794896
 40
1.570796326794896
 40
1.570796326794896
 40
1.570796326794896
 40
1.581557053784455
 40
1.581557053784455
 40
1.592317780774014
 40
1.592317780774014
 40
1.603078507763571
 40
1.603078507763571
 40
1.613839234753131
 40
1.613839234753131
 40
1.624599961742689
 40
1.624599961742689
 40
1.624599961742689
 40
1.624599961742689
 10
19043.3163149446
 20
7239.829594977634
 30
0.0
 10
19043.96195856397
 20
7239.829594977634
 30
0.0
 10
19044.6076021832
 20
7239.828147548101
 30
0.0
 10
19045.8988146615
 20
7239.822357997566
 30
0.0
 10
19046.54438352028
 20
7239.818015876567
 30
0.0
 10
19047.83537172589
 20
7239.806437445884
 30
0.0
 10
19048.48079107243
 20
7239.7992011362
 30
0.0
 10
19049.77140551908
 20
7239.78183516606
 30
0.0
 10
19050.4166006189
 20
7239.771705505603
 30
0.0
 10
19051.70669186359
 20
7239.748554006848
 30
0.0
 10
19052.35158800818
 20
7239.735532168551
 30
0.0
 10
19052.99629733834
 20
7239.721064995244
 30
0.0
  0
SPLINE
  5
1CE
330
6C
100
AcDbEntity
  8
Visible (ISO)
100
AcDbSpline
210
0.0
220
0.0
230
1.0
 70
     8
 71
     3
 72
    18
 73
    14
 74
     0
 42
0.0000000001
 43
0.0000000001
 40
1.682670543297432
 40
1.682670543297432
 40
1.682670543297432
 40
1.682670543297432
 40
1.974454965355904
 40
1.974454965355904
 40
2.266239387414377
 40
2.266239387414377
 40
2.558023809472849
 40
2.558023809472849
 40
2.849808231531321
 40
2.849808231531321
 40
3.035659750706421
 40
3.035659750706421
 40
3.141592653589792
 40
3.141592653589792
 40
3.141592653589792
 40
3.141592653589792
 10
19063.41169419935
 20
7239.360740281084
 30
0.0
 10
19080.80931592554
 20
7238.54636269471
 30
0.0
 10
19097.9176912515
 20
7236.667069531542
 30
0.0
 10
19130.1177394303
 20
7230.936634183386
 30
0.0
 10
19145.20553798964
 20
7227.086181481478
 30
0.0
 10
19172.08833346467
 20
7217.738493000734
 30
0.0
 10
19183.88009585601
 20
7212.242381931038
 30
0.0
 10
19203.1730795068
 20
7200.067654814995
 30
0.0
 10
19210.67197944423
 20
7193.390503625646
 30
0.0
 10
19218.91583289406
 20
7181.954321910584
 30
0.0
 10
19221.12823948715
 20
7177.37995412145
 30
0.0
 10
19222.9793470795
 20
7170.126234566456
 30
0.0
 10
19223.3163149446
 20
7167.477917549716
 30
0.0
 10
19223.3163149446
 20
7164.829594977634
 30
0.0
  0
LINE
  5
1CF
330
6C
100
AcDbEntity
  8
Visible (ISO)
100
AcDbLine
 10
18723.3163149446
 20
7089.829594977633
 30
0.0
 11
18723.3163149446
 21
7164.829594977634
 31
0.0
  0
LINE
  5
1D0
330
6C
100
AcDbEntity
  8
Visible (ISO)
100
AcDbLine
 10
19223.3163149446
 20
7089.829594977633
 30
0.0
 11
19223.3163149446
 21
7164.829594977634
 31
0.0
  0
SPLINE
  5
1D1
330
6C
100
AcDbEntity
  8
Visible (ISO)
100
AcDbSpline
210
0.0
220
0.0
230
1.0
 70
    12
 71
     2
 72
     6
 73
     3
 74
     0
 42
0.0000000001
 43
0.0000000001
 40
0.4978532609589538
 40
0.4978532609589538
 40
0.4978532609589538
 40
0.9957065219179071
 40
0.9957065219179071
 40
0.9957065219179071
 10
16295.82471713438
 20
7256.229694977633
 30
0.0
 41
1.0
 10
16294.68593306655
 20
7256.229694977633
 30
0.0
 41
1.037954849302034
 10
16293.37097849032
 20
7255.470505599079
 30
0.0
 41
1.0
  0
LINE
  5
1D2
330
6C
100
AcDbEntity
  8
Visible (ISO)
100
AcDbLine
 10
16295.82471713438
 20
7256.229694977633
 30
0.0
 11
16288.46350120221
 21
7256.229694977633
 31
0.0
  0
SPLINE
  5
1D3
330
6C
100
AcDbEntity
  8
Visible (ISO)
100
AcDbSpline
210
0.0
220
0.0
230
1.0
 70
    12
 71
     2
 72
     6
 73
     3
 74
     0
 42
0.0000000001
 43
0.0000000001
 40
0.0
 40
0.0
 40
0.0
 40
0.4978532609589536
 40
0.4978532609589536
 40
0.4978532609589536
 10
16293.37097849032
 20
7255.470505599079
 30
0.0
 41
1.0
 10
16290.74106933787
 20
7256.229694977633
 30
0.0
 41
1.037954849302054
 10
16288.46350120221
 20
7256.229694977633
 30
0.0
 41
1.0
  0
SPLINE
  5
1D4
330
6C
100
AcDbEntity
  8
Visible (ISO)
100
AcDbSpline
210
0.0
220
0.0
230
1.0
 70
    12
 71
     2
 72
     6
 73
     3
 74
     0
 42
0.0000000001
 43
0.0000000001
 40
0.0
 40
0.0
 40
0.0
 40
0.4978532609589533
 40
0.4978532609589533
 40
0.4978532609589533
 10
16283.5560239141
 20
7255.470505599079
 30
0.0
 41
1.0
 10
16282.24106933786
 20
7256.229694977633
 30
0.0
 41
1.037954849302054
 10
16281.10228527004
 20
7256.229694977633
 30
0.0
 41
1.0
  0
SPLINE
  5
1D5
330
6C
100
AcDbEntity
  8
Visible (ISO)
100
AcDbSpline
210
0.0
220
0.0
230
1.0
 70
    12
 71
     2
 72
     6
 73
     3
 74
     0
 42
0.0000000001
 43
0.0000000001
 40
0.4978532609589536
 40
0.4978532609589536
 40
0.4978532609589536
 40
0.9957065219179071
 40
0.9957065219179071
 40
0.9957065219179071
 10
16288.46350120221
 20
7256.229694977633
 30
0.0
 41
1.0
 10
16286.18593306654
 20
7256.229694977633
 30
0.0
 41
1.037954849302055
 10
16283.5560239141
 20
7255.470505599079
 30
0.0
 41
1.0
  0
LINE
  5
1D6
330
6C
100
AcDbEntity
  8
Visible (ISO)
100
AcDbLine
 10
16288.46350120221
 20
7256.229694977633
 30
0.0
 11
16281.10228527004
 21
7256.229694977633
 31
0.0
  0
LINE
  5
1D7
330
6C
100
AcDbEntity
  8
Visible (ISO)
100
AcDbLine
 10
16296.96350120221
 20
7256.229694977633
 30
0.0
 11
16295.82471713438
 21
7256.229694977633
 31
0.0
  0
SPLINE
  5
1D8
330
6C
100
AcDbEntity
  8
Visible (ISO)
100
AcDbSpline
210
0.0
220
0.0
230
1.0
 70
    12
 71
     2
 72
     6
 73
     3
 74
     0
 42
0.0000000001
 43
0.0000000001
 40
0.0
 40
0.0
 40
0.0
 40
0.4978532609589538
 40
0.4978532609589538
 40
0.4978532609589538
 10
16298.27845577843
 20
7255.470505599079
 30
0.0
 41
1.0
 10
16296.96350120221
 20
7256.229694977633
 30
0.0
 41
1.037954849302049
 10
16295.82471713438
 20
7256.229694977633
 30
0.0
 41
1.0
  0
SPLINE
  5
1D9
330
6C
100
AcDbEntity
  8
Visible (ISO)
100
AcDbSpline
210
0.0
220
0.0
230
1.0
 70
    12
 71
     2
 72
     6
 73
     3
 74
     0
 42
0.0000000001
 43
0.0000000001
 40
0.4978532609589533
 40
0.4978532609589533
 40
0.4978532609589533
 40
0.9957065219179067
 40
0.9957065219179067
 40
0.9957065219179067
 10
16281.10228527004
 20
7256.229694977633
 30
0.0
 41
1.0
 10
16279.96350120221
 20
7256.229694977633
 30
0.0
 41
1.037954849302047
 10
16278.64854662599
 20
7255.470505599079
 30
0.0
 41
1.0
  0
LINE
  5
1DA
330
6C
100
AcDbEntity
  8
Visible (ISO)
100
AcDbLine
 10
16281.10228527004
 20
7256.229694977633
 30
0.0
 11
16279.96350120221
 21
7256.229694977633
 31
0.0
  0
LINE
  5
1DB
330
6C
100
AcDbEntity
  8
Visible (ISO)
100
AcDbLine
 10
16296.96350120221
 20
7256.229694977633
 30
0.0
 11
16298.27845577843
 21
7255.470505599079
 31
0.0
  0
LINE
  5
1DC
330
6C
100
AcDbEntity
  8
Visible (ISO)
100
AcDbLine
 10
16279.96350120221
 20
7256.229694977633
 30
0.0
 11
16278.64854662599
 21
7255.470505599079
 31
0.0
  0
LINE
  5
1DD
330
6C
100
AcDbEntity
  8
Visible (ISO)
100
AcDbLine
 10
16298.27845577843
 20
7250.429694977633
 30
0.0
 11
16298.27845577843
 21
7255.470505599079
 31
0.0
  0
LINE
  5
1DE
330
6C
100
AcDbEntity
  8
Visible (ISO)
100
AcDbLine
 10
16293.37097849032
 20
7250.429694977633
 30
0.0
 11
16293.37097849032
 21
7255.470505599079
 31
0.0
  0
LINE
  5
1DF
330
6C
100
AcDbEntity
  8
Visible (ISO)
100
AcDbLine
 10
16298.27845577843
 20
7250.429694977633
 30
0.0
 11
16293.37097849032
 21
7250.429694977633
 31
0.0
  0
LINE
  5
1E0
330
6C
100
AcDbEntity
  8
Visible (ISO)
100
AcDbLine
 10
16293.37097849032
 20
7250.429694977633
 30
0.0
 11
16283.5560239141
 21
7250.429694977633
 31
0.0
  0
LINE
  5
1E1
330
6C
100
AcDbEntity
  8
Visible (ISO)
100
AcDbLine
 10
16283.5560239141
 20
7250.429694977633
 30
0.0
 11
16278.64854662599
 21
7250.429694977633
 31
0.0
  0
LINE
  5
1E2
330
6C
100
AcDbEntity
  8
Visible (ISO)
100
AcDbLine
 10
16283.5560239141
 20
7250.429694977633
 30
0.0
 11
16283.5560239141
 21
7255.470505599079
 31
0.0
  0
LINE
  5
1E3
330
6C
100
AcDbEntity
  8
Visible (ISO)
100
AcDbLine
 10
16278.64854662599
 20
7250.429694977633
 30
0.0
 11
16278.64854662599
 21
7255.470505599079
 31
0.0
  0
LINE
  5
1E4
330
6C
100
AcDbEntity
  8
Visible (ISO)
100
AcDbLine
 10
16293.46350120221
 20
7239.829594977632
 30
0.0
 11
16293.46350120221
 21
7239.716877573666
 31
0.0
  0
LINE
  5
1E5
330
6C
100
AcDbEntity
  8
Visible (ISO)
100
AcDbLine
 10
16283.46350120221
 20
7239.829594977634
 30
0.0
 11
16283.46350120221
 21
7239.371349818064
 31
0.0
  0
LINE
  5
1E6
330
6C
100
AcDbEntity
  8
Visible (ISO)
100
AcDbLine
 10
16296.16350120221
 20
7250.429694977633
 30
0.0
 11
16296.16350120221
 21
7249.829594977633
 31
0.0
  0
LINE
  5
1E7
330
6C
100
AcDbEntity
  8
Visible (ISO)
100
AcDbLine
 10
16280.76350120221
 20
7250.429694977633
 30
0.0
 11
16280.76350120221
 21
7249.829594977633
 31
0.0
  0
SPLINE
  5
1E8
330
6C
100
AcDbEntity
  8
Visible (ISO)
100
AcDbSpline
210
0.0
220
0.0
230
1.0
 70
    12
 71
     2
 72
     6
 73
     3
 74
     0
 42
0.0000000001
 43
0.0000000001
 40
0.4978532609589538
 40
0.4978532609589538
 40
0.4978532609589538
 40
0.9957065219179071
 40
0.9957065219179071
 40
0.9957065219179071
 10
16380.67753087676
 20
7256.229694977631
 30
0.0
 41
1.0
 10
16379.53874680893
 20
7256.229694977631
 30
0.0
 41
1.037954849302034
 10
16378.2237922327
 20
7255.470505599077
 30
0.0
 41
1.0
  0
LINE
  5
1E9
330
6C
100
AcDbEntity
  8
Visible (ISO)
100
AcDbLine
 10
16380.67753087676
 20
7256.229694977631
 30
0.0
 11
16373.31631494459
 21
7256.229694977631
 31
0.0
  0
SPLINE
  5
1EA
330
6C
100
AcDbEntity
  8
Visible (ISO)
100
AcDbSpline
210
0.0
220
0.0
230
1.0
 70
    12
 71
     2
 72
     6
 73
     3
 74
     0
 42
0.0000000001
 43
0.0000000001
 40
0.0
 40
0.0
 40
0.0
 40
0.4978532609589536
 40
0.4978532609589536
 40
0.4978532609589536
 10
16378.2237922327
 20
7255.470505599077
 30
0.0
 41
1.0
 10
16375.59388308026
 20
7256.229694977631
 30
0.0
 41
1.037954849302054
 10
16373.31631494459
 20
7256.229694977631
 30
0.0
 41
1.0
  0
SPLINE
  5
1EB
330
6C
100
AcDbEntity
  8
Visible (ISO)
100
AcDbSpline
210
0.0
220
0.0
230
1.0
 70
    12
 71
     2
 72
     6
 73
     3
 74
     0
 42
0.0000000001
 43
0.0000000001
 40
0.0
 40
0.0
 40
0.0
 40
0.4978532609589533
 40
0.4978532609589533
 40
0.4978532609589533
 10
16368.40883765648
 20
7255.470505599077
 30
0.0
 41
1.0
 10
16367.09388308026
 20
7256.229694977631
 30
0.0
 41
1.037954849302054
 10
16365.95509901242
 20
7256.229694977631
 30
0.0
 41
1.0
  0
SPLINE
  5
1EC
330
6C
100
AcDbEntity
  8
Visible (ISO)
100
AcDbSpline
210
0.0
220
0.0
230
1.0
 70
    12
 71
     2
 72
     6
 73
     3
 74
     0
 42
0.0000000001
 43
0.0000000001
 40
0.4978532609589536
 40
0.4978532609589536
 40
0.4978532609589536
 40
0.9957065219179071
 40
0.9957065219179071
 40
0.9957065219179071
 10
16373.31631494459
 20
7256.229694977631
 30
0.0
 41
1.0
 10
16371.03874680893
 20
7256.229694977631
 30
0.0
 41
1.037954849302055
 10
16368.40883765648
 20
7255.470505599077
 30
0.0
 41
1.0
  0
LINE
  5
1ED
330
6C
100
AcDbEntity
  8
Visible (ISO)
100
AcDbLine
 10
16373.31631494459
 20
7256.229694977631
 30
0.0
 11
16365.95509901242
 21
7256.229694977631
 31
0.0
  0
LINE
  5
1EE
330
6C
100
AcDbEntity
  8
Visible (ISO)
100
AcDbLine
 10
16381.81631494459
 20
7256.229694977631
 30
0.0
 11
16380.67753087676
 21
7256.229694977631
 31
0.0
  0
SPLINE
  5
1EF
330
6C
100
AcDbEntity
  8
Visible (ISO)
100
AcDbSpline
210
0.0
220
0.0
230
1.0
 70
    12
 71
     2
 72
     6
 73
     3
 74
     0
 42
0.0000000001
 43
0.0000000001
 40
0.0
 40
0.0
 40
0.0
 40
0.4978532609589538
 40
0.4978532609589538
 40
0.4978532609589538
 10
16383.13126952082
 20
7255.470505599077
 30
0.0
 41
1.0
 10
16381.8163149446
 20
7256.229694977631
 30
0.0
 41
1.037954849302049
 10
16380.67753087676
 20
7256.229694977631
 30
0.0
 41
1.0
  0
SPLINE
  5
1F0
330
6C
100
AcDbEntity
  8
Visible (ISO)
100
AcDbSpline
210
0.0
220
0.0
230
1.0
 70
    12
 71
     2
 72
     6
 73
     3
 74
     0
 42
0.0000000001
 43
0.0000000001
 40
0.4978532609589533
 40
0.4978532609589533
 40
0.4978532609589533
 40
0.9957065219179067
 40
0.9957065219179067
 40
0.9957065219179067
 10
16365.95509901242
 20
7256.229694977631
 30
0.0
 41
1.0
 10
16364.81631494459
 20
7256.229694977631
 30
0.0
 41
1.037954849302047
 10
16363.50136036837
 20
7255.470505599077
 30
0.0
 41
1.0
  0
LINE
  5
1F1
330
6C
100
AcDbEntity
  8
Visible (ISO)
100
AcDbLine
 10
16365.95509901242
 20
7256.229694977631
 30
0.0
 11
16364.81631494459
 21
7256.229694977631
 31
0.0
  0
LINE
  5
1F2
330
6C
100
AcDbEntity
  8
Visible (ISO)
100
AcDbLine
 10
16381.81631494459
 20
7256.229694977631
 30
0.0
 11
16383.13126952082
 21
7255.470505599077
 31
0.0
  0
LINE
  5
1F3
330
6C
100
AcDbEntity
  8
Visible (ISO)
100
AcDbLine
 10
16364.81631494459
 20
7256.229694977631
 30
0.0
 11
16363.50136036837
 21
7255.470505599077
 31
0.0
  0
LINE
  5
1F4
330
6C
100
AcDbEntity
  8
Visible (ISO)
100
AcDbLine
 10
16383.13126952082
 20
7250.429694977632
 30
0.0
 11
16383.13126952082
 21
7255.470505599077
 31
0.0
  0
LINE
  5
1F5
330
6C
100
AcDbEntity
  8
Visible (ISO)
100
AcDbLine
 10
16378.2237922327
 20
7250.429694977632
 30
0.0
 11
16378.2237922327
 21
7255.470505599077
 31
0.0
  0
LINE
  5
1F6
330
6C
100
AcDbEntity
  8
Visible (ISO)
100
AcDbLine
 10
16383.13126952082
 20
7250.429694977632
 30
0.0
 11
16378.2237922327
 21
7250.429694977632
 31
0.0
  0
LINE
  5
1F7
330
6C
100
AcDbEntity
  8
Visible (ISO)
100
AcDbLine
 10
16378.2237922327
 20
7250.429694977632
 30
0.0
 11
16368.40883765648
 21
7250.429694977632
 31
0.0
  0
LINE
  5
1F8
330
6C
100
AcDbEntity
  8
Visible (ISO)
100
AcDbLine
 10
16368.40883765648
 20
7250.429694977632
 30
0.0
 11
16363.50136036837
 21
7250.429694977632
 31
0.0
  0
LINE
  5
1F9
330
6C
100
AcDbEntity
  8
Visible (ISO)
100
AcDbLine
 10
16368.40883765648
 20
7250.429694977632
 30
0.0
 11
16368.40883765648
 21
7255.470505599077
 31
0.0
  0
LINE
  5
1FA
330
6C
100
AcDbEntity
  8
Visible (ISO)
100
AcDbLine
 10
16363.50136036837
 20
7250.429694977632
 30
0.0
 11
16363.50136036837
 21
7255.470505599077
 31
0.0
  0
LINE
  5
1FB
330
6C
100
AcDbEntity
  8
Visible (ISO)
100
AcDbLine
 10
16378.31631494459
 20
7239.829594977632
 30
0.0
 11
16378.31631494459
 21
7239.513406072645
 31
0.0
  0
LINE
  5
1FC
330
6C
100
AcDbEntity
  8
Visible (ISO)
100
AcDbLine
 10
16368.3163149446
 20
7239.829594977632
 30
0.0
 11
16368.3163149446
 21
7239.513406072645
 31
0.0
  0
LINE
  5
1FD
330
6C
100
AcDbEntity
  8
Visible (ISO)
100
AcDbLine
 10
16381.01631494459
 20
7250.429694977632
 30
0.0
 11
16381.01631494459
 21
7249.829594977632
 31
0.0
  0
LINE
  5
1FE
330
6C
100
AcDbEntity
  8
Visible (ISO)
100
AcDbLine
 10
16365.61631494459
 20
7250.429694977632
 30
0.0
 11
16365.61631494459
 21
7249.829594977632
 31
0.0
  0
SPLINE
  5
1FF
330
6C
100
AcDbEntity
  8
Visible (ISO)
100
AcDbSpline
210
0.0
220
0.0
230
1.0
 70
    12
 71
     2
 72
     6
 73
     3
 74
     0
 42
0.0000000001
 43
0.0000000001
 40
0.4978532609589538
 40
0.4978532609589538
 40
0.4978532609589538
 40
0.9957065219179071
 40
0.9957065219179071
 40
0.9957065219179071
 10
16465.53034461915
 20
7256.229694977633
 30
0.0
 41
1.0
 10
16464.39156055132
 20
7256.229694977633
 30
0.0
 41
1.037954849302034
 10
16463.07660597509
 20
7255.470505599079
 30
0.0
 41
1.0
  0
LINE
  5
200
330
6C
100
AcDbEntity
  8
Visible (ISO)
100
AcDbLine
 10
16465.53034461915
 20
7256.229694977633
 30
0.0
 11
16458.16912868698
 21
7256.229694977633
 31
0.0
  0
SPLINE
  5
201
330
6C
100
AcDbEntity
  8
Visible (ISO)
100
AcDbSpline
210
0.0
220
0.0
230
1.0
 70
    12
 71
     2
 72
     6
 73
     3
 74
     0
 42
0.0000000001
 43
0.0000000001
 40
0.0
 40
0.0
 40
0.0
 40
0.4978532609589536
 40
0.4978532609589536
 40
0.4978532609589536
 10
16463.07660597509
 20
7255.470505599079
 30
0.0
 41
1.0
 10
16460.44669682265
 20
7256.229694977633
 30
0.0
 41
1.037954849302054
 10
16458.16912868698
 20
7256.229694977633
 30
0.0
 41
1.0
  0
SPLINE
  5
202
330
6C
100
AcDbEntity
  8
Visible (ISO)
100
AcDbSpline
210
0.0
220
0.0
230
1.0
 70
    12
 71
     2
 72
     6
 73
     3
 74
     0
 42
0.0000000001
 43
0.0000000001
 40
0.0
 40
0.0
 40
0.0
 40
0.4978532609589533
 40
0.4978532609589533
 40
0.4978532609589533
 10
16453.26165139887
 20
7255.470505599079
 30
0.0
 41
1.0
 10
16451.94669682265
 20
7256.229694977633
 30
0.0
 41
1.037954849302054
 10
16450.8079127548
 20
7256.229694977633
 30
0.0
 41
1.0
  0
SPLINE
  5
203
330
6C
100
AcDbEntity
  8
Visible (ISO)
100
AcDbSpline
210
0.0
220
0.0
230
1.0
 70
    12
 71
     2
 72
     6
 73
     3
 74
     0
 42
0.0000000001
 43
0.0000000001
 40
0.4978532609589536
 40
0.4978532609589536
 40
0.4978532609589536
 40
0.9957065219179071
 40
0.9957065219179071
 40
0.9957065219179071
 10
16458.16912868698
 20
7256.229694977633
 30
0.0
 41
1.0
 10
16455.89156055132
 20
7256.229694977633
 30
0.0
 41
1.037954849302055
 10
16453.26165139887
 20
7255.470505599079
 30
0.0
 41
1.0
  0
LINE
  5
204
330
6C
100
AcDbEntity
  8
Visible (ISO)
100
AcDbLine
 10
16458.16912868698
 20
7256.229694977633
 30
0.0
 11
16450.8079127548
 21
7256.229694977633
 31
0.0
  0
LINE
  5
205
330
6C
100
AcDbEntity
  8
Visible (ISO)
100
AcDbLine
 10
16466.66912868698
 20
7256.229694977633
 30
0.0
 11
16465.53034461915
 21
7256.229694977633
 31
0.0
  0
SPLINE
  5
206
330
6C
100
AcDbEntity
  8
Visible (ISO)
100
AcDbSpline
210
0.0
220
0.0
230
1.0
 70
    12
 71
     2
 72
     6
 73
     3
 74
     0
 42
0.0000000001
 43
0.0000000001
 40
0.0
 40
0.0
 40
0.0
 40
0.4978532609589538
 40
0.4978532609589538
 40
0.4978532609589538
 10
16467.9840832632
 20
7255.470505599079
 30
0.0
 41
1.0
 10
16466.66912868698
 20
7256.229694977633
 30
0.0
 41
1.037954849302049
 10
16465.53034461915
 20
7256.229694977633
 30
0.0
 41
1.0
  0
SPLINE
  5
207
330
6C
100
AcDbEntity
  8
Visible (ISO)
100
AcDbSpline
210
0.0
220
0.0
230
1.0
 70
    12
 71
     2
 72
     6
 73
     3
 74
     0
 42
0.0000000001
 43
0.0000000001
 40
0.4978532609589533
 40
0.4978532609589533
 40
0.4978532609589533
 40
0.9957065219179067
 40
0.9957065219179067
 40
0.9957065219179067
 10
16450.8079127548
 20
7256.229694977633
 30
0.0
 41
1.0
 10
16449.66912868698
 20
7256.229694977633
 30
0.0
 41
1.037954849302047
 10
16448.35417411076
 20
7255.470505599079
 30
0.0
 41
1.0
  0
LINE
  5
208
330
6C
100
AcDbEntity
  8
Visible (ISO)
100
AcDbLine
 10
16450.8079127548
 20
7256.229694977633
 30
0.0
 11
16449.66912868698
 21
7256.229694977633
 31
0.0
  0
LINE
  5
209
330
6C
100
AcDbEntity
  8
Visible (ISO)
100
AcDbLine
 10
16466.66912868698
 20
7256.229694977633
 30
0.0
 11
16467.9840832632
 21
7255.470505599079
 31
0.0
  0
LINE
  5
20A
330
6C
100
AcDbEntity
  8
Visible (ISO)
100
AcDbLine
 10
16449.66912868698
 20
7256.229694977633
 30
0.0
 11
16448.35417411076
 21
7255.470505599079
 31
0.0
  0
LINE
  5
20B
330
6C
100
AcDbEntity
  8
Visible (ISO)
100
AcDbLine
 10
16467.9840832632
 20
7250.429694977633
 30
0.0
 11
16467.9840832632
 21
7255.470505599079
 31
0.0
  0
LINE
  5
20C
330
6C
100
AcDbEntity
  8
Visible (ISO)
100
AcDbLine
 10
16463.07660597509
 20
7250.429694977633
 30
0.0
 11
16463.07660597509
 21
7255.470505599079
 31
0.0
  0
LINE
  5
20D
330
6C
100
AcDbEntity
  8
Visible (ISO)
100
AcDbLine
 10
16467.9840832632
 20
7250.429694977633
 30
0.0
 11
16463.07660597509
 21
7250.429694977633
 31
0.0
  0
LINE
  5
20E
330
6C
100
AcDbEntity
  8
Visible (ISO)
100
AcDbLine
 10
16463.07660597509
 20
7250.429694977633
 30
0.0
 11
16453.26165139887
 21
7250.429694977633
 31
0.0
  0
LINE
  5
20F
330
6C
100
AcDbEntity
  8
Visible (ISO)
100
AcDbLine
 10
16453.26165139887
 20
7250.429694977633
 30
0.0
 11
16448.35417411076
 21
7250.429694977633
 31
0.0
  0
LINE
  5
210
330
6C
100
AcDbEntity
  8
Visible (ISO)
100
AcDbLine
 10
16453.26165139887
 20
7250.429694977633
 30
0.0
 11
16453.26165139887
 21
7255.470505599079
 31
0.0
  0
LINE
  5
211
330
6C
100
AcDbEntity
  8
Visible (ISO)
100
AcDbLine
 10
16448.35417411076
 20
7250.429694977633
 30
0.0
 11
16448.35417411076
 21
7255.470505599079
 31
0.0
  0
LINE
  5
212
330
6C
100
AcDbEntity
  8
Visible (ISO)
100
AcDbLine
 10
16463.16912868698
 20
7239.829594977634
 30
0.0
 11
16463.16912868698
 21
7239.371392521565
 31
0.0
  0
LINE
  5
213
330
6C
100
AcDbEntity
  8
Visible (ISO)
100
AcDbLine
 10
16453.16912868698
 20
7239.829594977632
 30
0.0
 11
16453.16912868698
 21
7239.716899727432
 31
0.0
  0
LINE
  5
214
330
6C
100
AcDbEntity
  8
Visible (ISO)
100
AcDbLine
 10
16465.86912868698
 20
7250.429694977633
 30
0.0
 11
16465.86912868698
 21
7249.829594977633
 31
0.0
  0
LINE
  5
215
330
6C
100
AcDbEntity
  8
Visible (ISO)
100
AcDbLine
 10
16450.46912868698
 20
7250.429694977633
 30
0.0
 11
16450.46912868698
 21
7249.829594977633
 31
0.0
  0
SPLINE
  5
216
330
6C
100
AcDbEntity
  8
Visible (ISO)
100
AcDbSpline
210
0.0
220
0.0
230
1.0
 70
    12
 71
     2
 72
     6
 73
     3
 74
     0
 42
0.0000000001
 43
0.0000000001
 40
0.4978532609589538
 40
0.4978532609589538
 40
0.4978532609589538
 40
0.9957065219179071
 40
0.9957065219179071
 40
0.9957065219179071
 10
18895.82471713438
 20
7256.229694977633
 30
0.0
 41
1.0
 10
18894.68593306654
 20
7256.229694977633
 30
0.0
 41
1.037954849302034
 10
18893.37097849032
 20
7255.470505599079
 30
0.0
 41
1.0
  0
LINE
  5
217
330
6C
100
AcDbEntity
  8
Visible (ISO)
100
AcDbLine
 10
18895.82471713438
 20
7256.229694977633
 30
0.0
 11
18888.46350120221
 21
7256.229694977633
 31
0.0
  0
SPLINE
  5
218
330
6C
100
AcDbEntity
  8
Visible (ISO)
100
AcDbSpline
210
0.0
220
0.0
230
1.0
 70
    12
 71
     2
 72
     6
 73
     3
 74
     0
 42
0.0000000001
 43
0.0000000001
 40
0.0
 40
0.0
 40
0.0
 40
0.4978532609589536
 40
0.4978532609589536
 40
0.4978532609589536
 10
18893.37097849032
 20
7255.470505599079
 30
0.0
 41
1.0
 10
18890.74106933787
 20
7256.229694977633
 30
0.0
 41
1.037954849302054
 10
18888.46350120221
 20
7256.229694977633
 30
0.0
 41
1.0
  0
SPLINE
  5
219
330
6C
100
AcDbEntity
  8
Visible (ISO)
100
AcDbSpline
210
0.0
220
0.0
230
1.0
 70
    12
 71
     2
 72
     6
 73
     3
 74
     0
 42
0.0000000001
 43
0.0000000001
 40
0.0
 40
0.0
 40
0.0
 40
0.4978532609589533
 40
0.4978532609589533
 40
0.4978532609589533
 10
18883.5560239141
 20
7255.470505599079
 30
0.0
 41
1.0
 10
18882.24106933787
 20
7256.229694977633
 30
0.0
 41
1.037954849302054
 10
18881.10228527004
 20
7256.229694977633
 30
0.0
 41
1.0
  0
SPLINE
  5
21A
330
6C
100
AcDbEntity
  8
Visible (ISO)
100
AcDbSpline
210
0.0
220
0.0
230
1.0
 70
    12
 71
     2
 72
     6
 73
     3
 74
     0
 42
0.0000000001
 43
0.0000000001
 40
0.4978532609589536
 40
0.4978532609589536
 40
0.4978532609589536
 40
0.9957065219179071
 40
0.9957065219179071
 40
0.9957065219179071
 10
18888.46350120221
 20
7256.229694977633
 30
0.0
 41
1.0
 10
18886.18593306654
 20
7256.229694977633
 30
0.0
 41
1.037954849302055
 10
18883.5560239141
 20
7255.470505599079
 30
0.0
 41
1.0
  0
LINE
  5
21B
330
6C
100
AcDbEntity
  8
Visible (ISO)
100
AcDbLine
 10
18888.46350120221
 20
7256.229694977633
 30
0.0
 11
18881.10228527004
 21
7256.229694977633
 31
0.0
  0
LINE
  5
21C
330
6C
100
AcDbEntity
  8
Visible (ISO)
100
AcDbLine
 10
18896.96350120221
 20
7256.229694977633
 30
0.0
 11
18895.82471713438
 21
7256.229694977633
 31
0.0
  0
SPLINE
  5
21D
330
6C
100
AcDbEntity
  8
Visible (ISO)
100
AcDbSpline
210
0.0
220
0.0
230
1.0
 70
    12
 71
     2
 72
     6
 73
     3
 74
     0
 42
0.0000000001
 43
0.0000000001
 40
0.0
 40
0.0
 40
0.0
 40
0.4978532609589538
 40
0.4978532609589538
 40
0.4978532609589538
 10
18898.27845577843
 20
7255.470505599079
 30
0.0
 41
1.0
 10
18896.96350120221
 20
7256.229694977633
 30
0.0
 41
1.037954849302049
 10
18895.82471713438
 20
7256.229694977633
 30
0.0
 41
1.0
  0
SPLINE
  5
21E
330
6C
100
AcDbEntity
  8
Visible (ISO)
100
AcDbSpline
210
0.0
220
0.0
230
1.0
 70
    12
 71
     2
 72
     6
 73
     3
 74
     0
 42
0.0000000001
 43
0.0000000001
 40
0.4978532609589533
 40
0.4978532609589533
 40
0.4978532609589533
 40
0.9957065219179067
 40
0.9957065219179067
 40
0.9957065219179067
 10
18881.10228527004
 20
7256.229694977633
 30
0.0
 41
1.0
 10
18879.96350120221
 20
7256.229694977633
 30
0.0
 41
1.037954849302047
 10
18878.64854662598
 20
7255.470505599079
 30
0.0
 41
1.0
  0
LINE
  5
21F
330
6C
100
AcDbEntity
  8
Visible (ISO)
100
AcDbLine
 10
18881.10228527004
 20
7256.229694977633
 30
0.0
 11
18879.96350120221
 21
7256.229694977633
 31
0.0
  0
LINE
  5
220
330
6C
100
AcDbEntity
  8
Visible (ISO)
100
AcDbLine
 10
18896.96350120221
 20
7256.229694977633
 30
0.0
 11
18898.27845577843
 21
7255.470505599079
 31
0.0
  0
LINE
  5
221
330
6C
100
AcDbEntity
  8
Visible (ISO)
100
AcDbLine
 10
18879.96350120221
 20
7256.229694977633
 30
0.0
 11
18878.64854662598
 21
7255.470505599079
 31
0.0
  0
LINE
  5
222
330
6C
100
AcDbEntity
  8
Visible (ISO)
100
AcDbLine
 10
18898.27845577843
 20
7250.429694977633
 30
0.0
 11
18898.27845577843
 21
7255.470505599079
 31
0.0
  0
LINE
  5
223
330
6C
100
AcDbEntity
  8
Visible (ISO)
100
AcDbLine
 10
18893.37097849032
 20
7250.429694977633
 30
0.0
 11
18893.37097849032
 21
7255.470505599079
 31
0.0
  0
LINE
  5
224
330
6C
100
AcDbEntity
  8
Visible (ISO)
100
AcDbLine
 10
18898.27845577843
 20
7250.429694977633
 30
0.0
 11
18893.37097849032
 21
7250.429694977633
 31
0.0
  0
LINE
  5
225
330
6C
100
AcDbEntity
  8
Visible (ISO)
100
AcDbLine
 10
18893.37097849032
 20
7250.429694977633
 30
0.0
 11
18883.5560239141
 21
7250.429694977633
 31
0.0
  0
LINE
  5
226
330
6C
100
AcDbEntity
  8
Visible (ISO)
100
AcDbLine
 10
18883.5560239141
 20
7250.429694977633
 30
0.0
 11
18878.64854662598
 21
7250.429694977633
 31
0.0
  0
LINE
  5
227
330
6C
100
AcDbEntity
  8
Visible (ISO)
100
AcDbLine
 10
18883.5560239141
 20
7250.429694977633
 30
0.0
 11
18883.5560239141
 21
7255.470505599079
 31
0.0
  0
LINE
  5
228
330
6C
100
AcDbEntity
  8
Visible (ISO)
100
AcDbLine
 10
18878.64854662598
 20
7250.429694977633
 30
0.0
 11
18878.64854662598
 21
7255.470505599079
 31
0.0
  0
LINE
  5
229
330
6C
100
AcDbEntity
  8
Visible (ISO)
100
AcDbLine
 10
18893.46350120221
 20
7239.829594977632
 30
0.0
 11
18893.46350120221
 21
7239.716877573666
 31
0.0
  0
LINE
  5
22A
330
6C
100
AcDbEntity
  8
Visible (ISO)
100
AcDbLine
 10
18883.46350120221
 20
7239.829594977632
 30
0.0
 11
18883.46350120221
 21
7239.371349818064
 31
0.0
  0
LINE
  5
22B
330
6C
100
AcDbEntity
  8
Visible (ISO)
100
AcDbLine
 10
18896.16350120221
 20
7250.429694977633
 30
0.0
 11
18896.16350120221
 21
7249.829594977633
 31
0.0
  0
LINE
  5
22C
330
6C
100
AcDbEntity
  8
Visible (ISO)
100
AcDbLine
 10
18880.76350120221
 20
7250.429694977633
 30
0.0
 11
18880.76350120221
 21
7249.829594977633
 31
0.0
  0
SPLINE
  5
22D
330
6C
100
AcDbEntity
  8
Visible (ISO)
100
AcDbSpline
210
0.0
220
0.0
230
1.0
 70
    12
 71
     2
 72
     6
 73
     3
 74
     0
 42
0.0000000001
 43
0.0000000001
 40
0.4978532609589538
 40
0.4978532609589538
 40
0.4978532609589538
 40
0.9957065219179071
 40
0.9957065219179071
 40
0.9957065219179071
 10
18980.67753087676
 20
7256.229694977633
 30
0.0
 41
1.0
 10
18979.53874680893
 20
7256.229694977633
 30
0.0
 41
1.037954849302034
 10
18978.22379223271
 20
7255.470505599078
 30
0.0
 41
1.0
  0
LINE
  5
22E
330
6C
100
AcDbEntity
  8
Visible (ISO)
100
AcDbLine
 10
18980.67753087676
 20
7256.229694977633
 30
0.0
 11
18973.31631494459
 21
7256.229694977633
 31
0.0
  0
SPLINE
  5
22F
330
6C
100
AcDbEntity
  8
Visible (ISO)
100
AcDbSpline
210
0.0
220
0.0
230
1.0
 70
    12
 71
     2
 72
     6
 73
     3
 74
     0
 42
0.0000000001
 43
0.0000000001
 40
0.0
 40
0.0
 40
0.0
 40
0.4978532609589536
 40
0.4978532609589536
 40
0.4978532609589536
 10
18978.22379223271
 20
7255.470505599078
 30
0.0
 41
1.0
 10
18975.59388308026
 20
7256.229694977633
 30
0.0
 41
1.037954849302054
 10
18973.31631494459
 20
7256.229694977633
 30
0.0
 41
1.0
  0
SPLINE
  5
230
330
6C
100
AcDbEntity
  8
Visible (ISO)
100
AcDbSpline
210
0.0
220
0.0
230
1.0
 70
    12
 71
     2
 72
     6
 73
     3
 74
     0
 42
0.0000000001
 43
0.0000000001
 40
0.0
 40
0.0
 40
0.0
 40
0.4978532609589533
 40
0.4978532609589533
 40
0.4978532609589533
 10
18968.40883765649
 20
7255.470505599078
 30
0.0
 41
1.0
 10
18967.09388308026
 20
7256.229694977633
 30
0.0
 41
1.037954849302054
 10
18965.95509901243
 20
7256.229694977633
 30
0.0
 41
1.0
  0
SPLINE
  5
231
330
6C
100
AcDbEntity
  8
Visible (ISO)
100
AcDbSpline
210
0.0
220
0.0
230
1.0
 70
    12
 71
     2
 72
     6
 73
     3
 74
     0
 42
0.0000000001
 43
0.0000000001
 40
0.4978532609589536
 40
0.4978532609589536
 40
0.4978532609589536
 40
0.9957065219179071
 40
0.9957065219179071
 40
0.9957065219179071
 10
18973.31631494459
 20
7256.229694977633
 30
0.0
 41
1.0
 10
18971.03874680893
 20
7256.229694977633
 30
0.0
 41
1.037954849302055
 10
18968.40883765649
 20
7255.470505599078
 30
0.0
 41
1.0
  0
LINE
  5
232
330
6C
100
AcDbEntity
  8
Visible (ISO)
100
AcDbLine
 10
18973.31631494459
 20
7256.229694977633
 30
0.0
 11
18965.95509901243
 21
7256.229694977633
 31
0.0
  0
LINE
  5
233
330
6C
100
AcDbEntity
  8
Visible (ISO)
100
AcDbLine
 10
18981.81631494459
 20
7256.229694977633
 30
0.0
 11
18980.67753087676
 21
7256.229694977633
 31
0.0
  0
SPLINE
  5
234
330
6C
100
AcDbEntity
  8
Visible (ISO)
100
AcDbSpline
210
0.0
220
0.0
230
1.0
 70
    12
 71
     2
 72
     6
 73
     3
 74
     0
 42
0.0000000001
 43
0.0000000001
 40
0.0
 40
0.0
 40
0.0
 40
0.4978532609589538
 40
0.4978532609589538
 40
0.4978532609589538
 10
18983.13126952082
 20
7255.470505599078
 30
0.0
 41
1.0
 10
18981.81631494459
 20
7256.229694977633
 30
0.0
 41
1.037954849302049
 10
18980.67753087676
 20
7256.229694977633
 30
0.0
 41
1.0
  0
SPLINE
  5
235
330
6C
100
AcDbEntity
  8
Visible (ISO)
100
AcDbSpline
210
0.0
220
0.0
230
1.0
 70
    12
 71
     2
 72
     6
 73
     3
 74
     0
 42
0.0000000001
 43
0.0000000001
 40
0.4978532609589533
 40
0.4978532609589533
 40
0.4978532609589533
 40
0.9957065219179067
 40
0.9957065219179067
 40
0.9957065219179067
 10
18965.95509901243
 20
7256.229694977633
 30
0.0
 41
1.0
 10
18964.8163149446
 20
7256.229694977633
 30
0.0
 41
1.037954849302047
 10
18963.50136036837
 20
7255.470505599078
 30
0.0
 41
1.0
  0
LINE
  5
236
330
6C
100
AcDbEntity
  8
Visible (ISO)
100
AcDbLine
 10
18965.95509901243
 20
7256.229694977633
 30
0.0
 11
18964.8163149446
 21
7256.229694977633
 31
0.0
  0
LINE
  5
237
330
6C
100
AcDbEntity
  8
Visible (ISO)
100
AcDbLine
 10
18981.81631494459
 20
7256.229694977633
 30
0.0
 11
18983.13126952082
 21
7255.470505599078
 31
0.0
  0
LINE
  5
238
330
6C
100
AcDbEntity
  8
Visible (ISO)
100
AcDbLine
 10
18964.8163149446
 20
7256.229694977633
 30
0.0
 11
18963.50136036837
 21
7255.470505599078
 31
0.0
  0
LINE
  5
239
330
6C
100
AcDbEntity
  8
Visible (ISO)
100
AcDbLine
 10
18983.13126952082
 20
7250.429694977633
 30
0.0
 11
18983.13126952082
 21
7255.470505599078
 31
0.0
  0
LINE
  5
23A
330
6C
100
AcDbEntity
  8
Visible (ISO)
100
AcDbLine
 10
18978.22379223271
 20
7250.429694977633
 30
0.0
 11
18978.22379223271
 21
7255.470505599078
 31
0.0
  0
LINE
  5
23B
330
6C
100
AcDbEntity
  8
Visible (ISO)
100
AcDbLine
 10
18983.13126952082
 20
7250.429694977633
 30
0.0
 11
18978.22379223271
 21
7250.429694977633
 31
0.0
  0
LINE
  5
23C
330
6C
100
AcDbEntity
  8
Visible (ISO)
100
AcDbLine
 10
18978.22379223271
 20
7250.429694977633
 30
0.0
 11
18968.40883765649
 21
7250.429694977633
 31
0.0
  0
LINE
  5
23D
330
6C
100
AcDbEntity
  8
Visible (ISO)
100
AcDbLine
 10
18968.40883765649
 20
7250.429694977633
 30
0.0
 11
18963.50136036837
 21
7250.429694977633
 31
0.0
  0
LINE
  5
23E
330
6C
100
AcDbEntity
  8
Visible (ISO)
100
AcDbLine
 10
18968.40883765649
 20
7250.429694977633
 30
0.0
 11
18968.40883765649
 21
7255.470505599078
 31
0.0
  0
LINE
  5
23F
330
6C
100
AcDbEntity
  8
Visible (ISO)
100
AcDbLine
 10
18963.50136036837
 20
7250.429694977633
 30
0.0
 11
18963.50136036837
 21
7255.470505599078
 31
0.0
  0
LINE
  5
240
330
6C
100
AcDbEntity
  8
Visible (ISO)
100
AcDbLine
 10
18978.3163149446
 20
7239.829594977634
 30
0.0
 11
18978.3163149446
 21
7239.513406072648
 31
0.0
  0
LINE
  5
241
330
6C
100
AcDbEntity
  8
Visible (ISO)
100
AcDbLine
 10
18968.31631494459
 20
7239.829594977634
 30
0.0
 11
18968.31631494459
 21
7239.513406072645
 31
0.0
  0
LINE
  5
242
330
6C
100
AcDbEntity
  8
Visible (ISO)
100
AcDbLine
 10
18981.0163149446
 20
7250.429694977633
 30
0.0
 11
18981.0163149446
 21
7249.829594977633
 31
0.0
  0
LINE
  5
243
330
6C
100
AcDbEntity
  8
Visible (ISO)
100
AcDbLine
 10
18965.6163149446
 20
7250.429694977633
 30
0.0
 11
18965.6163149446
 21
7249.829594977633
 31
0.0
  0
SPLINE
  5
244
330
6C
100
AcDbEntity
  8
Visible (ISO)
100
AcDbSpline
210
0.0
220
0.0
230
1.0
 70
    12
 71
     2
 72
     6
 73
     3
 74
     0
 42
0.0000000001
 43
0.0000000001
 40
0.4978532609589538
 40
0.4978532609589538
 40
0.4978532609589538
 40
0.9957065219179071
 40
0.9957065219179071
 40
0.9957065219179071
 10
19065.53034461915
 20
7256.229694977633
 30
0.0
 41
1.0
 10
19064.39156055132
 20
7256.229694977633
 30
0.0
 41
1.037954849302034
 10
19063.07660597509
 20
7255.470505599079
 30
0.0
 41
1.0
  0
LINE
  5
245
330
6C
100
AcDbEntity
  8
Visible (ISO)
100
AcDbLine
 10
19065.53034461915
 20
7256.229694977633
 30
0.0
 11
19058.16912868698
 21
7256.229694977633
 31
0.0
  0
SPLINE
  5
246
330
6C
100
AcDbEntity
  8
Visible (ISO)
100
AcDbSpline
210
0.0
220
0.0
230
1.0
 70
    12
 71
     2
 72
     6
 73
     3
 74
     0
 42
0.0000000001
 43
0.0000000001
 40
0.0
 40
0.0
 40
0.0
 40
0.4978532609589536
 40
0.4978532609589536
 40
0.4978532609589536
 10
19063.07660597509
 20
7255.470505599079
 30
0.0
 41
1.0
 10
19060.44669682265
 20
7256.229694977633
 30
0.0
 41
1.037954849302054
 10
19058.16912868698
 20
7256.229694977633
 30
0.0
 41
1.0
  0
SPLINE
  5
247
330
6C
100
AcDbEntity
  8
Visible (ISO)
100
AcDbSpline
210
0.0
220
0.0
230
1.0
 70
    12
 71
     2
 72
     6
 73
     3
 74
     0
 42
0.0000000001
 43
0.0000000001
 40
0.0
 40
0.0
 40
0.0
 40
0.4978532609589533
 40
0.4978532609589533
 40
0.4978532609589533
 10
19053.26165139887
 20
7255.470505599079
 30
0.0
 41
1.0
 10
19051.94669682265
 20
7256.229694977633
 30
0.0
 41
1.037954849302054
 10
19050.8079127548
 20
7256.229694977633
 30
0.0
 41
1.0
  0
SPLINE
  5
248
330
6C
100
AcDbEntity
  8
Visible (ISO)
100
AcDbSpline
210
0.0
220
0.0
230
1.0
 70
    12
 71
     2
 72
     6
 73
     3
 74
     0
 42
0.0000000001
 43
0.0000000001
 40
0.4978532609589536
 40
0.4978532609589536
 40
0.4978532609589536
 40
0.9957065219179071
 40
0.9957065219179071
 40
0.9957065219179071
 10
19058.16912868698
 20
7256.229694977633
 30
0.0
 41
1.0
 10
19055.89156055132
 20
7256.229694977633
 30
0.0
 41
1.037954849302055
 10
19053.26165139887
 20
7255.470505599079
 30
0.0
 41
1.0
  0
LINE
  5
249
330
6C
100
AcDbEntity
  8
Visible (ISO)
100
AcDbLine
 10
19058.16912868698
 20
7256.229694977633
 30
0.0
 11
19050.8079127548
 21
7256.229694977633
 31
0.0
  0
LINE
  5
24A
330
6C
100
AcDbEntity
  8
Visible (ISO)
100
AcDbLine
 10
19066.66912868699
 20
7256.229694977633
 30
0.0
 11
19065.53034461915
 21
7256.229694977633
 31
0.0
  0
SPLINE
  5
24B
330
6C
100
AcDbEntity
  8
Visible (ISO)
100
AcDbSpline
210
0.0
220
0.0
230
1.0
 70
    12
 71
     2
 72
     6
 73
     3
 74
     0
 42
0.0000000001
 43
0.0000000001
 40
0.0
 40
0.0
 40
0.0
 40
0.4978532609589538
 40
0.4978532609589538
 40
0.4978532609589538
 10
19067.9840832632
 20
7255.470505599079
 30
0.0
 41
1.0
 10
19066.66912868699
 20
7256.229694977633
 30
0.0
 41
1.037954849302049
 10
19065.53034461915
 20
7256.229694977633
 30
0.0
 41
1.0
  0
SPLINE
  5
24C
330
6C
100
AcDbEntity
  8
Visible (ISO)
100
AcDbSpline
210
0.0
220
0.0
230
1.0
 70
    12
 71
     2
 72
     6
 73
     3
 74
     0
 42
0.0000000001
 43
0.0000000001
 40
0.4978532609589533
 40
0.4978532609589533
 40
0.4978532609589533
 40
0.9957065219179067
 40
0.9957065219179067
 40
0.9957065219179067
 10
19050.8079127548
 20
7256.229694977633
 30
0.0
 41
1.0
 10
19049.66912868698
 20
7256.229694977633
 30
0.0
 41
1.037954849302047
 10
19048.35417411076
 20
7255.470505599079
 30
0.0
 41
1.0
  0
LINE
  5
24D
330
6C
100
AcDbEntity
  8
Visible (ISO)
100
AcDbLine
 10
19050.8079127548
 20
7256.229694977633
 30
0.0
 11
19049.66912868698
 21
7256.229694977633
 31
0.0
  0
LINE
  5
24E
330
6C
100
AcDbEntity
  8
Visible (ISO)
100
AcDbLine
 10
19066.66912868699
 20
7256.229694977633
 30
0.0
 11
19067.9840832632
 21
7255.470505599079
 31
0.0
  0
LINE
  5
24F
330
6C
100
AcDbEntity
  8
Visible (ISO)
100
AcDbLine
 10
19049.66912868698
 20
7256.229694977633
 30
0.0
 11
19048.35417411076
 21
7255.470505599079
 31
0.0
  0
LINE
  5
250
330
6C
100
AcDbEntity
  8
Visible (ISO)
100
AcDbLine
 10
19067.9840832632
 20
7250.429694977633
 30
0.0
 11
19067.9840832632
 21
7255.470505599079
 31
0.0
  0
LINE
  5
251
330
6C
100
AcDbEntity
  8
Visible (ISO)
100
AcDbLine
 10
19063.07660597509
 20
7250.429694977633
 30
0.0
 11
19063.07660597509
 21
7255.470505599079
 31
0.0
  0
LINE
  5
252
330
6C
100
AcDbEntity
  8
Visible (ISO)
100
AcDbLine
 10
19067.9840832632
 20
7250.429694977633
 30
0.0
 11
19063.07660597509
 21
7250.429694977633
 31
0.0
  0
LINE
  5
253
330
6C
100
AcDbEntity
  8
Visible (ISO)
100
AcDbLine
 10
19063.07660597509
 20
7250.429694977633
 30
0.0
 11
19053.26165139887
 21
7250.429694977633
 31
0.0
  0
LINE
  5
254
330
6C
100
AcDbEntity
  8
Visible (ISO)
100
AcDbLine
 10
19053.26165139887
 20
7250.429694977633
 30
0.0
 11
19048.35417411076
 21
7250.429694977633
 31
0.0
  0
LINE
  5
255
330
6C
100
AcDbEntity
  8
Visible (ISO)
100
AcDbLine
 10
19053.26165139887
 20
7250.429694977633
 30
0.0
 11
19053.26165139887
 21
7255.470505599079
 31
0.0
  0
LINE
  5
256
330
6C
100
AcDbEntity
  8
Visible (ISO)
100
AcDbLine
 10
19048.35417411076
 20
7250.429694977633
 30
0.0
 11
19048.35417411076
 21
7255.470505599079
 31
0.0
  0
LINE
  5
257
330
6C
100
AcDbEntity
  8
Visible (ISO)
100
AcDbLine
 10
19063.16912868698
 20
7239.829594977632
 30
0.0
 11
19063.16912868698
 21
7239.371392521565
 31
0.0
  0
LINE
  5
258
330
6C
100
AcDbEntity
  8
Visible (ISO)
100
AcDbLine
 10
19053.16912868698
 20
7239.829594977632
 30
0.0
 11
19053.16912868698
 21
7239.716899727432
 31
0.0
  0
LINE
  5
259
330
6C
100
AcDbEntity
  8
Visible (ISO)
100
AcDbLine
 10
19065.86912868698
 20
7250.429694977633
 30
0.0
 11
19065.86912868698
 21
7249.829594977633
 31
0.0
  0
LINE
  5
25A
330
6C
100
AcDbEntity
  8
Visible (ISO)
100
AcDbLine
 10
19050.46912868698
 20
7250.429694977633
 30
0.0
 11
19050.46912868698
 21
7249.829594977633
 31
0.0
  0
LINE
  5
25B
330
6C
100
AcDbEntity
  8
Visible (ISO)
100
AcDbLine
 10
16298.46350120221
 20
7249.829594977633
 30
0.0
 11
16278.46350120221
 21
7249.829594977633
 31
0.0
  0
LINE
  5
25C
330
6C
100
AcDbEntity
  8
Visible (ISO)
100
AcDbLine
 10
16298.46350120221
 20
7249.829594977633
 30
0.0
 11
16298.46350120221
 21
7247.829594977634
 31
0.0
  0
LINE
  5
25D
330
6C
100
AcDbEntity
  8
Visible (ISO)
100
AcDbLine
 10
16278.46350120221
 20
7249.829594977633
 30
0.0
 11
16278.46350120221
 21
7247.829594977634
 31
0.0
  0
LINE
  5
25E
330
6C
100
AcDbEntity
  8
Visible (ISO)
100
AcDbLine
 10
16383.3163149446
 20
7249.829594977632
 30
0.0
 11
16363.31631494459
 21
7249.829594977632
 31
0.0
  0
LINE
  5
25F
330
6C
100
AcDbEntity
  8
Visible (ISO)
100
AcDbLine
 10
16383.3163149446
 20
7249.829594977632
 30
0.0
 11
16383.3163149446
 21
7247.829594977632
 31
0.0
  0
LINE
  5
260
330
6C
100
AcDbEntity
  8
Visible (ISO)
100
AcDbLine
 10
16363.31631494459
 20
7249.829594977632
 30
0.0
 11
16363.31631494459
 21
7247.829594977632
 31
0.0
  0
LINE
  5
261
330
6C
100
AcDbEntity
  8
Visible (ISO)
100
AcDbLine
 10
16468.16912868698
 20
7249.829594977633
 30
0.0
 11
16448.16912868698
 21
7249.829594977633
 31
0.0
  0
LINE
  5
262
330
6C
100
AcDbEntity
  8
Visible (ISO)
100
AcDbLine
 10
16468.16912868698
 20
7249.829594977633
 30
0.0
 11
16468.16912868698
 21
7247.829594977634
 31
0.0
  0
LINE
  5
263
330
6C
100
AcDbEntity
  8
Visible (ISO)
100
AcDbLine
 10
16448.16912868698
 20
7249.829594977633
 30
0.0
 11
16448.16912868698
 21
7247.829594977634
 31
0.0
  0
LINE
  5
264
330
6C
100
AcDbEntity
  8
Visible (ISO)
100
AcDbLine
 10
18898.46350120221
 20
7249.829594977633
 30
0.0
 11
18878.46350120221
 21
7249.829594977633
 31
0.0
  0
LINE
  5
265
330
6C
100
AcDbEntity
  8
Visible (ISO)
100
AcDbLine
 10
18898.46350120221
 20
7249.829594977633
 30
0.0
 11
18898.46350120221
 21
7247.829594977634
 31
0.0
  0
LINE
  5
266
330
6C
100
AcDbEntity
  8
Visible (ISO)
100
AcDbLine
 10
18878.46350120221
 20
7249.829594977633
 30
0.0
 11
18878.46350120221
 21
7247.829594977634
 31
0.0
  0
LINE
  5
267
330
6C
100
AcDbEntity
  8
Visible (ISO)
100
AcDbLine
 10
18983.3163149446
 20
7249.829594977633
 30
0.0
 11
18963.3163149446
 21
7249.829594977633
 31
0.0
  0
LINE
  5
268
330
6C
100
AcDbEntity
  8
Visible (ISO)
100
AcDbLine
 10
18983.3163149446
 20
7249.829594977633
 30
0.0
 11
18983.3163149446
 21
7247.829594977632
 31
0.0
  0
LINE
  5
269
330
6C
100
AcDbEntity
  8
Visible (ISO)
100
AcDbLine
 10
18963.3163149446
 20
7249.829594977633
 30
0.0
 11
18963.3163149446
 21
7247.829594977632
 31
0.0
  0
LINE
  5
26A
330
6C
100
AcDbEntity
  8
Visible (ISO)
100
AcDbLine
 10
19068.16912868698
 20
7249.829594977633
 30
0.0
 11
19048.16912868698
 21
7249.829594977633
 31
0.0
  0
LINE
  5
26B
330
6C
100
AcDbEntity
  8
Visible (ISO)
100
AcDbLine
 10
19068.16912868698
 20
7249.829594977633
 30
0.0
 11
19068.16912868698
 21
7247.829594977634
 31
0.0
  0
LINE
  5
26C
330
6C
100
AcDbEntity
  8
Visible (ISO)
100
AcDbLine
 10
19048.16912868698
 20
7249.829594977633
 30
0.0
 11
19048.16912868698
 21
7247.829594977634
 31
0.0
  0
LINE
  5
26D
330
6C
100
AcDbEntity
  8
Visible (ISO)
100
AcDbLine
 10
21058.31631494462
 20
7787.829594977633
 30
0.0
 11
21058.31631494462
 21
7797.829594977634
 31
0.0
  0
LINE
  5
26E
330
6C
100
AcDbEntity
  8
Visible (ISO)
100
AcDbLine
 10
14288.31631494459
 20
7797.829594977632
 30
0.0
 11
16323.31631494459
 21
7797.829594977632
 31
0.0
  0
LINE
  5
26F
330
6C
100
AcDbEntity
  8
Visible (ISO)
100
AcDbLine
 10
19023.31631494462
 20
7797.829594977632
 30
0.0
 11
21058.31631494462
 21
7797.829594977632
 31
0.0
  0
LINE
  5
270
330
6C
100
AcDbEntity
  8
Visible (ISO)
100
AcDbLine
 10
14288.31631494459
 20
7797.829594977632
 30
0.0
 11
14288.31631494459
 21
7787.82959497763
 31
0.0
  0
LINE
  5
271
330
6C
100
AcDbEntity
  8
Visible (ISO)
100
AcDbLine
 10
16323.31631494459
 20
7787.829594977633
 30
0.0
 11
14288.31631494459
 21
7787.829594977633
 31
0.0
  0
LINE
  5
272
330
6C
100
AcDbEntity
  8
Visible Narrow (ISO)
100
AcDbLine
 10
16323.31631494459
 20
7788.329594977632
 30
0.0
 11
16323.31631494459
 21
7797.329594977632
 31
0.0
  0
LINE
  5
273
330
6C
100
AcDbEntity
  8
Visible (ISO)
100
AcDbLine
 10
21058.31631494462
 20
7787.829594977633
 30
0.0
 11
19023.31631494462
 21
7787.829594977633
 31
0.0
  0
LINE
  5
274
330
6C
100
AcDbEntity
  8
Visible Narrow (ISO)
100
AcDbLine
 10
19023.31631494462
 20
7797.329594977632
 30
0.0
 11
19023.31631494462
 21
7788.329594977634
 31
0.0
  0
LINE
  5
275
330
6C
100
AcDbEntity
  8
Visible (ISO)
100
AcDbLine
 10
19023.31631494462
 20
7797.829594977632
 30
0.0
 11
16323.31631494459
 21
7797.829594977632
 31
0.0
  0
LINE
  5
276
330
6C
100
AcDbEntity
  8
Visible (ISO)
100
AcDbLine
 10
16323.31631494459
 20
7787.829594977633
 30
0.0
 11
19023.31631494462
 21
7787.829594977633
 31
0.0
  0
INSERT
  5
282
330
6C
100
AcDbEntity
  8
0
100
AcDbBlockReference
 66
     1
  2
Tabelki rysunkowe Rzut
 10
6011.159185140821
 20
-537.0652712302228
 30
0.0
 41
50.0
 42
50.0
 43
50.0
  0
ATTRIB
  5
285
102
{ACAD_XDICTIONARY
360
9AB
102
}
330
282
100
AcDbEntity
  8
Title (ISO)
100
AcDbText
 10
14937.57555410326
 20
369.291471611835
 30
0.0
 40
125.0
  1
88200
  7
Note Text (ISO)
100
AcDbAttribute
  2
Numer_katalogowy_001
 70
     0
  0
ATTRIB
  5
286
102
{ACAD_XDICTIONARY
360
9AE
102
}
330
282
100
AcDbEntity
  8
Title (ISO)
100
AcDbText
 10
15531.69912698994
 20
19.29147161183495
 30
0.0
 40
125.0
  1
2015-08-07
  7
Note Text (ISO)
100
AcDbAttribute
  2
DATA_UTWORZENIA_001
 70
     0
  0
ATTRIB
  5
287
102
{ACAD_XDICTIONARY
360
9B1
102
}
330
282
100
AcDbEntity
  8
Title (ISO)
100
AcDbText
 10
14924.64741445396
 20
188.7508403335623
 30
0.0
 40
125.0
  1
Drabinka pozioma
  7
Note Text (ISO)
100
AcDbAttribute
  2
Nazwa_001
 70
     0
  0
SEQEND
  5
284
330
282
100
AcDbEntity
  8
0
  0
DIMENSION
  5
7D5
330
6C
100
AcDbEntity
  8
Dimension (ISO)
100
AcDbDimension
  2
*D2
 10
15850.5941655289
 20
7247.829594977632
 30
0.0
 11
15850.5941655289
 21
7522.829594977633
 31
0.0
 70
   160
  1
<>
 71
     2
 42
550.0
  3
Default (ISO)
100
AcDbAlignedDimension
 13
15850.5941655289
 23
7797.829594977632
 33
0.0
 14
16328.31631494459
 24
7247.829594977632
 34
0.0
 50
90.0
100
AcDbRotatedDimension
1001
ACAD
1000
DSTYLE
1002
{
1070
   172
1070
     0
1070
   289
1070
     1
1070
    74
1070
     0
1070
   271
1070
     2
1070
    75
1070
     1
1070
   272
1070
     3
1070
    48
1040
0.0
1070
    47
1040
0.0
1002
}
  0
DIMENSION
  5
8BA
330
6C
100
AcDbEntity
  8
Dimension (ISO)
100
AcDbDimension
  2
*D3
 10
15850.5941655289
 20
7797.829594977632
 30
0.0
 11
15850.5941655289
 21
8947.829594977632
 31
0.0
 70
   160
  1
<>
 71
     2
 42
2300.0
  3
Default (ISO)
100
AcDbAlignedDimension
 13
16326.31631494459
 23
10097.82959497763
 33
0.0
 14
16323.31631494459
 24
7797.829594977632
 34
0.0
 50
90.0
100
AcDbRotatedDimension
1001
ACAD
1000
DSTYLE
1002
{
1070
   172
1070
     0
1070
   289
1070
     1
1070
    74
1070
     0
1070
   271
1070
     2
1070
   272
1070
     3
1070
    48
1040
0.0
1070
    47
1040
0.0
1002
}
  0
DIMENSION
  5
C9B
330
6C
100
AcDbEntity
  8
Dimension (ISO)
100
AcDbDimension
  2
*D4
 10
20523.31631494462
 20
1638.594724157459
 30
0.0
 11
17673.31631494461
 21
1638.594724157459
 31
0.0
 70
   160
  1
<>
 71
     2
 42
5700.000000000022
  3
Default (ISO)
100
AcDbAlignedDimension
 13
14823.3163149446
 23
3638.594724157461
 33
0.0
 14
20523.31631494462
 24
3638.59472415746
 34
0.0
 50
180.0
100
AcDbRotatedDimension
1001
ACAD
1000
DSTYLE
1002
{
1070
   172
1070
     0
1070
   289
1070
     1
1070
    74
1070
     0
1070
   271
1070
     2
1070
   272
1070
     2
1070
    48
1040
0.0
1070
    47
1040
0.0
1002
}
  0
DIMENSION
  5
C9C
330
6C
100
AcDbEntity
  8
Dimension (ISO)
100
AcDbDimension
  2
*D5
 10
21107.30242838192
 20
2138.59472415746
 30
0.0
 11
21107.30242838192
 21
4363.594724157457
 31
0.0
 70
   160
  1
<>
 71
     2
 42
4449.999999999993
  3
Default (ISO)
100
AcDbAlignedDimension
 13
19023.31631494462
 23
6588.594724157454
 33
0.0
 14
19023.31631494462
 24
2138.59472415746
 34
0.0
 50
270.0
100
AcDbRotatedDimension
1001
ACAD
1000
DSTYLE
1002
{
1070
   172
1070
     0
1070
   289
1070
     1
1070
    74
1070
     0
1070
   271
1070
     2
1070
   272
1070
     2
1070
    48
1040
0.0
1070
    47
1040
0.0
1002
}
  0
DIMENSION
  5
C9D
330
6C
100
AcDbEntity
  8
Dimension (ISO)
100
AcDbDimension
  2
*D6
 10
19023.31631494462
 20
3141.594724157455
 30
0.0
 11
17673.31631494461
 21
3141.594724157455
 31
0.0
 70
   160
  1
<>
 71
     2
 42
2700.000000000026
  3
Default (ISO)
100
AcDbAlignedDimension
 13
16323.3163149446
 23
3641.594724157478
 33
0.0
 14
19023.31631494462
 24
3641.594724157455
 34
0.0
100
AcDbRotatedDimension
1001
ACAD
1000
DSTYLE
1002
{
1070
   172
1070
     0
1070
   289
1070
     1
1070
    74
1070
     0
1070
   271
1070
     2
1070
   272
1070
     2
1070
    48
1040
0.0
1070
    47
1040
0.0
1002
}
  0
DIMENSION
  5
C9E
330
6C
100
AcDbEntity
  8
Dimension (ISO)
100
AcDbDimension
  2
*D7
 10
19520.31631494462
 20
5088.594724157454
 30
0.0
 11
19520.31631494462
 21
4363.594724157453
 31
0.0
 70
   160
  1
<>
 71
     2
 42
1450.0
  3
Default (ISO)
100
AcDbAlignedDimension
 13
19020.31631494462
 23
3638.594724157455
 33
0.0
 14
19020.31631494462
 24
5088.594724157454
 34
0.0
 50
90.0
100
AcDbRotatedDimension
1001
ACAD
1000
DSTYLE
1002
{
1070
   172
1070
     0
1070
   289
1070
     1
1070
    74
1070
     0
1070
   271
1070
     2
1070
   272
1070
     2
1070
    48
1040
0.0
1070
    47
1040
0.0
1002
}
  0
INSERT
  5
E74
330
6C
100
AcDbEntity
  8
0
100
AcDbBlockReference
  2
88200_Drabinka-pozioma
 10
17832.66631494462
 20
4363.594724157466
 30
0.0
  0
ENDSEC
  0
SECTION
  2
OBJECTS
  0
DICTIONARY
  5
C
330
0
100
AcDbDictionary
281
     1
  3
ACAD_COLOR
350
63
  3
ACAD_GROUP
350
D
  3
ACAD_LAYOUT
350
62
  3
ACAD_MATERIAL
350
10
  3
ACAD_MLEADERSTYLE
350
66
  3
ACAD_MLINESTYLE
350
5F
  3
ACAD_PLOTSETTINGS
350
61
  3
ACAD_PLOTSTYLENAME
350
E
  3
ACAD_SCALELIST
350
42
  3
ACAD_TABLESTYLE
350
64
  3
ACAD_VISUALSTYLE
350
29
  3
ACDB_RECOMPOSE_DATA
350
EDE
  3
AcDbVariableDictionary
350
9B5
  3
DWGPROPS
350
EDF
  0
DICTIONARY
  5
CFB
330
6C
100
AcDbDictionary
280
     1
281
     1
  0
DICTIONARY
  5
9A2
330
27E
100
AcDbDictionary
280
     1
281
     1
  3
ACAD_MLATT
360
ED3
  3
ACAD_XREC_ROUNDTRIP
360
ED2
  0
DICTIONARY
  5
9A5
330
280
100
AcDbDictionary
280
     1
281
     1
  3
ACAD_MLATT
360
ED5
  3
ACAD_XREC_ROUNDTRIP
360
ED4
  0
DICTIONARY
  5
9A8
330
281
100
AcDbDictionary
280
     1
281
     1
  3
ACAD_MLATT
360
ED7
  3
ACAD_XREC_ROUNDTRIP
360
ED6
  0
DICTIONARY
  5
9AB
330
285
100
AcDbDictionary
280
     1
281
     1
  3
ACAD_MLATT
360
ED9
  3
ACAD_XREC_ROUNDTRIP
360
ED8
  0
DICTIONARY
  5
9AE
330
286
100
AcDbDictionary
280
     1
281
     1
  3
ACAD_MLATT
360
EDB
  3
ACAD_XREC_ROUNDTRIP
360
EDA
  0
DICTIONARY
  5
9B1
330
287
100
AcDbDictionary
280
     1
281
     1
  3
ACAD_MLATT
360
EDD
  3
ACAD_XREC_ROUNDTRIP
360
EDC
  0
DICTIONARY
  5
63
102
{ACAD_REACTORS
330
C
102
}
330
C
100
AcDbDictionary
281
     1
  0
DICTIONARY
  5
D
102
{ACAD_REACTORS
330
C
102
}
330
C
100
AcDbDictionary
281
     1
  0
DICTIONARY
  5
62
102
{ACAD_REACTORS
330
C
102
}
330
C
100
AcDbDictionary
281
     1
  3
Layout1
350
6B
  3
Layout2
350
73
  3
Model
350
6F
  0
DICTIONARY
  5
10
102
{ACAD_REACTORS
330
C
102
}
330
C
100
AcDbDictionary
281
     1
  3
ByBlock
350
19
  3
ByLayer
350
11
  3
Global
350
21
  0
DICTIONARY
  5
66
102
{ACAD_REACTORS
330
C
102
}
330
C
100
AcDbDictionary
281
     1
  3
Standard
350
67
  0
DICTIONARY
  5
5F
102
{ACAD_REACTORS
330
C
102
}
330
C
100
AcDbDictionary
281
     1
  3
Standard
350
60
  0
DICTIONARY
  5
61
102
{ACAD_REACTORS
330
C
102
}
330
C
100
AcDbDictionary
281
     1
  0
ACDBDICTIONARYWDFLT
  5
E
102
{ACAD_REACTORS
330
C
102
}
330
C
100
AcDbDictionary
281
     1
  3
Normal
350
F
100
AcDbDictionaryWithDefault
340
F
  0
DICTIONARY
  5
42
102
{ACAD_REACTORS
330
C
102
}
330
C
100
AcDbDictionary
281
     1
  3
A0
350
43
  3
A1
350
44
  3
A2
350
45
  3
A3
350
46
  3
A4
350
47
  3
A5
350
48
  3
A6
350
49
  3
A7
350
4A
  3
A8
350
4B
  3
A9
350
4C
  3
B0
350
4D
  3
B1
350
4E
  3
B2
350
4F
  3
B3
350
50
  3
B4
350
51
  3
B5
350
52
  3
B6
350
53
  0
DICTIONARY
  5
64
102
{ACAD_REACTORS
330
C
102
}
330
C
100
AcDbDictionary
281
     1
  3
Standard
350
65
  0
DICTIONARY
  5
29
102
{ACAD_REACTORS
330
C
102
}
330
C
100
AcDbDictionary
281
     1
  3
2dWireframe
350
2F
  3
Basic
350
2E
  3
Brighten
350
35
  3
ColorChange
350
39
  3
Conceptual
350
32
  3
Dim
350
34
  3
EdgeColorOff
350
41
  3
Facepattern
350
38
  3
Flat
350
2A
  3
FlatWithEdges
350
2B
  3
Gouraud
350
2C
  3
GouraudWithEdges
350
2D
  3
Hidden
350
31
  3
JitterOff
350
3F
  3
Linepattern
350
37
  3
OverhangOff
350
40
  3
Realistic
350
33
  3
Shaded
350
3E
  3
Shaded with edges
350
3D
  3
Shades of Gray
350
3A
  3
Sketchy
350
3B
  3
Thicken
350
36
  3
Wireframe
350
30
  3
X-Ray
350
3C
  0
XRECORD
  5
EDE
102
{ACAD_REACTORS
330
C
102
}
330
C
100
AcDbXrecord
280
     1
 90
        1
330
65
330
27E
330
280
330
281
330
285
330
286
330
287
  0
DICTIONARY
  5
9B5
102
{ACAD_REACTORS
330
C
102
}
330
C
100
AcDbDictionary
281
     1
  3
CANNOSCALE
350
9B8
  3
CMLEADERSTYLE
350
9B7
  3
CTABLESTYLE
350
9B6
  3
DIMASSOC
350
E7C
  3
HIDETEXT
350
E7B
  3
INDEXCTL
350
E7A
  3
LAYEREVAL
350
E77
  3
LAYERNOTIFY
350
E78
  3
LIGHTINGUNITS
350
E76
  3
MSLTSCALE
350
E75
  3
SORTENTS
350
E79
  3
XCLIPFRAME
350
ED0
  0
XRECORD
  5
EDF
102
{ACAD_REACTORS
330
C
102
}
330
C
100
AcDbXrecord
280
     1
  1
DWGPROPS COOKIE
  2

  3

  4
Maruszak Marcin
  6

  7

  8
Natalia
  9
01
300
Menadżer=
301
Firma=Muller
302
Kategoria=
303
Numer części=
304
Opis=
305
Projekt=
306
Projektant=Maruszak Marcin
307
Inżynier=
308
Zatwierdził=
309
Centrum kosztów=
 40
0.0008424768518519
 41
2457242.482183715
 42
2458619.617264237
  1

 90
       16
300
Dostawca=
300
Stan użytkownika=
300
Stan projektu=PracaWToku
300
Sprawdził=
300
Zatwierdził konstrukcję=Muller
300
Zatwierdził do produkcji=
  0
XRECORD
  5
ED3
102
{ACAD_REACTORS
330
9A2
102
}
330
9A2
100
AcDbXrecord
280
     1
 70
     4
 70
     0
 70
     0
 40
1.0
  2
Numer_katalogowy
  1
Embedded Object
 10
178.6525718386176
 20
20.68422014898354
 30
0.0
 40
2.5
 41
39.63119806127143
 46
0.0
 71
     1
 72
     5
  1
88200
  7
Note Text (ISO)
 73
     1
 44
1.0
  0
XRECORD
  5
ED2
102
{ACAD_REACTORS
330
9A2
102
}
330
9A2
100
AcDbXrecord
280
     1
102
ACAD_MATT_HEIGHT
140
2.5
  0
XRECORD
  5
ED5
102
{ACAD_REACTORS
330
9A5
102
}
330
9A5
100
AcDbXrecord
280
     1
 70
     4
 70
     0
 70
     0
 40
1.0
  2
DATA_UTWORZENIA
  1
Embedded Object
 10
190.5938075676742
 20
13.68422014898353
 30
0.0
 40
2.5
 41
40.52963831958745
 46
0.0
 71
     1
 72
     5
  1
2015-08-07
  7
Note Text (ISO)
 73
     1
 44
1.0
  0
XRECORD
  5
ED4
102
{ACAD_REACTORS
330
9A5
102
}
330
9A5
100
AcDbXrecord
280
     1
102
ACAD_MATT_HEIGHT
140
2.5
  0
XRECORD
  5
ED7
102
{ACAD_REACTORS
330
9A8
102
}
330
9A8
100
AcDbXrecord
280
     1
 70
     4
 70
     0
 70
     0
 40
1.0
  2
Nazwa
  1
Embedded Object
 10
178.5232904425422
 20
17.1288138363798
 30
0.0
 40
2.5
 41
38.632931107587
 46
0.0
 71
     1
 72
     5
  1
Drabinka pozioma
  7
Note Text (ISO)
 73
     1
 44
1.0
  0
XRECORD
  5
ED6
102
{ACAD_REACTORS
330
9A8
102
}
330
9A8
100
AcDbXrecord
280
     1
102
ACAD_MATT_HEIGHT
140
2.5
  0
XRECORD
  5
ED9
102
{ACAD_REACTORS
330
9AB
102
}
330
9AB
100
AcDbXrecord
280
     1
 70
     2
 70
     0
 70
     0
 40
1.0
  2
Numer_katalogowy
  1
Embedded Object
 10
14943.7877770717
 20
497.1457362189538
 30
0.0
 40
125.0
 41
1981.559903063571
 46
0.0
 71
     1
 72
     5
  1
88200
  7
Note Text (ISO)
 73
     1
 44
1.0
  0
XRECORD
  5
ED8
102
{ACAD_REACTORS
330
9AB
102
}
330
9AB
100
AcDbXrecord
280
     1
102
ACAD_MATT_HEIGHT
140
125.0
  0
XRECORD
  5
EDB
102
{ACAD_REACTORS
330
9AE
102
}
330
9AE
100
AcDbXrecord
280
     1
 70
     2
 70
     0
 70
     0
 40
1.0
  2
DATA_UTWORZENIA
  1
Embedded Object
 10
15540.84956352453
 20
147.1457362189538
 30
0.0
 40
125.0
 41
2026.481915979373
 46
0.0
 71
     1
 72
     5
  1
2015-08-07
  7
Note Text (ISO)
 73
     1
 44
1.0
  0
XRECORD
  5
EDA
102
{ACAD_REACTORS
330
9AE
102
}
330
9AE
100
AcDbXrecord
280
     1
102
ACAD_MATT_HEIGHT
140
125.0
  0
XRECORD
  5
EDD
102
{ACAD_REACTORS
330
9B1
102
}
330
9B1
100
AcDbXrecord
280
     1
 70
     2
 70
     0
 70
     0
 40
1.0
  2
Nazwa
  1
Embedded Object
 10
14937.32370726793
 20
319.3754205887672
 30
0.0
 40
125.0
 41
1931.64655537935
 46
0.0
 71
     1
 72
     5
  1
Drabinka pozioma
  7
Note Text (ISO)
 73
     1
 44
1.0
  0
XRECORD
  5
EDC
102
{ACAD_REACTORS
330
9B1
102
}
330
9B1
100
AcDbXrecord
280
     1
102
ACAD_MATT_HEIGHT
140
125.0
  0
LAYOUT
  5
6B
102
{ACAD_XDICTIONARY
360
F11
102
}
102
{ACAD_REACTORS
330
62
102
}
330
62
100
AcDbPlotSettings
  1

  2

  4

  6

 40
0.0
 41
0.0
 42
0.0
 43
0.0
 44
0.0
 45
0.0
 46
0.0
 47
0.0
 48
0.0
 49
0.0
140
0.0
141
0.0
142
1.0
143
1.0
 70
   688
 72
     0
 73
     0
 74
     5
  7

 75
    16
147
1.0
148
0.0
149
0.0
100
AcDbLayout
  1
Layout1
 70
     1
 71
     1
 10
0.0
 20
0.0
 11
14850.0
 21
10500.0
 12
0.0
 22
0.0
 32
0.0
 14
0.0
 24
0.0
 34
0.0
 15
14850.0
 25
10500.0
 35
0.0
146
0.0
 13
0.0
 23
0.0
 33
0.0
 16
1.0
 26
0.0
 36
0.0
 17
0.0
 27
1.0
 37
0.0
 76
     0
330
68
  0
LAYOUT
  5
73
102
{ACAD_XDICTIONARY
360
F15
102
}
102
{ACAD_REACTORS
330
62
102
}
330
62
100
AcDbPlotSettings
  1

  2

  4

  6

 40
0.0
 41
0.0
 42
0.0
 43
0.0
 44
0.0
 45
0.0
 46
0.0
 47
0.0
 48
0.0
 49
0.0
140
0.0
141
0.0
142
1.0
143
1.0
 70
   688
 72
     0
 73
     0
 74
     5
  7

 75
    16
147
1.0
148
0.0
149
0.0
100
AcDbLayout
  1
Layout2
 70
     1
 71
     2
 10
0.0
 20
0.0
 11
12.0
 21
9.0
 12
0.0
 22
0.0
 32
0.0
 14
0.0
 24
0.0
 34
0.0
 15
0.0
 25
0.0
 35
0.0
146
0.0
 13
0.0
 23
0.0
 33
0.0
 16
1.0
 26
0.0
 36
0.0
 17
0.0
 27
1.0
 37
0.0
 76
     0
330
70
  0
LAYOUT
  5
6F
102
{ACAD_XDICTIONARY
360
F13
102
}
102
{ACAD_REACTORS
330
62
102
}
330
62
100
AcDbPlotSettings
  1

  2

  4

  6

 40
0.0
 41
0.0
 42
0.0
 43
0.0
 44
0.0
 45
0.0
 46
0.0
 47
0.0
 48
0.0
 49
0.0
140
0.0
141
0.0
142
1.0
143
1.0
 70
  1712
 72
     0
 73
     0
 74
     0
  7

 75
     0
147
1.0
148
0.0
149
0.0
100
AcDbLayout
  1
Model
 70
     1
 71
     0
 10
0.0
 20
0.0
 11
12.0
 21
9.0
 12
0.0
 22
0.0
 32
0.0
 14
0.0
 24
0.0
 34
0.0
 15
0.0
 25
0.0
 35
0.0
146
0.0
 13
0.0
 23
0.0
 33
0.0
 16
1.0
 26
0.0
 36
0.0
 17
0.0
 27
1.0
 37
0.0
 76
     0
330
6C
331
57
  0
MATERIAL
  5
19
102
{ACAD_XDICTIONARY
360
1A
102
}
102
{ACAD_REACTORS
330
10
102
}
330
10
100
AcDbMaterial
  1
ByBlock
 72
     0
 43
0.0208333333333333
 43
0.0
 43
0.0
 43
0.0
 43
0.0
 43
0.0208333333333333
 43
0.0
 43
0.0
 43
0.0
 43
0.0
 43
1.0
 43
0.0
 43
0.0
 43
0.0
 43
0.0
 43
1.0
 77
     0
 47
0.0208333333333333
 47
0.0
 47
0.0
 47
0.0
 47
0.0
 47
0.0208333333333333
 47
0.0
 47
0.0
 47
0.0
 47
0.0
 47
1.0
 47
0.0
 47
0.0
 47
0.0
 47
0.0
 47
1.0
171
     0
 49
0.0208333333333333
 49
0.0
 49
0.0
 49
0.0
 49
0.0
 49
0.0208333333333333
 49
0.0
 49
0.0
 49
0.0
 49
0.0
 49
1.0
 49
0.0
 49
0.0
 49
0.0
 49
0.0
 49
1.0
175
     0
142
0.0208333333333333
142
0.0
142
0.0
142
0.0
142
0.0
142
0.0208333333333333
142
0.0
142
0.0
142
0.0
142
0.0
142
1.0
142
0.0
142
0.0
142
0.0
142
0.0
142
1.0
179
     0
144
0.0208333333333333
144
0.0
144
0.0
144
0.0
144
0.0
144
0.0208333333333333
144
0.0
144
0.0
144
0.0
144
0.0
144
1.0
144
0.0
144
0.0
144
0.0
144
0.0
144
1.0
147
0.0208333333333333
147
0.0
147
0.0
147
0.0
147
0.0
147
0.0208333333333333
147
0.0
147
0.0
147
0.0
147
0.0
147
1.0
147
0.0
147
0.0
147
0.0
147
0.0
147
1.0
  0
MATERIAL
  5
11
102
{ACAD_XDICTIONARY
360
12
102
}
102
{ACAD_REACTORS
330
10
102
}
330
10
100
AcDbMaterial
  1
ByLayer
 72
     0
 43
0.0208333333333333
 43
0.0
 43
0.0
 43
0.0
 43
0.0
 43
0.0208333333333333
 43
0.0
 43
0.0
 43
0.0
 43
0.0
 43
1.0
 43
0.0
 43
0.0
 43
0.0
 43
0.0
 43
1.0
 77
     0
 47
0.0208333333333333
 47
0.0
 47
0.0
 47
0.0
 47
0.0
 47
0.0208333333333333
 47
0.0
 47
0.0
 47
0.0
 47
0.0
 47
1.0
 47
0.0
 47
0.0
 47
0.0
 47
0.0
 47
1.0
171
     0
 49
0.0208333333333333
 49
0.0
 49
0.0
 49
0.0
 49
0.0
 49
0.0208333333333333
 49
0.0
 49
0.0
 49
0.0
 49
0.0
 49
1.0
 49
0.0
 49
0.0
 49
0.0
 49
0.0
 49
1.0
175
     0
142
0.0208333333333333
142
0.0
142
0.0
142
0.0
142
0.0
142
0.0208333333333333
142
0.0
142
0.0
142
0.0
142
0.0
142
1.0
142
0.0
142
0.0
142
0.0
142
0.0
142
1.0
179
     0
144
0.0208333333333333
144
0.0
144
0.0
144
0.0
144
0.0
144
0.0208333333333333
144
0.0
144
0.0
144
0.0
144
0.0
144
1.0
144
0.0
144
0.0
144
0.0
144
0.0
144
1.0
147
0.0208333333333333
147
0.0
147
0.0
147
0.0
147
0.0
147
0.0208333333333333
147
0.0
147
0.0
147
0.0
147
0.0
147
1.0
147
0.0
147
0.0
147
0.0
147
0.0
147
1.0
  0
MATERIAL
  5
21
102
{ACAD_XDICTIONARY
360
22
102
}
102
{ACAD_REACTORS
330
10
102
}
330
10
100
AcDbMaterial
  1
Global
 72
     0
 43
0.0208333333333333
 43
0.0
 43
0.0
 43
0.0
 43
0.0
 43
0.0208333333333333
 43
0.0
 43
0.0
 43
0.0
 43
0.0
 43
1.0
 43
0.0
 43
0.0
 43
0.0
 43
0.0
 43
1.0
 77
     0
 47
0.0208333333333333
 47
0.0
 47
0.0
 47
0.0
 47
0.0
 47
0.0208333333333333
 47
0.0
 47
0.0
 47
0.0
 47
0.0
 47
1.0
 47
0.0
 47
0.0
 47
0.0
 47
0.0
 47
1.0
171
     0
 49
0.0208333333333333
 49
0.0
 49
0.0
 49
0.0
 49
0.0
 49
0.0208333333333333
 49
0.0
 49
0.0
 49
0.0
 49
0.0
 49
1.0
 49
0.0
 49
0.0
 49
0.0
 49
0.0
 49
1.0
175
     0
142
0.0208333333333333
142
0.0
142
0.0
142
0.0
142
0.0
142
0.0208333333333333
142
0.0
142
0.0
142
0.0
142
0.0
142
1.0
142
0.0
142
0.0
142
0.0
142
0.0
142
1.0
179
     0
144
0.0208333333333333
144
0.0
144
0.0
144
0.0
144
0.0
144
0.0208333333333333
144
0.0
144
0.0
144
0.0
144
0.0
144
1.0
144
0.0
144
0.0
144
0.0
144
0.0
144
1.0
147
0.0208333333333333
147
0.0
147
0.0
147
0.0
147
0.0
147
0.0208333333333333
147
0.0
147
0.0
147
0.0
147
0.0
147
1.0
147
0.0
147
0.0
147
0.0
147
0.0
147
1.0
  0
MLEADERSTYLE
  5
67
102
{ACAD_REACTORS
330
66
102
}
330
66
100
AcDbMLeaderStyle
170
     2
171
     1
172
     0
 90
        2
 40
0.0
 41
0.0
173
     1
 91
-1056964608
340
5B
 92
       -2
290
     1
 42
0.09
291
     1
 43
0.36
  3
Standard
 44
0.18
300

342
55
174
     1
178
     6
175
     1
176
     0
 93
-1056964608
 45
0.18
292
     0
297
     0
 46
0.18
 94
-1056964608
 47
1.0
 49
1.0
140
1.0
293
     1
141
0.0
294
     1
177
     0
142
1.0
295
     0
296
     0
143
0.125
1001
ACAD_MLEADERVER
1070
     2
  0
MLINESTYLE
  5
60
102
{ACAD_REACTORS
330
5F
102
}
330
5F
100
AcDbMlineStyle
  2
STANDARD
 70
     0
  3

 62
   256
 51
90.0
 52
90.0
 71
     2
 49
0.5
 62
   256
  6
BYLAYER
 49
-0.5
 62
   256
  6
BYLAYER
  0
ACDBPLACEHOLDER
  5
F
102
{ACAD_REACTORS
330
E
102
}
330
E
  0
SCALE
  5
43
102
{ACAD_REACTORS
330
42
102
}
330
42
100
AcDbScale
 70
     0
300
1:1
140
1.0
141
1.0
290
     1
  0
SCALE
  5
44
102
{ACAD_REACTORS
330
42
102
}
330
42
100
AcDbScale
 70
     0
300
1/128" = 1'-0"
140
0.0078125
141
12.0
290
     0
  0
SCALE
  5
45
102
{ACAD_REACTORS
330
42
102
}
330
42
100
AcDbScale
 70
     0
300
1/64" = 1'-0"
140
0.015625
141
12.0
290
     0
  0
SCALE
  5
46
102
{ACAD_REACTORS
330
42
102
}
330
42
100
AcDbScale
 70
     0
300
1/32" = 1'-0"
140
0.03125
141
12.0
290
     0
  0
SCALE
  5
47
102
{ACAD_REACTORS
330
42
102
}
330
42
100
AcDbScale
 70
     0
300
1/16" = 1'-0"
140
0.0625
141
12.0
290
     0
  0
SCALE
  5
48
102
{ACAD_REACTORS
330
42
102
}
330
42
100
AcDbScale
 70
     0
300
3/32" = 1'-0"
140
0.09375
141
12.0
290
     0
  0
SCALE
  5
49
102
{ACAD_REACTORS
330
42
102
}
330
42
100
AcDbScale
 70
     0
300
1/8" = 1'-0"
140
0.125
141
12.0
290
     0
  0
SCALE
  5
4A
102
{ACAD_REACTORS
330
42
102
}
330
42
100
AcDbScale
 70
     0
300
3/16" = 1'-0"
140
0.1875
141
12.0
290
     0
  0
SCALE
  5
4B
102
{ACAD_REACTORS
330
42
102
}
330
42
100
AcDbScale
 70
     0
300
1/4" = 1'-0"
140
0.25
141
12.0
290
     0
  0
SCALE
  5
4C
102
{ACAD_REACTORS
330
42
102
}
330
42
100
AcDbScale
 70
     0
300
3/8" = 1'-0"
140
0.375
141
12.0
290
     0
  0
SCALE
  5
4D
102
{ACAD_REACTORS
330
42
102
}
330
42
100
AcDbScale
 70
     0
300
1/2" = 1'-0"
140
0.5
141
12.0
290
     0
  0
SCALE
  5
4E
102
{ACAD_REACTORS
330
42
102
}
330
42
100
AcDbScale
 70
     0
300
3/4" = 1'-0"
140
0.75
141
12.0
290
     0
  0
SCALE
  5
4F
102
{ACAD_REACTORS
330
42
102
}
330
42
100
AcDbScale
 70
     0
300
1" = 1'-0"
140
1.0
141
12.0
290
     0
  0
SCALE
  5
50
102
{ACAD_REACTORS
330
42
102
}
330
42
100
AcDbScale
 70
     0
300
1-1/2" = 1'-0"
140
1.5
141
12.0
290
     0
  0
SCALE
  5
51
102
{ACAD_REACTORS
330
42
102
}
330
42
100
AcDbScale
 70
     0
300
3" = 1'-0"
140
3.0
141
12.0
290
     0
  0
SCALE
  5
52
102
{ACAD_REACTORS
330
42
102
}
330
42
100
AcDbScale
 70
     0
300
6" = 1'-0"
140
6.0
141
12.0
290
     0
  0
SCALE
  5
53
102
{ACAD_REACTORS
330
42
102
}
330
42
100
AcDbScale
 70
     0
300
1'-0" = 1'-0"
140
12.0
141
12.0
290
     0
  0
TABLESTYLE
  5
65
102
{ACAD_XDICTIONARY
360
E7E
102
}
102
{ACAD_REACTORS
330
64
102
}
330
64
100
AcDbTableStyle
  3
Standard
 70
     0
 71
     0
 40
0.06
 41
0.06
280
     0
281
     0
  7
Standard
140
0.18
170
     2
 62
     0
 63
     7
283
     0
274
    -2
284
     1
 64
     0
275
    -2
285
     1
 65
     0
276
    -2
286
     1
 66
     0
277
    -2
287
     1
 67
     0
278
    -2
288
     1
 68
     0
279
    -2
289
     1
 69
     0
  7
Standard
140
0.25
170
     5
 62
     0
 63
     7
283
     0
274
    -2
284
     1
 64
     0
275
    -2
285
     1
 65
     0
276
    -2
286
     1
 66
     0
277
    -2
287
     1
 67
     0
278
    -2
288
     1
 68
     0
279
    -2
289
     1
 69
     0
  7
Standard
140
0.18
170
     5
 62
     0
 63
     7
283
     0
274
    -2
284
     1
 64
     0
275
    -2
285
     1
 65
     0
276
    -2
286
     1
 66
     0
277
    -2
287
     1
 67
     0
278
    -2
288
     1
 68
     0
279
    -2
289
     1
 69
     0
  0
VISUALSTYLE
  5
2F
102
{ACAD_XDICTIONARY
360
EEA
102
}
102
{ACAD_REACTORS
330
29
102
}
330
29
100
AcDbVisualStyle
  2

 70
     4
 71
     0
 72
     2
 73
     0
 90
        0
 40
-0.6
 41
-30.0
 62
     5
 63
     7
 74
     1
 91
        4
 64
     7
 65
   257
 75
     1
175
     1
 42
1.0
 92
        0
 66
   257
 43
1.0
 76
     1
 77
     6
 78
     2
 67
     7
 79
     5
170
     0
171
     0
290
     0
174
     0
 93
        1
 44
0.0
173
     0
291
     0
 45
0.0
1001
ACAD
1000
AcDbSavedByObjectVersion
1070
     0
  0
VISUALSTYLE
  5
2E
102
{ACAD_XDICTIONARY
360
EE8
102
}
102
{ACAD_REACTORS
330
29
102
}
330
29
100
AcDbVisualStyle
  2

 70
     7
 71
     1
 72
     0
 73
     1
 90
        0
 40
-0.6
 41
-30.0
 62
     5
 63
     7
 74
     0
 91
        4
 64
     7
 65
   257
 75
     1
175
     1
 42
1.0
 92
        8
 66
     7
 43
1.0
 76
     1
 77
     6
 78
     2
 67
     7
 79
     5
170
     0
171
     0
290
     0
174
     0
 93
        1
 44
0.0
173
     0
291
     1
 45
0.0
1001
ACAD
1000
AcDbSavedByObjectVersion
1070
     0
  0
VISUALSTYLE
  5
35
102
{ACAD_XDICTIONARY
360
EF6
102
}
102
{ACAD_REACTORS
330
29
102
}
330
29
100
AcDbVisualStyle
  2

 70
    12
 71
     2
 72
     2
 73
     0
 90
        0
 40
-0.6
 41
-30.0
 62
     5
 63
     7
 74
     1
 91
        4
 64
     7
 65
   257
 75
     1
175
     1
 42
1.0
 92
        8
 66
     7
 43
1.0
 76
     1
 77
     6
 78
     2
 67
     7
 79
     5
170
     0
171
     0
290
     0
174
     0
 93
        1
 44
50.0
173
     0
291
     1
 45
0.0
1001
ACAD
1000
AcDbSavedByObjectVersion
1070
     0
  0
VISUALSTYLE
  5
39
102
{ACAD_XDICTIONARY
360
EFE
102
}
102
{ACAD_REACTORS
330
29
102
}
330
29
100
AcDbVisualStyle
  2

 70
    16
 71
     2
 72
     2
 73
     3
 90
        0
 40
-0.6
 41
-30.0
 62
     5
 63
     8
 74
     1
 91
        4
 64
     7
 65
   257
 75
     1
175
     1
 42
1.0
 92
        8
 66
     8
 43
1.0
 76
     1
 77
     6
 78
     2
 67
     7
 79
     5
170
     0
171
     0
290
     0
174
     0
 93
        1
 44
0.0
173
     0
291
     1
 45
0.0
1001
ACAD
1000
AcDbSavedByObjectVersion
1070
     0
  0
VISUALSTYLE
  5
32
102
{ACAD_XDICTIONARY
360
EF0
102
}
102
{ACAD_REACTORS
330
29
102
}
330
29
100
AcDbVisualStyle
  2

 70
     9
 71
     3
 72
     2
 73
     0
 90
        0
 40
-0.6
 41
-30.0
 62
     5
 63
     7
 74
     2
 91
        2
 64
     7
 65
   257
 75
     1
175
     1
 42
179.0
 92
        8
 66
     7
 43
1.0
 76
     1
 77
     6
 78
     2
 67
     7
 79
     3
170
     0
171
     0
290
     0
174
     0
 93
        1
 44
0.0
173
     0
291
     0
 45
0.0
1001
ACAD
1000
AcDbSavedByObjectVersion
1070
     0
  0
VISUALSTYLE
  5
34
102
{ACAD_XDICTIONARY
360
EF4
102
}
102
{ACAD_REACTORS
330
29
102
}
330
29
100
AcDbVisualStyle
  2

 70
    11
 71
     2
 72
     2
 73
     0
 90
        0
 40
-0.6
 41
-30.0
 62
     5
 63
     7
 74
     1
 91
        4
 64
     7
 65
   257
 75
     1
175
     1
 42
1.0
 92
        8
 66
     7
 43
1.0
 76
     1
 77
     6
 78
     2
 67
     7
 79
     5
170
     0
171
     0
290
     0
174
     0
 93
        1
 44
-50.0
173
     0
291
     1
 45
0.0
1001
ACAD
1000
AcDbSavedByObjectVersion
1070
     0
  0
VISUALSTYLE
  5
41
102
{ACAD_XDICTIONARY
360
F0E
102
}
102
{ACAD_REACTORS
330
29
102
}
330
29
100
AcDbVisualStyle
  2

 70
    22
 71
     2
 72
     2
 73
     0
 90
        0
 40
-0.6
 41
-30.0
 62
     5
 63
     7
 74
     1
 91
        4
 64
     7
 65
   257
 75
     1
175
     1
 42
1.0
 92
        8
 66
     7
 43
1.0
 76
     1
 77
     6
 78
     2
 67
     7
 79
     5
170
     0
171
     0
290
     0
174
     0
 93
        1
 44
0.0
173
     0
291
     1
 45
0.0
1001
ACAD
1000
AcDbSavedByObjectVersion
1070
     0
  0
VISUALSTYLE
  5
38
102
{ACAD_XDICTIONARY
360
EFC
102
}
102
{ACAD_REACTORS
330
29
102
}
330
29
100
AcDbVisualStyle
  2

 70
    15
 71
     2
 72
     2
 73
     0
 90
        0
 40
-0.6
 41
-30.0
 62
     5
 63
     7
 74
     1
 91
        4
 64
     7
 65
   257
 75
     1
175
     1
 42
1.0
 92
        8
 66
     7
 43
1.0
 76
     1
 77
     6
 78
     2
 67
     7
 79
     5
170
     0
171
     0
290
     0
174
     0
 93
        1
 44
0.0
173
     0
291
     1
 45
0.0
1001
ACAD
1000
AcDbSavedByObjectVersion
1070
     0
  0
VISUALSTYLE
  5
2A
102
{ACAD_XDICTIONARY
360
EE0
102
}
102
{ACAD_REACTORS
330
29
102
}
330
29
100
AcDbVisualStyle
  2

 70
     0
 71
     2
 72
     1
 73
     1
 90
        2
 40
-0.6
 41
30.0
 62
     5
 63
     7
 74
     0
 91
        0
 64
     7
 65
   257
 75
     1
175
     1
 42
1.0
 92
        8
 66
     7
 43
1.0
 76
     1
 77
     6
 78
     2
 67
     7
 79
     5
170
     0
171
     0
290
     0
174
     0
 93
       13
 44
0.0
173
     0
291
     1
 45
0.0
1001
ACAD
1000
AcDbSavedByObjectVersion
1070
     0
  0
VISUALSTYLE
  5
2B
102
{ACAD_XDICTIONARY
360
EE2
102
}
102
{ACAD_REACTORS
330
29
102
}
330
29
100
AcDbVisualStyle
  2

 70
     1
 71
     2
 72
     1
 73
     1
 90
        2
 40
-0.6
 41
30.0
 62
     5
 63
     7
 74
     1
 91
        0
 64
     7
 65
   257
 75
     1
175
     1
 42
1.0
 92
        0
 66
   257
 43
1.0
 76
     1
 77
     6
 78
     2
 67
     7
 79
     5
170
     0
171
     0
290
     0
174
     0
 93
       13
 44
0.0
173
     0
291
     1
 45
0.0
1001
ACAD
1000
AcDbSavedByObjectVersion
1070
     0
  0
VISUALSTYLE
  5
2C
102
{ACAD_XDICTIONARY
360
EE4
102
}
102
{ACAD_REACTORS
330
29
102
}
330
29
100
AcDbVisualStyle
  2

 70
     2
 71
     2
 72
     2
 73
     1
 90
        2
 40
-0.6
 41
30.0
 62
     5
 63
     7
 74
     0
 91
        0
 64
     7
 65
   257
 75
     1
175
     1
 42
1.0
 92
        0
 66
     7
 43
1.0
 76
     1
 77
     6
 78
     2
 67
     7
 79
     5
170
     0
171
     0
290
     0
174
     0
 93
       13
 44
0.0
173
     0
291
     1
 45
0.0
1001
ACAD
1000
AcDbSavedByObjectVersion
1070
     0
  0
VISUALSTYLE
  5
2D
102
{ACAD_XDICTIONARY
360
EE6
102
}
102
{ACAD_REACTORS
330
29
102
}
330
29
100
AcDbVisualStyle
  2

 70
     3
 71
     2
 72
     2
 73
     1
 90
        2
 40
-0.6
 41
30.0
 62
     5
 63
     7
 74
     1
 91
        0
 64
     7
 65
   257
 75
     1
175
     1
 42
1.0
 92
        0
 66
   257
 43
1.0
 76
     1
 77
     6
 78
     2
 67
     7
 79
     5
170
     0
171
     0
290
     0
174
     0
 93
       13
 44
0.0
173
     0
291
     1
 45
0.0
1001
ACAD
1000
AcDbSavedByObjectVersion
1070
     0
  0
VISUALSTYLE
  5
31
102
{ACAD_XDICTIONARY
360
EEE
102
}
102
{ACAD_REACTORS
330
29
102
}
330
29
100
AcDbVisualStyle
  2

 70
     6
 71
     1
 72
     2
 73
     2
 90
        0
 40
-0.6
 41
-30.0
 62
     5
 63
     7
 74
     2
 91
        2
 64
     7
 65
   257
 75
     2
175
     1
 42
40.0
 92
        0
 66
   257
 43
1.0
 76
     1
 77
     6
 78
     2
 67
     7
 79
     3
170
     0
171
     0
290
     0
174
     0
 93
        1
 44
0.0
173
     0
291
     0
 45
0.0
1001
ACAD
1000
AcDbSavedByObjectVersion
1070
     0
  0
VISUALSTYLE
  5
3F
102
{ACAD_XDICTIONARY
360
F0A
102
}
102
{ACAD_REACTORS
330
29
102
}
330
29
100
AcDbVisualStyle
  2

 70
    20
 71
     2
 72
     2
 73
     0
 90
        0
 40
-0.6
 41
-30.0
 62
     5
 63
     7
 74
     1
 91
        4
 64
     7
 65
   257
 75
     1
175
     1
 42
1.0
 92
       10
 66
     7
 43
1.0
 76
     1
 77
     6
 78
     2
 67
     7
 79
     5
170
     0
171
     0
290
     0
174
     0
 93
        1
 44
0.0
173
     0
291
     1
 45
0.0
1001
ACAD
1000
AcDbSavedByObjectVersion
1070
     0
  0
VISUALSTYLE
  5
37
102
{ACAD_XDICTIONARY
360
EFA
102
}
102
{ACAD_REACTORS
330
29
102
}
330
29
100
AcDbVisualStyle
  2

 70
    14
 71
     2
 72
     2
 73
     0
 90
        0
 40
-0.6
 41
-30.0
 62
     5
 63
     7
 74
     1
 91
        4
 64
     7
 65
   257
 75
     7
175
     7
 42
1.0
 92
        8
 66
     7
 43
1.0
 76
     1
 77
     6
 78
     2
 67
     7
 79
     5
170
     0
171
     0
290
     0
174
     0
 93
        1
 44
0.0
173
     0
291
     1
 45
0.0
1001
ACAD
1000
AcDbSavedByObjectVersion
1070
     0
  0
VISUALSTYLE
  5
40
102
{ACAD_XDICTIONARY
360
F0C
102
}
102
{ACAD_REACTORS
330
29
102
}
330
29
100
AcDbVisualStyle
  2

 70
    21
 71
     2
 72
     2
 73
     0
 90
        0
 40
-0.6
 41
-30.0
 62
     5
 63
     7
 74
     1
 91
        4
 64
     7
 65
   257
 75
     1
175
     1
 42
1.0
 92
        9
 66
     7
 43
1.0
 76
     1
 77
     6
 78
     2
 67
     7
 79
     5
170
     0
171
     0
290
     0
174
     0
 93
        1
 44
0.0
173
     0
291
     1
 45
0.0
1001
ACAD
1000
AcDbSavedByObjectVersion
1070
     0
  0
VISUALSTYLE
  5
33
102
{ACAD_XDICTIONARY
360
EF2
102
}
102
{ACAD_REACTORS
330
29
102
}
330
29
100
AcDbVisualStyle
  2

 70
     8
 71
     2
 72
     3
 73
     0
 90
        2
 40
-0.6
 41
30.0
 62
     5
 63
     7
 74
     0
 91
        0
 64
     7
 65
   257
 75
     1
175
     1
 42
1.0
 92
        8
 66
   257
 43
1.0
 76
     1
 77
     6
 78
     2
 67
     7
 79
     3
170
     0
171
     0
290
     0
174
     0
 93
       13
 44
0.0
173
     0
291
     0
 45
0.0
1001
ACAD
1000
AcDbSavedByObjectVersion
1070
     0
  0
VISUALSTYLE
  5
3E
102
{ACAD_XDICTIONARY
360
F08
102
}
102
{ACAD_REACTORS
330
29
102
}
330
29
100
AcDbVisualStyle
  2

 70
    27
 71
     2
 72
     2
 73
     1
 90
        2
 40
-0.6
 41
30.0
 62
     5
 63
     7
 74
     0
 91
        4
 64
     7
 65
   257
 75
     1
175
     1
 42
1.0
 92
        8
 66
   257
 43
1.0
 76
     1
 77
     6
 78
     2
 67
     8
 79
     3
170
     0
171
     0
290
     0
174
     0
 93
        5
 44
0.0
173
     0
291
     0
 45
0.0
1001
ACAD
1000
AcDbSavedByObjectVersion
1070
     0
  0
VISUALSTYLE
  5
3D
102
{ACAD_XDICTIONARY
360
F06
102
}
102
{ACAD_REACTORS
330
29
102
}
330
29
100
AcDbVisualStyle
  2

 70
    26
 71
     2
 72
     2
 73
     1
 90
        2
 40
-0.6
 41
30.0
 62
     5
 63
     7
 74
     1
 91
       10
 64
     7
 65
   257
 75
     2
175
     1
 42
1.0
 92
        8
 66
   257
 43
1.0
 76
     1
 77
     6
 78
     2
 67
     7
 79
     3
170
     0
171
     0
290
     0
174
     0
 93
        5
 44
0.0
173
     0
291
     0
 45
0.0
1001
ACAD
1000
AcDbSavedByObjectVersion
1070
     0
  0
VISUALSTYLE
  5
3A
102
{ACAD_XDICTIONARY
360
F00
102
}
102
{ACAD_REACTORS
330
29
102
}
330
29
100
AcDbVisualStyle
  2

 70
    23
 71
     2
 72
     2
 73
     3
 90
        0
 40
-0.6
 41
-30.0
 62
     5
 63
     7
 74
     2
 91
        2
 64
     7
 65
     7
 75
     1
175
     1
 42
40.0
 92
        8
 66
     7
 43
1.0
 76
     1
 77
     6
 78
     2
 67
     7
 79
     3
170
     0
171
     0
290
     0
174
     0
 93
        1
 44
0.0
173
     0
291
     0
 45
0.0
1001
ACAD
1000
AcDbSavedByObjectVersion
1070
     0
  0
VISUALSTYLE
  5
3B
102
{ACAD_XDICTIONARY
360
F02
102
}
102
{ACAD_REACTORS
330
29
102
}
330
29
100
AcDbVisualStyle
  2

 70
    24
 71
     1
 72
     2
 73
     2
 90
        0
 40
-0.6
 41
-30.0
 62
     5
 63
     7
 74
     2
 91
        2
 64
     7
 65
     7
 75
     1
175
     1
 42
40.0
 92
       11
 66
     7
 43
1.0
 76
     1
 77
     6
 78
     2
 67
     7
 79
     6
170
     0
171
     0
290
     0
174
     0
 93
        1
 44
0.0
173
     0
291
     0
 45
0.0
1001
ACAD
1000
AcDbSavedByObjectVersion
1070
     0
  0
VISUALSTYLE
  5
36
102
{ACAD_XDICTIONARY
360
EF8
102
}
102
{ACAD_REACTORS
330
29
102
}
330
29
100
AcDbVisualStyle
  2

 70
    13
 71
     2
 72
     2
 73
     0
 90
        0
 40
-0.6
 41
-30.0
 62
     5
 63
     7
 74
     1
 91
        4
 64
     7
 65
   257
 75
     1
175
     1
 42
1.0
 92
       12
 66
     7
 43
1.0
 76
     1
 77
     6
 78
     2
 67
     7
 79
     5
170
     0
171
     0
290
     0
174
     0
 93
        1
 44
0.0
173
     0
291
     1
 45
0.0
1001
ACAD
1000
AcDbSavedByObjectVersion
1070
     0
  0
VISUALSTYLE
  5
30
102
{ACAD_XDICTIONARY
360
EEC
102
}
102
{ACAD_REACTORS
330
29
102
}
330
29
100
AcDbVisualStyle
  2

 70
     5
 71
     0
 72
     2
 73
     0
 90
        0
 40
-0.6
 41
-30.0
 62
     5
 63
     7
 74
     1
 91
        4
 64
     7
 65
   257
 75
     1
175
     1
 42
1.0
 92
        0
 66
   257
 43
1.0
 76
     1
 77
     6
 78
     2
 67
     7
 79
     3
170
     0
171
     0
290
     0
174
     0
 93
        1
 44
0.0
173
     0
291
     0
 45
0.0
1001
ACAD
1000
AcDbSavedByObjectVersion
1070
     0
  0
VISUALSTYLE
  5
3C
102
{ACAD_XDICTIONARY
360
F04
102
}
102
{ACAD_REACTORS
330
29
102
}
330
29
100
AcDbVisualStyle
  2

 70
    25
 71
     2
 72
     2
 73
     1
 90
        1
 40
0.5
 41
-30.0
 62
     5
 63
     7
 74
     1
 91
        0
 64
     7
 65
   257
 75
     1
175
     1
 42
1.0
 92
        8
 66
     7
 43
1.0
 76
     1
 77
     6
 78
     2
 67
     7
 79
     3
170
     0
171
     0
290
     0
174
     0
 93
       13
 44
0.0
173
     0
291
     0
 45
0.0
1001
ACAD
1000
AcDbSavedByObjectVersion
1070
     0
  0
DICTIONARYVAR
  5
9B8
102
{ACAD_REACTORS
330
9B5
102
}
330
9B5
100
DictionaryVariables
280
     0
  1
1:1
  0
DICTIONARYVAR
  5
9B7
102
{ACAD_REACTORS
330
9B5
102
}
330
9B5
100
DictionaryVariables
280
     0
  1
STANDARD
  0
DICTIONARYVAR
  5
9B6
102
{ACAD_REACTORS
330
9B5
102
}
330
9B5
100
DictionaryVariables
280
     0
  1
STANDARD
  0
DICTIONARYVAR
  5
E7C
102
{ACAD_REACTORS
330
9B5
102
}
330
9B5
100
DictionaryVariables
280
     0
  1
1
  0
DICTIONARYVAR
  5
E7B
102
{ACAD_REACTORS
330
9B5
102
}
330
9B5
100
DictionaryVariables
280
     0
  1
1
  0
DICTIONARYVAR
  5
E7A
102
{ACAD_REACTORS
330
9B5
102
}
330
9B5
100
DictionaryVariables
280
     0
  1
0
  0
DICTIONARYVAR
  5
E77
102
{ACAD_REACTORS
330
9B5
102
}
330
9B5
100
DictionaryVariables
280
     0
  1
0
  0
DICTIONARYVAR
  5
E78
102
{ACAD_REACTORS
330
9B5
102
}
330
9B5
100
DictionaryVariables
280
     0
  1
0
  0
DICTIONARYVAR
  5
E76
102
{ACAD_REACTORS
330
9B5
102
}
330
9B5
100
DictionaryVariables
280
     0
  1
2
  0
DICTIONARYVAR
  5
E75
102
{ACAD_REACTORS
330
9B5
102
}
330
9B5
100
DictionaryVariables
280
     0
  1
1
  0
DICTIONARYVAR
  5
E79
102
{ACAD_REACTORS
330
9B5
102
}
330
9B5
100
DictionaryVariables
280
     0
  1
127
  0
DICTIONARYVAR
  5
ED0
102
{ACAD_REACTORS
330
9B5
102
}
330
9B5
100
DictionaryVariables
280
     0
  1
2
  0
DICTIONARY
  5
F11
330
6B
100
AcDbDictionary
280
     1
281
     1
  3
ACAD_XREC_ROUNDTRIP
360
F12
  0
DICTIONARY
  5
F15
330
73
100
AcDbDictionary
280
     1
281
     1
  3
ACAD_XREC_ROUNDTRIP
360
F16
  0
DICTIONARY
  5
F13
330
6F
100
AcDbDictionary
280
     1
281
     1
  3
ACAD_XREC_ROUNDTRIP
360
F14
  0
DICTIONARY
  5
1A
330
19
100
AcDbDictionary
280
     1
281
     1
  3
ACAD_XREC_ROUNDTRIP
360
E8F
  3
BUMPTILE
360
1C
  3
DIFFUSETILE
360
1B
  3
OPACITYTILE
360
1F
  3
REFLECTIONTILE
360
1E
  3
REFRACTIONTILE
360
20
  3
SPECULARTILE
360
1D
  0
DICTIONARY
  5
12
330
11
100
AcDbDictionary
280
     1
281
     1
  3
ACAD_XREC_ROUNDTRIP
360
E8E
  3
BUMPTILE
360
14
  3
DIFFUSETILE
360
13
  3
OPACITYTILE
360
17
  3
REFLECTIONTILE
360
16
  3
REFRACTIONTILE
360
18
  3
SPECULARTILE
360
15
  0
DICTIONARY
  5
22
330
21
100
AcDbDictionary
280
     1
281
     1
  3
ACAD_XREC_ROUNDTRIP
360
E90
  3
BUMPTILE
360
24
  3
DIFFUSETILE
360
23
  3
OPACITYTILE
360
27
  3
REFLECTIONTILE
360
26
  3
REFRACTIONTILE
360
28
  3
SPECULARTILE
360
25
  0
DICTIONARY
  5
E7E
330
65
100
AcDbDictionary
280
     1
281
     1
  3
ACAD_ROUNDTRIP_2008_TABLESTYLE_CELLSTYLEMAP
360
ED1
  3
ACAD_XREC_ROUNDTRIP
360
F10
  0
DICTIONARY
  5
EEA
330
2F
100
AcDbDictionary
280
     1
281
     1
  3
ACAD_XREC_ROUNDTRIP
360
EEB
  0
DICTIONARY
  5
EE8
330
2E
100
AcDbDictionary
280
     1
281
     1
  3
ACAD_XREC_ROUNDTRIP
360
EE9
  0
DICTIONARY
  5
EF6
330
35
100
AcDbDictionary
280
     1
281
     1
  3
ACAD_XREC_ROUNDTRIP
360
EF7
  0
DICTIONARY
  5
EFE
330
39
100
AcDbDictionary
280
     1
281
     1
  3
ACAD_XREC_ROUNDTRIP
360
EFF
  0
DICTIONARY
  5
EF0
330
32
100
AcDbDictionary
280
     1
281
     1
  3
ACAD_XREC_ROUNDTRIP
360
EF1
  0
DICTIONARY
  5
EF4
330
34
100
AcDbDictionary
280
     1
281
     1
  3
ACAD_XREC_ROUNDTRIP
360
EF5
  0
DICTIONARY
  5
F0E
330
41
100
AcDbDictionary
280
     1
281
     1
  3
ACAD_XREC_ROUNDTRIP
360
F0F
  0
DICTIONARY
  5
EFC
330
38
100
AcDbDictionary
280
     1
281
     1
  3
ACAD_XREC_ROUNDTRIP
360
EFD
  0
DICTIONARY
  5
EE0
330
2A
100
AcDbDictionary
280
     1
281
     1
  3
ACAD_XREC_ROUNDTRIP
360
EE1
  0
DICTIONARY
  5
EE2
330
2B
100
AcDbDictionary
280
     1
281
     1
  3
ACAD_XREC_ROUNDTRIP
360
EE3
  0
DICTIONARY
  5
EE4
330
2C
100
AcDbDictionary
280
     1
281
     1
  3
ACAD_XREC_ROUNDTRIP
360
EE5
  0
DICTIONARY
  5
EE6
330
2D
100
AcDbDictionary
280
     1
281
     1
  3
ACAD_XREC_ROUNDTRIP
360
EE7
  0
DICTIONARY
  5
EEE
330
31
100
AcDbDictionary
280
     1
281
     1
  3
ACAD_XREC_ROUNDTRIP
360
EEF
  0
DICTIONARY
  5
F0A
330
3F
100
AcDbDictionary
280
     1
281
     1
  3
ACAD_XREC_ROUNDTRIP
360
F0B
  0
DICTIONARY
  5
EFA
330
37
100
AcDbDictionary
280
     1
281
     1
  3
ACAD_XREC_ROUNDTRIP
360
EFB
  0
DICTIONARY
  5
F0C
330
40
100
AcDbDictionary
280
     1
281
     1
  3
ACAD_XREC_ROUNDTRIP
360
F0D
  0
DICTIONARY
  5
EF2
330
33
100
AcDbDictionary
280
     1
281
     1
  3
ACAD_XREC_ROUNDTRIP
360
EF3
  0
DICTIONARY
  5
F08
330
3E
100
AcDbDictionary
280
     1
281
     1
  3
ACAD_XREC_ROUNDTRIP
360
F09
  0
DICTIONARY
  5
F06
330
3D
100
AcDbDictionary
280
     1
281
     1
  3
ACAD_XREC_ROUNDTRIP
360
F07
  0
DICTIONARY
  5
F00
330
3A
100
AcDbDictionary
280
     1
281
     1
  3
ACAD_XREC_ROUNDTRIP
360
F01
  0
DICTIONARY
  5
F02
330
3B
100
AcDbDictionary
280
     1
281
     1
  3
ACAD_XREC_ROUNDTRIP
360
F03
  0
DICTIONARY
  5
EF8
330
36
100
AcDbDictionary
280
     1
281
     1
  3
ACAD_XREC_ROUNDTRIP
360
EF9
  0
DICTIONARY
  5
EEC
330
30
100
AcDbDictionary
280
     1
281
     1
  3
ACAD_XREC_ROUNDTRIP
360
EED
  0
DICTIONARY
  5
F04
330
3C
100
AcDbDictionary
280
     1
281
     1
  3
ACAD_XREC_ROUNDTRIP
360
F05
  0
XRECORD
  5
F12
102
{ACAD_REACTORS
330
F11
102
}
330
F11
100
AcDbXrecord
280
     1
102
SHADEPLOT
 70
     0
102
SHADEPLOTRESLEVEL
 70
     2
102
SHADEPLOTCUSTOMDPI
 70
   300
  0
XRECORD
  5
F16
102
{ACAD_REACTORS
330
F15
102
}
330
F15
100
AcDbXrecord
280
     1
102
SHADEPLOT
 70
     0
102
SHADEPLOTRESLEVEL
 70
     2
102
SHADEPLOTCUSTOMDPI
 70
   300
  0
XRECORD
  5
F14
102
{ACAD_REACTORS
330
F13
102
}
330
F13
100
AcDbXrecord
280
     1
102
SHADEPLOT
 70
     0
102
SHADEPLOTRESLEVEL
 70
     2
102
SHADEPLOTCUSTOMDPI
 70
   300
  0
XRECORD
  5
E8F
102
{ACAD_REACTORS
330
1A
102
}
330
1A
100
AcDbXrecord
280
     1
102
MATERIAL
148
0.0
149
0.0
149
0.0
 93
        0
 94
      127
282
     0
 72
     0
 77
     0
171
     0
175
     0
179
     0
273
     0
  0
XRECORD
  5
1C
102
{ACAD_REACTORS
330
1A
102
}
330
1A
100
AcDbXrecord
280
     1
270
     1
271
     1
  0
XRECORD
  5
1B
102
{ACAD_REACTORS
330
1A
102
}
330
1A
100
AcDbXrecord
280
     1
270
     1
271
     1
  0
XRECORD
  5
1F
102
{ACAD_REACTORS
330
1A
102
}
330
1A
100
AcDbXrecord
280
     1
270
     1
271
     1
  0
XRECORD
  5
1E
102
{ACAD_REACTORS
330
1A
102
}
330
1A
100
AcDbXrecord
280
     1
270
     1
271
     1
  0
XRECORD
  5
20
102
{ACAD_REACTORS
330
1A
102
}
330
1A
100
AcDbXrecord
280
     1
270
     1
271
     1
  0
XRECORD
  5
1D
102
{ACAD_REACTORS
330
1A
102
}
330
1A
100
AcDbXrecord
280
     1
270
     1
271
     1
  0
XRECORD
  5
E8E
102
{ACAD_REACTORS
330
12
102
}
330
12
100
AcDbXrecord
280
     1
102
MATERIAL
148
0.0
149
0.0
149
0.0
 93
        0
 94
      127
282
     0
 72
     0
 77
     0
171
     0
175
     0
179
     0
273
     0
  0
XRECORD
  5
14
102
{ACAD_REACTORS
330
12
102
}
330
12
100
AcDbXrecord
280
     1
270
     1
271
     1
  0
XRECORD
  5
13
102
{ACAD_REACTORS
330
12
102
}
330
12
100
AcDbXrecord
280
     1
270
     1
271
     1
  0
XRECORD
  5
17
102
{ACAD_REACTORS
330
12
102
}
330
12
100
AcDbXrecord
280
     1
270
     1
271
     1
  0
XRECORD
  5
16
102
{ACAD_REACTORS
330
12
102
}
330
12
100
AcDbXrecord
280
     1
270
     1
271
     1
  0
XRECORD
  5
18
102
{ACAD_REACTORS
330
12
102
}
330
12
100
AcDbXrecord
280
     1
270
     1
271
     1
  0
XRECORD
  5
15
102
{ACAD_REACTORS
330
12
102
}
330
12
100
AcDbXrecord
280
     1
270
     1
271
     1
  0
XRECORD
  5
E90
102
{ACAD_REACTORS
330
22
102
}
330
22
100
AcDbXrecord
280
     1
102
MATERIAL
148
0.0
149
0.0
149
0.0
 93
        0
 94
      127
282
     0
 72
     0
 77
     0
171
     0
175
     0
179
     0
273
     0
  0
XRECORD
  5
24
102
{ACAD_REACTORS
330
22
102
}
330
22
100
AcDbXrecord
280
     1
270
     1
271
     1
  0
XRECORD
  5
23
102
{ACAD_REACTORS
330
22
102
}
330
22
100
AcDbXrecord
280
     1
270
     1
271
     1
  0
XRECORD
  5
27
102
{ACAD_REACTORS
330
22
102
}
330
22
100
AcDbXrecord
280
     1
270
     1
271
     1
  0
XRECORD
  5
26
102
{ACAD_REACTORS
330
22
102
}
330
22
100
AcDbXrecord
280
     1
270
     1
271
     1
  0
XRECORD
  5
28
102
{ACAD_REACTORS
330
22
102
}
330
22
100
AcDbXrecord
280
     1
270
     1
271
     1
  0
XRECORD
  5
25
102
{ACAD_REACTORS
330
22
102
}
330
22
100
AcDbXrecord
280
     1
270
     1
271
     1
  0
CELLSTYLEMAP
  5
ED1
102
{ACAD_REACTORS
330
E7E
102
}
330
E7E
100
AcDbCellStyleMap
 90
        3
300
CELLSTYLE
  1
TABLEFORMAT_BEGIN
 90
        5
170
     1
 91
        0
 92
    32768
 62
   257
 93
        1
300
CONTENTFORMAT
  1
CONTENTFORMAT_BEGIN
 90
        0
 91
        0
 92
      512
 93
        0
300

 40
0.0
140
1.0
 94
        5
 62
     0
340
55
144
0.25
309
CONTENTFORMAT_END
171
     1
301
MARGIN
  1
CELLMARGIN_BEGIN
 40
0.06
 40
0.06
 40
0.06
 40
0.06
 40
0.18
 40
0.18
309
CELLMARGIN_END
 94
        6
 95
        1
302
GRIDFORMAT
  1
GRIDFORMAT_BEGIN
 90
        0
 91
        1
 62
     0
 92
       -2
340
0
 93
        0
 40
0.045
309
GRIDFORMAT_END
 95
        2
302
GRIDFORMAT
  1
GRIDFORMAT_BEGIN
 90
        0
 91
        1
 62
     0
 92
       -2
340
0
 93
        0
 40
0.045
309
GRIDFORMAT_END
 95
        4
302
GRIDFORMAT
  1
GRIDFORMAT_BEGIN
 90
        0
 91
        1
 62
     0
 92
       -2
340
0
 93
        0
 40
0.045
309
GRIDFORMAT_END
 95
        8
302
GRIDFORMAT
  1
GRIDFORMAT_BEGIN
 90
        0
 91
        1
 62
     0
 92
       -2
340
0
 93
        0
 40
0.045
309
GRIDFORMAT_END
 95
       16
302
GRIDFORMAT
  1
GRIDFORMAT_BEGIN
 90
        0
 91
        1
 62
     0
 92
       -2
340
0
 93
        0
 40
0.045
309
GRIDFORMAT_END
 95
       32
302
GRIDFORMAT
  1
GRIDFORMAT_BEGIN
 90
        0
 91
        1
 62
     0
 92
       -2
340
0
 93
        0
 40
0.045
309
GRIDFORMAT_END
309
TABLEFORMAT_END
  1
CELLSTYLE_BEGIN
 90
        1
 91
        1
300
_TITLE
309
CELLSTYLE_END
300
CELLSTYLE
  1
TABLEFORMAT_BEGIN
 90
        5
170
     1
 91
        0
 92
        0
 62
   257
 93
        1
300
CONTENTFORMAT
  1
CONTENTFORMAT_BEGIN
 90
        0
 91
        0
 92
      512
 93
        0
300

 40
0.0
140
1.0
 94
        5
 62
     0
340
55
144
0.18
309
CONTENTFORMAT_END
171
     1
301
MARGIN
  1
CELLMARGIN_BEGIN
 40
0.06
 40
0.06
 40
0.06
 40
0.06
 40
0.18
 40
0.18
309
CELLMARGIN_END
 94
        6
 95
        1
302
GRIDFORMAT
  1
GRIDFORMAT_BEGIN
 90
        0
 91
        1
 62
     0
 92
       -2
340
0
 93
        0
 40
0.045
309
GRIDFORMAT_END
 95
        2
302
GRIDFORMAT
  1
GRIDFORMAT_BEGIN
 90
        0
 91
        1
 62
     0
 92
       -2
340
0
 93
        0
 40
0.045
309
GRIDFORMAT_END
 95
        4
302
GRIDFORMAT
  1
GRIDFORMAT_BEGIN
 90
        0
 91
        1
 62
     0
 92
       -2
340
0
 93
        0
 40
0.045
309
GRIDFORMAT_END
 95
        8
302
GRIDFORMAT
  1
GRIDFORMAT_BEGIN
 90
        0
 91
        1
 62
     0
 92
       -2
340
0
 93
        0
 40
0.045
309
GRIDFORMAT_END
 95
       16
302
GRIDFORMAT
  1
GRIDFORMAT_BEGIN
 90
        0
 91
        1
 62
     0
 92
       -2
340
0
 93
        0
 40
0.045
309
GRIDFORMAT_END
 95
       32
302
GRIDFORMAT
  1
GRIDFORMAT_BEGIN
 90
        0
 91
        1
 62
     0
 92
       -2
340
0
 93
        0
 40
0.045
309
GRIDFORMAT_END
309
TABLEFORMAT_END
  1
CELLSTYLE_BEGIN
 90
        2
 91
        1
300
_HEADER
309
CELLSTYLE_END
300
CELLSTYLE
  1
TABLEFORMAT_BEGIN
 90
        5
170
     1
 91
        0
 92
        0
 62
   257
 93
        1
300
CONTENTFORMAT
  1
CONTENTFORMAT_BEGIN
 90
        0
 91
        0
 92
      512
 93
        0
300

 40
0.0
140
1.0
 94
        2
 62
     0
340
55
144
0.18
309
CONTENTFORMAT_END
171
     1
301
MARGIN
  1
CELLMARGIN_BEGIN
 40
0.06
 40
0.06
 40
0.06
 40
0.06
 40
0.18
 40
0.18
309
CELLMARGIN_END
 94
        6
 95
        1
302
GRIDFORMAT
  1
GRIDFORMAT_BEGIN
 90
        0
 91
        1
 62
     0
 92
       -2
340
0
 93
        0
 40
0.045
309
GRIDFORMAT_END
 95
        2
302
GRIDFORMAT
  1
GRIDFORMAT_BEGIN
 90
        0
 91
        1
 62
     0
 92
       -2
340
0
 93
        0
 40
0.045
309
GRIDFORMAT_END
 95
        4
302
GRIDFORMAT
  1
GRIDFORMAT_BEGIN
 90
        0
 91
        1
 62
     0
 92
       -2
340
0
 93
        0
 40
0.045
309
GRIDFORMAT_END
 95
        8
302
GRIDFORMAT
  1
GRIDFORMAT_BEGIN
 90
        0
 91
        1
 62
     0
 92
       -2
340
0
 93
        0
 40
0.045
309
GRIDFORMAT_END
 95
       16
302
GRIDFORMAT
  1
GRIDFORMAT_BEGIN
 90
        0
 91
        1
 62
     0
 92
       -2
340
0
 93
        0
 40
0.045
309
GRIDFORMAT_END
 95
       32
302
GRIDFORMAT
  1
GRIDFORMAT_BEGIN
 90
        0
 91
        1
 62
     0
 92
       -2
340
0
 93
        0
 40
0.045
309
GRIDFORMAT_END
309
TABLEFORMAT_END
  1
CELLSTYLE_BEGIN
 90
        3
 91
        2
300
_DATA
309
CELLSTYLE_END
  0
XRECORD
  5
F10
102
{ACAD_REACTORS
330
E7E
102
}
330
E7E
100
AcDbXrecord
280
     1
102
ACAD_ROUNDTRIP_PRE2007_TABLESTYLE
 90
      512
 91
        0
  1

 92
      512
 93
        0
  2

 94
      512
 95
        0
  3

  0
XRECORD
  5
EEB
102
{ACAD_REACTORS
330
EEA
102
}
330
EEA
100
AcDbXrecord
280
     1
102
RTVSPropertyOp0
 70
     1
102
RTVSPropertyOp1
 70
     1
102
RTVSPropertyOp2
 70
     1
102
RTVSPropertyOp3
 70
     1
102
RTVSPropertyOp4
 70
     1
102
RTVSPropertyOp5
 70
     1
102
RTVSPropertyOp6
 70
     1
102
RTVSPropertyOp7
 70
     1
102
RTVSPropertyOp8
 70
     1
102
RTVSPropertyOp9
 70
     1
102
RTVSPropertyOp10
 70
     1
102
RTVSPropertyOp11
 70
     1
102
RTVSPropertyOp12
 70
     1
102
RTVSPropertyOp13
 70
     1
102
RTVSPropertyOp14
 70
     1
102
RTVSPropertyOp15
 70
     1
102
RTVSPropertyOp16
 70
     1
102
RTVSPropertyOp17
 70
     1
102
RTVSPropertyOp18
 70
     1
102
RTVSPropertyOp19
 70
     1
102
RTVSPropertyOp20
 70
     1
102
RTVSPropertyOp21
 70
     1
102
RTVSPropertyOp22
 70
     1
102
RTVSPropertyOp23
 70
     1
102
RTVSPropertyOp24
 70
     1
102
RTVSPropertyOp25
 70
     1
102
RTVSPropertyOp26
 70
     1
102
RTVSPropertyOp27
 70
     1
102
RTVSPropertyOp28
 70
     1
102
RTVSPropertyOp29
 70
     1
102
RTVSPropertyOp30
 70
     1
102
RTVSPropertyOp31
 70
     1
102
RTVSPropertyOp32
 70
     1
  0
XRECORD
  5
EE9
102
{ACAD_REACTORS
330
EE8
102
}
330
EE8
100
AcDbXrecord
280
     1
102
RTVSPropertyOp0
 70
     1
102
RTVSPropertyOp1
 70
     1
102
RTVSPropertyOp2
 70
     1
102
RTVSPropertyOp3
 70
     1
102
RTVSPropertyOp4
 70
     1
102
RTVSPropertyOp5
 70
     1
102
RTVSPropertyOp6
 70
     1
102
RTVSPropertyOp7
 70
     1
102
RTVSPropertyOp8
 70
     1
102
RTVSPropertyOp9
 70
     1
102
RTVSPropertyOp10
 70
     1
102
RTVSPropertyOp11
 70
     1
102
RTVSPropertyOp12
 70
     1
102
RTVSPropertyOp13
 70
     1
102
RTVSPropertyOp14
 70
     1
102
RTVSPropertyOp15
 70
     1
102
RTVSPropertyOp16
 70
     1
102
RTVSPropertyOp17
 70
     1
102
RTVSPropertyOp18
 70
     1
102
RTVSPropertyOp19
 70
     1
102
RTVSPropertyOp20
 70
     1
102
RTVSPropertyOp21
 70
     1
102
RTVSPropertyOp22
 70
     1
102
RTVSPropertyOp23
 70
     1
102
RTVSPropertyOp24
 70
     1
102
RTVSPropertyOp25
 70
     1
102
RTVSPropertyOp26
 70
     1
102
RTVSPropertyOp27
 70
     1
102
RTVSPropertyOp28
 70
     1
102
RTVSPropertyOp29
 70
     1
102
RTVSPropertyOp30
 70
     1
102
RTVSPropertyOp31
 70
     1
102
RTVSPropertyOp32
 70
     1
  0
XRECORD
  5
EF7
102
{ACAD_REACTORS
330
EF6
102
}
330
EF6
100
AcDbXrecord
280
     1
102
RTVSPropertyOp0
 70
     1
102
RTVSPropertyOp1
 70
     1
102
RTVSPropertyOp2
 70
     1
102
RTVSPropertyOp3
 70
     1
102
RTVSPropertyOp4
 70
     1
102
RTVSPropertyOp5
 70
     1
102
RTVSPropertyOp6
 70
     1
102
RTVSPropertyOp7
 70
     1
102
RTVSPropertyOp8
 70
     1
102
RTVSPropertyOp9
 70
     1
102
RTVSPropertyOp10
 70
     1
102
RTVSPropertyOp11
 70
     1
102
RTVSPropertyOp12
 70
     1
102
RTVSPropertyOp13
 70
     1
102
RTVSPropertyOp14
 70
     1
102
RTVSPropertyOp15
 70
     1
102
RTVSPropertyOp16
 70
     1
102
RTVSPropertyOp17
 70
     1
102
RTVSPropertyOp18
 70
     1
102
RTVSPropertyOp19
 70
     1
102
RTVSPropertyOp20
 70
     1
102
RTVSPropertyOp21
 70
     1
102
RTVSPropertyOp22
 70
     1
102
RTVSPropertyOp23
 70
     1
102
RTVSPropertyOp24
 70
     1
102
RTVSPropertyOp25
 70
     1
102
RTVSPropertyOp26
 70
     1
102
RTVSPropertyOp27
 70
     1
102
RTVSPropertyOp28
 70
     1
102
RTVSPropertyOp29
 70
     1
102
RTVSPropertyOp30
 70
     1
102
RTVSPropertyOp31
 70
     1
102
RTVSPropertyOp32
 70
     1
  0
XRECORD
  5
EFF
102
{ACAD_REACTORS
330
EFE
102
}
330
EFE
100
AcDbXrecord
280
     1
102
RTVSPropertyOp0
 70
     1
102
RTVSPropertyOp1
 70
     1
102
RTVSPropertyOp2
 70
     1
102
RTVSPropertyOp3
 70
     1
102
RTVSPropertyOp4
 70
     1
102
RTVSPropertyOp5
 70
     1
102
RTVSPropertyOp6
 70
     1
102
RTVSPropertyOp7
 70
     1
102
RTVSPropertyOp8
 70
     1
102
RTVSPropertyOp9
 70
     1
102
RTVSPropertyOp10
 70
     1
102
RTVSPropertyOp11
 70
     1
102
RTVSPropertyOp12
 70
     1
102
RTVSPropertyOp13
 70
     1
102
RTVSPropertyOp14
 70
     1
102
RTVSPropertyOp15
 70
     1
102
RTVSPropertyOp16
 70
     1
102
RTVSPropertyOp17
 70
     1
102
RTVSPropertyOp18
 70
     1
102
RTVSPropertyOp19
 70
     1
102
RTVSPropertyOp20
 70
     1
102
RTVSPropertyOp21
 70
     1
102
RTVSPropertyOp22
 70
     1
102
RTVSPropertyOp23
 70
     1
102
RTVSPropertyOp24
 70
     1
102
RTVSPropertyOp25
 70
     1
102
RTVSPropertyOp26
 70
     1
102
RTVSPropertyOp27
 70
     1
102
RTVSPropertyOp28
 70
     1
102
RTVSPropertyOp29
 70
     1
102
RTVSPropertyOp30
 70
     1
102
RTVSPropertyOp31
 70
     1
102
RTVSPropertyOp32
 70
     1
  0
XRECORD
  5
EF1
102
{ACAD_REACTORS
330
EF0
102
}
330
EF0
100
AcDbXrecord
280
     1
102
RTVSPropertyOp0
 70
     1
102
RTVSPropertyOp1
 70
     1
102
RTVSPropertyOp2
 70
     1
102
RTVSPropertyOp3
 70
     1
102
RTVSPropertyOp4
 70
     1
102
RTVSPropertyOp5
 70
     1
102
RTVSPropertyOp6
 70
     1
102
RTVSPropertyOp7
 70
     1
102
RTVSPropertyOp8
 70
     1
102
RTVSPropertyOp9
 70
     1
102
RTVSPropertyOp10
 70
     1
102
RTVSPropertyOp11
 70
     1
102
RTVSPropertyOp12
 70
     1
102
RTVSPropertyOp13
 70
     1
102
RTVSPropertyOp14
 70
     1
102
RTVSPropertyOp15
 70
     1
102
RTVSPropertyOp16
 70
     1
102
RTVSPropertyOp17
 70
     1
102
RTVSPropertyOp18
 70
     1
102
RTVSPropertyOp19
 70
     1
102
RTVSPropertyOp20
 70
     1
102
RTVSPropertyOp21
 70
     1
102
RTVSPropertyOp22
 70
     1
102
RTVSPropertyOp23
 70
     1
102
RTVSPropertyOp24
 70
     1
102
RTVSPropertyOp25
 70
     1
102
RTVSPropertyOp26
 70
     1
102
RTVSPropertyOp27
 70
     1
102
RTVSPropertyOp28
 70
     1
102
RTVSPropertyOp29
 70
     1
102
RTVSPropertyOp30
 70
     1
102
RTVSPropertyOp31
 70
     1
102
RTVSPropertyOp32
 70
     1
  0
XRECORD
  5
EF5
102
{ACAD_REACTORS
330
EF4
102
}
330
EF4
100
AcDbXrecord
280
     1
102
RTVSPropertyOp0
 70
     1
102
RTVSPropertyOp1
 70
     1
102
RTVSPropertyOp2
 70
     1
102
RTVSPropertyOp3
 70
     1
102
RTVSPropertyOp4
 70
     1
102
RTVSPropertyOp5
 70
     1
102
RTVSPropertyOp6
 70
     1
102
RTVSPropertyOp7
 70
     1
102
RTVSPropertyOp8
 70
     1
102
RTVSPropertyOp9
 70
     1
102
RTVSPropertyOp10
 70
     1
102
RTVSPropertyOp11
 70
     1
102
RTVSPropertyOp12
 70
     1
102
RTVSPropertyOp13
 70
     1
102
RTVSPropertyOp14
 70
     1
102
RTVSPropertyOp15
 70
     1
102
RTVSPropertyOp16
 70
     1
102
RTVSPropertyOp17
 70
     1
102
RTVSPropertyOp18
 70
     1
102
RTVSPropertyOp19
 70
     1
102
RTVSPropertyOp20
 70
     1
102
RTVSPropertyOp21
 70
     1
102
RTVSPropertyOp22
 70
     1
102
RTVSPropertyOp23
 70
     1
102
RTVSPropertyOp24
 70
     1
102
RTVSPropertyOp25
 70
     1
102
RTVSPropertyOp26
 70
     1
102
RTVSPropertyOp27
 70
     1
102
RTVSPropertyOp28
 70
     1
102
RTVSPropertyOp29
 70
     1
102
RTVSPropertyOp30
 70
     1
102
RTVSPropertyOp31
 70
     1
102
RTVSPropertyOp32
 70
     1
  0
XRECORD
  5
F0F
102
{ACAD_REACTORS
330
F0E
102
}
330
F0E
100
AcDbXrecord
280
     1
102
RTVSPropertyOp0
 70
     0
102
RTVSPropertyOp1
 70
     0
102
RTVSPropertyOp2
 70
     0
102
RTVSPropertyOp3
 70
     0
102
RTVSPropertyOp4
 70
     0
102
RTVSPropertyOp5
 70
     0
102
RTVSPropertyOp6
 70
     0
102
RTVSPropertyOp7
 70
     0
102
RTVSPropertyOp8
 70
     0
102
RTVSPropertyOp9
 70
     0
102
RTVSPropertyOp10
 70
     0
102
RTVSPropertyOp11
 70
     0
102
RTVSPropertyOp12
 70
     0
102
RTVSPropertyOp13
 70
     0
102
RTVSPropertyOp14
 70
     2
102
RTVSPropertyOp15
 70
     0
102
RTVSPropertyOp16
 70
     0
102
RTVSPropertyOp17
 70
     0
102
RTVSPropertyOp18
 70
     0
102
RTVSPropertyOp19
 70
     0
102
RTVSPropertyOp20
 70
     0
102
RTVSPropertyOp21
 70
     0
102
RTVSPropertyOp22
 70
     0
102
RTVSPropertyOp23
 70
     0
102
RTVSPropertyOp24
 70
     0
102
RTVSPropertyOp25
 70
     0
102
RTVSPropertyOp26
 70
     0
102
RTVSPropertyOp27
 70
     0
102
RTVSPropertyOp28
 70
     1
102
RTVSPropertyOp29
 70
     1
102
RTVSPropertyOp30
 70
     1
102
RTVSPropertyOp31
 70
     1
102
RTVSPropertyOp32
 70
     1
  0
XRECORD
  5
EFD
102
{ACAD_REACTORS
330
EFC
102
}
330
EFC
100
AcDbXrecord
280
     1
102
RTVSPropertyOp0
 70
     1
102
RTVSPropertyOp1
 70
     1
102
RTVSPropertyOp2
 70
     1
102
RTVSPropertyOp3
 70
     1
102
RTVSPropertyOp4
 70
     1
102
RTVSPropertyOp5
 70
     1
102
RTVSPropertyOp6
 70
     1
102
RTVSPropertyOp7
 70
     1
102
RTVSPropertyOp8
 70
     1
102
RTVSPropertyOp9
 70
     1
102
RTVSPropertyOp10
 70
     1
102
RTVSPropertyOp11
 70
     1
102
RTVSPropertyOp12
 70
     1
102
RTVSPropertyOp13
 70
     1
102
RTVSPropertyOp14
 70
     1
102
RTVSPropertyOp15
 70
     1
102
RTVSPropertyOp16
 70
     1
102
RTVSPropertyOp17
 70
     1
102
RTVSPropertyOp18
 70
     1
102
RTVSPropertyOp19
 70
     1
102
RTVSPropertyOp20
 70
     1
102
RTVSPropertyOp21
 70
     1
102
RTVSPropertyOp22
 70
     1
102
RTVSPropertyOp23
 70
     1
102
RTVSPropertyOp24
 70
     1
102
RTVSPropertyOp25
 70
     1
102
RTVSPropertyOp26
 70
     1
102
RTVSPropertyOp27
 70
     1
102
RTVSPropertyOp28
 70
     1
102
RTVSPropertyOp29
 70
     1
102
RTVSPropertyOp30
 70
     1
102
RTVSPropertyOp31
 70
     1
102
RTVSPropertyOp32
 70
     1
  0
XRECORD
  5
EE1
102
{ACAD_REACTORS
330
EE0
102
}
330
EE0
100
AcDbXrecord
280
     1
102
RTVSPropertyOp0
 70
     1
102
RTVSPropertyOp1
 70
     1
102
RTVSPropertyOp2
 70
     1
102
RTVSPropertyOp3
 70
     1
102
RTVSPropertyOp4
 70
     1
102
RTVSPropertyOp5
 70
     1
102
RTVSPropertyOp6
 70
     1
102
RTVSPropertyOp7
 70
     1
102
RTVSPropertyOp8
 70
     1
102
RTVSPropertyOp9
 70
     1
102
RTVSPropertyOp10
 70
     1
102
RTVSPropertyOp11
 70
     1
102
RTVSPropertyOp12
 70
     1
102
RTVSPropertyOp13
 70
     1
102
RTVSPropertyOp14
 70
     1
102
RTVSPropertyOp15
 70
     1
102
RTVSPropertyOp16
 70
     1
102
RTVSPropertyOp17
 70
     1
102
RTVSPropertyOp18
 70
     1
102
RTVSPropertyOp19
 70
     1
102
RTVSPropertyOp20
 70
     1
102
RTVSPropertyOp21
 70
     1
102
RTVSPropertyOp22
 70
     1
102
RTVSPropertyOp23
 70
     1
102
RTVSPropertyOp24
 70
     1
102
RTVSPropertyOp25
 70
     1
102
RTVSPropertyOp26
 70
     1
102
RTVSPropertyOp27
 70
     1
102
RTVSPropertyOp28
 70
     1
102
RTVSPropertyOp29
 70
     1
102
RTVSPropertyOp30
 70
     1
102
RTVSPropertyOp31
 70
     1
102
RTVSPropertyOp32
 70
     1
  0
XRECORD
  5
EE3
102
{ACAD_REACTORS
330
EE2
102
}
330
EE2
100
AcDbXrecord
280
     1
102
RTVSPropertyOp0
 70
     1
102
RTVSPropertyOp1
 70
     1
102
RTVSPropertyOp2
 70
     1
102
RTVSPropertyOp3
 70
     1
102
RTVSPropertyOp4
 70
     1
102
RTVSPropertyOp5
 70
     1
102
RTVSPropertyOp6
 70
     1
102
RTVSPropertyOp7
 70
     1
102
RTVSPropertyOp8
 70
     1
102
RTVSPropertyOp9
 70
     1
102
RTVSPropertyOp10
 70
     1
102
RTVSPropertyOp11
 70
     1
102
RTVSPropertyOp12
 70
     1
102
RTVSPropertyOp13
 70
     1
102
RTVSPropertyOp14
 70
     1
102
RTVSPropertyOp15
 70
     1
102
RTVSPropertyOp16
 70
     1
102
RTVSPropertyOp17
 70
     1
102
RTVSPropertyOp18
 70
     1
102
RTVSPropertyOp19
 70
     1
102
RTVSPropertyOp20
 70
     1
102
RTVSPropertyOp21
 70
     1
102
RTVSPropertyOp22
 70
     1
102
RTVSPropertyOp23
 70
     1
102
RTVSPropertyOp24
 70
     1
102
RTVSPropertyOp25
 70
     1
102
RTVSPropertyOp26
 70
     1
102
RTVSPropertyOp27
 70
     1
102
RTVSPropertyOp28
 70
     1
102
RTVSPropertyOp29
 70
     1
102
RTVSPropertyOp30
 70
     1
102
RTVSPropertyOp31
 70
     1
102
RTVSPropertyOp32
 70
     1
  0
XRECORD
  5
EE5
102
{ACAD_REACTORS
330
EE4
102
}
330
EE4
100
AcDbXrecord
280
     1
102
RTVSPropertyOp0
 70
     1
102
RTVSPropertyOp1
 70
     1
102
RTVSPropertyOp2
 70
     1
102
RTVSPropertyOp3
 70
     1
102
RTVSPropertyOp4
 70
     1
102
RTVSPropertyOp5
 70
     1
102
RTVSPropertyOp6
 70
     1
102
RTVSPropertyOp7
 70
     1
102
RTVSPropertyOp8
 70
     1
102
RTVSPropertyOp9
 70
     1
102
RTVSPropertyOp10
 70
     1
102
RTVSPropertyOp11
 70
     1
102
RTVSPropertyOp12
 70
     1
102
RTVSPropertyOp13
 70
     1
102
RTVSPropertyOp14
 70
     1
102
RTVSPropertyOp15
 70
     1
102
RTVSPropertyOp16
 70
     1
102
RTVSPropertyOp17
 70
     1
102
RTVSPropertyOp18
 70
     1
102
RTVSPropertyOp19
 70
     1
102
RTVSPropertyOp20
 70
     1
102
RTVSPropertyOp21
 70
     1
102
RTVSPropertyOp22
 70
     1
102
RTVSPropertyOp23
 70
     1
102
RTVSPropertyOp24
 70
     1
102
RTVSPropertyOp25
 70
     1
102
RTVSPropertyOp26
 70
     1
102
RTVSPropertyOp27
 70
     1
102
RTVSPropertyOp28
 70
     1
102
RTVSPropertyOp29
 70
     1
102
RTVSPropertyOp30
 70
     1
102
RTVSPropertyOp31
 70
     1
102
RTVSPropertyOp32
 70
     1
  0
XRECORD
  5
EE7
102
{ACAD_REACTORS
330
EE6
102
}
330
EE6
100
AcDbXrecord
280
     1
102
RTVSPropertyOp0
 70
     1
102
RTVSPropertyOp1
 70
     1
102
RTVSPropertyOp2
 70
     1
102
RTVSPropertyOp3
 70
     1
102
RTVSPropertyOp4
 70
     1
102
RTVSPropertyOp5
 70
     1
102
RTVSPropertyOp6
 70
     1
102
RTVSPropertyOp7
 70
     1
102
RTVSPropertyOp8
 70
     1
102
RTVSPropertyOp9
 70
     1
102
RTVSPropertyOp10
 70
     1
102
RTVSPropertyOp11
 70
     1
102
RTVSPropertyOp12
 70
     1
102
RTVSPropertyOp13
 70
     1
102
RTVSPropertyOp14
 70
     1
102
RTVSPropertyOp15
 70
     1
102
RTVSPropertyOp16
 70
     1
102
RTVSPropertyOp17
 70
     1
102
RTVSPropertyOp18
 70
     1
102
RTVSPropertyOp19
 70
     1
102
RTVSPropertyOp20
 70
     1
102
RTVSPropertyOp21
 70
     1
102
RTVSPropertyOp22
 70
     1
102
RTVSPropertyOp23
 70
     1
102
RTVSPropertyOp24
 70
     1
102
RTVSPropertyOp25
 70
     1
102
RTVSPropertyOp26
 70
     1
102
RTVSPropertyOp27
 70
     1
102
RTVSPropertyOp28
 70
     1
102
RTVSPropertyOp29
 70
     1
102
RTVSPropertyOp30
 70
     1
102
RTVSPropertyOp31
 70
     1
102
RTVSPropertyOp32
 70
     1
  0
XRECORD
  5
EEF
102
{ACAD_REACTORS
330
EEE
102
}
330
EEE
100
AcDbXrecord
280
     1
102
RTVSPropertyOp0
 70
     1
102
RTVSPropertyOp1
 70
     1
102
RTVSPropertyOp2
 70
     1
102
RTVSPropertyOp3
 70
     1
102
RTVSPropertyOp4
 70
     1
102
RTVSPropertyOp5
 70
     1
102
RTVSPropertyOp6
 70
     1
102
RTVSPropertyOp7
 70
     1
102
RTVSPropertyOp8
 70
     1
102
RTVSPropertyOp9
 70
     1
102
RTVSPropertyOp10
 70
     1
102
RTVSPropertyOp11
 70
     1
102
RTVSPropertyOp12
 70
     1
102
RTVSPropertyOp13
 70
     1
102
RTVSPropertyOp14
 70
     1
102
RTVSPropertyOp15
 70
     1
102
RTVSPropertyOp16
 70
     1
102
RTVSPropertyOp17
 70
     1
102
RTVSPropertyOp18
 70
     1
102
RTVSPropertyOp19
 70
     1
102
RTVSPropertyOp20
 70
     1
102
RTVSPropertyOp21
 70
     1
102
RTVSPropertyOp22
 70
     1
102
RTVSPropertyOp23
 70
     1
102
RTVSPropertyOp24
 70
     1
102
RTVSPropertyOp25
 70
     1
102
RTVSPropertyOp26
 70
     1
102
RTVSPropertyOp27
 70
     1
102
RTVSPropertyOp28
 70
     1
102
RTVSPropertyOp29
 70
     1
102
RTVSPropertyOp30
 70
     1
102
RTVSPropertyOp31
 70
     1
102
RTVSPropertyOp32
 70
     1
  0
XRECORD
  5
F0B
102
{ACAD_REACTORS
330
F0A
102
}
330
F0A
100
AcDbXrecord
280
     1
102
RTVSPropertyOp0
 70
     0
102
RTVSPropertyOp1
 70
     0
102
RTVSPropertyOp2
 70
     0
102
RTVSPropertyOp3
 70
     0
102
RTVSPropertyOp4
 70
     0
102
RTVSPropertyOp5
 70
     0
102
RTVSPropertyOp6
 70
     0
102
RTVSPropertyOp7
 70
     0
102
RTVSPropertyOp8
 70
     0
102
RTVSPropertyOp9
 70
     0
102
RTVSPropertyOp10
 70
     0
102
RTVSPropertyOp11
 70
     0
102
RTVSPropertyOp12
 70
     0
102
RTVSPropertyOp13
 70
     0
102
RTVSPropertyOp14
 70
     2
102
RTVSPropertyOp15
 70
     0
102
RTVSPropertyOp16
 70
     0
102
RTVSPropertyOp17
 70
     0
102
RTVSPropertyOp18
 70
     0
102
RTVSPropertyOp19
 70
     0
102
RTVSPropertyOp20
 70
     0
102
RTVSPropertyOp21
 70
     0
102
RTVSPropertyOp22
 70
     0
102
RTVSPropertyOp23
 70
     0
102
RTVSPropertyOp24
 70
     0
102
RTVSPropertyOp25
 70
     0
102
RTVSPropertyOp26
 70
     0
102
RTVSPropertyOp27
 70
     0
102
RTVSPropertyOp28
 70
     1
102
RTVSPropertyOp29
 70
     1
102
RTVSPropertyOp30
 70
     1
102
RTVSPropertyOp31
 70
     1
102
RTVSPropertyOp32
 70
     1
  0
XRECORD
  5
EFB
102
{ACAD_REACTORS
330
EFA
102
}
330
EFA
100
AcDbXrecord
280
     1
102
RTVSPropertyOp0
 70
     1
102
RTVSPropertyOp1
 70
     1
102
RTVSPropertyOp2
 70
     1
102
RTVSPropertyOp3
 70
     1
102
RTVSPropertyOp4
 70
     1
102
RTVSPropertyOp5
 70
     1
102
RTVSPropertyOp6
 70
     1
102
RTVSPropertyOp7
 70
     1
102
RTVSPropertyOp8
 70
     1
102
RTVSPropertyOp9
 70
     1
102
RTVSPropertyOp10
 70
     1
102
RTVSPropertyOp11
 70
     1
102
RTVSPropertyOp12
 70
     1
102
RTVSPropertyOp13
 70
     1
102
RTVSPropertyOp14
 70
     1
102
RTVSPropertyOp15
 70
     1
102
RTVSPropertyOp16
 70
     1
102
RTVSPropertyOp17
 70
     1
102
RTVSPropertyOp18
 70
     1
102
RTVSPropertyOp19
 70
     1
102
RTVSPropertyOp20
 70
     1
102
RTVSPropertyOp21
 70
     1
102
RTVSPropertyOp22
 70
     1
102
RTVSPropertyOp23
 70
     1
102
RTVSPropertyOp24
 70
     1
102
RTVSPropertyOp25
 70
     1
102
RTVSPropertyOp26
 70
     1
102
RTVSPropertyOp27
 70
     1
102
RTVSPropertyOp28
 70
     1
102
RTVSPropertyOp29
 70
     1
102
RTVSPropertyOp30
 70
     1
102
RTVSPropertyOp31
 70
     1
102
RTVSPropertyOp32
 70
     1
  0
XRECORD
  5
F0D
102
{ACAD_REACTORS
330
F0C
102
}
330
F0C
100
AcDbXrecord
280
     1
102
RTVSPropertyOp0
 70
     0
102
RTVSPropertyOp1
 70
     0
102
RTVSPropertyOp2
 70
     0
102
RTVSPropertyOp3
 70
     0
102
RTVSPropertyOp4
 70
     0
102
RTVSPropertyOp5
 70
     0
102
RTVSPropertyOp6
 70
     0
102
RTVSPropertyOp7
 70
     0
102
RTVSPropertyOp8
 70
     0
102
RTVSPropertyOp9
 70
     0
102
RTVSPropertyOp10
 70
     0
102
RTVSPropertyOp11
 70
     0
102
RTVSPropertyOp12
 70
     0
102
RTVSPropertyOp13
 70
     0
102
RTVSPropertyOp14
 70
     2
102
RTVSPropertyOp15
 70
     0
102
RTVSPropertyOp16
 70
     0
102
RTVSPropertyOp17
 70
     0
102
RTVSPropertyOp18
 70
     0
102
RTVSPropertyOp19
 70
     0
102
RTVSPropertyOp20
 70
     0
102
RTVSPropertyOp21
 70
     0
102
RTVSPropertyOp22
 70
     0
102
RTVSPropertyOp23
 70
     0
102
RTVSPropertyOp24
 70
     0
102
RTVSPropertyOp25
 70
     0
102
RTVSPropertyOp26
 70
     0
102
RTVSPropertyOp27
 70
     0
102
RTVSPropertyOp28
 70
     1
102
RTVSPropertyOp29
 70
     1
102
RTVSPropertyOp30
 70
     1
102
RTVSPropertyOp31
 70
     1
102
RTVSPropertyOp32
 70
     1
  0
XRECORD
  5
EF3
102
{ACAD_REACTORS
330
EF2
102
}
330
EF2
100
AcDbXrecord
280
     1
102
RTVSPropertyOp0
 70
     1
102
RTVSPropertyOp1
 70
     1
102
RTVSPropertyOp2
 70
     1
102
RTVSPropertyOp3
 70
     1
102
RTVSPropertyOp4
 70
     1
102
RTVSPropertyOp5
 70
     1
102
RTVSPropertyOp6
 70
     1
102
RTVSPropertyOp7
 70
     1
102
RTVSPropertyOp8
 70
     1
102
RTVSPropertyOp9
 70
     1
102
RTVSPropertyOp10
 70
     1
102
RTVSPropertyOp11
 70
     1
102
RTVSPropertyOp12
 70
     1
102
RTVSPropertyOp13
 70
     1
102
RTVSPropertyOp14
 70
     1
102
RTVSPropertyOp15
 70
     1
102
RTVSPropertyOp16
 70
     1
102
RTVSPropertyOp17
 70
     1
102
RTVSPropertyOp18
 70
     1
102
RTVSPropertyOp19
 70
     1
102
RTVSPropertyOp20
 70
     1
102
RTVSPropertyOp21
 70
     1
102
RTVSPropertyOp22
 70
     1
102
RTVSPropertyOp23
 70
     1
102
RTVSPropertyOp24
 70
     1
102
RTVSPropertyOp25
 70
     1
102
RTVSPropertyOp26
 70
     1
102
RTVSPropertyOp27
 70
     1
102
RTVSPropertyOp28
 70
     1
102
RTVSPropertyOp29
 70
     1
102
RTVSPropertyOp30
 70
     1
102
RTVSPropertyOp31
 70
     1
102
RTVSPropertyOp32
 70
     1
  0
XRECORD
  5
F09
102
{ACAD_REACTORS
330
F08
102
}
330
F08
100
AcDbXrecord
280
     1
102
RTVSPropertyOp0
 70
     1
102
RTVSPropertyOp1
 70
     1
102
RTVSPropertyOp2
 70
     1
102
RTVSPropertyOp3
 70
     1
102
RTVSPropertyOp4
 70
     1
102
RTVSPropertyOp5
 70
     1
102
RTVSPropertyOp6
 70
     1
102
RTVSPropertyOp7
 70
     1
102
RTVSPropertyOp8
 70
     1
102
RTVSPropertyOp9
 70
     1
102
RTVSPropertyOp10
 70
     1
102
RTVSPropertyOp11
 70
     1
102
RTVSPropertyOp12
 70
     1
102
RTVSPropertyOp13
 70
     1
102
RTVSPropertyOp14
 70
     1
102
RTVSPropertyOp15
 70
     1
102
RTVSPropertyOp16
 70
     1
102
RTVSPropertyOp17
 70
     1
102
RTVSPropertyOp18
 70
     1
102
RTVSPropertyOp19
 70
     1
102
RTVSPropertyOp20
 70
     1
102
RTVSPropertyOp21
 70
     1
102
RTVSPropertyOp22
 70
     1
102
RTVSPropertyOp23
 70
     1
102
RTVSPropertyOp24
 70
     1
102
RTVSPropertyOp25
 70
     1
102
RTVSPropertyOp26
 70
     1
102
RTVSPropertyOp27
 70
     1
102
RTVSPropertyOp28
 70
     1
102
RTVSPropertyOp29
 70
     1
102
RTVSPropertyOp30
 70
     1
102
RTVSPropertyOp31
 70
     1
102
RTVSPropertyOp32
 70
     1
  0
XRECORD
  5
F07
102
{ACAD_REACTORS
330
F06
102
}
330
F06
100
AcDbXrecord
280
     1
102
RTVSPropertyOp0
 70
     1
102
RTVSPropertyOp1
 70
     1
102
RTVSPropertyOp2
 70
     1
102
RTVSPropertyOp3
 70
     1
102
RTVSPropertyOp4
 70
     1
102
RTVSPropertyOp5
 70
     1
102
RTVSPropertyOp6
 70
     1
102
RTVSPropertyOp7
 70
     1
102
RTVSPropertyOp8
 70
     1
102
RTVSPropertyOp9
 70
     1
102
RTVSPropertyOp10
 70
     1
102
RTVSPropertyOp11
 70
     1
102
RTVSPropertyOp12
 70
     1
102
RTVSPropertyOp13
 70
     1
102
RTVSPropertyOp14
 70
     1
102
RTVSPropertyOp15
 70
     1
102
RTVSPropertyOp16
 70
     1
102
RTVSPropertyOp17
 70
     1
102
RTVSPropertyOp18
 70
     1
102
RTVSPropertyOp19
 70
     1
102
RTVSPropertyOp20
 70
     1
102
RTVSPropertyOp21
 70
     1
102
RTVSPropertyOp22
 70
     1
102
RTVSPropertyOp23
 70
     1
102
RTVSPropertyOp24
 70
     1
102
RTVSPropertyOp25
 70
     1
102
RTVSPropertyOp26
 70
     1
102
RTVSPropertyOp27
 70
     1
102
RTVSPropertyOp28
 70
     1
102
RTVSPropertyOp29
 70
     1
102
RTVSPropertyOp30
 70
     1
102
RTVSPropertyOp31
 70
     1
102
RTVSPropertyOp32
 70
     1
  0
XRECORD
  5
F01
102
{ACAD_REACTORS
330
F00
102
}
330
F00
100
AcDbXrecord
280
     1
102
RTVSPropertyOp0
 70
     1
102
RTVSPropertyOp1
 70
     1
102
RTVSPropertyOp2
 70
     1
102
RTVSPropertyOp3
 70
     1
102
RTVSPropertyOp4
 70
     1
102
RTVSPropertyOp5
 70
     1
102
RTVSPropertyOp6
 70
     1
102
RTVSPropertyOp7
 70
     1
102
RTVSPropertyOp8
 70
     1
102
RTVSPropertyOp9
 70
     1
102
RTVSPropertyOp10
 70
     1
102
RTVSPropertyOp11
 70
     1
102
RTVSPropertyOp12
 70
     1
102
RTVSPropertyOp13
 70
     1
102
RTVSPropertyOp14
 70
     1
102
RTVSPropertyOp15
 70
     1
102
RTVSPropertyOp16
 70
     1
102
RTVSPropertyOp17
 70
     1
102
RTVSPropertyOp18
 70
     1
102
RTVSPropertyOp19
 70
     1
102
RTVSPropertyOp20
 70
     1
102
RTVSPropertyOp21
 70
     1
102
RTVSPropertyOp22
 70
     1
102
RTVSPropertyOp23
 70
     1
102
RTVSPropertyOp24
 70
     1
102
RTVSPropertyOp25
 70
     1
102
RTVSPropertyOp26
 70
     1
102
RTVSPropertyOp27
 70
     1
102
RTVSPropertyOp28
 70
     1
102
RTVSPropertyOp29
 70
     1
102
RTVSPropertyOp30
 70
     1
102
RTVSPropertyOp31
 70
     1
102
RTVSPropertyOp32
 70
     1
  0
XRECORD
  5
F03
102
{ACAD_REACTORS
330
F02
102
}
330
F02
100
AcDbXrecord
280
     1
102
RTVSPropertyOp0
 70
     1
102
RTVSPropertyOp1
 70
     1
102
RTVSPropertyOp2
 70
     1
102
RTVSPropertyOp3
 70
     1
102
RTVSPropertyOp4
 70
     1
102
RTVSPropertyOp5
 70
     1
102
RTVSPropertyOp6
 70
     1
102
RTVSPropertyOp7
 70
     1
102
RTVSPropertyOp8
 70
     1
102
RTVSPropertyOp9
 70
     1
102
RTVSPropertyOp10
 70
     1
102
RTVSPropertyOp11
 70
     1
102
RTVSPropertyOp12
 70
     1
102
RTVSPropertyOp13
 70
     1
102
RTVSPropertyOp14
 70
     1
102
RTVSPropertyOp15
 70
     1
102
RTVSPropertyOp16
 70
     1
102
RTVSPropertyOp17
 70
     1
102
RTVSPropertyOp18
 70
     1
102
RTVSPropertyOp19
 70
     1
102
RTVSPropertyOp20
 70
     1
102
RTVSPropertyOp21
 70
     1
102
RTVSPropertyOp22
 70
     1
102
RTVSPropertyOp23
 70
     1
102
RTVSPropertyOp24
 70
     1
102
RTVSPropertyOp25
 70
     1
102
RTVSPropertyOp26
 70
     1
102
RTVSPropertyOp27
 70
     1
102
RTVSPropertyOp28
 70
     1
102
RTVSPropertyOp29
 70
     1
102
RTVSPropertyOp30
 70
     1
102
RTVSPropertyOp31
 70
     1
102
RTVSPropertyOp32
 70
     1
  0
XRECORD
  5
EF9
102
{ACAD_REACTORS
330
EF8
102
}
330
EF8
100
AcDbXrecord
280
     1
102
RTVSPropertyOp0
 70
     1
102
RTVSPropertyOp1
 70
     1
102
RTVSPropertyOp2
 70
     1
102
RTVSPropertyOp3
 70
     1
102
RTVSPropertyOp4
 70
     1
102
RTVSPropertyOp5
 70
     1
102
RTVSPropertyOp6
 70
     1
102
RTVSPropertyOp7
 70
     1
102
RTVSPropertyOp8
 70
     1
102
RTVSPropertyOp9
 70
     1
102
RTVSPropertyOp10
 70
     1
102
RTVSPropertyOp11
 70
     1
102
RTVSPropertyOp12
 70
     1
102
RTVSPropertyOp13
 70
     1
102
RTVSPropertyOp14
 70
     1
102
RTVSPropertyOp15
 70
     1
102
RTVSPropertyOp16
 70
     1
102
RTVSPropertyOp17
 70
     1
102
RTVSPropertyOp18
 70
     1
102
RTVSPropertyOp19
 70
     1
102
RTVSPropertyOp20
 70
     1
102
RTVSPropertyOp21
 70
     1
102
RTVSPropertyOp22
 70
     1
102
RTVSPropertyOp23
 70
     1
102
RTVSPropertyOp24
 70
     1
102
RTVSPropertyOp25
 70
     1
102
RTVSPropertyOp26
 70
     1
102
RTVSPropertyOp27
 70
     1
102
RTVSPropertyOp28
 70
     1
102
RTVSPropertyOp29
 70
     1
102
RTVSPropertyOp30
 70
     1
102
RTVSPropertyOp31
 70
     1
102
RTVSPropertyOp32
 70
     1
  0
XRECORD
  5
EED
102
{ACAD_REACTORS
330
EEC
102
}
330
EEC
100
AcDbXrecord
280
     1
102
RTVSPropertyOp0
 70
     1
102
RTVSPropertyOp1
 70
     1
102
RTVSPropertyOp2
 70
     1
102
RTVSPropertyOp3
 70
     1
102
RTVSPropertyOp4
 70
     1
102
RTVSPropertyOp5
 70
     1
102
RTVSPropertyOp6
 70
     1
102
RTVSPropertyOp7
 70
     1
102
RTVSPropertyOp8
 70
     1
102
RTVSPropertyOp9
 70
     1
102
RTVSPropertyOp10
 70
     1
102
RTVSPropertyOp11
 70
     1
102
RTVSPropertyOp12
 70
     1
102
RTVSPropertyOp13
 70
     1
102
RTVSPropertyOp14
 70
     1
102
RTVSPropertyOp15
 70
     1
102
RTVSPropertyOp16
 70
     1
102
RTVSPropertyOp17
 70
     1
102
RTVSPropertyOp18
 70
     1
102
RTVSPropertyOp19
 70
     1
102
RTVSPropertyOp20
 70
     1
102
RTVSPropertyOp21
 70
     1
102
RTVSPropertyOp22
 70
     1
102
RTVSPropertyOp23
 70
     1
102
RTVSPropertyOp24
 70
     1
102
RTVSPropertyOp25
 70
     1
102
RTVSPropertyOp26
 70
     1
102
RTVSPropertyOp27
 70
     1
102
RTVSPropertyOp28
 70
     1
102
RTVSPropertyOp29
 70
     1
102
RTVSPropertyOp30
 70
     1
102
RTVSPropertyOp31
 70
     1
102
RTVSPropertyOp32
 70
     1
  0
XRECORD
  5
F05
102
{ACAD_REACTORS
330
F04
102
}
330
F04
100
AcDbXrecord
280
     1
102
RTVSPropertyOp0
 70
     1
102
RTVSPropertyOp1
 70
     1
102
RTVSPropertyOp2
 70
     1
102
RTVSPropertyOp3
 70
     1
102
RTVSPropertyOp4
 70
     1
102
RTVSPropertyOp5
 70
     1
102
RTVSPropertyOp6
 70
     1
102
RTVSPropertyOp7
 70
     1
102
RTVSPropertyOp8
 70
     1
102
RTVSPropertyOp9
 70
     1
102
RTVSPropertyOp10
 70
     1
102
RTVSPropertyOp11
 70
     1
102
RTVSPropertyOp12
 70
     1
102
RTVSPropertyOp13
 70
     1
102
RTVSPropertyOp14
 70
     1
102
RTVSPropertyOp15
 70
     1
102
RTVSPropertyOp16
 70
     1
102
RTVSPropertyOp17
 70
     1
102
RTVSPropertyOp18
 70
     1
102
RTVSPropertyOp19
 70
     1
102
RTVSPropertyOp20
 70
     1
102
RTVSPropertyOp21
 70
     1
102
RTVSPropertyOp22
 70
     1
102
RTVSPropertyOp23
 70
     1
102
RTVSPropertyOp24
 70
     1
102
RTVSPropertyOp25
 70
     1
102
RTVSPropertyOp26
 70
     1
102
RTVSPropertyOp27
 70
     1
102
RTVSPropertyOp28
 70
     1
102
RTVSPropertyOp29
 70
     1
102
RTVSPropertyOp30
 70
     1
102
RTVSPropertyOp31
 70
     1
102
RTVSPropertyOp32
 70
     1
  0
ENDSEC
  0
EOF
