  0
SECTION
  2
HEADER
  9
$ACADVER
  1
AC1015
  9
$ACADMAINTVER
 70
    20
  9
$DWGCODEPAGE
  3
ANSI_1250
  9
$INSBASE
 10
0.0
 20
0.0
 30
0.0
  9
$EXTMIN
 10
8524.765634411485
 20
-9.429146583908895
 30
0.0
  9
$EXTMAX
 10
20535.53005605422
 20
7274.520828779269
 30
0.0
  9
$LIMMIN
 10
0.0
 20
0.0
  9
$LIMMAX
 10
8910.0
 20
6300.0
  9
$ORTHOMODE
 70
     0
  9
$REGENMODE
 70
     1
  9
$FILLMODE
 70
     1
  9
$QTEXTMODE
 70
     0
  9
$MIRRTEXT
 70
     0
  9
$LTSCALE
 40
30.0
  9
$ATTMODE
 70
     1
  9
$TEXTSIZE
 40
0.2
  9
$TRACEWID
 40
0.05
  9
$TEXTSTYLE
  7
Standard
  9
$CLAYER
  8
0
  9
$CELTYPE
  6
ByLayer
  9
$CECOLOR
 62
   256
  9
$CELTSCALE
 40
1.0
  9
$DISPSILH
 70
     0
  9
$DIMSCALE
 40
1.0
  9
$DIMASZ
 40
1.799999999999999
  9
$DIMEXO
 40
0.0625
  9
$DIMDLI
 40
0.38
  9
$DIMRND
 40
0.0
  9
$DIMDLE
 40
0.0
  9
$DIMEXE
 40
0.18
  9
$DIMTP
 40
0.0
  9
$DIMTM
 40
0.0
  9
$DIMTXT
 40
0.25
  9
$DIMCEN
 40
0.09
  9
$DIMTSZ
 40
0.0
  9
$DIMTOL
 70
     0
  9
$DIMLIM
 70
     0
  9
$DIMTIH
 70
     1
  9
$DIMTOH
 70
     1
  9
$DIMSE1
 70
     0
  9
$DIMSE2
 70
     0
  9
$DIMTAD
 70
     0
  9
$DIMZIN
 70
     0
  9
$DIMBLK
  1

  9
$DIMASO
 70
     1
  9
$DIMSHO
 70
     1
  9
$DIMPOST
  1

  9
$DIMAPOST
  1

  9
$DIMALT
 70
     0
  9
$DIMALTD
 70
     2
  9
$DIMALTF
 40
25.4
  9
$DIMLFAC
 40
1.0
  9
$DIMTOFL
 70
     0
  9
$DIMTVP
 40
0.0
  9
$DIMTIX
 70
     0
  9
$DIMSOXD
 70
     0
  9
$DIMSAH
 70
     0
  9
$DIMBLK1
  1

  9
$DIMBLK2
  1

  9
$DIMSTYLE
  2
Standard
  9
$DIMCLRD
 70
     0
  9
$DIMCLRE
 70
     0
  9
$DIMCLRT
 70
     0
  9
$DIMTFAC
 40
1.0
  9
$DIMGAP
 40
0.09
  9
$DIMJUST
 70
     0
  9
$DIMSD1
 70
     0
  9
$DIMSD2
 70
     0
  9
$DIMTOLJ
 70
     1
  9
$DIMTZIN
 70
     0
  9
$DIMALTZ
 70
     0
  9
$DIMALTTZ
 70
     0
  9
$DIMUPT
 70
     0
  9
$DIMDEC
 70
     4
  9
$DIMTDEC
 70
     4
  9
$DIMALTU
 70
     2
  9
$DIMALTTD
 70
     2
  9
$DIMTXSTY
  7
Standard
  9
$DIMAUNIT
 70
     0
  9
$DIMADEC
 70
     0
  9
$DIMALTRND
 40
0.0
  9
$DIMAZIN
 70
     0
  9
$DIMDSEP
 70
    46
  9
$DIMATFIT
 70
     3
  9
$DIMFRAC
 70
     0
  9
$DIMLDRBLK
  1

  9
$DIMLUNIT
 70
     2
  9
$DIMLWD
 70
    -2
  9
$DIMLWE
 70
    -2
  9
$DIMTMOVE
 70
     0
  9
$LUNITS
 70
     2
  9
$LUPREC
 70
     4
  9
$SKETCHINC
 40
0.1
  9
$FILLETRAD
 40
0.0
  9
$AUNITS
 70
     0
  9
$AUPREC
 70
     0
  9
$MENU
  1
.
  9
$ELEVATION
 40
0.0
  9
$PELEVATION
 40
0.0
  9
$THICKNESS
 40
0.0
  9
$LIMCHECK
 70
     0
  9
$CHAMFERA
 40
0.0
  9
$CHAMFERB
 40
0.0
  9
$CHAMFERC
 40
0.0
  9
$CHAMFERD
 40
0.0
  9
$SKPOLY
 70
     0
  9
$TDCREATE
 40
2459776.383258276
  9
$TDUCREATE
 40
2459776.299924942
  9
$TDUPDATE
 40
2459776.492958889
  9
$TDUUPDATE
 40
2459776.409625555
  9
$TDINDWG
 40
0.0004765625
  9
$TDUSRTIMER
 40
0.0004765625
  9
$USRTIMER
 70
     1
  9
$ANGBASE
 50
0.0
  9
$ANGDIR
 70
     0
  9
$PDMODE
 70
     0
  9
$PDSIZE
 40
0.0
  9
$PLINEWID
 40
0.0
  9
$SPLFRAME
 70
     0
  9
$SPLINETYPE
 70
     6
  9
$SPLINESEGS
 70
     8
  9
$HANDSEED
  5
1013
  9
$SURFTAB1
 70
     6
  9
$SURFTAB2
 70
     6
  9
$SURFTYPE
 70
     6
  9
$SURFU
 70
     6
  9
$SURFV
 70
     6
  9
$UCSBASE
  2

  9
$UCSNAME
  2

  9
$UCSORG
 10
0.0
 20
0.0
 30
0.0
  9
$UCSXDIR
 10
1.0
 20
0.0
 30
0.0
  9
$UCSYDIR
 10
0.0
 20
1.0
 30
0.0
  9
$UCSORTHOREF
  2

  9
$UCSORTHOVIEW
 70
     0
  9
$UCSORGTOP
 10
0.0
 20
0.0
 30
0.0
  9
$UCSORGBOTTOM
 10
0.0
 20
0.0
 30
0.0
  9
$UCSORGLEFT
 10
0.0
 20
0.0
 30
0.0
  9
$UCSORGRIGHT
 10
0.0
 20
0.0
 30
0.0
  9
$UCSORGFRONT
 10
0.0
 20
0.0
 30
0.0
  9
$UCSORGBACK
 10
0.0
 20
0.0
 30
0.0
  9
$PUCSBASE
  2

  9
$PUCSNAME
  2

  9
$PUCSORG
 10
0.0
 20
0.0
 30
0.0
  9
$PUCSXDIR
 10
1.0
 20
0.0
 30
0.0
  9
$PUCSYDIR
 10
0.0
 20
1.0
 30
0.0
  9
$PUCSORTHOREF
  2

  9
$PUCSORTHOVIEW
 70
     0
  9
$PUCSORGTOP
 10
0.0
 20
0.0
 30
0.0
  9
$PUCSORGBOTTOM
 10
0.0
 20
0.0
 30
0.0
  9
$PUCSORGLEFT
 10
0.0
 20
0.0
 30
0.0
  9
$PUCSORGRIGHT
 10
0.0
 20
0.0
 30
0.0
  9
$PUCSORGFRONT
 10
0.0
 20
0.0
 30
0.0
  9
$PUCSORGBACK
 10
0.0
 20
0.0
 30
0.0
  9
$USERI1
 70
     0
  9
$USERI2
 70
     0
  9
$USERI3
 70
     0
  9
$USERI4
 70
     0
  9
$USERI5
 70
     0
  9
$USERR1
 40
0.0
  9
$USERR2
 40
0.0
  9
$USERR3
 40
0.0
  9
$USERR4
 40
0.0
  9
$USERR5
 40
0.0
  9
$WORLDVIEW
 70
     1
  9
$SHADEDGE
 70
     3
  9
$SHADEDIF
 70
    70
  9
$TILEMODE
 70
     1
  9
$MAXACTVP
 70
    64
  9
$PINSBASE
 10
0.0
 20
0.0
 30
0.0
  9
$PLIMCHECK
 70
     0
  9
$PEXTMIN
 10
0.0
 20
0.0
 30
0.0
  9
$PEXTMAX
 10
8910.0
 20
6300.0
 30
0.0
  9
$PLIMMIN
 10
0.0
 20
0.0
  9
$PLIMMAX
 10
8910.0
 20
6300.0
  9
$UNITMODE
 70
     0
  9
$VISRETAIN
 70
     1
  9
$PLINEGEN
 70
     0
  9
$PSLTSCALE
 70
     1
  9
$TREEDEPTH
 70
  3020
  9
$CMLSTYLE
  2
Standard
  9
$CMLJUST
 70
     0
  9
$CMLSCALE
 40
1.0
  9
$PROXYGRAPHICS
 70
     1
  9
$MEASUREMENT
 70
     1
  9
$CELWEIGHT
370
    -1
  9
$ENDCAPS
280
     0
  9
$JOINSTYLE
280
     0
  9
$LWDISPLAY
290
     0
  9
$INSUNITS
 70
     4
  9
$HYPERLINKBASE
  1
www.muller.com.pl
  9
$STYLESHEET
  1

  9
$XEDIT
290
     1
  9
$CEPSNTYPE
380
     0
  9
$PSTYLEMODE
290
     1
  9
$FINGERPRINTGUID
  2
{CF08AE39-FC16-4AE3-ABE1-DF8BB27119BE}
  9
$VERSIONGUID
  2
{209882E8-F9BE-4009-A91C-17D4A5899001}
  9
$EXTNAMES
290
     1
  9
$PSVPSCALE
 40
0.0
  9
$OLESTARTUP
290
     0
  0
ENDSEC
  0
SECTION
  2
CLASSES
  0
CLASS
  1
ACDBDICTIONARYWDFLT
  2
AcDbDictionaryWithDefault
  3
ObjectDBX Classes
 90
        0
280
     0
281
     0
  0
CLASS
  1
MATERIAL
  2
AcDbMaterial
  3
ObjectDBX Classes
 90
     1153
280
     0
281
     0
  0
CLASS
  1
VISUALSTYLE
  2
AcDbVisualStyle
  3
ObjectDBX Classes
 90
     4095
280
     0
281
     0
  0
CLASS
  1
SCALE
  2
AcDbScale
  3
ObjectDBX Classes
 90
     1153
280
     0
281
     0
  0
CLASS
  1
TABLESTYLE
  2
AcDbTableStyle
  3
ObjectDBX Classes
 90
     4095
280
     0
281
     0
  0
CLASS
  1
MLEADERSTYLE
  2
AcDbMLeaderStyle
  3
ACDB_MLEADERSTYLE_CLASS
 90
     4095
280
     0
281
     0
  0
CLASS
  1
CELLSTYLEMAP
  2
AcDbCellStyleMap
  3
ObjectDBX Classes
 90
     1152
280
     0
281
     0
  0
CLASS
  1
DICTIONARYVAR
  2
AcDbDictionaryVar
  3
ObjectDBX Classes
 90
        0
280
     0
281
     0
  0
CLASS
  1
ACDBPLACEHOLDER
  2
AcDbPlaceHolder
  3
ObjectDBX Classes
 90
        0
280
     0
281
     0
  0
CLASS
  1
LAYOUT
  2
AcDbLayout
  3
ObjectDBX Classes
 90
        0
280
     0
281
     0
  0
ENDSEC
  0
SECTION
  2
TABLES
  0
TABLE
  2
VPORT
  5
8
102
{ACAD_XDICTIONARY
360
F5C
102
}
330
0
100
AcDbSymbolTable
 70
     1
  0
VPORT
  5
57
330
8
100
AcDbSymbolTableRecord
100
AcDbViewportTableRecord
  2
*Active
 70
     0
 10
0.0
 20
0.0
 11
1.0
 21
1.0
 12
10412.24904204561
 22
1787.256321625084
 13
0.0
 23
0.0
 14
1.0
 24
1.0
 15
0.0
 25
0.0
 16
0.0
 26
0.0
 36
1.0
 17
0.0
 27
0.0
 37
0.0
 40
5529.972342569374
 41
2.461439588688945
 42
50.0
 43
0.0
 44
0.0
 50
0.0
 51
0.0
 71
     0
 72
   100
 73
     1
 74
     1
 75
     0
 76
     0
 77
     0
 78
     0
281
     0
 65
     1
110
0.0
120
0.0
130
0.0
111
1.0
121
0.0
131
0.0
112
0.0
122
1.0
132
0.0
 79
     0
146
0.0
  0
ENDTAB
  0
TABLE
  2
LTYPE
  5
5
330
0
100
AcDbSymbolTable
 70
    59
  0
LTYPE
  5
5B
330
5
100
AcDbSymbolTableRecord
100
AcDbLinetypeTableRecord
  2
ByBlock
 70
     0
  3

 72
    65
 73
     0
 40
0.0
  0
LTYPE
  5
5C
330
5
100
AcDbSymbolTableRecord
100
AcDbLinetypeTableRecord
  2
ByLayer
 70
     0
  3

 72
    65
 73
     0
 40
0.0
  0
LTYPE
  5
5D
330
5
100
AcDbSymbolTableRecord
100
AcDbLinetypeTableRecord
  2
Continuous
 70
     0
  3
Solid line
 72
    65
 73
     0
 40
0.0
  0
ENDTAB
  0
TABLE
  2
LAYER
  5
2
330
0
100
AcDbSymbolTable
 70
    13
  0
LAYER
  5
54
330
2
100
AcDbSymbolTableRecord
100
AcDbLayerTableRecord
  2
0
 70
     0
 62
     7
  6
Continuous
370
    -3
390
F
  0
LAYER
  5
BA
330
2
100
AcDbSymbolTableRecord
100
AcDbLayerTableRecord
  2
Dimension (ISO)
 70
     0
 62
   161
  6
Continuous
370
    18
390
F
  0
LAYER
  5
C5
330
2
100
AcDbSymbolTableRecord
100
AcDbLayerTableRecord
  2
Title (ISO)
 70
     0
 62
     7
  6
Continuous
370
    30
390
F
  0
LAYER
  5
C8
330
2
100
AcDbSymbolTableRecord
100
AcDbLayerTableRecord
  2
Visible (ISO)
 70
     0
 62
     7
  6
Continuous
370
    35
390
F
  0
LAYER
  5
217
330
2
100
AcDbSymbolTableRecord
100
AcDbLayerTableRecord
  2
Defpoints
 70
     0
 62
     7
  6
Continuous
290
     0
370
    -3
390
F
  0
ENDTAB
  0
TABLE
  2
STYLE
  5
3
330
0
100
AcDbSymbolTable
 70
     8
  0
STYLE
  5
55
330
3
100
AcDbSymbolTableRecord
100
AcDbTextStyleTableRecord
  2
Standard
 70
     0
 40
0.0
 41
1.0
 50
0.0
 71
     0
 42
0.2
  3
tahoma.ttf
  4

1001
ACAD
1000
Tahoma
1071
      256
  0
STYLE
  5
CD
330
3
100
AcDbSymbolTableRecord
100
AcDbTextStyleTableRecord
  2
Label Text (ISO)
 70
     0
 40
0.0
 41
1.0
 50
0.0
 71
     0
 42
0.2
  3
tahoma.ttf
  4

1001
ACAD
1000
Tahoma
1071
      256
  0
STYLE
  5
CE
330
3
100
AcDbSymbolTableRecord
100
AcDbTextStyleTableRecord
  2
Note Text (ISO)
 70
     0
 40
0.0
 41
1.0
 50
0.0
 71
     0
 42
0.2
  3
tahoma.ttf
  4

1001
ACAD
1000
Tahoma
1071
      256
  0
ENDTAB
  0
TABLE
  2
VIEW
  5
6
330
0
100
AcDbSymbolTable
 70
     0
  0
ENDTAB
  0
TABLE
  2
UCS
  5
7
330
0
100
AcDbSymbolTable
 70
     0
  0
ENDTAB
  0
TABLE
  2
APPID
  5
9
330
0
100
AcDbSymbolTable
 70
     5
  0
APPID
  5
56
330
9
100
AcDbSymbolTableRecord
100
AcDbRegAppTableRecord
  2
ACAD
 70
     0
  0
APPID
  5
5E
330
9
100
AcDbSymbolTableRecord
100
AcDbRegAppTableRecord
  2
AcadAnnotative
 70
     0
  0
APPID
  5
7C3
330
9
100
AcDbSymbolTableRecord
100
AcDbRegAppTableRecord
  2
AcadAnnoPO
 70
     0
  0
APPID
  5
95B
330
9
100
AcDbSymbolTableRecord
100
AcDbRegAppTableRecord
  2
ACAD_DSTYLE_DIMRADIAL_EXTENSION
 70
     0
  0
APPID
  5
F92
330
9
100
AcDbSymbolTableRecord
100
AcDbRegAppTableRecord
  2
ACAD_MLEADERVER
 70
     0
  0
ENDTAB
  0
TABLE
  2
DIMSTYLE
  5
A
330
0
100
AcDbSymbolTable
 70
    12
100
AcDbDimStyleTable
 71
     2
340
D5
340
58
  0
DIMSTYLE
105
58
330
A
100
AcDbSymbolTableRecord
100
AcDbDimStyleTableRecord
  2
Standard
 70
     0
340
55
  0
DIMSTYLE
105
D5
102
{ACAD_REACTORS
330
216
330
2FC
330
3E1
330
4E4
330
5C6
330
6D8
330
D7C
330
E5E
102
}
330
A
100
AcDbSymbolTableRecord
100
AcDbDimStyleTableRecord
  2
Default (ISO)
 70
     0
 40
30.0
 41
2.5
 42
0.5
 43
5.999999999999999
 44
1.0
 45
0.00000001
 46
10.0
 73
     0
 77
     1
 78
     8
 79
     2
140
3.5
143
0.03937
146
0.7142857313156128
147
0.762
171
     3
172
     1
176
   256
177
   256
178
   256
271
     2
272
     2
274
     3
278
    44
340
CD
371
    -1
372
    -1
  0
ENDTAB
  0
TABLE
  2
BLOCK_RECORD
  5
1
330
0
100
AcDbSymbolTable
 70
    29
  0
BLOCK_RECORD
  5
6C
330
1
100
AcDbSymbolTableRecord
100
AcDbBlockTableRecord
  2
*Model_Space
340
6F
  0
BLOCK_RECORD
  5
68
330
1
100
AcDbSymbolTableRecord
100
AcDbBlockTableRecord
  2
*Paper_Space
340
6B
  0
BLOCK_RECORD
  5
70
330
1
100
AcDbSymbolTableRecord
100
AcDbBlockTableRecord
  2
*Paper_Space0
340
73
  0
BLOCK_RECORD
  5
218
330
1
100
AcDbSymbolTableRecord
100
AcDbBlockTableRecord
  2
*D7
340
0
  0
BLOCK_RECORD
  5
2FD
330
1
100
AcDbSymbolTableRecord
100
AcDbBlockTableRecord
  2
*D8
340
0
  0
BLOCK_RECORD
  5
3E2
330
1
100
AcDbSymbolTableRecord
100
AcDbBlockTableRecord
  2
*D9
340
0
  0
BLOCK_RECORD
  5
4E5
330
1
100
AcDbSymbolTableRecord
100
AcDbBlockTableRecord
  2
*D10
340
0
  0
BLOCK_RECORD
  5
5C7
330
1
100
AcDbSymbolTableRecord
100
AcDbBlockTableRecord
  2
*D11
340
0
  0
BLOCK_RECORD
  5
6D9
330
1
100
AcDbSymbolTableRecord
100
AcDbBlockTableRecord
  2
*D12
340
0
  0
BLOCK_RECORD
  5
7BB
330
1
100
AcDbSymbolTableRecord
100
AcDbBlockTableRecord
  2
Tabelki rysunkowe Rzut
340
0
102
{BLKREFS
331
7C6
102
}
  0
BLOCK_RECORD
  5
D7D
330
1
100
AcDbSymbolTableRecord
100
AcDbBlockTableRecord
  2
*D26
340
0
  0
BLOCK_RECORD
  5
E5F
330
1
100
AcDbSymbolTableRecord
100
AcDbBlockTableRecord
  2
*D27
340
0
  0
BLOCK_RECORD
  5
FBD
330
1
100
AcDbSymbolTableRecord
100
AcDbBlockTableRecord
  2
9098-9099_Regulamin-uzytkowania-podwojny
340
0
310
2800000020000000200000000100080000000000000400000000000000000000000000000000000000000000000080000080000000808000800000008000800080800000C0C0C000C0DCC000F0CAA6000020400000206000002080000020A0000020C0000020E00000400000004020000040400000406000004080000040A0
310
000040C0000040E00000600000006020000060400000606000006080000060A0000060C0000060E00000800000008020000080400000806000008080000080A0000080C0000080E00000A0000000A0200000A0400000A0600000A0800000A0A00000A0C00000A0E00000C0000000C0200000C0400000C0600000C0800000C0
310
A00000C0C00000C0E00000E0000000E0200000E0400000E0600000E0800000E0A00000E0C00000E0E00040000000400020004000400040006000400080004000A0004000C0004000E00040200000402020004020400040206000402080004020A0004020C0004020E000404000004040200040404000404060004040800040
310
40A0004040C0004040E00040600000406020004060400040606000406080004060A0004060C0004060E00040800000408020004080400040806000408080004080A0004080C0004080E00040A0000040A0200040A0400040A0600040A0800040A0A00040A0C00040A0E00040C0000040C0200040C0400040C0600040C08000
310
40C0A00040C0C00040C0E00040E0000040E0200040E0400040E0600040E0800040E0A00040E0C00040E0E00080000000800020008000400080006000800080008000A0008000C0008000E00080200000802020008020400080206000802080008020A0008020C0008020E00080400000804020008040400080406000804080
310
008040A0008040C0008040E00080600000806020008060400080606000806080008060A0008060C0008060E00080800000808020008080400080806000808080008080A0008080C0008080E00080A0000080A0200080A0400080A0600080A0800080A0A00080A0C00080A0E00080C0000080C0200080C0400080C0600080C0
310
800080C0A00080C0C00080C0E00080E0000080E0200080E0400080E0600080E0800080E0A00080E0C00080E0E000C0000000C0002000C0004000C0006000C0008000C000A000C000C000C000E000C0200000C0202000C0204000C0206000C0208000C020A000C020C000C020E000C0400000C0402000C0404000C0406000C0
310
408000C040A000C040C000C040E000C0600000C0602000C0604000C0606000C0608000C060A000C060C000C060E000C0800000C0802000C0804000C0806000C0808000C080A000C080C000C080E000C0A00000C0A02000C0A04000C0A06000C0A08000C0A0A000C0A0C000C0A0E000C0C00000C0C02000C0C04000C0C06000
310
C0C08000C0C0A000F0FBFF00A4A0A000808080000000FF0000FF000000FFFF00FF000000FF00FF00FFFF0000FFFFFF0049494949494949494949494949494949494949494949494949494949494949494949494949494949494949494949494949494949494949494949494949494949494949494949494949494949494949
310
49494949494949494949494949494949494949494949494949494949494949494949494949494949494949494949494949494949494949494949494949494949494949494949494949494949494949494949494949494949494949494949494949494949494949494949494949494949494949494949494949494949494949
310
49494949494949494949494949494949494949494949494949494949494949494949494949494949494949494949494949494949494949494949494949494949494949494949494949494949494949494949494949494949494949494949494949494949494949494949494949494949494949494949494949494949494949
310
49494949494949494949494949494949494949494949494949494949494949494949494949494949494949494949494949494949494949494949494949494949494949494949494949494949494949494949494949494949494949494949494949494949494949494949494949494949494949494949494949494949494949
310
494949494949494949494949494949494949494949FFFFFFFFFFFFFFFFFFFFFFFFFFFFFFFFFFFFFFFFFFFFFFFFFFFFFFFFFFFF4949FFFFFFFFFFFFFFFFFFFFFFFFFFFFFFFFFFFFFFFFFFFFFFFFFFFFFFFFFFFF4949494949494949494949494949494949494949494949494949494949494949494949494949494949494949
310
49494949494949494949494949494949494949494949494949494949494949494949494949494949494949494949494949494949494949494949494949494949494949494949494949494949494949494949494949494949494949494949494949494949494949494949494949494949494949494949494949494949494949
310
49494949494949494949494949494949494949494949494949494949494949494949494949494949494949494949494949494949494949494949494949494949494949494949494949494949494949494949494949494949494949494949494949494949494949494949494949494949494949494949494949494949494949
310
49494949494949494949494949494949494949494949494949494949494949494949494949494949494949494949494949494949494949494949494949494949494949494949494949494949494949494949494949494949494949494949494949494949494949494949494949494949494949494949494949494949494949
310
4949494949494949494949494949494949494949494949494949494949494949494949494949494949494949494949494949494949494949
102
{BLKREFS
331
FC8
102
}
1001
ACAD
1000
DesignCenter Data
1002
{
1070
     1
1070
     4
1002
}
  0
ENDTAB
  0
ENDSEC
  0
SECTION
  2
BLOCKS
  0
BLOCK
  5
6D
330
6C
100
AcDbEntity
  8
0
100
AcDbBlockBegin
  2
*Model_Space
 70
     0
 10
0.0
 20
0.0
 30
0.0
  3
*Model_Space
  1

  0
ENDBLK
  5
6E
330
6C
100
AcDbEntity
  8
0
100
AcDbBlockEnd
  0
BLOCK
  5
69
330
68
100
AcDbEntity
 67
     1
  8
0
100
AcDbBlockBegin
  2
*Paper_Space
 70
     0
 10
0.0
 20
0.0
 30
0.0
  3
*Paper_Space
  1

  0
ENDBLK
  5
6A
330
68
100
AcDbEntity
 67
     1
  8
0
100
AcDbBlockEnd
  0
BLOCK
  5
71
330
70
100
AcDbEntity
 67
     1
  8
0
100
AcDbBlockBegin
  2
*Paper_Space0
 70
     0
 10
0.0
 20
0.0
 30
0.0
  3
*Paper_Space0
  1

  0
ENDBLK
  5
72
330
70
100
AcDbEntity
 67
     1
  8
0
100
AcDbBlockEnd
  0
BLOCK
  5
219
330
218
100
AcDbEntity
  8
0
100
AcDbBlockBegin
  2
*D7
 70
     1
 10
0.0
 20
0.0
 30
0.0
  3
*D7
  1

  0
LINE
  5
2F4
330
218
100
AcDbEntity
  8
Dimension (ISO)
100
AcDbLine
 10
10426.15940513431
 20
4001.832192121222
 30
0.0
 11
10763.15172156615
 21
4001.832192121222
 31
0.0
  0
LINE
  5
2F5
330
218
100
AcDbEntity
  8
Dimension (ISO)
100
AcDbLine
 10
10733.15172156615
 20
3926.832192121222
 30
0.0
 11
10733.15172156615
 21
2076.832192121222
 31
0.0
  0
SOLID
  5
2F6
330
218
100
AcDbEntity
  8
Dimension (ISO)
100
AcDbTrace
 10
10720.65172156615
 20
3926.832192121222
 30
0.0
 11
10745.65172156615
 21
3926.832192121222
 31
0.0
 12
10733.15172156615
 22
4001.832192121222
 32
0.0
 13
10733.15172156615
 23
4001.832192121222
 33
0.0
  0
SOLID
  5
2F7
330
218
100
AcDbEntity
  8
Dimension (ISO)
100
AcDbTrace
 10
10720.65172156615
 20
2076.832192121222
 30
0.0
 11
10745.65172156615
 21
2076.832192121222
 31
0.0
 12
10733.15172156615
 22
2001.832192121222
 32
0.0
 13
10733.15172156615
 23
2001.832192121222
 33
0.0
  0
MTEXT
  5
2F8
330
218
100
AcDbEntity
  8
Dimension (ISO)
100
AcDbMText
 10
10600.91966048637
 20
2968.236198743543
 30
0.0
 40
105.0
 41
0.0
 71
     2
 72
     1
  1
\A1;2000
  7
Label Text (ISO)
 11
0.0000000000000001
 21
1.0
 31
0.0
 73
     1
 44
1.0
1001
ACAD
1000
MTEXTBEGIN
1070
    73
1070
     1
1070
    44
1040
1.0
1070
    74
1070
     0
1000
MTEXTEND
  0
POINT
  5
2F9
330
218
100
AcDbEntity
  8
Defpoints
 62
     0
100
AcDbPoint
 10
10411.15940513431
 20
4001.832192121222
 30
0.0
  0
POINT
  5
2FA
330
218
100
AcDbEntity
  8
Defpoints
 62
     0
100
AcDbPoint
 10
10833.01415310318
 20
2001.832192121222
 30
0.0
  0
POINT
  5
2FB
330
218
100
AcDbEntity
  8
Defpoints
 62
     0
100
AcDbPoint
 10
10733.15172156615
 20
2001.832192121222
 30
0.0
  0
ENDBLK
  5
21A
330
218
100
AcDbEntity
  8
0
100
AcDbBlockEnd
  0
BLOCK
  5
2FE
330
2FD
100
AcDbEntity
  8
0
100
AcDbBlockBegin
  2
*D8
 70
     1
 10
0.0
 20
0.0
 30
0.0
  3
*D8
  1

  0
LINE
  5
3D9
330
2FD
100
AcDbEntity
  8
Dimension (ISO)
100
AcDbLine
 10
9174.309405134307
 20
1651.832192121222
 30
0.0
 11
8914.558950437029
 21
1651.832192121222
 31
0.0
  0
LINE
  5
3DA
330
2FD
100
AcDbEntity
  8
Dimension (ISO)
100
AcDbLine
 10
8944.558950437029
 20
1926.832192121222
 30
0.0
 11
8944.558950437029
 21
1726.832192121222
 31
0.0
  0
SOLID
  5
3DB
330
2FD
100
AcDbEntity
  8
Dimension (ISO)
100
AcDbTrace
 10
8932.05895043703
 20
1926.832192121222
 30
0.0
 11
8957.058950437028
 21
1926.832192121222
 31
0.0
 12
8944.558950437029
 22
2001.832192121222
 32
0.0
 13
8944.558950437029
 23
2001.832192121222
 33
0.0
  0
SOLID
  5
3DC
330
2FD
100
AcDbEntity
  8
Dimension (ISO)
100
AcDbTrace
 10
8932.05895043703
 20
1726.832192121222
 30
0.0
 11
8957.058950437028
 21
1726.832192121222
 31
0.0
 12
8944.558950437029
 22
1651.832192121222
 32
0.0
 13
8944.558950437029
 23
1651.832192121222
 33
0.0
  0
MTEXT
  5
3DD
330
2FD
100
AcDbEntity
  8
Dimension (ISO)
100
AcDbMText
 10
8812.326889357253
 20
1826.832192121222
 30
0.0
 40
105.0
 41
0.0
 71
     2
 72
     1
  1
\A1;350
  7
Label Text (ISO)
 11
0.0000000000000001
 21
1.0
 31
0.0
 73
     1
 44
1.0
1001
ACAD
1000
MTEXTBEGIN
1070
    73
1070
     1
1070
    44
1040
1.0
1070
    74
1070
     0
1000
MTEXTEND
  0
POINT
  5
3DE
330
2FD
100
AcDbEntity
  8
Defpoints
 62
     0
100
AcDbPoint
 10
8858.296540675629
 20
2001.832192121222
 30
0.0
  0
POINT
  5
3DF
330
2FD
100
AcDbEntity
  8
Defpoints
 62
     0
100
AcDbPoint
 10
9189.309405134308
 20
1651.832192121222
 30
0.0
  0
POINT
  5
3E0
330
2FD
100
AcDbEntity
  8
Defpoints
 62
     0
100
AcDbPoint
 10
8944.558950437029
 20
1651.832192121222
 30
0.0
  0
ENDBLK
  5
2FF
330
2FD
100
AcDbEntity
  8
0
100
AcDbBlockEnd
  0
BLOCK
  5
3E3
330
3E2
100
AcDbEntity
  8
0
100
AcDbBlockBegin
  2
*D9
 70
     1
 10
0.0
 20
0.0
 30
0.0
  3
*D9
  1

  0
LINE
  5
4DA
330
3E2
100
AcDbEntity
  8
Dimension (ISO)
100
AcDbLine
 10
9364.309405134308
 20
1801.832192121222
 30
0.0
 11
9168.779578731244
 21
1801.832192121222
 31
0.0
  0
LINE
  5
4DB
330
3E2
100
AcDbEntity
  8
Dimension (ISO)
100
AcDbLine
 10
9198.779578731246
 20
1726.832192121222
 30
0.0
 11
9198.779578731246
 21
1651.832192121222
 31
0.0
  0
LINE
  5
4DC
330
3E2
100
AcDbEntity
  8
Dimension (ISO)
100
AcDbLine
 10
9198.779578731246
 20
2076.832192121223
 30
0.0
 11
9198.779578731246
 21
2420.527341788695
 31
0.0
  0
LINE
  5
4DD
330
3E2
100
AcDbEntity
  8
Dimension (ISO)
100
AcDbLine
 10
9198.779578731246
 20
1801.832192121222
 30
0.0
 11
9198.779578731246
 21
2001.832192121222
 31
0.0
  0
SOLID
  5
4DE
330
3E2
100
AcDbEntity
  8
Dimension (ISO)
100
AcDbTrace
 10
9186.279578731245
 20
1726.832192121222
 30
0.0
 11
9211.279578731245
 21
1726.832192121222
 31
0.0
 12
9198.779578731246
 22
1801.832192121222
 32
0.0
 13
9198.779578731246
 23
1801.832192121222
 33
0.0
  0
SOLID
  5
4DF
330
3E2
100
AcDbEntity
  8
Dimension (ISO)
100
AcDbTrace
 10
9186.279578731245
 20
2076.832192121223
 30
0.0
 11
9211.279578731245
 21
2076.832192121223
 31
0.0
 12
9198.779578731246
 22
2001.832192121222
 32
0.0
 13
9198.779578731246
 23
2001.832192121222
 33
0.0
  0
MTEXT
  5
4E0
330
3E2
100
AcDbEntity
  8
Dimension (ISO)
100
AcDbMText
 10
9066.54751765147
 20
2286.17976695496
 30
0.0
 40
105.0
 41
0.0
 71
     2
 72
     1
  1
\A1;200
  7
Label Text (ISO)
 11
0.0000000000000001
 21
1.0
 31
0.0
 73
     1
 44
1.0
1001
ACAD
1000
MTEXTBEGIN
1070
    73
1070
     1
1070
    44
1040
1.0
1070
    74
1070
     0
1000
MTEXTEND
  0
POINT
  5
4E1
330
3E2
100
AcDbEntity
  8
Defpoints
 62
     0
100
AcDbPoint
 10
9263.283320238731
 20
2001.832192121222
 30
0.0
  0
POINT
  5
4E2
330
3E2
100
AcDbEntity
  8
Defpoints
 62
     0
100
AcDbPoint
 10
9379.309405134309
 20
1801.832192121222
 30
0.0
  0
POINT
  5
4E3
330
3E2
100
AcDbEntity
  8
Defpoints
 62
     0
100
AcDbPoint
 10
9198.779578731246
 20
1801.832192121222
 30
0.0
  0
ENDBLK
  5
3E4
330
3E2
100
AcDbEntity
  8
0
100
AcDbBlockEnd
  0
BLOCK
  5
4E6
330
4E5
100
AcDbEntity
  8
0
100
AcDbBlockBegin
  2
*D10
 70
     1
 10
0.0
 20
0.0
 30
0.0
  3
*D10
  1

  0
LINE
  5
5BD
330
4E5
100
AcDbEntity
  8
Dimension (ISO)
100
AcDbLine
 10
9415.15940513374
 20
897.0159263628092
 30
0.0
 11
9415.15940513374
 21
538.3449942044485
 31
0.0
  0
LINE
  5
5BE
330
4E5
100
AcDbEntity
  8
Dimension (ISO)
100
AcDbLine
 10
10525.15940513374
 20
897.0159263628092
 30
0.0
 11
10525.15940513374
 21
538.3449942044485
 31
0.0
  0
LINE
  5
5BF
330
4E5
100
AcDbEntity
  8
Dimension (ISO)
100
AcDbLine
 10
9490.159405133741
 20
568.3449942044485
 30
0.0
 11
10450.15940513374
 21
568.3449942044485
 31
0.0
  0
SOLID
  5
5C0
330
4E5
100
AcDbEntity
  8
Dimension (ISO)
100
AcDbTrace
 10
9490.159405133741
 20
580.8449942044485
 30
0.0
 11
9490.159405133741
 21
555.8449942044485
 31
0.0
 12
9415.15940513374
 22
568.3449942044485
 32
0.0
 13
9415.15940513374
 23
568.3449942044485
 33
0.0
  0
SOLID
  5
5C1
330
4E5
100
AcDbEntity
  8
Dimension (ISO)
100
AcDbTrace
 10
10450.15940513374
 20
580.8449942044485
 30
0.0
 11
10450.15940513374
 21
555.8449942044485
 31
0.0
 12
10525.15940513374
 22
568.3449942044485
 32
0.0
 13
10525.15940513374
 23
568.3449942044485
 33
0.0
  0
MTEXT
  5
5C2
330
4E5
100
AcDbEntity
  8
Dimension (ISO)
100
AcDbMText
 10
9944.69779810981
 20
700.5065381590919
 30
0.0
 40
105.0
 41
0.0
 71
     2
 72
     1
  1
\A1;1110
  7
Label Text (ISO)
 73
     1
 44
1.0
1001
ACAD
1000
MTEXTBEGIN
1070
    73
1070
     1
1070
    44
1040
1.0
1070
    74
1070
     0
1000
MTEXTEND
  0
POINT
  5
5C3
330
4E5
100
AcDbEntity
  8
Defpoints
 62
     0
100
AcDbPoint
 10
9415.15940513374
 20
912.0159263628092
 30
0.0
  0
POINT
  5
5C4
330
4E5
100
AcDbEntity
  8
Defpoints
 62
     0
100
AcDbPoint
 10
10525.15940513374
 20
912.0159263628092
 30
0.0
  0
POINT
  5
5C5
330
4E5
100
AcDbEntity
  8
Defpoints
 62
     0
100
AcDbPoint
 10
10525.15940513374
 20
568.3449942044485
 30
0.0
  0
ENDBLK
  5
4E7
330
4E5
100
AcDbEntity
  8
0
100
AcDbBlockEnd
  0
BLOCK
  5
5C8
330
5C7
100
AcDbEntity
  8
0
100
AcDbBlockBegin
  2
*D11
 70
     1
 10
0.0
 20
0.0
 30
0.0
  3
*D11
  1

  0
LINE
  5
6CD
330
5C7
100
AcDbEntity
  8
Dimension (ISO)
100
AcDbLine
 10
10516.00940513374
 20
936.1659263628226
 30
0.0
 11
10863.71285548996
 21
936.1659263628226
 31
0.0
  0
LINE
  5
6CE
330
5C7
100
AcDbEntity
  8
Dimension (ISO)
100
AcDbLine
 10
10426.15940513374
 20
887.8659263628358
 30
0.0
 11
10863.71285548996
 21
887.8659263628357
 31
0.0
  0
LINE
  5
6CF
330
5C7
100
AcDbEntity
  8
Dimension (ISO)
100
AcDbLine
 10
10833.71285548996
 20
812.8659263628357
 30
0.0
 11
10833.71285548996
 21
737.8659263628357
 31
0.0
  0
LINE
  5
6D0
330
5C7
100
AcDbEntity
  8
Dimension (ISO)
100
AcDbLine
 10
10833.71285548996
 20
1011.165926362822
 30
0.0
 11
10833.71285548996
 21
1281.523265892986
 31
0.0
  0
LINE
  5
6D1
330
5C7
100
AcDbEntity
  8
Dimension (ISO)
100
AcDbLine
 10
10833.71285548996
 20
887.8659263628357
 30
0.0
 11
10833.71285548996
 21
936.1659263628226
 31
0.0
  0
SOLID
  5
6D2
330
5C7
100
AcDbEntity
  8
Dimension (ISO)
100
AcDbTrace
 10
10821.21285548996
 20
812.8659263628357
 30
0.0
 11
10846.21285548996
 21
812.8659263628357
 31
0.0
 12
10833.71285548996
 22
887.8659263628357
 32
0.0
 13
10833.71285548996
 23
887.8659263628357
 33
0.0
  0
SOLID
  5
6D3
330
5C7
100
AcDbEntity
  8
Dimension (ISO)
100
AcDbTrace
 10
10821.21285548996
 20
1011.165926362822
 30
0.0
 11
10846.21285548996
 21
1011.165926362822
 31
0.0
 12
10833.71285548996
 22
936.1659263628226
 32
0.0
 13
10833.71285548996
 23
936.1659263628226
 33
0.0
  0
MTEXT
  5
6D4
330
5C7
100
AcDbEntity
  8
Dimension (ISO)
100
AcDbMText
 10
10701.0576916594
 20
1183.844596127906
 30
0.0
 40
105.0
 41
0.0
 71
     2
 72
     1
  1
\A1;48
  7
Label Text (ISO)
 11
0.0000000000000001
 21
1.0
 31
0.0
 73
     1
 44
1.0
1001
ACAD
1000
MTEXTBEGIN
1070
    73
1070
     1
1070
    44
1040
1.0
1070
    74
1070
     0
1000
MTEXTEND
  0
POINT
  5
6D5
330
5C7
100
AcDbEntity
  8
Defpoints
 62
     0
100
AcDbPoint
 10
10501.00940513374
 20
936.1659263628226
 30
0.0
  0
POINT
  5
6D6
330
5C7
100
AcDbEntity
  8
Defpoints
 62
     0
100
AcDbPoint
 10
10411.15940513374
 20
887.8659263628358
 30
0.0
  0
POINT
  5
6D7
330
5C7
100
AcDbEntity
  8
Defpoints
 62
     0
100
AcDbPoint
 10
10833.71285548996
 20
887.8659263628357
 30
0.0
  0
ENDBLK
  5
5C9
330
5C7
100
AcDbEntity
  8
0
100
AcDbBlockEnd
  0
BLOCK
  5
6DA
330
6D9
100
AcDbEntity
  8
0
100
AcDbBlockBegin
  2
*D12
 70
     1
 10
0.0
 20
0.0
 30
0.0
  3
*D12
  1

  0
LINE
  5
7B2
330
6D9
100
AcDbEntity
  8
Dimension (ISO)
100
AcDbLine
 10
10251.00940513431
 20
1636.832192121222
 30
0.0
 11
10251.00940513431
 21
1321.832192121222
 31
0.0
  0
LINE
  5
7B3
330
6D9
100
AcDbEntity
  8
Dimension (ISO)
100
AcDbLine
 10
10751.00940513431
 20
1636.832192121222
 30
0.0
 11
10751.00940513431
 21
1321.832192121222
 31
0.0
  0
LINE
  5
7B4
330
6D9
100
AcDbEntity
  8
Dimension (ISO)
100
AcDbLine
 10
10326.00940513431
 20
1351.832192121222
 30
0.0
 11
10676.00940513431
 21
1351.832192121222
 31
0.0
  0
SOLID
  5
7B5
330
6D9
100
AcDbEntity
  8
Dimension (ISO)
100
AcDbTrace
 10
10326.00940513431
 20
1364.332192121222
 30
0.0
 11
10326.00940513431
 21
1339.332192121222
 31
0.0
 12
10251.00940513431
 22
1351.832192121222
 32
0.0
 13
10251.00940513431
 23
1351.832192121222
 33
0.0
  0
SOLID
  5
7B6
330
6D9
100
AcDbEntity
  8
Dimension (ISO)
100
AcDbTrace
 10
10676.00940513431
 20
1364.332192121222
 30
0.0
 11
10676.00940513431
 21
1339.332192121222
 31
0.0
 12
10751.00940513431
 22
1351.832192121222
 32
0.0
 13
10751.00940513431
 23
1351.832192121222
 33
0.0
  0
MTEXT
  5
7B7
330
6D9
100
AcDbEntity
  8
Dimension (ISO)
100
AcDbMText
 10
10501.0094051343
 20
1532.675105307646
 30
0.0
 40
105.0
 41
0.0
 71
     2
 72
     1
  1
\A1;{\fAIGDT|b0|i0;\H105.0000;\ln\fTahoma|b0|i0;\H105.0000;}500
  7
Label Text (ISO)
 73
     1
 44
1.0
1001
ACAD
1000
MTEXTBEGIN
1070
    73
1070
     1
1070
    44
1040
1.0
1070
    74
1070
     0
1000
MTEXTEND
  0
POINT
  5
7B8
330
6D9
100
AcDbEntity
  8
Defpoints
 62
     0
100
AcDbPoint
 10
10251.00940513431
 20
1651.832192121222
 30
0.0
  0
POINT
  5
7B9
330
6D9
100
AcDbEntity
  8
Defpoints
 62
     0
100
AcDbPoint
 10
10751.00940513431
 20
1651.832192121222
 30
0.0
  0
POINT
  5
7BA
330
6D9
100
AcDbEntity
  8
Defpoints
 62
     0
100
AcDbPoint
 10
10751.00940513431
 20
1351.832192121222
 30
0.0
  0
ENDBLK
  5
6DB
330
6D9
100
AcDbEntity
  8
0
100
AcDbBlockEnd
  0
BLOCK
  5
7BC
330
7BB
100
AcDbEntity
  8
0
100
AcDbBlockBegin
  2
Tabelki rysunkowe Rzut
 70
     2
 10
0.0
 20
0.0
 30
0.0
  3
Tabelki rysunkowe Rzut
  1

  0
TEXT
  5
7BE
330
7BB
100
AcDbEntity
  8
Title (ISO)
100
AcDbText
 10
166.7768162971836
 20
11.24130542460445
 30
0.0
 40
2.5
  1
Obowiązuje od:
  7
Note Text (ISO)
 11
166.7768162971836
 21
13.74130542460445
 31
0.0
100
AcDbText
 73
     3
  0
TEXT
  5
7C0
330
7BB
100
AcDbEntity
  8
Title (ISO)
100
AcDbText
 10
166.7768162971836
 20
18.24130542460445
 30
0.0
 40
2.5
  1
Nr kat.:
  7
Note Text (ISO)
 11
166.7768162971836
 21
20.74130542460446
 31
0.0
100
AcDbText
 73
     3
  0
TEXT
  5
7C1
330
7BB
100
AcDbEntity
  8
Title (ISO)
100
AcDbText
 10
166.7768162971836
 20
14.74130542460445
 30
0.0
 40
2.5
  1
Nazwa:
  7
Note Text (ISO)
 11
166.7768162971836
 21
17.24130542460445
 31
0.0
100
AcDbText
 73
     3
  0
ATTDEF
  5
7C2
102
{ACAD_XDICTIONARY
360
F48
102
}
330
7BB
100
AcDbEntity
  8
Title (ISO)
100
AcDbText
 10
178.5518330877022
 20
18.12713485684115
 30
0.0
 40
2.5
  1
9088
  7
Note Text (ISO)
100
AcDbAttributeDefinition
  3
Numer katalogowy
  2
Numer_katalogowy_001
 70
     0
  0
ATTDEF
  5
7C4
102
{ACAD_XDICTIONARY
360
F4B
102
}
330
7BB
100
AcDbEntity
  8
Title (ISO)
100
AcDbText
 10
190.4107988369825
 20
11.13720873189256
 30
0.0
 40
2.5
  1
2020-12-16
  7
Note Text (ISO)
100
AcDbAttributeDefinition
  3
DATA UTWORZENIA
  2
DATA_UTWORZENIA_001
 70
     0
  0
ATTDEF
  5
7C5
102
{ACAD_XDICTIONARY
360
F4E
102
}
330
7BB
100
AcDbEntity
  8
Title (ISO)
100
AcDbText
 10
178.2697645862628
 20
14.5163222312757
 30
0.0
 40
2.5
  1
Regulamin użytkowania
  7
Note Text (ISO)
100
AcDbAttributeDefinition
  3
Nazwa
  2
Nazwa_001
 70
     0
  0
ENDBLK
  5
7BD
330
7BB
100
AcDbEntity
  8
0
100
AcDbBlockEnd
  0
BLOCK
  5
D7E
330
D7D
100
AcDbEntity
  8
0
100
AcDbBlockBegin
  2
*D26
 70
     1
 10
0.0
 20
0.0
 30
0.0
  3
*D26
  1

  0
LINE
  5
E55
330
D7D
100
AcDbEntity
  8
Dimension (ISO)
100
AcDbLine
 10
9470.159405134308
 20
3903.532192121222
 30
0.0
 11
9470.159405134308
 21
4190.142332036277
 31
0.0
  0
LINE
  5
E56
330
D7D
100
AcDbEntity
  8
Dimension (ISO)
100
AcDbLine
 10
10470.1594051343
 20
3903.532192121222
 30
0.0
 11
10470.1594051343
 21
4190.142332036277
 31
0.0
  0
LINE
  5
E57
330
D7D
100
AcDbEntity
  8
Dimension (ISO)
100
AcDbLine
 10
9545.15940513431
 20
4160.142332036278
 30
0.0
 11
10395.15940513431
 21
4160.142332036278
 31
0.0
  0
SOLID
  5
E58
330
D7D
100
AcDbEntity
  8
Dimension (ISO)
100
AcDbTrace
 10
9545.15940513431
 20
4172.642332036278
 30
0.0
 11
9545.15940513431
 21
4147.642332036277
 31
0.0
 12
9470.159405134308
 22
4160.142332036278
 32
0.0
 13
9470.159405134308
 23
4160.142332036278
 33
0.0
  0
SOLID
  5
E59
330
D7D
100
AcDbEntity
  8
Dimension (ISO)
100
AcDbTrace
 10
10395.15940513431
 20
4172.642332036278
 30
0.0
 11
10395.15940513431
 21
4147.642332036277
 31
0.0
 12
10470.1594051343
 22
4160.142332036278
 32
0.0
 13
10470.1594051343
 23
4160.142332036278
 33
0.0
  0
MTEXT
  5
E5A
330
D7D
100
AcDbEntity
  8
Dimension (ISO)
100
AcDbMText
 10
9970.15940513431
 20
4292.30387599092
 30
0.0
 40
105.0
 41
0.0
 71
     2
 72
     1
  1
\A1;1000
  7
Label Text (ISO)
 73
     1
 44
1.0
1001
ACAD
1000
MTEXTBEGIN
1070
    73
1070
     1
1070
    44
1040
1.0
1070
    74
1070
     0
1000
MTEXTEND
  0
POINT
  5
E5B
330
D7D
100
AcDbEntity
  8
Defpoints
 62
     0
100
AcDbPoint
 10
9470.159405134308
 20
3888.532192121222
 30
0.0
  0
POINT
  5
E5C
330
D7D
100
AcDbEntity
  8
Defpoints
 62
     0
100
AcDbPoint
 10
10470.1594051343
 20
3888.532192121221
 30
0.0
  0
POINT
  5
E5D
330
D7D
100
AcDbEntity
  8
Defpoints
 62
     0
100
AcDbPoint
 10
10470.1594051343
 20
4160.142332036278
 30
0.0
  0
ENDBLK
  5
D7F
330
D7D
100
AcDbEntity
  8
0
100
AcDbBlockEnd
  0
BLOCK
  5
E60
330
E5F
100
AcDbEntity
  8
0
100
AcDbBlockBegin
  2
*D27
 70
     1
 10
0.0
 20
0.0
 30
0.0
  3
*D27
  1

  0
LINE
  5
F3D
330
E5F
100
AcDbEntity
  8
Dimension (ISO)
100
AcDbLine
 10
9470.159405134308
 20
3903.532192121222
 30
0.0
 11
9238.584792067216
 21
3903.532192121222
 31
0.0
  0
LINE
  5
F3E
330
E5F
100
AcDbEntity
  8
Dimension (ISO)
100
AcDbLine
 10
9470.159405134308
 20
3203.532192121223
 30
0.0
 11
9238.584792067216
 21
3203.532192121223
 31
0.0
  0
LINE
  5
F3F
330
E5F
100
AcDbEntity
  8
Dimension (ISO)
100
AcDbLine
 10
9268.584792067217
 20
3828.532192121222
 30
0.0
 11
9268.584792067217
 21
3278.532192121223
 31
0.0
  0
SOLID
  5
F40
330
E5F
100
AcDbEntity
  8
Dimension (ISO)
100
AcDbTrace
 10
9256.084792067218
 20
3828.532192121222
 30
0.0
 11
9281.084792067217
 21
3828.532192121222
 31
0.0
 12
9268.584792067217
 22
3903.532192121222
 32
0.0
 13
9268.584792067217
 23
3903.532192121222
 33
0.0
  0
SOLID
  5
F41
330
E5F
100
AcDbEntity
  8
Dimension (ISO)
100
AcDbTrace
 10
9256.084792067218
 20
3278.532192121223
 30
0.0
 11
9281.084792067217
 21
3278.532192121223
 31
0.0
 12
9268.584792067217
 22
3203.532192121223
 32
0.0
 13
9268.584792067217
 23
3203.532192121223
 33
0.0
  0
MTEXT
  5
F42
330
E5F
100
AcDbEntity
  8
Dimension (ISO)
100
AcDbMText
 10
9136.423248112572
 20
3553.532192121223
 30
0.0
 40
105.0
 41
0.0
 71
     2
 72
     1
  1
\A1;700
  7
Label Text (ISO)
 11
0.0000000000000001
 21
1.0
 31
0.0
 73
     1
 44
1.0
1001
ACAD
1000
MTEXTBEGIN
1070
    73
1070
     1
1070
    44
1040
1.0
1070
    74
1070
     0
1000
MTEXTEND
  0
POINT
  5
F43
330
E5F
100
AcDbEntity
  8
Defpoints
 62
     0
100
AcDbPoint
 10
9485.159405134309
 20
3903.532192121222
 30
0.0
  0
POINT
  5
F44
330
E5F
100
AcDbEntity
  8
Defpoints
 62
     0
100
AcDbPoint
 10
9485.159405134309
 20
3203.532192121223
 30
0.0
  0
POINT
  5
F45
330
E5F
100
AcDbEntity
  8
Defpoints
 62
     0
100
AcDbPoint
 10
9268.584792067217
 20
3203.532192121223
 30
0.0
  0
ENDBLK
  5
E61
330
E5F
100
AcDbEntity
  8
0
100
AcDbBlockEnd
  0
BLOCK
  5
FBE
330
FBD
100
AcDbEntity
  8
0
100
AcDbBlockBegin
  2
9098-9099_Regulamin-uzytkowania-podwojny
 70
     0
 10
0.0
 20
0.0
 30
0.0
  3
9098-9099_Regulamin-uzytkowania-podwojny
  1

  0
ARC
  5
FC0
330
FBD
100
AcDbEntity
  8
Visible (ISO)
100
AcDbCircle
 10
530.8500000000003
 20
-24.15000000002669
 30
0.0
 40
24.15
100
AcDbArc
 50
270.0
 51
90.0
  0
ARC
  5
FC1
330
FBD
100
AcDbEntity
  8
Visible (ISO)
100
AcDbCircle
 10
-530.8500000000003
 20
-24.15000000002669
 30
0.0
 40
24.15
100
AcDbArc
 50
90.0
 51
270.0
  0
LINE
  5
FC2
330
FBD
100
AcDbEntity
  8
Visible (ISO)
100
AcDbLine
 10
530.8500000000003
 20
-0.0000000000267164
 30
0.0
 11
441.0
 21
0.0
 31
0.0
  0
LINE
  5
FC3
330
FBD
100
AcDbEntity
  8
Visible (ISO)
100
AcDbLine
 10
441.0
 20
-48.30000000000007
 30
0.0
 11
530.8500000000003
 21
-48.30000000002667
 31
0.0
  0
LINE
  5
FC4
330
FBD
100
AcDbEntity
  8
Visible (ISO)
100
AcDbLine
 10
-441.0
 20
0.0
 30
0.0
 11
441.0
 21
0.0
 31
0.0
  0
LINE
  5
FC5
330
FBD
100
AcDbEntity
  8
Visible (ISO)
100
AcDbLine
 10
-441.0
 20
-48.30000000000007
 30
0.0
 11
441.0
 21
-48.30000000000007
 31
0.0
  0
LINE
  5
FC6
330
FBD
100
AcDbEntity
  8
Visible (ISO)
100
AcDbLine
 10
-441.0
 20
0.0
 30
0.0
 11
-530.8499999999985
 21
-0.0000000000267164
 31
0.0
  0
LINE
  5
FC7
330
FBD
100
AcDbEntity
  8
Visible (ISO)
100
AcDbLine
 10
-530.8499999999985
 20
-48.30000000002667
 30
0.0
 11
-441.0
 21
-48.30000000000007
 31
0.0
  0
ENDBLK
  5
FBF
330
FBD
100
AcDbEntity
  8
0
100
AcDbBlockEnd
  0
ENDSEC
  0
SECTION
  2
ENTITIES
  0
LINE
  5
172
330
6C
100
AcDbEntity
  8
Visible (ISO)
100
AcDbLine
 10
10525.15940513431
 20
3887.832192121221
 30
0.0
 11
10525.15940513431
 21
2001.832192121222
 31
0.0
  0
LINE
  5
173
330
6C
100
AcDbEntity
  8
Visible (ISO)
100
AcDbLine
 10
10525.15940513431
 20
1991.832192121222
 30
0.0
 11
10525.15940513431
 21
1809.832192121222
 31
0.0
  0
LINE
  5
174
330
6C
100
AcDbEntity
  8
Visible (ISO)
100
AcDbLine
 10
10476.85940513431
 20
3863.532192121222
 30
0.0
 11
10476.85940513431
 21
3573.532192121223
 31
0.0
  0
LINE
  5
175
330
6C
100
AcDbEntity
  8
Visible (ISO)
100
AcDbLine
 10
10476.85940513431
 20
3533.532192121222
 30
0.0
 11
10476.85940513431
 21
3243.532192121222
 31
0.0
  0
LINE
  5
176
330
6C
100
AcDbEntity
  8
Visible (ISO)
100
AcDbLine
 10
10476.85940513431
 20
3203.532192121222
 30
0.0
 11
10476.85940513431
 21
3153.532192121222
 31
0.0
  0
LINE
  5
177
330
6C
100
AcDbEntity
  8
Visible (ISO)
100
AcDbLine
 10
10476.85940513431
 20
3123.532192121222
 30
0.0
 11
10476.85940513431
 21
2001.832192121222
 31
0.0
  0
LINE
  5
178
330
6C
100
AcDbEntity
  8
Visible (ISO)
100
AcDbLine
 10
10476.85940513431
 20
1991.832192121222
 30
0.0
 11
10476.85940513431
 21
1809.832192121222
 31
0.0
  0
ARC
  5
179
330
6C
100
AcDbEntity
  8
Visible (ISO)
100
AcDbCircle
 10
10411.15940513431
 20
3887.832192121221
 30
0.0
 40
114.0000000000001
100
AcDbArc
 50
0.0
 51
90.0
  0
ARC
  5
17A
330
6C
100
AcDbEntity
  8
Visible (ISO)
100
AcDbCircle
 10
10411.15940513431
 20
3887.832192121221
 30
0.0
 40
65.70000000000013
100
AcDbArc
 50
13.82546143636381
 51
90.0
  0
LINE
  5
17B
330
6C
100
AcDbEntity
  8
Visible (ISO)
100
AcDbLine
 10
9529.15940513431
 20
4001.832192121222
 30
0.0
 11
10411.15940513431
 21
4001.832192121222
 31
0.0
  0
LINE
  5
17C
330
6C
100
AcDbEntity
  8
Visible (ISO)
100
AcDbLine
 10
9529.15940513431
 20
3953.532192121222
 30
0.0
 11
9950.159405134307
 21
3953.532192121222
 31
0.0
  0
LINE
  5
17D
330
6C
100
AcDbEntity
  8
Visible (ISO)
100
AcDbLine
 10
9990.159405134306
 20
3953.532192121222
 30
0.0
 11
10411.15940513431
 21
3953.532192121222
 31
0.0
  0
ARC
  5
17E
330
6C
100
AcDbEntity
  8
Visible (ISO)
100
AcDbCircle
 10
9529.15940513431
 20
3887.832192121221
 30
0.0
 40
114.0
100
AcDbArc
 50
90.0
 51
180.0
  0
ARC
  5
17F
330
6C
100
AcDbEntity
  8
Visible (ISO)
100
AcDbCircle
 10
9529.15940513431
 20
3887.832192121221
 30
0.0
 40
65.69999999999999
100
AcDbArc
 50
90.0
 51
166.1745385636362
  0
LINE
  5
180
330
6C
100
AcDbEntity
  8
Visible (ISO)
100
AcDbLine
 10
9415.159405134309
 20
1809.832192121222
 30
0.0
 11
9415.159405134309
 21
1991.832192121222
 31
0.0
  0
LINE
  5
181
330
6C
100
AcDbEntity
  8
Visible (ISO)
100
AcDbLine
 10
9415.159405134309
 20
2001.832192121222
 30
0.0
 11
9415.159405134309
 21
3887.832192121221
 31
0.0
  0
LINE
  5
182
330
6C
100
AcDbEntity
  8
Visible (ISO)
100
AcDbLine
 10
9463.459405134308
 20
1809.832192121222
 30
0.0
 11
9463.459405134308
 21
1991.832192121222
 31
0.0
  0
LINE
  5
183
330
6C
100
AcDbEntity
  8
Visible (ISO)
100
AcDbLine
 10
9463.459405134308
 20
2001.832192121222
 30
0.0
 11
9463.459405134308
 21
3123.532192121222
 31
0.0
  0
LINE
  5
184
330
6C
100
AcDbEntity
  8
Visible (ISO)
100
AcDbLine
 10
9463.459405134308
 20
3153.532192121222
 30
0.0
 11
9463.459405134308
 21
3203.532192121222
 31
0.0
  0
LINE
  5
185
330
6C
100
AcDbEntity
  8
Visible (ISO)
100
AcDbLine
 10
9463.459405134308
 20
3243.532192121222
 30
0.0
 11
9463.459405134308
 21
3533.532192121222
 31
0.0
  0
LINE
  5
186
330
6C
100
AcDbEntity
  8
Visible (ISO)
100
AcDbLine
 10
9463.459405134308
 20
3573.532192121223
 30
0.0
 11
9463.459405134308
 21
3863.532192121222
 31
0.0
  0
LINE
  5
187
330
6C
100
AcDbEntity
  8
Visible (ISO)
100
AcDbLine
 10
10475.1594051343
 20
1821.832192121222
 30
0.0
 11
10475.1594051343
 21
1809.832192121222
 31
0.0
  0
LINE
  5
188
330
6C
100
AcDbEntity
  8
Visible (ISO)
100
AcDbLine
 10
9465.159405134309
 20
1809.832192121222
 30
0.0
 11
9465.159405134309
 21
1821.832192121222
 31
0.0
  0
LINE
  5
189
330
6C
100
AcDbEntity
  8
Visible (ISO)
100
AcDbLine
 10
10441.0094051343
 20
1809.832192121222
 30
0.0
 11
9499.30940513431
 21
1809.832192121222
 31
0.0
  0
LINE
  5
18A
330
6C
100
AcDbEntity
  8
Visible (ISO)
100
AcDbLine
 10
10475.1594051343
 20
1821.832192121222
 30
0.0
 11
10466.6094404539
 21
1821.832192121222
 31
0.0
  0
LINE
  5
18B
330
6C
100
AcDbEntity
  8
Visible (ISO)
100
AcDbLine
 10
10445.40936981471
 20
1821.832192121222
 30
0.0
 11
9494.909440453907
 21
1821.832192121222
 31
0.0
  0
LINE
  5
18C
330
6C
100
AcDbEntity
  8
Visible (ISO)
100
AcDbLine
 10
9473.709369814709
 20
1821.832192121222
 30
0.0
 11
9465.159405134309
 21
1821.832192121222
 31
0.0
  0
LINE
  5
18D
330
6C
100
AcDbEntity
  8
Visible (ISO)
100
AcDbLine
 10
9459.65694828016
 20
3131.062251554372
 30
0.0
 11
9459.65694828016
 21
3146.002132688073
 31
0.0
  0
LINE
  5
18E
330
6C
100
AcDbEntity
  8
Visible (ISO)
100
AcDbLine
 10
10480.65694828016
 20
3146.01550689477
 30
0.0
 11
10480.65694828016
 21
3131.048877347675
 31
0.0
  0
LINE
  5
18F
330
6C
100
AcDbEntity
  8
Visible (ISO)
100
AcDbLine
 10
9463.45940513431
 20
3153.532192121223
 30
0.0
 11
9950.159405134309
 21
3153.532192121223
 31
0.0
  0
LINE
  5
190
330
6C
100
AcDbEntity
  8
Visible (ISO)
100
AcDbLine
 10
9990.15940513431
 20
3153.532192121223
 30
0.0
 11
10476.85940513431
 21
3153.532192121223
 31
0.0
  0
LINE
  5
191
330
6C
100
AcDbEntity
  8
Visible (ISO)
100
AcDbLine
 10
9463.45940513431
 20
3123.532192121223
 30
0.0
 11
10476.85940513431
 21
3123.532192121223
 31
0.0
  0
SPLINE
  5
192
330
6C
100
AcDbEntity
  8
Visible (ISO)
100
AcDbSpline
210
0.0
220
0.0
230
1.0
 70
     8
 71
     3
 72
    14
 73
    10
 74
     0
 42
0.0000000001
 43
0.0000000001
 40
5.447141419345809
 40
5.447141419345809
 40
5.447141419345809
 40
5.447141419345809
 40
5.849987381161196
 40
5.849987381161196
 40
6.432289387549436
 40
6.432289387549436
 40
6.723440390743556
 40
6.723440390743556
 40
7.014591393936107
 40
7.014591393936107
 40
7.014591393937677
 40
7.014591393937677
 10
10480.65694828016
 20
3146.01550689477
 30
0.0
 10
10480.22693357292
 20
3147.185022816588
 30
0.0
 10
10479.75198251431
 20
3148.241383094983
 30
0.0
 10
10478.67911153358
 20
3150.435974712952
 30
0.0
 10
10478.02744583939
 20
3151.58360137543
 30
0.0
 10
10477.3419747097
 20
3152.745657530443
 30
0.0
 10
10477.16059013023
 20
3153.043139505043
 30
0.0
 10
10476.91923502001
 20
3153.436483886165
 30
0.0
 10
10476.85940513431
 20
3153.532192121222
 30
0.0
 10
10476.85940513431
 20
3153.532192121222
 30
0.0
  0
SPLINE
  5
193
330
6C
100
AcDbEntity
  8
Visible (ISO)
100
AcDbSpline
210
0.0
220
0.0
230
1.0
 70
     8
 71
     3
 72
    14
 73
    10
 74
     0
 42
0.0000000001
 43
0.0000000001
 40
2.338197131310989
 40
2.338197131310989
 40
2.338197131312559
 40
2.338197131312559
 40
2.629348134506679
 40
2.629348134506679
 40
2.920499137700799
 40
2.920499137700799
 40
3.50280114408904
 40
3.50280114408904
 40
3.905647105904424
 40
3.905647105904424
 40
3.905647105904424
 40
3.905647105904424
 10
10476.85940513431
 20
3123.532192121222
 30
0.0
 10
10476.85940513431
 20
3123.532192121222
 30
0.0
 10
10476.91923502001
 20
3123.627900356278
 30
0.0
 10
10477.16059013023
 20
3124.021244737402
 30
0.0
 10
10477.3419747097
 20
3124.318726712002
 30
0.0
 10
10478.02744583939
 20
3125.480782867015
 30
0.0
 10
10478.67911153358
 20
3126.628409529493
 30
0.0
 10
10479.75198251431
 20
3128.823001147462
 30
0.0
 10
10480.22693357292
 20
3129.879361425857
 30
0.0
 10
10480.65694828016
 20
3131.048877347675
 30
0.0
  0
LINE
  5
194
330
6C
100
AcDbEntity
  8
Visible (ISO)
100
AcDbLine
 10
10456.85940513431
 20
3903.532192121222
 30
0.0
 11
10475.08956811377
 21
3903.532192121222
 31
0.0
  0
ARC
  5
195
330
6C
100
AcDbEntity
  8
Visible (ISO)
100
AcDbCircle
 10
10456.85940513431
 20
3883.53219212122
 30
0.0
 40
20.0000000000021
100
AcDbArc
 50
90.00000000000612
 51
92.61090919176956
  0
LINE
  5
196
330
6C
100
AcDbEntity
  8
Visible (ISO)
100
AcDbLine
 10
10476.85940513431
 20
3863.532192121223
 30
0.0
 11
10470.1594051343
 21
3863.532192121223
 31
0.0
  0
LINE
  5
197
330
6C
100
AcDbEntity
  8
Visible (ISO)
100
AcDbLine
 10
10476.85940513431
 20
3891.963262028685
 30
0.0
 11
10476.8594051343
 21
3863.532192121223
 31
0.0
  0
LINE
  5
198
330
6C
100
AcDbEntity
  8
Visible (ISO)
100
AcDbLine
 10
9470.159405134308
 20
3863.532192121223
 30
0.0
 11
9463.459405134308
 21
3863.532192121223
 31
0.0
  0
LINE
  5
199
330
6C
100
AcDbEntity
  8
Visible (ISO)
100
AcDbLine
 10
9463.459405134308
 20
3863.532192121223
 30
0.0
 11
9463.459405134308
 21
3891.963262028682
 31
0.0
  0
LINE
  5
19A
330
6C
100
AcDbEntity
  8
Visible (ISO)
100
AcDbLine
 10
9465.229242154848
 20
3903.532192121222
 30
0.0
 11
9483.459405134309
 21
3903.532192121222
 31
0.0
  0
ARC
  5
19B
330
6C
100
AcDbEntity
  8
Visible (ISO)
100
AcDbCircle
 10
9483.459405134309
 20
3883.532192121226
 30
0.0
 40
19.99999999999615
100
AcDbArc
 50
87.38909080823882
 51
90.0
  0
LINE
  5
19C
330
6C
100
AcDbEntity
  8
Visible (ISO)
100
AcDbLine
 10
10470.1594051343
 20
3573.532192121223
 30
0.0
 11
10476.85940513431
 21
3573.532192121223
 31
0.0
  0
LINE
  5
19D
330
6C
100
AcDbEntity
  8
Visible (ISO)
100
AcDbLine
 10
10476.8594051343
 20
3533.532192121222
 30
0.0
 11
10470.1594051343
 21
3533.532192121222
 31
0.0
  0
LINE
  5
19E
330
6C
100
AcDbEntity
  8
Visible (ISO)
100
AcDbLine
 10
10476.85940513431
 20
3573.532192121223
 30
0.0
 11
10476.8594051343
 21
3533.532192121222
 31
0.0
  0
LINE
  5
19F
330
6C
100
AcDbEntity
  8
Visible (ISO)
100
AcDbLine
 10
9470.159405134308
 20
3533.532192121222
 30
0.0
 11
9463.459405134308
 21
3533.532192121222
 31
0.0
  0
LINE
  5
1A0
330
6C
100
AcDbEntity
  8
Visible (ISO)
100
AcDbLine
 10
9463.459405134308
 20
3533.532192121222
 30
0.0
 11
9463.459405134308
 21
3573.532192121223
 31
0.0
  0
LINE
  5
1A1
330
6C
100
AcDbEntity
  8
Visible (ISO)
100
AcDbLine
 10
9463.459405134308
 20
3573.532192121223
 30
0.0
 11
9470.159405134308
 21
3573.532192121223
 31
0.0
  0
LINE
  5
1A2
330
6C
100
AcDbEntity
  8
Visible (ISO)
100
AcDbLine
 10
10470.1594051343
 20
3243.532192121222
 30
0.0
 11
10476.85940513431
 21
3243.532192121222
 31
0.0
  0
ARC
  5
1A3
330
6C
100
AcDbEntity
  8
Visible (ISO)
100
AcDbCircle
 10
10456.85940513431
 20
3223.532192121221
 30
0.0
 40
19.99999999999863
100
AcDbArc
 50
267.3890908081994
 51
270.0
  0
LINE
  5
1A4
330
6C
100
AcDbEntity
  8
Visible (ISO)
100
AcDbLine
 10
10476.85940513431
 20
3203.532192121222
 30
0.0
 11
10456.85940513431
 21
3203.532192121222
 31
0.0
  0
LINE
  5
1A5
330
6C
100
AcDbEntity
  8
Visible (ISO)
100
AcDbLine
 10
10476.85940513431
 20
3243.532192121222
 30
0.0
 11
10476.8594051343
 21
3203.532192121222
 31
0.0
  0
LINE
  5
1A6
330
6C
100
AcDbEntity
  8
Visible (ISO)
100
AcDbLine
 10
9483.459405134309
 20
3203.532192121222
 30
0.0
 11
9463.459405134308
 21
3203.532192121222
 31
0.0
  0
LINE
  5
1A7
330
6C
100
AcDbEntity
  8
Visible (ISO)
100
AcDbLine
 10
9463.459405134308
 20
3203.532192121222
 30
0.0
 11
9463.459405134308
 21
3243.532192121222
 31
0.0
  0
LINE
  5
1A8
330
6C
100
AcDbEntity
  8
Visible (ISO)
100
AcDbLine
 10
9463.459405134308
 20
3243.532192121222
 30
0.0
 11
9470.159405134308
 21
3243.532192121222
 31
0.0
  0
ARC
  5
1A9
330
6C
100
AcDbEntity
  8
Visible (ISO)
100
AcDbCircle
 10
9483.459405134309
 20
3223.532192121226
 30
0.0
 40
20.00000000000344
100
AcDbArc
 50
270.0000000000031
 51
272.6109091917939
  0
LINE
  5
1AA
330
6C
100
AcDbEntity
  8
Visible (ISO)
100
AcDbLine
 10
9394.309405134309
 20
1801.832192121222
 30
0.0
 11
9379.309405134309
 21
1801.832192121222
 31
0.0
  0
LINE
  5
1AB
330
6C
100
AcDbEntity
  8
Visible (ISO)
100
AcDbLine
 10
9379.309405134309
 20
1809.832192121222
 30
0.0
 11
9394.309405134309
 21
1809.832192121222
 31
0.0
  0
LINE
  5
1AC
330
6C
100
AcDbEntity
  8
Visible (ISO)
100
AcDbLine
 10
9379.309405134309
 20
1809.832192121222
 30
0.0
 11
9379.309405134309
 21
1801.832192121222
 31
0.0
  0
LINE
  5
1AD
330
6C
100
AcDbEntity
  8
Visible (ISO)
100
AcDbLine
 10
9484.309405134309
 20
1809.832192121222
 30
0.0
 11
9499.30940513431
 21
1809.832192121222
 31
0.0
  0
LINE
  5
1AE
330
6C
100
AcDbEntity
  8
Visible (ISO)
100
AcDbLine
 10
9499.30940513431
 20
1801.832192121222
 30
0.0
 11
9484.309405134309
 21
1801.832192121222
 31
0.0
  0
LINE
  5
1AF
330
6C
100
AcDbEntity
  8
Visible (ISO)
100
AcDbLine
 10
9499.30940513431
 20
1801.832192121222
 30
0.0
 11
9499.30940513431
 21
1809.832192121222
 31
0.0
  0
LINE
  5
1B0
330
6C
100
AcDbEntity
  8
Visible (ISO)
100
AcDbLine
 10
9484.309405134309
 20
1809.832192121222
 30
0.0
 11
9394.309405134309
 21
1809.832192121222
 31
0.0
  0
LINE
  5
1B1
330
6C
100
AcDbEntity
  8
Visible (ISO)
100
AcDbLine
 10
9394.309405134309
 20
1801.832192121222
 30
0.0
 11
9403.25389237967
 21
1801.832192121222
 31
0.0
  0
LINE
  5
1B2
330
6C
100
AcDbEntity
  8
Visible (ISO)
100
AcDbLine
 10
9475.364917888951
 20
1801.832192121222
 30
0.0
 11
9484.309405134309
 21
1801.832192121222
 31
0.0
  0
LINE
  5
1B3
330
6C
100
AcDbEntity
  8
Visible (ISO)
100
AcDbLine
 10
10441.0094051343
 20
1809.832192121222
 30
0.0
 11
10441.0094051343
 21
1801.832192121221
 31
0.0
  0
LINE
  5
1B4
330
6C
100
AcDbEntity
  8
Visible (ISO)
100
AcDbLine
 10
10561.0094051343
 20
1801.832192121221
 30
0.0
 11
10546.00940513431
 21
1801.832192121221
 31
0.0
  0
LINE
  5
1B5
330
6C
100
AcDbEntity
  8
Visible (ISO)
100
AcDbLine
 10
10456.00940513431
 20
1801.832192121221
 30
0.0
 11
10441.00940513431
 21
1801.832192121221
 31
0.0
  0
LINE
  5
1B6
330
6C
100
AcDbEntity
  8
Visible (ISO)
100
AcDbLine
 10
10441.00940513431
 20
1809.832192121222
 30
0.0
 11
10456.00940513431
 21
1809.832192121222
 31
0.0
  0
LINE
  5
1B7
330
6C
100
AcDbEntity
  8
Visible (ISO)
100
AcDbLine
 10
10561.00940513431
 20
1801.832192121221
 30
0.0
 11
10561.00940513431
 21
1809.832192121222
 31
0.0
  0
LINE
  5
1B8
330
6C
100
AcDbEntity
  8
Visible (ISO)
100
AcDbLine
 10
10546.00940513431
 20
1809.832192121222
 30
0.0
 11
10561.0094051343
 21
1809.832192121222
 31
0.0
  0
LINE
  5
1B9
330
6C
100
AcDbEntity
  8
Visible (ISO)
100
AcDbLine
 10
10456.00940513431
 20
1801.832192121221
 30
0.0
 11
10464.95389237967
 21
1801.832192121221
 31
0.0
  0
LINE
  5
1BA
330
6C
100
AcDbEntity
  8
Visible (ISO)
100
AcDbLine
 10
10537.06491788895
 20
1801.832192121221
 30
0.0
 11
10546.00940513431
 21
1801.832192121221
 31
0.0
  0
LINE
  5
1BB
330
6C
100
AcDbEntity
  8
Visible (ISO)
100
AcDbLine
 10
10546.00940513431
 20
1809.832192121222
 30
0.0
 11
10456.00940513431
 21
1809.832192121222
 31
0.0
  0
LINE
  5
1BC
330
6C
100
AcDbEntity
  8
Visible (ISO)
100
AcDbLine
 10
9950.159405134307
 20
3903.532192121223
 30
0.0
 11
9950.159405134307
 21
3953.532192121222
 31
0.0
  0
LINE
  5
1BD
330
6C
100
AcDbEntity
  8
Visible (ISO)
100
AcDbLine
 10
9950.159405134307
 20
3953.532192121222
 30
0.0
 11
9990.15940513431
 21
3953.532192121222
 31
0.0
  0
LINE
  5
1BE
330
6C
100
AcDbEntity
  8
Visible (ISO)
100
AcDbLine
 10
9990.15940513431
 20
3953.532192121222
 30
0.0
 11
9990.15940513431
 21
3903.532192121223
 31
0.0
  0
LINE
  5
1BF
330
6C
100
AcDbEntity
  8
Visible (ISO)
100
AcDbLine
 10
9990.15940513431
 20
3203.532192121223
 30
0.0
 11
9990.15940513431
 21
3153.532192121222
 31
0.0
  0
LINE
  5
1C0
330
6C
100
AcDbEntity
  8
Visible (ISO)
100
AcDbLine
 10
9990.15940513431
 20
3153.532192121222
 30
0.0
 11
9950.159405134307
 21
3153.532192121222
 31
0.0
  0
LINE
  5
1C1
330
6C
100
AcDbEntity
  8
Visible (ISO)
100
AcDbLine
 10
9950.159405134307
 20
3153.532192121222
 30
0.0
 11
9950.159405134307
 21
3203.532192121223
 31
0.0
  0
ARC
  5
1C2
330
6C
100
AcDbEntity
  8
Visible (ISO)
100
AcDbCircle
 10
10455.15940513431
 20
3888.532192121222
 30
0.0
 40
14.99999999999998
100
AcDbArc
 50
0.0
 51
90.0
  0
ARC
  5
1C3
330
6C
100
AcDbEntity
  8
Visible (ISO)
100
AcDbCircle
 10
9485.159405134309
 20
3888.532192121223
 30
0.0
 40
15.00000000000005
100
AcDbArc
 50
90.0
 51
180.0
  0
ARC
  5
1C4
330
6C
100
AcDbEntity
  8
Visible (ISO)
100
AcDbCircle
 10
9485.159405134309
 20
3218.532192121223
 30
0.0
 40
14.99999999999991
100
AcDbArc
 50
180.0
 51
270.0
  0
ARC
  5
1C5
330
6C
100
AcDbEntity
  8
Visible (ISO)
100
AcDbCircle
 10
10455.15940513431
 20
3218.532192121224
 30
0.0
 40
14.99999999999991
100
AcDbArc
 50
270.0
 51
0.0
  0
LINE
  5
1C6
330
6C
100
AcDbEntity
  8
Visible (ISO)
100
AcDbLine
 10
9485.159405134309
 20
3903.532192121222
 30
0.0
 11
10455.15940513431
 21
3903.532192121222
 31
0.0
  0
LINE
  5
1C7
330
6C
100
AcDbEntity
  8
Visible (ISO)
100
AcDbLine
 10
9470.159405134308
 20
3218.532192121223
 30
0.0
 11
9470.159405134308
 21
3888.532192121223
 31
0.0
  0
LINE
  5
1C8
330
6C
100
AcDbEntity
  8
Visible (ISO)
100
AcDbLine
 10
10455.15940513431
 20
3203.532192121224
 30
0.0
 11
9485.159405134309
 21
3203.532192121224
 31
0.0
  0
LINE
  5
1C9
330
6C
100
AcDbEntity
  8
Visible (ISO)
100
AcDbLine
 10
10470.1594051343
 20
3888.532192121222
 30
0.0
 11
10470.1594051343
 21
3218.532192121224
 31
0.0
  0
CIRCLE
  5
1CA
330
6C
100
AcDbEntity
  8
Visible (ISO)
100
AcDbCircle
 10
10456.85940513431
 20
3883.532192121222
 30
0.0
 40
10.325
  0
CIRCLE
  5
1CB
330
6C
100
AcDbEntity
  8
Visible (ISO)
100
AcDbCircle
 10
9483.859405134309
 20
3883.532192121223
 30
0.0
 40
10.325
  0
CIRCLE
  5
1CC
330
6C
100
AcDbEntity
  8
Visible (ISO)
100
AcDbCircle
 10
10456.85940513431
 20
3553.532192121223
 30
0.0
 40
10.325
  0
CIRCLE
  5
1CD
330
6C
100
AcDbEntity
  8
Visible (ISO)
100
AcDbCircle
 10
9483.859405134309
 20
3553.532192121223
 30
0.0
 40
10.325
  0
CIRCLE
  5
1CE
330
6C
100
AcDbEntity
  8
Visible (ISO)
100
AcDbCircle
 10
10456.85940513431
 20
3223.532192121222
 30
0.0
 40
10.325
  0
CIRCLE
  5
1CF
330
6C
100
AcDbEntity
  8
Visible (ISO)
100
AcDbCircle
 10
9483.859405134309
 20
3223.532192121222
 30
0.0
 40
10.325
  0
CIRCLE
  5
1D0
330
6C
100
AcDbEntity
  8
Visible (ISO)
100
AcDbCircle
 10
9970.15940513431
 20
3883.532192121222
 30
0.0
 40
10.325
  0
CIRCLE
  5
1D1
330
6C
100
AcDbEntity
  8
Visible (ISO)
100
AcDbCircle
 10
9970.15940513431
 20
3223.532192121224
 30
0.0
 40
10.325
  0
LINE
  5
1D2
330
6C
100
AcDbEntity
  8
Visible (ISO)
100
AcDbLine
 10
8595.944140718783
 20
1991.832192121222
 30
0.0
 11
11357.16348974111
 21
1991.832192121222
 31
0.0
  0
LINE
  5
1D3
330
6C
100
AcDbEntity
  8
Visible (ISO)
100
AcDbLine
 10
11357.16348974111
 20
2001.832192121222
 30
0.0
 11
11357.16348974111
 21
1991.832192121222
 31
0.0
  0
LINE
  5
1D4
330
6C
100
AcDbEntity
  8
Visible (ISO)
100
AcDbLine
 10
11357.16348974111
 20
2001.832192121222
 30
0.0
 11
8595.944140718783
 21
2001.832192121222
 31
0.0
  0
LINE
  5
1D5
330
6C
100
AcDbEntity
  8
Visible (ISO)
100
AcDbLine
 10
8595.944140718783
 20
2001.832192121222
 30
0.0
 11
8595.944140718783
 21
1991.832192121222
 31
0.0
  0
LINE
  5
1D6
330
6C
100
AcDbEntity
  8
Visible (ISO)
100
AcDbLine
 10
9379.309405134309
 20
1801.832192121222
 30
0.0
 11
9369.309405134309
 21
1801.832192121222
 31
0.0
  0
LINE
  5
1D7
330
6C
100
AcDbEntity
  8
Visible (ISO)
100
AcDbLine
 10
9475.364917888951
 20
1801.832192121222
 30
0.0
 11
9403.25389237967
 21
1801.832192121222
 31
0.0
  0
LINE
  5
1D8
330
6C
100
AcDbEntity
  8
Visible (ISO)
100
AcDbLine
 10
9509.309405134308
 20
1801.832192121222
 30
0.0
 11
9499.30940513431
 21
1801.832192121222
 31
0.0
  0
LINE
  5
1D9
330
6C
100
AcDbEntity
  8
Visible (ISO)
100
AcDbLine
 10
9689.309405134309
 20
1651.832192121222
 30
0.0
 11
9189.309405134308
 21
1651.832192121222
 31
0.0
  0
LINE
  5
1DA
330
6C
100
AcDbEntity
  8
Visible (ISO)
100
AcDbLine
 10
9189.309405134308
 20
1651.832192121222
 30
0.0
 11
9189.309405134308
 21
1726.832192121222
 31
0.0
  0
LINE
  5
1DB
330
6C
100
AcDbEntity
  8
Visible (ISO)
100
AcDbLine
 10
9689.309405134309
 20
1651.832192121222
 30
0.0
 11
9689.309405134309
 21
1726.832192121222
 31
0.0
  0
SPLINE
  5
1DC
330
6C
100
AcDbEntity
  8
Visible (ISO)
100
AcDbSpline
210
0.0
220
0.0
230
1.0
 70
     8
 71
     3
 72
    18
 73
    14
 74
     0
 42
0.0000000001
 43
0.0000000001
 40
1.570796326794896
 40
1.570796326794896
 40
1.570796326794896
 40
1.570796326794896
 40
1.884955592153876
 40
1.884955592153876
 40
2.199114857512855
 40
2.199114857512855
 40
2.513274122871834
 40
2.513274122871834
 40
2.827433388230813
 40
2.827433388230813
 40
3.021371995349163
 40
3.021371995349163
 40
3.141592653589793
 40
3.141592653589793
 40
3.141592653589793
 40
3.141592653589793
 10
9369.309405134309
 20
1801.832192121222
 30
0.0
 10
9350.45984921277
 20
1801.832192121222
 30
0.0
 10
9331.613339135266
 20
1800.588444641765
 30
0.0
 10
9295.759353158368
 20
1795.734417044952
 30
0.0
 10
9278.757670798608
 20
1792.124921275569
 30
0.0
 10
9248.258448644717
 20
1782.892012123117
 30
0.0
 10
9234.76583712976
 20
1777.270090658551
 30
0.0
 10
9212.606855163874
 20
1764.562081427763
 30
0.0
 10
9203.944065317356
 20
1757.478047111197
 30
0.0
 10
9194.523412673282
 20
1745.397302297815
 30
0.0
 10
9192.004168092951
 20
1740.640507712261
 30
0.0
 10
9189.743516803401
 20
1732.843214576777
 30
0.0
 10
9189.309405134308
 20
1729.837708577238
 30
0.0
 10
9189.309405134308
 20
1726.832192121222
 30
0.0
  0
SPLINE
  5
1DD
330
6C
100
AcDbEntity
  8
Visible (ISO)
100
AcDbSpline
210
0.0
220
0.0
230
1.0
 70
     8
 71
     3
 72
    18
 73
    14
 74
     0
 42
0.0000000001
 43
0.0000000001
 40
1.570796326794896
 40
1.570796326794896
 40
1.570796326794896
 40
1.570796326794896
 40
1.884955592153876
 40
1.884955592153876
 40
2.199114857512855
 40
2.199114857512855
 40
2.513274122871834
 40
2.513274122871834
 40
2.827433388230813
 40
2.827433388230813
 40
3.021371995349163
 40
3.021371995349163
 40
3.141592653589793
 40
3.141592653589793
 40
3.141592653589793
 40
3.141592653589793
 10
9509.309405134308
 20
1801.832192121222
 30
0.0
 10
9528.158961055849
 20
1801.832192121222
 30
0.0
 10
9547.005471133351
 20
1800.588444641765
 30
0.0
 10
9582.859457110251
 20
1795.734417044952
 30
0.0
 10
9599.861139470007
 20
1792.124921275569
 30
0.0
 10
9630.3603616239
 20
1782.892012123117
 30
0.0
 10
9643.852973138857
 20
1777.270090658551
 30
0.0
 10
9666.011955104742
 20
1764.562081427763
 30
0.0
 10
9674.674744951261
 20
1757.478047111197
 30
0.0
 10
9684.095397595335
 20
1745.397302297815
 30
0.0
 10
9686.614642175666
 20
1740.640507712261
 30
0.0
 10
9688.875293465217
 20
1732.843214576777
 30
0.0
 10
9689.309405134309
 20
1729.837708577237
 30
0.0
 10
9689.309405134309
 20
1726.832192121222
 30
0.0
  0
LINE
  5
1DE
330
6C
100
AcDbEntity
  8
Visible (ISO)
100
AcDbLine
 10
10441.00940513431
 20
1801.832192121222
 30
0.0
 11
10431.00940513431
 21
1801.832192121222
 31
0.0
  0
LINE
  5
1DF
330
6C
100
AcDbEntity
  8
Visible (ISO)
100
AcDbLine
 10
10537.06491788895
 20
1801.832192121222
 30
0.0
 11
10464.95389237967
 21
1801.832192121222
 31
0.0
  0
LINE
  5
1E0
330
6C
100
AcDbEntity
  8
Visible (ISO)
100
AcDbLine
 10
10571.00940513431
 20
1801.832192121222
 30
0.0
 11
10561.00940513431
 21
1801.832192121222
 31
0.0
  0
LINE
  5
1E1
330
6C
100
AcDbEntity
  8
Visible (ISO)
100
AcDbLine
 10
10751.00940513431
 20
1651.832192121222
 30
0.0
 11
10251.00940513431
 21
1651.832192121222
 31
0.0
  0
LINE
  5
1E2
330
6C
100
AcDbEntity
  8
Visible (ISO)
100
AcDbLine
 10
10251.00940513431
 20
1651.832192121222
 30
0.0
 11
10251.00940513431
 21
1726.832192121222
 31
0.0
  0
LINE
  5
1E3
330
6C
100
AcDbEntity
  8
Visible (ISO)
100
AcDbLine
 10
10751.00940513431
 20
1651.832192121222
 30
0.0
 11
10751.00940513431
 21
1726.832192121222
 31
0.0
  0
SPLINE
  5
1E4
330
6C
100
AcDbEntity
  8
Visible (ISO)
100
AcDbSpline
210
0.0
220
0.0
230
1.0
 70
     8
 71
     3
 72
    18
 73
    14
 74
     0
 42
0.0000000001
 43
0.0000000001
 40
1.570796326794896
 40
1.570796326794896
 40
1.570796326794896
 40
1.570796326794896
 40
1.884955592153876
 40
1.884955592153876
 40
2.199114857512855
 40
2.199114857512855
 40
2.513274122871834
 40
2.513274122871834
 40
2.827433388230813
 40
2.827433388230813
 40
3.021371995349163
 40
3.021371995349163
 40
3.141592653589793
 40
3.141592653589793
 40
3.141592653589793
 40
3.141592653589793
 10
10431.00940513431
 20
1801.832192121222
 30
0.0
 10
10412.15984921277
 20
1801.832192121222
 30
0.0
 10
10393.31333913527
 20
1800.588444641765
 30
0.0
 10
10357.45935315837
 20
1795.734417044952
 30
0.0
 10
10340.45767079861
 20
1792.124921275569
 30
0.0
 10
10309.95844864472
 20
1782.892012123117
 30
0.0
 10
10296.46583712976
 20
1777.270090658551
 30
0.0
 10
10274.30685516387
 20
1764.562081427763
 30
0.0
 10
10265.64406531736
 20
1757.478047111197
 30
0.0
 10
10256.22341267328
 20
1745.397302297815
 30
0.0
 10
10253.70416809295
 20
1740.640507712261
 30
0.0
 10
10251.4435168034
 20
1732.843214576777
 30
0.0
 10
10251.00940513431
 20
1729.837708577237
 30
0.0
 10
10251.00940513431
 20
1726.832192121222
 30
0.0
  0
SPLINE
  5
1E5
330
6C
100
AcDbEntity
  8
Visible (ISO)
100
AcDbSpline
210
0.0
220
0.0
230
1.0
 70
     8
 71
     3
 72
    18
 73
    14
 74
     0
 42
0.0000000001
 43
0.0000000001
 40
1.570796326794896
 40
1.570796326794896
 40
1.570796326794896
 40
1.570796326794896
 40
1.884955592153876
 40
1.884955592153876
 40
2.199114857512855
 40
2.199114857512855
 40
2.513274122871834
 40
2.513274122871834
 40
2.827433388230813
 40
2.827433388230813
 40
3.021371995349163
 40
3.021371995349163
 40
3.141592653589793
 40
3.141592653589793
 40
3.141592653589793
 40
3.141592653589793
 10
10571.00940513431
 20
1801.832192121222
 30
0.0
 10
10589.85896105584
 20
1801.832192121222
 30
0.0
 10
10608.70547113335
 20
1800.588444641765
 30
0.0
 10
10644.55945711025
 20
1795.734417044952
 30
0.0
 10
10661.56113947001
 20
1792.124921275569
 30
0.0
 10
10692.0603616239
 20
1782.892012123117
 30
0.0
 10
10705.55297313886
 20
1777.270090658551
 30
0.0
 10
10727.71195510474
 20
1764.562081427763
 30
0.0
 10
10736.37474495126
 20
1757.478047111197
 30
0.0
 10
10745.79539759533
 20
1745.397302297815
 30
0.0
 10
10748.31464217566
 20
1740.640507712261
 30
0.0
 10
10750.57529346522
 20
1732.843214576777
 30
0.0
 10
10751.00940513431
 20
1729.837708577238
 30
0.0
 10
10751.00940513431
 20
1726.832192121222
 30
0.0
  0
LINE
  5
1E6
330
6C
100
AcDbEntity
  8
Visible (ISO)
100
AcDbLine
 10
9404.309405134309
 20
1811.832192121222
 30
0.0
 11
9404.309405134309
 21
1809.832192121222
 31
0.0
  0
LINE
  5
1E7
330
6C
100
AcDbEntity
  8
Visible (ISO)
100
AcDbLine
 10
9384.309405134308
 20
1811.832192121222
 30
0.0
 11
9384.309405134308
 21
1809.832192121222
 31
0.0
  0
LINE
  5
1E8
330
6C
100
AcDbEntity
  8
Visible (ISO)
100
AcDbLine
 10
9494.309405134309
 20
1811.832192121222
 30
0.0
 11
9494.309405134309
 21
1809.832192121222
 31
0.0
  0
LINE
  5
1E9
330
6C
100
AcDbEntity
  8
Visible (ISO)
100
AcDbLine
 10
9474.309405134306
 20
1811.832192121222
 30
0.0
 11
9474.309405134306
 21
1809.832192121222
 31
0.0
  0
LINE
  5
1EA
330
6C
100
AcDbEntity
  8
Visible (ISO)
100
AcDbLine
 10
10466.0094051343
 20
1811.832192121222
 30
0.0
 11
10466.0094051343
 21
1809.832192121222
 31
0.0
  0
LINE
  5
1EB
330
6C
100
AcDbEntity
  8
Visible (ISO)
100
AcDbLine
 10
10446.00940513431
 20
1811.832192121222
 30
0.0
 11
10446.00940513431
 21
1809.832192121222
 31
0.0
  0
LINE
  5
1EC
330
6C
100
AcDbEntity
  8
Visible (ISO)
100
AcDbLine
 10
10556.00940513431
 20
1811.832192121222
 30
0.0
 11
10556.00940513431
 21
1809.832192121222
 31
0.0
  0
LINE
  5
1ED
330
6C
100
AcDbEntity
  8
Visible (ISO)
100
AcDbLine
 10
10536.00940513431
 20
1811.832192121222
 30
0.0
 11
10536.00940513431
 21
1809.832192121222
 31
0.0
  0
LINE
  5
1EE
330
6C
100
AcDbEntity
  8
Visible (ISO)
100
AcDbLine
 10
9405.109405134309
 20
1811.832192121222
 30
0.0
 11
9383.509405134308
 21
1811.832192121222
 31
0.0
  0
LINE
  5
1EF
330
6C
100
AcDbEntity
  8
Visible (ISO)
100
AcDbLine
 10
9405.109405134309
 20
1821.432218613358
 30
0.0
 11
9405.109405134309
 21
1811.832192121222
 31
0.0
  0
LINE
  5
1F0
330
6C
100
AcDbEntity
  8
Visible (ISO)
100
AcDbLine
 10
9383.509405134308
 20
1821.432218613358
 30
0.0
 11
9383.509405134308
 21
1811.832192121222
 31
0.0
  0
ARC
  5
1F1
330
6C
100
AcDbEntity
  8
Visible (ISO)
100
AcDbCircle
 10
9404.609405134307
 20
1821.432218613358
 30
0.0
 40
0.5
100
AcDbArc
 50
0.0
 51
89.58294140488423
  0
ARC
  5
1F2
330
6C
100
AcDbEntity
  8
Visible (ISO)
100
AcDbCircle
 10
9384.00940513431
 20
1821.432218613358
 30
0.0
 40
0.5
100
AcDbArc
 50
90.41705859511576
 51
180.0
  0
ARC
  5
1F3
330
6C
100
AcDbEntity
  8
Visible (ISO)
100
AcDbCircle
 10
9404.616684115689
 20
1822.432192121222
 30
0.0
 40
0.5
100
AcDbArc
 50
180.599453179619
 51
269.5829414048843
  0
ARC
  5
1F4
330
6C
100
AcDbEntity
  8
Visible (ISO)
100
AcDbCircle
 10
9384.002126152928
 20
1822.432192121222
 30
0.0
 40
0.5
100
AcDbArc
 50
270.4170585951157
 51
359.4005468204417
  0
ARC
  5
1F5
330
6C
100
AcDbEntity
  8
Visible (ISO)
100
AcDbCircle
 10
9394.309405134309
 20
1822.324348983967
 30
0.0
 40
9.807843137254902
100
AcDbArc
 50
0.599453179547914
 51
179.4005468204521
  0
LINE
  5
1F6
330
6C
100
AcDbEntity
  8
Visible (ISO)
100
AcDbLine
 10
9495.109405134307
 20
1811.832192121222
 30
0.0
 11
9473.509405134308
 21
1811.832192121222
 31
0.0
  0
LINE
  5
1F7
330
6C
100
AcDbEntity
  8
Visible (ISO)
100
AcDbLine
 10
9495.109405134307
 20
1821.432218613358
 30
0.0
 11
9495.109405134307
 21
1811.832192121222
 31
0.0
  0
LINE
  5
1F8
330
6C
100
AcDbEntity
  8
Visible (ISO)
100
AcDbLine
 10
9473.509405134308
 20
1821.432218613358
 30
0.0
 11
9473.509405134308
 21
1811.832192121222
 31
0.0
  0
ARC
  5
1F9
330
6C
100
AcDbEntity
  8
Visible (ISO)
100
AcDbCircle
 10
9494.609405134308
 20
1821.432218613358
 30
0.0
 40
0.5
100
AcDbArc
 50
0.0
 51
89.58294140488423
  0
ARC
  5
1FA
330
6C
100
AcDbEntity
  8
Visible (ISO)
100
AcDbCircle
 10
9474.009405134308
 20
1821.432218613358
 30
0.0
 40
0.5
100
AcDbArc
 50
90.41705859511576
 51
180.0
  0
ARC
  5
1FB
330
6C
100
AcDbEntity
  8
Visible (ISO)
100
AcDbCircle
 10
9494.616684115689
 20
1822.432192121222
 30
0.0
 40
0.5
100
AcDbArc
 50
180.599453179619
 51
269.5829414048843
  0
ARC
  5
1FC
330
6C
100
AcDbEntity
  8
Visible (ISO)
100
AcDbCircle
 10
9474.002126152928
 20
1822.432192121222
 30
0.0
 40
0.5
100
AcDbArc
 50
270.4170585951157
 51
359.4005468204417
  0
ARC
  5
1FD
330
6C
100
AcDbEntity
  8
Visible (ISO)
100
AcDbCircle
 10
9484.309405134309
 20
1822.324348983967
 30
0.0
 40
9.807843137254902
100
AcDbArc
 50
0.599453179547914
 51
179.4005468204521
  0
LINE
  5
1FE
330
6C
100
AcDbEntity
  8
Visible (ISO)
100
AcDbLine
 10
10466.8094051343
 20
1811.832192121222
 30
0.0
 11
10445.20940513431
 21
1811.832192121222
 31
0.0
  0
LINE
  5
1FF
330
6C
100
AcDbEntity
  8
Visible (ISO)
100
AcDbLine
 10
10466.8094051343
 20
1821.432218613358
 30
0.0
 11
10466.8094051343
 21
1811.832192121222
 31
0.0
  0
LINE
  5
200
330
6C
100
AcDbEntity
  8
Visible (ISO)
100
AcDbLine
 10
10445.20940513431
 20
1821.432218613358
 30
0.0
 11
10445.20940513431
 21
1811.832192121222
 31
0.0
  0
ARC
  5
201
330
6C
100
AcDbEntity
  8
Visible (ISO)
100
AcDbCircle
 10
10466.30940513431
 20
1821.432218613358
 30
0.0
 40
0.5
100
AcDbArc
 50
0.0
 51
89.58294140476212
  0
ARC
  5
202
330
6C
100
AcDbEntity
  8
Visible (ISO)
100
AcDbCircle
 10
10445.7094051343
 20
1821.432218613358
 30
0.0
 40
0.5
100
AcDbArc
 50
90.41705859523794
 51
180.0
  0
ARC
  5
203
330
6C
100
AcDbEntity
  8
Visible (ISO)
100
AcDbCircle
 10
10466.31668411569
 20
1822.432192121222
 30
0.0
 40
0.5
100
AcDbArc
 50
180.599453179498
 51
269.5829414047621
  0
ARC
  5
204
330
6C
100
AcDbEntity
  8
Visible (ISO)
100
AcDbCircle
 10
10445.70212615292
 20
1822.432192121222
 30
0.0
 40
0.5
100
AcDbArc
 50
270.4170585949936
 51
359.4005468204405
  0
ARC
  5
205
330
6C
100
AcDbEntity
  8
Visible (ISO)
100
AcDbCircle
 10
10456.0094051343
 20
1822.324348983967
 30
0.0
 40
9.807843137254902
100
AcDbArc
 50
0.599453179547914
 51
179.4005468204521
  0
LINE
  5
206
330
6C
100
AcDbEntity
  8
Visible (ISO)
100
AcDbLine
 10
10556.80940513431
 20
1811.832192121222
 30
0.0
 11
10535.20940513431
 21
1811.832192121222
 31
0.0
  0
LINE
  5
207
330
6C
100
AcDbEntity
  8
Visible (ISO)
100
AcDbLine
 10
10556.80940513431
 20
1821.432218613358
 30
0.0
 11
10556.80940513431
 21
1811.832192121222
 31
0.0
  0
LINE
  5
208
330
6C
100
AcDbEntity
  8
Visible (ISO)
100
AcDbLine
 10
10535.20940513431
 20
1821.432218613358
 30
0.0
 11
10535.20940513431
 21
1811.832192121222
 31
0.0
  0
ARC
  5
209
330
6C
100
AcDbEntity
  8
Visible (ISO)
100
AcDbCircle
 10
10556.30940513431
 20
1821.432218613358
 30
0.0
 40
0.5
100
AcDbArc
 50
0.0
 51
89.58294140476212
  0
ARC
  5
20A
330
6C
100
AcDbEntity
  8
Visible (ISO)
100
AcDbCircle
 10
10535.70940513431
 20
1821.432218613358
 30
0.0
 40
0.5
100
AcDbArc
 50
90.41705859523794
 51
180.0
  0
ARC
  5
20B
330
6C
100
AcDbEntity
  8
Visible (ISO)
100
AcDbCircle
 10
10556.31668411569
 20
1822.432192121222
 30
0.0
 40
0.5
100
AcDbArc
 50
180.599453179498
 51
269.5829414047621
  0
ARC
  5
20C
330
6C
100
AcDbEntity
  8
Visible (ISO)
100
AcDbCircle
 10
10535.70212615293
 20
1822.432192121222
 30
0.0
 40
0.5
100
AcDbArc
 50
270.4170585949936
 51
359.4005468204405
  0
ARC
  5
20D
330
6C
100
AcDbEntity
  8
Visible (ISO)
100
AcDbCircle
 10
10546.00940513431
 20
1822.324348983967
 30
0.0
 40
9.807843137254902
100
AcDbArc
 50
0.599453179547914
 51
179.4005468204521
  0
DIMENSION
  5
216
330
6C
100
AcDbEntity
  8
Dimension (ISO)
100
AcDbDimension
  2
*D7
 10
10733.15172156615
 20
2001.832192121222
 30
0.0
 11
10733.15172156615
 21
2968.236198743543
 31
0.0
 70
   160
  1
<>
 71
     2
 42
2000.0
  3
Default (ISO)
100
AcDbAlignedDimension
 13
10411.15940513431
 23
4001.832192121222
 33
0.0
 14
10833.01415310318
 24
2001.832192121222
 34
0.0
 50
90.0
100
AcDbRotatedDimension
1001
ACAD
1000
DSTYLE
1002
{
1070
   172
1070
     0
1070
   289
1070
     1
1070
    74
1070
     0
1070
   271
1070
     2
1070
    76
1070
     1
1070
   272
1070
     2
1070
    48
1040
0.0
1070
    47
1040
0.0
1002
}
  0
DIMENSION
  5
2FC
330
6C
100
AcDbEntity
  8
Dimension (ISO)
100
AcDbDimension
  2
*D8
 10
8944.558950437029
 20
1651.832192121222
 30
0.0
 11
8944.558950437029
 21
1826.832192121222
 31
0.0
 70
   160
  1
<>
 71
     2
 42
350.0000000000002
  3
Default (ISO)
100
AcDbAlignedDimension
 13
8858.296540675629
 23
2001.832192121222
 33
0.0
 14
9189.309405134308
 24
1651.832192121222
 34
0.0
 50
90.0
100
AcDbRotatedDimension
1001
ACAD
1000
DSTYLE
1002
{
1070
   172
1070
     0
1070
   289
1070
     1
1070
    74
1070
     0
1070
   271
1070
     2
1070
    75
1070
     1
1070
   272
1070
     2
1070
    48
1040
0.0
1070
    47
1040
0.0
1002
}
  0
DIMENSION
  5
3E1
330
6C
100
AcDbEntity
  8
Dimension (ISO)
100
AcDbDimension
  2
*D9
 10
9198.779578731246
 20
1801.832192121222
 30
0.0
 11
9198.779578731246
 21
2286.17976695496
 31
0.0
 70
   160
  1
<>
 71
     2
 42
200.0000000000002
  3
Default (ISO)
100
AcDbAlignedDimension
 13
9263.283320238731
 23
2001.832192121222
 33
0.0
 14
9379.309405134309
 24
1801.832192121222
 34
0.0
 50
90.0
100
AcDbRotatedDimension
1001
ACAD
1000
DSTYLE
1002
{
1070
   172
1070
     1
1070
   289
1070
     1
1070
    74
1070
     0
1070
   271
1070
     2
1070
    75
1070
     1
1070
   272
1070
     2
1070
    48
1040
0.0
1070
    47
1040
0.0
1002
}
  0
DIMENSION
  5
4E4
330
6C
100
AcDbEntity
  8
Dimension (ISO)
100
AcDbDimension
  2
*D10
 10
10525.15940513374
 20
568.3449942044485
 30
0.0
 11
9944.69779810981
 21
568.3449942044485
 31
0.0
 70
   160
  1
<>
 71
     2
 42
1110.0
  3
Default (ISO)
100
AcDbAlignedDimension
 13
9415.15940513374
 23
912.0159263628092
 33
0.0
 14
10525.15940513374
 24
912.0159263628092
 34
0.0
 50
180.0
100
AcDbRotatedDimension
1001
ACAD
1000
DSTYLE
1002
{
1070
   172
1070
     0
1070
   289
1070
     1
1070
    74
1070
     0
1070
   271
1070
     2
1070
   272
1070
     2
1070
    48
1040
0.0
1070
    47
1040
0.0
1002
}
  0
DIMENSION
  5
5C6
330
6C
100
AcDbEntity
  8
Dimension (ISO)
100
AcDbDimension
  2
*D11
 10
10833.71285548996
 20
887.8659263628357
 30
0.0
 11
10833.71285548996
 21
1183.844596127906
 31
0.0
 70
   160
  1
<>
 71
     2
 42
48.29999999998688
  3
Default (ISO)
100
AcDbAlignedDimension
 13
10501.00940513374
 23
936.1659263628226
 33
0.0
 14
10411.15940513374
 24
887.8659263628358
 34
0.0
 50
90.0
100
AcDbRotatedDimension
1001
ACAD
1000
DSTYLE
1002
{
1070
   172
1070
     1
1070
   289
1070
     1
1070
    74
1070
     0
1070
   271
1070
     0
1070
   272
1070
     2
1070
    48
1040
0.0
1070
    47
1040
0.0
1002
}
  0
DIMENSION
  5
6D8
330
6C
100
AcDbEntity
  8
Dimension (ISO)
100
AcDbDimension
  2
*D12
 10
10751.00940513431
 20
1351.832192121222
 30
0.0
 11
10501.0094051343
 21
1351.832192121222
 31
0.0
 70
   160
  1
{\fAIGDT|b0|i0;\H105.0000;\ln\fTahoma|b0|i0;\H105.0000;}<>
 71
     2
 42
500.0000000000018
  3
Default (ISO)
100
AcDbAlignedDimension
 13
10251.00940513431
 23
1651.832192121222
 33
0.0
 14
10751.00940513431
 24
1651.832192121222
 34
0.0
 50
180.0
100
AcDbRotatedDimension
1001
ACAD
1000
DSTYLE
1002
{
1070
   172
1070
     0
1070
   289
1070
     1
1070
    74
1070
     0
1070
   271
1070
     2
1070
   272
1070
     2
1070
    48
1040
0.0
1070
    47
1040
0.0
1002
}
  0
INSERT
  5
7C6
330
6C
100
AcDbEntity
  8
0
100
AcDbBlockReference
 66
     1
  2
Tabelki rysunkowe Rzut
 10
3606.695511084492
 20
-322.2391627381337
 30
0.0
 41
30.0
 42
30.0
 43
30.0
  0
ATTRIB
  5
7C8
102
{ACAD_XDICTIONARY
360
F51
102
}
330
7C6
100
AcDbEntity
  8
Title (ISO)
100
AcDbText
 10
8963.25050371556
 20
221.5748829671011
 30
0.0
 40
75.0
  1
9088
  7
Note Text (ISO)
100
AcDbAttribute
  2
Numer_katalogowy_001
 70
     0
  0
ATTRIB
  5
7C9
102
{ACAD_XDICTIONARY
360
F54
102
}
330
7C6
100
AcDbEntity
  8
Title (ISO)
100
AcDbText
 10
9319.019476193968
 20
11.87709921864315
 30
0.0
 40
75.0
  1
2020-12-16
  7
Note Text (ISO)
100
AcDbAttribute
  2
DATA_UTWORZENIA_001
 70
     0
  0
ATTRIB
  5
7CA
102
{ACAD_XDICTIONARY
360
F57
102
}
330
7C6
100
AcDbEntity
  8
Title (ISO)
100
AcDbText
 10
8954.788448672378
 20
113.2505042001373
 30
0.0
 40
75.0
  1
Regulamin użytkowania
  7
Note Text (ISO)
100
AcDbAttribute
  2
Nazwa_001
 70
     0
  0
SEQEND
  5
7C7
330
7C6
100
AcDbEntity
  8
0
  0
DIMENSION
  5
D7C
330
6C
100
AcDbEntity
  8
Dimension (ISO)
100
AcDbDimension
  2
*D26
 10
10470.1594051343
 20
4160.142332036278
 30
0.0
 11
9970.15940513431
 21
4160.142332036278
 31
0.0
 70
   160
  1
<>
 71
     2
 42
999.9999999999982
  3
Default (ISO)
100
AcDbAlignedDimension
 13
9470.159405134308
 23
3888.532192121222
 33
0.0
 14
10470.1594051343
 24
3888.532192121221
 34
0.0
100
AcDbRotatedDimension
1001
ACAD
1000
DSTYLE
1002
{
1070
   172
1070
     0
1070
   289
1070
     1
1070
    74
1070
     0
1070
   271
1070
     2
1070
   272
1070
     2
1070
    48
1040
0.0
1070
    47
1040
0.0
1002
}
  0
DIMENSION
  5
E5E
330
6C
100
AcDbEntity
  8
Dimension (ISO)
100
AcDbDimension
  2
*D27
 10
9268.584792067217
 20
3203.532192121223
 30
0.0
 11
9268.584792067217
 21
3553.532192121223
 31
0.0
 70
   160
  1
<>
 71
     2
 42
699.9999999999991
  3
Default (ISO)
100
AcDbAlignedDimension
 13
9485.159405134309
 23
3903.532192121222
 33
0.0
 14
9485.159405134309
 24
3203.532192121223
 34
0.0
 50
270.0
100
AcDbRotatedDimension
1001
ACAD
1000
DSTYLE
1002
{
1070
   172
1070
     0
1070
   289
1070
     1
1070
    74
1070
     0
1070
   271
1070
     2
1070
   272
1070
     2
1070
    48
1040
0.0
1070
    47
1040
0.0
1002
}
  0
INSERT
  5
FC8
330
6C
100
AcDbEntity
  8
0
100
AcDbBlockReference
  2
9098-9099_Regulamin-uzytkowania-podwojny
 10
9970.159405133742
 20
936.1659263628359
 30
0.0
  0
ENDSEC
  0
SECTION
  2
OBJECTS
  0
DICTIONARY
  5
C
330
0
100
AcDbDictionary
281
     1
  3
ACAD_COLOR
350
63
  3
ACAD_GROUP
350
D
  3
ACAD_LAYOUT
350
62
  3
ACAD_MATERIAL
350
10
  3
ACAD_MLEADERSTYLE
350
66
  3
ACAD_MLINESTYLE
350
5F
  3
ACAD_PLOTSETTINGS
350
61
  3
ACAD_PLOTSTYLENAME
350
E
  3
ACAD_SCALELIST
350
42
  3
ACAD_TABLESTYLE
350
64
  3
ACAD_VISUALSTYLE
350
29
  3
ACDB_RECOMPOSE_DATA
350
FD7
  3
AcDbVariableDictionary
350
FA7
  3
DWGPROPS
350
FD8
  0
DICTIONARY
  5
F5C
330
8
100
AcDbDictionary
280
     1
281
     1
  0
DICTIONARY
  5
F48
330
7C2
100
AcDbDictionary
280
     1
281
     1
  3
ACAD_MLATT
360
FCC
  3
ACAD_XREC_ROUNDTRIP
360
FCB
  0
DICTIONARY
  5
F4B
330
7C4
100
AcDbDictionary
280
     1
281
     1
  3
ACAD_MLATT
360
FCE
  3
ACAD_XREC_ROUNDTRIP
360
FCD
  0
DICTIONARY
  5
F4E
330
7C5
100
AcDbDictionary
280
     1
281
     1
  3
ACAD_MLATT
360
FD0
  3
ACAD_XREC_ROUNDTRIP
360
FCF
  0
DICTIONARY
  5
F51
330
7C8
100
AcDbDictionary
280
     1
281
     1
  3
ACAD_MLATT
360
FD2
  3
ACAD_XREC_ROUNDTRIP
360
FD1
  0
DICTIONARY
  5
F54
330
7C9
100
AcDbDictionary
280
     1
281
     1
  3
ACAD_MLATT
360
FD4
  3
ACAD_XREC_ROUNDTRIP
360
FD3
  0
DICTIONARY
  5
F57
330
7CA
100
AcDbDictionary
280
     1
281
     1
  3
ACAD_MLATT
360
FD6
  3
ACAD_XREC_ROUNDTRIP
360
FD5
  0
DICTIONARY
  5
63
102
{ACAD_REACTORS
330
C
102
}
330
C
100
AcDbDictionary
281
     1
  0
DICTIONARY
  5
D
102
{ACAD_REACTORS
330
C
102
}
330
C
100
AcDbDictionary
281
     1
  0
DICTIONARY
  5
62
102
{ACAD_REACTORS
330
C
102
}
330
C
100
AcDbDictionary
281
     1
  3
Layout1
350
6B
  3
Layout2
350
73
  3
Model
350
6F
  0
DICTIONARY
  5
10
102
{ACAD_REACTORS
330
C
102
}
330
C
100
AcDbDictionary
281
     1
  3
ByBlock
350
19
  3
ByLayer
350
11
  3
Global
350
21
  0
DICTIONARY
  5
66
102
{ACAD_REACTORS
330
C
102
}
330
C
100
AcDbDictionary
281
     1
  3
Standard
350
67
  0
DICTIONARY
  5
5F
102
{ACAD_REACTORS
330
C
102
}
330
C
100
AcDbDictionary
281
     1
  3
Standard
350
60
  0
DICTIONARY
  5
61
102
{ACAD_REACTORS
330
C
102
}
330
C
100
AcDbDictionary
281
     1
  0
ACDBDICTIONARYWDFLT
  5
E
102
{ACAD_REACTORS
330
C
102
}
330
C
100
AcDbDictionary
281
     1
  3
Normal
350
F
100
AcDbDictionaryWithDefault
340
F
  0
DICTIONARY
  5
42
102
{ACAD_REACTORS
330
C
102
}
330
C
100
AcDbDictionary
281
     1
  3
A0
350
43
  3
A1
350
44
  3
A2
350
45
  3
A3
350
46
  3
A4
350
47
  3
A5
350
48
  3
A6
350
49
  3
A7
350
4A
  3
A8
350
4B
  3
A9
350
4C
  3
B0
350
4D
  3
B1
350
4E
  3
B2
350
4F
  3
B3
350
50
  3
B4
350
51
  3
B5
350
52
  3
B6
350
53
  0
DICTIONARY
  5
64
102
{ACAD_REACTORS
330
C
102
}
330
C
100
AcDbDictionary
281
     1
  3
Standard
350
65
  0
DICTIONARY
  5
29
102
{ACAD_REACTORS
330
C
102
}
330
C
100
AcDbDictionary
281
     1
  3
2dWireframe
350
2F
  3
Basic
350
2E
  3
Brighten
350
35
  3
ColorChange
350
39
  3
Conceptual
350
32
  3
Dim
350
34
  3
EdgeColorOff
350
41
  3
Facepattern
350
38
  3
Flat
350
2A
  3
FlatWithEdges
350
2B
  3
Gouraud
350
2C
  3
GouraudWithEdges
350
2D
  3
Hidden
350
31
  3
JitterOff
350
3F
  3
Linepattern
350
37
  3
OverhangOff
350
40
  3
Realistic
350
33
  3
Shaded
350
3E
  3
Shaded with edges
350
3D
  3
Shades of Gray
350
3A
  3
Sketchy
350
3B
  3
Thicken
350
36
  3
Wireframe
350
30
  3
X-Ray
350
3C
  0
XRECORD
  5
FD7
102
{ACAD_REACTORS
330
C
102
}
330
C
100
AcDbXrecord
280
     1
 90
        1
330
65
330
7C2
330
7C4
330
7C5
330
7C8
330
7C9
330
7CA
  0
DICTIONARY
  5
FA7
102
{ACAD_REACTORS
330
C
102
}
330
C
100
AcDbDictionary
281
     1
  3
CANNOSCALE
350
FAB
  3
CMLEADERSTYLE
350
FA9
  3
CTABLESTYLE
350
FA8
  3
DIMASSOC
350
FB2
  3
HIDETEXT
350
FB1
  3
INDEXCTL
350
FB0
  3
LAYEREVAL
350
FAD
  3
LAYERNOTIFY
350
FAE
  3
LIGHTINGUNITS
350
FAC
  3
MSLTSCALE
350
FAA
  3
SORTENTS
350
FAF
  3
XCLIPFRAME
350
FC9
  0
XRECORD
  5
FD8
102
{ACAD_REACTORS
330
C
102
}
330
C
100
AcDbXrecord
280
     1
  1
DWGPROPS COOKIE
  2

  3

  4
Maruszak Marcin
  6

  7

  8
GRAFIK
  9
v1
300
Menadżer=
301
Firma=Muller Jelcz-Laskowice Sp.z o.o.
302
Kategoria=
303
Numer części=9088.000 Regulamin+fundamentowanie
304
Opis=
305
Projekt=9088 Regulamin placu zabaw
306
Projektant=Maruszak Marcin
307
Inżynier=Maruszak Marcin
308
Zatwierdził=Ośkiewicz Ryszard
309
Centrum kosztów=
 40
0.0004764699074074
 41
2459776.383258276
 42
2459776.492958889
  1
www.muller.com.pl
 90
       19
300
Dostawca=
300
Stan użytkownika=
300
Stan projektu=PracaWToku
300
Sprawdził=
300
Zatwierdził konstrukcję=
300
Zatwierdził do produkcji=
300
Kolor=szary
300
Stanowisko=Ploter
300
mat.=
  0
XRECORD
  5
FCC
102
{ACAD_REACTORS
330
F48
102
}
330
F48
100
AcDbXrecord
280
     1
 70
     4
 70
     0
 70
     0
 40
1.0
  2
Numer_katalogowy
  1
Embedded Object
 10
178.6643246928063
 20
20.68422014898354
 30
0.0
 40
2.5
 41
39.63119806127143
 46
0.0
 71
     1
 72
     5
  1
9088
  7
Note Text (ISO)
 73
     1
 44
1.0
  0
XRECORD
  5
FCB
102
{ACAD_REACTORS
330
F48
102
}
330
F48
100
AcDbXrecord
280
     1
102
ACAD_MATT_HEIGHT
140
2.5
  0
XRECORD
  5
FCE
102
{ACAD_REACTORS
330
F4B
102
}
330
F4B
100
AcDbXrecord
280
     1
 70
     4
 70
     0
 70
     0
 40
1.0
  2
DATA_UTWORZENIA
  1
Embedded Object
 10
190.5938075676742
 20
13.68925708649296
 30
0.0
 40
2.5
 41
40.52963831958745
 46
0.0
 71
     1
 72
     5
  1
2020-12-16
  7
Note Text (ISO)
 73
     1
 44
1.0
  0
XRECORD
  5
FCD
102
{ACAD_REACTORS
330
F4B
102
}
330
F4B
100
AcDbXrecord
280
     1
102
ACAD_MATT_HEIGHT
140
2.5
  0
XRECORD
  5
FD0
102
{ACAD_REACTORS
330
F4E
102
}
330
F4E
100
AcDbXrecord
280
     1
 70
     4
 70
     0
 70
     0
 40
1.0
  2
Nazwa
  1
Embedded Object
 10
178.5232904425422
 20
17.1288138363798
 30
0.0
 40
2.5
 41
38.632931107587
 46
0.0
 71
     1
 72
     5
  1
Regulamin użytkowania
  7
Note Text (ISO)
 73
     1
 44
1.0
  0
XRECORD
  5
FCF
102
{ACAD_REACTORS
330
F4E
102
}
330
F4E
100
AcDbXrecord
280
     1
102
ACAD_MATT_HEIGHT
140
2.5
  0
XRECORD
  5
FD2
102
{ACAD_REACTORS
330
F51
102
}
330
F51
100
AcDbXrecord
280
     1
 70
     2
 70
     0
 70
     0
 40
1.0
  2
Numer_katalogowy
  1
Embedded Object
 10
8966.625251868682
 20
298.2874417313724
 30
0.0
 40
75.0
 41
1188.935941838143
 46
0.0
 71
     1
 72
     5
  1
9088
  7
Note Text (ISO)
 73
     1
 44
1.0
  0
XRECORD
  5
FD1
102
{ACAD_REACTORS
330
F51
102
}
330
F51
100
AcDbXrecord
280
     1
102
ACAD_MATT_HEIGHT
140
75.0
  0
XRECORD
  5
FD4
102
{ACAD_REACTORS
330
F54
102
}
330
F54
100
AcDbXrecord
280
     1
 70
     2
 70
     0
 70
     0
 40
1.0
  2
DATA_UTWORZENIA
  1
Embedded Object
 10
9324.509738114718
 20
88.43854985665524
 30
0.0
 40
75.0
 41
1215.889149587624
 46
0.0
 71
     1
 72
     5
  1
2020-12-16
  7
Note Text (ISO)
 73
     1
 44
1.0
  0
XRECORD
  5
FD3
102
{ACAD_REACTORS
330
F54
102
}
330
F54
100
AcDbXrecord
280
     1
102
ACAD_MATT_HEIGHT
140
75.0
  0
XRECORD
  5
FD6
102
{ACAD_REACTORS
330
F57
102
}
330
F57
100
AcDbXrecord
280
     1
 70
     2
 70
     0
 70
     0
 40
1.0
  2
Nazwa
  1
Embedded Object
 10
8962.39422436076
 20
191.6252523532602
 30
0.0
 40
75.0
 41
1158.98793322761
 46
0.0
 71
     1
 72
     5
  1
Regulamin użytkowania
  7
Note Text (ISO)
 73
     1
 44
1.0
  0
XRECORD
  5
FD5
102
{ACAD_REACTORS
330
F57
102
}
330
F57
100
AcDbXrecord
280
     1
102
ACAD_MATT_HEIGHT
140
75.0
  0
LAYOUT
  5
6B
102
{ACAD_XDICTIONARY
360
100D
102
}
102
{ACAD_REACTORS
330
62
102
}
330
62
100
AcDbPlotSettings
  1

  2

  4

  6

 40
0.0
 41
0.0
 42
0.0
 43
0.0
 44
0.0
 45
0.0
 46
0.0
 47
0.0
 48
0.0
 49
0.0
140
0.0
141
0.0
142
1.0
143
1.0
 70
   688
 72
     0
 73
     0
 74
     5
  7

 75
    16
147
1.0
148
0.0
149
0.0
100
AcDbLayout
  1
Layout1
 70
     1
 71
     1
 10
0.0
 20
0.0
 11
8910.0
 21
6300.0
 12
0.0
 22
0.0
 32
0.0
 14
0.0
 24
0.0
 34
0.0
 15
8910.0
 25
6300.0
 35
0.0
146
0.0
 13
0.0
 23
0.0
 33
0.0
 16
1.0
 26
0.0
 36
0.0
 17
0.0
 27
1.0
 37
0.0
 76
     0
330
68
  0
LAYOUT
  5
73
102
{ACAD_XDICTIONARY
360
1011
102
}
102
{ACAD_REACTORS
330
62
102
}
330
62
100
AcDbPlotSettings
  1

  2

  4

  6

 40
0.0
 41
0.0
 42
0.0
 43
0.0
 44
0.0
 45
0.0
 46
0.0
 47
0.0
 48
0.0
 49
0.0
140
0.0
141
0.0
142
1.0
143
1.0
 70
   688
 72
     0
 73
     0
 74
     5
  7

 75
    16
147
1.0
148
0.0
149
0.0
100
AcDbLayout
  1
Layout2
 70
     1
 71
     2
 10
0.0
 20
0.0
 11
12.0
 21
9.0
 12
0.0
 22
0.0
 32
0.0
 14
0.0
 24
0.0
 34
0.0
 15
0.0
 25
0.0
 35
0.0
146
0.0
 13
0.0
 23
0.0
 33
0.0
 16
1.0
 26
0.0
 36
0.0
 17
0.0
 27
1.0
 37
0.0
 76
     0
330
70
  0
LAYOUT
  5
6F
102
{ACAD_XDICTIONARY
360
100F
102
}
102
{ACAD_REACTORS
330
62
102
}
330
62
100
AcDbPlotSettings
  1

  2

  4

  6

 40
0.0
 41
0.0
 42
0.0
 43
0.0
 44
0.0
 45
0.0
 46
0.0
 47
0.0
 48
0.0
 49
0.0
140
0.0
141
0.0
142
1.0
143
1.0
 70
  1712
 72
     0
 73
     0
 74
     0
  7

 75
     0
147
1.0
148
0.0
149
0.0
100
AcDbLayout
  1
Model
 70
     1
 71
     0
 10
0.0
 20
0.0
 11
12.0
 21
9.0
 12
0.0
 22
0.0
 32
0.0
 14
0.0
 24
0.0
 34
0.0
 15
0.0
 25
0.0
 35
0.0
146
0.0
 13
0.0
 23
0.0
 33
0.0
 16
1.0
 26
0.0
 36
0.0
 17
0.0
 27
1.0
 37
0.0
 76
     0
330
6C
331
57
  0
MATERIAL
  5
19
102
{ACAD_XDICTIONARY
360
1A
102
}
102
{ACAD_REACTORS
330
10
102
}
330
10
100
AcDbMaterial
  1
ByBlock
 72
     0
 43
0.0208333333333333
 43
0.0
 43
0.0
 43
0.0
 43
0.0
 43
0.0208333333333333
 43
0.0
 43
0.0
 43
0.0
 43
0.0
 43
1.0
 43
0.0
 43
0.0
 43
0.0
 43
0.0
 43
1.0
 77
     0
 47
0.0208333333333333
 47
0.0
 47
0.0
 47
0.0
 47
0.0
 47
0.0208333333333333
 47
0.0
 47
0.0
 47
0.0
 47
0.0
 47
1.0
 47
0.0
 47
0.0
 47
0.0
 47
0.0
 47
1.0
171
     0
 49
0.0208333333333333
 49
0.0
 49
0.0
 49
0.0
 49
0.0
 49
0.0208333333333333
 49
0.0
 49
0.0
 49
0.0
 49
0.0
 49
1.0
 49
0.0
 49
0.0
 49
0.0
 49
0.0
 49
1.0
175
     0
142
0.0208333333333333
142
0.0
142
0.0
142
0.0
142
0.0
142
0.0208333333333333
142
0.0
142
0.0
142
0.0
142
0.0
142
1.0
142
0.0
142
0.0
142
0.0
142
0.0
142
1.0
179
     0
144
0.0208333333333333
144
0.0
144
0.0
144
0.0
144
0.0
144
0.0208333333333333
144
0.0
144
0.0
144
0.0
144
0.0
144
1.0
144
0.0
144
0.0
144
0.0
144
0.0
144
1.0
147
0.0208333333333333
147
0.0
147
0.0
147
0.0
147
0.0
147
0.0208333333333333
147
0.0
147
0.0
147
0.0
147
0.0
147
1.0
147
0.0
147
0.0
147
0.0
147
0.0
147
1.0
  0
MATERIAL
  5
11
102
{ACAD_XDICTIONARY
360
12
102
}
102
{ACAD_REACTORS
330
10
102
}
330
10
100
AcDbMaterial
  1
ByLayer
 72
     0
 43
0.0208333333333333
 43
0.0
 43
0.0
 43
0.0
 43
0.0
 43
0.0208333333333333
 43
0.0
 43
0.0
 43
0.0
 43
0.0
 43
1.0
 43
0.0
 43
0.0
 43
0.0
 43
0.0
 43
1.0
 77
     0
 47
0.0208333333333333
 47
0.0
 47
0.0
 47
0.0
 47
0.0
 47
0.0208333333333333
 47
0.0
 47
0.0
 47
0.0
 47
0.0
 47
1.0
 47
0.0
 47
0.0
 47
0.0
 47
0.0
 47
1.0
171
     0
 49
0.0208333333333333
 49
0.0
 49
0.0
 49
0.0
 49
0.0
 49
0.0208333333333333
 49
0.0
 49
0.0
 49
0.0
 49
0.0
 49
1.0
 49
0.0
 49
0.0
 49
0.0
 49
0.0
 49
1.0
175
     0
142
0.0208333333333333
142
0.0
142
0.0
142
0.0
142
0.0
142
0.0208333333333333
142
0.0
142
0.0
142
0.0
142
0.0
142
1.0
142
0.0
142
0.0
142
0.0
142
0.0
142
1.0
179
     0
144
0.0208333333333333
144
0.0
144
0.0
144
0.0
144
0.0
144
0.0208333333333333
144
0.0
144
0.0
144
0.0
144
0.0
144
1.0
144
0.0
144
0.0
144
0.0
144
0.0
144
1.0
147
0.0208333333333333
147
0.0
147
0.0
147
0.0
147
0.0
147
0.0208333333333333
147
0.0
147
0.0
147
0.0
147
0.0
147
1.0
147
0.0
147
0.0
147
0.0
147
0.0
147
1.0
  0
MATERIAL
  5
21
102
{ACAD_XDICTIONARY
360
22
102
}
102
{ACAD_REACTORS
330
10
102
}
330
10
100
AcDbMaterial
  1
Global
 72
     0
 43
0.0208333333333333
 43
0.0
 43
0.0
 43
0.0
 43
0.0
 43
0.0208333333333333
 43
0.0
 43
0.0
 43
0.0
 43
0.0
 43
1.0
 43
0.0
 43
0.0
 43
0.0
 43
0.0
 43
1.0
 77
     0
 47
0.0208333333333333
 47
0.0
 47
0.0
 47
0.0
 47
0.0
 47
0.0208333333333333
 47
0.0
 47
0.0
 47
0.0
 47
0.0
 47
1.0
 47
0.0
 47
0.0
 47
0.0
 47
0.0
 47
1.0
171
     0
 49
0.0208333333333333
 49
0.0
 49
0.0
 49
0.0
 49
0.0
 49
0.0208333333333333
 49
0.0
 49
0.0
 49
0.0
 49
0.0
 49
1.0
 49
0.0
 49
0.0
 49
0.0
 49
0.0
 49
1.0
175
     0
142
0.0208333333333333
142
0.0
142
0.0
142
0.0
142
0.0
142
0.0208333333333333
142
0.0
142
0.0
142
0.0
142
0.0
142
1.0
142
0.0
142
0.0
142
0.0
142
0.0
142
1.0
179
     0
144
0.0208333333333333
144
0.0
144
0.0
144
0.0
144
0.0
144
0.0208333333333333
144
0.0
144
0.0
144
0.0
144
0.0
144
1.0
144
0.0
144
0.0
144
0.0
144
0.0
144
1.0
147
0.0208333333333333
147
0.0
147
0.0
147
0.0
147
0.0
147
0.0208333333333333
147
0.0
147
0.0
147
0.0
147
0.0
147
1.0
147
0.0
147
0.0
147
0.0
147
0.0
147
1.0
  0
MLEADERSTYLE
  5
67
102
{ACAD_REACTORS
330
66
102
}
330
66
100
AcDbMLeaderStyle
170
     2
171
     1
172
     0
 90
        2
 40
0.0
 41
0.0
173
     1
 91
-1056964608
340
5B
 92
       -2
290
     1
 42
0.09
291
     1
 43
0.36
  3
Standard
 44
0.18
300

342
55
174
     1
178
     6
175
     1
176
     0
 93
-1056964608
 45
0.18
292
     0
297
     0
 46
0.18
 94
-1056964608
 47
1.0
 49
1.0
140
1.0
293
     1
141
0.0
294
     1
177
     0
142
1.0
295
     0
296
     0
143
0.125
1001
ACAD_MLEADERVER
1070
     2
  0
MLINESTYLE
  5
60
102
{ACAD_REACTORS
330
5F
102
}
330
5F
100
AcDbMlineStyle
  2
STANDARD
 70
     0
  3

 62
   256
 51
90.0
 52
90.0
 71
     2
 49
0.5
 62
   256
  6
BYLAYER
 49
-0.5
 62
   256
  6
BYLAYER
  0
ACDBPLACEHOLDER
  5
F
102
{ACAD_REACTORS
330
E
102
}
330
E
  0
SCALE
  5
43
102
{ACAD_REACTORS
330
42
102
}
330
42
100
AcDbScale
 70
     0
300
1:1
140
1.0
141
1.0
290
     1
  0
SCALE
  5
44
102
{ACAD_REACTORS
330
42
102
}
330
42
100
AcDbScale
 70
     0
300
1/128" = 1'-0"
140
0.0078125
141
12.0
290
     0
  0
SCALE
  5
45
102
{ACAD_REACTORS
330
42
102
}
330
42
100
AcDbScale
 70
     0
300
1/64" = 1'-0"
140
0.015625
141
12.0
290
     0
  0
SCALE
  5
46
102
{ACAD_REACTORS
330
42
102
}
330
42
100
AcDbScale
 70
     0
300
1/32" = 1'-0"
140
0.03125
141
12.0
290
     0
  0
SCALE
  5
47
102
{ACAD_REACTORS
330
42
102
}
330
42
100
AcDbScale
 70
     0
300
1/16" = 1'-0"
140
0.0625
141
12.0
290
     0
  0
SCALE
  5
48
102
{ACAD_REACTORS
330
42
102
}
330
42
100
AcDbScale
 70
     0
300
3/32" = 1'-0"
140
0.09375
141
12.0
290
     0
  0
SCALE
  5
49
102
{ACAD_REACTORS
330
42
102
}
330
42
100
AcDbScale
 70
     0
300
1/8" = 1'-0"
140
0.125
141
12.0
290
     0
  0
SCALE
  5
4A
102
{ACAD_REACTORS
330
42
102
}
330
42
100
AcDbScale
 70
     0
300
3/16" = 1'-0"
140
0.1875
141
12.0
290
     0
  0
SCALE
  5
4B
102
{ACAD_REACTORS
330
42
102
}
330
42
100
AcDbScale
 70
     0
300
1/4" = 1'-0"
140
0.25
141
12.0
290
     0
  0
SCALE
  5
4C
102
{ACAD_REACTORS
330
42
102
}
330
42
100
AcDbScale
 70
     0
300
3/8" = 1'-0"
140
0.375
141
12.0
290
     0
  0
SCALE
  5
4D
102
{ACAD_REACTORS
330
42
102
}
330
42
100
AcDbScale
 70
     0
300
1/2" = 1'-0"
140
0.5
141
12.0
290
     0
  0
SCALE
  5
4E
102
{ACAD_REACTORS
330
42
102
}
330
42
100
AcDbScale
 70
     0
300
3/4" = 1'-0"
140
0.75
141
12.0
290
     0
  0
SCALE
  5
4F
102
{ACAD_REACTORS
330
42
102
}
330
42
100
AcDbScale
 70
     0
300
1" = 1'-0"
140
1.0
141
12.0
290
     0
  0
SCALE
  5
50
102
{ACAD_REACTORS
330
42
102
}
330
42
100
AcDbScale
 70
     0
300
1-1/2" = 1'-0"
140
1.5
141
12.0
290
     0
  0
SCALE
  5
51
102
{ACAD_REACTORS
330
42
102
}
330
42
100
AcDbScale
 70
     0
300
3" = 1'-0"
140
3.0
141
12.0
290
     0
  0
SCALE
  5
52
102
{ACAD_REACTORS
330
42
102
}
330
42
100
AcDbScale
 70
     0
300
6" = 1'-0"
140
6.0
141
12.0
290
     0
  0
SCALE
  5
53
102
{ACAD_REACTORS
330
42
102
}
330
42
100
AcDbScale
 70
     0
300
1'-0" = 1'-0"
140
12.0
141
12.0
290
     0
  0
TABLESTYLE
  5
65
102
{ACAD_XDICTIONARY
360
F46
102
}
102
{ACAD_REACTORS
330
64
102
}
330
64
100
AcDbTableStyle
  3
Standard
 70
     0
 71
     0
 40
0.06
 41
0.06
280
     0
281
     0
  7
Standard
140
0.18
170
     2
 62
     0
 63
     7
283
     0
274
    -2
284
     1
 64
     0
275
    -2
285
     1
 65
     0
276
    -2
286
     1
 66
     0
277
    -2
287
     1
 67
     0
278
    -2
288
     1
 68
     0
279
    -2
289
     1
 69
     0
  7
Standard
140
0.25
170
     5
 62
     0
 63
     7
283
     0
274
    -2
284
     1
 64
     0
275
    -2
285
     1
 65
     0
276
    -2
286
     1
 66
     0
277
    -2
287
     1
 67
     0
278
    -2
288
     1
 68
     0
279
    -2
289
     1
 69
     0
  7
Standard
140
0.18
170
     5
 62
     0
 63
     7
283
     0
274
    -2
284
     1
 64
     0
275
    -2
285
     1
 65
     0
276
    -2
286
     1
 66
     0
277
    -2
287
     1
 67
     0
278
    -2
288
     1
 68
     0
279
    -2
289
     1
 69
     0
  0
VISUALSTYLE
  5
2F
102
{ACAD_XDICTIONARY
360
FE6
102
}
102
{ACAD_REACTORS
330
29
102
}
330
29
100
AcDbVisualStyle
  2
2dWireframe
 70
     4
 71
     0
 72
     2
 73
     0
 90
        0
 40
-0.6
 41
-30.0
 62
     5
 63
     7
 74
     1
 91
        4
 64
     7
 65
   257
 75
     1
175
     1
 42
1.0
 92
        0
 66
   257
 43
1.0
 76
     1
 77
     6
 78
     2
 67
     7
 79
     5
170
     0
171
     0
290
     0
174
     0
 93
        1
 44
0.0
173
     0
291
     0
 45
0.0
1001
ACAD
1000
AcDbSavedByObjectVersion
1070
     0
  0
VISUALSTYLE
  5
2E
102
{ACAD_XDICTIONARY
360
FE4
102
}
102
{ACAD_REACTORS
330
29
102
}
330
29
100
AcDbVisualStyle
  2
Basic
 70
     7
 71
     1
 72
     0
 73
     1
 90
        0
 40
-0.6
 41
-30.0
 62
     5
 63
     7
 74
     0
 91
        4
 64
     7
 65
   257
 75
     1
175
     1
 42
1.0
 92
        8
 66
     7
 43
1.0
 76
     1
 77
     6
 78
     2
 67
     7
 79
     5
170
     0
171
     0
290
     0
174
     0
 93
        1
 44
0.0
173
     0
291
     1
 45
0.0
1001
ACAD
1000
AcDbSavedByObjectVersion
1070
     0
  0
VISUALSTYLE
  5
35
102
{ACAD_XDICTIONARY
360
FF2
102
}
102
{ACAD_REACTORS
330
29
102
}
330
29
100
AcDbVisualStyle
  2
Brighten
 70
    12
 71
     2
 72
     2
 73
     0
 90
        0
 40
-0.6
 41
-30.0
 62
     5
 63
     7
 74
     1
 91
        4
 64
     7
 65
   257
 75
     1
175
     1
 42
1.0
 92
        8
 66
     7
 43
1.0
 76
     1
 77
     6
 78
     2
 67
     7
 79
     5
170
     0
171
     0
290
     0
174
     0
 93
        1
 44
50.0
173
     0
291
     1
 45
0.0
1001
ACAD
1000
AcDbSavedByObjectVersion
1070
     0
  0
VISUALSTYLE
  5
39
102
{ACAD_XDICTIONARY
360
FFA
102
}
102
{ACAD_REACTORS
330
29
102
}
330
29
100
AcDbVisualStyle
  2
ColorChange
 70
    16
 71
     2
 72
     2
 73
     3
 90
        0
 40
-0.6
 41
-30.0
 62
     5
 63
     8
 74
     1
 91
        4
 64
     7
 65
   257
 75
     1
175
     1
 42
1.0
 92
        8
 66
     8
 43
1.0
 76
     1
 77
     6
 78
     2
 67
     7
 79
     5
170
     0
171
     0
290
     0
174
     0
 93
        1
 44
0.0
173
     0
291
     1
 45
0.0
1001
ACAD
1000
AcDbSavedByObjectVersion
1070
     0
  0
VISUALSTYLE
  5
32
102
{ACAD_XDICTIONARY
360
FEC
102
}
102
{ACAD_REACTORS
330
29
102
}
330
29
100
AcDbVisualStyle
  2
Conceptual
 70
     9
 71
     3
 72
     2
 73
     0
 90
        0
 40
-0.6
 41
-30.0
 62
     5
 63
     7
 74
     2
 91
        2
 64
     7
 65
   257
 75
     1
175
     1
 42
179.0
 92
        8
 66
     7
 43
1.0
 76
     1
 77
     6
 78
     2
 67
     7
 79
     3
170
     0
171
     0
290
     0
174
     0
 93
        1
 44
0.0
173
     0
291
     0
 45
0.0
1001
ACAD
1000
AcDbSavedByObjectVersion
1070
     0
  0
VISUALSTYLE
  5
34
102
{ACAD_XDICTIONARY
360
FF0
102
}
102
{ACAD_REACTORS
330
29
102
}
330
29
100
AcDbVisualStyle
  2
Dim
 70
    11
 71
     2
 72
     2
 73
     0
 90
        0
 40
-0.6
 41
-30.0
 62
     5
 63
     7
 74
     1
 91
        4
 64
     7
 65
   257
 75
     1
175
     1
 42
1.0
 92
        8
 66
     7
 43
1.0
 76
     1
 77
     6
 78
     2
 67
     7
 79
     5
170
     0
171
     0
290
     0
174
     0
 93
        1
 44
-50.0
173
     0
291
     1
 45
0.0
1001
ACAD
1000
AcDbSavedByObjectVersion
1070
     0
  0
VISUALSTYLE
  5
41
102
{ACAD_XDICTIONARY
360
100A
102
}
102
{ACAD_REACTORS
330
29
102
}
330
29
100
AcDbVisualStyle
  2
EdgeColorOff
 70
    22
 71
     2
 72
     2
 73
     0
 90
        0
 40
-0.6
 41
-30.0
 62
     5
 63
     7
 74
     1
 91
        4
 64
     7
 65
   257
 75
     1
175
     1
 42
1.0
 92
        8
 66
     7
 43
1.0
 76
     1
 77
     6
 78
     2
 67
     7
 79
     5
170
     0
171
     0
290
     0
174
     0
 93
        1
 44
0.0
173
     0
291
     1
 45
0.0
1001
ACAD
1000
AcDbSavedByObjectVersion
1070
     0
  0
VISUALSTYLE
  5
38
102
{ACAD_XDICTIONARY
360
FF8
102
}
102
{ACAD_REACTORS
330
29
102
}
330
29
100
AcDbVisualStyle
  2
Facepattern
 70
    15
 71
     2
 72
     2
 73
     0
 90
        0
 40
-0.6
 41
-30.0
 62
     5
 63
     7
 74
     1
 91
        4
 64
     7
 65
   257
 75
     1
175
     1
 42
1.0
 92
        8
 66
     7
 43
1.0
 76
     1
 77
     6
 78
     2
 67
     7
 79
     5
170
     0
171
     0
290
     0
174
     0
 93
        1
 44
0.0
173
     0
291
     1
 45
0.0
1001
ACAD
1000
AcDbSavedByObjectVersion
1070
     0
  0
VISUALSTYLE
  5
2A
102
{ACAD_XDICTIONARY
360
FDC
102
}
102
{ACAD_REACTORS
330
29
102
}
330
29
100
AcDbVisualStyle
  2
Flat
 70
     0
 71
     2
 72
     1
 73
     1
 90
        2
 40
-0.6
 41
30.0
 62
     5
 63
     7
 74
     0
 91
        0
 64
     7
 65
   257
 75
     1
175
     1
 42
1.0
 92
        8
 66
     7
 43
1.0
 76
     1
 77
     6
 78
     2
 67
     7
 79
     5
170
     0
171
     0
290
     0
174
     0
 93
       13
 44
0.0
173
     0
291
     1
 45
0.0
1001
ACAD
1000
AcDbSavedByObjectVersion
1070
     0
  0
VISUALSTYLE
  5
2B
102
{ACAD_XDICTIONARY
360
FDE
102
}
102
{ACAD_REACTORS
330
29
102
}
330
29
100
AcDbVisualStyle
  2
FlatWithEdges
 70
     1
 71
     2
 72
     1
 73
     1
 90
        2
 40
-0.6
 41
30.0
 62
     5
 63
     7
 74
     1
 91
        0
 64
     7
 65
   257
 75
     1
175
     1
 42
1.0
 92
        0
 66
   257
 43
1.0
 76
     1
 77
     6
 78
     2
 67
     7
 79
     5
170
     0
171
     0
290
     0
174
     0
 93
       13
 44
0.0
173
     0
291
     1
 45
0.0
1001
ACAD
1000
AcDbSavedByObjectVersion
1070
     0
  0
VISUALSTYLE
  5
2C
102
{ACAD_XDICTIONARY
360
FE0
102
}
102
{ACAD_REACTORS
330
29
102
}
330
29
100
AcDbVisualStyle
  2
Gouraud
 70
     2
 71
     2
 72
     2
 73
     1
 90
        2
 40
-0.6
 41
30.0
 62
     5
 63
     7
 74
     0
 91
        0
 64
     7
 65
   257
 75
     1
175
     1
 42
1.0
 92
        0
 66
     7
 43
1.0
 76
     1
 77
     6
 78
     2
 67
     7
 79
     5
170
     0
171
     0
290
     0
174
     0
 93
       13
 44
0.0
173
     0
291
     1
 45
0.0
1001
ACAD
1000
AcDbSavedByObjectVersion
1070
     0
  0
VISUALSTYLE
  5
2D
102
{ACAD_XDICTIONARY
360
FE2
102
}
102
{ACAD_REACTORS
330
29
102
}
330
29
100
AcDbVisualStyle
  2
GouraudWithEdges
 70
     3
 71
     2
 72
     2
 73
     1
 90
        2
 40
-0.6
 41
30.0
 62
     5
 63
     7
 74
     1
 91
        0
 64
     7
 65
   257
 75
     1
175
     1
 42
1.0
 92
        0
 66
   257
 43
1.0
 76
     1
 77
     6
 78
     2
 67
     7
 79
     5
170
     0
171
     0
290
     0
174
     0
 93
       13
 44
0.0
173
     0
291
     1
 45
0.0
1001
ACAD
1000
AcDbSavedByObjectVersion
1070
     0
  0
VISUALSTYLE
  5
31
102
{ACAD_XDICTIONARY
360
FEA
102
}
102
{ACAD_REACTORS
330
29
102
}
330
29
100
AcDbVisualStyle
  2
Hidden
 70
     6
 71
     1
 72
     2
 73
     2
 90
        0
 40
-0.6
 41
-30.0
 62
     5
 63
     7
 74
     2
 91
        2
 64
     7
 65
   257
 75
     2
175
     1
 42
40.0
 92
        0
 66
   257
 43
1.0
 76
     1
 77
     6
 78
     2
 67
     7
 79
     3
170
     0
171
     0
290
     0
174
     0
 93
        1
 44
0.0
173
     0
291
     0
 45
0.0
1001
ACAD
1000
AcDbSavedByObjectVersion
1070
     0
  0
VISUALSTYLE
  5
3F
102
{ACAD_XDICTIONARY
360
1006
102
}
102
{ACAD_REACTORS
330
29
102
}
330
29
100
AcDbVisualStyle
  2
JitterOff
 70
    20
 71
     2
 72
     2
 73
     0
 90
        0
 40
-0.6
 41
-30.0
 62
     5
 63
     7
 74
     1
 91
        4
 64
     7
 65
   257
 75
     1
175
     1
 42
1.0
 92
       10
 66
     7
 43
1.0
 76
     1
 77
     6
 78
     2
 67
     7
 79
     5
170
     0
171
     0
290
     0
174
     0
 93
        1
 44
0.0
173
     0
291
     1
 45
0.0
1001
ACAD
1000
AcDbSavedByObjectVersion
1070
     0
  0
VISUALSTYLE
  5
37
102
{ACAD_XDICTIONARY
360
FF6
102
}
102
{ACAD_REACTORS
330
29
102
}
330
29
100
AcDbVisualStyle
  2
Linepattern
 70
    14
 71
     2
 72
     2
 73
     0
 90
        0
 40
-0.6
 41
-30.0
 62
     5
 63
     7
 74
     1
 91
        4
 64
     7
 65
   257
 75
     7
175
     7
 42
1.0
 92
        8
 66
     7
 43
1.0
 76
     1
 77
     6
 78
     2
 67
     7
 79
     5
170
     0
171
     0
290
     0
174
     0
 93
        1
 44
0.0
173
     0
291
     1
 45
0.0
1001
ACAD
1000
AcDbSavedByObjectVersion
1070
     0
  0
VISUALSTYLE
  5
40
102
{ACAD_XDICTIONARY
360
1008
102
}
102
{ACAD_REACTORS
330
29
102
}
330
29
100
AcDbVisualStyle
  2
OverhangOff
 70
    21
 71
     2
 72
     2
 73
     0
 90
        0
 40
-0.6
 41
-30.0
 62
     5
 63
     7
 74
     1
 91
        4
 64
     7
 65
   257
 75
     1
175
     1
 42
1.0
 92
        9
 66
     7
 43
1.0
 76
     1
 77
     6
 78
     2
 67
     7
 79
     5
170
     0
171
     0
290
     0
174
     0
 93
        1
 44
0.0
173
     0
291
     1
 45
0.0
1001
ACAD
1000
AcDbSavedByObjectVersion
1070
     0
  0
VISUALSTYLE
  5
33
102
{ACAD_XDICTIONARY
360
FEE
102
}
102
{ACAD_REACTORS
330
29
102
}
330
29
100
AcDbVisualStyle
  2
Realistic
 70
     8
 71
     2
 72
     2
 73
     0
 90
        2
 40
-0.6
 41
30.0
 62
     5
 63
     7
 74
     0
 91
        0
 64
     7
 65
   257
 75
     1
175
     1
 42
1.0
 92
        8
 66
   257
 43
1.0
 76
     1
 77
     6
 78
     2
 67
     7
 79
     3
170
     0
171
     0
290
     0
174
     0
 93
       13
 44
0.0
173
     0
291
     0
 45
0.0
1001
ACAD
1000
AcDbSavedByObjectVersion
1070
     0
  0
VISUALSTYLE
  5
3E
102
{ACAD_XDICTIONARY
360
1004
102
}
102
{ACAD_REACTORS
330
29
102
}
330
29
100
AcDbVisualStyle
  2
Shaded
 70
    27
 71
     2
 72
     2
 73
     1
 90
        2
 40
-0.6
 41
30.0
 62
     5
 63
     7
 74
     0
 91
        4
 64
     7
 65
   257
 75
     1
175
     1
 42
1.0
 92
        8
 66
   257
 43
1.0
 76
     1
 77
     6
 78
     2
 67
     8
 79
     3
170
     0
171
     0
290
     0
174
     0
 93
        5
 44
0.0
173
     0
291
     0
 45
0.0
1001
ACAD
1000
AcDbSavedByObjectVersion
1070
     0
  0
VISUALSTYLE
  5
3D
102
{ACAD_XDICTIONARY
360
1002
102
}
102
{ACAD_REACTORS
330
29
102
}
330
29
100
AcDbVisualStyle
  2
Shaded with edges
 70
    26
 71
     2
 72
     2
 73
     1
 90
        2
 40
-0.6
 41
30.0
 62
     5
 63
     7
 74
     1
 91
       10
 64
     7
 65
   257
 75
     2
175
     1
 42
1.0
 92
        8
 66
   257
 43
1.0
 76
     1
 77
     6
 78
     2
 67
     7
 79
     3
170
     0
171
     0
290
     0
174
     0
 93
        5
 44
0.0
173
     0
291
     0
 45
0.0
1001
ACAD
1000
AcDbSavedByObjectVersion
1070
     0
  0
VISUALSTYLE
  5
3A
102
{ACAD_XDICTIONARY
360
FFC
102
}
102
{ACAD_REACTORS
330
29
102
}
330
29
100
AcDbVisualStyle
  2
Shades of Gray
 70
    23
 71
     2
 72
     2
 73
     3
 90
        0
 40
-0.6
 41
-30.0
 62
     5
 63
     7
 74
     2
 91
        2
 64
     7
 65
     7
 75
     1
175
     1
 42
40.0
 92
        8
 66
     7
 43
1.0
 76
     1
 77
     6
 78
     2
 67
     7
 79
     3
170
     0
171
     0
290
     0
174
     0
 93
        1
 44
0.0
173
     0
291
     0
 45
0.0
1001
ACAD
1000
AcDbSavedByObjectVersion
1070
     0
  0
VISUALSTYLE
  5
3B
102
{ACAD_XDICTIONARY
360
FFE
102
}
102
{ACAD_REACTORS
330
29
102
}
330
29
100
AcDbVisualStyle
  2
Sketchy
 70
    24
 71
     1
 72
     2
 73
     2
 90
        0
 40
-0.6
 41
-30.0
 62
     5
 63
     7
 74
     2
 91
        2
 64
     7
 65
     7
 75
     1
175
     1
 42
40.0
 92
       11
 66
     7
 43
1.0
 76
     1
 77
     6
 78
     2
 67
     7
 79
     6
170
     0
171
     0
290
     0
174
     0
 93
        1
 44
0.0
173
     0
291
     0
 45
0.0
1001
ACAD
1000
AcDbSavedByObjectVersion
1070
     0
  0
VISUALSTYLE
  5
36
102
{ACAD_XDICTIONARY
360
FF4
102
}
102
{ACAD_REACTORS
330
29
102
}
330
29
100
AcDbVisualStyle
  2
Thicken
 70
    13
 71
     2
 72
     2
 73
     0
 90
        0
 40
-0.6
 41
-30.0
 62
     5
 63
     7
 74
     1
 91
        4
 64
     7
 65
   257
 75
     1
175
     1
 42
1.0
 92
       12
 66
     7
 43
1.0
 76
     1
 77
     6
 78
     2
 67
     7
 79
     5
170
     0
171
     0
290
     0
174
     0
 93
        1
 44
0.0
173
     0
291
     1
 45
0.0
1001
ACAD
1000
AcDbSavedByObjectVersion
1070
     0
  0
VISUALSTYLE
  5
30
102
{ACAD_XDICTIONARY
360
FE8
102
}
102
{ACAD_REACTORS
330
29
102
}
330
29
100
AcDbVisualStyle
  2
Wireframe
 70
     5
 71
     0
 72
     2
 73
     0
 90
        0
 40
-0.6
 41
-30.0
 62
     5
 63
     7
 74
     1
 91
        4
 64
     7
 65
   257
 75
     1
175
     1
 42
1.0
 92
        0
 66
   257
 43
1.0
 76
     1
 77
     6
 78
     2
 67
     7
 79
     3
170
     0
171
     0
290
     0
174
     0
 93
        1
 44
0.0
173
     0
291
     0
 45
0.0
1001
ACAD
1000
AcDbSavedByObjectVersion
1070
     0
  0
VISUALSTYLE
  5
3C
102
{ACAD_XDICTIONARY
360
1000
102
}
102
{ACAD_REACTORS
330
29
102
}
330
29
100
AcDbVisualStyle
  2
X-Ray
 70
    25
 71
     2
 72
     2
 73
     1
 90
        1
 40
0.5
 41
-30.0
 62
     5
 63
     7
 74
     1
 91
        0
 64
     7
 65
   257
 75
     1
175
     1
 42
1.0
 92
        8
 66
     7
 43
1.0
 76
     1
 77
     6
 78
     2
 67
     7
 79
     3
170
     0
171
     0
290
     0
174
     0
 93
       13
 44
0.0
173
     0
291
     0
 45
0.0
1001
ACAD
1000
AcDbSavedByObjectVersion
1070
     0
  0
DICTIONARYVAR
  5
FAB
102
{ACAD_REACTORS
330
FA7
102
}
330
FA7
100
DictionaryVariables
280
     0
  1
1:1
  0
DICTIONARYVAR
  5
FA9
102
{ACAD_REACTORS
330
FA7
102
}
330
FA7
100
DictionaryVariables
280
     0
  1
STANDARD
  0
DICTIONARYVAR
  5
FA8
102
{ACAD_REACTORS
330
FA7
102
}
330
FA7
100
DictionaryVariables
280
     0
  1
STANDARD
  0
DICTIONARYVAR
  5
FB2
102
{ACAD_REACTORS
330
FA7
102
}
330
FA7
100
DictionaryVariables
280
     0
  1
1
  0
DICTIONARYVAR
  5
FB1
102
{ACAD_REACTORS
330
FA7
102
}
330
FA7
100
DictionaryVariables
280
     0
  1
1
  0
DICTIONARYVAR
  5
FB0
102
{ACAD_REACTORS
330
FA7
102
}
330
FA7
100
DictionaryVariables
280
     0
  1
0
  0
DICTIONARYVAR
  5
FAD
102
{ACAD_REACTORS
330
FA7
102
}
330
FA7
100
DictionaryVariables
280
     0
  1
0
  0
DICTIONARYVAR
  5
FAE
102
{ACAD_REACTORS
330
FA7
102
}
330
FA7
100
DictionaryVariables
280
     0
  1
0
  0
DICTIONARYVAR
  5
FAC
102
{ACAD_REACTORS
330
FA7
102
}
330
FA7
100
DictionaryVariables
280
     0
  1
2
  0
DICTIONARYVAR
  5
FAA
102
{ACAD_REACTORS
330
FA7
102
}
330
FA7
100
DictionaryVariables
280
     0
  1
1
  0
DICTIONARYVAR
  5
FAF
102
{ACAD_REACTORS
330
FA7
102
}
330
FA7
100
DictionaryVariables
280
     0
  1
127
  0
DICTIONARYVAR
  5
FC9
102
{ACAD_REACTORS
330
FA7
102
}
330
FA7
100
DictionaryVariables
280
     0
  1
2
  0
DICTIONARY
  5
100D
330
6B
100
AcDbDictionary
280
     1
281
     1
  3
ACAD_XREC_ROUNDTRIP
360
100E
  0
DICTIONARY
  5
1011
330
73
100
AcDbDictionary
280
     1
281
     1
  3
ACAD_XREC_ROUNDTRIP
360
1012
  0
DICTIONARY
  5
100F
330
6F
100
AcDbDictionary
280
     1
281
     1
  3
ACAD_XREC_ROUNDTRIP
360
1010
  0
DICTIONARY
  5
1A
330
19
100
AcDbDictionary
280
     1
281
     1
  3
ACAD_XREC_ROUNDTRIP
360
FDA
  3
BUMPTILE
360
1C
  3
DIFFUSETILE
360
1B
  3
OPACITYTILE
360
1F
  3
REFLECTIONTILE
360
1E
  3
REFRACTIONTILE
360
20
  3
SPECULARTILE
360
1D
  0
DICTIONARY
  5
12
330
11
100
AcDbDictionary
280
     1
281
     1
  3
ACAD_XREC_ROUNDTRIP
360
FD9
  3
BUMPTILE
360
14
  3
DIFFUSETILE
360
13
  3
OPACITYTILE
360
17
  3
REFLECTIONTILE
360
16
  3
REFRACTIONTILE
360
18
  3
SPECULARTILE
360
15
  0
DICTIONARY
  5
22
330
21
100
AcDbDictionary
280
     1
281
     1
  3
ACAD_XREC_ROUNDTRIP
360
FDB
  3
BUMPTILE
360
24
  3
DIFFUSETILE
360
23
  3
OPACITYTILE
360
27
  3
REFLECTIONTILE
360
26
  3
REFRACTIONTILE
360
28
  3
SPECULARTILE
360
25
  0
DICTIONARY
  5
F46
330
65
100
AcDbDictionary
280
     1
281
     1
  3
ACAD_ROUNDTRIP_2008_TABLESTYLE_CELLSTYLEMAP
360
FCA
  3
ACAD_XREC_ROUNDTRIP
360
100C
  0
DICTIONARY
  5
FE6
330
2F
100
AcDbDictionary
280
     1
281
     1
  3
ACAD_XREC_ROUNDTRIP
360
FE7
  0
DICTIONARY
  5
FE4
330
2E
100
AcDbDictionary
280
     1
281
     1
  3
ACAD_XREC_ROUNDTRIP
360
FE5
  0
DICTIONARY
  5
FF2
330
35
100
AcDbDictionary
280
     1
281
     1
  3
ACAD_XREC_ROUNDTRIP
360
FF3
  0
DICTIONARY
  5
FFA
330
39
100
AcDbDictionary
280
     1
281
     1
  3
ACAD_XREC_ROUNDTRIP
360
FFB
  0
DICTIONARY
  5
FEC
330
32
100
AcDbDictionary
280
     1
281
     1
  3
ACAD_XREC_ROUNDTRIP
360
FED
  0
DICTIONARY
  5
FF0
330
34
100
AcDbDictionary
280
     1
281
     1
  3
ACAD_XREC_ROUNDTRIP
360
FF1
  0
DICTIONARY
  5
100A
330
41
100
AcDbDictionary
280
     1
281
     1
  3
ACAD_XREC_ROUNDTRIP
360
100B
  0
DICTIONARY
  5
FF8
330
38
100
AcDbDictionary
280
     1
281
     1
  3
ACAD_XREC_ROUNDTRIP
360
FF9
  0
DICTIONARY
  5
FDC
330
2A
100
AcDbDictionary
280
     1
281
     1
  3
ACAD_XREC_ROUNDTRIP
360
FDD
  0
DICTIONARY
  5
FDE
330
2B
100
AcDbDictionary
280
     1
281
     1
  3
ACAD_XREC_ROUNDTRIP
360
FDF
  0
DICTIONARY
  5
FE0
330
2C
100
AcDbDictionary
280
     1
281
     1
  3
ACAD_XREC_ROUNDTRIP
360
FE1
  0
DICTIONARY
  5
FE2
330
2D
100
AcDbDictionary
280
     1
281
     1
  3
ACAD_XREC_ROUNDTRIP
360
FE3
  0
DICTIONARY
  5
FEA
330
31
100
AcDbDictionary
280
     1
281
     1
  3
ACAD_XREC_ROUNDTRIP
360
FEB
  0
DICTIONARY
  5
1006
330
3F
100
AcDbDictionary
280
     1
281
     1
  3
ACAD_XREC_ROUNDTRIP
360
1007
  0
DICTIONARY
  5
FF6
330
37
100
AcDbDictionary
280
     1
281
     1
  3
ACAD_XREC_ROUNDTRIP
360
FF7
  0
DICTIONARY
  5
1008
330
40
100
AcDbDictionary
280
     1
281
     1
  3
ACAD_XREC_ROUNDTRIP
360
1009
  0
DICTIONARY
  5
FEE
330
33
100
AcDbDictionary
280
     1
281
     1
  3
ACAD_XREC_ROUNDTRIP
360
FEF
  0
DICTIONARY
  5
1004
330
3E
100
AcDbDictionary
280
     1
281
     1
  3
ACAD_XREC_ROUNDTRIP
360
1005
  0
DICTIONARY
  5
1002
330
3D
100
AcDbDictionary
280
     1
281
     1
  3
ACAD_XREC_ROUNDTRIP
360
1003
  0
DICTIONARY
  5
FFC
330
3A
100
AcDbDictionary
280
     1
281
     1
  3
ACAD_XREC_ROUNDTRIP
360
FFD
  0
DICTIONARY
  5
FFE
330
3B
100
AcDbDictionary
280
     1
281
     1
  3
ACAD_XREC_ROUNDTRIP
360
FFF
  0
DICTIONARY
  5
FF4
330
36
100
AcDbDictionary
280
     1
281
     1
  3
ACAD_XREC_ROUNDTRIP
360
FF5
  0
DICTIONARY
  5
FE8
330
30
100
AcDbDictionary
280
     1
281
     1
  3
ACAD_XREC_ROUNDTRIP
360
FE9
  0
DICTIONARY
  5
1000
330
3C
100
AcDbDictionary
280
     1
281
     1
  3
ACAD_XREC_ROUNDTRIP
360
1001
  0
XRECORD
  5
100E
102
{ACAD_REACTORS
330
100D
102
}
330
100D
100
AcDbXrecord
280
     1
102
SHADEPLOT
 70
     0
102
SHADEPLOTRESLEVEL
 70
     2
102
SHADEPLOTCUSTOMDPI
 70
   300
  0
XRECORD
  5
1012
102
{ACAD_REACTORS
330
1011
102
}
330
1011
100
AcDbXrecord
280
     1
102
SHADEPLOT
 70
     0
102
SHADEPLOTRESLEVEL
 70
     2
102
SHADEPLOTCUSTOMDPI
 70
   300
  0
XRECORD
  5
1010
102
{ACAD_REACTORS
330
100F
102
}
330
100F
100
AcDbXrecord
280
     1
102
SHADEPLOT
 70
     0
102
SHADEPLOTRESLEVEL
 70
     2
102
SHADEPLOTCUSTOMDPI
 70
   300
  0
XRECORD
  5
FDA
102
{ACAD_REACTORS
330
1A
102
}
330
1A
100
AcDbXrecord
280
     1
102
MATERIAL
148
0.0
149
0.0
149
0.0
 93
        0
 94
      127
282
     0
 72
     0
 77
     0
171
     0
175
     0
179
     0
273
     0
  0
XRECORD
  5
1C
102
{ACAD_REACTORS
330
1A
102
}
330
1A
100
AcDbXrecord
280
     1
270
     1
271
     1
  0
XRECORD
  5
1B
102
{ACAD_REACTORS
330
1A
102
}
330
1A
100
AcDbXrecord
280
     1
270
     1
271
     1
  0
XRECORD
  5
1F
102
{ACAD_REACTORS
330
1A
102
}
330
1A
100
AcDbXrecord
280
     1
270
     1
271
     1
  0
XRECORD
  5
1E
102
{ACAD_REACTORS
330
1A
102
}
330
1A
100
AcDbXrecord
280
     1
270
     1
271
     1
  0
XRECORD
  5
20
102
{ACAD_REACTORS
330
1A
102
}
330
1A
100
AcDbXrecord
280
     1
270
     1
271
     1
  0
XRECORD
  5
1D
102
{ACAD_REACTORS
330
1A
102
}
330
1A
100
AcDbXrecord
280
     1
270
     1
271
     1
  0
XRECORD
  5
FD9
102
{ACAD_REACTORS
330
12
102
}
330
12
100
AcDbXrecord
280
     1
102
MATERIAL
148
0.0
149
0.0
149
0.0
 93
        0
 94
      127
282
     0
 72
     0
 77
     0
171
     0
175
     0
179
     0
273
     0
  0
XRECORD
  5
14
102
{ACAD_REACTORS
330
12
102
}
330
12
100
AcDbXrecord
280
     1
270
     1
271
     1
  0
XRECORD
  5
13
102
{ACAD_REACTORS
330
12
102
}
330
12
100
AcDbXrecord
280
     1
270
     1
271
     1
  0
XRECORD
  5
17
102
{ACAD_REACTORS
330
12
102
}
330
12
100
AcDbXrecord
280
     1
270
     1
271
     1
  0
XRECORD
  5
16
102
{ACAD_REACTORS
330
12
102
}
330
12
100
AcDbXrecord
280
     1
270
     1
271
     1
  0
XRECORD
  5
18
102
{ACAD_REACTORS
330
12
102
}
330
12
100
AcDbXrecord
280
     1
270
     1
271
     1
  0
XRECORD
  5
15
102
{ACAD_REACTORS
330
12
102
}
330
12
100
AcDbXrecord
280
     1
270
     1
271
     1
  0
XRECORD
  5
FDB
102
{ACAD_REACTORS
330
22
102
}
330
22
100
AcDbXrecord
280
     1
102
MATERIAL
148
0.0
149
0.0
149
0.0
 93
        0
 94
      127
282
     0
 72
     0
 77
     0
171
     0
175
     0
179
     0
273
     0
  0
XRECORD
  5
24
102
{ACAD_REACTORS
330
22
102
}
330
22
100
AcDbXrecord
280
     1
270
     1
271
     1
  0
XRECORD
  5
23
102
{ACAD_REACTORS
330
22
102
}
330
22
100
AcDbXrecord
280
     1
270
     1
271
     1
  0
XRECORD
  5
27
102
{ACAD_REACTORS
330
22
102
}
330
22
100
AcDbXrecord
280
     1
270
     1
271
     1
  0
XRECORD
  5
26
102
{ACAD_REACTORS
330
22
102
}
330
22
100
AcDbXrecord
280
     1
270
     1
271
     1
  0
XRECORD
  5
28
102
{ACAD_REACTORS
330
22
102
}
330
22
100
AcDbXrecord
280
     1
270
     1
271
     1
  0
XRECORD
  5
25
102
{ACAD_REACTORS
330
22
102
}
330
22
100
AcDbXrecord
280
     1
270
     1
271
     1
  0
CELLSTYLEMAP
  5
FCA
102
{ACAD_REACTORS
330
F46
102
}
330
F46
100
AcDbCellStyleMap
 90
        3
300
CELLSTYLE
  1
TABLEFORMAT_BEGIN
 90
        5
170
     1
 91
        0
 92
    32768
 62
   257
 93
        1
300
CONTENTFORMAT
  1
CONTENTFORMAT_BEGIN
 90
        0
 91
        0
 92
      512
 93
        0
300

 40
0.0
140
1.0
 94
        5
 62
     0
340
55
144
0.25
309
CONTENTFORMAT_END
171
     0
 94
        0
309
TABLEFORMAT_END
  1
CELLSTYLE_BEGIN
 90
        1
 91
        1
300
_TITLE
309
CELLSTYLE_END
300
CELLSTYLE
  1
TABLEFORMAT_BEGIN
 90
        5
170
     1
 91
        0
 92
        0
 62
   257
 93
        1
300
CONTENTFORMAT
  1
CONTENTFORMAT_BEGIN
 90
        0
 91
        0
 92
      512
 93
        0
300

 40
0.0
140
1.0
 94
        5
 62
     0
340
55
144
0.18
309
CONTENTFORMAT_END
171
     0
 94
        0
309
TABLEFORMAT_END
  1
CELLSTYLE_BEGIN
 90
        2
 91
        1
300
_HEADER
309
CELLSTYLE_END
300
CELLSTYLE
  1
TABLEFORMAT_BEGIN
 90
        5
170
     1
 91
        0
 92
        0
 62
   257
 93
        1
300
CONTENTFORMAT
  1
CONTENTFORMAT_BEGIN
 90
        0
 91
        0
 92
      512
 93
        0
300

 40
0.0
140
1.0
 94
        2
 62
     0
340
55
144
0.18
309
CONTENTFORMAT_END
171
     0
 94
        0
309
TABLEFORMAT_END
  1
CELLSTYLE_BEGIN
 90
        3
 91
        2
300
_DATA
309
CELLSTYLE_END
  0
XRECORD
  5
100C
102
{ACAD_REACTORS
330
F46
102
}
330
F46
100
AcDbXrecord
280
     1
102
ACAD_ROUNDTRIP_PRE2007_TABLESTYLE
 90
      512
 91
        0
  1

 92
      512
 93
        0
  2

 94
      512
 95
        0
  3

  0
XRECORD
  5
FE7
102
{ACAD_REACTORS
330
FE6
102
}
330
FE6
100
AcDbXrecord
280
     1
102
RTVSPropertyOp0
 70
     1
102
RTVSPropertyOp1
 70
     1
102
RTVSPropertyOp2
 70
     1
102
RTVSPropertyOp3
 70
     1
102
RTVSPropertyOp4
 70
     1
102
RTVSPropertyOp5
 70
     1
102
RTVSPropertyOp6
 70
     1
102
RTVSPropertyOp7
 70
     1
102
RTVSPropertyOp8
 70
     1
102
RTVSPropertyOp9
 70
     1
102
RTVSPropertyOp10
 70
     1
102
RTVSPropertyOp11
 70
     1
102
RTVSPropertyOp12
 70
     1
102
RTVSPropertyOp13
 70
     1
102
RTVSPropertyOp14
 70
     1
102
RTVSPropertyOp15
 70
     1
102
RTVSPropertyOp16
 70
     1
102
RTVSPropertyOp17
 70
     1
102
RTVSPropertyOp18
 70
     1
102
RTVSPropertyOp19
 70
     1
102
RTVSPropertyOp20
 70
     1
102
RTVSPropertyOp21
 70
     1
102
RTVSPropertyOp22
 70
     1
102
RTVSPropertyOp23
 70
     1
102
RTVSPropertyOp24
 70
     1
102
RTVSPropertyOp25
 70
     1
102
RTVSPropertyOp26
 70
     1
102
RTVSPropertyOp27
 70
     1
102
RTVSPropertyOp28
 70
     1
102
RTVSPropertyOp29
 70
     1
102
RTVSPropertyOp30
 70
     1
102
RTVSPropertyOp31
 70
     1
102
RTVSPropertyOp32
 70
     1
  0
XRECORD
  5
FE5
102
{ACAD_REACTORS
330
FE4
102
}
330
FE4
100
AcDbXrecord
280
     1
102
RTVSPropertyOp0
 70
     1
102
RTVSPropertyOp1
 70
     1
102
RTVSPropertyOp2
 70
     1
102
RTVSPropertyOp3
 70
     1
102
RTVSPropertyOp4
 70
     1
102
RTVSPropertyOp5
 70
     1
102
RTVSPropertyOp6
 70
     1
102
RTVSPropertyOp7
 70
     1
102
RTVSPropertyOp8
 70
     1
102
RTVSPropertyOp9
 70
     1
102
RTVSPropertyOp10
 70
     1
102
RTVSPropertyOp11
 70
     1
102
RTVSPropertyOp12
 70
     1
102
RTVSPropertyOp13
 70
     1
102
RTVSPropertyOp14
 70
     1
102
RTVSPropertyOp15
 70
     1
102
RTVSPropertyOp16
 70
     1
102
RTVSPropertyOp17
 70
     1
102
RTVSPropertyOp18
 70
     1
102
RTVSPropertyOp19
 70
     1
102
RTVSPropertyOp20
 70
     1
102
RTVSPropertyOp21
 70
     1
102
RTVSPropertyOp22
 70
     1
102
RTVSPropertyOp23
 70
     1
102
RTVSPropertyOp24
 70
     1
102
RTVSPropertyOp25
 70
     1
102
RTVSPropertyOp26
 70
     1
102
RTVSPropertyOp27
 70
     1
102
RTVSPropertyOp28
 70
     1
102
RTVSPropertyOp29
 70
     1
102
RTVSPropertyOp30
 70
     1
102
RTVSPropertyOp31
 70
     1
102
RTVSPropertyOp32
 70
     1
  0
XRECORD
  5
FF3
102
{ACAD_REACTORS
330
FF2
102
}
330
FF2
100
AcDbXrecord
280
     1
102
RTVSPropertyOp0
 70
     1
102
RTVSPropertyOp1
 70
     1
102
RTVSPropertyOp2
 70
     1
102
RTVSPropertyOp3
 70
     1
102
RTVSPropertyOp4
 70
     1
102
RTVSPropertyOp5
 70
     1
102
RTVSPropertyOp6
 70
     1
102
RTVSPropertyOp7
 70
     1
102
RTVSPropertyOp8
 70
     1
102
RTVSPropertyOp9
 70
     1
102
RTVSPropertyOp10
 70
     1
102
RTVSPropertyOp11
 70
     1
102
RTVSPropertyOp12
 70
     1
102
RTVSPropertyOp13
 70
     1
102
RTVSPropertyOp14
 70
     1
102
RTVSPropertyOp15
 70
     1
102
RTVSPropertyOp16
 70
     1
102
RTVSPropertyOp17
 70
     1
102
RTVSPropertyOp18
 70
     1
102
RTVSPropertyOp19
 70
     1
102
RTVSPropertyOp20
 70
     1
102
RTVSPropertyOp21
 70
     1
102
RTVSPropertyOp22
 70
     1
102
RTVSPropertyOp23
 70
     1
102
RTVSPropertyOp24
 70
     1
102
RTVSPropertyOp25
 70
     1
102
RTVSPropertyOp26
 70
     1
102
RTVSPropertyOp27
 70
     1
102
RTVSPropertyOp28
 70
     1
102
RTVSPropertyOp29
 70
     1
102
RTVSPropertyOp30
 70
     1
102
RTVSPropertyOp31
 70
     1
102
RTVSPropertyOp32
 70
     1
  0
XRECORD
  5
FFB
102
{ACAD_REACTORS
330
FFA
102
}
330
FFA
100
AcDbXrecord
280
     1
102
RTVSPropertyOp0
 70
     1
102
RTVSPropertyOp1
 70
     1
102
RTVSPropertyOp2
 70
     1
102
RTVSPropertyOp3
 70
     1
102
RTVSPropertyOp4
 70
     1
102
RTVSPropertyOp5
 70
     1
102
RTVSPropertyOp6
 70
     1
102
RTVSPropertyOp7
 70
     1
102
RTVSPropertyOp8
 70
     1
102
RTVSPropertyOp9
 70
     1
102
RTVSPropertyOp10
 70
     1
102
RTVSPropertyOp11
 70
     1
102
RTVSPropertyOp12
 70
     1
102
RTVSPropertyOp13
 70
     1
102
RTVSPropertyOp14
 70
     1
102
RTVSPropertyOp15
 70
     1
102
RTVSPropertyOp16
 70
     1
102
RTVSPropertyOp17
 70
     1
102
RTVSPropertyOp18
 70
     1
102
RTVSPropertyOp19
 70
     1
102
RTVSPropertyOp20
 70
     1
102
RTVSPropertyOp21
 70
     1
102
RTVSPropertyOp22
 70
     1
102
RTVSPropertyOp23
 70
     1
102
RTVSPropertyOp24
 70
     1
102
RTVSPropertyOp25
 70
     1
102
RTVSPropertyOp26
 70
     1
102
RTVSPropertyOp27
 70
     1
102
RTVSPropertyOp28
 70
     1
102
RTVSPropertyOp29
 70
     1
102
RTVSPropertyOp30
 70
     1
102
RTVSPropertyOp31
 70
     1
102
RTVSPropertyOp32
 70
     1
  0
XRECORD
  5
FED
102
{ACAD_REACTORS
330
FEC
102
}
330
FEC
100
AcDbXrecord
280
     1
102
RTVSPropertyOp0
 70
     1
102
RTVSPropertyOp1
 70
     1
102
RTVSPropertyOp2
 70
     1
102
RTVSPropertyOp3
 70
     1
102
RTVSPropertyOp4
 70
     1
102
RTVSPropertyOp5
 70
     1
102
RTVSPropertyOp6
 70
     1
102
RTVSPropertyOp7
 70
     1
102
RTVSPropertyOp8
 70
     1
102
RTVSPropertyOp9
 70
     1
102
RTVSPropertyOp10
 70
     1
102
RTVSPropertyOp11
 70
     1
102
RTVSPropertyOp12
 70
     1
102
RTVSPropertyOp13
 70
     1
102
RTVSPropertyOp14
 70
     1
102
RTVSPropertyOp15
 70
     1
102
RTVSPropertyOp16
 70
     1
102
RTVSPropertyOp17
 70
     1
102
RTVSPropertyOp18
 70
     1
102
RTVSPropertyOp19
 70
     1
102
RTVSPropertyOp20
 70
     1
102
RTVSPropertyOp21
 70
     1
102
RTVSPropertyOp22
 70
     1
102
RTVSPropertyOp23
 70
     1
102
RTVSPropertyOp24
 70
     1
102
RTVSPropertyOp25
 70
     1
102
RTVSPropertyOp26
 70
     1
102
RTVSPropertyOp27
 70
     1
102
RTVSPropertyOp28
 70
     1
102
RTVSPropertyOp29
 70
     1
102
RTVSPropertyOp30
 70
     1
102
RTVSPropertyOp31
 70
     1
102
RTVSPropertyOp32
 70
     1
  0
XRECORD
  5
FF1
102
{ACAD_REACTORS
330
FF0
102
}
330
FF0
100
AcDbXrecord
280
     1
102
RTVSPropertyOp0
 70
     1
102
RTVSPropertyOp1
 70
     1
102
RTVSPropertyOp2
 70
     1
102
RTVSPropertyOp3
 70
     1
102
RTVSPropertyOp4
 70
     1
102
RTVSPropertyOp5
 70
     1
102
RTVSPropertyOp6
 70
     1
102
RTVSPropertyOp7
 70
     1
102
RTVSPropertyOp8
 70
     1
102
RTVSPropertyOp9
 70
     1
102
RTVSPropertyOp10
 70
     1
102
RTVSPropertyOp11
 70
     1
102
RTVSPropertyOp12
 70
     1
102
RTVSPropertyOp13
 70
     1
102
RTVSPropertyOp14
 70
     1
102
RTVSPropertyOp15
 70
     1
102
RTVSPropertyOp16
 70
     1
102
RTVSPropertyOp17
 70
     1
102
RTVSPropertyOp18
 70
     1
102
RTVSPropertyOp19
 70
     1
102
RTVSPropertyOp20
 70
     1
102
RTVSPropertyOp21
 70
     1
102
RTVSPropertyOp22
 70
     1
102
RTVSPropertyOp23
 70
     1
102
RTVSPropertyOp24
 70
     1
102
RTVSPropertyOp25
 70
     1
102
RTVSPropertyOp26
 70
     1
102
RTVSPropertyOp27
 70
     1
102
RTVSPropertyOp28
 70
     1
102
RTVSPropertyOp29
 70
     1
102
RTVSPropertyOp30
 70
     1
102
RTVSPropertyOp31
 70
     1
102
RTVSPropertyOp32
 70
     1
  0
XRECORD
  5
100B
102
{ACAD_REACTORS
330
100A
102
}
330
100A
100
AcDbXrecord
280
     1
102
RTVSPropertyOp0
 70
     0
102
RTVSPropertyOp1
 70
     0
102
RTVSPropertyOp2
 70
     0
102
RTVSPropertyOp3
 70
     0
102
RTVSPropertyOp4
 70
     0
102
RTVSPropertyOp5
 70
     0
102
RTVSPropertyOp6
 70
     0
102
RTVSPropertyOp7
 70
     0
102
RTVSPropertyOp8
 70
     0
102
RTVSPropertyOp9
 70
     0
102
RTVSPropertyOp10
 70
     0
102
RTVSPropertyOp11
 70
     0
102
RTVSPropertyOp12
 70
     0
102
RTVSPropertyOp13
 70
     0
102
RTVSPropertyOp14
 70
     2
102
RTVSPropertyOp15
 70
     0
102
RTVSPropertyOp16
 70
     0
102
RTVSPropertyOp17
 70
     0
102
RTVSPropertyOp18
 70
     0
102
RTVSPropertyOp19
 70
     0
102
RTVSPropertyOp20
 70
     0
102
RTVSPropertyOp21
 70
     0
102
RTVSPropertyOp22
 70
     0
102
RTVSPropertyOp23
 70
     0
102
RTVSPropertyOp24
 70
     0
102
RTVSPropertyOp25
 70
     0
102
RTVSPropertyOp26
 70
     0
102
RTVSPropertyOp27
 70
     0
102
RTVSPropertyOp28
 70
     0
102
RTVSPropertyOp29
 70
     0
102
RTVSPropertyOp30
 70
     0
102
RTVSPropertyOp31
 70
     0
102
RTVSPropertyOp32
 70
     0
  0
XRECORD
  5
FF9
102
{ACAD_REACTORS
330
FF8
102
}
330
FF8
100
AcDbXrecord
280
     1
102
RTVSPropertyOp0
 70
     1
102
RTVSPropertyOp1
 70
     1
102
RTVSPropertyOp2
 70
     1
102
RTVSPropertyOp3
 70
     1
102
RTVSPropertyOp4
 70
     1
102
RTVSPropertyOp5
 70
     1
102
RTVSPropertyOp6
 70
     1
102
RTVSPropertyOp7
 70
     1
102
RTVSPropertyOp8
 70
     1
102
RTVSPropertyOp9
 70
     1
102
RTVSPropertyOp10
 70
     1
102
RTVSPropertyOp11
 70
     1
102
RTVSPropertyOp12
 70
     1
102
RTVSPropertyOp13
 70
     1
102
RTVSPropertyOp14
 70
     1
102
RTVSPropertyOp15
 70
     1
102
RTVSPropertyOp16
 70
     1
102
RTVSPropertyOp17
 70
     1
102
RTVSPropertyOp18
 70
     1
102
RTVSPropertyOp19
 70
     1
102
RTVSPropertyOp20
 70
     1
102
RTVSPropertyOp21
 70
     1
102
RTVSPropertyOp22
 70
     1
102
RTVSPropertyOp23
 70
     1
102
RTVSPropertyOp24
 70
     1
102
RTVSPropertyOp25
 70
     1
102
RTVSPropertyOp26
 70
     1
102
RTVSPropertyOp27
 70
     1
102
RTVSPropertyOp28
 70
     1
102
RTVSPropertyOp29
 70
     1
102
RTVSPropertyOp30
 70
     1
102
RTVSPropertyOp31
 70
     1
102
RTVSPropertyOp32
 70
     1
  0
XRECORD
  5
FDD
102
{ACAD_REACTORS
330
FDC
102
}
330
FDC
100
AcDbXrecord
280
     1
102
RTVSPropertyOp0
 70
     1
102
RTVSPropertyOp1
 70
     1
102
RTVSPropertyOp2
 70
     1
102
RTVSPropertyOp3
 70
     1
102
RTVSPropertyOp4
 70
     1
102
RTVSPropertyOp5
 70
     1
102
RTVSPropertyOp6
 70
     1
102
RTVSPropertyOp7
 70
     1
102
RTVSPropertyOp8
 70
     1
102
RTVSPropertyOp9
 70
     1
102
RTVSPropertyOp10
 70
     1
102
RTVSPropertyOp11
 70
     1
102
RTVSPropertyOp12
 70
     1
102
RTVSPropertyOp13
 70
     1
102
RTVSPropertyOp14
 70
     1
102
RTVSPropertyOp15
 70
     1
102
RTVSPropertyOp16
 70
     1
102
RTVSPropertyOp17
 70
     1
102
RTVSPropertyOp18
 70
     1
102
RTVSPropertyOp19
 70
     1
102
RTVSPropertyOp20
 70
     1
102
RTVSPropertyOp21
 70
     1
102
RTVSPropertyOp22
 70
     1
102
RTVSPropertyOp23
 70
     1
102
RTVSPropertyOp24
 70
     1
102
RTVSPropertyOp25
 70
     1
102
RTVSPropertyOp26
 70
     1
102
RTVSPropertyOp27
 70
     1
102
RTVSPropertyOp28
 70
     1
102
RTVSPropertyOp29
 70
     1
102
RTVSPropertyOp30
 70
     1
102
RTVSPropertyOp31
 70
     1
102
RTVSPropertyOp32
 70
     1
  0
XRECORD
  5
FDF
102
{ACAD_REACTORS
330
FDE
102
}
330
FDE
100
AcDbXrecord
280
     1
102
RTVSPropertyOp0
 70
     1
102
RTVSPropertyOp1
 70
     1
102
RTVSPropertyOp2
 70
     1
102
RTVSPropertyOp3
 70
     1
102
RTVSPropertyOp4
 70
     1
102
RTVSPropertyOp5
 70
     1
102
RTVSPropertyOp6
 70
     1
102
RTVSPropertyOp7
 70
     1
102
RTVSPropertyOp8
 70
     1
102
RTVSPropertyOp9
 70
     1
102
RTVSPropertyOp10
 70
     1
102
RTVSPropertyOp11
 70
     1
102
RTVSPropertyOp12
 70
     1
102
RTVSPropertyOp13
 70
     1
102
RTVSPropertyOp14
 70
     1
102
RTVSPropertyOp15
 70
     1
102
RTVSPropertyOp16
 70
     1
102
RTVSPropertyOp17
 70
     1
102
RTVSPropertyOp18
 70
     1
102
RTVSPropertyOp19
 70
     1
102
RTVSPropertyOp20
 70
     1
102
RTVSPropertyOp21
 70
     1
102
RTVSPropertyOp22
 70
     1
102
RTVSPropertyOp23
 70
     1
102
RTVSPropertyOp24
 70
     1
102
RTVSPropertyOp25
 70
     1
102
RTVSPropertyOp26
 70
     1
102
RTVSPropertyOp27
 70
     1
102
RTVSPropertyOp28
 70
     1
102
RTVSPropertyOp29
 70
     1
102
RTVSPropertyOp30
 70
     1
102
RTVSPropertyOp31
 70
     1
102
RTVSPropertyOp32
 70
     1
  0
XRECORD
  5
FE1
102
{ACAD_REACTORS
330
FE0
102
}
330
FE0
100
AcDbXrecord
280
     1
102
RTVSPropertyOp0
 70
     1
102
RTVSPropertyOp1
 70
     1
102
RTVSPropertyOp2
 70
     1
102
RTVSPropertyOp3
 70
     1
102
RTVSPropertyOp4
 70
     1
102
RTVSPropertyOp5
 70
     1
102
RTVSPropertyOp6
 70
     1
102
RTVSPropertyOp7
 70
     1
102
RTVSPropertyOp8
 70
     1
102
RTVSPropertyOp9
 70
     1
102
RTVSPropertyOp10
 70
     1
102
RTVSPropertyOp11
 70
     1
102
RTVSPropertyOp12
 70
     1
102
RTVSPropertyOp13
 70
     1
102
RTVSPropertyOp14
 70
     1
102
RTVSPropertyOp15
 70
     1
102
RTVSPropertyOp16
 70
     1
102
RTVSPropertyOp17
 70
     1
102
RTVSPropertyOp18
 70
     1
102
RTVSPropertyOp19
 70
     1
102
RTVSPropertyOp20
 70
     1
102
RTVSPropertyOp21
 70
     1
102
RTVSPropertyOp22
 70
     1
102
RTVSPropertyOp23
 70
     1
102
RTVSPropertyOp24
 70
     1
102
RTVSPropertyOp25
 70
     1
102
RTVSPropertyOp26
 70
     1
102
RTVSPropertyOp27
 70
     1
102
RTVSPropertyOp28
 70
     1
102
RTVSPropertyOp29
 70
     1
102
RTVSPropertyOp30
 70
     1
102
RTVSPropertyOp31
 70
     1
102
RTVSPropertyOp32
 70
     1
  0
XRECORD
  5
FE3
102
{ACAD_REACTORS
330
FE2
102
}
330
FE2
100
AcDbXrecord
280
     1
102
RTVSPropertyOp0
 70
     1
102
RTVSPropertyOp1
 70
     1
102
RTVSPropertyOp2
 70
     1
102
RTVSPropertyOp3
 70
     1
102
RTVSPropertyOp4
 70
     1
102
RTVSPropertyOp5
 70
     1
102
RTVSPropertyOp6
 70
     1
102
RTVSPropertyOp7
 70
     1
102
RTVSPropertyOp8
 70
     1
102
RTVSPropertyOp9
 70
     1
102
RTVSPropertyOp10
 70
     1
102
RTVSPropertyOp11
 70
     1
102
RTVSPropertyOp12
 70
     1
102
RTVSPropertyOp13
 70
     1
102
RTVSPropertyOp14
 70
     1
102
RTVSPropertyOp15
 70
     1
102
RTVSPropertyOp16
 70
     1
102
RTVSPropertyOp17
 70
     1
102
RTVSPropertyOp18
 70
     1
102
RTVSPropertyOp19
 70
     1
102
RTVSPropertyOp20
 70
     1
102
RTVSPropertyOp21
 70
     1
102
RTVSPropertyOp22
 70
     1
102
RTVSPropertyOp23
 70
     1
102
RTVSPropertyOp24
 70
     1
102
RTVSPropertyOp25
 70
     1
102
RTVSPropertyOp26
 70
     1
102
RTVSPropertyOp27
 70
     1
102
RTVSPropertyOp28
 70
     1
102
RTVSPropertyOp29
 70
     1
102
RTVSPropertyOp30
 70
     1
102
RTVSPropertyOp31
 70
     1
102
RTVSPropertyOp32
 70
     1
  0
XRECORD
  5
FEB
102
{ACAD_REACTORS
330
FEA
102
}
330
FEA
100
AcDbXrecord
280
     1
102
RTVSPropertyOp0
 70
     1
102
RTVSPropertyOp1
 70
     1
102
RTVSPropertyOp2
 70
     1
102
RTVSPropertyOp3
 70
     1
102
RTVSPropertyOp4
 70
     1
102
RTVSPropertyOp5
 70
     1
102
RTVSPropertyOp6
 70
     1
102
RTVSPropertyOp7
 70
     1
102
RTVSPropertyOp8
 70
     1
102
RTVSPropertyOp9
 70
     1
102
RTVSPropertyOp10
 70
     1
102
RTVSPropertyOp11
 70
     1
102
RTVSPropertyOp12
 70
     1
102
RTVSPropertyOp13
 70
     1
102
RTVSPropertyOp14
 70
     1
102
RTVSPropertyOp15
 70
     1
102
RTVSPropertyOp16
 70
     1
102
RTVSPropertyOp17
 70
     1
102
RTVSPropertyOp18
 70
     1
102
RTVSPropertyOp19
 70
     1
102
RTVSPropertyOp20
 70
     1
102
RTVSPropertyOp21
 70
     1
102
RTVSPropertyOp22
 70
     1
102
RTVSPropertyOp23
 70
     1
102
RTVSPropertyOp24
 70
     1
102
RTVSPropertyOp25
 70
     1
102
RTVSPropertyOp26
 70
     1
102
RTVSPropertyOp27
 70
     1
102
RTVSPropertyOp28
 70
     1
102
RTVSPropertyOp29
 70
     1
102
RTVSPropertyOp30
 70
     1
102
RTVSPropertyOp31
 70
     1
102
RTVSPropertyOp32
 70
     1
  0
XRECORD
  5
1007
102
{ACAD_REACTORS
330
1006
102
}
330
1006
100
AcDbXrecord
280
     1
102
RTVSPropertyOp0
 70
     0
102
RTVSPropertyOp1
 70
     0
102
RTVSPropertyOp2
 70
     0
102
RTVSPropertyOp3
 70
     0
102
RTVSPropertyOp4
 70
     0
102
RTVSPropertyOp5
 70
     0
102
RTVSPropertyOp6
 70
     0
102
RTVSPropertyOp7
 70
     0
102
RTVSPropertyOp8
 70
     0
102
RTVSPropertyOp9
 70
     0
102
RTVSPropertyOp10
 70
     0
102
RTVSPropertyOp11
 70
     0
102
RTVSPropertyOp12
 70
     0
102
RTVSPropertyOp13
 70
     0
102
RTVSPropertyOp14
 70
     2
102
RTVSPropertyOp15
 70
     0
102
RTVSPropertyOp16
 70
     0
102
RTVSPropertyOp17
 70
     0
102
RTVSPropertyOp18
 70
     0
102
RTVSPropertyOp19
 70
     0
102
RTVSPropertyOp20
 70
     0
102
RTVSPropertyOp21
 70
     0
102
RTVSPropertyOp22
 70
     0
102
RTVSPropertyOp23
 70
     0
102
RTVSPropertyOp24
 70
     0
102
RTVSPropertyOp25
 70
     0
102
RTVSPropertyOp26
 70
     0
102
RTVSPropertyOp27
 70
     0
102
RTVSPropertyOp28
 70
     0
102
RTVSPropertyOp29
 70
     0
102
RTVSPropertyOp30
 70
     0
102
RTVSPropertyOp31
 70
     0
102
RTVSPropertyOp32
 70
     0
  0
XRECORD
  5
FF7
102
{ACAD_REACTORS
330
FF6
102
}
330
FF6
100
AcDbXrecord
280
     1
102
RTVSPropertyOp0
 70
     1
102
RTVSPropertyOp1
 70
     1
102
RTVSPropertyOp2
 70
     1
102
RTVSPropertyOp3
 70
     1
102
RTVSPropertyOp4
 70
     1
102
RTVSPropertyOp5
 70
     1
102
RTVSPropertyOp6
 70
     1
102
RTVSPropertyOp7
 70
     1
102
RTVSPropertyOp8
 70
     1
102
RTVSPropertyOp9
 70
     1
102
RTVSPropertyOp10
 70
     1
102
RTVSPropertyOp11
 70
     1
102
RTVSPropertyOp12
 70
     1
102
RTVSPropertyOp13
 70
     1
102
RTVSPropertyOp14
 70
     1
102
RTVSPropertyOp15
 70
     1
102
RTVSPropertyOp16
 70
     1
102
RTVSPropertyOp17
 70
     1
102
RTVSPropertyOp18
 70
     1
102
RTVSPropertyOp19
 70
     1
102
RTVSPropertyOp20
 70
     1
102
RTVSPropertyOp21
 70
     1
102
RTVSPropertyOp22
 70
     1
102
RTVSPropertyOp23
 70
     1
102
RTVSPropertyOp24
 70
     1
102
RTVSPropertyOp25
 70
     1
102
RTVSPropertyOp26
 70
     1
102
RTVSPropertyOp27
 70
     1
102
RTVSPropertyOp28
 70
     1
102
RTVSPropertyOp29
 70
     1
102
RTVSPropertyOp30
 70
     1
102
RTVSPropertyOp31
 70
     1
102
RTVSPropertyOp32
 70
     1
  0
XRECORD
  5
1009
102
{ACAD_REACTORS
330
1008
102
}
330
1008
100
AcDbXrecord
280
     1
102
RTVSPropertyOp0
 70
     0
102
RTVSPropertyOp1
 70
     0
102
RTVSPropertyOp2
 70
     0
102
RTVSPropertyOp3
 70
     0
102
RTVSPropertyOp4
 70
     0
102
RTVSPropertyOp5
 70
     0
102
RTVSPropertyOp6
 70
     0
102
RTVSPropertyOp7
 70
     0
102
RTVSPropertyOp8
 70
     0
102
RTVSPropertyOp9
 70
     0
102
RTVSPropertyOp10
 70
     0
102
RTVSPropertyOp11
 70
     0
102
RTVSPropertyOp12
 70
     0
102
RTVSPropertyOp13
 70
     0
102
RTVSPropertyOp14
 70
     2
102
RTVSPropertyOp15
 70
     0
102
RTVSPropertyOp16
 70
     0
102
RTVSPropertyOp17
 70
     0
102
RTVSPropertyOp18
 70
     0
102
RTVSPropertyOp19
 70
     0
102
RTVSPropertyOp20
 70
     0
102
RTVSPropertyOp21
 70
     0
102
RTVSPropertyOp22
 70
     0
102
RTVSPropertyOp23
 70
     0
102
RTVSPropertyOp24
 70
     0
102
RTVSPropertyOp25
 70
     0
102
RTVSPropertyOp26
 70
     0
102
RTVSPropertyOp27
 70
     0
102
RTVSPropertyOp28
 70
     0
102
RTVSPropertyOp29
 70
     0
102
RTVSPropertyOp30
 70
     0
102
RTVSPropertyOp31
 70
     0
102
RTVSPropertyOp32
 70
     0
  0
XRECORD
  5
FEF
102
{ACAD_REACTORS
330
FEE
102
}
330
FEE
100
AcDbXrecord
280
     1
102
RTVSPropertyOp0
 70
     1
102
RTVSPropertyOp1
 70
     1
102
RTVSPropertyOp2
 70
     1
102
RTVSPropertyOp3
 70
     1
102
RTVSPropertyOp4
 70
     1
102
RTVSPropertyOp5
 70
     1
102
RTVSPropertyOp6
 70
     1
102
RTVSPropertyOp7
 70
     1
102
RTVSPropertyOp8
 70
     1
102
RTVSPropertyOp9
 70
     1
102
RTVSPropertyOp10
 70
     1
102
RTVSPropertyOp11
 70
     1
102
RTVSPropertyOp12
 70
     1
102
RTVSPropertyOp13
 70
     1
102
RTVSPropertyOp14
 70
     1
102
RTVSPropertyOp15
 70
     1
102
RTVSPropertyOp16
 70
     1
102
RTVSPropertyOp17
 70
     1
102
RTVSPropertyOp18
 70
     1
102
RTVSPropertyOp19
 70
     1
102
RTVSPropertyOp20
 70
     1
102
RTVSPropertyOp21
 70
     1
102
RTVSPropertyOp22
 70
     1
102
RTVSPropertyOp23
 70
     1
102
RTVSPropertyOp24
 70
     1
102
RTVSPropertyOp25
 70
     1
102
RTVSPropertyOp26
 70
     1
102
RTVSPropertyOp27
 70
     1
102
RTVSPropertyOp28
 70
     1
102
RTVSPropertyOp29
 70
     1
102
RTVSPropertyOp30
 70
     1
102
RTVSPropertyOp31
 70
     1
102
RTVSPropertyOp32
 70
     1
  0
XRECORD
  5
1005
102
{ACAD_REACTORS
330
1004
102
}
330
1004
100
AcDbXrecord
280
     1
102
RTVSPropertyOp0
 70
     1
102
RTVSPropertyOp1
 70
     1
102
RTVSPropertyOp2
 70
     1
102
RTVSPropertyOp3
 70
     1
102
RTVSPropertyOp4
 70
     1
102
RTVSPropertyOp5
 70
     1
102
RTVSPropertyOp6
 70
     1
102
RTVSPropertyOp7
 70
     1
102
RTVSPropertyOp8
 70
     1
102
RTVSPropertyOp9
 70
     1
102
RTVSPropertyOp10
 70
     1
102
RTVSPropertyOp11
 70
     1
102
RTVSPropertyOp12
 70
     1
102
RTVSPropertyOp13
 70
     1
102
RTVSPropertyOp14
 70
     1
102
RTVSPropertyOp15
 70
     1
102
RTVSPropertyOp16
 70
     1
102
RTVSPropertyOp17
 70
     1
102
RTVSPropertyOp18
 70
     1
102
RTVSPropertyOp19
 70
     1
102
RTVSPropertyOp20
 70
     1
102
RTVSPropertyOp21
 70
     1
102
RTVSPropertyOp22
 70
     1
102
RTVSPropertyOp23
 70
     1
102
RTVSPropertyOp24
 70
     1
102
RTVSPropertyOp25
 70
     1
102
RTVSPropertyOp26
 70
     1
102
RTVSPropertyOp27
 70
     1
102
RTVSPropertyOp28
 70
     1
102
RTVSPropertyOp29
 70
     1
102
RTVSPropertyOp30
 70
     1
102
RTVSPropertyOp31
 70
     1
102
RTVSPropertyOp32
 70
     1
  0
XRECORD
  5
1003
102
{ACAD_REACTORS
330
1002
102
}
330
1002
100
AcDbXrecord
280
     1
102
RTVSPropertyOp0
 70
     1
102
RTVSPropertyOp1
 70
     1
102
RTVSPropertyOp2
 70
     1
102
RTVSPropertyOp3
 70
     1
102
RTVSPropertyOp4
 70
     1
102
RTVSPropertyOp5
 70
     1
102
RTVSPropertyOp6
 70
     1
102
RTVSPropertyOp7
 70
     1
102
RTVSPropertyOp8
 70
     1
102
RTVSPropertyOp9
 70
     1
102
RTVSPropertyOp10
 70
     1
102
RTVSPropertyOp11
 70
     1
102
RTVSPropertyOp12
 70
     1
102
RTVSPropertyOp13
 70
     1
102
RTVSPropertyOp14
 70
     1
102
RTVSPropertyOp15
 70
     1
102
RTVSPropertyOp16
 70
     1
102
RTVSPropertyOp17
 70
     1
102
RTVSPropertyOp18
 70
     1
102
RTVSPropertyOp19
 70
     1
102
RTVSPropertyOp20
 70
     1
102
RTVSPropertyOp21
 70
     1
102
RTVSPropertyOp22
 70
     1
102
RTVSPropertyOp23
 70
     1
102
RTVSPropertyOp24
 70
     1
102
RTVSPropertyOp25
 70
     1
102
RTVSPropertyOp26
 70
     1
102
RTVSPropertyOp27
 70
     1
102
RTVSPropertyOp28
 70
     1
102
RTVSPropertyOp29
 70
     1
102
RTVSPropertyOp30
 70
     1
102
RTVSPropertyOp31
 70
     1
102
RTVSPropertyOp32
 70
     1
  0
XRECORD
  5
FFD
102
{ACAD_REACTORS
330
FFC
102
}
330
FFC
100
AcDbXrecord
280
     1
102
RTVSPropertyOp0
 70
     1
102
RTVSPropertyOp1
 70
     1
102
RTVSPropertyOp2
 70
     1
102
RTVSPropertyOp3
 70
     1
102
RTVSPropertyOp4
 70
     1
102
RTVSPropertyOp5
 70
     1
102
RTVSPropertyOp6
 70
     1
102
RTVSPropertyOp7
 70
     1
102
RTVSPropertyOp8
 70
     1
102
RTVSPropertyOp9
 70
     1
102
RTVSPropertyOp10
 70
     1
102
RTVSPropertyOp11
 70
     1
102
RTVSPropertyOp12
 70
     1
102
RTVSPropertyOp13
 70
     1
102
RTVSPropertyOp14
 70
     1
102
RTVSPropertyOp15
 70
     1
102
RTVSPropertyOp16
 70
     1
102
RTVSPropertyOp17
 70
     1
102
RTVSPropertyOp18
 70
     1
102
RTVSPropertyOp19
 70
     1
102
RTVSPropertyOp20
 70
     1
102
RTVSPropertyOp21
 70
     1
102
RTVSPropertyOp22
 70
     1
102
RTVSPropertyOp23
 70
     1
102
RTVSPropertyOp24
 70
     1
102
RTVSPropertyOp25
 70
     1
102
RTVSPropertyOp26
 70
     1
102
RTVSPropertyOp27
 70
     1
102
RTVSPropertyOp28
 70
     1
102
RTVSPropertyOp29
 70
     1
102
RTVSPropertyOp30
 70
     1
102
RTVSPropertyOp31
 70
     1
102
RTVSPropertyOp32
 70
     1
  0
XRECORD
  5
FFF
102
{ACAD_REACTORS
330
FFE
102
}
330
FFE
100
AcDbXrecord
280
     1
102
RTVSPropertyOp0
 70
     1
102
RTVSPropertyOp1
 70
     1
102
RTVSPropertyOp2
 70
     1
102
RTVSPropertyOp3
 70
     1
102
RTVSPropertyOp4
 70
     1
102
RTVSPropertyOp5
 70
     1
102
RTVSPropertyOp6
 70
     1
102
RTVSPropertyOp7
 70
     1
102
RTVSPropertyOp8
 70
     1
102
RTVSPropertyOp9
 70
     1
102
RTVSPropertyOp10
 70
     1
102
RTVSPropertyOp11
 70
     1
102
RTVSPropertyOp12
 70
     1
102
RTVSPropertyOp13
 70
     1
102
RTVSPropertyOp14
 70
     1
102
RTVSPropertyOp15
 70
     1
102
RTVSPropertyOp16
 70
     1
102
RTVSPropertyOp17
 70
     1
102
RTVSPropertyOp18
 70
     1
102
RTVSPropertyOp19
 70
     1
102
RTVSPropertyOp20
 70
     1
102
RTVSPropertyOp21
 70
     1
102
RTVSPropertyOp22
 70
     1
102
RTVSPropertyOp23
 70
     1
102
RTVSPropertyOp24
 70
     1
102
RTVSPropertyOp25
 70
     1
102
RTVSPropertyOp26
 70
     1
102
RTVSPropertyOp27
 70
     1
102
RTVSPropertyOp28
 70
     1
102
RTVSPropertyOp29
 70
     1
102
RTVSPropertyOp30
 70
     1
102
RTVSPropertyOp31
 70
     1
102
RTVSPropertyOp32
 70
     1
  0
XRECORD
  5
FF5
102
{ACAD_REACTORS
330
FF4
102
}
330
FF4
100
AcDbXrecord
280
     1
102
RTVSPropertyOp0
 70
     1
102
RTVSPropertyOp1
 70
     1
102
RTVSPropertyOp2
 70
     1
102
RTVSPropertyOp3
 70
     1
102
RTVSPropertyOp4
 70
     1
102
RTVSPropertyOp5
 70
     1
102
RTVSPropertyOp6
 70
     1
102
RTVSPropertyOp7
 70
     1
102
RTVSPropertyOp8
 70
     1
102
RTVSPropertyOp9
 70
     1
102
RTVSPropertyOp10
 70
     1
102
RTVSPropertyOp11
 70
     1
102
RTVSPropertyOp12
 70
     1
102
RTVSPropertyOp13
 70
     1
102
RTVSPropertyOp14
 70
     1
102
RTVSPropertyOp15
 70
     1
102
RTVSPropertyOp16
 70
     1
102
RTVSPropertyOp17
 70
     1
102
RTVSPropertyOp18
 70
     1
102
RTVSPropertyOp19
 70
     1
102
RTVSPropertyOp20
 70
     1
102
RTVSPropertyOp21
 70
     1
102
RTVSPropertyOp22
 70
     1
102
RTVSPropertyOp23
 70
     1
102
RTVSPropertyOp24
 70
     1
102
RTVSPropertyOp25
 70
     1
102
RTVSPropertyOp26
 70
     1
102
RTVSPropertyOp27
 70
     1
102
RTVSPropertyOp28
 70
     1
102
RTVSPropertyOp29
 70
     1
102
RTVSPropertyOp30
 70
     1
102
RTVSPropertyOp31
 70
     1
102
RTVSPropertyOp32
 70
     1
  0
XRECORD
  5
FE9
102
{ACAD_REACTORS
330
FE8
102
}
330
FE8
100
AcDbXrecord
280
     1
102
RTVSPropertyOp0
 70
     1
102
RTVSPropertyOp1
 70
     1
102
RTVSPropertyOp2
 70
     1
102
RTVSPropertyOp3
 70
     1
102
RTVSPropertyOp4
 70
     1
102
RTVSPropertyOp5
 70
     1
102
RTVSPropertyOp6
 70
     1
102
RTVSPropertyOp7
 70
     1
102
RTVSPropertyOp8
 70
     1
102
RTVSPropertyOp9
 70
     1
102
RTVSPropertyOp10
 70
     1
102
RTVSPropertyOp11
 70
     1
102
RTVSPropertyOp12
 70
     1
102
RTVSPropertyOp13
 70
     1
102
RTVSPropertyOp14
 70
     1
102
RTVSPropertyOp15
 70
     1
102
RTVSPropertyOp16
 70
     1
102
RTVSPropertyOp17
 70
     1
102
RTVSPropertyOp18
 70
     1
102
RTVSPropertyOp19
 70
     1
102
RTVSPropertyOp20
 70
     1
102
RTVSPropertyOp21
 70
     1
102
RTVSPropertyOp22
 70
     1
102
RTVSPropertyOp23
 70
     1
102
RTVSPropertyOp24
 70
     1
102
RTVSPropertyOp25
 70
     1
102
RTVSPropertyOp26
 70
     1
102
RTVSPropertyOp27
 70
     1
102
RTVSPropertyOp28
 70
     1
102
RTVSPropertyOp29
 70
     1
102
RTVSPropertyOp30
 70
     1
102
RTVSPropertyOp31
 70
     1
102
RTVSPropertyOp32
 70
     1
  0
XRECORD
  5
1001
102
{ACAD_REACTORS
330
1000
102
}
330
1000
100
AcDbXrecord
280
     1
102
RTVSPropertyOp0
 70
     1
102
RTVSPropertyOp1
 70
     1
102
RTVSPropertyOp2
 70
     1
102
RTVSPropertyOp3
 70
     1
102
RTVSPropertyOp4
 70
     1
102
RTVSPropertyOp5
 70
     1
102
RTVSPropertyOp6
 70
     1
102
RTVSPropertyOp7
 70
     1
102
RTVSPropertyOp8
 70
     1
102
RTVSPropertyOp9
 70
     1
102
RTVSPropertyOp10
 70
     1
102
RTVSPropertyOp11
 70
     1
102
RTVSPropertyOp12
 70
     1
102
RTVSPropertyOp13
 70
     1
102
RTVSPropertyOp14
 70
     1
102
RTVSPropertyOp15
 70
     1
102
RTVSPropertyOp16
 70
     1
102
RTVSPropertyOp17
 70
     1
102
RTVSPropertyOp18
 70
     1
102
RTVSPropertyOp19
 70
     1
102
RTVSPropertyOp20
 70
     1
102
RTVSPropertyOp21
 70
     1
102
RTVSPropertyOp22
 70
     1
102
RTVSPropertyOp23
 70
     1
102
RTVSPropertyOp24
 70
     1
102
RTVSPropertyOp25
 70
     1
102
RTVSPropertyOp26
 70
     1
102
RTVSPropertyOp27
 70
     1
102
RTVSPropertyOp28
 70
     1
102
RTVSPropertyOp29
 70
     1
102
RTVSPropertyOp30
 70
     1
102
RTVSPropertyOp31
 70
     1
102
RTVSPropertyOp32
 70
     1
  0
ENDSEC
  0
EOF
